  0
SECTION
  2
HEADER
  9
$ACADVER
  1
AC1018
  9
$ACADMAINTVER
 70
     0
  9
$DWGCODEPAGE
  3
ANSI_1252
  9
$INSBASE
 10
0.0
 20
0.0
 30
0.0
  9
$EXTMIN
 10
1.000000000000000E+20
 20
1.000000000000000E+20
 30
1.000000000000000E+20
  9
$EXTMAX
 10
-1.000000000000000E+20
 20
-1.000000000000000E+20
 30
-1.000000000000000E+20
  9
$LIMMIN
 10
0.0
 20
0.0
  9
$LIMMAX
 10
12.0
 20
9.0
  9
$ORTHOMODE
 70
     0
  9
$REGENMODE
 70
     1
  9
$FILLMODE
 70
     1
  9
$QTEXTMODE
 70
     0
  9
$MIRRTEXT
 70
     1
  9
$LTSCALE
 40
1.0
  9
$ATTMODE
 70
     1
  9
$TEXTSIZE
 40
0.2
  9
$TRACEWID
 40
0.05
  9
$TEXTSTYLE
  7
Standard
  9
$CLAYER
  8
0
  9
$CELTYPE
  6
ByLayer
  9
$CECOLOR
 62
   256
  9
$CELTSCALE
 40
1.0
  9
$DISPSILH
 70
     0
  9
$DIMSCALE
 40
1.0
  9
$DIMASZ
 40
0.18
  9
$DIMEXO
 40
0.0625
  9
$DIMDLI
 40
0.38
  9
$DIMRND
 40
0.0
  9
$DIMDLE
 40
0.0
  9
$DIMEXE
 40
0.18
  9
$DIMTP
 40
0.0
  9
$DIMTM
 40
0.0
  9
$DIMTXT
 40
0.18
  9
$DIMCEN
 40
0.09
  9
$DIMTSZ
 40
0.0
  9
$DIMTOL
 70
     0
  9
$DIMLIM
 70
     0
  9
$DIMTIH
 70
     1
  9
$DIMTOH
 70
     1
  9
$DIMSE1
 70
     0
  9
$DIMSE2
 70
     0
  9
$DIMTAD
 70
     0
  9
$DIMZIN
 70
     0
  9
$DIMBLK
  1

  9
$DIMASO
 70
     1
  9
$DIMSHO
 70
     1
  9
$DIMPOST
  1

  9
$DIMAPOST
  1

  9
$DIMALT
 70
     0
  9
$DIMALTD
 70
     2
  9
$DIMALTF
 40
25.4
  9
$DIMLFAC
 40
1.0
  9
$DIMTOFL
 70
     0
  9
$DIMTVP
 40
0.0
  9
$DIMTIX
 70
     0
  9
$DIMSOXD
 70
     0
  9
$DIMSAH
 70
     0
  9
$DIMBLK1
  1

  9
$DIMBLK2
  1

  9
$DIMSTYLE
  2
Standard
  9
$DIMCLRD
 70
     0
  9
$DIMCLRE
 70
     0
  9
$DIMCLRT
 70
     0
  9
$DIMTFAC
 40
1.0
  9
$DIMGAP
 40
0.09
  9
$DIMJUST
 70
     0
  9
$DIMSD1
 70
     0
  9
$DIMSD2
 70
     0
  9
$DIMTOLJ
 70
     1
  9
$DIMTZIN
 70
     0
  9
$DIMALTZ
 70
     0
  9
$DIMALTTZ
 70
     0
  9
$DIMUPT
 70
     0
  9
$DIMDEC
 70
     4
  9
$DIMTDEC
 70
     4
  9
$DIMALTU
 70
     2
  9
$DIMALTTD
 70
     2
  9
$DIMTXSTY
  7
Standard
  9
$DIMAUNIT
 70
     0
  9
$DIMADEC
 70
     0
  9
$DIMALTRND
 40
0.0
  9
$DIMAZIN
 70
     0
  9
$DIMDSEP
 70
    46
  9
$DIMATFIT
 70
     3
  9
$DIMFRAC
 70
     0
  9
$DIMLDRBLK
  1

  9
$DIMLUNIT
 70
     2
  9
$DIMLWD
 70
    -2
  9
$DIMLWE
 70
    -2
  9
$DIMTMOVE
 70
     0
  9
$LUNITS
 70
     2
  9
$LUPREC
 70
     4
  9
$SKETCHINC
 40
0.1
  9
$FILLETRAD
 40
0.5
  9
$AUNITS
 70
     0
  9
$AUPREC
 70
     0
  9
$MENU
  1
.
  9
$ELEVATION
 40
0.0
  9
$PELEVATION
 40
0.0
  9
$THICKNESS
 40
0.0
  9
$LIMCHECK
 70
     0
  9
$CHAMFERA
 40
0.5
  9
$CHAMFERB
 40
0.5
  9
$CHAMFERC
 40
1.0
  9
$CHAMFERD
 40
0.0
  9
$SKPOLY
 70
     0
  9
$TDCREATE
 40
2457126.434769121
  9
$TDUCREATE
 40
2457125.934769121
  9
$TDUPDATE
 40
2457126.434771435
  9
$TDUUPDATE
 40
2457125.934771435
  9
$TDINDWG
 40
0.0000000116
  9
$TDUSRTIMER
 40
0.0000000116
  9
$USRTIMER
 70
     1
  9
$ANGBASE
 50
0.0
  9
$ANGDIR
 70
     0
  9
$PDMODE
 70
     0
  9
$PDSIZE
 40
0.0
  9
$PLINEWID
 40
0.0
  9
$SPLFRAME
 70
     0
  9
$SPLINETYPE
 70
     6
  9
$SPLINESEGS
 70
     8
  9
$HANDSEED
  5
3DD
  9
$SURFTAB1
 70
     6
  9
$SURFTAB2
 70
     6
  9
$SURFTYPE
 70
     6
  9
$SURFU
 70
     6
  9
$SURFV
 70
     6
  9
$UCSBASE
  2

  9
$UCSNAME
  2

  9
$UCSORG
 10
0.0
 20
0.0
 30
0.0
  9
$UCSXDIR
 10
1.0
 20
0.0
 30
0.0
  9
$UCSYDIR
 10
0.0
 20
1.0
 30
0.0
  9
$UCSORTHOREF
  2

  9
$UCSORTHOVIEW
 70
     0
  9
$UCSORGTOP
 10
0.0
 20
0.0
 30
0.0
  9
$UCSORGBOTTOM
 10
0.0
 20
0.0
 30
0.0
  9
$UCSORGLEFT
 10
0.0
 20
0.0
 30
0.0
  9
$UCSORGRIGHT
 10
0.0
 20
0.0
 30
0.0
  9
$UCSORGFRONT
 10
0.0
 20
0.0
 30
0.0
  9
$UCSORGBACK
 10
0.0
 20
0.0
 30
0.0
  9
$PUCSBASE
  2

  9
$PUCSNAME
  2

  9
$PUCSORG
 10
0.0
 20
0.0
 30
0.0
  9
$PUCSXDIR
 10
1.0
 20
0.0
 30
0.0
  9
$PUCSYDIR
 10
0.0
 20
1.0
 30
0.0
  9
$PUCSORTHOREF
  2

  9
$PUCSORTHOVIEW
 70
     0
  9
$PUCSORGTOP
 10
0.0
 20
0.0
 30
0.0
  9
$PUCSORGBOTTOM
 10
0.0
 20
0.0
 30
0.0
  9
$PUCSORGLEFT
 10
0.0
 20
0.0
 30
0.0
  9
$PUCSORGRIGHT
 10
0.0
 20
0.0
 30
0.0
  9
$PUCSORGFRONT
 10
0.0
 20
0.0
 30
0.0
  9
$PUCSORGBACK
 10
0.0
 20
0.0
 30
0.0
  9
$USERI1
 70
     0
  9
$USERI2
 70
     0
  9
$USERI3
 70
     0
  9
$USERI4
 70
     0
  9
$USERI5
 70
     0
  9
$USERR1
 40
0.0
  9
$USERR2
 40
0.0
  9
$USERR3
 40
0.0
  9
$USERR4
 40
0.0
  9
$USERR5
 40
0.0
  9
$WORLDVIEW
 70
     1
  9
$SHADEDGE
 70
     3
  9
$SHADEDIF
 70
    70
  9
$TILEMODE
 70
     1
  9
$MAXACTVP
 70
    64
  9
$PINSBASE
 10
0.0
 20
0.0
 30
0.0
  9
$PLIMCHECK
 70
     0
  9
$PEXTMIN
 10
1.000000000000000E+20
 20
1.000000000000000E+20
 30
1.000000000000000E+20
  9
$PEXTMAX
 10
-1.000000000000000E+20
 20
-1.000000000000000E+20
 30
-1.000000000000000E+20
  9
$PLIMMIN
 10
0.0
 20
0.0
  9
$PLIMMAX
 10
12.0
 20
9.0
  9
$UNITMODE
 70
     0
  9
$VISRETAIN
 70
     1
  9
$PLINEGEN
 70
     0
  9
$PSLTSCALE
 70
     1
  9
$TREEDEPTH
 70
  3020
  9
$CMLSTYLE
  2
Standard
  9
$CMLJUST
 70
     0
  9
$CMLSCALE
 40
1.0
  9
$PROXYGRAPHICS
 70
     1
  9
$MEASUREMENT
 70
     0
  9
$CELWEIGHT
370
    -1
  9
$ENDCAPS
280
     0
  9
$JOINSTYLE
280
     0
  9
$LWDISPLAY
290
     1
  9
$INSUNITS
 70
     4
  9
$HYPERLINKBASE
  1

  9
$STYLESHEET
  1

  9
$XEDIT
290
     1
  9
$CEPSNTYPE
380
     0
  9
$PSTYLEMODE
290
     1
  9
$FINGERPRINTGUID
  2
{47446CE5-EB2E-4CB0-9BF0-48A0C8B45B5E}
  9
$VERSIONGUID
  2
{FAEB1C32-E019-11D5-929B-00C0DF256EC4}
  9
$EXTNAMES
290
     1
  9
$PSVPSCALE
 40
0.0
  9
$OLESTARTUP
290
     0
  9
$SORTENTS
280
   127
  9
$INDEXCTL
280
     0
  9
$HIDETEXT
280
     1
  9
$XCLIPFRAME
290
     0
  9
$HALOGAP
280
     0
  9
$OBSCOLOR
 70
   257
  9
$OBSLTYPE
280
     0
  9
$INTERSECTIONDISPLAY
280
     0
  9
$INTERSECTIONCOLOR
 70
   257
  9
$DIMASSOC
280
     2
  9
$PROJECTNAME
  1

  0
ENDSEC
  0
SECTION
  2
CLASSES
  0
CLASS
  1
ACDBDICTIONARYWDFLT
  2
AcDbDictionaryWithDefault
  3
ObjectDBX Classes
 90
        0
 91
        4
280
     0
281
     0
  0
CLASS
  1
VISUALSTYLE
  2
AcDbVisualStyle
  3
ObjectDBX Classes
 90
     4095
 91
        4
280
     0
281
     0
  0
CLASS
  1
MATERIAL
  2
AcDbMaterial
  3
ObjectDBX Classes
 90
     1153
 91
        4
280
     0
281
     0
  0
CLASS
  1
WIPEOUT
  2
AcDbWipeout
  3
WipeOut|AutoCAD Express Tool|expresstools@autodesk.com
 90
      127
 91
        4
280
     0
281
     1
  0
CLASS
  1
SCALE
  2
AcDbScale
  3
ObjectDBX Classes
 90
     1153
 91
        4
280
     0
281
     0
  0
CLASS
  1
DICTIONARYVAR
  2
AcDbDictionaryVar
  3
ObjectDBX Classes
 90
        0
 91
        4
280
     0
281
     0
  0
ENDSEC
  0
SECTION
  2
TABLES
  0
TABLE
  2
VPORT
  5
8
330
0
100
AcDbSymbolTable
 70
     1
  0
VPORT
  5
29
330
8
100
AcDbSymbolTableRecord
100
AcDbViewportTableRecord
  2
*Active
 70
     0
 10
0.0
 20
0.0
 11
1.0
 21
1.0
 12
471.2269154781595
 22
370.5042722733321
 13
0.0
 23
0.0
 14
0.5
 24
0.5
 15
0.5
 25
0.5
 16
0.0
 26
0.0
 36
1.0
 17
0.0
 27
0.0
 37
0.0
 40
852.7287152840905
 41
1.133819154485138
 42
50.0
 43
0.0
 44
0.0
 50
0.0
 51
0.0
 71
     0
 72
   100
 73
     1
 74
     3
 75
     0
 76
     0
 77
     0
 78
     0
281
     0
 65
     1
110
0.0
120
0.0
130
0.0
111
1.0
121
0.0
131
0.0
112
0.0
122
1.0
132
0.0
 79
     0
146
0.0
  0
ENDTAB
  0
TABLE
  2
LTYPE
  5
5
330
0
100
AcDbSymbolTable
 70
     3
  0
LTYPE
  5
14
330
5
100
AcDbSymbolTableRecord
100
AcDbLinetypeTableRecord
  2
ByBlock
 70
     0
  3

 72
    65
 73
     0
 40
0.0
  0
LTYPE
  5
15
330
5
100
AcDbSymbolTableRecord
100
AcDbLinetypeTableRecord
  2
ByLayer
 70
     0
  3

 72
    65
 73
     0
 40
0.0
  0
LTYPE
  5
16
330
5
100
AcDbSymbolTableRecord
100
AcDbLinetypeTableRecord
  2
Continuous
 70
     0
  3
Solid line
 72
    65
 73
     0
 40
0.0
  0
LTYPE
  5
2E9
330
5
100
AcDbSymbolTableRecord
100
AcDbLinetypeTableRecord
  2
Above
 70
     0
  3
- - - - - 
 72
    65
 73
     2
 40
15.0
 49
10.0
 74
     0
 49
-4.999999999999999
 74
     0
  0
LTYPE
  5
366
330
5
100
AcDbSymbolTableRecord
100
AcDbLinetypeTableRecord
  2
Wipeout_Contour
 70
     0
  3
- - - - - 
 72
    65
 73
     2
 40
1000.0
 49
0.0
 74
     0
 49
-1000.0
 74
     0
  0
ENDTAB
  0
TABLE
  2
LAYER
  5
2
330
0
100
AcDbSymbolTable
 70
     4
  0
LAYER
  5
10
330
2
100
AcDbSymbolTableRecord
100
AcDbLayerTableRecord
  2
0
 70
     0
 62
     7
  6
Continuous
370
    -3
390
F
  0
LAYER
  5
40
330
2
100
AcDbSymbolTableRecord
100
AcDbLayerTableRecord
  2
0_Pen_No__146
 70
     0
 62
     9
420
 13290186
  6
Continuous
370
     5
390
F
  0
LAYER
  5
4C
330
2
100
AcDbSymbolTableRecord
100
AcDbLayerTableRecord
  2
0_Pen_No__1
 70
     0
 62
     7
  6
Continuous
370
    13
390
F
  0
LAYER
  5
367
330
2
100
AcDbSymbolTableRecord
100
AcDbLayerTableRecord
  2
Key_ Sections_Pen_No__1
 70
     0
 62
     7
  6
Continuous
370
    13
390
F
  0
ENDTAB
  0
TABLE
  2
STYLE
  5
3
330
0
100
AcDbSymbolTable
 70
     2
  0
STYLE
  5
11
330
3
100
AcDbSymbolTableRecord
100
AcDbTextStyleTableRecord
  2
Standard
 70
     0
 40
0.0
 41
1.0
 50
0.0
 71
     0
 42
0.2
  3
txt
  4

  0
STYLE
  5
35C
330
3
100
AcDbSymbolTableRecord
100
AcDbTextStyleTableRecord
  2
GENERATED_STYLE_1
 70
     0
 40
0.0
 41
1.0
 50
0.0
 71
     0
 42
0.2
  3

  4

1001
ACAD
1000
Arial
1071
       34
  0
ENDTAB
  0
TABLE
  2
VIEW
  5
6
330
0
100
AcDbSymbolTable
 70
     0
  0
ENDTAB
  0
TABLE
  2
UCS
  5
7
330
0
100
AcDbSymbolTable
 70
     0
  0
ENDTAB
  0
TABLE
  2
APPID
  5
9
330
0
100
AcDbSymbolTable
 70
     1
  0
APPID
  5
12
330
9
100
AcDbSymbolTableRecord
100
AcDbRegAppTableRecord
  2
ACAD
 70
     0
  0
ENDTAB
  0
TABLE
  2
DIMSTYLE
  5
A
330
0
100
AcDbSymbolTable
 70
     3
100
AcDbDimStyleTable
  0
DIMSTYLE
105
27
330
A
100
AcDbSymbolTableRecord
100
AcDbDimStyleTableRecord
  2
Standard
 70
     0
178
     0
340
11
  0
DIMSTYLE
105
35F
102
{ACAD_REACTORS
330
35E
102
}
330
A
100
AcDbSymbolTableRecord
100
AcDbDimStyleTableRecord
  2
GENERATED_STYLE__1
 70
     0
 41
10.23882825346851
 42
0.0
 73
     0
 74
     0
 75
     1
 76
     1
 77
     1
140
12.5
172
     1
176
     7
177
     7
271
     0
178
     7
271
     0
279
     2
288
     1
340
35C
342
360
343
360
344
360
  0
DIMSTYLE
105
36A
330
A
100
AcDbSymbolTableRecord
100
AcDbDimStyleTableRecord
  2
GENERATED_STYLE__2
 70
     0
 41
9.12
172
     1
178
     0
340
0
341
36B
  0
ENDTAB
  0
TABLE
  2
BLOCK_RECORD
  5
1
330
0
100
AcDbSymbolTable
 70
     5
  0
BLOCK_RECORD
  5
1F
330
1
100
AcDbSymbolTableRecord
100
AcDbBlockTableRecord
  2
*Model_Space
340
22
  0
BLOCK_RECORD
  5
1B
330
1
100
AcDbSymbolTableRecord
100
AcDbBlockTableRecord
  2
*Paper_Space
340
1E
  0
BLOCK_RECORD
  5
23
330
1
100
AcDbSymbolTableRecord
100
AcDbBlockTableRecord
  2
*Paper_Space0
340
26
  0
BLOCK_RECORD
  5
354
330
1
100
AcDbSymbolTableRecord
100
AcDbBlockTableRecord
  2
*D1
340
0
  0
BLOCK_RECORD
  5
360
330
1
100
AcDbSymbolTableRecord
100
AcDbBlockTableRecord
  2
ARROWHEAD_2
340
0
  0
BLOCK_RECORD
  5
36B
330
1
100
AcDbSymbolTableRecord
100
AcDbBlockTableRecord
  2
ARROWHEAD_5
340
0
  0
BLOCK_RECORD
  5
38B
330
1
100
AcDbSymbolTableRecord
100
AcDbBlockTableRecord
  2
DF-19-R Gutter   Wall Junction_STORY_MARKER
340
0
  0
ENDTAB
  0
ENDSEC
  0
SECTION
  2
BLOCKS
  0
BLOCK
  5
20
330
1F
100
AcDbEntity
  8
0
100
AcDbBlockBegin
  2
*Model_Space
 70
     0
 10
0.0
 20
0.0
 30
0.0
  3
*Model_Space
  1

  0
ENDBLK
  5
21
330
1F
100
AcDbEntity
  8
0
100
AcDbBlockEnd
  0
BLOCK
  5
1C
330
1B
100
AcDbEntity
 67
     1
  8
0
100
AcDbBlockBegin
  2
*Paper_Space
 70
     0
 10
0.0
 20
0.0
 30
0.0
  3
*Paper_Space
  1

  0
ENDBLK
  5
1D
330
1B
100
AcDbEntity
 67
     1
  8
0
100
AcDbBlockEnd
  0
BLOCK
  5
24
330
23
100
AcDbEntity
  8
0
100
AcDbBlockBegin
  2
*Paper_Space0
 70
     0
 10
0.0
 20
0.0
 30
0.0
  3
*Paper_Space0
  1

  0
ENDBLK
  5
25
330
23
100
AcDbEntity
  8
0
100
AcDbBlockEnd
  0
BLOCK
  5
355
330
354
100
AcDbEntity
  8
0
100
AcDbBlockBegin
  2
*D1
 70
     1
 10
0.0
 20
0.0
 30
0.0
  3
*D1
  1

  0
LINE
  5
357
330
354
100
AcDbEntity
  8
0_Pen_No__1
  6
Continuous
100
AcDbLine
 10
38.43494283539422
 20
100.4812364542876
 30
0.0
 11
44.14021223330273
 21
97.18729761721167
 31
0.0
  0
LINE
  5
358
330
354
100
AcDbEntity
  8
0_Pen_No__1
  6
Continuous
100
AcDbLine
 10
44.14021223330273
 20
97.18729761721167
 30
0.0
 11
52.80046626168607
 21
92.18729760082465
 31
0.0
  0
LINE
  5
359
330
354
100
AcDbEntity
  8
0_Pen_No__1
  6
Continuous
100
AcDbLine
 10
50.87628188970189
 20
101.0763710428995
 30
0.0
 11
37.40414257690357
 21
93.2982241915238
 31
0.0
  0
LINE
  5
35A
330
354
100
AcDbEntity
  8
0_Pen_No__1
  6
Continuous
100
AcDbLine
 10
46.06439660528691
 20
88.2982241751368
 30
0.0
 11
59.53653591808522
 21
96.07637102651252
 31
0.0
  0
LINE
  5
35B
330
354
100
AcDbEntity
  8
0_Pen_No__1
  6
Continuous
100
AcDbLine
 10
52.80046626168607
 20
92.18729760082465
 30
0.0
 11
58.50573565959457
 21
88.89335876374875
 31
0.0
  0
MTEXT
  5
35D
330
354
100
AcDbEntity
  8
0_Pen_No__1
100
AcDbMText
 10
15.2326042024403
 20
88.40871386397883
 30
0.0
 40
12.5
 41
0.0
 71
     7
 72
     1
  1
{10mm min}
  7
GENERATED_STYLE_1
 11
0.8660254028383338
 21
-0.5000000016387015
 31
0.0
 73
     1
 44
1.0
  0
ENDBLK
  5
356
330
354
100
AcDbEntity
  8
0
100
AcDbBlockEnd
  0
BLOCK
  5
361
330
360
100
AcDbEntity
  8
0
100
AcDbBlockBegin
  2
ARROWHEAD_2
 70
     0
 10
0.0
 20
0.0
 30
0.0
  3
ARROWHEAD_2
  1

  0
LINE
  5
363
330
360
100
AcDbEntity
  8
0
  6
Continuous
 62
     0
370
     0
100
AcDbLine
 10
-0.3781315
 20
-0.655
 30
0.0
 11
0.3781315
 21
0.655
 31
0.0
  0
LINE
  5
364
330
360
100
AcDbEntity
  8
0
  6
Continuous
 62
     0
370
     0
100
AcDbLine
 10
0.0
 20
0.0
 30
0.0
 11
-1.0
 21
0.0
 31
0.0
  0
ENDBLK
  5
362
330
360
100
AcDbEntity
  8
0
100
AcDbBlockEnd
  0
BLOCK
  5
36C
330
36B
100
AcDbEntity
  8
0
100
AcDbBlockBegin
  2
ARROWHEAD_5
 70
     0
 10
0.0
 20
0.0
 30
0.0
  3
ARROWHEAD_5
  1

  0
SOLID
  5
36E
330
36B
100
AcDbEntity
  8
0
  6
Continuous
 62
     0
370
     0
100
AcDbTrace
 10
-1.0
 20
0.2679
 30
0.0
 11
0.0
 21
0.0
 31
0.0
 12
-1.0
 22
-0.2679
 32
0.0
 13
-1.0
 23
0.2679
 33
0.0
  0
LINE
  5
36F
330
36B
100
AcDbEntity
  8
0
  6
Continuous
 62
     0
370
     0
100
AcDbLine
 10
0.0
 20
0.0
 30
0.0
 11
-1.0
 21
0.0
 31
0.0
  0
ENDBLK
  5
36D
330
36B
100
AcDbEntity
  8
0
100
AcDbBlockEnd
  0
BLOCK
  5
38C
330
38B
100
AcDbEntity
  8
0
100
AcDbBlockBegin
  2
DF-19-R Gutter   Wall Junction_STORY_MARKER
 70
     0
 10
0.0
 20
0.0
 30
0.0
  3
DF-19-R Gutter   Wall Junction_STORY_MARKER
  1

  0
ENDBLK
  5
38D
330
38B
100
AcDbEntity
  8
0
100
AcDbBlockEnd
  0
ENDSEC
  0
SECTION
  2
ENTITIES
  0
HATCH
  5
3F
330
1F
100
AcDbEntity
  8
0_Pen_No__146
  6
Continuous
 62
   250
420
  3289650
370
     0
100
AcDbHatch
 10
0.0
 20
0.0
 30
0.0
210
0.0
220
0.0
230
1.0
  2
SOLID
 70
     1
 71
     0
 91
        1
 92
        3
 72
     0
 73
     1
 93
       48
 10
3.89721079370397
 20
276.6220649049733
 10
3.89721079370397
 20
279.8840172109738
 10
16.8875917937018
 20
272.3840172109742
 10
16.8875917937018
 20
371.7290888489721
 10
13.66864494192865
 20
375.9161362484735
 10
10.34220129914176
 20
381.3875121234705
 10
7.600284297346709
 20
387.134456639473
 10
5.526205696937064
 20
392.9823517949713
 10
4.182985327958127
 20
398.7535122549697
 10
3.89721079370397
 20
401.5130482419669
 10
3.89721079370397
 20
427.4927127649654
 10
8.821733609058242
 20
424.649538179469
 10
8.821733609058242
 20
431.3859142634686
 10
6.191412153600744
 20
432.904531070466
 10
6.191412153600744
 20
430.9835024704677
 10
-2.164967006294988
 20
435.8080602489695
 10
-2.164967006294988
 20
412.0130482419699
 10
-2.422022810668063
 20
408.8177611194687
 10
-1.922648229714225
 20
401.8405615644687
 10
-0.4249607021148464
 20
394.4887353784714
 10
2.02553329488852
 20
386.9856640794729
 10
5.354376739957194
 20
379.5593246919719
 10
9.460424410928976
 20
372.4353627804713
 10
10.82541399370307
 20
370.5741604869704
 10
10.8254139937004
 20
282.8840172109757
 10
-2.164967006294988
 20
290.3840172109742
 10
-2.714334996647311
 20
286.7464831624744
 10
-2.606930064947283
 20
278.6749018409756
 10
-1.296647664359335
 20
270.0520582079722
 10
1.176699936679898
 20
261.1399530024767
 10
4.737961324676625
 20
252.2093760324757
 10
9.278929372934392
 20
243.5316783589758
 10
10.82541399369885
 20
241.2290888489801
 10
10.82541399369729
 20
179.2290888489798
 10
-1.298941606295295
 20
186.229088848975
 10
-1.298941606294851
 20
173.4289292869771
 10
4.763236193703662
 20
169.9289292869783
 10
4.763236193703662
 20
175.7290888489782
 10
10.82541399369729
 20
172.2290888489828
 10
10.8254139936964
 20
152.2290888489832
 10
4.763236193703662
 20
155.7290888489786
 10
4.763236193703662
 20
148.7290888489807
 10
16.8875917937018
 20
141.7290888489817
 10
16.8875917937018
 20
242.3840172109768
 10
13.2250679098419
 20
247.9782365614758
 10
9.599217284034562
 20
255.0847110194769
 10
6.782338453831132
 20
262.374990585476
 10
4.860020857603169
 20
269.6275638029737
 97
        0
 75
     0
 76
     1
 98
        0
  0
HATCH
  5
41
330
1F
100
AcDbEntity
  8
0_Pen_No__146
  6
Continuous
 62
   250
420
  3289650
370
     0
100
AcDbHatch
 10
0.0
 20
0.0
 30
0.0
210
0.0
220
0.0
230
1.0
  2
SOLID
 70
     1
 71
     0
 91
        1
 92
        3
 72
     0
 73
     1
 93
       48
 10
3.89721079370397
 20
542.0019693103924
 10
3.89721079370397
 20
545.2639216163928
 10
16.88759179370202
 20
537.7639216163934
 10
16.88759179370202
 20
637.1089932543916
 10
13.66864494192932
 20
641.2960406538928
 10
10.34220129914176
 20
646.7674165288888
 10
7.600284297346709
 20
652.5143610448922
 10
5.526205696937064
 20
658.3622562003906
 10
4.182985327958127
 20
664.1334166603879
 10
3.89721079370397
 20
666.8929526473856
 10
3.89721079370397
 20
692.8726171703847
 10
8.821733609058242
 20
690.0294425848879
 10
8.821733609058242
 20
696.7658186688874
 10
6.191412153601188
 20
698.2844354758848
 10
6.191412153601188
 20
696.3634068758869
 10
-2.164967006294544
 20
701.1879646543883
 10
-2.164967006294544
 20
677.3929526473892
 10
-2.422022810668063
 20
674.1976655248876
 10
-1.922648229714225
 20
667.2204659698873
 10
-0.4249607021148464
 20
659.8686397838898
 10
2.02553329488852
 20
652.3655684848922
 10
5.354376739957194
 20
644.9392290973901
 10
9.46042441092942
 20
637.8152671858896
 10
10.82541399370307
 20
635.9540648923894
 10
10.8254139937004
 20
548.2639216163947
 10
-2.164967006294988
 20
555.7639216163932
 10
-2.714334996646867
 20
552.1263875678932
 10
-2.606930064947283
 20
544.0548062463946
 10
-1.296647664358891
 20
535.4319626133912
 10
1.176699936679898
 20
526.5198574078958
 10
4.737961324676625
 20
517.5892804378946
 10
9.278929372934392
 20
508.9115827643948
 10
10.82541399369885
 20
506.6089932543991
 10
10.82541399369729
 20
444.6089932543988
 10
-1.298941606294851
 20
451.608993254394
 10
-1.298941606294851
 20
438.8088336923963
 10
4.763236193704106
 20
435.3088336923973
 10
4.763236193704106
 20
441.1089932543971
 10
10.82541399369729
 20
437.6089932544016
 10
10.8254139936964
 20
417.6089932544022
 10
4.763236193704106
 20
421.1089932543976
 10
4.763236193704106
 20
414.1089932543997
 10
16.8875917937018
 20
407.1089932544009
 10
16.88759179370202
 20
507.7639216163958
 10
13.2250679098419
 20
513.3581409668948
 10
9.599217284034562
 20
520.4646154248958
 10
6.782338453831132
 20
527.754894990895
 10
4.860020857603613
 20
535.0074682083925
 97
        0
 75
     0
 76
     1
 98
        0
  0
HATCH
  5
42
330
1F
100
AcDbEntity
  8
0_Pen_No__146
  6
Continuous
 62
   250
420
  3289650
370
     0
100
AcDbHatch
 10
0.0
 20
0.0
 30
0.0
210
0.0
220
0.0
230
1.0
  2
SOLID
 70
     1
 71
     0
 91
        1
 92
        3
 72
     0
 73
     1
 93
       32
 10
3.89721079370397
 20
11.24216049955429
 10
3.89721079370397
 20
14.50411280555475
 10
16.8875917937018
 20
7.004112805555351
 10
16.8875917937018
 20
106.3491844435534
 10
13.66864494192865
 20
110.5362318430545
 10
10.34220129914176
 20
116.0076077180514
 10
7.600284297346709
 20
121.7545522340537
 10
5.526205696937064
 20
127.6024473895523
 10
4.182985327958127
 20
133.3736078495507
 10
3.89721079370397
 20
136.1331438365478
 10
3.89721079370397
 20
162.1128083595467
 10
8.821733609058242
 20
159.26963377405
 10
8.821733609058242
 20
166.0060098580496
 10
6.191412153600744
 20
167.524626665047
 10
6.191412153600744
 20
165.6035980650485
 10
-2.164967006294988
 20
170.4281558435505
 10
-2.164967006294988
 20
146.6331438365509
 10
-2.422022810668063
 20
143.4378567140497
 10
-1.922648229714225
 20
136.4606571590496
 10
-0.4249607021148464
 20
129.1088309730524
 10
2.02553329488852
 20
121.6057596740539
 10
5.354376739957194
 20
114.1794202865529
 10
9.460424410928976
 20
107.0554583750523
 10
10.82541399370307
 20
105.1942560815513
 10
10.8254139937004
 20
17.50411280555664
 10
-2.164967006294988
 20
25.00411280555537
 10
-2.714334996647311
 20
21.36657875705539
 10
-2.606930064947283
 20
13.29499743555651
 10
-1.296647664359335
 20
4.672153802553147
 10
0.0000000000001051
 20
0.0
 10
5.985876489505209
 20
0.0
 10
4.860020857603169
 20
4.247659397554671
 97
        0
 75
     0
 76
     1
 98
        0
  0
HATCH
  5
43
330
1F
100
AcDbEntity
  8
0_Pen_No__146
  6
Continuous
 62
   250
420
  3289650
370
     0
100
AcDbHatch
 10
0.0
 20
0.0
 30
0.0
210
0.0
220
0.0
230
1.0
  2
SOLID
 70
     1
 71
     0
 91
        1
 92
        3
 72
     0
 73
     1
 93
        4
 10
317.4853092713332
 20
322.2792629790917
 10
323.547487071339
 20
318.7792629790887
 10
323.547487071339
 20
357.9537688302107
 10
317.4853092713346
 20
361.4537688302134
 97
        0
 75
     0
 76
     1
 98
        0
  0
HATCH
  5
44
330
1F
100
AcDbEntity
  8
0_Pen_No__146
  6
Continuous
 62
   250
420
  3289650
370
     0
100
AcDbHatch
 10
0.0
 20
0.0
 30
0.0
210
0.0
220
0.0
230
1.0
  2
SOLID
 70
     1
 71
     0
 91
        1
 92
        3
 72
     0
 73
     1
 93
        4
 10
323.5474870713395
 20
357.9537688302103
 10
324.6207088478425
 20
368.99262138853
 10
318.5585310478396
 20
372.4926213885321
 10
317.4853092713348
 20
361.4537688302134
 97
        0
 75
     0
 76
     1
 98
        0
  0
HATCH
  5
45
330
1F
100
AcDbEntity
  8
0_Pen_No__146
  6
Continuous
 62
   250
420
  3289650
370
     0
100
AcDbHatch
 10
0.0
 20
0.0
 30
0.0
210
0.0
220
0.0
230
1.0
  2
SOLID
 70
     1
 71
     0
 91
        1
 92
        3
 72
     0
 73
     1
 93
        4
 10
324.6207088478423
 20
368.99262138853
 10
309.0060874680567
 20
393.5626868741174
 10
302.9439096680544
 20
397.0626868741193
 10
318.5585310478401
 20
372.4926213885319
 97
        0
 75
     0
 76
     1
 98
        0
  0
HATCH
  5
46
330
1F
100
AcDbEntity
  8
0_Pen_No__146
  6
Continuous
 62
   250
420
  3289650
370
     0
100
AcDbHatch
 10
0.0
 20
0.0
 30
0.0
210
0.0
220
0.0
230
1.0
  2
SOLID
 70
     1
 71
     0
 91
        1
 92
        3
 72
     0
 73
     1
 93
        4
 10
300.1094756752447
 20
409.5513179472877
 10
302.9439096680539
 20
397.0626868741193
 10
309.0060874680573
 20
393.5626868741177
 10
306.1716534752479
 20
406.0513179472858
 97
        0
 75
     0
 76
     1
 98
        0
  0
HATCH
  5
47
330
1F
100
AcDbEntity
  8
0_Pen_No__146
  6
Continuous
 62
   250
420
  3289650
370
     0
100
AcDbHatch
 10
0.0
 20
0.0
 30
0.0
210
0.0
220
0.0
230
1.0
  2
SOLID
 70
     1
 71
     0
 91
        1
 92
        3
 72
     0
 73
     1
 93
       20
 10
300.2705872164382
 20
408.8414539657329
 10
300.1094756752447
 20
409.5513179472879
 10
306.1716534752479
 20
406.0513179472863
 10
305.4992335759954
 20
409.0140272816088
 10
301.8367096921353
 20
414.6082466321097
 10
298.2108590663299
 20
421.714721090106
 10
295.3939802361243
 20
429.0050006561102
 10
293.4716626398967
 20
436.2575738736059
 10
292.5088525759978
 20
443.2520749756071
 10
292.5088525759978
 20
446.5140272816064
 10
305.4992335759954
 20
439.0140272816071
 10
301.15899886096
 20
450.4806972662441
 10
295.0968210609566
 20
453.9806972662462
 10
296.0465631038656
 20
451.4715291471015
 10
286.4466747759986
 20
457.0140272816071
 10
285.8973067856465
 20
453.3764932331075
 10
286.0047117173463
 20
445.3049119116067
 10
287.3149941179345
 20
436.6820682786033
 10
289.7883417189726
 20
427.7699630731103
 10
293.3496031069702
 20
418.8393861031088
 97
        0
 75
     0
 76
     1
 98
        0
  0
HATCH
  5
48
330
1F
100
AcDbEntity
  8
0_Pen_No__146
  6
Continuous
 62
   250
420
  3289650
370
     0
100
AcDbHatch
 10
0.0
 20
0.0
 30
0.0
210
0.0
220
0.0
230
1.0
  2
SOLID
 70
     1
 71
     0
 91
        1
 92
        3
 72
     0
 73
     1
 93
        4
 10
287.2681834127158
 20
487.1794951470868
 10
281.2060056127128
 20
490.6794951470886
 10
295.0968210609566
 20
453.9806972662462
 10
301.15899886096
 20
450.4806972662441
 97
        0
 75
     0
 76
     1
 98
        0
  0
HATCH
  5
49
330
1F
100
AcDbEntity
  8
0_Pen_No__146
  6
Continuous
 62
   250
420
  3289650
370
     0
100
AcDbHatch
 10
0.0
 20
0.0
 30
0.0
210
0.0
220
0.0
230
1.0
  2
SOLID
 70
     1
 71
     0
 91
        1
 92
        3
 72
     0
 73
     1
 93
        4
 10
281.2060056127128
 20
490.6794951470886
 10
287.2681834127158
 20
487.1794951470868
 10
287.6420771562766
 20
521.2038258111165
 10
281.5798993562737
 20
524.7038258111186
 97
        0
 75
     0
 76
     1
 98
        0
  0
HATCH
  5
4A
330
1F
100
AcDbEntity
  8
0_Pen_No__146
  6
Continuous
 62
   250
420
  3289650
370
     0
100
AcDbHatch
 10
0.0
 20
0.0
 30
0.0
210
0.0
220
0.0
230
1.0
  2
SOLID
 70
     1
 71
     0
 91
        1
 92
        3
 72
     0
 73
     1
 93
       18
 10
277.9567099611644
 20
535.5460983423637
 10
274.3308593353564
 20
542.6525728003631
 10
271.5139805051534
 20
549.9428523663609
 10
269.591662908925
 20
557.1954255838597
 10
268.6288528450262
 20
564.1899266858593
 10
268.6288528450265
 20
567.4518789918595
 10
281.6192338450236
 20
559.9518789918608
 10
262.0722358420455
 20
574.6780453005204
 10
262.0173070546747
 20
574.3143449433607
 10
262.1247119863746
 20
566.2427636218611
 10
263.434994386963
 20
557.6199199888578
 10
265.9083419880008
 20
548.7078147833636
 10
269.4696033759991
 20
539.7772378133619
 10
276.3905874854664
 20
529.7793056759845
 10
281.5798993562739
 20
524.7038258111186
 10
287.6420771562769
 20
521.2038258111163
 10
284.9860784460196
 20
526.5158232316306
 10
281.619233845025
 20
529.9518789918624
 97
        0
 75
     0
 76
     1
 98
        0
  0
LWPOLYLINE
  5
4B
330
1F
100
AcDbEntity
  8
0_Pen_No__1
  6
Continuous
100
AcDbPolyline
 90
        2
 70
   128
 43
0.0
 10
292.5088525759978
 20
443.252074975606
 10
292.5088525759978
 20
446.5140272816064
  0
LWPOLYLINE
  5
4D
330
1F
100
AcDbEntity
  8
0_Pen_No__1
  6
Continuous
100
AcDbPolyline
 90
        2
 70
   128
 43
0.0
 10
292.5088525759978
 20
446.5140272816064
 10
305.4992335759954
 20
439.0140272816071
  0
LWPOLYLINE
  5
4E
330
1F
100
AcDbEntity
  8
0_Pen_No__1
  6
Continuous
100
AcDbPolyline
 90
        2
 70
   128
 43
0.0
 10
286.4466747759986
 20
457.0140272816071
 10
285.8973067856463
 20
453.3764932331069
  0
LWPOLYLINE
  5
4F
330
1F
100
AcDbEntity
  8
0_Pen_No__1
  6
Continuous
100
AcDbPolyline
 90
        2
 70
   128
 43
0.0
 10
285.8973067856463
 20
453.3764932331069
 10
286.0047117173463
 20
445.3049119116082
  0
LWPOLYLINE
  5
50
330
1F
100
AcDbEntity
  8
0_Pen_No__1
  6
Continuous
100
AcDbPolyline
 90
        2
 70
   128
 43
0.0
 10
286.0047117173463
 20
445.3049119116082
 10
287.3149941179342
 20
436.6820682786048
  0
LWPOLYLINE
  5
51
330
1F
100
AcDbEntity
  8
0_Pen_No__1
  6
Continuous
100
AcDbPolyline
 90
        2
 70
   128
 43
0.0
 10
287.3149941179342
 20
436.6820682786048
 10
289.7883417189735
 20
427.7699630731094
  0
LWPOLYLINE
  5
52
330
1F
100
AcDbEntity
  8
0_Pen_No__1
  6
Continuous
100
AcDbPolyline
 90
        2
 70
   128
 43
0.0
 10
289.7883417189735
 20
427.7699630731094
 10
293.3496031069704
 20
418.8393861031084
  0
LWPOLYLINE
  5
53
330
1F
100
AcDbEntity
  8
0_Pen_No__1
  6
Continuous
100
AcDbPolyline
 90
        2
 70
   128
 43
0.0
 10
305.4992335759954
 20
409.0140272816095
 10
301.8367096921357
 20
414.6082466321084
  0
LWPOLYLINE
  5
54
330
1F
100
AcDbEntity
  8
0_Pen_No__1
  6
Continuous
100
AcDbPolyline
 90
        2
 70
   128
 43
0.0
 10
301.8367096921357
 20
414.6082466321084
 10
298.2108590663282
 20
421.7147210901096
  0
LWPOLYLINE
  5
55
330
1F
100
AcDbEntity
  8
0_Pen_No__1
  6
Continuous
100
AcDbPolyline
 90
        2
 70
   128
 43
0.0
 10
298.2108590663282
 20
421.7147210901096
 10
295.3939802361247
 20
429.0050006561086
  0
LWPOLYLINE
  5
56
330
1F
100
AcDbEntity
  8
0_Pen_No__1
  6
Continuous
100
AcDbPolyline
 90
        2
 70
   128
 43
0.0
 10
295.3939802361247
 20
429.0050006561086
 10
293.4716626398967
 20
436.2575738736064
  0
LWPOLYLINE
  5
57
330
1F
100
AcDbEntity
  8
0_Pen_No__1
  6
Continuous
100
AcDbPolyline
 90
        2
 70
   128
 43
0.0
 10
293.4716626398967
 20
436.2575738736064
 10
292.5088525759978
 20
443.252074975606
  0
LWPOLYLINE
  5
58
330
1F
100
AcDbEntity
  8
0_Pen_No__1
  6
Continuous
100
AcDbPolyline
 90
        2
 70
   128
 43
0.0
 10
296.0465631038658
 20
451.4715291471015
 10
286.4466747759986
 20
457.0140272816071
  0
LWPOLYLINE
  5
59
330
1F
100
AcDbEntity
  8
0_Pen_No__1
  6
Continuous
100
AcDbPolyline
 90
        2
 70
   128
 43
0.0
 10
262.0722358420455
 20
574.6780453005206
 10
262.0173070546747
 20
574.3143449433604
  0
LWPOLYLINE
  5
5A
330
1F
100
AcDbEntity
  8
0_Pen_No__1
  6
Continuous
100
AcDbPolyline
 90
        2
 70
   128
 43
0.0
 10
323.547487071339
 20
318.7792629790887
 10
323.547487071339
 20
357.9537688302109
  0
LWPOLYLINE
  5
5B
330
1F
100
AcDbEntity
  8
0_Pen_No__1
  6
Continuous
100
AcDbPolyline
 90
        2
 70
   128
 43
0.0
 10
293.3496031069704
 20
418.8393861031084
 10
300.2705872164382
 20
408.8414539657324
  0
LWPOLYLINE
  5
5C
330
1F
100
AcDbEntity
  8
0_Pen_No__1
  6
Continuous
100
AcDbPolyline
 90
        2
 70
   128
 43
0.0
 10
268.6288528450262
 20
564.1899266858591
 10
268.6288528450262
 20
567.4518789918595
  0
LWPOLYLINE
  5
5D
330
1F
100
AcDbEntity
  8
0_Pen_No__1
  6
Continuous
100
AcDbPolyline
 90
        2
 70
   128
 43
0.0
 10
268.6288528450262
 20
567.4518789918595
 10
281.6192338450239
 20
559.9518789918604
  0
LWPOLYLINE
  5
5E
330
1F
100
AcDbEntity
  8
0_Pen_No__1
  6
Continuous
100
AcDbPolyline
 90
        2
 70
   128
 43
0.0
 10
262.0173070546747
 20
574.3143449433604
 10
262.1247119863748
 20
566.2427636218613
  0
LWPOLYLINE
  5
5F
330
1F
100
AcDbEntity
  8
0_Pen_No__1
  6
Continuous
100
AcDbPolyline
 90
        2
 70
   128
 43
0.0
 10
262.1247119863748
 20
566.2427636218613
 10
263.4349943869627
 20
557.6199199888582
  0
LWPOLYLINE
  5
60
330
1F
100
AcDbEntity
  8
0_Pen_No__1
  6
Continuous
100
AcDbPolyline
 90
        2
 70
   128
 43
0.0
 10
263.4349943869627
 20
557.6199199888582
 10
265.908341988002
 20
548.7078147833628
  0
LWPOLYLINE
  5
61
330
1F
100
AcDbEntity
  8
0_Pen_No__1
  6
Continuous
100
AcDbPolyline
 90
        2
 70
   128
 43
0.0
 10
265.908341988002
 20
548.7078147833628
 10
269.4696033759989
 20
539.7772378133617
  0
LWPOLYLINE
  5
62
330
1F
100
AcDbEntity
  8
0_Pen_No__1
  6
Continuous
100
AcDbPolyline
 90
        2
 70
   128
 43
0.0
 10
281.6192338450239
 20
529.9518789918628
 10
277.9567099611642
 20
535.5460983423618
  0
LWPOLYLINE
  5
63
330
1F
100
AcDbEntity
  8
0_Pen_No__1
  6
Continuous
100
AcDbPolyline
 90
        2
 70
   128
 43
0.0
 10
277.9567099611642
 20
535.5460983423618
 10
274.3308593353564
 20
542.6525728003629
  0
LWPOLYLINE
  5
64
330
1F
100
AcDbEntity
  8
0_Pen_No__1
  6
Continuous
100
AcDbPolyline
 90
        2
 70
   128
 43
0.0
 10
274.3308593353564
 20
542.6525728003629
 10
271.5139805051532
 20
549.942852366362
  0
LWPOLYLINE
  5
65
330
1F
100
AcDbEntity
  8
0_Pen_No__1
  6
Continuous
100
AcDbPolyline
 90
        2
 70
   128
 43
0.0
 10
271.5139805051532
 20
549.942852366362
 10
269.5916629089252
 20
557.1954255838597
  0
LWPOLYLINE
  5
66
330
1F
100
AcDbEntity
  8
0_Pen_No__1
  6
Continuous
100
AcDbPolyline
 90
        2
 70
   128
 43
0.0
 10
269.5916629089252
 20
557.1954255838597
 10
268.6288528450262
 20
564.1899266858591
  0
LWPOLYLINE
  5
67
330
1F
100
AcDbEntity
  8
0_Pen_No__1
  6
Continuous
100
AcDbPolyline
 90
        2
 70
   128
 43
0.0
 10
269.4696033759989
 20
539.7772378133617
 10
276.3905874854664
 20
529.7793056759857
  0
LWPOLYLINE
  5
68
330
1F
100
AcDbEntity
  8
0_Pen_No__1
  6
Continuous
100
AcDbPolyline
 90
        2
 70
   128
 43
0.0
 10
317.4853092713346
 20
349.2792629790896
 10
317.4853092713332
 20
322.2792629790917
  0
LWPOLYLINE
  5
69
330
1F
100
AcDbEntity
  8
0_Pen_No__1
  6
Continuous
100
AcDbPolyline
 90
        2
 70
   128
 43
0.0
 10
317.4853092713332
 20
322.2792629790917
 10
323.547487071339
 20
318.7792629790887
  0
LWPOLYLINE
  5
6A
330
1F
100
AcDbEntity
  8
0_Pen_No__1
  6
Continuous
100
AcDbPolyline
 90
        2
 70
   128
 43
0.0
 10
317.4853092713346
 20
361.4537688302132
 10
317.4853092713346
 20
349.2792629790896
  0
LWPOLYLINE
  5
6B
330
1F
100
AcDbEntity
  8
0_Pen_No__1
  6
Continuous
100
AcDbPolyline
 90
        2
 70
   128
 43
0.0
 10
3.89721079370397
 20
276.6220649049733
 10
3.89721079370397
 20
279.8840172109738
  0
LWPOLYLINE
  5
6C
330
1F
100
AcDbEntity
  8
0_Pen_No__1
  6
Continuous
100
AcDbPolyline
 90
        2
 70
   128
 43
0.0
 10
3.89721079370397
 20
279.8840172109738
 10
16.8875917937018
 20
272.3840172109742
  0
LWPOLYLINE
  5
6D
330
1F
100
AcDbEntity
  8
0_Pen_No__1
  6
Continuous
100
AcDbPolyline
 90
        2
 70
   128
 43
0.0
 10
16.8875917937018
 20
272.3840172109742
 10
16.8875917937018
 20
371.7290888489721
  0
LWPOLYLINE
  5
6E
330
1F
100
AcDbEntity
  8
0_Pen_No__1
  6
Continuous
100
AcDbPolyline
 90
        2
 70
   128
 43
0.0
 10
16.8875917937018
 20
371.7290888489721
 10
13.66864494192865
 20
375.9161362484735
  0
LWPOLYLINE
  5
6F
330
1F
100
AcDbEntity
  8
0_Pen_No__1
  6
Continuous
100
AcDbPolyline
 90
        2
 70
   128
 43
0.0
 10
13.66864494192865
 20
375.9161362484735
 10
10.34220129914176
 20
381.3875121234705
  0
LWPOLYLINE
  5
70
330
1F
100
AcDbEntity
  8
0_Pen_No__1
  6
Continuous
100
AcDbPolyline
 90
        2
 70
   128
 43
0.0
 10
10.34220129914176
 20
381.3875121234705
 10
7.600284297346709
 20
387.134456639473
  0
LWPOLYLINE
  5
71
330
1F
100
AcDbEntity
  8
0_Pen_No__1
  6
Continuous
100
AcDbPolyline
 90
        2
 70
   128
 43
0.0
 10
7.600284297346709
 20
387.134456639473
 10
5.526205696937064
 20
392.9823517949713
  0
LWPOLYLINE
  5
72
330
1F
100
AcDbEntity
  8
0_Pen_No__1
  6
Continuous
100
AcDbPolyline
 90
        2
 70
   128
 43
0.0
 10
5.526205696937064
 20
392.9823517949713
 10
4.182985327958127
 20
398.7535122549697
  0
LWPOLYLINE
  5
73
330
1F
100
AcDbEntity
  8
0_Pen_No__1
  6
Continuous
100
AcDbPolyline
 90
        2
 70
   128
 43
0.0
 10
4.182985327958127
 20
398.7535122549697
 10
3.89721079370397
 20
401.5130482419669
  0
LWPOLYLINE
  5
74
330
1F
100
AcDbEntity
  8
0_Pen_No__1
  6
Continuous
100
AcDbPolyline
 90
        2
 70
   128
 43
0.0
 10
3.89721079370397
 20
401.5130482419669
 10
3.89721079370397
 20
427.4927127649654
  0
LWPOLYLINE
  5
75
330
1F
100
AcDbEntity
  8
0_Pen_No__1
  6
Continuous
100
AcDbPolyline
 90
        2
 70
   128
 43
0.0
 10
3.89721079370397
 20
427.4927127649654
 10
8.821733609058242
 20
424.649538179469
  0
LWPOLYLINE
  5
76
330
1F
100
AcDbEntity
  8
0_Pen_No__1
  6
Continuous
100
AcDbPolyline
 90
        2
 70
   128
 43
0.0
 10
8.821733609058242
 20
424.649538179469
 10
8.821733609058242
 20
431.3859142634686
  0
LWPOLYLINE
  5
77
330
1F
100
AcDbEntity
  8
0_Pen_No__1
  6
Continuous
100
AcDbPolyline
 90
        2
 70
   128
 43
0.0
 10
8.821733609058242
 20
431.3859142634686
 10
6.191412153600744
 20
432.904531070466
  0
LWPOLYLINE
  5
78
330
1F
100
AcDbEntity
  8
0_Pen_No__1
  6
Continuous
100
AcDbPolyline
 90
        2
 70
   128
 43
0.0
 10
6.191412153600744
 20
432.904531070466
 10
6.191412153600744
 20
430.9835024704677
  0
LWPOLYLINE
  5
79
330
1F
100
AcDbEntity
  8
0_Pen_No__1
  6
Continuous
100
AcDbPolyline
 90
        2
 70
   128
 43
0.0
 10
6.191412153600744
 20
430.9835024704677
 10
-2.164967006294988
 20
435.8080602489695
  0
LWPOLYLINE
  5
7A
330
1F
100
AcDbEntity
  8
0_Pen_No__1
  6
Continuous
100
AcDbPolyline
 90
        2
 70
   128
 43
0.0
 10
-2.164967006294988
 20
435.8080602489695
 10
-2.164967006294988
 20
412.0130482419699
  0
LWPOLYLINE
  5
7B
330
1F
100
AcDbEntity
  8
0_Pen_No__1
  6
Continuous
100
AcDbPolyline
 90
        2
 70
   128
 43
0.0
 10
-2.164967006294988
 20
412.0130482419699
 10
-2.422022810668063
 20
408.8177611194687
  0
LWPOLYLINE
  5
7C
330
1F
100
AcDbEntity
  8
0_Pen_No__1
  6
Continuous
100
AcDbPolyline
 90
        2
 70
   128
 43
0.0
 10
-2.422022810668063
 20
408.8177611194687
 10
-1.922648229714225
 20
401.8405615644687
  0
LWPOLYLINE
  5
7D
330
1F
100
AcDbEntity
  8
0_Pen_No__1
  6
Continuous
100
AcDbPolyline
 90
        2
 70
   128
 43
0.0
 10
-1.922648229714225
 20
401.8405615644687
 10
-0.4249607021148464
 20
394.4887353784714
  0
LWPOLYLINE
  5
7E
330
1F
100
AcDbEntity
  8
0_Pen_No__1
  6
Continuous
100
AcDbPolyline
 90
        2
 70
   128
 43
0.0
 10
-0.4249607021148464
 20
394.4887353784714
 10
2.02553329488852
 20
386.9856640794729
  0
LWPOLYLINE
  5
7F
330
1F
100
AcDbEntity
  8
0_Pen_No__1
  6
Continuous
100
AcDbPolyline
 90
        2
 70
   128
 43
0.0
 10
2.02553329488852
 20
386.9856640794729
 10
5.354376739957194
 20
379.5593246919719
  0
LWPOLYLINE
  5
80
330
1F
100
AcDbEntity
  8
0_Pen_No__1
  6
Continuous
100
AcDbPolyline
 90
        2
 70
   128
 43
0.0
 10
5.354376739957194
 20
379.5593246919719
 10
9.460424410928976
 20
372.4353627804713
  0
LWPOLYLINE
  5
81
330
1F
100
AcDbEntity
  8
0_Pen_No__1
  6
Continuous
100
AcDbPolyline
 90
        2
 70
   128
 43
0.0
 10
9.460424410928976
 20
372.4353627804713
 10
10.82541399370307
 20
370.5741604869704
  0
LWPOLYLINE
  5
82
330
1F
100
AcDbEntity
  8
0_Pen_No__1
  6
Continuous
100
AcDbPolyline
 90
        2
 70
   128
 43
0.0
 10
10.82541399370307
 20
370.5741604869704
 10
10.8254139937004
 20
282.8840172109757
  0
LWPOLYLINE
  5
83
330
1F
100
AcDbEntity
  8
0_Pen_No__1
  6
Continuous
100
AcDbPolyline
 90
        2
 70
   128
 43
0.0
 10
10.8254139937004
 20
282.8840172109757
 10
-2.164967006294988
 20
290.3840172109742
  0
LWPOLYLINE
  5
84
330
1F
100
AcDbEntity
  8
0_Pen_No__1
  6
Continuous
100
AcDbPolyline
 90
        2
 70
   128
 43
0.0
 10
-2.164967006294988
 20
290.3840172109742
 10
-2.714334996647311
 20
286.7464831624744
  0
LWPOLYLINE
  5
85
330
1F
100
AcDbEntity
  8
0_Pen_No__1
  6
Continuous
100
AcDbPolyline
 90
        2
 70
   128
 43
0.0
 10
-2.714334996647311
 20
286.7464831624744
 10
-2.606930064947283
 20
278.6749018409756
  0
LWPOLYLINE
  5
86
330
1F
100
AcDbEntity
  8
0_Pen_No__1
  6
Continuous
100
AcDbPolyline
 90
        2
 70
   128
 43
0.0
 10
-2.606930064947283
 20
278.6749018409756
 10
-1.296647664359335
 20
270.0520582079722
  0
LWPOLYLINE
  5
87
330
1F
100
AcDbEntity
  8
0_Pen_No__1
  6
Continuous
100
AcDbPolyline
 90
        2
 70
   128
 43
0.0
 10
-1.296647664359335
 20
270.0520582079722
 10
1.176699936679898
 20
261.1399530024767
  0
LWPOLYLINE
  5
88
330
1F
100
AcDbEntity
  8
0_Pen_No__1
  6
Continuous
100
AcDbPolyline
 90
        2
 70
   128
 43
0.0
 10
1.176699936679898
 20
261.1399530024767
 10
4.737961324676625
 20
252.2093760324757
  0
LWPOLYLINE
  5
89
330
1F
100
AcDbEntity
  8
0_Pen_No__1
  6
Continuous
100
AcDbPolyline
 90
        2
 70
   128
 43
0.0
 10
4.737961324676625
 20
252.2093760324757
 10
9.278929372934392
 20
243.5316783589758
  0
LWPOLYLINE
  5
8A
330
1F
100
AcDbEntity
  8
0_Pen_No__1
  6
Continuous
100
AcDbPolyline
 90
        2
 70
   128
 43
0.0
 10
9.278929372934392
 20
243.5316783589758
 10
10.82541399369885
 20
241.2290888489801
  0
LWPOLYLINE
  5
8B
330
1F
100
AcDbEntity
  8
0_Pen_No__1
  6
Continuous
100
AcDbPolyline
 90
        2
 70
   128
 43
0.0
 10
10.82541399369885
 20
241.2290888489801
 10
10.82541399369729
 20
179.2290888489798
  0
LWPOLYLINE
  5
8C
330
1F
100
AcDbEntity
  8
0_Pen_No__1
  6
Continuous
100
AcDbPolyline
 90
        2
 70
   128
 43
0.0
 10
10.82541399369729
 20
179.2290888489798
 10
-1.298941606295295
 20
186.229088848975
  0
LWPOLYLINE
  5
8D
330
1F
100
AcDbEntity
  8
0_Pen_No__1
  6
Continuous
100
AcDbPolyline
 90
        2
 70
   128
 43
0.0
 10
-1.298941606295295
 20
186.229088848975
 10
-1.298941606294851
 20
173.4289292869771
  0
LWPOLYLINE
  5
8E
330
1F
100
AcDbEntity
  8
0_Pen_No__1
  6
Continuous
100
AcDbPolyline
 90
        2
 70
   128
 43
0.0
 10
-1.298941606294851
 20
173.4289292869771
 10
4.763236193703662
 20
169.9289292869783
  0
LWPOLYLINE
  5
8F
330
1F
100
AcDbEntity
  8
0_Pen_No__1
  6
Continuous
100
AcDbPolyline
 90
        2
 70
   128
 43
0.0
 10
4.763236193703662
 20
169.9289292869783
 10
4.763236193703662
 20
175.7290888489782
  0
LWPOLYLINE
  5
90
330
1F
100
AcDbEntity
  8
0_Pen_No__1
  6
Continuous
100
AcDbPolyline
 90
        2
 70
   128
 43
0.0
 10
4.763236193703662
 20
175.7290888489782
 10
10.82541399369729
 20
172.2290888489828
  0
LWPOLYLINE
  5
91
330
1F
100
AcDbEntity
  8
0_Pen_No__1
  6
Continuous
100
AcDbPolyline
 90
        2
 70
   128
 43
0.0
 10
10.82541399369729
 20
172.2290888489828
 10
10.8254139936964
 20
152.2290888489832
  0
LWPOLYLINE
  5
92
330
1F
100
AcDbEntity
  8
0_Pen_No__1
  6
Continuous
100
AcDbPolyline
 90
        2
 70
   128
 43
0.0
 10
10.8254139936964
 20
152.2290888489832
 10
4.763236193703662
 20
155.7290888489786
  0
LWPOLYLINE
  5
93
330
1F
100
AcDbEntity
  8
0_Pen_No__1
  6
Continuous
100
AcDbPolyline
 90
        2
 70
   128
 43
0.0
 10
4.763236193703662
 20
155.7290888489786
 10
4.763236193703662
 20
148.7290888489807
  0
LWPOLYLINE
  5
94
330
1F
100
AcDbEntity
  8
0_Pen_No__1
  6
Continuous
100
AcDbPolyline
 90
        2
 70
   128
 43
0.0
 10
4.763236193703662
 20
148.7290888489807
 10
16.8875917937018
 20
141.7290888489817
  0
LWPOLYLINE
  5
95
330
1F
100
AcDbEntity
  8
0_Pen_No__1
  6
Continuous
100
AcDbPolyline
 90
        2
 70
   128
 43
0.0
 10
16.8875917937018
 20
141.7290888489817
 10
16.8875917937018
 20
242.3840172109768
  0
LWPOLYLINE
  5
96
330
1F
100
AcDbEntity
  8
0_Pen_No__1
  6
Continuous
100
AcDbPolyline
 90
        2
 70
   128
 43
0.0
 10
16.8875917937018
 20
242.3840172109768
 10
13.2250679098419
 20
247.9782365614758
  0
LWPOLYLINE
  5
97
330
1F
100
AcDbEntity
  8
0_Pen_No__1
  6
Continuous
100
AcDbPolyline
 90
        2
 70
   128
 43
0.0
 10
13.2250679098419
 20
247.9782365614758
 10
9.599217284034562
 20
255.0847110194769
  0
LWPOLYLINE
  5
98
330
1F
100
AcDbEntity
  8
0_Pen_No__1
  6
Continuous
100
AcDbPolyline
 90
        2
 70
   128
 43
0.0
 10
9.599217284034562
 20
255.0847110194769
 10
6.782338453831132
 20
262.374990585476
  0
LWPOLYLINE
  5
99
330
1F
100
AcDbEntity
  8
0_Pen_No__1
  6
Continuous
100
AcDbPolyline
 90
        2
 70
   128
 43
0.0
 10
6.782338453831132
 20
262.374990585476
 10
4.860020857603169
 20
269.6275638029737
  0
LWPOLYLINE
  5
9A
330
1F
100
AcDbEntity
  8
0_Pen_No__1
  6
Continuous
100
AcDbPolyline
 90
        2
 70
   128
 43
0.0
 10
4.860020857603169
 20
269.6275638029737
 10
3.89721079370397
 20
276.6220649049733
  0
LWPOLYLINE
  5
9B
330
1F
100
AcDbEntity
  8
0_Pen_No__1
  6
Continuous
100
AcDbPolyline
 90
        2
 70
   128
 43
0.0
 10
3.89721079370397
 20
542.0019693103924
 10
3.89721079370397
 20
545.2639216163928
  0
LWPOLYLINE
  5
9C
330
1F
100
AcDbEntity
  8
0_Pen_No__1
  6
Continuous
100
AcDbPolyline
 90
        2
 70
   128
 43
0.0
 10
3.89721079370397
 20
545.2639216163928
 10
16.88759179370202
 20
537.7639216163934
  0
LWPOLYLINE
  5
9D
330
1F
100
AcDbEntity
  8
0_Pen_No__1
  6
Continuous
100
AcDbPolyline
 90
        2
 70
   128
 43
0.0
 10
16.88759179370202
 20
537.7639216163934
 10
16.88759179370202
 20
637.1089932543916
  0
LWPOLYLINE
  5
9E
330
1F
100
AcDbEntity
  8
0_Pen_No__1
  6
Continuous
100
AcDbPolyline
 90
        2
 70
   128
 43
0.0
 10
16.88759179370202
 20
637.1089932543916
 10
13.66864494192932
 20
641.2960406538928
  0
LWPOLYLINE
  5
9F
330
1F
100
AcDbEntity
  8
0_Pen_No__1
  6
Continuous
100
AcDbPolyline
 90
        2
 70
   128
 43
0.0
 10
13.66864494192932
 20
641.2960406538928
 10
10.34220129914176
 20
646.7674165288888
  0
LWPOLYLINE
  5
A0
330
1F
100
AcDbEntity
  8
0_Pen_No__1
  6
Continuous
100
AcDbPolyline
 90
        2
 70
   128
 43
0.0
 10
10.34220129914176
 20
646.7674165288888
 10
7.600284297346709
 20
652.5143610448922
  0
LWPOLYLINE
  5
A1
330
1F
100
AcDbEntity
  8
0_Pen_No__1
  6
Continuous
100
AcDbPolyline
 90
        2
 70
   128
 43
0.0
 10
7.600284297346709
 20
652.5143610448922
 10
5.526205696937064
 20
658.3622562003906
  0
LWPOLYLINE
  5
A2
330
1F
100
AcDbEntity
  8
0_Pen_No__1
  6
Continuous
100
AcDbPolyline
 90
        2
 70
   128
 43
0.0
 10
5.526205696937064
 20
658.3622562003906
 10
4.182985327958127
 20
664.1334166603879
  0
LWPOLYLINE
  5
A3
330
1F
100
AcDbEntity
  8
0_Pen_No__1
  6
Continuous
100
AcDbPolyline
 90
        2
 70
   128
 43
0.0
 10
4.182985327958127
 20
664.1334166603879
 10
3.89721079370397
 20
666.8929526473856
  0
LWPOLYLINE
  5
A4
330
1F
100
AcDbEntity
  8
0_Pen_No__1
  6
Continuous
100
AcDbPolyline
 90
        2
 70
   128
 43
0.0
 10
3.89721079370397
 20
666.8929526473856
 10
3.89721079370397
 20
692.8726171703847
  0
LWPOLYLINE
  5
A5
330
1F
100
AcDbEntity
  8
0_Pen_No__1
  6
Continuous
100
AcDbPolyline
 90
        2
 70
   128
 43
0.0
 10
3.89721079370397
 20
692.8726171703847
 10
8.821733609058242
 20
690.0294425848879
  0
LWPOLYLINE
  5
A6
330
1F
100
AcDbEntity
  8
0_Pen_No__1
  6
Continuous
100
AcDbPolyline
 90
        2
 70
   128
 43
0.0
 10
8.821733609058242
 20
690.0294425848879
 10
8.821733609058242
 20
696.7658186688874
  0
LWPOLYLINE
  5
A7
330
1F
100
AcDbEntity
  8
0_Pen_No__1
  6
Continuous
100
AcDbPolyline
 90
        2
 70
   128
 43
0.0
 10
8.821733609058242
 20
696.7658186688874
 10
6.191412153601188
 20
698.2844354758848
  0
LWPOLYLINE
  5
A8
330
1F
100
AcDbEntity
  8
0_Pen_No__1
  6
Continuous
100
AcDbPolyline
 90
        2
 70
   128
 43
0.0
 10
6.191412153601188
 20
698.2844354758848
 10
6.191412153601188
 20
696.3634068758869
  0
LWPOLYLINE
  5
A9
330
1F
100
AcDbEntity
  8
0_Pen_No__1
  6
Continuous
100
AcDbPolyline
 90
        2
 70
   128
 43
0.0
 10
6.191412153601188
 20
696.3634068758869
 10
-2.164967006294544
 20
701.1879646543883
  0
LWPOLYLINE
  5
AA
330
1F
100
AcDbEntity
  8
0_Pen_No__1
  6
Continuous
100
AcDbPolyline
 90
        2
 70
   128
 43
0.0
 10
-2.164967006294544
 20
701.1879646543883
 10
-2.164967006294544
 20
677.3929526473892
  0
LWPOLYLINE
  5
AB
330
1F
100
AcDbEntity
  8
0_Pen_No__1
  6
Continuous
100
AcDbPolyline
 90
        2
 70
   128
 43
0.0
 10
-2.164967006294544
 20
677.3929526473892
 10
-2.422022810668063
 20
674.1976655248876
  0
LWPOLYLINE
  5
AC
330
1F
100
AcDbEntity
  8
0_Pen_No__1
  6
Continuous
100
AcDbPolyline
 90
        2
 70
   128
 43
0.0
 10
-2.422022810668063
 20
674.1976655248876
 10
-1.922648229714225
 20
667.2204659698873
  0
LWPOLYLINE
  5
AD
330
1F
100
AcDbEntity
  8
0_Pen_No__1
  6
Continuous
100
AcDbPolyline
 90
        2
 70
   128
 43
0.0
 10
-1.922648229714225
 20
667.2204659698873
 10
-0.4249607021148464
 20
659.8686397838898
  0
LWPOLYLINE
  5
AE
330
1F
100
AcDbEntity
  8
0_Pen_No__1
  6
Continuous
100
AcDbPolyline
 90
        2
 70
   128
 43
0.0
 10
-0.4249607021148464
 20
659.8686397838898
 10
2.02553329488852
 20
652.3655684848922
  0
LWPOLYLINE
  5
AF
330
1F
100
AcDbEntity
  8
0_Pen_No__1
  6
Continuous
100
AcDbPolyline
 90
        2
 70
   128
 43
0.0
 10
2.02553329488852
 20
652.3655684848922
 10
5.354376739957194
 20
644.9392290973901
  0
LWPOLYLINE
  5
B0
330
1F
100
AcDbEntity
  8
0_Pen_No__1
  6
Continuous
100
AcDbPolyline
 90
        2
 70
   128
 43
0.0
 10
5.354376739957194
 20
644.9392290973901
 10
9.46042441092942
 20
637.8152671858896
  0
LWPOLYLINE
  5
B1
330
1F
100
AcDbEntity
  8
0_Pen_No__1
  6
Continuous
100
AcDbPolyline
 90
        2
 70
   128
 43
0.0
 10
9.46042441092942
 20
637.8152671858896
 10
10.82541399370307
 20
635.9540648923894
  0
LWPOLYLINE
  5
B2
330
1F
100
AcDbEntity
  8
0_Pen_No__1
  6
Continuous
100
AcDbPolyline
 90
        2
 70
   128
 43
0.0
 10
10.82541399370307
 20
635.9540648923894
 10
10.8254139937004
 20
548.2639216163947
  0
LWPOLYLINE
  5
B3
330
1F
100
AcDbEntity
  8
0_Pen_No__1
  6
Continuous
100
AcDbPolyline
 90
        2
 70
   128
 43
0.0
 10
10.8254139937004
 20
548.2639216163947
 10
-2.164967006294988
 20
555.7639216163932
  0
LWPOLYLINE
  5
B4
330
1F
100
AcDbEntity
  8
0_Pen_No__1
  6
Continuous
100
AcDbPolyline
 90
        2
 70
   128
 43
0.0
 10
-2.164967006294988
 20
555.7639216163932
 10
-2.714334996646867
 20
552.1263875678932
  0
LWPOLYLINE
  5
B5
330
1F
100
AcDbEntity
  8
0_Pen_No__1
  6
Continuous
100
AcDbPolyline
 90
        2
 70
   128
 43
0.0
 10
-2.714334996646867
 20
552.1263875678932
 10
-2.606930064947283
 20
544.0548062463946
  0
LWPOLYLINE
  5
B6
330
1F
100
AcDbEntity
  8
0_Pen_No__1
  6
Continuous
100
AcDbPolyline
 90
        2
 70
   128
 43
0.0
 10
-2.606930064947283
 20
544.0548062463946
 10
-1.296647664358891
 20
535.4319626133912
  0
LWPOLYLINE
  5
B7
330
1F
100
AcDbEntity
  8
0_Pen_No__1
  6
Continuous
100
AcDbPolyline
 90
        2
 70
   128
 43
0.0
 10
-1.296647664358891
 20
535.4319626133912
 10
1.176699936679898
 20
526.5198574078958
  0
LWPOLYLINE
  5
B8
330
1F
100
AcDbEntity
  8
0_Pen_No__1
  6
Continuous
100
AcDbPolyline
 90
        2
 70
   128
 43
0.0
 10
1.176699936679898
 20
526.5198574078958
 10
4.737961324676625
 20
517.5892804378946
  0
LWPOLYLINE
  5
B9
330
1F
100
AcDbEntity
  8
0_Pen_No__1
  6
Continuous
100
AcDbPolyline
 90
        2
 70
   128
 43
0.0
 10
4.737961324676625
 20
517.5892804378946
 10
9.278929372934392
 20
508.9115827643948
  0
LWPOLYLINE
  5
BA
330
1F
100
AcDbEntity
  8
0_Pen_No__1
  6
Continuous
100
AcDbPolyline
 90
        2
 70
   128
 43
0.0
 10
9.278929372934392
 20
508.9115827643948
 10
10.82541399369885
 20
506.6089932543991
  0
LWPOLYLINE
  5
BB
330
1F
100
AcDbEntity
  8
0_Pen_No__1
  6
Continuous
100
AcDbPolyline
 90
        2
 70
   128
 43
0.0
 10
10.82541399369885
 20
506.6089932543991
 10
10.82541399369729
 20
444.6089932543988
  0
LWPOLYLINE
  5
BC
330
1F
100
AcDbEntity
  8
0_Pen_No__1
  6
Continuous
100
AcDbPolyline
 90
        2
 70
   128
 43
0.0
 10
10.82541399369729
 20
444.6089932543988
 10
-1.298941606294851
 20
451.608993254394
  0
LWPOLYLINE
  5
BD
330
1F
100
AcDbEntity
  8
0_Pen_No__1
  6
Continuous
100
AcDbPolyline
 90
        2
 70
   128
 43
0.0
 10
-1.298941606294851
 20
451.608993254394
 10
-1.298941606294851
 20
438.8088336923963
  0
LWPOLYLINE
  5
BE
330
1F
100
AcDbEntity
  8
0_Pen_No__1
  6
Continuous
100
AcDbPolyline
 90
        2
 70
   128
 43
0.0
 10
-1.298941606294851
 20
438.8088336923963
 10
4.763236193704106
 20
435.3088336923973
  0
LWPOLYLINE
  5
BF
330
1F
100
AcDbEntity
  8
0_Pen_No__1
  6
Continuous
100
AcDbPolyline
 90
        2
 70
   128
 43
0.0
 10
4.763236193704106
 20
435.3088336923973
 10
4.763236193704106
 20
441.1089932543971
  0
LWPOLYLINE
  5
C0
330
1F
100
AcDbEntity
  8
0_Pen_No__1
  6
Continuous
100
AcDbPolyline
 90
        2
 70
   128
 43
0.0
 10
4.763236193704106
 20
441.1089932543971
 10
10.82541399369729
 20
437.6089932544016
  0
LWPOLYLINE
  5
C1
330
1F
100
AcDbEntity
  8
0_Pen_No__1
  6
Continuous
100
AcDbPolyline
 90
        2
 70
   128
 43
0.0
 10
10.82541399369729
 20
437.6089932544016
 10
10.8254139936964
 20
417.6089932544022
  0
LWPOLYLINE
  5
C2
330
1F
100
AcDbEntity
  8
0_Pen_No__1
  6
Continuous
100
AcDbPolyline
 90
        2
 70
   128
 43
0.0
 10
10.8254139936964
 20
417.6089932544022
 10
4.763236193704106
 20
421.1089932543976
  0
LWPOLYLINE
  5
C3
330
1F
100
AcDbEntity
  8
0_Pen_No__1
  6
Continuous
100
AcDbPolyline
 90
        2
 70
   128
 43
0.0
 10
4.763236193704106
 20
421.1089932543976
 10
4.763236193704106
 20
414.1089932543997
  0
LWPOLYLINE
  5
C4
330
1F
100
AcDbEntity
  8
0_Pen_No__1
  6
Continuous
100
AcDbPolyline
 90
        2
 70
   128
 43
0.0
 10
4.763236193704106
 20
414.1089932543997
 10
16.8875917937018
 20
407.1089932544009
  0
LWPOLYLINE
  5
C5
330
1F
100
AcDbEntity
  8
0_Pen_No__1
  6
Continuous
100
AcDbPolyline
 90
        2
 70
   128
 43
0.0
 10
16.8875917937018
 20
407.1089932544009
 10
16.88759179370202
 20
507.7639216163958
  0
LWPOLYLINE
  5
C6
330
1F
100
AcDbEntity
  8
0_Pen_No__1
  6
Continuous
100
AcDbPolyline
 90
        2
 70
   128
 43
0.0
 10
16.88759179370202
 20
507.7639216163958
 10
13.2250679098419
 20
513.3581409668948
  0
LWPOLYLINE
  5
C7
330
1F
100
AcDbEntity
  8
0_Pen_No__1
  6
Continuous
100
AcDbPolyline
 90
        2
 70
   128
 43
0.0
 10
13.2250679098419
 20
513.3581409668948
 10
9.599217284034562
 20
520.4646154248958
  0
LWPOLYLINE
  5
C8
330
1F
100
AcDbEntity
  8
0_Pen_No__1
  6
Continuous
100
AcDbPolyline
 90
        2
 70
   128
 43
0.0
 10
9.599217284034562
 20
520.4646154248958
 10
6.782338453831132
 20
527.754894990895
  0
LWPOLYLINE
  5
C9
330
1F
100
AcDbEntity
  8
0_Pen_No__1
  6
Continuous
100
AcDbPolyline
 90
        2
 70
   128
 43
0.0
 10
6.782338453831132
 20
527.754894990895
 10
4.860020857603613
 20
535.0074682083925
  0
LWPOLYLINE
  5
CA
330
1F
100
AcDbEntity
  8
0_Pen_No__1
  6
Continuous
100
AcDbPolyline
 90
        2
 70
   128
 43
0.0
 10
4.860020857603613
 20
535.0074682083925
 10
3.89721079370397
 20
542.0019693103924
  0
LWPOLYLINE
  5
CB
330
1F
100
AcDbEntity
  8
0_Pen_No__1
  6
Continuous
100
AcDbPolyline
 90
        2
 70
   128
 43
0.0
 10
3.89721079370397
 20
11.24216049955429
 10
3.89721079370397
 20
14.50411280555475
  0
LWPOLYLINE
  5
CC
330
1F
100
AcDbEntity
  8
0_Pen_No__1
  6
Continuous
100
AcDbPolyline
 90
        2
 70
   128
 43
0.0
 10
3.89721079370397
 20
14.50411280555475
 10
16.8875917937018
 20
7.004112805555351
  0
LWPOLYLINE
  5
CD
330
1F
100
AcDbEntity
  8
0_Pen_No__1
  6
Continuous
100
AcDbPolyline
 90
        2
 70
   128
 43
0.0
 10
16.8875917937018
 20
7.004112805555351
 10
16.8875917937018
 20
106.3491844435534
  0
LWPOLYLINE
  5
CE
330
1F
100
AcDbEntity
  8
0_Pen_No__1
  6
Continuous
100
AcDbPolyline
 90
        2
 70
   128
 43
0.0
 10
16.8875917937018
 20
106.3491844435534
 10
13.66864494192865
 20
110.5362318430545
  0
LWPOLYLINE
  5
CF
330
1F
100
AcDbEntity
  8
0_Pen_No__1
  6
Continuous
100
AcDbPolyline
 90
        2
 70
   128
 43
0.0
 10
13.66864494192865
 20
110.5362318430545
 10
10.34220129914176
 20
116.0076077180514
  0
LWPOLYLINE
  5
D0
330
1F
100
AcDbEntity
  8
0_Pen_No__1
  6
Continuous
100
AcDbPolyline
 90
        2
 70
   128
 43
0.0
 10
10.34220129914176
 20
116.0076077180514
 10
7.600284297346709
 20
121.7545522340537
  0
LWPOLYLINE
  5
D1
330
1F
100
AcDbEntity
  8
0_Pen_No__1
  6
Continuous
100
AcDbPolyline
 90
        2
 70
   128
 43
0.0
 10
7.600284297346709
 20
121.7545522340537
 10
5.526205696937064
 20
127.6024473895523
  0
LWPOLYLINE
  5
D2
330
1F
100
AcDbEntity
  8
0_Pen_No__1
  6
Continuous
100
AcDbPolyline
 90
        2
 70
   128
 43
0.0
 10
5.526205696937064
 20
127.6024473895523
 10
4.182985327958127
 20
133.3736078495507
  0
LWPOLYLINE
  5
D3
330
1F
100
AcDbEntity
  8
0_Pen_No__1
  6
Continuous
100
AcDbPolyline
 90
        2
 70
   128
 43
0.0
 10
4.182985327958127
 20
133.3736078495507
 10
3.89721079370397
 20
136.1331438365478
  0
LWPOLYLINE
  5
D4
330
1F
100
AcDbEntity
  8
0_Pen_No__1
  6
Continuous
100
AcDbPolyline
 90
        2
 70
   128
 43
0.0
 10
3.89721079370397
 20
136.1331438365478
 10
3.89721079370397
 20
162.1128083595467
  0
LWPOLYLINE
  5
D5
330
1F
100
AcDbEntity
  8
0_Pen_No__1
  6
Continuous
100
AcDbPolyline
 90
        2
 70
   128
 43
0.0
 10
3.89721079370397
 20
162.1128083595467
 10
8.821733609058242
 20
159.26963377405
  0
LWPOLYLINE
  5
D6
330
1F
100
AcDbEntity
  8
0_Pen_No__1
  6
Continuous
100
AcDbPolyline
 90
        2
 70
   128
 43
0.0
 10
8.821733609058242
 20
159.26963377405
 10
8.821733609058242
 20
166.0060098580496
  0
LWPOLYLINE
  5
D7
330
1F
100
AcDbEntity
  8
0_Pen_No__1
  6
Continuous
100
AcDbPolyline
 90
        2
 70
   128
 43
0.0
 10
8.821733609058242
 20
166.0060098580496
 10
6.191412153600744
 20
167.524626665047
  0
LWPOLYLINE
  5
D8
330
1F
100
AcDbEntity
  8
0_Pen_No__1
  6
Continuous
100
AcDbPolyline
 90
        2
 70
   128
 43
0.0
 10
6.191412153600744
 20
167.524626665047
 10
6.191412153600744
 20
165.6035980650485
  0
LWPOLYLINE
  5
D9
330
1F
100
AcDbEntity
  8
0_Pen_No__1
  6
Continuous
100
AcDbPolyline
 90
        2
 70
   128
 43
0.0
 10
6.191412153600744
 20
165.6035980650485
 10
-2.164967006294988
 20
170.4281558435505
  0
LWPOLYLINE
  5
DA
330
1F
100
AcDbEntity
  8
0_Pen_No__1
  6
Continuous
100
AcDbPolyline
 90
        2
 70
   128
 43
0.0
 10
-2.164967006294988
 20
170.4281558435505
 10
-2.164967006294988
 20
146.6331438365509
  0
LWPOLYLINE
  5
DB
330
1F
100
AcDbEntity
  8
0_Pen_No__1
  6
Continuous
100
AcDbPolyline
 90
        2
 70
   128
 43
0.0
 10
-2.164967006294988
 20
146.6331438365509
 10
-2.422022810668063
 20
143.4378567140497
  0
LWPOLYLINE
  5
DC
330
1F
100
AcDbEntity
  8
0_Pen_No__1
  6
Continuous
100
AcDbPolyline
 90
        2
 70
   128
 43
0.0
 10
-2.422022810668063
 20
143.4378567140497
 10
-1.922648229714225
 20
136.4606571590496
  0
LWPOLYLINE
  5
DD
330
1F
100
AcDbEntity
  8
0_Pen_No__1
  6
Continuous
100
AcDbPolyline
 90
        2
 70
   128
 43
0.0
 10
-1.922648229714225
 20
136.4606571590496
 10
-0.4249607021148464
 20
129.1088309730524
  0
LWPOLYLINE
  5
DE
330
1F
100
AcDbEntity
  8
0_Pen_No__1
  6
Continuous
100
AcDbPolyline
 90
        2
 70
   128
 43
0.0
 10
-0.4249607021148464
 20
129.1088309730524
 10
2.02553329488852
 20
121.6057596740539
  0
LWPOLYLINE
  5
DF
330
1F
100
AcDbEntity
  8
0_Pen_No__1
  6
Continuous
100
AcDbPolyline
 90
        2
 70
   128
 43
0.0
 10
2.02553329488852
 20
121.6057596740539
 10
5.354376739957194
 20
114.1794202865529
  0
LWPOLYLINE
  5
E0
330
1F
100
AcDbEntity
  8
0_Pen_No__1
  6
Continuous
100
AcDbPolyline
 90
        2
 70
   128
 43
0.0
 10
5.354376739957194
 20
114.1794202865529
 10
9.460424410928976
 20
107.0554583750523
  0
LWPOLYLINE
  5
E1
330
1F
100
AcDbEntity
  8
0_Pen_No__1
  6
Continuous
100
AcDbPolyline
 90
        2
 70
   128
 43
0.0
 10
9.460424410928976
 20
107.0554583750523
 10
10.82541399370307
 20
105.1942560815513
  0
LWPOLYLINE
  5
E2
330
1F
100
AcDbEntity
  8
0_Pen_No__1
  6
Continuous
100
AcDbPolyline
 90
        2
 70
   128
 43
0.0
 10
10.82541399370307
 20
105.1942560815513
 10
10.8254139937004
 20
17.50411280555664
  0
LWPOLYLINE
  5
E3
330
1F
100
AcDbEntity
  8
0_Pen_No__1
  6
Continuous
100
AcDbPolyline
 90
        2
 70
   128
 43
0.0
 10
10.8254139937004
 20
17.50411280555664
 10
-2.164967006294988
 20
25.00411280555537
  0
LWPOLYLINE
  5
E4
330
1F
100
AcDbEntity
  8
0_Pen_No__1
  6
Continuous
100
AcDbPolyline
 90
        2
 70
   128
 43
0.0
 10
-2.164967006294988
 20
25.00411280555537
 10
-2.714334996647311
 20
21.36657875705539
  0
LWPOLYLINE
  5
E5
330
1F
100
AcDbEntity
  8
0_Pen_No__1
  6
Continuous
100
AcDbPolyline
 90
        2
 70
   128
 43
0.0
 10
-2.714334996647311
 20
21.36657875705539
 10
-2.606930064947283
 20
13.29499743555651
  0
LWPOLYLINE
  5
E6
330
1F
100
AcDbEntity
  8
0_Pen_No__1
  6
Continuous
100
AcDbPolyline
 90
        2
 70
   128
 43
0.0
 10
-2.606930064947283
 20
13.29499743555651
 10
-1.296647664359335
 20
4.672153802553147
  0
LWPOLYLINE
  5
E7
330
1F
100
AcDbEntity
  8
0_Pen_No__1
  6
Continuous
100
AcDbPolyline
 90
        2
 70
   128
 43
0.0
 10
-1.296647664359335
 20
4.672153802553147
 10
0.0000000000001051
 20
0.0
  0
LWPOLYLINE
  5
E8
330
1F
100
AcDbEntity
  8
0_Pen_No__1
  6
Continuous
100
AcDbPolyline
 90
        2
 70
   128
 43
0.0
 10
0.0000000000001051
 20
0.0
 10
5.985876489505209
 20
0.0
  0
LWPOLYLINE
  5
E9
330
1F
100
AcDbEntity
  8
0_Pen_No__1
  6
Continuous
100
AcDbPolyline
 90
        2
 70
   128
 43
0.0
 10
5.985876489505209
 20
0.0
 10
4.860020857603169
 20
4.247659397554671
  0
LWPOLYLINE
  5
EA
330
1F
100
AcDbEntity
  8
0_Pen_No__1
  6
Continuous
100
AcDbPolyline
 90
        2
 70
   128
 43
0.0
 10
4.860020857603169
 20
4.247659397554671
 10
3.89721079370397
 20
11.24216049955429
  0
LWPOLYLINE
  5
EB
330
1F
100
AcDbEntity
  8
0_Pen_No__1
  6
Continuous
100
AcDbPolyline
 90
        2
 70
   128
 43
0.0
 10
459.3040449670829
 20
-15.94974001943315
 10
459.3740733783376
 20
-15.53739279174958
  0
LWPOLYLINE
  5
EC
330
1F
100
AcDbEntity
  8
0_Pen_No__1
  6
Continuous
100
AcDbPolyline
 90
        2
 70
   128
 43
0.0
 10
459.3740733783376
 20
-15.53739279174958
 10
460.2730474390864
 20
-13.97066773497367
  0
LWPOLYLINE
  5
ED
330
1F
100
AcDbEntity
  8
0_Pen_No__1
  6
Continuous
100
AcDbPolyline
 90
        2
 70
   128
 43
0.0
 10
460.2730474390864
 20
-13.97066773497367
 10
461.5838155711376
 20
-12.88248767351417
  0
LWPOLYLINE
  5
EE
330
1F
100
AcDbEntity
  8
0_Pen_No__1
  6
Continuous
100
AcDbPolyline
 90
        2
 70
   128
 43
0.0
 10
461.5838155711376
 20
-12.88248767351417
 10
463.2665507480791
 20
-12.30591640789457
  0
LWPOLYLINE
  5
EF
330
1F
100
AcDbEntity
  8
0_Pen_No__1
  6
Continuous
100
AcDbPolyline
 90
        2
 70
   128
 43
0.0
 10
463.2665507480791
 20
-12.30591640789457
 10
465.2701239130659
 20
-12.25847276426038
  0
LWPOLYLINE
  5
F0
330
1F
100
AcDbEntity
  8
0_Pen_No__1
  6
Continuous
100
AcDbPolyline
 90
        2
 70
   128
 43
0.0
 10
465.2701239130659
 20
-12.25847276426038
 10
467.5336575093354
 20
-12.74159829371589
  0
LWPOLYLINE
  5
F1
330
1F
100
AcDbEntity
  8
0_Pen_No__1
  6
Continuous
100
AcDbPolyline
 90
        2
 70
   128
 43
0.0
 10
467.5336575093354
 20
-12.74159829371589
 10
469.9883752139689
 20
-13.7406134715231
  0
LWPOLYLINE
  5
F2
330
1F
100
AcDbEntity
  8
0_Pen_No__1
  6
Continuous
100
AcDbPolyline
 90
        2
 70
   128
 43
0.0
 10
210.180754362117
 20
136.2593870202461
 10
211.466412590962
 20
135.5171118924935
  0
LWPOLYLINE
  5
F3
330
1F
100
AcDbEntity
  8
0_Pen_No__1
  6
Continuous
100
AcDbPolyline
 90
        2
 70
   128
 43
0.0
 10
262.1422785326386
 20
106.259386921805
 10
263.4279367614831
 20
105.5171117940524
  0
LWPOLYLINE
  5
F4
330
1F
100
AcDbEntity
  8
0_Pen_No__1
  6
Continuous
100
AcDbPolyline
 90
        2
 70
   128
 43
0.0
 10
314.103802702908
 20
76.25938682350987
 10
315.389460931752
 20
75.51711169575705
  0
LWPOLYLINE
  5
F5
330
1F
100
AcDbEntity
  8
0_Pen_No__1
  6
Continuous
100
AcDbPolyline
 90
        2
 70
   128
 43
0.0
 10
366.0653268731773
 20
46.25938672521425
 10
367.3509851020214
 20
45.51711159746187
  0
LWPOLYLINE
  5
F6
330
1F
100
AcDbEntity
  8
0_Pen_No__1
  6
Continuous
100
AcDbPolyline
 90
        2
 70
   128
 43
0.0
 10
418.0268510436989
 20
16.25938662677341
 10
419.3125092725429
 20
15.51711149902059
  0
LWPOLYLINE
  5
F7
330
1F
100
AcDbEntity
  8
0_Pen_No__1
  6
Continuous
100
AcDbPolyline
 90
        2
 70
   128
 43
0.0
 10
469.9883752139689
 20
-13.7406134715231
 10
471.2740334428132
 20
-14.48288859927548
  0
LWPOLYLINE
  5
F8
330
1F
100
AcDbEntity
  8
0_Pen_No__1
  6
Continuous
100
AcDbPolyline
 90
        2
 70
   128
 43
0.0
 10
460.0571722275273
 20
-16.63989840463041
 10
460.1177092115696
 20
-16.26719586446988
  0
LWPOLYLINE
  5
F9
330
1F
100
AcDbEntity
  8
0_Pen_No__1
  6
Continuous
100
AcDbPolyline
 90
        2
 70
   128
 43
0.0
 10
460.1177092115696
 20
-16.26719586446988
 10
460.9704252357591
 20
-14.781088956891
  0
LWPOLYLINE
  5
FA
330
1F
100
AcDbEntity
  8
0_Pen_No__1
  6
Continuous
100
AcDbPolyline
 90
        2
 70
   128
 43
0.0
 10
460.9704252357591
 20
-14.781088956891
 10
462.2137458597902
 20
-13.74890280589512
  0
LWPOLYLINE
  5
FB
330
1F
100
AcDbEntity
  8
0_Pen_No__1
  6
Continuous
100
AcDbPolyline
 90
        2
 70
   128
 43
0.0
 10
462.2137458597902
 20
-13.74890280589512
 10
463.8098934156503
 20
-13.20199986536706
  0
LWPOLYLINE
  5
FC
330
1F
100
AcDbEntity
  8
0_Pen_No__1
  6
Continuous
100
AcDbPolyline
 90
        2
 70
   128
 43
0.0
 10
463.8098934156503
 20
-13.20199986536706
 10
465.7103697675458
 20
-13.15699750440934
  0
LWPOLYLINE
  5
FD
330
1F
100
AcDbEntity
  8
0_Pen_No__1
  6
Continuous
100
AcDbPolyline
 90
        2
 70
   128
 43
0.0
 10
465.7103697675458
 20
-13.15699750440934
 10
467.8574299032121
 20
-13.61526309698845
  0
LWPOLYLINE
  5
FE
330
1F
100
AcDbEntity
  8
0_Pen_No__1
  6
Continuous
100
AcDbPolyline
 90
        2
 70
   128
 43
0.0
 10
467.8574299032121
 20
-13.61526309698845
 10
470.1858364868894
 20
-14.56287247496634
  0
LWPOLYLINE
  5
FF
330
1F
100
AcDbEntity
  8
0_Pen_No__1
  6
Continuous
100
AcDbPolyline
 90
        2
 70
   128
 43
0.0
 10
470.1858364868894
 20
-14.56287247496634
 10
471.4053392748276
 20
-15.26695274093691
  0
LWPOLYLINE
  5
100
330
1F
100
AcDbEntity
  8
0_Pen_No__1
  6
Continuous
100
AcDbPolyline
 90
        2
 70
   128
 43
0.0
 10
471.2740334428132
 20
-14.48288859927548
 10
471.4053392748276
 20
-15.26695274093691
  0
LWPOLYLINE
  5
101
330
1F
100
AcDbEntity
  8
0_Pen_No__1
  6
Continuous
100
AcDbPolyline
 90
        2
 70
   128
 43
0.0
 10
460.0571722275848
 20
-16.63989840472722
 10
459.8057515734109
 20
-17.73913486037158
  0
LWPOLYLINE
  5
102
330
1F
100
AcDbEntity
  8
0_Pen_No__1
  6
Continuous
100
AcDbPolyline
 90
        2
 70
   128
 43
0.0
 10
459.8057515734109
 20
-17.73913486037158
 10
458.9530355492215
 20
-19.22524176795047
  0
LWPOLYLINE
  5
103
330
1F
100
AcDbEntity
  8
0_Pen_No__1
  6
Continuous
100
AcDbPolyline
 90
        2
 70
   128
 43
0.0
 10
458.9530355492215
 20
-19.22524176795047
 10
457.7097149251905
 20
-20.25742791894745
  0
LWPOLYLINE
  5
104
330
1F
100
AcDbEntity
  8
0_Pen_No__1
  6
Continuous
100
AcDbPolyline
 90
        2
 70
   128
 43
0.0
 10
457.7097149251905
 20
-20.25742791894745
 10
456.1135673693304
 20
-20.80433085947463
  0
LWPOLYLINE
  5
105
330
1F
100
AcDbEntity
  8
0_Pen_No__1
  6
Continuous
100
AcDbPolyline
 90
        2
 70
   128
 43
0.0
 10
456.1135673693304
 20
-20.80433085947463
 10
454.2130910174347
 20
-20.84933322043124
  0
LWPOLYLINE
  5
106
330
1F
100
AcDbEntity
  8
0_Pen_No__1
  6
Continuous
100
AcDbPolyline
 90
        2
 70
   128
 43
0.0
 10
454.2130910174347
 20
-20.84933322043124
 10
452.0660308817685
 20
-20.39106762785213
  0
LWPOLYLINE
  5
107
330
1F
100
AcDbEntity
  8
0_Pen_No__1
  6
Continuous
100
AcDbPolyline
 90
        2
 70
   128
 43
0.0
 10
452.0660308817685
 20
-20.39106762785213
 10
449.7376242980911
 20
-19.44345824987446
  0
LWPOLYLINE
  5
108
330
1F
100
AcDbEntity
  8
0_Pen_No__1
  6
Continuous
100
AcDbPolyline
 90
        2
 70
   128
 43
0.0
 10
449.7376242980911
 20
-19.44345824987446
 10
448.518121510153
 20
-18.73937798390367
  0
LWPOLYLINE
  5
109
330
1F
100
AcDbEntity
  8
0_Pen_No__1
  6
Continuous
100
AcDbPolyline
 90
        2
 70
   128
 43
0.0
 10
397.776100127822
 20
10.55654184844358
 10
396.5565973398837
 20
11.26062211441438
  0
LWPOLYLINE
  5
10A
330
1F
100
AcDbEntity
  8
0_Pen_No__1
  6
Continuous
100
AcDbPolyline
 90
        2
 70
   128
 43
0.0
 10
345.8145759573003
 20
40.55654194690752
 10
344.5950731693621
 20
41.26062221287831
  0
LWPOLYLINE
  5
10B
330
1F
100
AcDbEntity
  8
0_Pen_No__1
  6
Continuous
100
AcDbPolyline
 90
        2
 70
   128
 43
0.0
 10
293.8530517870308
 20
70.55654204522556
 10
292.6335489990928
 20
71.26062231119636
  0
LWPOLYLINE
  5
10C
330
1F
100
AcDbEntity
  8
0_Pen_No__1
  6
Continuous
100
AcDbPolyline
 90
        2
 70
   128
 43
0.0
 10
241.8915276165094
 20
100.5565421436882
 10
240.672024828571
 20
101.2606224096592
  0
LWPOLYLINE
  5
10D
330
1F
100
AcDbEntity
  8
0_Pen_No__1
  6
Continuous
100
AcDbPolyline
 90
        2
 70
   128
 43
0.0
 10
189.9300034462401
 20
130.5565422420062
 10
188.7105006583016
 20
131.260622507977
  0
LWPOLYLINE
  5
10E
330
1F
100
AcDbEntity
  8
0_Pen_No__1
  6
Continuous
100
AcDbPolyline
 90
        2
 70
   128
 43
0.0
 10
459.3040449671415
 20
-15.94974001952997
 10
459.0621157401795
 20
-17.00933178765239
  0
LWPOLYLINE
  5
10F
330
1F
100
AcDbEntity
  8
0_Pen_No__1
  6
Continuous
100
AcDbPolyline
 90
        2
 70
   128
 43
0.0
 10
459.0621157401795
 20
-17.00933178765239
 10
458.2556577525487
 20
-18.41482054603292
  0
LWPOLYLINE
  5
110
330
1F
100
AcDbEntity
  8
0_Pen_No__1
  6
Continuous
100
AcDbPolyline
 90
        2
 70
   128
 43
0.0
 10
458.2556577525487
 20
-18.41482054603292
 10
457.0797846365391
 20
-19.39101278656784
  0
LWPOLYLINE
  5
111
330
1F
100
AcDbEntity
  8
0_Pen_No__1
  6
Continuous
100
AcDbPolyline
 90
        2
 70
   128
 43
0.0
 10
457.0797846365391
 20
-19.39101278656784
 10
455.5702247017592
 20
-19.90824740200235
  0
LWPOLYLINE
  5
112
330
1F
100
AcDbEntity
  8
0_Pen_No__1
  6
Continuous
100
AcDbPolyline
 90
        2
 70
   128
 43
0.0
 10
455.5702247017592
 20
-19.90824740200235
 10
453.7728451629546
 20
-19.95080848028206
  0
LWPOLYLINE
  5
113
330
1F
100
AcDbEntity
  8
0_Pen_No__1
  6
Continuous
100
AcDbPolyline
 90
        2
 70
   128
 43
0.0
 10
453.7728451629546
 20
-19.95080848028206
 10
451.7422584878927
 20
-19.51740282458002
  0
LWPOLYLINE
  5
114
330
1F
100
AcDbEntity
  8
0_Pen_No__1
  6
Continuous
100
AcDbPolyline
 90
        2
 70
   128
 43
0.0
 10
451.7422584878927
 20
-19.51740282458002
 10
449.5401630251701
 20
-18.621199246431
  0
LWPOLYLINE
  5
115
330
1F
100
AcDbEntity
  8
0_Pen_No__1
  6
Continuous
100
AcDbPolyline
 90
        2
 70
   128
 43
0.0
 10
448.518121510153
 20
-18.73937798390367
 10
448.3868156781376
 20
-17.95531384224312
  0
LWPOLYLINE
  5
116
330
1F
100
AcDbEntity
  8
0_Pen_No__1
  6
Continuous
100
AcDbPolyline
 90
        2
 70
   128
 43
0.0
 10
466.567452725795
 20
-13.33993212426297
 10
457.7097149251905
 20
-20.25742791894745
  0
LWPOLYLINE
  5
117
330
1F
100
AcDbEntity
  8
0_Pen_No__1
  6
Continuous
100
AcDbPolyline
 90
        2
 70
   128
 43
0.0
 10
419.3125092725722
 20
15.51711149910363
 10
419.7824209095176
 20
15.29111941552021
  0
LWPOLYLINE
  5
118
330
1F
100
AcDbEntity
  8
0_Pen_No__1
  6
Continuous
100
AcDbPolyline
 90
        2
 70
   128
 43
0.0
 10
419.7824209095176
 20
15.29111941552021
 10
422.3886569938102
 20
13.49881554222855
  0
LWPOLYLINE
  5
119
330
1F
100
AcDbEntity
  8
0_Pen_No__1
  6
Continuous
100
AcDbPolyline
 90
        2
 70
   128
 43
0.0
 10
422.3886569938102
 20
13.49881554222855
 10
424.9789605645446
 20
11.30485514672865
  0
LWPOLYLINE
  5
11A
330
1F
100
AcDbEntity
  8
0_Pen_No__1
  6
Continuous
100
AcDbPolyline
 90
        2
 70
   128
 43
0.0
 10
424.9789605645446
 20
11.30485514672865
 10
427.4746265584816
 20
8.775900605438771
  0
LWPOLYLINE
  5
11B
330
1F
100
AcDbEntity
  8
0_Pen_No__1
  6
Continuous
100
AcDbPolyline
 90
        2
 70
   128
 43
0.0
 10
427.4746265584816
 20
8.775900605438771
 10
429.7998254272644
 20
5.988792922383316
  0
LWPOLYLINE
  5
11C
330
1F
100
AcDbEntity
  8
0_Pen_No__1
  6
Continuous
100
AcDbPolyline
 90
        2
 70
   128
 43
0.0
 10
429.7998254272644
 20
5.988792922383316
 10
431.8839071798699
 20
3.028216954170118
  0
LWPOLYLINE
  5
11D
330
1F
100
AcDbEntity
  8
0_Pen_No__1
  6
Continuous
100
AcDbPolyline
 90
        2
 70
   128
 43
0.0
 10
431.8839071798699
 20
3.028216954170118
 10
433.6635480468433
 20
-0.0158716965347055
  0
LWPOLYLINE
  5
11E
330
1F
100
AcDbEntity
  8
0_Pen_No__1
  6
Continuous
100
AcDbPolyline
 90
        2
 70
   128
 43
0.0
 10
419.4438151045867
 20
14.7330473574442
 10
419.889546744989
 20
14.51868402992686
  0
LWPOLYLINE
  5
11F
330
1F
100
AcDbEntity
  8
0_Pen_No__1
  6
Continuous
100
AcDbPolyline
 90
        2
 70
   128
 43
0.0
 10
419.889546744989
 20
14.51868402992686
 10
422.3616751065649
 20
12.81860579663542
  0
LWPOLYLINE
  5
120
330
1F
100
AcDbEntity
  8
0_Pen_No__1
  6
Continuous
100
AcDbPolyline
 90
        2
 70
   128
 43
0.0
 10
422.3616751065649
 20
12.81860579663542
 10
424.8186907855726
 20
10.73753887005181
  0
LWPOLYLINE
  5
121
330
1F
100
AcDbEntity
  8
0_Pen_No__1
  6
Continuous
100
AcDbPolyline
 90
        2
 70
   128
 43
0.0
 10
424.8186907855726
 20
10.73753887005181
 10
427.1859386039179
 20
8.338715415669231
  0
LWPOLYLINE
  5
122
330
1F
100
AcDbEntity
  8
0_Pen_No__1
  6
Continuous
100
AcDbPolyline
 90
        2
 70
   128
 43
0.0
 10
427.1859386039179
 20
8.338715415669231
 10
429.391490934524
 20
5.695022470286873
  0
LWPOLYLINE
  5
123
330
1F
100
AcDbEntity
  8
0_Pen_No__1
  6
Continuous
100
AcDbPolyline
 90
        2
 70
   128
 43
0.0
 10
429.391490934524
 20
5.695022470286873
 10
431.3683331858884
 20
2.88678730627713
  0
LWPOLYLINE
  5
124
330
1F
100
AcDbEntity
  8
0_Pen_No__1
  6
Continuous
100
AcDbPolyline
 90
        2
 70
   128
 43
0.0
 10
431.3683331858884
 20
2.88678730627713
 10
433.0564000065342
 20
-0.0006632719381366
  0
LWPOLYLINE
  5
125
330
1F
100
AcDbEntity
  8
0_Pen_No__1
  6
Continuous
100
AcDbPolyline
 90
        2
 70
   128
 43
0.0
 10
433.0564000065342
 20
-0.0006632719381366
 10
433.7304001734266
 20
-1.440129405797838
  0
LWPOLYLINE
  5
126
330
1F
100
AcDbEntity
  8
0_Pen_No__1
  6
Continuous
100
AcDbPolyline
 90
        2
 70
   128
 43
0.0
 10
419.3125092725722
 20
15.51711149910363
 10
419.4438151045867
 20
14.7330473574442
  0
LWPOLYLINE
  5
127
330
1F
100
AcDbEntity
  8
0_Pen_No__1
  6
Continuous
100
AcDbPolyline
 90
        2
 70
   128
 43
0.0
 10
434.3888506107101
 20
-1.564945787925973
 10
433.7304001734266
 20
-1.440129405797838
  0
LWPOLYLINE
  5
128
330
1F
100
AcDbEntity
  8
0_Pen_No__1
  6
Continuous
100
AcDbPolyline
 90
        2
 70
   128
 43
0.0
 10
447.1017233957113
 20
-17.9044738018944
 10
444.6265556143718
 20
-16.04749130961257
  0
LWPOLYLINE
  5
129
330
1F
100
AcDbEntity
  8
0_Pen_No__1
  6
Continuous
100
AcDbPolyline
 90
        2
 70
   128
 43
0.0
 10
444.6265556143718
 20
-16.04749130961257
 10
442.1960860764624
 20
-13.83314240039822
  0
LWPOLYLINE
  5
12A
330
1F
100
AcDbEntity
  8
0_Pen_No__1
  6
Continuous
100
AcDbPolyline
 90
        2
 70
   128
 43
0.0
 10
442.1960860764624
 20
-13.83314240039822
 10
439.8841633690154
 20
-11.32870894534564
  0
LWPOLYLINE
  5
12B
330
1F
100
AcDbEntity
  8
0_Pen_No__1
  6
Continuous
100
AcDbPolyline
 90
        2
 70
   128
 43
0.0
 10
439.8841633690154
 20
-11.32870894534564
 10
437.7610340936071
 20
-8.610286887680383
  0
LWPOLYLINE
  5
12C
330
1F
100
AcDbEntity
  8
0_Pen_No__1
  6
Continuous
100
AcDbPolyline
 90
        2
 70
   128
 43
0.0
 10
437.7610340936071
 20
-8.610286887680383
 10
435.8912084589148
 20
-5.76047410603718
  0
LWPOLYLINE
  5
12D
330
1F
100
AcDbEntity
  8
0_Pen_No__1
  6
Continuous
100
AcDbPolyline
 90
        2
 70
   128
 43
0.0
 10
435.8912084589148
 20
-5.76047410603718
 10
434.3315001706723
 20
-2.865860719711719
  0
LWPOLYLINE
  5
12E
330
1F
100
AcDbEntity
  8
0_Pen_No__1
  6
Continuous
100
AcDbPolyline
 90
        2
 70
   128
 43
0.0
 10
448.3868156780915
 20
-17.9553138420384
 10
447.0472541586457
 20
-17.16570144210393
  0
LWPOLYLINE
  5
12F
330
1F
100
AcDbEntity
  8
0_Pen_No__1
  6
Continuous
100
AcDbPolyline
 90
        2
 70
   128
 43
0.0
 10
447.0472541586457
 20
-17.16570144210393
 10
444.7063589821018
 20
-15.40945631323419
  0
LWPOLYLINE
  5
130
330
1F
100
AcDbEntity
  8
0_Pen_No__1
  6
Continuous
100
AcDbPolyline
 90
        2
 70
   128
 43
0.0
 10
444.7063589821018
 20
-15.40945631323419
 10
442.4077372640421
 20
-13.31523113793863
  0
LWPOLYLINE
  5
131
330
1F
100
AcDbEntity
  8
0_Pen_No__1
  6
Continuous
100
AcDbPolyline
 90
        2
 70
   128
 43
0.0
 10
442.4077372640421
 20
-13.31523113793863
 10
440.2212314622105
 20
-10.94665788843706
  0
LWPOLYLINE
  5
132
330
1F
100
AcDbEntity
  8
0_Pen_No__1
  6
Continuous
100
AcDbPolyline
 90
        2
 70
   128
 43
0.0
 10
440.2212314622105
 20
-10.94665788843706
 10
438.2132774489697
 20
-8.375704464360298
  0
LWPOLYLINE
  5
133
330
1F
100
AcDbEntity
  8
0_Pen_No__1
  6
Continuous
100
AcDbPolyline
 90
        2
 70
   128
 43
0.0
 10
438.2132774489697
 20
-8.375704464360298
 10
436.4448858909391
 20
-5.680487984532564
  0
LWPOLYLINE
  5
134
330
1F
100
AcDbEntity
  8
0_Pen_No__1
  6
Continuous
100
AcDbPolyline
 90
        2
 70
   128
 43
0.0
 10
436.4448858909391
 20
-5.680487984532564
 10
434.9697884707604
 20
-2.942901237851778
  0
LWPOLYLINE
  5
135
330
1F
100
AcDbEntity
  8
0_Pen_No__1
  6
Continuous
100
AcDbPolyline
 90
        2
 70
   128
 43
0.0
 10
434.9697884707604
 20
-2.942901237851778
 10
434.3888506106026
 20
-1.564945787833602
  0
LWPOLYLINE
  5
136
330
1F
100
AcDbEntity
  8
0_Pen_No__1
  6
Continuous
100
AcDbPolyline
 90
        2
 70
   128
 43
0.0
 10
407.3425207968127
 20
14.05026007887179
 10
407.4125492080671
 20
14.46260730655514
  0
LWPOLYLINE
  5
137
330
1F
100
AcDbEntity
  8
0_Pen_No__1
  6
Continuous
100
AcDbPolyline
 90
        2
 70
   128
 43
0.0
 10
407.4125492080671
 20
14.46260730655514
 10
408.3115232688161
 20
16.02933236333105
  0
LWPOLYLINE
  5
138
330
1F
100
AcDbEntity
  8
0_Pen_No__1
  6
Continuous
100
AcDbPolyline
 90
        2
 70
   128
 43
0.0
 10
408.3115232688161
 20
16.02933236333105
 10
409.6222914008676
 20
17.11751242479033
  0
LWPOLYLINE
  5
139
330
1F
100
AcDbEntity
  8
0_Pen_No__1
  6
Continuous
100
AcDbPolyline
 90
        2
 70
   128
 43
0.0
 10
409.6222914008676
 20
17.11751242479033
 10
411.3050265778086
 20
17.69408369041016
  0
LWPOLYLINE
  5
13A
330
1F
100
AcDbEntity
  8
0_Pen_No__1
  6
Continuous
100
AcDbPolyline
 90
        2
 70
   128
 43
0.0
 10
411.3050265778086
 20
17.69408369041016
 10
413.3085997427956
 20
17.74152733404434
  0
LWPOLYLINE
  5
13B
330
1F
100
AcDbEntity
  8
0_Pen_No__1
  6
Continuous
100
AcDbPolyline
 90
        2
 70
   128
 43
0.0
 10
413.3085997427956
 20
17.74152733404434
 10
415.572133339065
 20
17.25840180458883
  0
LWPOLYLINE
  5
13C
330
1F
100
AcDbEntity
  8
0_Pen_No__1
  6
Continuous
100
AcDbPolyline
 90
        2
 70
   128
 43
0.0
 10
415.572133339065
 20
17.25840180458883
 10
418.0268510436989
 20
16.25938662678185
  0
LWPOLYLINE
  5
13D
330
1F
100
AcDbEntity
  8
0_Pen_No__1
  6
Continuous
100
AcDbPolyline
 90
        2
 70
   128
 43
0.0
 10
408.0956480572568
 20
13.36010169367431
 10
408.1561850412996
 20
13.73280423383462
  0
LWPOLYLINE
  5
13E
330
1F
100
AcDbEntity
  8
0_Pen_No__1
  6
Continuous
100
AcDbPolyline
 90
        2
 70
   128
 43
0.0
 10
408.1561850412996
 20
13.73280423383462
 10
409.0089010654889
 20
15.21891114141351
  0
LWPOLYLINE
  5
13F
330
1F
100
AcDbEntity
  8
0_Pen_No__1
  6
Continuous
100
AcDbPolyline
 90
        2
 70
   128
 43
0.0
 10
409.0089010654889
 20
15.21891114141351
 10
410.2522216895197
 20
16.2510972924096
  0
LWPOLYLINE
  5
140
330
1F
100
AcDbEntity
  8
0_Pen_No__1
  6
Continuous
100
AcDbPolyline
 90
        2
 70
   128
 43
0.0
 10
410.2522216895197
 20
16.2510972924096
 10
411.84836924538
 20
16.79800023293766
  0
LWPOLYLINE
  5
141
330
1F
100
AcDbEntity
  8
0_Pen_No__1
  6
Continuous
100
AcDbPolyline
 90
        2
 70
   128
 43
0.0
 10
411.84836924538
 20
16.79800023293766
 10
413.7488455972758
 20
16.84300259389516
  0
LWPOLYLINE
  5
142
330
1F
100
AcDbEntity
  8
0_Pen_No__1
  6
Continuous
100
AcDbPolyline
 90
        2
 70
   128
 43
0.0
 10
413.7488455972758
 20
16.84300259389516
 10
415.8959057329419
 20
16.38473700131605
  0
LWPOLYLINE
  5
143
330
1F
100
AcDbEntity
  8
0_Pen_No__1
  6
Continuous
100
AcDbPolyline
 90
        2
 70
   128
 43
0.0
 10
415.8959057329419
 20
16.38473700131605
 10
418.2243123166191
 20
15.4371276233375
  0
LWPOLYLINE
  5
144
330
1F
100
AcDbEntity
  8
0_Pen_No__1
  6
Continuous
100
AcDbPolyline
 90
        2
 70
   128
 43
0.0
 10
408.0956480573157
 20
13.36010169357706
 10
407.8442274031422
 20
12.2608652379327
  0
LWPOLYLINE
  5
145
330
1F
100
AcDbEntity
  8
0_Pen_No__1
  6
Continuous
100
AcDbPolyline
 90
        2
 70
   128
 43
0.0
 10
407.8442274031422
 20
12.2608652379327
 10
406.9915113789522
 20
10.77475833035403
  0
LWPOLYLINE
  5
146
330
1F
100
AcDbEntity
  8
0_Pen_No__1
  6
Continuous
100
AcDbPolyline
 90
        2
 70
   128
 43
0.0
 10
406.9915113789522
 20
10.77475833035403
 10
405.7481907549212
 20
9.742572179358158
  0
LWPOLYLINE
  5
147
330
1F
100
AcDbEntity
  8
0_Pen_No__1
  6
Continuous
100
AcDbPolyline
 90
        2
 70
   128
 43
0.0
 10
405.7481907549212
 20
9.742572179358158
 10
404.152043199061
 20
9.195669238830098
  0
LWPOLYLINE
  5
148
330
1F
100
AcDbEntity
  8
0_Pen_No__1
  6
Continuous
100
AcDbPolyline
 90
        2
 70
   128
 43
0.0
 10
404.152043199061
 20
9.195669238830098
 10
402.2515668471653
 20
9.150666877873261
  0
LWPOLYLINE
  5
149
330
1F
100
AcDbEntity
  8
0_Pen_No__1
  6
Continuous
100
AcDbPolyline
 90
        2
 70
   128
 43
0.0
 10
402.2515668471653
 20
9.150666877873261
 10
400.1045067115001
 20
9.608932470452594
  0
LWPOLYLINE
  5
14A
330
1F
100
AcDbEntity
  8
0_Pen_No__1
  6
Continuous
100
AcDbPolyline
 90
        2
 70
   128
 43
0.0
 10
400.1045067115001
 20
9.608932470452594
 10
397.776100127822
 20
10.55654184843026
  0
LWPOLYLINE
  5
14B
330
1F
100
AcDbEntity
  8
0_Pen_No__1
  6
Continuous
100
AcDbPolyline
 90
        2
 70
   128
 43
0.0
 10
407.3425207968722
 20
14.05026007877431
 10
407.1005915699109
 20
12.99066831065233
  0
LWPOLYLINE
  5
14C
330
1F
100
AcDbEntity
  8
0_Pen_No__1
  6
Continuous
100
AcDbPolyline
 90
        2
 70
   128
 43
0.0
 10
407.1005915699109
 20
12.99066831065233
 10
406.2941335822794
 20
11.58517955227158
  0
LWPOLYLINE
  5
14D
330
1F
100
AcDbEntity
  8
0_Pen_No__1
  6
Continuous
100
AcDbPolyline
 90
        2
 70
   128
 43
0.0
 10
406.2941335822794
 20
11.58517955227158
 10
405.1182604662698
 20
10.60898731173689
  0
LWPOLYLINE
  5
14E
330
1F
100
AcDbEntity
  8
0_Pen_No__1
  6
Continuous
100
AcDbPolyline
 90
        2
 70
   128
 43
0.0
 10
405.1182604662698
 20
10.60898731173689
 10
403.6087005314899
 20
10.09175269630259
  0
LWPOLYLINE
  5
14F
330
1F
100
AcDbEntity
  8
0_Pen_No__1
  6
Continuous
100
AcDbPolyline
 90
        2
 70
   128
 43
0.0
 10
403.6087005314899
 20
10.09175269630259
 10
401.8113209926852
 20
10.04919161802222
  0
LWPOLYLINE
  5
150
330
1F
100
AcDbEntity
  8
0_Pen_No__1
  6
Continuous
100
AcDbPolyline
 90
        2
 70
   128
 43
0.0
 10
401.8113209926852
 20
10.04919161802222
 10
399.7807343176234
 20
10.48259727372426
  0
LWPOLYLINE
  5
151
330
1F
100
AcDbEntity
  8
0_Pen_No__1
  6
Continuous
100
AcDbPolyline
 90
        2
 70
   128
 43
0.0
 10
399.7807343176234
 20
10.48259727372426
 10
397.5786388549008
 20
11.3788008518735
  0
LWPOLYLINE
  5
152
330
1F
100
AcDbEntity
  8
0_Pen_No__1
  6
Continuous
100
AcDbPolyline
 90
        2
 70
   128
 43
0.0
 10
396.5565973398837
 20
11.26062211440061
 10
396.425291507869
 20
12.04468625606138
  0
LWPOLYLINE
  5
153
330
1F
100
AcDbEntity
  8
0_Pen_No__1
  6
Continuous
100
AcDbPolyline
 90
        2
 70
   128
 43
0.0
 10
414.6059285555183
 20
16.66006797403642
 10
405.7481907549212
 20
9.742572179358158
  0
LWPOLYLINE
  5
154
330
1F
100
AcDbEntity
  8
0_Pen_No__1
  6
Continuous
100
AcDbPolyline
 90
        2
 70
   128
 43
0.0
 10
367.3509851020507
 20
45.51711159755491
 10
367.820896738996
 20
45.29111951397081
  0
LWPOLYLINE
  5
155
330
1F
100
AcDbEntity
  8
0_Pen_No__1
  6
Continuous
100
AcDbPolyline
 90
        2
 70
   128
 43
0.0
 10
367.820896738996
 20
45.29111951397081
 10
370.4271328232887
 20
43.49881564067893
  0
LWPOLYLINE
  5
156
330
1F
100
AcDbEntity
  8
0_Pen_No__1
  6
Continuous
100
AcDbPolyline
 90
        2
 70
   128
 43
0.0
 10
370.4271328232887
 20
43.49881564067893
 10
373.0174363940237
 20
41.30485524517903
  0
LWPOLYLINE
  5
157
330
1F
100
AcDbEntity
  8
0_Pen_No__1
  6
Continuous
100
AcDbPolyline
 90
        2
 70
   128
 43
0.0
 10
373.0174363940237
 20
41.30485524517903
 10
375.513102387961
 20
38.77590070388916
  0
LWPOLYLINE
  5
158
330
1F
100
AcDbEntity
  8
0_Pen_No__1
  6
Continuous
100
AcDbPolyline
 90
        2
 70
   128
 43
0.0
 10
375.513102387961
 20
38.77590070388916
 10
377.8383012567428
 20
35.98879302083392
  0
LWPOLYLINE
  5
159
330
1F
100
AcDbEntity
  8
0_Pen_No__1
  6
Continuous
100
AcDbPolyline
 90
        2
 70
   128
 43
0.0
 10
377.8383012567428
 20
35.98879302083392
 10
379.9223830093492
 20
33.02821705262028
  0
LWPOLYLINE
  5
15A
330
1F
100
AcDbEntity
  8
0_Pen_No__1
  6
Continuous
100
AcDbPolyline
 90
        2
 70
   128
 43
0.0
 10
379.9223830093492
 20
33.02821705262028
 10
381.702023876322
 20
29.98412840191679
  0
LWPOLYLINE
  5
15B
330
1F
100
AcDbEntity
  8
0_Pen_No__1
  6
Continuous
100
AcDbPolyline
 90
        2
 70
   128
 43
0.0
 10
367.4822909340649
 20
44.73304745589459
 10
367.9280225744677
 20
44.51868412837747
  0
LWPOLYLINE
  5
15C
330
1F
100
AcDbEntity
  8
0_Pen_No__1
  6
Continuous
100
AcDbPolyline
 90
        2
 70
   128
 43
0.0
 10
367.9280225744677
 20
44.51868412837747
 10
370.4001509360433
 20
42.81860589508581
  0
LWPOLYLINE
  5
15D
330
1F
100
AcDbEntity
  8
0_Pen_No__1
  6
Continuous
100
AcDbPolyline
 90
        2
 70
   128
 43
0.0
 10
370.4001509360433
 20
42.81860589508581
 10
372.8571666150522
 20
40.7375389685022
  0
LWPOLYLINE
  5
15E
330
1F
100
AcDbEntity
  8
0_Pen_No__1
  6
Continuous
100
AcDbPolyline
 90
        2
 70
   128
 43
0.0
 10
372.8571666150522
 20
40.7375389685022
 10
375.224414433396
 20
38.33871551411984
  0
LWPOLYLINE
  5
15F
330
1F
100
AcDbEntity
  8
0_Pen_No__1
  6
Continuous
100
AcDbPolyline
 90
        2
 70
   128
 43
0.0
 10
375.224414433396
 20
38.33871551411984
 10
377.4299667640024
 20
35.69502256873837
  0
LWPOLYLINE
  5
160
330
1F
100
AcDbEntity
  8
0_Pen_No__1
  6
Continuous
100
AcDbPolyline
 90
        2
 70
   128
 43
0.0
 10
377.4299667640024
 20
35.69502256873837
 10
379.4068090153671
 20
32.8867874047284
  0
LWPOLYLINE
  5
161
330
1F
100
AcDbEntity
  8
0_Pen_No__1
  6
Continuous
100
AcDbPolyline
 90
        2
 70
   128
 43
0.0
 10
379.4068090153671
 20
32.8867874047284
 10
381.0948758360126
 20
29.99933682651225
  0
LWPOLYLINE
  5
162
330
1F
100
AcDbEntity
  8
0_Pen_No__1
  6
Continuous
100
AcDbPolyline
 90
        2
 70
   128
 43
0.0
 10
381.0948758360126
 20
29.99933682651225
 10
381.7688760029048
 20
28.55987069265255
  0
LWPOLYLINE
  5
163
330
1F
100
AcDbEntity
  8
0_Pen_No__1
  6
Continuous
100
AcDbPolyline
 90
        2
 70
   128
 43
0.0
 10
367.3509851020507
 20
45.51711159755491
 10
367.4822909340649
 20
44.73304745589459
  0
LWPOLYLINE
  5
164
330
1F
100
AcDbEntity
  8
0_Pen_No__1
  6
Continuous
100
AcDbPolyline
 90
        2
 70
   128
 43
0.0
 10
382.4273264401885
 20
28.43505431052463
 10
381.7688760029048
 20
28.55987069265255
  0
LWPOLYLINE
  5
165
330
1F
100
AcDbEntity
  8
0_Pen_No__1
  6
Continuous
100
AcDbPolyline
 90
        2
 70
   128
 43
0.0
 10
395.140199225442
 20
12.09552629640988
 10
392.6650314441022
 20
13.95250878869216
  0
LWPOLYLINE
  5
166
330
1F
100
AcDbEntity
  8
0_Pen_No__1
  6
Continuous
100
AcDbPolyline
 90
        2
 70
   128
 43
0.0
 10
392.6650314441022
 20
13.95250878869216
 10
390.2345619061931
 20
16.16685769790739
  0
LWPOLYLINE
  5
167
330
1F
100
AcDbEntity
  8
0_Pen_No__1
  6
Continuous
100
AcDbPolyline
 90
        2
 70
   128
 43
0.0
 10
390.2345619061931
 20
16.16685769790739
 10
387.922639198746
 20
18.67129115295997
  0
LWPOLYLINE
  5
168
330
1F
100
AcDbEntity
  8
0_Pen_No__1
  6
Continuous
100
AcDbPolyline
 90
        2
 70
   128
 43
0.0
 10
387.922639198746
 20
18.67129115295997
 10
385.7995099233378
 20
21.38971321062412
  0
LWPOLYLINE
  5
169
330
1F
100
AcDbEntity
  8
0_Pen_No__1
  6
Continuous
100
AcDbPolyline
 90
        2
 70
   128
 43
0.0
 10
385.7995099233378
 20
21.38971321062412
 10
383.9296842886455
 20
24.23952599226755
  0
LWPOLYLINE
  5
16A
330
1F
100
AcDbEntity
  8
0_Pen_No__1
  6
Continuous
100
AcDbPolyline
 90
        2
 70
   128
 43
0.0
 10
383.9296842886455
 20
24.23952599226755
 10
382.3699760004029
 20
27.13413937859278
  0
LWPOLYLINE
  5
16B
330
1F
100
AcDbEntity
  8
0_Pen_No__1
  6
Continuous
100
AcDbPolyline
 90
        2
 70
   128
 43
0.0
 10
396.4252915078221
 20
12.0446862562661
 10
395.0857299883763
 20
12.83429865620168
  0
LWPOLYLINE
  5
16C
330
1F
100
AcDbEntity
  8
0_Pen_No__1
  6
Continuous
100
AcDbPolyline
 90
        2
 70
   128
 43
0.0
 10
395.0857299883763
 20
12.83429865620168
 10
392.7448348118323
 20
14.59054378507031
  0
LWPOLYLINE
  5
16D
330
1F
100
AcDbEntity
  8
0_Pen_No__1
  6
Continuous
100
AcDbPolyline
 90
        2
 70
   128
 43
0.0
 10
392.7448348118323
 20
14.59054378507031
 10
390.4462130937727
 20
16.6847689603661
  0
LWPOLYLINE
  5
16E
330
1F
100
AcDbEntity
  8
0_Pen_No__1
  6
Continuous
100
AcDbPolyline
 90
        2
 70
   128
 43
0.0
 10
390.4462130937727
 20
16.6847689603661
 10
388.2597072919402
 20
19.05334220986855
  0
LWPOLYLINE
  5
16F
330
1F
100
AcDbEntity
  8
0_Pen_No__1
  6
Continuous
100
AcDbPolyline
 90
        2
 70
   128
 43
0.0
 10
388.2597072919402
 20
19.05334220986855
 10
386.2517532787004
 20
21.62429563394532
  0
LWPOLYLINE
  5
170
330
1F
100
AcDbEntity
  8
0_Pen_No__1
  6
Continuous
100
AcDbPolyline
 90
        2
 70
   128
 43
0.0
 10
386.2517532787004
 20
21.62429563394532
 10
384.4833617206698
 20
24.31951211377172
  0
LWPOLYLINE
  5
171
330
1F
100
AcDbEntity
  8
0_Pen_No__1
  6
Continuous
100
AcDbPolyline
 90
        2
 70
   128
 43
0.0
 10
384.4833617206698
 20
24.31951211377172
 10
383.0082643004911
 20
27.05709886045383
  0
LWPOLYLINE
  5
172
330
1F
100
AcDbEntity
  8
0_Pen_No__1
  6
Continuous
100
AcDbPolyline
 90
        2
 70
   128
 43
0.0
 10
383.0082643004911
 20
27.05709886045383
 10
382.4273264403322
 20
28.43505431047179
  0
LWPOLYLINE
  5
173
330
1F
100
AcDbEntity
  8
0_Pen_No__1
  6
Continuous
100
AcDbPolyline
 90
        2
 70
   128
 43
0.0
 10
355.3809966262909
 20
44.05026017732218
 10
355.4510250375458
 20
44.46260740500553
  0
LWPOLYLINE
  5
174
330
1F
100
AcDbEntity
  8
0_Pen_No__1
  6
Continuous
100
AcDbPolyline
 90
        2
 70
   128
 43
0.0
 10
355.4510250375458
 20
44.46260740500553
 10
356.3499990982953
 20
46.02933246178144
  0
LWPOLYLINE
  5
175
330
1F
100
AcDbEntity
  8
0_Pen_No__1
  6
Continuous
100
AcDbPolyline
 90
        2
 70
   128
 43
0.0
 10
356.3499990982953
 20
46.02933246178144
 10
357.660767230346
 20
47.11751252324071
  0
LWPOLYLINE
  5
176
330
1F
100
AcDbEntity
  8
0_Pen_No__1
  6
Continuous
100
AcDbPolyline
 90
        2
 70
   128
 43
0.0
 10
357.660767230346
 20
47.11751252324071
 10
359.3435024072882
 20
47.69408378886055
  0
LWPOLYLINE
  5
177
330
1F
100
AcDbEntity
  8
0_Pen_No__1
  6
Continuous
100
AcDbPolyline
 90
        2
 70
   128
 43
0.0
 10
359.3435024072882
 20
47.69408378886055
 10
361.3470755722741
 20
47.74152743249473
  0
LWPOLYLINE
  5
178
330
1F
100
AcDbEntity
  8
0_Pen_No__1
  6
Continuous
100
AcDbPolyline
 90
        2
 70
   128
 43
0.0
 10
361.3470755722741
 20
47.74152743249473
 10
363.6106091685445
 20
47.25840190303899
  0
LWPOLYLINE
  5
179
330
1F
100
AcDbEntity
  8
0_Pen_No__1
  6
Continuous
100
AcDbPolyline
 90
        2
 70
   128
 43
0.0
 10
363.6106091685445
 20
47.25840190303899
 10
366.0653268731773
 20
46.25938672523223
  0
LWPOLYLINE
  5
17A
330
1F
100
AcDbEntity
  8
0_Pen_No__1
  6
Continuous
100
AcDbPolyline
 90
        2
 70
   128
 43
0.0
 10
356.1341238867355
 20
43.36010179212469
 10
356.1946608707771
 20
43.73280433228501
  0
LWPOLYLINE
  5
17B
330
1F
100
AcDbEntity
  8
0_Pen_No__1
  6
Continuous
100
AcDbPolyline
 90
        2
 70
   128
 43
0.0
 10
356.1946608707771
 20
43.73280433228501
 10
357.0473768949673
 20
45.21891123986389
  0
LWPOLYLINE
  5
17C
330
1F
100
AcDbEntity
  8
0_Pen_No__1
  6
Continuous
100
AcDbPolyline
 90
        2
 70
   128
 43
0.0
 10
357.0473768949673
 20
45.21891123986389
 10
358.2906975189983
 20
46.25109739085999
  0
LWPOLYLINE
  5
17D
330
1F
100
AcDbEntity
  8
0_Pen_No__1
  6
Continuous
100
AcDbPolyline
 90
        2
 70
   128
 43
0.0
 10
358.2906975189983
 20
46.25109739085999
 10
359.8868450748585
 20
46.79800033138805
  0
LWPOLYLINE
  5
17E
330
1F
100
AcDbEntity
  8
0_Pen_No__1
  6
Continuous
100
AcDbPolyline
 90
        2
 70
   128
 43
0.0
 10
359.8868450748585
 20
46.79800033138805
 10
361.7873214267542
 20
46.84300269234577
  0
LWPOLYLINE
  5
17F
330
1F
100
AcDbEntity
  8
0_Pen_No__1
  6
Continuous
100
AcDbPolyline
 90
        2
 70
   128
 43
0.0
 10
361.7873214267542
 20
46.84300269234577
 10
363.9343815624194
 20
46.38473709976644
  0
LWPOLYLINE
  5
180
330
1F
100
AcDbEntity
  8
0_Pen_No__1
  6
Continuous
100
AcDbPolyline
 90
        2
 70
   128
 43
0.0
 10
363.9343815624194
 20
46.38473709976644
 10
366.2627881460983
 20
45.43712772178878
  0
LWPOLYLINE
  5
181
330
1F
100
AcDbEntity
  8
0_Pen_No__1
  6
Continuous
100
AcDbPolyline
 90
        2
 70
   128
 43
0.0
 10
356.134123886795
 20
43.36010179202766
 10
355.8827032326208
 20
42.26086533638441
  0
LWPOLYLINE
  5
182
330
1F
100
AcDbEntity
  8
0_Pen_No__1
  6
Continuous
100
AcDbPolyline
 90
        2
 70
   128
 43
0.0
 10
355.8827032326208
 20
42.26086533638441
 10
355.0299872084306
 20
40.77475842880442
  0
LWPOLYLINE
  5
183
330
1F
100
AcDbEntity
  8
0_Pen_No__1
  6
Continuous
100
AcDbPolyline
 90
        2
 70
   128
 43
0.0
 10
355.0299872084306
 20
40.77475842880442
 10
353.7866665844005
 20
39.74257227780854
  0
LWPOLYLINE
  5
184
330
1F
100
AcDbEntity
  8
0_Pen_No__1
  6
Continuous
100
AcDbPolyline
 90
        2
 70
   128
 43
0.0
 10
353.7866665844005
 20
39.74257227780854
 10
352.1905190285395
 20
39.19566933728048
  0
LWPOLYLINE
  5
185
330
1F
100
AcDbEntity
  8
0_Pen_No__1
  6
Continuous
100
AcDbPolyline
 90
        2
 70
   128
 43
0.0
 10
352.1905190285395
 20
39.19566933728048
 10
350.2900426766436
 20
39.15066697632365
  0
LWPOLYLINE
  5
186
330
1F
100
AcDbEntity
  8
0_Pen_No__1
  6
Continuous
100
AcDbPolyline
 90
        2
 70
   128
 43
0.0
 10
350.2900426766436
 20
39.15066697632365
 10
348.1429825409786
 20
39.60893256890298
  0
LWPOLYLINE
  5
187
330
1F
100
AcDbEntity
  8
0_Pen_No__1
  6
Continuous
100
AcDbPolyline
 90
        2
 70
   128
 43
0.0
 10
348.1429825409786
 20
39.60893256890298
 10
345.8145759573003
 20
40.55654194688153
  0
LWPOLYLINE
  5
188
330
1F
100
AcDbEntity
  8
0_Pen_No__1
  6
Continuous
100
AcDbPolyline
 90
        2
 70
   128
 43
0.0
 10
355.3809966263506
 20
44.05026017722492
 10
355.1390673993884
 20
42.99066840910361
  0
LWPOLYLINE
  5
189
330
1F
100
AcDbEntity
  8
0_Pen_No__1
  6
Continuous
100
AcDbPolyline
 90
        2
 70
   128
 43
0.0
 10
355.1390673993884
 20
42.99066840910361
 10
354.3326094117576
 20
41.58517965072196
  0
LWPOLYLINE
  5
18A
330
1F
100
AcDbEntity
  8
0_Pen_No__1
  6
Continuous
100
AcDbPolyline
 90
        2
 70
   128
 43
0.0
 10
354.3326094117576
 20
41.58517965072196
 10
353.1567362957481
 20
40.60898741018838
  0
LWPOLYLINE
  5
18B
330
1F
100
AcDbEntity
  8
0_Pen_No__1
  6
Continuous
100
AcDbPolyline
 90
        2
 70
   128
 43
0.0
 10
353.1567362957481
 20
40.60898741018838
 10
351.6471763609683
 20
40.09175279475298
  0
LWPOLYLINE
  5
18C
330
1F
100
AcDbEntity
  8
0_Pen_No__1
  6
Continuous
100
AcDbPolyline
 90
        2
 70
   128
 43
0.0
 10
351.6471763609683
 20
40.09175279475298
 10
349.8497968221637
 20
40.04919171647283
  0
LWPOLYLINE
  5
18D
330
1F
100
AcDbEntity
  8
0_Pen_No__1
  6
Continuous
100
AcDbPolyline
 90
        2
 70
   128
 43
0.0
 10
349.8497968221637
 20
40.04919171647283
 10
347.8192101471027
 20
40.48259737217576
  0
LWPOLYLINE
  5
18E
330
1F
100
AcDbEntity
  8
0_Pen_No__1
  6
Continuous
100
AcDbPolyline
 90
        2
 70
   128
 43
0.0
 10
347.8192101471027
 20
40.48259737217576
 10
345.6171146843789
 20
41.37880095032389
  0
LWPOLYLINE
  5
18F
330
1F
100
AcDbEntity
  8
0_Pen_No__1
  6
Continuous
100
AcDbPolyline
 90
        2
 70
   128
 43
0.0
 10
344.5950731693621
 20
41.26062221285122
 10
344.4637673373465
 20
42.04468635451177
  0
LWPOLYLINE
  5
190
330
1F
100
AcDbEntity
  8
0_Pen_No__1
  6
Continuous
100
AcDbPolyline
 90
        2
 70
   128
 43
0.0
 10
362.6444043849943
 20
46.66006807248481
 10
353.7866665844005
 20
39.74257227780854
  0
LWPOLYLINE
  5
191
330
1F
100
AcDbEntity
  8
0_Pen_No__1
  6
Continuous
100
AcDbPolyline
 90
        2
 70
   128
 43
0.0
 10
315.3894609317813
 20
75.51711169585963
 10
315.8593725687275
 20
75.29111961227554
  0
LWPOLYLINE
  5
192
330
1F
100
AcDbEntity
  8
0_Pen_No__1
  6
Continuous
100
AcDbPolyline
 90
        2
 70
   128
 43
0.0
 10
315.8593725687275
 20
75.29111961227554
 10
318.4656086530193
 20
73.49881573898344
  0
LWPOLYLINE
  5
193
330
1F
100
AcDbEntity
  8
0_Pen_No__1
  6
Continuous
100
AcDbPolyline
 90
        2
 70
   128
 43
0.0
 10
318.4656086530193
 20
73.49881573898344
 10
321.0559122237538
 20
71.30485534348331
  0
LWPOLYLINE
  5
194
330
1F
100
AcDbEntity
  8
0_Pen_No__1
  6
Continuous
100
AcDbPolyline
 90
        2
 70
   128
 43
0.0
 10
321.0559122237538
 20
71.30485534348331
 10
323.5515782176917
 20
68.77590080219366
  0
LWPOLYLINE
  5
195
330
1F
100
AcDbEntity
  8
0_Pen_No__1
  6
Continuous
100
AcDbPolyline
 90
        2
 70
   128
 43
0.0
 10
323.5515782176917
 20
68.77590080219366
 10
325.8767770864735
 20
65.98879311913953
  0
LWPOLYLINE
  5
196
330
1F
100
AcDbEntity
  8
0_Pen_No__1
  6
Continuous
100
AcDbPolyline
 90
        2
 70
   128
 43
0.0
 10
325.8767770864735
 20
65.98879311913953
 10
327.9608588390788
 20
63.02821715092612
  0
LWPOLYLINE
  5
197
330
1F
100
AcDbEntity
  8
0_Pen_No__1
  6
Continuous
100
AcDbPolyline
 90
        2
 70
   128
 43
0.0
 10
327.9608588390788
 20
63.02821715092612
 10
329.7404997060536
 20
59.9841285002213
  0
LWPOLYLINE
  5
198
330
1F
100
AcDbEntity
  8
0_Pen_No__1
  6
Continuous
100
AcDbPolyline
 90
        2
 70
   128
 43
0.0
 10
315.5207667637958
 20
74.73304755419909
 10
315.9664984041983
 20
74.51868422668285
  0
LWPOLYLINE
  5
199
330
1F
100
AcDbEntity
  8
0_Pen_No__1
  6
Continuous
100
AcDbPolyline
 90
        2
 70
   128
 43
0.0
 10
315.9664984041983
 20
74.51868422668285
 10
318.438626765774
 20
72.8186059933903
  0
LWPOLYLINE
  5
19A
330
1F
100
AcDbEntity
  8
0_Pen_No__1
  6
Continuous
100
AcDbPolyline
 90
        2
 70
   128
 43
0.0
 10
318.438626765774
 20
72.8186059933903
 10
320.8956424447829
 20
70.73753906680648
  0
LWPOLYLINE
  5
19B
330
1F
100
AcDbEntity
  8
0_Pen_No__1
  6
Continuous
100
AcDbPolyline
 90
        2
 70
   128
 43
0.0
 10
320.8956424447829
 20
70.73753906680648
 10
323.2628902631269
 20
68.33871561242434
  0
LWPOLYLINE
  5
19C
330
1F
100
AcDbEntity
  8
0_Pen_No__1
  6
Continuous
100
AcDbPolyline
 90
        2
 70
   128
 43
0.0
 10
323.2628902631269
 20
68.33871561242434
 10
325.4684425937328
 20
65.69502266704288
  0
LWPOLYLINE
  5
19D
330
1F
100
AcDbEntity
  8
0_Pen_No__1
  6
Continuous
100
AcDbPolyline
 90
        2
 70
   128
 43
0.0
 10
325.4684425937328
 20
65.69502266704288
 10
327.4452848450977
 20
62.88678750303313
  0
LWPOLYLINE
  5
19E
330
1F
100
AcDbEntity
  8
0_Pen_No__1
  6
Continuous
100
AcDbPolyline
 90
        2
 70
   128
 43
0.0
 10
327.4452848450977
 20
62.88678750303313
 10
329.1333516657442
 20
59.99933692481786
  0
LWPOLYLINE
  5
19F
330
1F
100
AcDbEntity
  8
0_Pen_No__1
  6
Continuous
100
AcDbPolyline
 90
        2
 70
   128
 43
0.0
 10
329.1333516657442
 20
59.99933692481786
 10
329.8073518326357
 20
58.55987079095727
  0
LWPOLYLINE
  5
1A0
330
1F
100
AcDbEntity
  8
0_Pen_No__1
  6
Continuous
100
AcDbPolyline
 90
        2
 70
   128
 43
0.0
 10
315.3894609317813
 20
75.51711169585963
 10
315.5207667637958
 20
74.73304755419909
  0
LWPOLYLINE
  5
1A1
330
1F
100
AcDbEntity
  8
0_Pen_No__1
  6
Continuous
100
AcDbPolyline
 90
        2
 70
   128
 43
0.0
 10
330.4658022699189
 20
58.43505440883025
 10
329.8073518326357
 20
58.55987079095727
  0
LWPOLYLINE
  5
1A2
330
1F
100
AcDbEntity
  8
0_Pen_No__1
  6
Continuous
100
AcDbPolyline
 90
        2
 70
   128
 43
0.0
 10
343.1786750549204
 20
42.09552639486049
 10
340.7035072735809
 20
43.95250888714343
  0
LWPOLYLINE
  5
1A3
330
1F
100
AcDbEntity
  8
0_Pen_No__1
  6
Continuous
100
AcDbPolyline
 90
        2
 70
   128
 43
0.0
 10
340.7035072735809
 20
43.95250888714343
 10
338.2730377356713
 20
46.16685779635777
  0
LWPOLYLINE
  5
1A4
330
1F
100
AcDbEntity
  8
0_Pen_No__1
  6
Continuous
100
AcDbPolyline
 90
        2
 70
   128
 43
0.0
 10
338.2730377356713
 20
46.16685779635777
 10
335.9611150282245
 20
48.67129125141036
  0
LWPOLYLINE
  5
1A5
330
1F
100
AcDbEntity
  8
0_Pen_No__1
  6
Continuous
100
AcDbPolyline
 90
        2
 70
   128
 43
0.0
 10
335.9611150282245
 20
48.67129125141036
 10
333.8379857528162
 20
51.38971330907451
  0
LWPOLYLINE
  5
1A6
330
1F
100
AcDbEntity
  8
0_Pen_No__1
  6
Continuous
100
AcDbPolyline
 90
        2
 70
   128
 43
0.0
 10
333.8379857528162
 20
51.38971330907451
 10
331.9681601181246
 20
54.23952609071793
  0
LWPOLYLINE
  5
1A7
330
1F
100
AcDbEntity
  8
0_Pen_No__1
  6
Continuous
100
AcDbPolyline
 90
        2
 70
   128
 43
0.0
 10
331.9681601181246
 20
54.23952609071793
 10
330.4084518298813
 20
57.13413947704317
  0
LWPOLYLINE
  5
1A8
330
1F
100
AcDbEntity
  8
0_Pen_No__1
  6
Continuous
100
AcDbPolyline
 90
        2
 70
   128
 43
0.0
 10
344.4637673373006
 20
42.04468635471649
 10
343.1242058178556
 20
42.83429875465207
  0
LWPOLYLINE
  5
1A9
330
1F
100
AcDbEntity
  8
0_Pen_No__1
  6
Continuous
100
AcDbPolyline
 90
        2
 70
   128
 43
0.0
 10
343.1242058178556
 20
42.83429875465207
 10
340.7833106413119
 20
44.5905438835207
  0
LWPOLYLINE
  5
1AA
330
1F
100
AcDbEntity
  8
0_Pen_No__1
  6
Continuous
100
AcDbPolyline
 90
        2
 70
   128
 43
0.0
 10
340.7833106413119
 20
44.5905438835207
 10
338.4846889232509
 20
46.68476905881737
  0
LWPOLYLINE
  5
1AB
330
1F
100
AcDbEntity
  8
0_Pen_No__1
  6
Continuous
100
AcDbPolyline
 90
        2
 70
   128
 43
0.0
 10
338.4846889232509
 20
46.68476905881737
 10
336.2981831214196
 20
49.05334230831894
  0
LWPOLYLINE
  5
1AC
330
1F
100
AcDbEntity
  8
0_Pen_No__1
  6
Continuous
100
AcDbPolyline
 90
        2
 70
   128
 43
0.0
 10
336.2981831214196
 20
49.05334230831894
 10
334.2902291081786
 20
51.6242957323957
  0
LWPOLYLINE
  5
1AD
330
1F
100
AcDbEntity
  8
0_Pen_No__1
  6
Continuous
100
AcDbPolyline
 90
        2
 70
   128
 43
0.0
 10
334.2902291081786
 20
51.6242957323957
 10
332.5218375501479
 20
54.31951221222232
  0
LWPOLYLINE
  5
1AE
330
1F
100
AcDbEntity
  8
0_Pen_No__1
  6
Continuous
100
AcDbPolyline
 90
        2
 70
   128
 43
0.0
 10
332.5218375501479
 20
54.31951221222232
 10
331.0467401299704
 20
57.05709895890422
  0
LWPOLYLINE
  5
1AF
330
1F
100
AcDbEntity
  8
0_Pen_No__1
  6
Continuous
100
AcDbPolyline
 90
        2
 70
   128
 43
0.0
 10
331.0467401299704
 20
57.05709895890422
 10
330.4658022698117
 20
58.4350544089224
  0
LWPOLYLINE
  5
1B0
330
1F
100
AcDbEntity
  8
0_Pen_No__1
  6
Continuous
100
AcDbPolyline
 90
        2
 70
   128
 43
0.0
 10
303.4194724560222
 20
74.05026027562668
 10
303.4895008672773
 20
74.46260750330981
  0
LWPOLYLINE
  5
1B1
330
1F
100
AcDbEntity
  8
0_Pen_No__1
  6
Continuous
100
AcDbPolyline
 90
        2
 70
   128
 43
0.0
 10
303.4895008672773
 20
74.46260750330981
 10
304.3884749280257
 20
76.02933256008706
  0
LWPOLYLINE
  5
1B2
330
1F
100
AcDbEntity
  8
0_Pen_No__1
  6
Continuous
100
AcDbPolyline
 90
        2
 70
   128
 43
0.0
 10
304.3884749280257
 20
76.02933256008706
 10
305.6992430600767
 20
77.11751262154544
  0
LWPOLYLINE
  5
1B3
330
1F
100
AcDbEntity
  8
0_Pen_No__1
  6
Continuous
100
AcDbPolyline
 90
        2
 70
   128
 43
0.0
 10
305.6992430600767
 20
77.11751262154544
 10
307.3819782370189
 20
77.69408388716505
  0
LWPOLYLINE
  5
1B4
330
1F
100
AcDbEntity
  8
0_Pen_No__1
  6
Continuous
100
AcDbPolyline
 90
        2
 70
   128
 43
0.0
 10
307.3819782370189
 20
77.69408388716505
 10
309.3855514020052
 20
77.74152753079944
  0
LWPOLYLINE
  5
1B5
330
1F
100
AcDbEntity
  8
0_Pen_No__1
  6
Continuous
100
AcDbPolyline
 90
        2
 70
   128
 43
0.0
 10
309.3855514020052
 20
77.74152753079944
 10
311.6490849982742
 20
77.25840200134373
  0
LWPOLYLINE
  5
1B6
330
1F
100
AcDbEntity
  8
0_Pen_No__1
  6
Continuous
100
AcDbPolyline
 90
        2
 70
   128
 43
0.0
 10
311.6490849982742
 20
77.25840200134373
 10
314.103802702908
 20
76.25938682353785
  0
LWPOLYLINE
  5
1B7
330
1F
100
AcDbEntity
  8
0_Pen_No__1
  6
Continuous
100
AcDbPolyline
 90
        2
 70
   128
 43
0.0
 10
304.1725997164662
 20
73.36010189043031
 10
304.2331367005087
 20
73.73280443058972
  0
LWPOLYLINE
  5
1B8
330
1F
100
AcDbEntity
  8
0_Pen_No__1
  6
Continuous
100
AcDbPolyline
 90
        2
 70
   128
 43
0.0
 10
304.2331367005087
 20
73.73280443058972
 10
305.0858527246978
 20
75.2189113381684
  0
LWPOLYLINE
  5
1B9
330
1F
100
AcDbEntity
  8
0_Pen_No__1
  6
Continuous
100
AcDbPolyline
 90
        2
 70
   128
 43
0.0
 10
305.0858527246978
 20
75.2189113381684
 10
306.329173348729
 20
76.2510974891656
  0
LWPOLYLINE
  5
1BA
330
1F
100
AcDbEntity
  8
0_Pen_No__1
  6
Continuous
100
AcDbPolyline
 90
        2
 70
   128
 43
0.0
 10
306.329173348729
 20
76.2510974891656
 10
307.9253209045896
 20
76.79800042969255
  0
LWPOLYLINE
  5
1BB
330
1F
100
AcDbEntity
  8
0_Pen_No__1
  6
Continuous
100
AcDbPolyline
 90
        2
 70
   128
 43
0.0
 10
307.9253209045896
 20
76.79800042969255
 10
309.8257972564849
 20
76.84300279065027
  0
LWPOLYLINE
  5
1BC
330
1F
100
AcDbEntity
  8
0_Pen_No__1
  6
Continuous
100
AcDbPolyline
 90
        2
 70
   128
 43
0.0
 10
309.8257972564849
 20
76.84300279065027
 10
311.9728573921507
 20
76.38473719807206
  0
LWPOLYLINE
  5
1BD
330
1F
100
AcDbEntity
  8
0_Pen_No__1
  6
Continuous
100
AcDbPolyline
 90
        2
 70
   128
 43
0.0
 10
311.9728573921507
 20
76.38473719807206
 10
314.3012639758282
 20
75.4371278200935
  0
LWPOLYLINE
  5
1BE
330
1F
100
AcDbEntity
  8
0_Pen_No__1
  6
Continuous
100
AcDbPolyline
 90
        2
 70
   128
 43
0.0
 10
304.1725997165252
 20
73.36010189033306
 10
303.9211790623515
 20
72.2608654346887
  0
LWPOLYLINE
  5
1BF
330
1F
100
AcDbEntity
  8
0_Pen_No__1
  6
Continuous
100
AcDbPolyline
 90
        2
 70
   128
 43
0.0
 10
303.9211790623515
 20
72.2608654346887
 10
303.0684630381613
 20
70.77475852711002
  0
LWPOLYLINE
  5
1C0
330
1F
100
AcDbEntity
  8
0_Pen_No__1
  6
Continuous
100
AcDbPolyline
 90
        2
 70
   128
 43
0.0
 10
303.0684630381613
 20
70.77475852711002
 10
301.8251424141307
 20
69.74257237611282
  0
LWPOLYLINE
  5
1C1
330
1F
100
AcDbEntity
  8
0_Pen_No__1
  6
Continuous
100
AcDbPolyline
 90
        2
 70
   128
 43
0.0
 10
301.8251424141307
 20
69.74257237611282
 10
300.2289948582701
 20
69.19566943558587
  0
LWPOLYLINE
  5
1C2
330
1F
100
AcDbEntity
  8
0_Pen_No__1
  6
Continuous
100
AcDbPolyline
 90
        2
 70
   128
 43
0.0
 10
300.2289948582701
 20
69.19566943558587
 10
298.3285185063745
 20
69.15066707462925
  0
LWPOLYLINE
  5
1C3
330
1F
100
AcDbEntity
  8
0_Pen_No__1
  6
Continuous
100
AcDbPolyline
 90
        2
 70
   128
 43
0.0
 10
298.3285185063745
 20
69.15066707462925
 10
296.1814583707092
 20
69.60893266720859
  0
LWPOLYLINE
  5
1C4
330
1F
100
AcDbEntity
  8
0_Pen_No__1
  6
Continuous
100
AcDbPolyline
 90
        2
 70
   128
 43
0.0
 10
296.1814583707092
 20
69.60893266720859
 10
293.8530517870308
 20
70.55654204518626
  0
LWPOLYLINE
  5
1C5
330
1F
100
AcDbEntity
  8
0_Pen_No__1
  6
Continuous
100
AcDbPolyline
 90
        2
 70
   128
 43
0.0
 10
303.4194724560811
 20
74.05026027553032
 10
303.1775432291197
 20
72.99066850740833
  0
LWPOLYLINE
  5
1C6
330
1F
100
AcDbEntity
  8
0_Pen_No__1
  6
Continuous
100
AcDbPolyline
 90
        2
 70
   128
 43
0.0
 10
303.1775432291197
 20
72.99066850740833
 10
302.3710852414885
 20
71.58517974902757
  0
LWPOLYLINE
  5
1C7
330
1F
100
AcDbEntity
  8
0_Pen_No__1
  6
Continuous
100
AcDbPolyline
 90
        2
 70
   128
 43
0.0
 10
302.3710852414885
 20
71.58517974902757
 10
301.1952121254789
 20
70.60898750849289
  0
LWPOLYLINE
  5
1C8
330
1F
100
AcDbEntity
  8
0_Pen_No__1
  6
Continuous
100
AcDbPolyline
 90
        2
 70
   128
 43
0.0
 10
301.1952121254789
 20
70.60898750849289
 10
299.685652190699
 20
70.0917528930586
  0
LWPOLYLINE
  5
1C9
330
1F
100
AcDbEntity
  8
0_Pen_No__1
  6
Continuous
100
AcDbPolyline
 90
        2
 70
   128
 43
0.0
 10
299.685652190699
 20
70.0917528930586
 10
297.8882726518943
 20
70.04919181477821
  0
LWPOLYLINE
  5
1CA
330
1F
100
AcDbEntity
  8
0_Pen_No__1
  6
Continuous
100
AcDbPolyline
 90
        2
 70
   128
 43
0.0
 10
297.8882726518943
 20
70.04919181477821
 10
295.857685976833
 20
70.48259747048026
  0
LWPOLYLINE
  5
1CB
330
1F
100
AcDbEntity
  8
0_Pen_No__1
  6
Continuous
100
AcDbPolyline
 90
        2
 70
   128
 43
0.0
 10
295.857685976833
 20
70.48259747048026
 10
293.6555905141098
 20
71.3788010486295
  0
LWPOLYLINE
  5
1CC
330
1F
100
AcDbEntity
  8
0_Pen_No__1
  6
Continuous
100
AcDbPolyline
 90
        2
 70
   128
 43
0.0
 10
292.6335489990928
 20
71.26062231115661
 10
292.5022431670778
 20
72.04468645281737
  0
LWPOLYLINE
  5
1CD
330
1F
100
AcDbEntity
  8
0_Pen_No__1
  6
Continuous
100
AcDbPolyline
 90
        2
 70
   128
 43
0.0
 10
310.6828802147286
 20
76.66006817079241
 10
301.8251424141307
 20
69.74257237611282
  0
LWPOLYLINE
  5
1CE
330
1F
100
AcDbEntity
  8
0_Pen_No__1
  6
Continuous
100
AcDbPolyline
 90
        2
 70
   128
 43
0.0
 10
263.4279367612606
 20
105.51711179431
 10
263.897848398206
 20
105.2911197107259
  0
LWPOLYLINE
  5
1CF
330
1F
100
AcDbEntity
  8
0_Pen_No__1
  6
Continuous
100
AcDbPolyline
 90
        2
 70
   128
 43
0.0
 10
263.897848398206
 20
105.2911197107259
 10
266.5040844824975
 20
103.4988158374336
  0
LWPOLYLINE
  5
1D0
330
1F
100
AcDbEntity
  8
0_Pen_No__1
  6
Continuous
100
AcDbPolyline
 90
        2
 70
   128
 43
0.0
 10
266.5040844824975
 20
103.4988158374336
 10
269.0943880532326
 20
101.304855441935
  0
LWPOLYLINE
  5
1D1
330
1F
100
AcDbEntity
  8
0_Pen_No__1
  6
Continuous
100
AcDbPolyline
 90
        2
 70
   128
 43
0.0
 10
269.0943880532326
 20
101.304855441935
 10
271.59005404717
 20
98.77590090064515
  0
LWPOLYLINE
  5
1D2
330
1F
100
AcDbEntity
  8
0_Pen_No__1
  6
Continuous
100
AcDbPolyline
 90
        2
 70
   128
 43
0.0
 10
271.59005404717
 20
98.77590090064515
 10
273.9152529159517
 20
95.98879321758992
  0
LWPOLYLINE
  5
1D3
330
1F
100
AcDbEntity
  8
0_Pen_No__1
  6
Continuous
100
AcDbPolyline
 90
        2
 70
   128
 43
0.0
 10
273.9152529159517
 20
95.98879321758992
 10
275.9993346685583
 20
93.0282172493765
  0
LWPOLYLINE
  5
1D4
330
1F
100
AcDbEntity
  8
0_Pen_No__1
  6
Continuous
100
AcDbPolyline
 90
        2
 70
   128
 43
0.0
 10
275.9993346685583
 20
93.0282172493765
 10
277.7789755355317
 20
89.9841285986719
  0
LWPOLYLINE
  5
1D5
330
1F
100
AcDbEntity
  8
0_Pen_No__1
  6
Continuous
100
AcDbPolyline
 90
        2
 70
   128
 43
0.0
 10
263.5592425932747
 20
104.7330476526495
 10
264.0049742336768
 20
104.5186843251335
  0
LWPOLYLINE
  5
1D6
330
1F
100
AcDbEntity
  8
0_Pen_No__1
  6
Continuous
100
AcDbPolyline
 90
        2
 70
   128
 43
0.0
 10
264.0049742336768
 20
104.5186843251335
 10
266.4771025952521
 20
102.8186060918407
  0
LWPOLYLINE
  5
1D7
330
1F
100
AcDbEntity
  8
0_Pen_No__1
  6
Continuous
100
AcDbPolyline
 90
        2
 70
   128
 43
0.0
 10
266.4771025952521
 20
102.8186060918407
 10
268.934118274261
 20
100.7375391652571
  0
LWPOLYLINE
  5
1D8
330
1F
100
AcDbEntity
  8
0_Pen_No__1
  6
Continuous
100
AcDbPolyline
 90
        2
 70
   128
 43
0.0
 10
268.934118274261
 20
100.7375391652571
 10
271.3013660926063
 20
98.33871571087472
  0
LWPOLYLINE
  5
1D9
330
1F
100
AcDbEntity
  8
0_Pen_No__1
  6
Continuous
100
AcDbPolyline
 90
        2
 70
   128
 43
0.0
 10
271.3013660926063
 20
98.33871571087472
 10
273.5069184232115
 20
95.69502276549326
  0
LWPOLYLINE
  5
1DA
330
1F
100
AcDbEntity
  8
0_Pen_No__1
  6
Continuous
100
AcDbPolyline
 90
        2
 70
   128
 43
0.0
 10
273.5069184232115
 20
95.69502276549326
 10
275.4837606745762
 20
92.88678760148352
  0
LWPOLYLINE
  5
1DB
330
1F
100
AcDbEntity
  8
0_Pen_No__1
  6
Continuous
100
AcDbPolyline
 90
        2
 70
   128
 43
0.0
 10
275.4837606745762
 20
92.88678760148352
 10
277.1718274952226
 20
89.99933702326825
  0
LWPOLYLINE
  5
1DC
330
1F
100
AcDbEntity
  8
0_Pen_No__1
  6
Continuous
100
AcDbPolyline
 90
        2
 70
   128
 43
0.0
 10
277.1718274952226
 20
89.99933702326825
 10
277.8458276621141
 20
88.55987088940965
  0
LWPOLYLINE
  5
1DD
330
1F
100
AcDbEntity
  8
0_Pen_No__1
  6
Continuous
100
AcDbPolyline
 90
        2
 70
   128
 43
0.0
 10
263.4279367612606
 20
105.51711179431
 10
263.5592425932747
 20
104.7330476526495
  0
LWPOLYLINE
  5
1DE
330
1F
100
AcDbEntity
  8
0_Pen_No__1
  6
Continuous
100
AcDbPolyline
 90
        2
 70
   128
 43
0.0
 10
278.5042780993976
 20
88.43505450728175
 10
277.8458276621141
 20
88.55987088940965
  0
LWPOLYLINE
  5
1DF
330
1F
100
AcDbEntity
  8
0_Pen_No__1
  6
Continuous
100
AcDbPolyline
 90
        2
 70
   128
 43
0.0
 10
291.2171508846511
 20
72.09552649316588
 10
288.741983103312
 20
73.95250898544815
  0
LWPOLYLINE
  5
1E0
330
1F
100
AcDbEntity
  8
0_Pen_No__1
  6
Continuous
100
AcDbPolyline
 90
        2
 70
   128
 43
0.0
 10
288.741983103312
 20
73.95250898544815
 10
286.3115135654026
 20
76.1668578946625
  0
LWPOLYLINE
  5
1E1
330
1F
100
AcDbEntity
  8
0_Pen_No__1
  6
Continuous
100
AcDbPolyline
 90
        2
 70
   128
 43
0.0
 10
286.3115135654026
 20
76.1668578946625
 10
283.9995908579551
 20
78.67129134971486
  0
LWPOLYLINE
  5
1E2
330
1F
100
AcDbEntity
  8
0_Pen_No__1
  6
Continuous
100
AcDbPolyline
 90
        2
 70
   128
 43
0.0
 10
283.9995908579551
 20
78.67129134971486
 10
281.8764615825469
 20
81.38971340738011
  0
LWPOLYLINE
  5
1E3
330
1F
100
AcDbEntity
  8
0_Pen_No__1
  6
Continuous
100
AcDbPolyline
 90
        2
 70
   128
 43
0.0
 10
281.8764615825469
 20
81.38971340738011
 10
280.0066359478546
 20
84.23952618902354
  0
LWPOLYLINE
  5
1E4
330
1F
100
AcDbEntity
  8
0_Pen_No__1
  6
Continuous
100
AcDbPolyline
 90
        2
 70
   128
 43
0.0
 10
280.0066359478546
 20
84.23952618902354
 10
278.4469276596118
 20
87.13413957534878
  0
LWPOLYLINE
  5
1E5
330
1F
100
AcDbEntity
  8
0_Pen_No__1
  6
Continuous
100
AcDbPolyline
 90
        2
 70
   128
 43
0.0
 10
292.5022431670312
 20
72.04468645302211
 10
291.1626816475858
 20
72.83429885295679
  0
LWPOLYLINE
  5
1E6
330
1F
100
AcDbEntity
  8
0_Pen_No__1
  6
Continuous
100
AcDbPolyline
 90
        2
 70
   128
 43
0.0
 10
291.1626816475858
 20
72.83429885295679
 10
288.8217864710421
 20
74.59054398182631
  0
LWPOLYLINE
  5
1E7
330
1F
100
AcDbEntity
  8
0_Pen_No__1
  6
Continuous
100
AcDbPolyline
 90
        2
 70
   128
 43
0.0
 10
288.8217864710421
 20
74.59054398182631
 10
286.5231647529818
 20
76.68476915712209
  0
LWPOLYLINE
  5
1E8
330
1F
100
AcDbEntity
  8
0_Pen_No__1
  6
Continuous
100
AcDbPolyline
 90
        2
 70
   128
 43
0.0
 10
286.5231647529818
 20
76.68476915712209
 10
284.3366589511502
 20
79.05334240662322
  0
LWPOLYLINE
  5
1E9
330
1F
100
AcDbEntity
  8
0_Pen_No__1
  6
Continuous
100
AcDbPolyline
 90
        2
 70
   128
 43
0.0
 10
284.3366589511502
 20
79.05334240662322
 10
282.3287049379095
 20
81.6242958307002
  0
LWPOLYLINE
  5
1EA
330
1F
100
AcDbEntity
  8
0_Pen_No__1
  6
Continuous
100
AcDbPolyline
 90
        2
 70
   128
 43
0.0
 10
282.3287049379095
 20
81.6242958307002
 10
280.5603133798793
 20
84.31951231052771
  0
LWPOLYLINE
  5
1EB
330
1F
100
AcDbEntity
  8
0_Pen_No__1
  6
Continuous
100
AcDbPolyline
 90
        2
 70
   128
 43
0.0
 10
280.5603133798793
 20
84.31951231052771
 10
279.085215959701
 20
87.0570990572085
  0
LWPOLYLINE
  5
1EC
330
1F
100
AcDbEntity
  8
0_Pen_No__1
  6
Continuous
100
AcDbPolyline
 90
        2
 70
   128
 43
0.0
 10
279.085215959701
 20
87.0570990572085
 10
278.5042780995419
 20
88.43505450722779
  0
LWPOLYLINE
  5
1ED
330
1F
100
AcDbEntity
  8
0_Pen_No__1
  6
Continuous
100
AcDbPolyline
 90
        2
 70
   128
 43
0.0
 10
251.4579482857531
 20
104.0502603739343
 10
251.5279766970075
 20
104.4626076016156
  0
LWPOLYLINE
  5
1EE
330
1F
100
AcDbEntity
  8
0_Pen_No__1
  6
Continuous
100
AcDbPolyline
 90
        2
 70
   128
 43
0.0
 10
251.5279766970075
 20
104.4626076016156
 10
252.4269507577568
 20
106.0293326583918
  0
LWPOLYLINE
  5
1EF
330
1F
100
AcDbEntity
  8
0_Pen_No__1
  6
Continuous
100
AcDbPolyline
 90
        2
 70
   128
 43
0.0
 10
252.4269507577568
 20
106.0293326583918
 10
253.7377188898078
 20
107.1175127198508
  0
LWPOLYLINE
  5
1F0
330
1F
100
AcDbEntity
  8
0_Pen_No__1
  6
Continuous
100
AcDbPolyline
 90
        2
 70
   128
 43
0.0
 10
253.7377188898078
 20
107.1175127198508
 10
255.4204540667495
 20
107.6940839854707
  0
LWPOLYLINE
  5
1F1
330
1F
100
AcDbEntity
  8
0_Pen_No__1
  6
Continuous
100
AcDbPolyline
 90
        2
 70
   128
 43
0.0
 10
255.4204540667495
 20
107.6940839854707
 10
257.4240272317354
 20
107.7415276291051
  0
LWPOLYLINE
  5
1F2
330
1F
100
AcDbEntity
  8
0_Pen_No__1
  6
Continuous
100
AcDbPolyline
 90
        2
 70
   128
 43
0.0
 10
257.4240272317354
 20
107.7415276291051
 10
259.6875608280047
 20
107.2584020996493
  0
LWPOLYLINE
  5
1F3
330
1F
100
AcDbEntity
  8
0_Pen_No__1
  6
Continuous
100
AcDbPolyline
 90
        2
 70
   128
 43
0.0
 10
259.6875608280047
 20
107.2584020996493
 10
262.1422785326386
 20
106.2593869218423
  0
LWPOLYLINE
  5
1F4
330
1F
100
AcDbEntity
  8
0_Pen_No__1
  6
Continuous
100
AcDbPolyline
 90
        2
 70
   128
 43
0.0
 10
252.2110755461968
 20
103.360101988735
 10
252.2716125302393
 20
103.7328045288953
  0
LWPOLYLINE
  5
1F5
330
1F
100
AcDbEntity
  8
0_Pen_No__1
  6
Continuous
100
AcDbPolyline
 90
        2
 70
   128
 43
0.0
 10
252.2716125302393
 20
103.7328045288953
 10
253.1243285544291
 20
105.218911436474
  0
LWPOLYLINE
  5
1F6
330
1F
100
AcDbEntity
  8
0_Pen_No__1
  6
Continuous
100
AcDbPolyline
 90
        2
 70
   128
 43
0.0
 10
253.1243285544291
 20
105.218911436474
 10
254.3676491784597
 20
106.2510975874701
  0
LWPOLYLINE
  5
1F7
330
1F
100
AcDbEntity
  8
0_Pen_No__1
  6
Continuous
100
AcDbPolyline
 90
        2
 70
   128
 43
0.0
 10
254.3676491784597
 20
106.2510975874701
 10
255.9637967343202
 20
106.7980005279982
  0
LWPOLYLINE
  5
1F8
330
1F
100
AcDbEntity
  8
0_Pen_No__1
  6
Continuous
100
AcDbPolyline
 90
        2
 70
   128
 43
0.0
 10
255.9637967343202
 20
106.7980005279982
 10
257.8642730862155
 20
106.8430028889559
  0
LWPOLYLINE
  5
1F9
330
1F
100
AcDbEntity
  8
0_Pen_No__1
  6
Continuous
100
AcDbPolyline
 90
        2
 70
   128
 43
0.0
 10
257.8642730862155
 20
106.8430028889559
 10
260.0113332218816
 20
106.3847372963766
  0
LWPOLYLINE
  5
1FA
330
1F
100
AcDbEntity
  8
0_Pen_No__1
  6
Continuous
100
AcDbPolyline
 90
        2
 70
   128
 43
0.0
 10
260.0113332218816
 20
106.3847372963766
 10
262.3397398055598
 20
105.4371279183991
  0
LWPOLYLINE
  5
1FB
330
1F
100
AcDbEntity
  8
0_Pen_No__1
  6
Continuous
100
AcDbPolyline
 90
        2
 70
   128
 43
0.0
 10
252.2110755460041
 20
103.3601019887837
 10
251.9596548918299
 20
102.2608655331393
  0
LWPOLYLINE
  5
1FC
330
1F
100
AcDbEntity
  8
0_Pen_No__1
  6
Continuous
100
AcDbPolyline
 90
        2
 70
   128
 43
0.0
 10
251.9596548918299
 20
102.2608655331393
 10
251.1069388676397
 20
100.7747586255604
  0
LWPOLYLINE
  5
1FD
330
1F
100
AcDbEntity
  8
0_Pen_No__1
  6
Continuous
100
AcDbPolyline
 90
        2
 70
   128
 43
0.0
 10
251.1069388676397
 20
100.7747586255604
 10
249.8636182436096
 20
99.74257247456454
  0
LWPOLYLINE
  5
1FE
330
1F
100
AcDbEntity
  8
0_Pen_No__1
  6
Continuous
100
AcDbPolyline
 90
        2
 70
   128
 43
0.0
 10
249.8636182436096
 20
99.74257247456454
 10
248.2674706877486
 20
99.19566953403648
  0
LWPOLYLINE
  5
1FF
330
1F
100
AcDbEntity
  8
0_Pen_No__1
  6
Continuous
100
AcDbPolyline
 90
        2
 70
   128
 43
0.0
 10
248.2674706877486
 20
99.19566953403648
 10
246.3669943358533
 20
99.15066717307964
  0
LWPOLYLINE
  5
200
330
1F
100
AcDbEntity
  8
0_Pen_No__1
  6
Continuous
100
AcDbPolyline
 90
        2
 70
   128
 43
0.0
 10
246.3669943358533
 20
99.15066717307964
 10
244.2199342001876
 20
99.60893276565898
  0
LWPOLYLINE
  5
201
330
1F
100
AcDbEntity
  8
0_Pen_No__1
  6
Continuous
100
AcDbPolyline
 90
        2
 70
   128
 43
0.0
 10
244.2199342001876
 20
99.60893276565898
 10
241.8915276165094
 20
100.5565421436366
  0
LWPOLYLINE
  5
202
330
1F
100
AcDbEntity
  8
0_Pen_No__1
  6
Continuous
100
AcDbPolyline
 90
        2
 70
   128
 43
0.0
 10
251.4579482855606
 20
104.050260373982
 10
251.2160190585986
 20
102.9906686058585
  0
LWPOLYLINE
  5
203
330
1F
100
AcDbEntity
  8
0_Pen_No__1
  6
Continuous
100
AcDbPolyline
 90
        2
 70
   128
 43
0.0
 10
251.2160190585986
 20
102.9906686058585
 10
250.4095610709678
 20
101.585179847478
  0
LWPOLYLINE
  5
204
330
1F
100
AcDbEntity
  8
0_Pen_No__1
  6
Continuous
100
AcDbPolyline
 90
        2
 70
   128
 43
0.0
 10
250.4095610709678
 20
101.585179847478
 10
249.2336879549577
 20
100.6089876069433
  0
LWPOLYLINE
  5
205
330
1F
100
AcDbEntity
  8
0_Pen_No__1
  6
Continuous
100
AcDbPolyline
 90
        2
 70
   128
 43
0.0
 10
249.2336879549577
 20
100.6089876069433
 10
247.7241280201783
 20
100.091752991509
  0
LWPOLYLINE
  5
206
330
1F
100
AcDbEntity
  8
0_Pen_No__1
  6
Continuous
100
AcDbPolyline
 90
        2
 70
   128
 43
0.0
 10
247.7241280201783
 20
100.091752991509
 10
245.926748481373
 20
100.0491919132288
  0
LWPOLYLINE
  5
207
330
1F
100
AcDbEntity
  8
0_Pen_No__1
  6
Continuous
100
AcDbPolyline
 90
        2
 70
   128
 43
0.0
 10
245.926748481373
 20
100.0491919132288
 10
243.8961618063118
 20
100.4825975689306
  0
LWPOLYLINE
  5
208
330
1F
100
AcDbEntity
  8
0_Pen_No__1
  6
Continuous
100
AcDbPolyline
 90
        2
 70
   128
 43
0.0
 10
243.8961618063118
 20
100.4825975689306
 10
241.6940663435882
 20
101.3788011470799
  0
LWPOLYLINE
  5
209
330
1F
100
AcDbEntity
  8
0_Pen_No__1
  6
Continuous
100
AcDbPolyline
 90
        2
 70
   128
 43
0.0
 10
240.672024828571
 20
101.2606224096072
 10
240.5407189965567
 20
102.0446865512678
  0
LWPOLYLINE
  5
20A
330
1F
100
AcDbEntity
  8
0_Pen_No__1
  6
Continuous
100
AcDbPolyline
 90
        2
 70
   128
 43
0.0
 10
258.7213560440549
 20
106.6600682691247
 10
249.8636182436096
 20
99.74257247456454
  0
LWPOLYLINE
  5
20B
330
1F
100
AcDbEntity
  8
0_Pen_No__1
  6
Continuous
100
AcDbPolyline
 90
        2
 70
   128
 43
0.0
 10
211.4664125909909
 20
135.5171118926156
 10
211.9363242279362
 20
135.2911198090315
  0
LWPOLYLINE
  5
20C
330
1F
100
AcDbEntity
  8
0_Pen_No__1
  6
Continuous
100
AcDbPolyline
 90
        2
 70
   128
 43
0.0
 10
211.9363242279362
 20
135.2911198090315
 10
214.5425603122284
 20
133.4988159357394
  0
LWPOLYLINE
  5
20D
330
1F
100
AcDbEntity
  8
0_Pen_No__1
  6
Continuous
100
AcDbPolyline
 90
        2
 70
   128
 43
0.0
 10
214.5425603122284
 20
133.4988159357394
 10
217.1328638829637
 20
131.3048555402393
  0
LWPOLYLINE
  5
20E
330
1F
100
AcDbEntity
  8
0_Pen_No__1
  6
Continuous
100
AcDbPolyline
 90
        2
 70
   128
 43
0.0
 10
217.1328638829637
 20
131.3048555402393
 10
219.6285298769007
 20
128.7759009989497
  0
LWPOLYLINE
  5
20F
330
1F
100
AcDbEntity
  8
0_Pen_No__1
  6
Continuous
100
AcDbPolyline
 90
        2
 70
   128
 43
0.0
 10
219.6285298769007
 20
128.7759009989497
 10
221.9537287456825
 20
125.9887933158944
  0
LWPOLYLINE
  5
210
330
1F
100
AcDbEntity
  8
0_Pen_No__1
  6
Continuous
100
AcDbPolyline
 90
        2
 70
   128
 43
0.0
 10
221.9537287456825
 20
125.9887933158944
 10
224.037810498289
 20
123.028217347681
  0
LWPOLYLINE
  5
211
330
1F
100
AcDbEntity
  8
0_Pen_No__1
  6
Continuous
100
AcDbPolyline
 90
        2
 70
   128
 43
0.0
 10
224.037810498289
 20
123.028217347681
 10
225.8174513652627
 20
119.9841286969775
  0
LWPOLYLINE
  5
212
330
1F
100
AcDbEntity
  8
0_Pen_No__1
  6
Continuous
100
AcDbPolyline
 90
        2
 70
   128
 43
0.0
 10
211.5977184230049
 20
134.7330477509551
 10
212.0434500634074
 20
134.5186844234382
  0
LWPOLYLINE
  5
213
330
1F
100
AcDbEntity
  8
0_Pen_No__1
  6
Continuous
100
AcDbPolyline
 90
        2
 70
   128
 43
0.0
 10
212.0434500634074
 20
134.5186844234382
 10
214.515578424983
 20
132.8186061901463
  0
LWPOLYLINE
  5
214
330
1F
100
AcDbEntity
  8
0_Pen_No__1
  6
Continuous
100
AcDbPolyline
 90
        2
 70
   128
 43
0.0
 10
214.515578424983
 20
132.8186061901463
 10
216.972594103992
 20
130.7375392635625
  0
LWPOLYLINE
  5
215
330
1F
100
AcDbEntity
  8
0_Pen_No__1
  6
Continuous
100
AcDbPolyline
 90
        2
 70
   128
 43
0.0
 10
216.972594103992
 20
130.7375392635625
 10
219.3398419223365
 20
128.3387158091803
  0
LWPOLYLINE
  5
216
330
1F
100
AcDbEntity
  8
0_Pen_No__1
  6
Continuous
100
AcDbPolyline
 90
        2
 70
   128
 43
0.0
 10
219.3398419223365
 20
128.3387158091803
 10
221.5453942529422
 20
125.6950228637986
  0
LWPOLYLINE
  5
217
330
1F
100
AcDbEntity
  8
0_Pen_No__1
  6
Continuous
100
AcDbPolyline
 90
        2
 70
   128
 43
0.0
 10
221.5453942529422
 20
125.6950228637986
 10
223.5222365043068
 20
122.8867876997891
  0
LWPOLYLINE
  5
218
330
1F
100
AcDbEntity
  8
0_Pen_No__1
  6
Continuous
100
AcDbPolyline
 90
        2
 70
   128
 43
0.0
 10
223.5222365043068
 20
122.8867876997891
 10
225.2103033249533
 20
119.9993371215728
  0
LWPOLYLINE
  5
219
330
1F
100
AcDbEntity
  8
0_Pen_No__1
  6
Continuous
100
AcDbPolyline
 90
        2
 70
   128
 43
0.0
 10
225.2103033249533
 20
119.9993371215728
 10
225.8843034918447
 20
118.5598709877142
  0
LWPOLYLINE
  5
21A
330
1F
100
AcDbEntity
  8
0_Pen_No__1
  6
Continuous
100
AcDbPolyline
 90
        2
 70
   128
 43
0.0
 10
211.4664125909909
 20
135.5171118926156
 10
211.5977184230049
 20
134.7330477509551
  0
LWPOLYLINE
  5
21B
330
1F
100
AcDbEntity
  8
0_Pen_No__1
  6
Continuous
100
AcDbPolyline
 90
        2
 70
   128
 43
0.0
 10
226.5427539291292
 20
118.4350546055842
 10
225.8843034918447
 20
118.5598709877142
  0
LWPOLYLINE
  5
21C
330
1F
100
AcDbEntity
  8
0_Pen_No__1
  6
Continuous
100
AcDbPolyline
 90
        2
 70
   128
 43
0.0
 10
239.2556267141295
 20
102.0955265916165
 10
236.7804589327904
 20
103.9525090838985
  0
LWPOLYLINE
  5
21D
330
1F
100
AcDbEntity
  8
0_Pen_No__1
  6
Continuous
100
AcDbPolyline
 90
        2
 70
   128
 43
0.0
 10
236.7804589327904
 20
103.9525090838985
 10
234.3499893948815
 20
106.1668579931129
  0
LWPOLYLINE
  5
21E
330
1F
100
AcDbEntity
  8
0_Pen_No__1
  6
Continuous
100
AcDbPolyline
 90
        2
 70
   128
 43
0.0
 10
234.3499893948815
 20
106.1668579931129
 10
232.0380666874338
 20
108.6712914481664
  0
LWPOLYLINE
  5
21F
330
1F
100
AcDbEntity
  8
0_Pen_No__1
  6
Continuous
100
AcDbPolyline
 90
        2
 70
   128
 43
0.0
 10
232.0380666874338
 20
108.6712914481664
 10
229.9149374120251
 20
111.3897135058305
  0
LWPOLYLINE
  5
220
330
1F
100
AcDbEntity
  8
0_Pen_No__1
  6
Continuous
100
AcDbPolyline
 90
        2
 70
   128
 43
0.0
 10
229.9149374120251
 20
111.3897135058305
 10
228.045111777333
 20
114.2395262874739
  0
LWPOLYLINE
  5
221
330
1F
100
AcDbEntity
  8
0_Pen_No__1
  6
Continuous
100
AcDbPolyline
 90
        2
 70
   128
 43
0.0
 10
228.045111777333
 20
114.2395262874739
 10
226.4854034890904
 20
117.1341396737992
  0
LWPOLYLINE
  5
222
330
1F
100
AcDbEntity
  8
0_Pen_No__1
  6
Continuous
100
AcDbPolyline
 90
        2
 70
   128
 43
0.0
 10
240.5407189965094
 20
102.0446865514725
 10
239.2011574770643
 20
102.834298951407
  0
LWPOLYLINE
  5
223
330
1F
100
AcDbEntity
  8
0_Pen_No__1
  6
Continuous
100
AcDbPolyline
 90
        2
 70
   128
 43
0.0
 10
239.2011574770643
 20
102.834298951407
 10
236.8602623005205
 20
104.5905440802767
  0
LWPOLYLINE
  5
224
330
1F
100
AcDbEntity
  8
0_Pen_No__1
  6
Continuous
100
AcDbPolyline
 90
        2
 70
   128
 43
0.0
 10
236.8602623005205
 20
104.5905440802767
 10
234.5616405824602
 20
106.6847692555725
  0
LWPOLYLINE
  5
225
330
1F
100
AcDbEntity
  8
0_Pen_No__1
  6
Continuous
100
AcDbPolyline
 90
        2
 70
   128
 43
0.0
 10
234.5616405824602
 20
106.6847692555725
 10
232.3751347806287
 20
109.0533425050749
  0
LWPOLYLINE
  5
226
330
1F
100
AcDbEntity
  8
0_Pen_No__1
  6
Continuous
100
AcDbPolyline
 90
        2
 70
   128
 43
0.0
 10
232.3751347806287
 20
109.0533425050749
 10
230.3671807673879
 20
111.6242959291517
  0
LWPOLYLINE
  5
227
330
1F
100
AcDbEntity
  8
0_Pen_No__1
  6
Continuous
100
AcDbPolyline
 90
        2
 70
   128
 43
0.0
 10
230.3671807673879
 20
111.6242959291517
 10
228.5987892093577
 20
114.3195124089783
  0
LWPOLYLINE
  5
228
330
1F
100
AcDbEntity
  8
0_Pen_No__1
  6
Continuous
100
AcDbPolyline
 90
        2
 70
   128
 43
0.0
 10
228.5987892093577
 20
114.3195124089783
 10
227.1236917891795
 20
117.0570991556602
  0
LWPOLYLINE
  5
229
330
1F
100
AcDbEntity
  8
0_Pen_No__1
  6
Continuous
100
AcDbPolyline
 90
        2
 70
   128
 43
0.0
 10
227.1236917891795
 20
117.0570991556602
 10
226.5427539290217
 20
118.4350546056773
  0
LWPOLYLINE
  5
22A
330
1F
100
AcDbEntity
  8
0_Pen_No__1
  6
Continuous
100
AcDbPolyline
 90
        2
 70
   128
 43
0.0
 10
199.4964241152317
 20
134.0502604723847
 10
199.5664525264862
 20
134.4626077000658
  0
LWPOLYLINE
  5
22B
330
1F
100
AcDbEntity
  8
0_Pen_No__1
  6
Continuous
100
AcDbPolyline
 90
        2
 70
   128
 43
0.0
 10
199.5664525264862
 20
134.4626077000658
 10
200.4654265872352
 20
136.0293327568419
  0
LWPOLYLINE
  5
22C
330
1F
100
AcDbEntity
  8
0_Pen_No__1
  6
Continuous
100
AcDbPolyline
 90
        2
 70
   128
 43
0.0
 10
200.4654265872352
 20
136.0293327568419
 10
201.7761947192862
 20
137.1175128183014
  0
LWPOLYLINE
  5
22D
330
1F
100
AcDbEntity
  8
0_Pen_No__1
  6
Continuous
100
AcDbPolyline
 90
        2
 70
   128
 43
0.0
 10
201.7761947192862
 20
137.1175128183014
 10
203.4589298962277
 20
137.694084083921
  0
LWPOLYLINE
  5
22E
330
1F
100
AcDbEntity
  8
0_Pen_No__1
  6
Continuous
100
AcDbPolyline
 90
        2
 70
   128
 43
0.0
 10
203.4589298962277
 20
137.694084083921
 10
205.4625030612147
 20
137.7415277275552
  0
LWPOLYLINE
  5
22F
330
1F
100
AcDbEntity
  8
0_Pen_No__1
  6
Continuous
100
AcDbPolyline
 90
        2
 70
   128
 43
0.0
 10
205.4625030612147
 20
137.7415277275552
 10
207.7260366574838
 20
137.2584021980997
  0
LWPOLYLINE
  5
230
330
1F
100
AcDbEntity
  8
0_Pen_No__1
  6
Continuous
100
AcDbPolyline
 90
        2
 70
   128
 43
0.0
 10
207.7260366574838
 20
137.2584021980997
 10
210.180754362117
 20
136.2593870202925
  0
LWPOLYLINE
  5
231
330
1F
100
AcDbEntity
  8
0_Pen_No__1
  6
Continuous
100
AcDbPolyline
 90
        2
 70
   128
 43
0.0
 10
200.2495513756759
 20
133.3601020871874
 10
200.3100883597175
 20
133.7328046273457
  0
LWPOLYLINE
  5
232
330
1F
100
AcDbEntity
  8
0_Pen_No__1
  6
Continuous
100
AcDbPolyline
 90
        2
 70
   128
 43
0.0
 10
200.3100883597175
 20
133.7328046273457
 10
201.1628043839075
 20
135.2189115349244
  0
LWPOLYLINE
  5
233
330
1F
100
AcDbEntity
  8
0_Pen_No__1
  6
Continuous
100
AcDbPolyline
 90
        2
 70
   128
 43
0.0
 10
201.1628043839075
 20
135.2189115349244
 10
202.4061250079381
 20
136.2510976859205
  0
LWPOLYLINE
  5
234
330
1F
100
AcDbEntity
  8
0_Pen_No__1
  6
Continuous
100
AcDbPolyline
 90
        2
 70
   128
 43
0.0
 10
202.4061250079381
 20
136.2510976859205
 10
204.0022725637991
 20
136.7980006264485
  0
LWPOLYLINE
  5
235
330
1F
100
AcDbEntity
  8
0_Pen_No__1
  6
Continuous
100
AcDbPolyline
 90
        2
 70
   128
 43
0.0
 10
204.0022725637991
 20
136.7980006264485
 10
205.9027489156939
 20
136.8430029874063
  0
LWPOLYLINE
  5
236
330
1F
100
AcDbEntity
  8
0_Pen_No__1
  6
Continuous
100
AcDbPolyline
 90
        2
 70
   128
 43
0.0
 10
205.9027489156939
 20
136.8430029874063
 10
208.0498090513601
 20
136.3847373948269
  0
LWPOLYLINE
  5
237
330
1F
100
AcDbEntity
  8
0_Pen_No__1
  6
Continuous
100
AcDbPolyline
 90
        2
 70
   128
 43
0.0
 10
208.0498090513601
 20
136.3847373948269
 10
210.3782156350382
 20
135.4371280168495
  0
LWPOLYLINE
  5
238
330
1F
100
AcDbEntity
  8
0_Pen_No__1
  6
Continuous
100
AcDbPolyline
 90
        2
 70
   128
 43
0.0
 10
200.2495513757343
 20
133.360102087089
 10
199.9981307215606
 20
132.2608656314447
  0
LWPOLYLINE
  5
239
330
1F
100
AcDbEntity
  8
0_Pen_No__1
  6
Continuous
100
AcDbPolyline
 90
        2
 70
   128
 43
0.0
 10
199.9981307215606
 20
132.2608656314447
 10
199.1454146973703
 20
130.7747587238651
  0
LWPOLYLINE
  5
23A
330
1F
100
AcDbEntity
  8
0_Pen_No__1
  6
Continuous
100
AcDbPolyline
 90
        2
 70
   128
 43
0.0
 10
199.1454146973703
 20
130.7747587238651
 10
197.9020940733403
 20
129.7425725728688
  0
LWPOLYLINE
  5
23B
330
1F
100
AcDbEntity
  8
0_Pen_No__1
  6
Continuous
100
AcDbPolyline
 90
        2
 70
   128
 43
0.0
 10
197.9020940733403
 20
129.7425725728688
 10
196.3059465174792
 20
129.1956696323408
  0
LWPOLYLINE
  5
23C
330
1F
100
AcDbEntity
  8
0_Pen_No__1
  6
Continuous
100
AcDbPolyline
 90
        2
 70
   128
 43
0.0
 10
196.3059465174792
 20
129.1956696323408
 10
194.4054701655839
 20
129.1506672713843
  0
LWPOLYLINE
  5
23D
330
1F
100
AcDbEntity
  8
0_Pen_No__1
  6
Continuous
100
AcDbPolyline
 90
        2
 70
   128
 43
0.0
 10
194.4054701655839
 20
129.1506672713843
 10
192.2584100299183
 20
129.6089328639632
  0
LWPOLYLINE
  5
23E
330
1F
100
AcDbEntity
  8
0_Pen_No__1
  6
Continuous
100
AcDbPolyline
 90
        2
 70
   128
 43
0.0
 10
192.2584100299183
 20
129.6089328639632
 10
189.9300034462401
 20
130.556542241942
  0
LWPOLYLINE
  5
23F
330
1F
100
AcDbEntity
  8
0_Pen_No__1
  6
Continuous
100
AcDbPolyline
 90
        2
 70
   128
 43
0.0
 10
199.4964241152908
 20
134.0502604722863
 10
199.2544948883292
 20
132.9906687041643
  0
LWPOLYLINE
  5
240
330
1F
100
AcDbEntity
  8
0_Pen_No__1
  6
Continuous
100
AcDbPolyline
 90
        2
 70
   128
 43
0.0
 10
199.2544948883292
 20
132.9906687041643
 10
198.448036900698
 20
131.5851799457824
  0
LWPOLYLINE
  5
241
330
1F
100
AcDbEntity
  8
0_Pen_No__1
  6
Continuous
100
AcDbPolyline
 90
        2
 70
   128
 43
0.0
 10
198.448036900698
 20
131.5851799457824
 10
197.2721637846877
 20
130.6089877052489
  0
LWPOLYLINE
  5
242
330
1F
100
AcDbEntity
  8
0_Pen_No__1
  6
Continuous
100
AcDbPolyline
 90
        2
 70
   128
 43
0.0
 10
197.2721637846877
 20
130.6089877052489
 10
195.7626038499083
 20
130.0917530898146
  0
LWPOLYLINE
  5
243
330
1F
100
AcDbEntity
  8
0_Pen_No__1
  6
Continuous
100
AcDbPolyline
 90
        2
 70
   128
 43
0.0
 10
195.7626038499083
 20
130.0917530898146
 10
193.9652243111039
 20
130.0491920115333
  0
LWPOLYLINE
  5
244
330
1F
100
AcDbEntity
  8
0_Pen_No__1
  6
Continuous
100
AcDbPolyline
 90
        2
 70
   128
 43
0.0
 10
193.9652243111039
 20
130.0491920115333
 10
191.9346376360425
 20
130.4825976672365
  0
LWPOLYLINE
  5
245
330
1F
100
AcDbEntity
  8
0_Pen_No__1
  6
Continuous
100
AcDbPolyline
 90
        2
 70
   128
 43
0.0
 10
191.9346376360425
 20
130.4825976672365
 10
189.7325421733189
 20
131.3788012453844
  0
LWPOLYLINE
  5
246
330
1F
100
AcDbEntity
  8
0_Pen_No__1
  6
Continuous
100
AcDbPolyline
 90
        2
 70
   128
 43
0.0
 10
188.7105006583016
 20
131.2606225079119
 10
188.5791948262874
 20
132.044686649572
  0
LWPOLYLINE
  5
247
330
1F
100
AcDbEntity
  8
0_Pen_No__1
  6
Continuous
100
AcDbPolyline
 90
        2
 70
   128
 43
0.0
 10
206.7598318739749
 20
136.6600683675773
 10
197.9020940733403
 20
129.7425725728688
  0
LWPOLYLINE
  5
248
330
1F
100
AcDbEntity
  8
0_Pen_No__1
  6
Continuous
100
AcDbPolyline
 90
        2
 70
   128
 43
0.0
 10
159.504888420722
 20
165.5171119909201
 10
159.9748000576671
 20
165.2911199073358
  0
LWPOLYLINE
  5
249
330
1F
100
AcDbEntity
  8
0_Pen_No__1
  6
Continuous
100
AcDbPolyline
 90
        2
 70
   128
 43
0.0
 10
159.9748000576671
 20
165.2911199073358
 10
162.5810361419591
 20
163.4988160340439
  0
LWPOLYLINE
  5
24A
330
1F
100
AcDbEntity
  8
0_Pen_No__1
  6
Continuous
100
AcDbPolyline
 90
        2
 70
   128
 43
0.0
 10
162.5810361419591
 20
163.4988160340439
 10
165.1713397126944
 20
161.3048556385451
  0
LWPOLYLINE
  5
24B
330
1F
100
AcDbEntity
  8
0_Pen_No__1
  6
Continuous
100
AcDbPolyline
 90
        2
 70
   128
 43
0.0
 10
165.1713397126944
 20
161.3048556385451
 10
167.6670057066314
 20
158.7759010972544
  0
LWPOLYLINE
  5
24C
330
1F
100
AcDbEntity
  8
0_Pen_No__1
  6
Continuous
100
AcDbPolyline
 90
        2
 70
   128
 43
0.0
 10
167.6670057066314
 20
158.7759010972544
 10
169.9922045754132
 20
155.9887934142
  0
LWPOLYLINE
  5
24D
330
1F
100
AcDbEntity
  8
0_Pen_No__1
  6
Continuous
100
AcDbPolyline
 90
        2
 70
   128
 43
0.0
 10
169.9922045754132
 20
155.9887934142
 10
172.0762863280196
 20
153.0282174459866
  0
LWPOLYLINE
  5
24E
330
1F
100
AcDbEntity
  8
0_Pen_No__1
  6
Continuous
100
AcDbPolyline
 90
        2
 70
   128
 43
0.0
 10
172.0762863280196
 20
153.0282174459866
 10
173.8559271949933
 20
149.984128795282
  0
LWPOLYLINE
  5
24F
330
1F
100
AcDbEntity
  8
0_Pen_No__1
  6
Continuous
100
AcDbPolyline
 90
        2
 70
   128
 43
0.0
 10
159.636194252736
 20
164.7330478492598
 10
160.0819258931381
 20
164.5186845217438
  0
LWPOLYLINE
  5
250
330
1F
100
AcDbEntity
  8
0_Pen_No__1
  6
Continuous
100
AcDbPolyline
 90
        2
 70
   128
 43
0.0
 10
160.0819258931381
 20
164.5186845217438
 10
162.5540542547141
 20
162.818606288451
  0
LWPOLYLINE
  5
251
330
1F
100
AcDbEntity
  8
0_Pen_No__1
  6
Continuous
100
AcDbPolyline
 90
        2
 70
   128
 43
0.0
 10
162.5540542547141
 20
162.818606288451
 10
165.0110699337226
 20
160.7375393618674
  0
LWPOLYLINE
  5
252
330
1F
100
AcDbEntity
  8
0_Pen_No__1
  6
Continuous
100
AcDbPolyline
 90
        2
 70
   128
 43
0.0
 10
165.0110699337226
 20
160.7375393618674
 10
167.3783177520676
 20
158.3387159074846
  0
LWPOLYLINE
  5
253
330
1F
100
AcDbEntity
  8
0_Pen_No__1
  6
Continuous
100
AcDbPolyline
 90
        2
 70
   128
 43
0.0
 10
167.3783177520676
 20
158.3387159074846
 10
169.5838700826728
 20
155.6950229621034
  0
LWPOLYLINE
  5
254
330
1F
100
AcDbEntity
  8
0_Pen_No__1
  6
Continuous
100
AcDbPolyline
 90
        2
 70
   128
 43
0.0
 10
169.5838700826728
 20
155.6950229621034
 10
171.5607123340375
 20
152.8867877980936
  0
LWPOLYLINE
  5
255
330
1F
100
AcDbEntity
  8
0_Pen_No__1
  6
Continuous
100
AcDbPolyline
 90
        2
 70
   128
 43
0.0
 10
171.5607123340375
 20
152.8867877980936
 10
173.2487791546839
 20
149.9993372198784
  0
LWPOLYLINE
  5
256
330
1F
100
AcDbEntity
  8
0_Pen_No__1
  6
Continuous
100
AcDbPolyline
 90
        2
 70
   128
 43
0.0
 10
173.2487791546839
 20
149.9993372198784
 10
173.9227793215767
 20
148.5598710860166
  0
LWPOLYLINE
  5
257
330
1F
100
AcDbEntity
  8
0_Pen_No__1
  6
Continuous
100
AcDbPolyline
 90
        2
 70
   128
 43
0.0
 10
159.504888420722
 20
165.5171119909201
 10
159.636194252736
 20
164.7330478492598
  0
LWPOLYLINE
  5
258
330
1F
100
AcDbEntity
  8
0_Pen_No__1
  6
Continuous
100
AcDbPolyline
 90
        2
 70
   128
 43
0.0
 10
174.5812297588594
 20
148.4350547038907
 10
173.9227793215767
 20
148.5598710860166
  0
LWPOLYLINE
  5
259
330
1F
100
AcDbEntity
  8
0_Pen_No__1
  6
Continuous
100
AcDbPolyline
 90
        2
 70
   128
 43
0.0
 10
187.2941025438606
 20
132.095526689921
 10
184.8189347625213
 20
133.9525091822041
  0
LWPOLYLINE
  5
25A
330
1F
100
AcDbEntity
  8
0_Pen_No__1
  6
Continuous
100
AcDbPolyline
 90
        2
 70
   128
 43
0.0
 10
184.8189347625213
 20
133.9525091822041
 10
182.3884652246122
 20
136.1668580914185
  0
LWPOLYLINE
  5
25B
330
1F
100
AcDbEntity
  8
0_Pen_No__1
  6
Continuous
100
AcDbPolyline
 90
        2
 70
   128
 43
0.0
 10
182.3884652246122
 20
136.1668580914185
 10
180.0765425171651
 20
138.6712915464709
  0
LWPOLYLINE
  5
25C
330
1F
100
AcDbEntity
  8
0_Pen_No__1
  6
Continuous
100
AcDbPolyline
 90
        2
 70
   128
 43
0.0
 10
180.0765425171651
 20
138.6712915464709
 10
177.953413241756
 20
141.3897136041361
  0
LWPOLYLINE
  5
25D
330
1F
100
AcDbEntity
  8
0_Pen_No__1
  6
Continuous
100
AcDbPolyline
 90
        2
 70
   128
 43
0.0
 10
177.953413241756
 20
141.3897136041361
 10
176.0835876070641
 20
144.2395263857784
  0
LWPOLYLINE
  5
25E
330
1F
100
AcDbEntity
  8
0_Pen_No__1
  6
Continuous
100
AcDbPolyline
 90
        2
 70
   128
 43
0.0
 10
176.0835876070641
 20
144.2395263857784
 10
174.5238793188215
 20
147.1341397721039
  0
LWPOLYLINE
  5
25F
330
1F
100
AcDbEntity
  8
0_Pen_No__1
  6
Continuous
100
AcDbPolyline
 90
        2
 70
   128
 43
0.0
 10
188.5791948262405
 20
132.044686649777
 10
187.2396333067954
 20
132.8342990497126
  0
LWPOLYLINE
  5
260
330
1F
100
AcDbEntity
  8
0_Pen_No__1
  6
Continuous
100
AcDbPolyline
 90
        2
 70
   128
 43
0.0
 10
187.2396333067954
 20
132.8342990497126
 10
184.8987381302516
 20
134.5905441785814
  0
LWPOLYLINE
  5
261
330
1F
100
AcDbEntity
  8
0_Pen_No__1
  6
Continuous
100
AcDbPolyline
 90
        2
 70
   128
 43
0.0
 10
184.8987381302516
 20
134.5905441785814
 10
182.6001164121913
 20
136.6847693538781
  0
LWPOLYLINE
  5
262
330
1F
100
AcDbEntity
  8
0_Pen_No__1
  6
Continuous
100
AcDbPolyline
 90
        2
 70
   128
 43
0.0
 10
182.6001164121913
 20
136.6847693538781
 10
180.4136106103593
 20
139.0533426033792
  0
LWPOLYLINE
  5
263
330
1F
100
AcDbEntity
  8
0_Pen_No__1
  6
Continuous
100
AcDbPolyline
 90
        2
 70
   128
 43
0.0
 10
180.4136106103593
 20
139.0533426033792
 10
178.4056565971186
 20
141.6242960274562
  0
LWPOLYLINE
  5
264
330
1F
100
AcDbEntity
  8
0_Pen_No__1
  6
Continuous
100
AcDbPolyline
 90
        2
 70
   128
 43
0.0
 10
178.4056565971186
 20
141.6242960274562
 10
176.6372650390888
 20
144.319512507283
  0
LWPOLYLINE
  5
265
330
1F
100
AcDbEntity
  8
0_Pen_No__1
  6
Continuous
100
AcDbPolyline
 90
        2
 70
   128
 43
0.0
 10
176.6372650390888
 20
144.319512507283
 10
175.1621676189101
 20
147.0570992539645
  0
LWPOLYLINE
  5
266
330
1F
100
AcDbEntity
  8
0_Pen_No__1
  6
Continuous
100
AcDbPolyline
 90
        2
 70
   128
 43
0.0
 10
175.1621676189101
 20
147.0570992539645
 10
174.5812297587514
 20
148.4350547039829
  0
LWPOLYLINE
  5
267
330
1F
100
AcDbEntity
  8
0_Pen_No__1
  6
Continuous
100
AcDbPolyline
 90
        2
 70
   128
 43
0.0
 10
449.5401630251701
 20
-18.621199246431
 10
448.65526061285
 20
-18.11030059823958
  0
LWPOLYLINE
  5
268
330
1F
100
AcDbEntity
  8
0_Pen_No__1
  6
Continuous
100
AcDbPolyline
 90
        2
 70
   128
 43
0.0
 10
433.6635480468433
 20
-0.0158716965347055
 10
434.2727597868421
 20
-1.317003347817911
  0
LWPOLYLINE
  5
269
330
1F
100
AcDbEntity
  8
0_Pen_No__1
  6
Continuous
100
AcDbPolyline
 90
        2
 70
   128
 43
0.0
 10
448.2428577674842
 20
-18.57712215500316
 10
447.1017233957113
 20
-17.9044738018944
  0
LWPOLYLINE
  5
26A
330
1F
100
AcDbEntity
  8
0_Pen_No__1
  6
Continuous
100
AcDbPolyline
 90
        2
 70
   128
 43
0.0
 10
434.3315001706723
 20
-2.865860719711719
 10
433.8206992213464
 20
-1.654307048302703
  0
LWPOLYLINE
  5
26B
330
1F
100
AcDbEntity
  8
0_Pen_No__1
  6
Continuous
100
AcDbPolyline
 90
        2
 70
   128
 43
0.0
 10
418.2243123166191
 20
15.4371276233375
 10
419.1753701697758
 20
14.88803411340335
  0
LWPOLYLINE
  5
26C
330
1F
100
AcDbEntity
  8
0_Pen_No__1
  6
Continuous
100
AcDbPolyline
 90
        2
 70
   128
 43
0.0
 10
397.5786388549008
 20
11.3788008518735
 10
396.6937364425806
 20
11.88969950006492
  0
LWPOLYLINE
  5
26D
330
1F
100
AcDbEntity
  8
0_Pen_No__1
  6
Continuous
100
AcDbPolyline
 90
        2
 70
   128
 43
0.0
 10
381.702023876322
 20
29.98412840191679
 10
382.3112356164069
 20
28.68299675044973
  0
LWPOLYLINE
  5
26E
330
1F
100
AcDbEntity
  8
0_Pen_No__1
  6
Continuous
100
AcDbPolyline
 90
        2
 70
   128
 43
0.0
 10
396.2813335972148
 20
11.42287794330134
 10
395.140199225442
 20
12.09552629640988
  0
LWPOLYLINE
  5
26F
330
1F
100
AcDbEntity
  8
0_Pen_No__1
  6
Continuous
100
AcDbPolyline
 90
        2
 70
   128
 43
0.0
 10
382.3699760004029
 20
27.13413937859278
 10
381.8591750510034
 20
28.34569305017566
  0
LWPOLYLINE
  5
270
330
1F
100
AcDbEntity
  8
0_Pen_No__1
  6
Continuous
100
AcDbPolyline
 90
        2
 70
   128
 43
0.0
 10
366.2627881460983
 20
45.43712772178878
 10
367.2138459992542
 20
44.88803421185462
  0
LWPOLYLINE
  5
271
330
1F
100
AcDbEntity
  8
0_Pen_No__1
  6
Continuous
100
AcDbPolyline
 90
        2
 70
   128
 43
0.0
 10
345.6171146843789
 20
41.37880095032389
 10
344.7322122720598
 20
41.88969959851531
  0
LWPOLYLINE
  5
272
330
1F
100
AcDbEntity
  8
0_Pen_No__1
  6
Continuous
100
AcDbPolyline
 90
        2
 70
   128
 43
0.0
 10
329.7404997060536
 20
59.9841285002213
 10
330.3497114460523
 20
58.68299684893809
  0
LWPOLYLINE
  5
273
330
1F
100
AcDbEntity
  8
0_Pen_No__1
  6
Continuous
100
AcDbPolyline
 90
        2
 70
   128
 43
0.0
 10
344.3198094266933
 20
41.42287804175172
 10
343.1786750549204
 20
42.09552639486049
  0
LWPOLYLINE
  5
274
330
1F
100
AcDbEntity
  8
0_Pen_No__1
  6
Continuous
100
AcDbPolyline
 90
        2
 70
   128
 43
0.0
 10
330.4084518298813
 20
57.13413947704317
 10
329.8976508805553
 20
58.34569314845329
  0
LWPOLYLINE
  5
275
330
1F
100
AcDbEntity
  8
0_Pen_No__1
  6
Continuous
100
AcDbPolyline
 90
        2
 70
   128
 43
0.0
 10
314.3012639758282
 20
75.4371278200935
 10
315.2523218289858
 20
74.88803431015936
  0
LWPOLYLINE
  5
276
330
1F
100
AcDbEntity
  8
0_Pen_No__1
  6
Continuous
100
AcDbPolyline
 90
        2
 70
   128
 43
0.0
 10
293.6555905141098
 20
71.3788010486295
 10
292.7706881017897
 20
71.88969969682093
  0
LWPOLYLINE
  5
277
330
1F
100
AcDbEntity
  8
0_Pen_No__1
  6
Continuous
100
AcDbPolyline
 90
        2
 70
   128
 43
0.0
 10
277.7789755355317
 20
89.9841285986719
 10
278.3881872756157
 20
88.68299694720574
  0
LWPOLYLINE
  5
278
330
1F
100
AcDbEntity
  8
0_Pen_No__1
  6
Continuous
100
AcDbPolyline
 90
        2
 70
   128
 43
0.0
 10
292.3582852564232
 20
71.42287814005734
 10
291.2171508846511
 20
72.09552649316588
  0
LWPOLYLINE
  5
279
330
1F
100
AcDbEntity
  8
0_Pen_No__1
  6
Continuous
100
AcDbPolyline
 90
        2
 70
   128
 43
0.0
 10
278.4469276596118
 20
87.13413957534878
 10
277.9361267102123
 20
88.34569324693277
  0
LWPOLYLINE
  5
27A
330
1F
100
AcDbEntity
  8
0_Pen_No__1
  6
Continuous
100
AcDbPolyline
 90
        2
 70
   128
 43
0.0
 10
262.3397398055598
 20
105.4371279183991
 10
263.2907976584633
 20
104.8880344086097
  0
LWPOLYLINE
  5
27B
330
1F
100
AcDbEntity
  8
0_Pen_No__1
  6
Continuous
100
AcDbPolyline
 90
        2
 70
   128
 43
0.0
 10
241.6940663435882
 20
101.3788011470799
 10
240.8091639312686
 20
101.8896997952713
  0
LWPOLYLINE
  5
27C
330
1F
100
AcDbEntity
  8
0_Pen_No__1
  6
Continuous
100
AcDbPolyline
 90
        2
 70
   128
 43
0.0
 10
225.8174513652627
 20
119.9841286969775
 10
226.4266631052605
 20
118.6829970456941
  0
LWPOLYLINE
  5
27D
330
1F
100
AcDbEntity
  8
0_Pen_No__1
  6
Continuous
100
AcDbPolyline
 90
        2
 70
   128
 43
0.0
 10
240.3967610859024
 20
101.4228782385077
 10
239.2556267141295
 20
102.0955265916165
  0
LWPOLYLINE
  5
27E
330
1F
100
AcDbEntity
  8
0_Pen_No__1
  6
Continuous
100
AcDbPolyline
 90
        2
 70
   128
 43
0.0
 10
226.4854034890904
 20
117.1341396737992
 10
225.9746025397651
 20
118.3456933452073
  0
LWPOLYLINE
  5
27F
330
1F
100
AcDbEntity
  8
0_Pen_No__1
  6
Continuous
100
AcDbPolyline
 90
        2
 70
   128
 43
0.0
 10
210.3782156350382
 20
135.4371280168495
 10
211.329273488194
 20
134.8880345069153
  0
LWPOLYLINE
  5
280
330
1F
100
AcDbEntity
  8
0_Pen_No__1
  6
Continuous
100
AcDbPolyline
 90
        2
 70
   128
 43
0.0
 10
189.7325421733189
 20
131.3788012453844
 10
188.8476397609997
 20
131.889699893576
  0
LWPOLYLINE
  5
281
330
1F
100
AcDbEntity
  8
0_Pen_No__1
  6
Continuous
100
AcDbPolyline
 90
        2
 70
   128
 43
0.0
 10
173.8559271949933
 20
149.984128795282
 10
174.465138934992
 20
148.6829971439979
  0
LWPOLYLINE
  5
282
330
1F
100
AcDbEntity
  8
0_Pen_No__1
  6
Continuous
100
AcDbPolyline
 90
        2
 70
   128
 43
0.0
 10
188.435236915633
 20
131.4228783368122
 10
187.2941025438606
 20
132.095526689921
  0
LWPOLYLINE
  5
283
330
1F
100
AcDbEntity
  8
0_Pen_No__1
  6
Continuous
100
AcDbPolyline
 90
        2
 70
   128
 43
0.0
 10
174.5238793188215
 20
147.1341397721039
 10
174.0130783694953
 20
148.345693443514
  0
LWPOLYLINE
  5
284
330
1F
100
AcDbEntity
  8
0_Pen_No__1
  6
Continuous
100
AcDbPolyline
 90
        2
 70
   128
 43
0.0
 10
521.9498993842083
 20
-43.7406135699495
 10
523.2355576130532
 20
-44.4828886977021
  0
LWPOLYLINE
  5
285
330
1F
100
AcDbEntity
  8
0_Pen_No__1
  6
Continuous
100
AcDbPolyline
 90
        2
 70
   128
 43
0.0
 10
523.2355576130825
 20
-44.48288869757998
 10
523.7054692500269
 20
-44.70888078116407
  0
LWPOLYLINE
  5
286
330
1F
100
AcDbEntity
  8
0_Pen_No__1
  6
Continuous
100
AcDbPolyline
 90
        2
 70
   128
 43
0.0
 10
523.7054692500269
 20
-44.70888078116407
 10
526.3117053343196
 20
-46.5011846544564
  0
LWPOLYLINE
  5
287
330
1F
100
AcDbEntity
  8
0_Pen_No__1
  6
Continuous
100
AcDbPolyline
 90
        2
 70
   128
 43
0.0
 10
523.3668634450961
 20
-45.26695283924052
 10
523.8125950854984
 20
-45.48131616675742
  0
LWPOLYLINE
  5
288
330
1F
100
AcDbEntity
  8
0_Pen_No__1
  6
Continuous
100
AcDbPolyline
 90
        2
 70
   128
 43
0.0
 10
523.8125950854984
 20
-45.48131616675742
 10
526.2847234470743
 20
-47.1813944000493
  0
LWPOLYLINE
  5
289
330
1F
100
AcDbEntity
  8
0_Pen_No__1
  6
Continuous
100
AcDbPolyline
 90
        2
 70
   128
 43
0.0
 10
523.2355576130825
 20
-44.48288869757998
 10
523.3668634450961
 20
-45.26695283924052
  0
LWPOLYLINE
  5
28A
330
1F
100
AcDbEntity
  8
0_Pen_No__1
  6
Continuous
100
AcDbPolyline
 90
        2
 70
   128
 43
0.0
 10
511.2655691373229
 20
-45.94974011781115
 10
511.3355975485776
 20
-45.53739289012957
  0
LWPOLYLINE
  5
28B
330
1F
100
AcDbEntity
  8
0_Pen_No__1
  6
Continuous
100
AcDbPolyline
 90
        2
 70
   128
 43
0.0
 10
511.3355975485776
 20
-45.53739289012957
 10
512.2345716093264
 20
-43.97066783335367
  0
LWPOLYLINE
  5
28C
330
1F
100
AcDbEntity
  8
0_Pen_No__1
  6
Continuous
100
AcDbPolyline
 90
        2
 70
   128
 43
0.0
 10
512.2345716093264
 20
-43.97066783335367
 10
513.5453397413769
 20
-42.88248777189417
  0
LWPOLYLINE
  5
28D
330
1F
100
AcDbEntity
  8
0_Pen_No__1
  6
Continuous
100
AcDbPolyline
 90
        2
 70
   128
 43
0.0
 10
513.5453397413769
 20
-42.88248777189417
 10
515.2280749183192
 20
-42.30591650627456
  0
LWPOLYLINE
  5
28E
330
1F
100
AcDbEntity
  8
0_Pen_No__1
  6
Continuous
100
AcDbPolyline
 90
        2
 70
   128
 43
0.0
 10
515.2280749183192
 20
-42.30591650627456
 10
517.2316480833059
 20
-42.25847286264016
  0
LWPOLYLINE
  5
28F
330
1F
100
AcDbEntity
  8
0_Pen_No__1
  6
Continuous
100
AcDbPolyline
 90
        2
 70
   128
 43
0.0
 10
517.2316480833059
 20
-42.25847286264016
 10
519.4951816795755
 20
-42.74159839209589
  0
LWPOLYLINE
  5
290
330
1F
100
AcDbEntity
  8
0_Pen_No__1
  6
Continuous
100
AcDbPolyline
 90
        2
 70
   128
 43
0.0
 10
519.4951816795755
 20
-42.74159839209589
 10
521.9498993842083
 20
-43.74061356990287
  0
LWPOLYLINE
  5
291
330
1F
100
AcDbEntity
  8
0_Pen_No__1
  6
Continuous
100
AcDbPolyline
 90
        2
 70
   128
 43
0.0
 10
512.0186963977674
 20
-46.63989850300841
 10
512.079233381809
 20
-46.26719596284988
  0
LWPOLYLINE
  5
292
330
1F
100
AcDbEntity
  8
0_Pen_No__1
  6
Continuous
100
AcDbPolyline
 90
        2
 70
   128
 43
0.0
 10
512.079233381809
 20
-46.26719596284988
 10
512.9319494059991
 20
-44.78108905527122
  0
LWPOLYLINE
  5
293
330
1F
100
AcDbEntity
  8
0_Pen_No__1
  6
Continuous
100
AcDbPolyline
 90
        2
 70
   128
 43
0.0
 10
512.9319494059991
 20
-44.78108905527122
 10
514.1752700300291
 20
-43.74890290427534
  0
LWPOLYLINE
  5
294
330
1F
100
AcDbEntity
  8
0_Pen_No__1
  6
Continuous
100
AcDbPolyline
 90
        2
 70
   128
 43
0.0
 10
514.1752700300291
 20
-43.74890290427534
 10
515.7714175858903
 20
-43.20199996374728
  0
LWPOLYLINE
  5
295
330
1F
100
AcDbEntity
  8
0_Pen_No__1
  6
Continuous
100
AcDbPolyline
 90
        2
 70
   128
 43
0.0
 10
515.7714175858903
 20
-43.20199996374728
 10
517.6718939377852
 20
-43.15699760278933
  0
LWPOLYLINE
  5
296
330
1F
100
AcDbEntity
  8
0_Pen_No__1
  6
Continuous
100
AcDbPolyline
 90
        2
 70
   128
 43
0.0
 10
517.6718939377852
 20
-43.15699760278933
 10
519.8189540734512
 20
-43.61526319536889
  0
LWPOLYLINE
  5
297
330
1F
100
AcDbEntity
  8
0_Pen_No__1
  6
Continuous
100
AcDbPolyline
 90
        2
 70
   128
 43
0.0
 10
519.8189540734512
 20
-43.61526319536889
 10
522.1473606571294
 20
-44.56287257334611
  0
LWPOLYLINE
  5
298
330
1F
100
AcDbEntity
  8
0_Pen_No__1
  6
Continuous
100
AcDbPolyline
 90
        2
 70
   128
 43
0.0
 10
511.2655691373824
 20
-45.94974011790907
 10
511.0236399104205
 20
-47.0093318860315
  0
LWPOLYLINE
  5
299
330
1F
100
AcDbEntity
  8
0_Pen_No__1
  6
Continuous
100
AcDbPolyline
 90
        2
 70
   128
 43
0.0
 10
471.2740334428132
 20
-14.48288859927548
 10
471.7439450797585
 20
-14.70888068285957
  0
LWPOLYLINE
  5
29A
330
1F
100
AcDbEntity
  8
0_Pen_No__1
  6
Continuous
100
AcDbPolyline
 90
        2
 70
   128
 43
0.0
 10
471.7439450797585
 20
-14.70888068285957
 10
474.3501811640502
 20
-16.50118455615167
  0
LWPOLYLINE
  5
29B
330
1F
100
AcDbEntity
  8
0_Pen_No__1
  6
Continuous
100
AcDbPolyline
 90
        2
 70
   128
 43
0.0
 10
474.3501811640502
 20
-16.50118455615167
 10
476.9404847347856
 20
-18.69514495165069
  0
LWPOLYLINE
  5
29C
330
1F
100
AcDbEntity
  8
0_Pen_No__1
  6
Continuous
100
AcDbPolyline
 90
        2
 70
   128
 43
0.0
 10
476.9404847347856
 20
-18.69514495165069
 10
479.4361507287223
 20
-21.22409949294122
  0
LWPOLYLINE
  5
29D
330
1F
100
AcDbEntity
  8
0_Pen_No__1
  6
Continuous
100
AcDbPolyline
 90
        2
 70
   128
 43
0.0
 10
479.4361507287223
 20
-21.22409949294122
 10
481.7613495975044
 20
-24.01120717599557
  0
LWPOLYLINE
  5
29E
330
1F
100
AcDbEntity
  8
0_Pen_No__1
  6
Continuous
100
AcDbPolyline
 90
        2
 70
   128
 43
0.0
 10
481.7613495975044
 20
-24.01120717599557
 10
483.8454313501106
 20
-26.97178314420899
  0
LWPOLYLINE
  5
29F
330
1F
100
AcDbEntity
  8
0_Pen_No__1
  6
Continuous
100
AcDbPolyline
 90
        2
 70
   128
 43
0.0
 10
483.8454313501106
 20
-26.97178314420899
 10
485.6250722170845
 20
-30.01587179491359
  0
LWPOLYLINE
  5
2A0
330
1F
100
AcDbEntity
  8
0_Pen_No__1
  6
Continuous
100
AcDbPolyline
 90
        2
 70
   128
 43
0.0
 10
471.4053392748276
 20
-15.2669527409358
 10
471.8510709152293
 20
-15.48131606845203
  0
LWPOLYLINE
  5
2A1
330
1F
100
AcDbEntity
  8
0_Pen_No__1
  6
Continuous
100
AcDbPolyline
 90
        2
 70
   128
 43
0.0
 10
471.8510709152293
 20
-15.48131606845203
 10
474.3231992768049
 20
-17.1813943017448
  0
LWPOLYLINE
  5
2A2
330
1F
100
AcDbEntity
  8
0_Pen_No__1
  6
Continuous
100
AcDbPolyline
 90
        2
 70
   128
 43
0.0
 10
474.3231992768049
 20
-17.1813943017448
 10
476.7802149558138
 20
-19.26246122832841
  0
LWPOLYLINE
  5
2A3
330
1F
100
AcDbEntity
  8
0_Pen_No__1
  6
Continuous
100
AcDbPolyline
 90
        2
 70
   128
 43
0.0
 10
476.7802149558138
 20
-19.26246122832841
 10
479.1474627741588
 20
-21.66128468271076
  0
LWPOLYLINE
  5
2A4
330
1F
100
AcDbEntity
  8
0_Pen_No__1
  6
Continuous
100
AcDbPolyline
 90
        2
 70
   128
 43
0.0
 10
479.1474627741588
 20
-21.66128468271076
 10
481.353015104764
 20
-24.30497762809246
  0
LWPOLYLINE
  5
2A5
330
1F
100
AcDbEntity
  8
0_Pen_No__1
  6
Continuous
100
AcDbPolyline
 90
        2
 70
   128
 43
0.0
 10
481.353015104764
 20
-24.30497762809246
 10
483.3298573561286
 20
-27.11321279210198
  0
LWPOLYLINE
  5
2A6
330
1F
100
AcDbEntity
  8
0_Pen_No__1
  6
Continuous
100
AcDbPolyline
 90
        2
 70
   128
 43
0.0
 10
483.3298573561286
 20
-27.11321279210198
 10
485.0179241767751
 20
-30.00066337031724
  0
LWPOLYLINE
  5
2A7
330
1F
100
AcDbEntity
  8
0_Pen_No__1
  6
Continuous
100
AcDbPolyline
 90
        2
 70
   128
 43
0.0
 10
485.0179241767751
 20
-30.00066337031724
 10
485.6919243436675
 20
-31.44012950417894
  0
LWPOLYLINE
  5
2A8
330
1F
100
AcDbEntity
  8
0_Pen_No__1
  6
Continuous
100
AcDbPolyline
 90
        2
 70
   128
 43
0.0
 10
471.2740334428132
 20
-14.48288859927548
 10
471.4053392748276
 20
-15.2669527409358
  0
LWPOLYLINE
  5
2A9
330
1F
100
AcDbEntity
  8
0_Pen_No__1
  6
Continuous
100
AcDbPolyline
 90
        2
 70
   128
 43
0.0
 10
486.3503747809508
 20
-31.56494588630486
 10
485.6919243436675
 20
-31.44012950417894
  0
LWPOLYLINE
  5
2AA
330
1F
100
AcDbEntity
  8
0_Pen_No__1
  6
Continuous
100
AcDbPolyline
 90
        2
 70
   128
 43
0.0
 10
496.5880797846127
 20
-46.04749140799146
 10
494.1576102467034
 20
-43.83314249877711
  0
LWPOLYLINE
  5
2AB
330
1F
100
AcDbEntity
  8
0_Pen_No__1
  6
Continuous
100
AcDbPolyline
 90
        2
 70
   128
 43
0.0
 10
494.1576102467034
 20
-43.83314249877711
 10
491.8456875392563
 20
-41.32870904372475
  0
LWPOLYLINE
  5
2AC
330
1F
100
AcDbEntity
  8
0_Pen_No__1
  6
Continuous
100
AcDbPolyline
 90
        2
 70
   128
 43
0.0
 10
491.8456875392563
 20
-41.32870904372475
 10
489.7225582638471
 20
-38.61028698605949
  0
LWPOLYLINE
  5
2AD
330
1F
100
AcDbEntity
  8
0_Pen_No__1
  6
Continuous
100
AcDbPolyline
 90
        2
 70
   128
 43
0.0
 10
489.7225582638471
 20
-38.61028698605949
 10
487.8527326291558
 20
-35.76047420441696
  0
LWPOLYLINE
  5
2AE
330
1F
100
AcDbEntity
  8
0_Pen_No__1
  6
Continuous
100
AcDbPolyline
 90
        2
 70
   128
 43
0.0
 10
487.8527326291558
 20
-35.76047420441696
 10
486.2930243409131
 20
-32.86586081809172
  0
LWPOLYLINE
  5
2AF
330
1F
100
AcDbEntity
  8
0_Pen_No__1
  6
Continuous
100
AcDbPolyline
 90
        2
 70
   128
 43
0.0
 10
499.0087783288866
 20
-47.16570154048303
 10
496.6678831523428
 20
-45.40945641161419
  0
LWPOLYLINE
  5
2B0
330
1F
100
AcDbEntity
  8
0_Pen_No__1
  6
Continuous
100
AcDbPolyline
 90
        2
 70
   128
 43
0.0
 10
496.6678831523428
 20
-45.40945641161419
 10
494.3692614342827
 20
-43.31523123631752
  0
LWPOLYLINE
  5
2B1
330
1F
100
AcDbEntity
  8
0_Pen_No__1
  6
Continuous
100
AcDbPolyline
 90
        2
 70
   128
 43
0.0
 10
494.3692614342827
 20
-43.31523123631752
 10
492.1827556324505
 20
-40.94665798681617
  0
LWPOLYLINE
  5
2B2
330
1F
100
AcDbEntity
  8
0_Pen_No__1
  6
Continuous
100
AcDbPolyline
 90
        2
 70
   128
 43
0.0
 10
492.1827556324505
 20
-40.94665798681617
 10
490.1748016192098
 20
-38.37570456273941
  0
LWPOLYLINE
  5
2B3
330
1F
100
AcDbEntity
  8
0_Pen_No__1
  6
Continuous
100
AcDbPolyline
 90
        2
 70
   128
 43
0.0
 10
490.1748016192098
 20
-38.37570456273941
 10
488.4064100611798
 20
-35.68048808291256
  0
LWPOLYLINE
  5
2B4
330
1F
100
AcDbEntity
  8
0_Pen_No__1
  6
Continuous
100
AcDbPolyline
 90
        2
 70
   128
 43
0.0
 10
488.4064100611798
 20
-35.68048808291256
 10
486.9313126410011
 20
-32.94290133623089
  0
LWPOLYLINE
  5
2B5
330
1F
100
AcDbEntity
  8
0_Pen_No__1
  6
Continuous
100
AcDbPolyline
 90
        2
 70
   128
 43
0.0
 10
486.9313126410011
 20
-32.94290133623089
 10
486.3503747808426
 20
-31.56494588621271
  0
LWPOLYLINE
  5
2B6
330
1F
100
AcDbEntity
  8
0_Pen_No__1
  6
Continuous
100
AcDbPolyline
 90
        2
 70
   128
 43
0.0
 10
522.1473606571294
 20
-44.56287257334611
 10
523.0984185102851
 20
-45.11196608328049
  0
LWPOLYLINE
  5
2B7
330
1F
100
AcDbEntity
  8
0_Pen_No__1
  6
Continuous
100
AcDbPolyline
 90
        2
 70
   128
 43
0.0
 10
485.6250722170845
 20
-30.01587179491359
 10
486.2342839570832
 20
-31.31700344619768
  0
LWPOLYLINE
  5
2B8
330
1F
100
AcDbEntity
  8
0_Pen_No__1
  6
Continuous
100
AcDbPolyline
 90
        2
 70
   128
 43
0.0
 10
486.2930243409131
 20
-32.86586081809172
 10
485.7822233915865
 20
-31.65430714668159
  0
LWPOLYLINE
  5
2B9
330
1F
100
AcDbEntity
  8
0_Pen_No__1
  6
Continuous
100
AcDbPolyline
 90
        2
 70
   128
 43
0.0
 10
208.1820587810097
 20
142.1202052332057
 10
201.7761947192862
 20
137.1175128183014
  0
LWPOLYLINE
  5
2BA
330
1F
100
AcDbEntity
  8
0_Pen_No__1
  6
Continuous
100
AcDbPolyline
 90
        2
 70
   128
 43
0.0
 10
260.1435829515308
 20
112.1202051347549
 10
253.7377188898078
 20
107.1175127198508
  0
LWPOLYLINE
  5
2BB
330
1F
100
AcDbEntity
  8
0_Pen_No__1
  6
Continuous
100
AcDbPolyline
 90
        2
 70
   128
 43
0.0
 10
162.9701406111257
 20
168.223318473235
 10
159.504888420722
 20
165.5171119909201
  0
LWPOLYLINE
  5
2BC
330
1F
100
AcDbEntity
  8
0_Pen_No__1
  6
Continuous
100
AcDbPolyline
 90
        2
 70
   128
 43
0.0
 10
704.3598166017209
 20
669.2962932669469
 10
305.4992335759954
 20
439.0140272816071
  0
LWPOLYLINE
  5
2BD
330
1F
100
AcDbEntity
  8
0_Pen_No__1
  6
Continuous
100
AcDbPolyline
 90
        2
 70
   128
 43
0.0
 10
704.3598166017209
 20
639.2962932669495
 10
305.4992335759954
 20
409.0140272816095
  0
LWPOLYLINE
  5
2BE
330
1F
100
AcDbEntity
  8
0_Pen_No__1
  6
Continuous
100
AcDbPolyline
 90
        2
 70
   128
 43
0.0
 10
704.3598166017209
 20
388.4535335176133
 10
305.6992430600767
 20
77.11751262154544
  0
LWPOLYLINE
  5
2BF
330
1F
100
AcDbEntity
  8
0_Pen_No__1
  6
Continuous
100
AcDbPolyline
 90
        2
 70
   128
 43
0.0
 10
704.3598166017209
 20
176.7146762959136
 10
461.5838155711376
 20
-12.88248767351395
  0
LWPOLYLINE
  5
2C0
330
1F
100
AcDbEntity
  8
0_Pen_No__1
  6
Continuous
100
AcDbPolyline
 90
        2
 70
   128
 43
0.0
 10
704.3598166017209
 20
106.1350572220769
 10
513.5453397413769
 20
-42.88248777189417
  0
LWPOLYLINE
  5
2C1
330
1F
100
AcDbEntity
  8
0_Pen_No__1
  6
Continuous
100
AcDbPolyline
 90
        2
 70
   128
 43
0.0
 10
704.3598166017207
 20
247.2942953696994
 10
409.6222914008676
 20
17.11751242479033
  0
LWPOLYLINE
  5
2C2
330
1F
100
AcDbEntity
  8
0_Pen_No__1
  6
Continuous
100
AcDbPolyline
 90
        2
 70
   128
 43
0.0
 10
704.3598166017209
 20
317.8739144438277
 10
357.660767230346
 20
47.11751252324071
  0
LWPOLYLINE
  5
2C3
330
1F
100
AcDbEntity
  8
0_Pen_No__1
  6
Continuous
100
AcDbPolyline
 90
        2
 70
   128
 43
0.0
 10
10.82541399376613
 20
297.8840172110111
 10
-2.164967006294988
 20
290.3840172109751
  0
LWPOLYLINE
  5
2C4
330
1F
100
AcDbEntity
  8
0_Pen_No__1
  6
Continuous
100
AcDbPolyline
 90
        2
 70
   128
 43
0.0
 10
10.82541399378167
 20
193.2290888490191
 10
-1.298941606295295
 20
186.229088848975
  0
LWPOLYLINE
  5
2C5
330
1F
100
AcDbEntity
  8
0_Pen_No__1
  6
Continuous
100
AcDbPolyline
 90
        2
 70
   128
 43
0.0
 10
0.0170279430801108
 20
172.6691539100798
 10
-2.164967006294988
 20
171.4093785331829
  0
LWPOLYLINE
  5
2C6
330
1F
100
AcDbEntity
  8
0_Pen_No__1
  6
Continuous
100
AcDbPolyline
 90
        2
 70
   128
 43
0.0
 10
10.82541399369685
 20
171.1812915761757
 10
6.191412153600744
 20
168.5058493546792
  0
LWPOLYLINE
  5
2C7
330
1F
100
AcDbEntity
  8
0_Pen_No__1
  6
Continuous
100
AcDbPolyline
 90
        2
 70
   128
 43
0.0
 10
10.82541399369685
 20
168.1440579621787
 10
8.821733609058242
 20
166.987232547682
  0
LWPOLYLINE
  5
2C8
330
1F
100
AcDbEntity
  8
0_Pen_No__1
  6
Continuous
100
AcDbPolyline
 90
        2
 70
   128
 43
0.0
 10
10.82541399369685
 20
161.4076818781791
 10
8.821733609058242
 20
160.2508564636824
  0
LWPOLYLINE
  5
2C9
330
1F
100
AcDbEntity
  8
0_Pen_No__1
  6
Continuous
100
AcDbPolyline
 90
        2
 70
   128
 43
0.0
 10
5.040113447825172
 20
175.5692336910801
 10
4.763236193703662
 20
175.4093785331825
  0
LWPOLYLINE
  5
2CA
330
1F
100
AcDbEntity
  8
0_Pen_No__1
  6
Continuous
100
AcDbPolyline
 90
        2
 70
   128
 43
0.0
 10
10.82541399376613
 20
563.2639216164299
 10
-2.164967006294988
 20
555.7639216163941
  0
LWPOLYLINE
  5
2CB
330
1F
100
AcDbEntity
  8
0_Pen_No__1
  6
Continuous
100
AcDbPolyline
 90
        2
 70
   128
 43
0.0
 10
10.82541399378167
 20
458.6089932544381
 10
-1.298941606295295
 20
451.608993254394
  0
LWPOLYLINE
  5
2CC
330
1F
100
AcDbEntity
  8
0_Pen_No__1
  6
Continuous
100
AcDbPolyline
 90
        2
 70
   128
 43
0.0
 10
0.866791715358078
 20
437.5584469706827
 10
-2.164967006294988
 20
435.8080602489695
  0
LWPOLYLINE
  5
2CD
330
1F
100
AcDbEntity
  8
0_Pen_No__1
  6
Continuous
100
AcDbPolyline
 90
        2
 70
   128
 43
0.0
 10
10.82541399369685
 20
435.5799732919618
 10
6.191412153600744
 20
432.904531070466
  0
LWPOLYLINE
  5
2CE
330
1F
100
AcDbEntity
  8
0_Pen_No__1
  6
Continuous
100
AcDbPolyline
 90
        2
 70
   128
 43
0.0
 10
5.889877220103584
 20
440.4585267516831
 10
4.763236193704106
 20
439.8080602489691
  0
LWPOLYLINE
  5
2CF
330
1F
100
AcDbEntity
  8
0_Pen_No__1
  6
Continuous
100
AcDbPolyline
 90
        2
 70
   128
 43
0.0
 10
10.82541399369685
 20
432.5427396779648
 10
8.821733609058242
 20
431.3859142634686
  0
LWPOLYLINE
  5
2D0
330
1F
100
AcDbEntity
  8
0_Pen_No__1
  6
Continuous
100
AcDbPolyline
 90
        2
 70
   128
 43
0.0
 10
10.82541399369685
 20
425.8063635939652
 10
8.821733609058242
 20
424.649538179469
  0
LWPOLYLINE
  5
2D1
330
1F
100
AcDbEntity
  8
0_Pen_No__1
  6
Continuous
100
AcDbPolyline
 90
        2
 70
   128
 43
0.0
 10
71.90838289750312
 20
403.4953578108045
 10
16.8875917937018
 20
371.7290888489721
  0
LWPOLYLINE
  5
2D2
330
1F
100
AcDbEntity
  8
0_Pen_No__1
  6
Continuous
100
AcDbPolyline
 90
        2
 70
   128
 43
0.0
 10
120.6741153715904
 20
332.3051950669836
 10
16.8875917937018
 20
272.3840172109742
  0
LWPOLYLINE
  5
2D3
330
1F
100
AcDbEntity
  8
0_Pen_No__1
  6
Continuous
100
AcDbPolyline
 90
        2
 70
   128
 43
0.0
 10
125.4671416150044
 20
305.0724500709468
 10
16.8875917937018
 20
242.3840172109768
  0
LWPOLYLINE
  5
2D4
330
1F
100
AcDbEntity
  8
0_Pen_No__1
  6
Continuous
100
AcDbPolyline
 90
        2
 70
   128
 43
0.0
 10
10.82541399376613
 20
32.50411280559208
 10
-2.164967006294988
 20
25.00411280555625
  0
LWPOLYLINE
  5
2D5
330
1F
100
AcDbEntity
  8
0_Pen_No__1
  6
Continuous
100
AcDbPolyline
 90
        2
 70
   128
 43
0.0
 10
92.41480592022965
 20
50.6097706714116
 10
16.8875917937018
 20
7.004112805555351
  0
LWPOLYLINE
  5
2D6
330
1F
100
AcDbEntity
  8
0_Pen_No__1
  6
Continuous
100
AcDbPolyline
 90
        2
 70
   128
 43
0.0
 10
159.5048884207218
 20
188.689319670288
 10
16.8875917937018
 20
106.3491844435534
  0
LWPOLYLINE
  5
2D7
330
1F
100
AcDbEntity
  8
0_Pen_No__1
  6
Continuous
100
AcDbPolyline
 90
        2
 70
   128
 43
0.0
 10
287.2581805680616
 20
693.8624547765701
 10
16.88759179370202
 20
537.7639216163932
  0
LWPOLYLINE
  5
2D8
330
1F
100
AcDbEntity
  8
0_Pen_No__1
  6
Continuous
100
AcDbPolyline
 90
        2
 70
   128
 43
0.0
 10
115.1874697614068
 20
693.8624547765703
 10
16.88759179370202
 20
637.1089932543919
  0
LWPOLYLINE
  5
2D9
330
1F
100
AcDbEntity
  8
0_Pen_No__1
  6
Continuous
100
AcDbPolyline
 90
        2
 70
   128
 43
0.0
 10
339.2197045680578
 20
693.8624547765701
 10
16.88759179370202
 20
507.7639216163958
  0
LWPOLYLINE
  5
2DA
330
1F
100
AcDbEntity
  8
0_Pen_No__1
  6
Continuous
100
AcDbPolyline
 90
        2
 70
   128
 43
0.0
 10
526.3117053343196
 20
-46.5011846544564
 10
527.4909585088332
 20
-47.49999992475128
  0
LWPOLYLINE
  5
2DB
330
1F
100
AcDbEntity
  8
0_Pen_No__1
  6
Continuous
100
AcDbPolyline
 90
        2
 70
   128
 43
0.0
 10
526.2847234470743
 20
-47.1813944000493
 10
526.6608856740606
 20
-47.49999992475128
  0
LWPOLYLINE
  5
2DC
330
1F
100
AcDbEntity
  8
0_Pen_No__1
  6
Continuous
100
AcDbPolyline
 90
        2
 70
   128
 43
0.0
 10
512.0186963978259
 20
-46.63989850310633
 10
511.8219714247998
 20
-47.49999992475128
  0
LWPOLYLINE
  5
2DD
330
1F
100
AcDbEntity
  8
0_Pen_No__1
  6
Continuous
100
AcDbPolyline
 90
        2
 70
   128
 43
0.0
 10
511.0236399104205
 20
-47.0093318860315
 10
510.742098591259
 20
-47.4999999247515
  0
LWPOLYLINE
  5
2DE
330
1F
100
AcDbEntity
  8
0_Pen_No__1
  6
Continuous
100
AcDbPolyline
 90
        2
 70
   128
 43
0.0
 10
518.5289768960662
 20
-43.33993222261832
 10
513.2020797020596
 20
-47.49999992475128
  0
LWPOLYLINE
  5
2DF
330
1F
100
AcDbEntity
  8
0_Pen_No__1
  6
Continuous
100
AcDbPolyline
 90
        2
 70
   128
 43
0.0
 10
498.5241251150046
 20
-47.49999992475128
 10
496.5880797846127
 20
-46.04749140799146
  0
LWPOLYLINE
  5
2E0
330
1F
100
AcDbEntity
  8
0_Pen_No__1
  6
Continuous
100
AcDbPolyline
 90
        2
 70
   128
 43
0.0
 10
499.5759087989941
 20
-47.49999992475128
 10
499.0087783288866
 20
-47.16570154048303
  0
LWPOLYLINE
  5
2E1
330
1F
100
AcDbEntity
  8
0_Pen_No__1
  6
Continuous
100
AcDbPolyline
 90
        2
 70
   128
 43
0.0
 10
704.3598166017205
 20
35.55543814794783
 10
598.0087156834362
 20
-47.49999992475128
  0
LWPOLYLINE
  5
2E2
330
1F
100
AcDbEntity
  8
0_Pen_No__1
  6
Continuous
100
AcDbPolyline
 90
        2
 70
   128
 43
0.0
 10
114.2999721347824
 20
33.24517733186129
 10
16.88759179370184
 20
-22.9958869262306
  0
LWPOLYLINE
  5
2E3
330
1F
100
AcDbEntity
  8
0_Pen_No__1
  6
Continuous
100
AcDbPolyline
 90
        2
 70
   128
 43
0.0
 10
292.6032661937654
 20
460.5685370094793
 10
286.4466747759986
 20
457.0140272816079
  0
LWPOLYLINE
  5
2E4
330
1F
100
AcDbEntity
  8
0_Pen_No__1
  6
Continuous
100
AcDbPolyline
 90
        2
 70
   128
 43
0.0
 10
704.3598166017209
 20
768.6413649049449
 10
284.9860784460194
 20
526.5158232316313
  0
LWPOLYLINE
  5
2E5
330
1F
100
AcDbEntity
  8
0_Pen_No__1
  6
Continuous
100
AcDbPolyline
 90
        2
 70
   128
 43
0.0
 10
159.5048884207218
 20
224.0692240757182
 10
16.8875917937018
 20
141.7290888489826
  0
LWPOLYLINE
  5
2E6
330
1F
100
AcDbEntity
  8
0_Pen_No__1
  6
Continuous
100
AcDbPolyline
 90
        2
 70
   128
 43
0.0
 10
170.5687776043256
 20
230.4569635020698
 10
159.5048884207218
 20
224.0692240757182
  0
LWPOLYLINE
  5
2E7
330
1F
100
AcDbEntity
  8
0_Pen_No__1
  6
Continuous
100
AcDbPolyline
 90
        2
 70
   128
 43
0.0
 10
58.66980166427238
 20
431.2319637441389
 10
16.88759179370202
 20
407.1089932544018
  0
LWPOLYLINE
  5
2E8
330
1F
100
AcDbEntity
  8
0_Pen_No__1
  6
Continuous
100
AcDbPolyline
 90
        2
 70
   128
 43
0.0
 10
513.5591537613946
 20
693.8624547765703
 10
281.6192338450239
 20
559.9518789918606
  0
LWPOLYLINE
  5
2EA
330
1F
100
AcDbEntity
  8
0_Pen_No__1
  6
Above
100
AcDbPolyline
 90
        2
 70
   128
 43
0.0
 10
344.6519186307635
 20
330.9639122742628
 10
323.547487071339
 20
318.7792629790897
  0
LWPOLYLINE
  5
2EB
330
1F
100
AcDbEntity
  8
0_Pen_No__1
  6
Continuous
100
AcDbPolyline
 90
        2
 70
   128
 43
0.0
 10
159.5048884207218
 20
170.2239827669171
 10
288.3916208626817
 20
95.8111927714046
  0
LWPOLYLINE
  5
2EC
330
1F
100
AcDbEntity
  8
0_Pen_No__1
  6
Continuous
100
AcDbPolyline
 90
        2
 70
   128
 43
0.0
 10
159.5048884207218
 20
217.4821274106883
 10
288.3916208626817
 20
95.8111927714046
  0
LWPOLYLINE
  5
2ED
330
1F
100
AcDbEntity
  8
0_Pen_No__1
  6
Continuous
100
AcDbPolyline
 90
        2
 70
   128
 43
0.0
 10
288.3916208626817
 20
95.8111927714046
 10
296.6749477500583
 20
75.34586294784131
  0
LWPOLYLINE
  5
2EE
330
1F
100
AcDbEntity
  8
0_Pen_No__1
  6
Continuous
100
AcDbPolyline
 90
        2
 70
   128
 43
0.0
 10
161.6179751943501
 20
321.2167769648148
 10
161.6179751943501
 20
305.7873803485604
  0
LWPOLYLINE
  5
2EF
330
1F
100
AcDbEntity
  8
0_Pen_No__1
  6
Continuous
100
AcDbPolyline
 90
        2
 70
   128
 43
0.0
 10
187.7741507831074
 20
192.30100829112
 10
704.3598166017209
 20
595.7312352109936
  0
LWPOLYLINE
  5
2F0
330
1F
100
AcDbEntity
  8
0_Pen_No__1
  6
Continuous
100
AcDbPolyline
 90
        2
 70
   128
 43
0.0
 10
296.6749477500583
 20
75.34586294784131
 10
704.3598166017209
 20
393.7294535803713
  0
LWPOLYLINE
  5
2F1
330
1F
100
AcDbEntity
  8
0_Pen_No__1
  6
Continuous
100
AcDbPolyline
 90
        2
 70
   128
 43
0.0
 10
288.3916208626817
 20
95.8111927714046
 10
704.3598166017205
 20
420.6636900479662
  0
LWPOLYLINE
  5
2F2
330
1F
100
AcDbEntity
  8
0_Pen_No__1
  6
Continuous
100
AcDbPolyline
 90
        2
 70
   128
 43
0.0
 10
155.7802479824468
 20
151.6427025582076
 10
77.35329741439001
 20
106.3628813381509
  0
LWPOLYLINE
  5
2F3
330
1F
100
AcDbEntity
  8
0_Pen_No__1
  6
Continuous
100
AcDbPolyline
 90
        2
 70
   128
 43
0.0
 10
79.90795437667231
 20
93.66225849796352
 10
80.90377241916525
 20
78.44657367671671
  0
LWPOLYLINE
  5
2F4
330
1F
100
AcDbEntity
  8
0_Pen_No__1
  6
Continuous
100
AcDbPolyline
 90
        2
 70
   128
 43
0.0
 10
80.90377241916525
 20
78.44657367671671
 10
90.71790364934907
 20
57.88252114583038
  0
LWPOLYLINE
  5
2F5
330
1F
100
AcDbEntity
  8
0_Pen_No__1
  6
Continuous
100
AcDbPolyline
 90
        2
 70
   128
 43
0.0
 10
90.71790364934907
 20
57.88252114583038
 10
104.8810898561612
 20
42.2048353800454
  0
LWPOLYLINE
  5
2F6
330
1F
100
AcDbEntity
  8
0_Pen_No__1
  6
Continuous
100
AcDbPolyline
 90
        2
 70
   128
 43
0.0
 10
155.7802479824468
 20
151.6427025582076
 10
155.7802479824468
 20
71.59147815419743
  0
LWPOLYLINE
  5
2F7
330
1F
100
AcDbEntity
  8
0_Pen_No__1
  6
Continuous
100
AcDbPolyline
 90
        2
 70
   128
 43
0.0
 10
77.35329741439001
 20
106.3628813381509
 10
77.35329741439001
 20
95.13719038926939
  0
LWPOLYLINE
  5
2F8
330
1F
100
AcDbEntity
  8
0_Pen_No__1
  6
Continuous
100
AcDbPolyline
 90
        2
 70
   128
 43
0.0
 10
146.6796910493628
 20
66.33726913614558
 10
155.7802479824468
 20
71.59147815419743
  0
LWPOLYLINE
  5
2F9
330
1F
100
AcDbEntity
  8
0_Pen_No__1
  6
Continuous
100
AcDbPolyline
 90
        2
 70
   128
 43
0.0
 10
77.35329741439001
 20
106.3628813381509
 10
343.8516239961058
 20
-47.49999992475105
  0
LWPOLYLINE
  5
2FA
330
1F
100
AcDbEntity
  8
0_Pen_No__1
  6
Continuous
100
AcDbPolyline
 90
        2
 70
   128
 43
0.0
 10
77.35329741439001
 20
95.13719038926939
 10
324.4081570075432
 20
-47.49999992475128
  0
LWPOLYLINE
  5
2FB
330
1F
100
AcDbEntity
  8
0_Pen_No__1
  6
Continuous
100
AcDbPolyline
 90
        2
 70
   128
 43
0.0
 10
90.71790364934907
 20
57.88252114583038
 10
273.245783575667
 20
-47.49999992475105
  0
LWPOLYLINE
  5
2FC
330
1F
100
AcDbEntity
  8
0_Pen_No__1
  6
Continuous
100
AcDbPolyline
 90
        2
 70
   128
 43
0.0
 10
104.8810898561612
 20
42.2048353800454
 10
260.2544216097027
 20
-47.49999992475105
  0
LWPOLYLINE
  5
2FD
330
1F
100
AcDbEntity
  8
0_Pen_No__1
  6
Continuous
100
AcDbPolyline
 90
        2
 70
   128
 43
0.0
 10
155.7802479824468
 20
71.59147815419743
 10
362.0527378622731
 20
-47.49999992475128
  0
LWPOLYLINE
  5
2FE
330
1F
100
AcDbEntity
  8
0_Pen_No__1
  6
Continuous
100
AcDbPolyline
 90
        2
 70
   128
 43
0.0
 10
155.7802479824468
 20
151.6427025582076
 10
500.7055251322192
 20
-47.49999992475128
  0
LWPOLYLINE
  5
2FF
330
1F
100
AcDbEntity
  8
0_Pen_No__1
  6
Continuous
100
AcDbPolyline
 90
        2
 70
   128
 43
0.0
 10
42.63059706586758
 20
421.9717246111963
 10
48.44689793593736
 20
407.6336367692164
  0
LWPOLYLINE
  5
300
330
1F
100
AcDbEntity
  8
0_Pen_No__1
  6
Continuous
100
AcDbPolyline
 90
        2
 70
   128
 43
0.0
 10
48.44689793593736
 20
407.6336367692164
 10
61.62710106894886
 20
408.408942835864
  0
LWPOLYLINE
  5
301
330
1F
100
AcDbEntity
  8
0_Pen_No__1
  6
Continuous
100
AcDbPolyline
 90
        2
 70
   128
 43
0.0
 10
61.62710106894886
 20
408.408942835864
 10
71.90838289750312
 20
403.4953578108045
  0
LWPOLYLINE
  5
302
330
1F
100
AcDbEntity
  8
0_Pen_No__1
  6
Continuous
100
AcDbPolyline
 90
        2
 70
   128
 43
0.0
 10
71.90838289750312
 20
403.4953578108045
 10
81.0097527351421
 20
372.744863770074
  0
LWPOLYLINE
  5
303
330
1F
100
AcDbEntity
  8
0_Pen_No__1
  6
Continuous
100
AcDbPolyline
 90
        2
 70
   128
 43
0.0
 10
81.0097527351421
 20
372.744863770074
 10
97.29118013474425
 20
357.2387424371214
  0
LWPOLYLINE
  5
304
330
1F
100
AcDbEntity
  8
0_Pen_No__1
  6
Continuous
100
AcDbPolyline
 90
        2
 70
   128
 43
0.0
 10
97.29118013474425
 20
357.2387424371214
 10
106.5948529345171
 20
346.384457504055
  0
LWPOLYLINE
  5
305
330
1F
100
AcDbEntity
  8
0_Pen_No__1
  6
Continuous
100
AcDbPolyline
 90
        2
 70
   128
 43
0.0
 10
106.5948529345171
 20
346.384457504055
 10
120.6741153715904
 20
332.3051950669836
  0
LWPOLYLINE
  5
306
330
1F
100
AcDbEntity
  8
0_Pen_No__1
  6
Continuous
100
AcDbPolyline
 90
        2
 70
   128
 43
0.0
 10
114.2145086984212
 20
328.575739399073
 10
115.8985257342899
 20
313.0462966382078
  0
LWPOLYLINE
  5
307
330
1F
100
AcDbEntity
  8
0_Pen_No__1
  6
Continuous
100
AcDbPolyline
 90
        2
 70
   128
 43
0.0
 10
115.8985257342899
 20
313.0462966382078
 10
125.4671416150044
 20
305.0724500709468
  0
LWPOLYLINE
  5
308
330
1F
100
AcDbEntity
  8
0_Pen_No__1
  6
Continuous
100
AcDbPolyline
 90
        2
 70
   128
 43
0.0
 10
125.4671416150044
 20
305.0724500709468
 10
134.5058713338354
 20
272.730381172532
  0
LWPOLYLINE
  5
309
330
1F
100
AcDbEntity
  8
0_Pen_No__1
  6
Continuous
100
AcDbPolyline
 90
        2
 70
   128
 43
0.0
 10
287.2681834127158
 20
487.1794951470863
 10
281.2060056127128
 20
490.6794951470881
  0
LWPOLYLINE
  5
30A
330
1F
100
AcDbEntity
  8
0_Pen_No__1
  6
Continuous
100
AcDbPolyline
 90
        2
 70
   128
 43
0.0
 10
287.6420771562766
 20
521.2038258111163
 10
281.5798993562735
 20
524.7038258111185
  0
LWPOLYLINE
  5
30B
330
1F
100
AcDbEntity
  8
0_Pen_No__1
  6
Continuous
100
AcDbPolyline
 90
        2
 70
   128
 43
0.0
 10
323.5474870713395
 20
357.9537688302107
 10
317.4853092713363
 20
361.4537688302125
  0
LWPOLYLINE
  5
30C
330
1F
100
AcDbEntity
  8
0_Pen_No__1
  6
Continuous
100
AcDbPolyline
 90
        2
 70
   128
 43
0.0
 10
324.6207088478425
 20
368.99262138853
 10
318.5585310478396
 20
372.4926213885319
  0
LWPOLYLINE
  5
30D
330
1F
100
AcDbEntity
  8
0_Pen_No__1
  6
Continuous
100
AcDbPolyline
 90
        2
 70
   128
 43
0.0
 10
309.0060874680572
 20
393.5626868741174
 10
302.9439096680542
 20
397.0626868741195
  0
LWPOLYLINE
  5
30E
330
1F
100
AcDbEntity
  8
0_Pen_No__1
  6
Continuous
100
AcDbPolyline
 90
        2
 70
   128
 43
0.0
 10
306.1716534752479
 20
406.0513179472858
 10
300.1094756752447
 20
409.5513179472877
  0
LWPOLYLINE
  5
30F
330
1F
100
AcDbEntity
  8
0_Pen_No__1
  6
Continuous
100
AcDbPolyline
 90
        2
 70
   128
 43
0.0
 10
301.1589988609597
 20
450.4806972662441
 10
295.0968210609568
 20
453.980697266246
  0
LWPOLYLINE
  5
310
330
1F
100
AcDbEntity
  8
0_Pen_No__1
  6
Continuous
100
AcDbPolyline
 90
        2
 70
   128
 43
0.0
 10
154.9701709194362
 20
265.3911118369131
 10
169.1781331747453
 20
244.8269559410713
  0
LWPOLYLINE
  5
311
330
1F
100
AcDbEntity
  8
0_Pen_No__1
  6
Continuous
100
AcDbPolyline
 90
        2
 70
   128
 43
0.0
 10
134.5058713338354
 20
272.730381172532
 10
154.9701709194362
 20
265.3911118369131
  0
LWPOLYLINE
  5
312
330
1F
100
AcDbEntity
  8
0_Pen_No__1
  6
Continuous
100
AcDbPolyline
 90
        2
 70
   128
 43
0.0
 10
169.1781331747453
 20
244.8269559410713
 10
170.5687776043256
 20
230.4569635020698
  0
LWPOLYLINE
  5
313
330
1F
100
AcDbEntity
  8
0_Pen_No__1
  6
Continuous
100
AcDbPolyline
 90
        2
 70
   128
 43
0.0
 10
159.5048884207218
 20
321.2167769648148
 10
159.5048884207218
 20
258.8277049271578
  0
LWPOLYLINE
  5
314
330
1F
100
AcDbEntity
  8
0_Pen_No__1
  6
Continuous
100
AcDbPolyline
 90
        2
 70
   128
 43
0.0
 10
159.5048884207218
 20
224.0692240757182
 10
159.5048884207218
 20
170.2239827669171
  0
LWPOLYLINE
  5
315
330
1F
100
AcDbEntity
  8
0_Pen_No__1
  6
Continuous
100
AcDbPolyline
 90
        2
 70
   128
 43
0.0
 10
58.66980166427282
 20
431.2319637441391
 10
77.82362790806152
 20
466.7248166395253
  0
LWPOLYLINE
  5
316
330
1F
100
AcDbEntity
  8
0_Pen_No__1
  6
Continuous
100
AcDbPolyline
 90
        2
 70
   128
 43
0.0
 10
77.82362790806152
 20
466.7248166395253
 10
121.2407676403273
 20
492.3099168388963
  0
LWPOLYLINE
  5
317
330
1F
100
AcDbEntity
  8
0_Pen_No__1
  6
Continuous
100
AcDbPolyline
 90
        2
 70
   128
 43
0.0
 10
121.2407676403273
 20
492.3099168388963
 10
160.7813770393549
 20
544.2554233042858
  0
LWPOLYLINE
  5
318
330
1F
100
AcDbEntity
  8
0_Pen_No__1
  6
Continuous
100
AcDbPolyline
 90
        2
 70
   128
 43
0.0
 10
160.7813770393549
 20
544.2554233042858
 10
208.0750471048589
 20
576.0429720368378
  0
LWPOLYLINE
  5
319
330
1F
100
AcDbEntity
  8
0_Pen_No__1
  6
Continuous
100
AcDbPolyline
 90
        2
 70
   128
 43
0.0
 10
208.0750471048589
 20
576.0429720368378
 10
256.1440232370102
 20
579.1441963034282
  0
LWPOLYLINE
  5
31A
330
1F
100
AcDbEntity
  8
0_Pen_No__1
  6
Continuous
100
AcDbPolyline
 90
        2
 70
   128
 43
0.0
 10
256.1440232370102
 20
579.1441963034282
 10
281.6192338450239
 20
559.9518789918604
  0
LWPOLYLINE
  5
31B
330
1F
100
AcDbEntity
  8
0_Pen_No__1
  6
Above
100
AcDbPolyline
 90
        2
 70
   128
 43
0.0
 10
324.8349832832342
 20
340.3497658900797
 10
326.5670340889109
 20
339.3497658868025
  0
LWPOLYLINE
  5
31C
330
1F
100
AcDbEntity
  8
0_Pen_No__1
  6
Continuous
100
AcDbPolyline
 90
        2
 70
   128
 43
0.0
 10
159.5048884207218
 20
321.2167769648148
 10
161.6179751943501
 20
321.2167769648148
  0
LWPOLYLINE
  5
31D
330
1F
100
AcDbEntity
  8
0_Pen_No__1
  6
Continuous
100
AcDbPolyline
 90
        2
 70
   128
 43
0.0
 10
291.2502322769603
 20
424.1039793871547
 10
159.5048884207218
 20
321.2167769648148
  0
LWPOLYLINE
  5
31E
330
1F
100
AcDbEntity
  8
0_Pen_No__1
  6
Continuous
100
AcDbPolyline
 90
        2
 70
   128
 43
0.0
 10
161.6179751943501
 20
305.7873803485604
 10
297.9217635500671
 20
412.234523397421
  0
LWPOLYLINE
  5
31F
330
1F
100
AcDbEntity
  8
0_Pen_No__1
  6
Above
100
AcDbPolyline
 90
        2
 70
   128
 43
0.0
 10
101.9430165346307
 20
351.8115999705883
 10
280.6585936038901
 20
491.3804470792565
  0
LWPOLYLINE
  5
320
330
1F
100
AcDbEntity
  8
0_Pen_No__1
  6
Above
100
AcDbPolyline
 90
        2
 70
   128
 43
0.0
 10
126.8784870433581
 20
300.0224228543805
 10
146.4826727077546
 20
386.5950730435052
  0
LWPOLYLINE
  5
321
330
1F
100
AcDbEntity
  8
0_Pen_No__1
  6
Above
100
AcDbPolyline
 90
        2
 70
   128
 43
0.0
 10
273.0033101708977
 20
327.069818709936
 10
293.6771713327675
 20
418.3661867950217
  0
LWPOLYLINE
  5
322
330
1F
100
AcDbEntity
  8
0_Pen_No__1
  6
Above
100
AcDbPolyline
 90
        2
 70
   128
 43
0.0
 10
124.6157412430904
 20
369.5179806916465
 10
203.1886869719113
 20
272.5477304230687
  0
LWPOLYLINE
  5
323
330
1F
100
AcDbEntity
  8
0_Pen_No__1
  6
Above
100
AcDbPolyline
 90
        2
 70
   128
 43
0.0
 10
140.3784833596682
 20
381.8279750444578
 10
218.9514290884893
 20
284.8577247758802
  0
LWPOLYLINE
  5
324
330
1F
100
AcDbEntity
  8
0_Pen_No__1
  6
Above
100
AcDbPolyline
 90
        2
 70
   128
 43
0.0
 10
156.1412254762464
 20
394.1379693972698
 10
234.7141712050675
 20
297.167719128692
  0
LWPOLYLINE
  5
325
330
1F
100
AcDbEntity
  8
0_Pen_No__1
  6
Above
100
AcDbPolyline
 90
        2
 70
   128
 43
0.0
 10
171.9039675928244
 20
406.4479637500813
 10
250.4769133216456
 20
309.4777134815035
  0
LWPOLYLINE
  5
326
330
1F
100
AcDbEntity
  8
0_Pen_No__1
  6
Above
100
AcDbPolyline
 90
        2
 70
   128
 43
0.0
 10
187.6667097094027
 20
418.7579581028931
 10
266.2396554382236
 20
321.7877078343151
  0
LWPOLYLINE
  5
327
330
1F
100
AcDbEntity
  8
0_Pen_No__1
  6
Above
100
AcDbPolyline
 90
        2
 70
   128
 43
0.0
 10
203.4294518259809
 20
431.0679524557045
 10
282.0023975548016
 20
334.0977021871269
  0
LWPOLYLINE
  5
328
330
1F
100
AcDbEntity
  8
0_Pen_No__1
  6
Above
100
AcDbPolyline
 90
        2
 70
   128
 43
0.0
 10
219.1921939425592
 20
443.3779468085162
 10
297.7651396713801
 20
346.4076965399384
  0
LWPOLYLINE
  5
329
330
1F
100
AcDbEntity
  8
0_Pen_No__1
  6
Above
100
AcDbPolyline
 90
        2
 70
   128
 43
0.0
 10
115.4349238987884
 20
317.321477954612
 10
172.1153820793311
 20
247.369687753512
  0
LWPOLYLINE
  5
32A
330
1F
100
AcDbEntity
  8
0_Pen_No__1
  6
Above
100
AcDbPolyline
 90
        2
 70
   128
 43
0.0
 10
175.8162006936965
 20
251.1710467841953
 10
219.3730048156552
 20
443.5191519878104
  0
LWPOLYLINE
  5
32B
330
1F
100
AcDbEntity
  8
0_Pen_No__1
  6
Above
100
AcDbPolyline
 90
        2
 70
   128
 43
0.0
 10
200.1129780629969
 20
270.1457397656303
 10
243.6697821849558
 20
462.4938449692458
  0
LWPOLYLINE
  5
32C
330
1F
100
AcDbEntity
  8
0_Pen_No__1
  6
Above
100
AcDbPolyline
 90
        2
 70
   128
 43
0.0
 10
224.4097554322972
 20
289.1204327470654
 10
267.9665595542555
 20
481.4685379506807
  0
LWPOLYLINE
  5
32D
330
1F
100
AcDbEntity
  8
0_Pen_No__1
  6
Above
100
AcDbPolyline
 90
        2
 70
   128
 43
0.0
 10
140.233137562195
 20
270.6763675850693
 10
170.7794500770547
 20
405.5697660249403
  0
LWPOLYLINE
  5
32E
330
1F
100
AcDbEntity
  8
0_Pen_No__1
  6
Above
100
AcDbPolyline
 90
        2
 70
   128
 43
0.0
 10
115.3862704224669
 20
337.5930400161063
 10
122.1858953384543
 20
367.6203800620696
  0
LWPOLYLINE
  5
32F
330
1F
100
AcDbEntity
  8
0_Pen_No__1
  6
Above
100
AcDbPolyline
 90
        2
 70
   128
 43
0.0
 10
266.4804202922932
 20
480.3079298669509
 10
286.2751619447859
 20
455.8783881940601
  0
LWPOLYLINE
  5
330
330
1F
100
AcDbEntity
  8
0_Pen_No__1
  6
Above
100
AcDbPolyline
 90
        2
 70
   128
 43
0.0
 10
250.7176781757152
 20
467.9979355141396
 10
300.9007758679389
 20
406.0648172209499
  0
LWPOLYLINE
  5
331
330
1F
100
AcDbEntity
  8
0_Pen_No__1
  6
Above
100
AcDbPolyline
 90
        2
 70
   128
 43
0.0
 10
248.7065328015974
 20
308.0951257285006
 10
286.7409861009913
 20
476.0563701786101
  0
LWPOLYLINE
  5
332
330
1F
100
AcDbEntity
  8
0_Pen_No__1
  6
Above
100
AcDbPolyline
 90
        2
 70
   128
 43
0.0
 10
157.6453866920797
 20
259.248784991727
 10
195.0762274463549
 20
424.5444590063752
  0
LWPOLYLINE
  5
333
330
1F
100
AcDbEntity
  8
0_Pen_No__1
  6
Above
100
AcDbPolyline
 90
        2
 70
   128
 43
0.0
 10
109.0790887968003
 20
356.9289593568682
 10
187.652034525621
 20
259.9587090882903
  0
LWPOLYLINE
  5
334
330
1F
100
AcDbEntity
  8
0_Pen_No__1
  6
Continuous
100
AcDbPolyline
 90
        2
 70
   128
 43
0.0
 10
326.5670340889109
 20
313.3419254920345
 10
724.2315582323417
 20
623.9000764986861
  0
LWPOLYLINE
  5
335
330
1F
100
AcDbEntity
  8
0_Pen_No__1
  6
Continuous
100
AcDbPolyline
 90
        2
 70
   128
 43
0.0
 10
326.5670340889109
 20
339.3497658868025
 10
724.2315582323417
 20
649.9079168934537
  0
LWPOLYLINE
  5
336
330
1F
100
AcDbEntity
  8
0_Pen_No__1
  6
Continuous
100
AcDbPolyline
 90
        2
 70
   128
 43
0.0
 10
324.8349832832342
 20
340.3497658900797
 10
722.8946246970198
 20
651.2164857568182
  0
LWPOLYLINE
  5
337
330
1F
100
AcDbEntity
  8
0_Pen_No__1
  6
Above
100
AcDbPolyline
 90
        2
 70
   128
 43
0.0
 10
344.6519186307629
 20
330.9639122742626
 10
704.3598166017207
 20
611.87964127215
  0
LWPOLYLINE
  5
338
330
1F
100
AcDbEntity
  8
0_Pen_No__1
  6
Continuous
100
AcDbPolyline
 90
        2
 70
   128
 43
0.0
 10
298.6070575609532
 20
331.4846255375284
 10
317.4853092713346
 20
346.2276930969052
  0
LWPOLYLINE
  5
339
330
1F
100
AcDbEntity
  8
0_Pen_No__1
  6
Continuous
100
AcDbPolyline
 90
        2
 70
   128
 43
0.0
 10
296.5083286617702
 20
398.8152154551628
 10
301.8466421181063
 20
401.8972921796652
  0
LWPOLYLINE
  5
33A
330
1F
100
AcDbEntity
  8
0_Pen_No__1
  6
Continuous
100
AcDbPolyline
 90
        2
 70
   128
 43
0.0
 10
298.2403794674469
 20
397.8152154518856
 10
302.2479752832397
 20
400.1290019850475
  0
LWPOLYLINE
  5
33B
330
1F
100
AcDbEntity
  8
0_Pen_No__1
  6
Above
100
AcDbPolyline
 90
        2
 70
   128
 43
0.0
 10
234.9549360591372
 20
455.687941161328
 10
298.2403794674469
 20
377.5846547344489
  0
LWPOLYLINE
  5
33C
330
1F
100
AcDbEntity
  8
0_Pen_No__1
  6
Above
100
AcDbPolyline
 90
        2
 70
   128
 43
0.0
 10
297.3000875401979
 20
346.044511691371
 10
298.2403794674469
 20
350.1968680037898
  0
LWPOLYLINE
  5
33D
330
1F
100
AcDbEntity
  8
0_Pen_No__1
  6
Above
100
AcDbPolyline
 90
        2
 70
   128
 43
0.0
 10
168.6575364486003
 20
245.5804512025971
 10
298.2403794674473
 20
346.778837497682
  0
LWPOLYLINE
  5
33E
330
1F
100
AcDbEntity
  8
0_Pen_No__1
  6
Continuous
100
AcDbPolyline
 90
        2
 70
   128
 43
0.0
 10
71.65954195480207
 20
103.0755900764932
 10
50.04181151594755
 20
90.59458753381156
  0
LWPOLYLINE
  5
33F
330
1F
100
AcDbEntity
  8
0_Pen_No__1
  6
Continuous
100
AcDbPolyline
 90
        2
 70
   128
 43
0.0
 10
70.11249283751964
 20
112.1824008810514
 10
41.38155748756422
 20
95.59458755019858
  0
LWPOLYLINE
  5
340
330
1F
100
AcDbEntity
  8
0_Pen_No__1
  6
Continuous
100
AcDbPolyline
 90
        2
 70
   128
 43
0.0
 10
305.4992335759954
 20
439.0140272816071
 10
287.2681834127158
 20
487.1794951470863
  0
LWPOLYLINE
  5
341
330
1F
100
AcDbEntity
  8
0_Pen_No__1
  6
Continuous
100
AcDbPolyline
 90
        2
 70
   128
 43
0.0
 10
287.2681834127158
 20
487.1794951470863
 10
287.6420771562766
 20
521.2038258111163
  0
LWPOLYLINE
  5
342
330
1F
100
AcDbEntity
  8
0_Pen_No__1
  6
Continuous
100
AcDbPolyline
 90
        2
 70
   128
 43
0.0
 10
287.6420771562766
 20
521.2038258111163
 10
284.9860784460194
 20
526.5158232316313
  0
LWPOLYLINE
  5
343
330
1F
100
AcDbEntity
  8
0_Pen_No__1
  6
Continuous
100
AcDbPolyline
 90
        2
 70
   128
 43
0.0
 10
281.5798993562735
 20
524.7038258111185
 10
281.2060056127128
 20
490.6794951470881
  0
LWPOLYLINE
  5
344
330
1F
100
AcDbEntity
  8
0_Pen_No__1
  6
Continuous
100
AcDbPolyline
 90
        2
 70
   128
 43
0.0
 10
281.2060056127128
 20
490.6794951470881
 10
296.0465631038656
 20
451.4715291471017
  0
LWPOLYLINE
  5
345
330
1F
100
AcDbEntity
  8
0_Pen_No__1
  6
Continuous
100
AcDbPolyline
 90
        2
 70
   128
 43
0.0
 10
281.6192338450239
 20
529.9518789918628
 10
284.9860784460194
 20
526.5158232316313
  0
LWPOLYLINE
  5
346
330
1F
100
AcDbEntity
  8
0_Pen_No__1
  6
Continuous
100
AcDbPolyline
 90
        2
 70
   128
 43
0.0
 10
276.3905874854664
 20
529.7793056759857
 10
281.5798993562735
 20
524.7038258111185
  0
LWPOLYLINE
  5
347
330
1F
100
AcDbEntity
  8
0_Pen_No__1
  6
Continuous
100
AcDbPolyline
 90
        2
 70
   128
 43
0.0
 10
324.6207088478425
 20
368.99262138853
 10
323.5474870713395
 20
357.9537688302109
  0
LWPOLYLINE
  5
348
330
1F
100
AcDbEntity
  8
0_Pen_No__1
  6
Continuous
100
AcDbPolyline
 90
        2
 70
   128
 43
0.0
 10
305.4992335759954
 20
409.0140272816095
 10
309.0060874680572
 20
393.5626868741174
  0
LWPOLYLINE
  5
349
330
1F
100
AcDbEntity
  8
0_Pen_No__1
  6
Continuous
100
AcDbPolyline
 90
        2
 70
   128
 43
0.0
 10
309.0060874680572
 20
393.5626868741174
 10
324.6207088478425
 20
368.99262138853
  0
LWPOLYLINE
  5
34A
330
1F
100
AcDbEntity
  8
0_Pen_No__1
  6
Continuous
100
AcDbPolyline
 90
        2
 70
   128
 43
0.0
 10
318.5585310478396
 20
372.4926213885319
 10
302.9439096680542
 20
397.0626868741195
  0
LWPOLYLINE
  5
34B
330
1F
100
AcDbEntity
  8
0_Pen_No__1
  6
Continuous
100
AcDbPolyline
 90
        2
 70
   128
 43
0.0
 10
318.5585310478396
 20
372.4926213885319
 10
317.4853092713346
 20
361.4537688302132
  0
LWPOLYLINE
  5
34C
330
1F
100
AcDbEntity
  8
0_Pen_No__1
  6
Continuous
100
AcDbPolyline
 90
        2
 70
   128
 43
0.0
 10
302.9439096680542
 20
397.0626868741195
 10
300.1800639011771
 20
409.2403033623602
  0
LWPOLYLINE
  5
34D
330
1F
100
AcDbEntity
  8
0_Pen_No__1
  6
Continuous
100
AcDbPolyline
 90
        2
 70
   128
 43
0.0
 10
326.5670340889109
 20
339.3497658868025
 10
326.5670340889109
 20
313.3419254920345
  0
LWPOLYLINE
  5
34E
330
1F
100
AcDbEntity
  8
0_Pen_No__1
  6
Continuous
100
AcDbPolyline
 90
        2
 70
   128
 43
0.0
 10
324.8349832832342
 20
340.3497658900797
 10
324.8349832832342
 20
316.3419254953122
  0
LWPOLYLINE
  5
34F
330
1F
100
AcDbEntity
  8
0_Pen_No__1
  6
Continuous
100
AcDbPolyline
 90
        2
 70
   128
 43
0.0
 10
298.2403794674469
 20
331.6963272344452
 10
298.2403794674469
 20
397.8152154518856
  0
LWPOLYLINE
  5
350
330
1F
100
AcDbEntity
  8
0_Pen_No__1
  6
Continuous
100
AcDbPolyline
 90
        2
 70
   128
 43
0.0
 10
324.8349832832342
 20
316.3419254953122
 10
298.2403794674469
 20
331.6963272344452
  0
LWPOLYLINE
  5
351
330
1F
100
AcDbEntity
  8
0_Pen_No__1
  6
Continuous
100
AcDbPolyline
 90
        2
 70
   128
 43
0.0
 10
326.5670340889109
 20
313.3419254920345
 10
296.5083286617702
 20
330.6963272377225
  0
LWPOLYLINE
  5
352
330
1F
100
AcDbEntity
  8
0_Pen_No__1
  6
Continuous
100
AcDbPolyline
 90
        2
 70
   128
 43
0.0
 10
296.5083286617702
 20
330.6963272377225
 10
296.5083286617702
 20
398.8152154551628
  0
LWPOLYLINE
  5
353
330
1F
100
AcDbEntity
  8
0_Pen_No__1
  6
Continuous
100
AcDbPolyline
 90
        2
 70
   128
 43
0.0
 10
298.2403794674469
 20
397.8152154518856
 10
296.5083286617702
 20
398.8152154551628
  0
DIMENSION
  5
35E
330
1F
100
AcDbEntity
  8
0
  6
Continuous
100
AcDbDimension
  2
*D1
 10
52.80046626168607
 20
92.18729760082465
 30
0.0
 11
52.94914862507841
 21
73.84993506626397
 31
0.0
 70
   160
  1
10mm min
 71
     5
 42
-1.0
 53
329.9999998915844
  3
GENERATED_STYLE__1
100
AcDbAlignedDimension
 13
54.24904425687171
 23
114.6963082107003
 33
0.0
 14
62.90929828525505
 24
109.6963081943133
 34
0.0
 50
329.9999998915844
100
AcDbRotatedDimension
  0
WIPEOUT
  5
365
330
1F
100
AcDbEntity
  8
Key_ Sections_Pen_No__1
  6
Wipeout_Contour
 48
4422.17933256377
 92
      296
310
28010000060000000C0000000E000000120000000C00000016000000000000C20C00000014000000010000006C0000000700000004000000F692A1712FA58640568AC37F11A488400000000000000000902C3B0BC9C48B40568AC37F11A488400000000000000000902C3B0BC9C48B40AC98F031AF73864000000000000000
310
00F692A1712FA58640AC98F031AF73864000000000000000000C0000000E00000007000000840000000600000005000000F692A1712FA58640568AC37F11A488400000000000000000902C3B0BC9C48B40568AC37F11A488400000000000000000902C3B0BC9C48B40AC98F031AF7386400000000000000000F692A1712FA5
310
8640AC98F031AF7386400000000000000000F692A1712FA58640568AC37F11A488400000000000000000
100
AcDbWipeout
 90
        0
 10
724.6481659529661
 20
718.4605444714157
 30
0.0
 11
163.95
 21
0.0
 31
0.0
 12
0.0
 22
70.048
 32
0.0
 13
1.0
 23
1.0
340
0
 70
    15
280
     1
281
    50
282
    50
283
     0
360
0
 71
     2
 91
        5
 14
-0.5
 24
-0.5
 14
0.5
 24
-0.5
 14
0.5
 24
0.5
 14
-0.5
 24
0.5
 14
-0.5
 24
-0.5
  0
MTEXT
  5
368
102
{ACAD_REACTORS
330
369
102
}
330
1F
100
AcDbEntity
  8
Key_ Sections_Pen_No__1
  6
Continuous
100
AcDbMText
 10
729.6481659529661
 20
754.2870872365528
 30
0.0
 40
12.49999999999999
 41
153.95
 71
     4
 72
     1
  1
{Palliside Rusticated \Pweatherboard fixed \Pwith Palliside nails}
  7
GENERATED_STYLE_1
 73
     1
 44
0.9558154610760363
  0
LEADER
  5
369
330
1F
100
AcDbEntity
  8
Key_ Sections_Pen_No__1
  6
Continuous
100
AcDbLeader
  3
GENERATED_STYLE__2
 72
     1
 73
     0
 74
     0
 40
52.72875499698015
 41
149.6249999999999
 76
     3
 10
110.936679513771
 20
612.0631882341061
 30
0.0
 10
264.2652564169587
 20
701.8120228053582
 30
0.0
 10
729.5581659529661
 20
754.2870872365528
 30
0.0
340
368
  0
WIPEOUT
  5
370
330
1F
100
AcDbEntity
  8
Key_ Sections_Pen_No__1
  6
Wipeout_Contour
 48
4126.489252613335
 92
      296
310
28010000060000000C0000000E000000120000000C00000016000000000000C20C00000014000000010000006C0000000700000004000000F692A1712FA586403D75D358F02285400000000000000000902C3B0BC92E8C403D75D358F02285400000000000000000902C3B0BC92E8C400E98AE526F52824000000000000000
310
00F692A1712FA586400E98AE526F52824000000000000000000C0000000E00000007000000840000000600000005000000F692A1712FA586403D75D358F02285400000000000000000902C3B0BC92E8C403D75D358F02285400000000000000000902C3B0BC92E8C400E98AE526F5282400000000000000000F692A1712FA5
310
86400E98AE526F5282400000000000000000F692A1712FA586403D75D358F02285400000000000000000
100
AcDbWipeout
 90
        0
 10
724.6481659529661
 20
586.3043569221643
 30
0.0
 11
177.2
 21
0.0
 31
0.0
 12
0.0
 22
90.06299999999999
 32
0.0
 13
1.0
 23
1.0
340
0
 70
    15
280
     1
281
    50
282
    50
283
     0
360
0
 71
     2
 91
        5
 14
-0.5
 24
-0.4999999999999994
 14
0.5
 24
-0.4999999999999994
 14
0.5
 24
0.5000000000000007
 14
-0.5
 24
0.5000000000000007
 14
-0.5
 24
-0.4999999999999994
  0
MTEXT
  5
371
102
{ACAD_REACTORS
330
372
102
}
330
1F
100
AcDbEntity
  8
Key_ Sections_Pen_No__1
  6
Continuous
100
AcDbMText
 10
729.6481659529661
 20
630.5351710698698
 30
0.0
 40
12.49999999999999
 41
167.2
 71
     4
 72
     1
  1
{Flashing tape applied \Pover top of apron \Pflashing to where \Pboard compresses}
  7
GENERATED_STYLE_1
 73
     1
 44
0.9533630123717783
  0
LEADER
  5
372
330
1F
100
AcDbEntity
  8
Key_ Sections_Pen_No__1
  6
Continuous
100
AcDbLeader
  3
GENERATED_STYLE__2
 72
     1
 73
     0
 74
     0
 40
75.9528675534941
 41
163.1374999999999
 76
     3
 10
264.5172467925743
 20
419.2038225662
 30
0.0
 10
498.3848874494498
 20
584.1896324676144
 30
0.0
 10
729.5581659529661
 20
630.5351710698698
 30
0.0
340
371
  0
WIPEOUT
  5
373
330
1F
100
AcDbEntity
  8
Key_ Sections_Pen_No__1
  6
Wipeout_Contour
 48
3919.914130058874
 92
      296
310
28010000060000000C0000000E000000120000000C00000016000000000000C20C00000014000000010000006C0000000700000004000000F692A1712FA586409A20E804392182400000000000000000CD3612AF39208C409A20E804392182400000000000000000CD3612AF39208C40DF5D2A6EADE17F4000000000000000
310
00F692A1712FA58640DF5D2A6EADE17F4000000000000000000C0000000E00000007000000840000000600000005000000F692A1712FA586409A20E804392182400000000000000000CD3612AF39208C409A20E804392182400000000000000000CD3612AF39208C40DF5D2A6EADE17F400000000000000000F692A1712FA5
310
8640DF5D2A6EADE17F400000000000000000F692A1712FA586409A20E804392182400000000000000000
100
AcDbWipeout
 90
        0
 10
724.6481659529661
 20
510.104841390128
 30
0.0
 11
175.38
 21
0.0
 31
0.0
 12
0.0
 22
70.04800000000006
 32
0.0
 13
1.0
 23
1.0
340
0
 70
    15
280
     1
281
    50
282
    50
283
     0
360
0
 71
     2
 91
        5
 14
-0.5000000000000003
 24
-0.4999999999999996
 14
0.4999999999999997
 24
-0.4999999999999996
 14
0.4999999999999997
 24
0.5000000000000004
 14
-0.5000000000000003
 24
0.5000000000000004
 14
-0.5000000000000003
 24
-0.4999999999999996
  0
MTEXT
  5
374
102
{ACAD_REACTORS
330
375
102
}
330
1F
100
AcDbEntity
  8
Key_ Sections_Pen_No__1
  6
Continuous
100
AcDbMText
 10
729.6481659529661
 20
544.2256698695508
 30
0.0
 40
12.49999999999999
 41
165.38
 71
     4
 72
     1
  1
{Optional Palliside trim\Pdrill 6mm drain holes \P@500crs }
  7
GENERATED_STYLE_1
 73
     1
 44
0.6350028355233129
  0
LEADER
  5
375
330
1F
100
AcDbEntity
  8
Key_ Sections_Pen_No__1
  6
Continuous
100
AcDbLeader
  3
GENERATED_STYLE__2
 72
     1
 73
     0
 74
     0
 40
56.24186546453188
 41
159.6874999999998
 76
     3
 10
525.3992961606262
 20
482.6288413901281
 30
0.0
 10
637.7281605206528
 20
532.1356189204594
 30
0.0
 10
729.5581659529661
 20
544.2256698695508
 30
0.0
340
374
  0
WIPEOUT
  5
376
330
1F
100
AcDbEntity
  8
Key_ Sections_Pen_No__1
  6
Wipeout_Contour
 48
3460.175039194547
 92
      296
310
28010000060000000C0000000E000000120000000C00000016000000000000C20C00000014000000010000006C0000000700000004000000F692A1712FA586401AD0217C2FAD77400000000000000000A4DA82EC435F8A401AD0217C2FAD77400000000000000000A4DA82EC435F8A405484EAF2EDCC754000000000000000
310
00F692A1712FA586405484EAF2EDCC754000000000000000000C0000000E00000007000000840000000600000005000000F692A1712FA586401AD0217C2FAD77400000000000000000A4DA82EC435F8A401AD0217C2FAD77400000000000000000A4DA82EC435F8A405484EAF2EDCC75400000000000000000F692A1712FA5
310
86405484EAF2EDCC75400000000000000000F692A1712FA586401AD0217C2FAD77400000000000000000
100
AcDbWipeout
 90
        0
 10
724.6481659529661
 20
348.8080929909531
 30
0.0
 11
119.26
 21
0.0
 31
0.0
 12
0.0
 22
30.01599999999996
 32
0.0
 13
1.0
 23
1.0
340
0
 70
    15
280
     1
281
    50
282
    50
283
     0
360
0
 71
     2
 91
        5
 14
-0.5
 24
-0.5
 14
0.5
 24
-0.5
 14
0.5
 24
0.5
 14
-0.5
 24
0.5
 14
-0.5
 24
-0.5
  0
MTEXT
  5
377
102
{ACAD_REACTORS
330
378
102
}
330
1F
100
AcDbEntity
  8
Key_ Sections_Pen_No__1
  6
Continuous
100
AcDbMText
 10
729.6481659529661
 20
362.9169501338102
 30
0.0
 40
12.49999999999999
 41
109.26
 71
     4
 72
     1
  1
{Apron flashing}
  7
GENERATED_STYLE_1
 73
     1
 44
1.0
  0
LEADER
  5
378
330
1F
100
AcDbEntity
  8
Key_ Sections_Pen_No__1
  6
Continuous
100
AcDbLeader
  3
GENERATED_STYLE__2
 72
     1
 73
     0
 74
     0
 40
37.20833333333332
 41
58.79999999999997
 76
     3
 10
535.552340297709
 20
288.8160929909529
 30
0.0
 10
669.4790741656301
 20
353.6731862841587
 30
0.0
 10
729.5581659529661
 20
362.9169501338102
 30
0.0
340
377
  0
WIPEOUT
  5
379
330
1F
100
AcDbEntity
  8
Key_ Sections_Pen_No__1
  6
Wipeout_Contour
 48
3278.817973999665
 92
      296
310
28010000060000000C0000000E000000120000000C00000016000000000000C20C00000014000000010000006C0000000700000004000000F692A1712FA58640C93678156C3C74400000000000000000B432BCA00CCC8840C93678156C3C74400000000000000000B432BCA00CCC884003EB408C2A5C724000000000000000
310
00F692A1712FA5864003EB408C2A5C724000000000000000000C0000000E00000007000000840000000600000005000000F692A1712FA58640C93678156C3C74400000000000000000B432BCA00CCC8840C93678156C3C74400000000000000000B432BCA00CCC884003EB408C2A5C72400000000000000000F692A1712FA5
310
864003EB408C2A5C72400000000000000000F692A1712FA58640C93678156C3C74400000000000000000
100
AcDbWipeout
 90
        0
 10
724.6481659529661
 20
293.7603876624927
 30
0.0
 11
68.85799999999995
 21
0.0
 31
0.0
 12
0.0
 22
30.01599999999996
 32
0.0
 13
1.0
 23
1.0
340
0
 70
    15
280
     1
281
    50
282
    50
283
     0
360
0
 71
     2
 91
        5
 14
-0.5
 24
-0.5
 14
0.5
 24
-0.5
 14
0.5
 24
0.5
 14
-0.5
 24
0.5
 14
-0.5
 24
-0.5
  0
MTEXT
  5
37A
102
{ACAD_REACTORS
330
37B
102
}
330
1F
100
AcDbEntity
  8
Key_ Sections_Pen_No__1
  6
Continuous
100
AcDbMText
 10
729.6481659529661
 20
307.8692448053499
 30
0.0
 40
12.49999999999999
 41
58.858
 71
     4
 72
     1
  1
{Roofing}
  7
GENERATED_STYLE_1
 73
     1
 44
1.0
  0
LEADER
  5
37B
330
1F
100
AcDbEntity
  8
Key_ Sections_Pen_No__1
  6
Continuous
100
AcDbLeader
  3
GENERATED_STYLE__2
 72
     1
 73
     0
 74
     0
 40
16.37499999999999
 41
57.58749999999997
 76
     3
 10
628.6761769820248
 20
258.7683876624927
 30
0.0
 10
716.2788188131084
 20
306.8487531508413
 30
0.0
 10
729.5581659529661
 20
307.8692448053499
 30
0.0
340
37A
  0
WIPEOUT
  5
37C
330
1F
100
AcDbEntity
  8
Key_ Sections_Pen_No__1
  6
Wipeout_Contour
 48
3463.928749518645
 92
      296
310
28010000060000000C0000000E000000120000000C00000016000000000000C20C00000014000000010000006C0000000700000004000000F692A1712FA58640025EA4D3BCC2714000000000000000005322646758898D40025EA4D3BCC2714000000000000000005322646758898D40D08815744642634000000000000000
310
00F692A1712FA58640D08815744642634000000000000000000C0000000E00000007000000840000000600000005000000F692A1712FA58640025EA4D3BCC2714000000000000000005322646758898D40025EA4D3BCC2714000000000000000005322646758898D40D0881574464263400000000000000000F692A1712FA5
310
8640D0881574464263400000000000000000F692A1712FA58640025EA4D3BCC271400000000000000000
100
AcDbWipeout
 90
        0
 10
724.6481659529661
 20
154.0711002750963
 30
0.0
 11
220.5200000000001
 21
0.0
 31
0.0
 12
0.0
 22
130.1
 32
0.0
 13
1.0
 23
1.0
340
0
 70
    15
280
     1
281
    50
282
    50
283
     0
360
0
 71
     2
 91
        5
 14
-0.4999999999999997
 24
-0.5
 14
0.5000000000000002
 24
-0.5
 14
0.5000000000000002
 24
0.5
 14
-0.4999999999999997
 24
0.5
 14
-0.4999999999999997
 24
-0.5
  0
MTEXT
  5
37D
102
{ACAD_REACTORS
330
37E
102
}
330
1F
100
AcDbEntity
  8
Key_ Sections_Pen_No__1
  6
Continuous
100
AcDbMText
 10
729.6481659529661
 20
219.9260286165102
 30
0.0
 40
12.49999999999999
 41
210.52
 71
     4
 72
     1
  1
{Apron flashing upstand \Pbehind Palliside weather\Pboard and building underlay\P100mm min upstand \Pcover behind \Pweatherboards}
  7
GENERATED_STYLE_1
 73
     1
 44
0.7989336958630188
  0
LEADER
  5
37E
330
1F
100
AcDbEntity
  8
Key_ Sections_Pen_No__1
  6
Continuous
100
AcDbLeader
  3
GENERATED_STYLE__2
 72
     1
 73
     0
 74
     0
 40
112.7764320780414
 41
188.1999999999999
 76
     3
 10
265.4629974511836
 20
296.7668138058528
 30
0.0
 10
557.5953508101766
 20
233.0458858347325
 30
0.0
 10
729.5581659529661
 20
219.9260286165102
 30
0.0
340
37D
  0
WIPEOUT
  5
37F
330
1F
100
AcDbEntity
  8
Key_ Sections_Pen_No__1
  6
Wipeout_Contour
 48
3273.604358437918
 92
      296
310
28010000060000000C0000000E000000120000000C00000016000000000000C20C00000014000000010000006C0000000700000004000000F692A1712FA58640F4A57034211B63400000000000000000F792A1712FEB8B40F4A57034211B63400000000000000000F792A1712FEB8B4097BE49FA2FB3544000000000000000
310
00F692A1712FA5864097BE49FA2FB3544000000000000000000C0000000E00000007000000840000000600000005000000F692A1712FA58640F4A57034211B63400000000000000000F792A1712FEB8B40F4A57034211B63400000000000000000F792A1712FEB8B4097BE49FA2FB354400000000000000000F692A1712FA5
310
864097BE49FA2FB354400000000000000000F692A1712FA58640F4A57034211B63400000000000000000
100
AcDbWipeout
 90
        0
 10
724.6481659529661
 20
82.79980332566844
 30
0.0
 11
168.7500000000001
 21
0.0
 31
0.0
 12
0.0
 22
70.04800000000002
 32
0.0
 13
1.0
 23
1.0
340
0
 70
    15
280
     1
281
    50
282
    50
283
     0
360
0
 71
     2
 91
        5
 14
-0.4999999999999997
 24
-0.4999999999999999
 14
0.5000000000000003
 24
-0.4999999999999999
 14
0.5000000000000003
 24
0.5000000000000001
 14
-0.4999999999999997
 24
0.5000000000000001
 14
-0.4999999999999997
 24
-0.4999999999999999
  0
MTEXT
  5
380
102
{ACAD_REACTORS
330
381
102
}
330
1F
100
AcDbEntity
  8
Key_ Sections_Pen_No__1
  6
Continuous
100
AcDbMText
 10
729.6481659529661
 20
116.9249175193768
 30
0.0
 40
12.49999999999999
 41
158.75
 71
     4
 72
     1
  1
{Tapered stop end to \Pdivert apron flashing \Pwater into gutter.}
  7
GENERATED_STYLE_1
 73
     1
 44
0.9544562503071139
  0
LEADER
  5
381
330
1F
100
AcDbEntity
  8
Key_ Sections_Pen_No__1
  6
Continuous
100
AcDbLeader
  3
GENERATED_STYLE__2
 72
     1
 73
     0
 74
     0
 40
56.13433238265332
 41
155.3499999999999
 76
     3
 10
223.9482546417022
 20
156.6466600910466
 30
0.0
 10
369.9003071291374
 20
131.5356588427283
 30
0.0
 10
729.5581659529661
 20
116.9249175193768
 30
0.0
340
380
  0
WIPEOUT
  5
382
330
1F
100
AcDbEntity
  8
Key_ Sections_Pen_No__1
  6
Wipeout_Contour
 48
3277.558317492864
 92
      296
310
28010000060000000C0000000E000000120000000C00000016000000000000C20C00000014000000010000006C0000000700000004000000F692A1712FA58640854E93F5B601504000000000000000008555979A8B7C8C40854E93F5B601504000000000000000008555979A8B7C8C40ACEC4390B71518C000000000000000
310
00F692A1712FA58640ACEC4390B71518C000000000000000000C0000000E00000007000000840000000600000005000000F692A1712FA58640854E93F5B601504000000000000000008555979A8B7C8C40854E93F5B601504000000000000000008555979A8B7C8C40ACEC4390B71518C00000000000000000F692A1712FA5
310
8640ACEC4390B71518C00000000000000000F692A1712FA58640854E93F5B60150400000000000000000
100
AcDbWipeout
 90
        0
 10
724.6481659529661
 20
-6.021208051820548
 30
0.0
 11
186.92
 21
0.0
 31
0.0
 12
0.0
 22
70.048
 32
0.0
 13
1.0
 23
1.0
340
0
 70
    15
280
     1
281
    50
282
    50
283
     0
360
0
 71
     2
 91
        5
 14
-0.5000000000000003
 24
-0.5
 14
0.4999999999999997
 24
-0.5
 14
0.4999999999999997
 24
0.5
 14
-0.5000000000000003
 24
0.5
 14
-0.5000000000000003
 24
-0.5
  0
MTEXT
  5
383
102
{ACAD_REACTORS
330
384
102
}
330
1F
100
AcDbEntity
  8
Key_ Sections_Pen_No__1
  6
Continuous
100
AcDbMText
 10
729.6481659529661
 20
28.10390614188783
 30
0.0
 40
12.49999999999999
 41
176.92
 71
     4
 72
     1
  1
{Stop spouting min \P10mm clear of finished \Pwall cladding}
  7
GENERATED_STYLE_1
 73
     1
 44
0.949644817197925
  0
LEADER
  5
384
330
1F
100
AcDbEntity
  8
Key_ Sections_Pen_No__1
  6
Continuous
100
AcDbLeader
  3
GENERATED_STYLE__2
 72
     1
 73
     0
 74
     0
 40
56.13463309722264
 41
172.3499999999999
 76
     3
 10
116.5667726984186
 20
129.0027919481793
 30
0.0
 10
295.497481471443
 20
63.81927056127663
 30
0.0
 10
729.5581659529661
 20
28.10390614188783
 30
0.0
340
383
  0
WIPEOUT
  5
385
330
1F
100
AcDbEntity
  8
Key_ Sections_Pen_No__1
  6
Wipeout_Contour
 48
1535.477844170016
 92
      296
310
28010000060000000C0000000E000000120000000C00000016000000000000C20C00000014000000010000006C0000000700000004000000D627B3E8A0EC72408C78D9B970BC6E400000000000000000C25C3CF1D6F47440F2DC1499C0636C400000000000000000E3B6A02CB60474401EF1DCAEEC23694000000000000000
310
00F881172480FC7140B88CA1CF9C7C6B4000000000000000000C0000000E00000007000000840000000600000005000000D627B3E8A0EC72408C78D9B970BC6E400000000000000000C25C3CF1D6F47440F2DC1499C0636C400000000000000000E3B6A02CB60474401EF1DCAEEC2369400000000000000000F881172480FC
310
7140B88CA1CF9C7C6B400000000000000000D627B3E8A0EC72408C78D9B970BC6E400000000000000000
100
AcDbWipeout
 90
        0
 10
287.7812844198484
 20
201.1226419749518
 30
0.0
 11
47.52119173427911
 21
0.0
 31
0.0
 12
0.0
 22
44.76611851999354
 32
0.0
 13
1.0
 23
1.0
340
0
 70
    15
280
     1
281
    50
282
    50
283
     0
360
0
 71
     2
 91
        5
 14
-0.1841830044179265
 24
-0.5
 14
0.5
 24
-0.0806761760768717
 14
0.1841830044179253
 24
0.5
 14
-0.5
 24
0.0806761760768717
 14
-0.1841830044179265
 24
-0.5
  0
MTEXT
  5
386
102
{ACAD_REACTORS
330
387
102
}
330
1F
100
AcDbEntity
  8
Key_ Sections_Pen_No__1
  6
Continuous
100
AcDbMText
 10
323.8694919923482
 20
217.3147510446135
 30
0.0
 40
12.49999999999999
 41
27.543
 71
     6
 72
     1
  1
{Fall}
  7
GENERATED_STYLE_1
 11
0.8660254037844441
 21
-0.4999999999999905
 31
0.0
 73
     1
 44
1.0
  0
LEADER
  5
387
330
1F
100
AcDbEntity
  8
Key_ Sections_Pen_No__1
  6
Continuous
100
AcDbLeader
  3
GENERATED_STYLE__2
 72
     1
 73
     0
 40
12.69999999999999
 41
25.44999999999999
 76
     2
 10
345.1189842298164
 20
204.1199512349488
 30
0.0
 10
323.9474342786888
 20
217.2697510446135
 30
0.0
340
386
211
0.8660254037844441
221
-0.4999999999999905
231
0.0
  0
WIPEOUT
  5
388
330
1F
100
AcDbEntity
  8
Key_ Sections_Pen_No__1
  6
Wipeout_Contour
 48
2334.435298977365
 92
      296
310
28010000060000000C0000000E000000120000000C00000016000000000000C20C00000014000000010000006C00000007000000040000006EE579D3AAC67C40A5474FBBD10F77400000000000000000531A03DCE0CE7E40CDF9ECAA79E3754000000000000000006B746717C0DE7D40E903D1B58F43744000000000000000
310
00863FDE0E8AD67B40C05133C6E76F754000000000000000000C0000000E000000070000008400000006000000050000006EE579D3AAC67C40A5474FBBD10F77400000000000000000531A03DCE0CE7E40CDF9ECAA79E3754000000000000000006B746717C0DE7D40E903D1B58F4374400000000000000000863FDE0E8AD6
310
7B40C05133C6E76F754000000000000000006EE579D3AAC67C40A5474FBBD10F77400000000000000000
100
AcDbWipeout
 90
        0
 10
445.4087055856293
 20
324.2225855030688
 30
0.0
 11
47.52119173427928
 21
0.0
 31
0.0
 12
0.0
 22
44.76611851999382
 32
0.0
 13
1.0
 23
1.0
340
0
 70
    15
280
     1
281
    50
282
    50
283
     0
360
0
 71
     2
 91
        5
 14
-0.184183004417915
 24
-0.5
 14
0.5000000000000006
 24
-0.0806761760768604
 14
0.1841830044179162
 24
0.5
 14
-0.4999999999999994
 24
0.0806761760768617
 14
-0.184183004417915
 24
-0.5
  0
MTEXT
  5
389
102
{ACAD_REACTORS
330
38A
102
}
330
1F
100
AcDbEntity
  8
Key_ Sections_Pen_No__1
  6
Continuous
100
AcDbMText
 10
481.4969131581291
 20
340.4146945727304
 30
0.0
 40
12.49999999999999
 41
27.543
 71
     6
 72
     1
  1
{Fall}
  7
GENERATED_STYLE_1
 11
0.8660254037844344
 21
-0.5000000000000073
 31
0.0
 73
     1
 44
1.0
  0
LEADER
  5
38A
330
1F
100
AcDbEntity
  8
Key_ Sections_Pen_No__1
  6
Continuous
100
AcDbLeader
  3
GENERATED_STYLE__2
 72
     1
 73
     0
 40
12.69999999999999
 41
25.44999999999999
 76
     2
 10
502.7464053955972
 20
327.2198947630656
 30
0.0
 10
481.5748554444697
 20
340.3696945727303
 30
0.0
340
389
211
0.8660254037844344
221
-0.5000000000000073
231
0.0
  0
ENDSEC
  0
SECTION
  2
OBJECTS
  0
DICTIONARY
  5
C
330
0
100
AcDbDictionary
281
     1
  3
ACAD_GROUP
350
D
  3
ACAD_LAYOUT
350
1A
  3
ACAD_MATERIAL
350
3B
  3
ACAD_MLEADERSTYLE
350
3DB
  3
ACAD_MLINESTYLE
350
17
  3
ACAD_PLOTSETTINGS
350
19
  3
ACAD_PLOTSTYLENAME
350
E
  3
ACAD_SCALELIST
350
38E
  3
ACAD_TABLESTYLE
350
3DA
  3
ACAD_VISUALSTYLE
350
2A
  3
AcDbVariableDictionary
350
3B2
  3
WATERMARKS
350
3B0
  0
DICTIONARY
  5
D
102
{ACAD_REACTORS
330
C
102
}
330
C
100
AcDbDictionary
281
     1
  0
DICTIONARY
  5
1A
102
{ACAD_REACTORS
330
C
102
}
330
C
100
AcDbDictionary
281
     1
  3
Layout1
350
1E
  3
Layout2
350
26
  3
Model
350
22
  0
DICTIONARY
  5
3B
102
{ACAD_REACTORS
330
C
102
}
330
C
100
AcDbDictionary
281
     1
  3
ByBlock
350
3D
  3
ByLayer
350
3C
  3
Global
350
3E
  0
DICTIONARY
  5
3DB
102
{ACAD_REACTORS
330
C
102
}
330
C
100
AcDbDictionary
281
     1
  0
DICTIONARY
  5
17
102
{ACAD_REACTORS
330
C
102
}
330
C
100
AcDbDictionary
281
     1
  3
Standard
350
18
  0
DICTIONARY
  5
19
102
{ACAD_REACTORS
330
C
102
}
330
C
100
AcDbDictionary
281
     1
  0
ACDBDICTIONARYWDFLT
  5
E
102
{ACAD_REACTORS
330
C
102
}
330
C
100
AcDbDictionary
281
     1
  3
Normal
350
F
100
AcDbDictionaryWithDefault
340
F
  0
DICTIONARY
  5
38E
102
{ACAD_REACTORS
330
C
102
}
330
C
100
AcDbDictionary
281
     1
  3
A0
350
38F
  3
A1
350
390
  3
A2
350
391
  3
A3
350
392
  3
A4
350
393
  3
A5
350
394
  3
A6
350
395
  3
A7
350
396
  3
A8
350
397
  3
A9
350
398
  3
B0
350
399
  3
B1
350
39A
  3
B2
350
39B
  3
B3
350
39C
  3
B4
350
39D
  3
B5
350
39E
  3
B6
350
39F
  3
B7
350
3A0
  3
B8
350
3A1
  3
B9
350
3A2
  3
C0
350
3A3
  3
C1
350
3A4
  3
C2
350
3A5
  3
C3
350
3A6
  3
C4
350
3A7
  3
C5
350
3A8
  3
C6
350
3A9
  3
C7
350
3AA
  3
C8
350
3AB
  3
C9
350
3AC
  3
D0
350
3AD
  3
D1
350
3AE
  3
D2
350
3AF
  0
DICTIONARY
  5
3DA
102
{ACAD_REACTORS
330
C
102
}
330
C
100
AcDbDictionary
281
     1
  0
DICTIONARY
  5
2A
102
{ACAD_REACTORS
330
C
102
}
330
C
100
AcDbDictionary
281
     1
  3
2dWireframe
350
2F
  3
3D Hidden
350
31
  3
3dWireframe
350
30
  3
Basic
350
32
  3
Brighten
350
36
  3
ColorChange
350
3A
  3
Conceptual
350
34
  3
Dim
350
35
  3
Facepattern
350
39
  3
Flat
350
2B
  3
FlatWithEdges
350
2C
  3
Gouraud
350
2D
  3
GouraudWithEdges
350
2E
  3
Linepattern
350
38
  3
Realistic
350
33
  3
Thicken
350
37
  0
DICTIONARY
  5
3B2
102
{ACAD_REACTORS
330
C
102
}
330
C
100
AcDbDictionary
281
     1
  3
CANNOSCALE
350
3B3
  3
XCLIPFRAME
350
3DC
  0
DICTIONARY
  5
3B0
102
{ACAD_REACTORS
330
C
102
}
330
C
100
AcDbDictionary
281
     1
  3
AC_WATERMARK
350
3B1
  0
LAYOUT
  5
1E
102
{ACAD_REACTORS
330
1A
102
}
330
1A
100
AcDbPlotSettings
  1

  2
none_device
  4

  6

 40
0.0
 41
0.0
 42
0.0
 43
0.0
 44
0.0
 45
0.0
 46
0.0
 47
0.0
 48
0.0
 49
0.0
140
0.0
141
0.0
142
1.0
143
1.0
 70
   688
 72
     0
 73
     0
 74
     5
  7

 75
    16
 76
     0
 77
     2
 78
   300
147
1.0
148
0.0
149
0.0
100
AcDbLayout
  1
Layout1
 70
     1
 71
     1
 10
0.0
 20
0.0
 11
12.0
 21
9.0
 12
0.0
 22
0.0
 32
0.0
 14
1.000000000000000E+20
 24
1.000000000000000E+20
 34
1.000000000000000E+20
 15
-1.000000000000000E+20
 25
-1.000000000000000E+20
 35
-1.000000000000000E+20
146
0.0
 13
0.0
 23
0.0
 33
0.0
 16
1.0
 26
0.0
 36
0.0
 17
0.0
 27
1.0
 37
0.0
 76
     0
330
1B
  0
LAYOUT
  5
26
102
{ACAD_REACTORS
330
1A
102
}
330
1A
100
AcDbPlotSettings
  1

  2
none_device
  4

  6

 40
0.0
 41
0.0
 42
0.0
 43
0.0
 44
0.0
 45
0.0
 46
0.0
 47
0.0
 48
0.0
 49
0.0
140
0.0
141
0.0
142
1.0
143
1.0
 70
   688
 72
     0
 73
     0
 74
     5
  7

 75
    16
 76
     0
 77
     2
 78
   300
147
1.0
148
0.0
149
0.0
100
AcDbLayout
  1
Layout2
 70
     1
 71
     2
 10
0.0
 20
0.0
 11
0.0
 21
0.0
 12
0.0
 22
0.0
 32
0.0
 14
0.0
 24
0.0
 34
0.0
 15
0.0
 25
0.0
 35
0.0
146
0.0
 13
0.0
 23
0.0
 33
0.0
 16
1.0
 26
0.0
 36
0.0
 17
0.0
 27
1.0
 37
0.0
 76
     0
330
23
  0
LAYOUT
  5
22
102
{ACAD_REACTORS
330
1A
102
}
330
1A
100
AcDbPlotSettings
  1

  2
none_device
  4

  6

 40
0.0
 41
0.0
 42
0.0
 43
0.0
 44
0.0
 45
0.0
 46
0.0
 47
0.0
 48
0.0
 49
0.0
140
0.0
141
0.0
142
1.0
143
1.0
 70
  1712
 72
     0
 73
     0
 74
     0
  7

 75
     0
 76
     0
 77
     2
 78
   300
147
1.0
148
0.0
149
0.0
100
AcDbLayout
  1
Model
 70
     1
 71
     0
 10
0.0
 20
0.0
 11
12.0
 21
9.0
 12
0.0
 22
0.0
 32
0.0
 14
1.000000000000000E+20
 24
1.000000000000000E+20
 34
1.000000000000000E+20
 15
-1.000000000000000E+20
 25
-1.000000000000000E+20
 35
-1.000000000000000E+20
146
0.0
 13
0.0
 23
0.0
 33
0.0
 16
1.0
 26
0.0
 36
0.0
 17
0.0
 27
1.0
 37
0.0
 76
     0
330
1F
331
29
  0
MATERIAL
  5
3D
102
{ACAD_REACTORS
330
3B
102
}
102
{ACAD_XDICTIONARY
360
3D6
102
}
330
3B
100
AcDbMaterial
  1
ByBlock
  0
MATERIAL
  5
3C
102
{ACAD_REACTORS
330
3B
102
}
102
{ACAD_XDICTIONARY
360
3D4
102
}
330
3B
100
AcDbMaterial
  1
ByLayer
  0
MATERIAL
  5
3E
102
{ACAD_REACTORS
330
3B
102
}
102
{ACAD_XDICTIONARY
360
3D8
102
}
330
3B
100
AcDbMaterial
  1
Global
  0
MLINESTYLE
  5
18
102
{ACAD_REACTORS
330
17
102
}
330
17
100
AcDbMlineStyle
  2
Standard
 70
     0
  3

 62
   256
 51
90.0
 52
90.0
 71
     2
 49
0.5
 62
   256
  6
BYLAYER
 49
-0.5
 62
   256
  6
BYLAYER
  0
ACDBPLACEHOLDER
  5
F
102
{ACAD_REACTORS
330
E
102
}
330
E
  0
SCALE
  5
38F
102
{ACAD_REACTORS
330
38E
102
}
330
38E
100
AcDbScale
 70
     0
300
1:1
140
1.0
141
1.0
290
     1
  0
SCALE
  5
390
102
{ACAD_REACTORS
330
38E
102
}
330
38E
100
AcDbScale
 70
     0
300
1:2
140
1.0
141
2.0
290
     0
  0
SCALE
  5
391
102
{ACAD_REACTORS
330
38E
102
}
330
38E
100
AcDbScale
 70
     0
300
1:4
140
1.0
141
4.0
290
     0
  0
SCALE
  5
392
102
{ACAD_REACTORS
330
38E
102
}
330
38E
100
AcDbScale
 70
     0
300
1:5
140
1.0
141
5.0
290
     0
  0
SCALE
  5
393
102
{ACAD_REACTORS
330
38E
102
}
330
38E
100
AcDbScale
 70
     0
300
1:8
140
1.0
141
8.0
290
     0
  0
SCALE
  5
394
102
{ACAD_REACTORS
330
38E
102
}
330
38E
100
AcDbScale
 70
     0
300
1:10
140
1.0
141
10.0
290
     0
  0
SCALE
  5
395
102
{ACAD_REACTORS
330
38E
102
}
330
38E
100
AcDbScale
 70
     0
300
1:16
140
1.0
141
16.0
290
     0
  0
SCALE
  5
396
102
{ACAD_REACTORS
330
38E
102
}
330
38E
100
AcDbScale
 70
     0
300
1:20
140
1.0
141
20.0
290
     0
  0
SCALE
  5
397
102
{ACAD_REACTORS
330
38E
102
}
330
38E
100
AcDbScale
 70
     0
300
1:30
140
1.0
141
30.0
290
     0
  0
SCALE
  5
398
102
{ACAD_REACTORS
330
38E
102
}
330
38E
100
AcDbScale
 70
     0
300
1:40
140
1.0
141
40.0
290
     0
  0
SCALE
  5
399
102
{ACAD_REACTORS
330
38E
102
}
330
38E
100
AcDbScale
 70
     0
300
1:50
140
1.0
141
50.0
290
     0
  0
SCALE
  5
39A
102
{ACAD_REACTORS
330
38E
102
}
330
38E
100
AcDbScale
 70
     0
300
1:100
140
1.0
141
100.0
290
     0
  0
SCALE
  5
39B
102
{ACAD_REACTORS
330
38E
102
}
330
38E
100
AcDbScale
 70
     0
300
2:1
140
2.0
141
1.0
290
     0
  0
SCALE
  5
39C
102
{ACAD_REACTORS
330
38E
102
}
330
38E
100
AcDbScale
 70
     0
300
4:1
140
4.0
141
1.0
290
     0
  0
SCALE
  5
39D
102
{ACAD_REACTORS
330
38E
102
}
330
38E
100
AcDbScale
 70
     0
300
8:1
140
8.0
141
1.0
290
     0
  0
SCALE
  5
39E
102
{ACAD_REACTORS
330
38E
102
}
330
38E
100
AcDbScale
 70
     0
300
10:1
140
10.0
141
1.0
290
     0
  0
SCALE
  5
39F
102
{ACAD_REACTORS
330
38E
102
}
330
38E
100
AcDbScale
 70
     0
300
100:1
140
100.0
141
1.0
290
     0
  0
SCALE
  5
3A0
102
{ACAD_REACTORS
330
38E
102
}
330
38E
100
AcDbScale
 70
     0
300
1/128" = 1'-0"
140
0.0078125
141
12.0
290
     0
  0
SCALE
  5
3A1
102
{ACAD_REACTORS
330
38E
102
}
330
38E
100
AcDbScale
 70
     0
300
1/64" = 1'-0"
140
0.015625
141
12.0
290
     0
  0
SCALE
  5
3A2
102
{ACAD_REACTORS
330
38E
102
}
330
38E
100
AcDbScale
 70
     0
300
1/32" = 1'-0"
140
0.03125
141
12.0
290
     0
  0
SCALE
  5
3A3
102
{ACAD_REACTORS
330
38E
102
}
330
38E
100
AcDbScale
 70
     0
300
1/16" = 1'-0"
140
0.0625
141
12.0
290
     0
  0
SCALE
  5
3A4
102
{ACAD_REACTORS
330
38E
102
}
330
38E
100
AcDbScale
 70
     0
300
3/32" = 1'-0"
140
0.09375
141
12.0
290
     0
  0
SCALE
  5
3A5
102
{ACAD_REACTORS
330
38E
102
}
330
38E
100
AcDbScale
 70
     0
300
1/8" = 1'-0"
140
0.125
141
12.0
290
     0
  0
SCALE
  5
3A6
102
{ACAD_REACTORS
330
38E
102
}
330
38E
100
AcDbScale
 70
     0
300
3/16" = 1'-0"
140
0.1875
141
12.0
290
     0
  0
SCALE
  5
3A7
102
{ACAD_REACTORS
330
38E
102
}
330
38E
100
AcDbScale
 70
     0
300
1/4" = 1'-0"
140
0.25
141
12.0
290
     0
  0
SCALE
  5
3A8
102
{ACAD_REACTORS
330
38E
102
}
330
38E
100
AcDbScale
 70
     0
300
3/8" = 1'-0"
140
0.375
141
12.0
290
     0
  0
SCALE
  5
3A9
102
{ACAD_REACTORS
330
38E
102
}
330
38E
100
AcDbScale
 70
     0
300
1/2" = 1'-0"
140
0.5
141
12.0
290
     0
  0
SCALE
  5
3AA
102
{ACAD_REACTORS
330
38E
102
}
330
38E
100
AcDbScale
 70
     0
300
3/4" = 1'-0"
140
0.75
141
12.0
290
     0
  0
SCALE
  5
3AB
102
{ACAD_REACTORS
330
38E
102
}
330
38E
100
AcDbScale
 70
     0
300
1" = 1'-0"
140
1.0
141
12.0
290
     0
  0
SCALE
  5
3AC
102
{ACAD_REACTORS
330
38E
102
}
330
38E
100
AcDbScale
 70
     0
300
1-1/2" = 1'-0"
140
1.5
141
12.0
290
     0
  0
SCALE
  5
3AD
102
{ACAD_REACTORS
330
38E
102
}
330
38E
100
AcDbScale
 70
     0
300
3" = 1'-0"
140
3.0
141
12.0
290
     0
  0
SCALE
  5
3AE
102
{ACAD_REACTORS
330
38E
102
}
330
38E
100
AcDbScale
 70
     0
300
6" = 1'-0"
140
6.0
141
12.0
290
     0
  0
SCALE
  5
3AF
102
{ACAD_REACTORS
330
38E
102
}
330
38E
100
AcDbScale
 70
     0
300
1'-0" = 1'-0"
140
12.0
141
12.0
290
     0
  0
VISUALSTYLE
  5
2F
102
{ACAD_REACTORS
330
2A
102
}
102
{ACAD_XDICTIONARY
360
3BC
102
}
330
2A
100
AcDbVisualStyle
  2
2dWireframe
 70
     4
 71
     0
 72
     2
 73
     0
 90
        0
 40
-0.6
 41
-30.0
 62
     5
 63
     7
421
 16777215
 74
     1
 91
        4
 64
     7
 65
   257
 75
     1
175
     1
 42
1.0
 92
        0
 66
   257
 43
1.0
 76
     1
 77
     6
 78
     2
 67
     7
 79
     5
170
     0
171
     0
290
     0
174
     0
 93
        1
 44
0.0
173
     0
291
     0
 45
0.0
1001
ACAD
1000
AcDbSavedByObjectVersion
1070
     0
  0
VISUALSTYLE
  5
31
102
{ACAD_REACTORS
330
2A
102
}
102
{ACAD_XDICTIONARY
360
3C0
102
}
330
2A
100
AcDbVisualStyle
  2
3D Hidden
 70
     6
 71
     1
 72
     2
 73
     2
 90
        0
 40
-0.6
 41
-30.0
 62
     5
 63
     7
421
 16777215
 74
     2
 91
        2
 64
     7
 65
   257
 75
     2
175
     1
 42
40.0
 92
        0
 66
   257
 43
1.0
 76
     1
 77
     6
 78
     2
 67
     7
 79
     3
170
     0
171
     0
290
     0
174
     0
 93
        1
 44
0.0
173
     0
291
     0
 45
0.0
1001
ACAD
1000
AcDbSavedByObjectVersion
1070
     0
  0
VISUALSTYLE
  5
30
102
{ACAD_REACTORS
330
2A
102
}
102
{ACAD_XDICTIONARY
360
3BE
102
}
330
2A
100
AcDbVisualStyle
  2
3dWireframe
 70
     5
 71
     0
 72
     2
 73
     0
 90
        0
 40
-0.6
 41
-30.0
 62
     5
 63
     7
421
 16777215
 74
     1
 91
        4
 64
     7
 65
   257
 75
     1
175
     1
 42
1.0
 92
        0
 66
   257
 43
1.0
 76
     1
 77
     6
 78
     2
 67
     7
 79
     5
170
     0
171
     0
290
     0
174
     0
 93
        1
 44
0.0
173
     0
291
     0
 45
0.0
1001
ACAD
1000
AcDbSavedByObjectVersion
1070
     0
  0
VISUALSTYLE
  5
32
102
{ACAD_REACTORS
330
2A
102
}
102
{ACAD_XDICTIONARY
360
3C2
102
}
330
2A
100
AcDbVisualStyle
  2
Basic
 70
     7
 71
     1
 72
     0
 73
     1
 90
        0
 40
-0.6
 41
-30.0
 62
     5
 63
     7
421
 16777215
 74
     0
 91
        4
 64
     7
 65
   257
 75
     1
175
     1
 42
1.0
 92
        8
 66
     7
 43
1.0
 76
     1
 77
     6
 78
     2
 67
     7
 79
     5
170
     0
171
     0
290
     0
174
     0
 93
        1
 44
0.0
173
     0
291
     1
 45
0.0
1001
ACAD
1000
AcDbSavedByObjectVersion
1070
     0
  0
VISUALSTYLE
  5
36
102
{ACAD_REACTORS
330
2A
102
}
102
{ACAD_XDICTIONARY
360
3CA
102
}
330
2A
100
AcDbVisualStyle
  2
Brighten
 70
    12
 71
     2
 72
     2
 73
     0
 90
        0
 40
-0.6
 41
-30.0
 62
     5
 63
     7
421
 16777215
 74
     1
 91
        4
 64
     7
 65
   257
 75
     1
175
     1
 42
1.0
 92
        8
 66
     7
 43
1.0
 76
     1
 77
     6
 78
     2
 67
     7
 79
     5
170
     0
171
     0
290
     0
174
     0
 93
        1
 44
50.0
173
     0
291
     1
 45
0.0
1001
ACAD
1000
AcDbSavedByObjectVersion
1070
     0
  0
VISUALSTYLE
  5
3A
102
{ACAD_REACTORS
330
2A
102
}
102
{ACAD_XDICTIONARY
360
3D2
102
}
330
2A
100
AcDbVisualStyle
  2
ColorChange
 70
    16
 71
     2
 72
     2
 73
     3
 90
        0
 40
-0.6
 41
-30.0
 62
     5
 63
     8
421
  8421504
 74
     1
 91
        4
 64
     7
 65
   257
 75
     1
175
     1
 42
1.0
 92
        8
 66
     8
424
  8421504
 43
1.0
 76
     1
 77
     6
 78
     2
 67
     7
 79
     5
170
     0
171
     0
290
     0
174
     0
 93
        1
 44
0.0
173
     0
291
     1
 45
0.0
1001
ACAD
1000
AcDbSavedByObjectVersion
1070
     0
  0
VISUALSTYLE
  5
34
102
{ACAD_REACTORS
330
2A
102
}
102
{ACAD_XDICTIONARY
360
3C6
102
}
330
2A
100
AcDbVisualStyle
  2
Conceptual
 70
     9
 71
     3
 72
     2
 73
     0
 90
        0
 40
-0.6
 41
-30.0
 62
     5
 63
     7
421
 16777215
 74
     2
 91
        2
 64
     7
 65
   257
 75
     1
175
     1
 42
40.0
 92
        8
 66
     7
 43
1.0
 76
     1
 77
     6
 78
     2
 67
     7
 79
     3
170
     0
171
     0
290
     0
174
     0
 93
        1
 44
0.0
173
     0
291
     0
 45
0.0
1001
ACAD
1000
AcDbSavedByObjectVersion
1070
     0
  0
VISUALSTYLE
  5
35
102
{ACAD_REACTORS
330
2A
102
}
102
{ACAD_XDICTIONARY
360
3C8
102
}
330
2A
100
AcDbVisualStyle
  2
Dim
 70
    11
 71
     2
 72
     2
 73
     0
 90
        0
 40
-0.6
 41
-30.0
 62
     5
 63
     7
421
 16777215
 74
     1
 91
        4
 64
     7
 65
   257
 75
     1
175
     1
 42
1.0
 92
        8
 66
     7
 43
1.0
 76
     1
 77
     6
 78
     2
 67
     7
 79
     5
170
     0
171
     0
290
     0
174
     0
 93
        1
 44
-50.0
173
     0
291
     1
 45
0.0
1001
ACAD
1000
AcDbSavedByObjectVersion
1070
     0
  0
VISUALSTYLE
  5
39
102
{ACAD_REACTORS
330
2A
102
}
102
{ACAD_XDICTIONARY
360
3D0
102
}
330
2A
100
AcDbVisualStyle
  2
Facepattern
 70
    15
 71
     2
 72
     2
 73
     0
 90
        0
 40
-0.6
 41
-30.0
 62
     5
 63
     7
421
 16777215
 74
     1
 91
        4
 64
     7
 65
   257
 75
     1
175
     1
 42
1.0
 92
        8
 66
     7
 43
1.0
 76
     1
 77
     6
 78
     2
 67
     7
 79
     5
170
     0
171
     0
290
     0
174
     0
 93
        1
 44
0.0
173
     0
291
     1
 45
0.0
1001
ACAD
1000
AcDbSavedByObjectVersion
1070
     0
  0
VISUALSTYLE
  5
2B
102
{ACAD_REACTORS
330
2A
102
}
102
{ACAD_XDICTIONARY
360
3B4
102
}
330
2A
100
AcDbVisualStyle
  2
Flat
 70
     0
 71
     2
 72
     1
 73
     1
 90
        2
 40
-0.6
 41
30.0
 62
     5
 63
     7
421
 16777215
 74
     0
 91
        4
 64
     7
 65
   257
 75
     1
175
     1
 42
1.0
 92
        8
 66
     7
 43
1.0
 76
     1
 77
     6
 78
     2
 67
     7
 79
     5
170
     0
171
     0
290
     0
174
     0
 93
       13
 44
0.0
173
     0
291
     1
 45
0.0
1001
ACAD
1000
AcDbSavedByObjectVersion
1070
     0
  0
VISUALSTYLE
  5
2C
102
{ACAD_REACTORS
330
2A
102
}
102
{ACAD_XDICTIONARY
360
3B6
102
}
330
2A
100
AcDbVisualStyle
  2
FlatWithEdges
 70
     1
 71
     2
 72
     1
 73
     1
 90
        2
 40
-0.6
 41
30.0
 62
     5
 63
     7
421
 16777215
 74
     1
 91
        4
 64
     7
 65
   257
 75
     1
175
     1
 42
1.0
 92
        0
 66
   257
 43
1.0
 76
     1
 77
     6
 78
     2
 67
     7
 79
     5
170
     0
171
     0
290
     0
174
     0
 93
       13
 44
0.0
173
     0
291
     1
 45
0.0
1001
ACAD
1000
AcDbSavedByObjectVersion
1070
     0
  0
VISUALSTYLE
  5
2D
102
{ACAD_REACTORS
330
2A
102
}
102
{ACAD_XDICTIONARY
360
3B8
102
}
330
2A
100
AcDbVisualStyle
  2
Gouraud
 70
     2
 71
     2
 72
     2
 73
     1
 90
        2
 40
-0.6
 41
30.0
 62
     5
 63
     7
421
 16777215
 74
     0
 91
        4
 64
     7
 65
   257
 75
     1
175
     1
 42
1.0
 92
        0
 66
     7
 43
1.0
 76
     1
 77
     6
 78
     2
 67
     7
 79
     5
170
     0
171
     0
290
     0
174
     0
 93
       13
 44
0.0
173
     0
291
     1
 45
0.0
1001
ACAD
1000
AcDbSavedByObjectVersion
1070
     0
  0
VISUALSTYLE
  5
2E
102
{ACAD_REACTORS
330
2A
102
}
102
{ACAD_XDICTIONARY
360
3BA
102
}
330
2A
100
AcDbVisualStyle
  2
GouraudWithEdges
 70
     3
 71
     2
 72
     2
 73
     1
 90
        2
 40
-0.6
 41
30.0
 62
     5
 63
     7
421
 16777215
 74
     1
 91
        4
 64
     7
 65
   257
 75
     1
175
     1
 42
1.0
 92
        0
 66
   257
 43
1.0
 76
     1
 77
     6
 78
     2
 67
     7
 79
     5
170
     0
171
     0
290
     0
174
     0
 93
       13
 44
0.0
173
     0
291
     1
 45
0.0
1001
ACAD
1000
AcDbSavedByObjectVersion
1070
     0
  0
VISUALSTYLE
  5
38
102
{ACAD_REACTORS
330
2A
102
}
102
{ACAD_XDICTIONARY
360
3CE
102
}
330
2A
100
AcDbVisualStyle
  2
Linepattern
 70
    14
 71
     2
 72
     2
 73
     0
 90
        0
 40
-0.6
 41
-30.0
 62
     5
 63
     7
421
 16777215
 74
     1
 91
        4
 64
     7
 65
   257
 75
     7
175
     7
 42
1.0
 92
        8
 66
     7
 43
1.0
 76
     1
 77
     6
 78
     2
 67
     7
 79
     5
170
     0
171
     0
290
     0
174
     0
 93
        1
 44
0.0
173
     0
291
     1
 45
0.0
1001
ACAD
1000
AcDbSavedByObjectVersion
1070
     0
  0
VISUALSTYLE
  5
33
102
{ACAD_REACTORS
330
2A
102
}
102
{ACAD_XDICTIONARY
360
3C4
102
}
330
2A
100
AcDbVisualStyle
  2
Realistic
 70
     8
 71
     2
 72
     2
 73
     0
 90
        0
 40
-0.6
 41
-30.0
 62
     5
 63
     7
421
 16777215
 74
     1
 91
        0
 64
     7
 65
   257
 75
     1
175
     1
 42
1.0
 92
        8
 66
     8
424
  7895160
 43
1.0
 76
     1
 77
     6
 78
     2
 67
     7
 79
     5
170
     0
171
     0
290
     0
174
     0
 93
       13
 44
0.0
173
     0
291
     0
 45
0.0
1001
ACAD
1000
AcDbSavedByObjectVersion
1070
     0
  0
VISUALSTYLE
  5
37
102
{ACAD_REACTORS
330
2A
102
}
102
{ACAD_XDICTIONARY
360
3CC
102
}
330
2A
100
AcDbVisualStyle
  2
Thicken
 70
    13
 71
     2
 72
     2
 73
     0
 90
        0
 40
-0.6
 41
-30.0
 62
     5
 63
     7
421
 16777215
 74
     1
 91
        4
 64
     7
 65
   257
 75
     1
175
     1
 42
1.0
 92
       12
 66
     7
 43
1.0
 76
     1
 77
     6
 78
     2
 67
     7
 79
     5
170
     0
171
     0
290
     0
174
     0
 93
        1
 44
0.0
173
     0
291
     1
 45
0.0
1001
ACAD
1000
AcDbSavedByObjectVersion
1070
     0
  0
DICTIONARYVAR
  5
3B3
102
{ACAD_REACTORS
330
3B2
102
}
330
3B2
100
DictionaryVariables
280
     0
  1
1:1
  0
DICTIONARYVAR
  5
3DC
102
{ACAD_REACTORS
330
3B2
102
}
330
3B2
100
DictionaryVariables
280
     0
  1
0
  0
XRECORD
  5
3B1
102
{ACAD_REACTORS
330
3B0
102
}
330
3B0
100
AcDbXrecord
280
     1
1000
This DWG file was created in ArchiCAD(TM)®
  0
DICTIONARY
  5
3D6
330
3D
100
AcDbDictionary
280
     1
281
     1
  3
ACAD_XREC_ROUNDTRIP
360
3D7
  0
DICTIONARY
  5
3D4
330
3C
100
AcDbDictionary
280
     1
281
     1
  3
ACAD_XREC_ROUNDTRIP
360
3D5
  0
DICTIONARY
  5
3D8
330
3E
100
AcDbDictionary
280
     1
281
     1
  3
ACAD_XREC_ROUNDTRIP
360
3D9
  0
DICTIONARY
  5
3BC
330
2F
100
AcDbDictionary
280
     1
281
     1
  3
ACAD_XREC_ROUNDTRIP
360
3BD
  0
DICTIONARY
  5
3C0
330
31
100
AcDbDictionary
280
     1
281
     1
  3
ACAD_XREC_ROUNDTRIP
360
3C1
  0
DICTIONARY
  5
3BE
330
30
100
AcDbDictionary
280
     1
281
     1
  3
ACAD_XREC_ROUNDTRIP
360
3BF
  0
DICTIONARY
  5
3C2
330
32
100
AcDbDictionary
280
     1
281
     1
  3
ACAD_XREC_ROUNDTRIP
360
3C3
  0
DICTIONARY
  5
3CA
330
36
100
AcDbDictionary
280
     1
281
     1
  3
ACAD_XREC_ROUNDTRIP
360
3CB
  0
DICTIONARY
  5
3D2
330
3A
100
AcDbDictionary
280
     1
281
     1
  3
ACAD_XREC_ROUNDTRIP
360
3D3
  0
DICTIONARY
  5
3C6
330
34
100
AcDbDictionary
280
     1
281
     1
  3
ACAD_XREC_ROUNDTRIP
360
3C7
  0
DICTIONARY
  5
3C8
330
35
100
AcDbDictionary
280
     1
281
     1
  3
ACAD_XREC_ROUNDTRIP
360
3C9
  0
DICTIONARY
  5
3D0
330
39
100
AcDbDictionary
280
     1
281
     1
  3
ACAD_XREC_ROUNDTRIP
360
3D1
  0
DICTIONARY
  5
3B4
330
2B
100
AcDbDictionary
280
     1
281
     1
  3
ACAD_XREC_ROUNDTRIP
360
3B5
  0
DICTIONARY
  5
3B6
330
2C
100
AcDbDictionary
280
     1
281
     1
  3
ACAD_XREC_ROUNDTRIP
360
3B7
  0
DICTIONARY
  5
3B8
330
2D
100
AcDbDictionary
280
     1
281
     1
  3
ACAD_XREC_ROUNDTRIP
360
3B9
  0
DICTIONARY
  5
3BA
330
2E
100
AcDbDictionary
280
     1
281
     1
  3
ACAD_XREC_ROUNDTRIP
360
3BB
  0
DICTIONARY
  5
3CE
330
38
100
AcDbDictionary
280
     1
281
     1
  3
ACAD_XREC_ROUNDTRIP
360
3CF
  0
DICTIONARY
  5
3C4
330
33
100
AcDbDictionary
280
     1
281
     1
  3
ACAD_XREC_ROUNDTRIP
360
3C5
  0
DICTIONARY
  5
3CC
330
37
100
AcDbDictionary
280
     1
281
     1
  3
ACAD_XREC_ROUNDTRIP
360
3CD
  0
XRECORD
  5
3D7
102
{ACAD_REACTORS
330
3D6
102
}
330
3D6
100
AcDbXrecord
280
     1
102
MATERIAL
148
0.0
149
0.0
149
0.0
 93
        0
 94
      127
282
     0
 72
     1
 77
     1
171
     1
175
     1
179
     1
273
     0
  0
XRECORD
  5
3D5
102
{ACAD_REACTORS
330
3D4
102
}
330
3D4
100
AcDbXrecord
280
     1
102
MATERIAL
148
0.0
149
0.0
149
0.0
 93
        0
 94
      127
282
     0
 72
     1
 77
     1
171
     1
175
     1
179
     1
273
     0
  0
XRECORD
  5
3D9
102
{ACAD_REACTORS
330
3D8
102
}
330
3D8
100
AcDbXrecord
280
     1
102
MATERIAL
148
0.0
149
0.0
149
0.0
 93
        0
 94
      127
282
     0
 72
     1
 77
     1
171
     1
175
     1
179
     1
273
     0
  0
XRECORD
  5
3BD
102
{ACAD_REACTORS
330
3BC
102
}
330
3BC
100
AcDbXrecord
280
     1
102
RTVSPropertyOp0
 70
     1
102
RTVSPropertyOp1
 70
     1
102
RTVSPropertyOp2
 70
     1
102
RTVSPropertyOp3
 70
     1
102
RTVSPropertyOp4
 70
     1
102
RTVSPropertyOp5
 70
     1
102
RTVSPropertyOp6
 70
     1
102
RTVSPropertyOp7
 70
     1
102
RTVSPropertyOp8
 70
     1
102
RTVSPropertyOp9
 70
     1
102
RTVSPropertyOp10
 70
     1
102
RTVSPropertyOp11
 70
     1
102
RTVSPropertyOp12
 70
     1
102
RTVSPropertyOp13
 70
     1
102
RTVSPropertyOp14
 70
     1
102
RTVSPropertyOp15
 70
     1
102
RTVSPropertyOp16
 70
     1
102
RTVSPropertyOp17
 70
     1
102
RTVSPropertyOp18
 70
     1
102
RTVSPropertyOp19
 70
     1
102
RTVSPropertyOp20
 70
     1
102
RTVSPropertyOp21
 70
     1
102
RTVSPropertyOp22
 70
     1
102
RTVSPropertyOp23
 70
     1
102
RTVSPropertyOp24
 70
     1
102
RTVSPropertyOp25
 70
     1
102
RTVSPropertyOp26
 70
     1
102
RTVSPropertyOp27
 70
     1
102
RTVSPropertyOp28
 70
     1
102
RTVSPropertyOp29
 70
     1
102
RTVSPropertyOp30
 70
     1
102
RTVSPropertyOp31
 70
     1
102
RTVSPropertyOp32
 70
     1
  0
XRECORD
  5
3C1
102
{ACAD_REACTORS
330
3C0
102
}
330
3C0
100
AcDbXrecord
280
     1
102
RTVSPropertyOp0
 70
     1
102
RTVSPropertyOp1
 70
     1
102
RTVSPropertyOp2
 70
     1
102
RTVSPropertyOp3
 70
     1
102
RTVSPropertyOp4
 70
     1
102
RTVSPropertyOp5
 70
     1
102
RTVSPropertyOp6
 70
     1
102
RTVSPropertyOp7
 70
     1
102
RTVSPropertyOp8
 70
     1
102
RTVSPropertyOp9
 70
     1
102
RTVSPropertyOp10
 70
     1
102
RTVSPropertyOp11
 70
     1
102
RTVSPropertyOp12
 70
     1
102
RTVSPropertyOp13
 70
     1
102
RTVSPropertyOp14
 70
     1
102
RTVSPropertyOp15
 70
     1
102
RTVSPropertyOp16
 70
     1
102
RTVSPropertyOp17
 70
     1
102
RTVSPropertyOp18
 70
     1
102
RTVSPropertyOp19
 70
     1
102
RTVSPropertyOp20
 70
     1
102
RTVSPropertyOp21
 70
     1
102
RTVSPropertyOp22
 70
     1
102
RTVSPropertyOp23
 70
     1
102
RTVSPropertyOp24
 70
     1
102
RTVSPropertyOp25
 70
     1
102
RTVSPropertyOp26
 70
     1
102
RTVSPropertyOp27
 70
     1
102
RTVSPropertyOp28
 70
     1
102
RTVSPropertyOp29
 70
     1
102
RTVSPropertyOp30
 70
     1
102
RTVSPropertyOp31
 70
     1
102
RTVSPropertyOp32
 70
     1
  0
XRECORD
  5
3BF
102
{ACAD_REACTORS
330
3BE
102
}
330
3BE
100
AcDbXrecord
280
     1
102
RTVSPropertyOp0
 70
     1
102
RTVSPropertyOp1
 70
     1
102
RTVSPropertyOp2
 70
     1
102
RTVSPropertyOp3
 70
     1
102
RTVSPropertyOp4
 70
     1
102
RTVSPropertyOp5
 70
     1
102
RTVSPropertyOp6
 70
     1
102
RTVSPropertyOp7
 70
     1
102
RTVSPropertyOp8
 70
     1
102
RTVSPropertyOp9
 70
     1
102
RTVSPropertyOp10
 70
     1
102
RTVSPropertyOp11
 70
     1
102
RTVSPropertyOp12
 70
     1
102
RTVSPropertyOp13
 70
     1
102
RTVSPropertyOp14
 70
     1
102
RTVSPropertyOp15
 70
     1
102
RTVSPropertyOp16
 70
     1
102
RTVSPropertyOp17
 70
     1
102
RTVSPropertyOp18
 70
     1
102
RTVSPropertyOp19
 70
     1
102
RTVSPropertyOp20
 70
     1
102
RTVSPropertyOp21
 70
     1
102
RTVSPropertyOp22
 70
     1
102
RTVSPropertyOp23
 70
     1
102
RTVSPropertyOp24
 70
     1
102
RTVSPropertyOp25
 70
     1
102
RTVSPropertyOp26
 70
     1
102
RTVSPropertyOp27
 70
     1
102
RTVSPropertyOp28
 70
     1
102
RTVSPropertyOp29
 70
     1
102
RTVSPropertyOp30
 70
     1
102
RTVSPropertyOp31
 70
     1
102
RTVSPropertyOp32
 70
     1
  0
XRECORD
  5
3C3
102
{ACAD_REACTORS
330
3C2
102
}
330
3C2
100
AcDbXrecord
280
     1
102
RTVSPropertyOp0
 70
     1
102
RTVSPropertyOp1
 70
     1
102
RTVSPropertyOp2
 70
     1
102
RTVSPropertyOp3
 70
     1
102
RTVSPropertyOp4
 70
     1
102
RTVSPropertyOp5
 70
     1
102
RTVSPropertyOp6
 70
     1
102
RTVSPropertyOp7
 70
     1
102
RTVSPropertyOp8
 70
     1
102
RTVSPropertyOp9
 70
     1
102
RTVSPropertyOp10
 70
     1
102
RTVSPropertyOp11
 70
     1
102
RTVSPropertyOp12
 70
     1
102
RTVSPropertyOp13
 70
     1
102
RTVSPropertyOp14
 70
     1
102
RTVSPropertyOp15
 70
     1
102
RTVSPropertyOp16
 70
     1
102
RTVSPropertyOp17
 70
     1
102
RTVSPropertyOp18
 70
     1
102
RTVSPropertyOp19
 70
     1
102
RTVSPropertyOp20
 70
     1
102
RTVSPropertyOp21
 70
     1
102
RTVSPropertyOp22
 70
     1
102
RTVSPropertyOp23
 70
     1
102
RTVSPropertyOp24
 70
     1
102
RTVSPropertyOp25
 70
     1
102
RTVSPropertyOp26
 70
     1
102
RTVSPropertyOp27
 70
     1
102
RTVSPropertyOp28
 70
     1
102
RTVSPropertyOp29
 70
     1
102
RTVSPropertyOp30
 70
     1
102
RTVSPropertyOp31
 70
     1
102
RTVSPropertyOp32
 70
     1
  0
XRECORD
  5
3CB
102
{ACAD_REACTORS
330
3CA
102
}
330
3CA
100
AcDbXrecord
280
     1
102
RTVSPropertyOp0
 70
     1
102
RTVSPropertyOp1
 70
     1
102
RTVSPropertyOp2
 70
     1
102
RTVSPropertyOp3
 70
     1
102
RTVSPropertyOp4
 70
     1
102
RTVSPropertyOp5
 70
     1
102
RTVSPropertyOp6
 70
     1
102
RTVSPropertyOp7
 70
     1
102
RTVSPropertyOp8
 70
     1
102
RTVSPropertyOp9
 70
     1
102
RTVSPropertyOp10
 70
     1
102
RTVSPropertyOp11
 70
     1
102
RTVSPropertyOp12
 70
     1
102
RTVSPropertyOp13
 70
     1
102
RTVSPropertyOp14
 70
     1
102
RTVSPropertyOp15
 70
     1
102
RTVSPropertyOp16
 70
     1
102
RTVSPropertyOp17
 70
     1
102
RTVSPropertyOp18
 70
     1
102
RTVSPropertyOp19
 70
     1
102
RTVSPropertyOp20
 70
     1
102
RTVSPropertyOp21
 70
     1
102
RTVSPropertyOp22
 70
     1
102
RTVSPropertyOp23
 70
     1
102
RTVSPropertyOp24
 70
     1
102
RTVSPropertyOp25
 70
     1
102
RTVSPropertyOp26
 70
     1
102
RTVSPropertyOp27
 70
     1
102
RTVSPropertyOp28
 70
     1
102
RTVSPropertyOp29
 70
     1
102
RTVSPropertyOp30
 70
     1
102
RTVSPropertyOp31
 70
     1
102
RTVSPropertyOp32
 70
     1
  0
XRECORD
  5
3D3
102
{ACAD_REACTORS
330
3D2
102
}
330
3D2
100
AcDbXrecord
280
     1
102
RTVSPropertyOp0
 70
     1
102
RTVSPropertyOp1
 70
     1
102
RTVSPropertyOp2
 70
     1
102
RTVSPropertyOp3
 70
     1
102
RTVSPropertyOp4
 70
     1
102
RTVSPropertyOp5
 70
     1
102
RTVSPropertyOp6
 70
     1
102
RTVSPropertyOp7
 70
     1
102
RTVSPropertyOp8
 70
     1
102
RTVSPropertyOp9
 70
     1
102
RTVSPropertyOp10
 70
     1
102
RTVSPropertyOp11
 70
     1
102
RTVSPropertyOp12
 70
     1
102
RTVSPropertyOp13
 70
     1
102
RTVSPropertyOp14
 70
     1
102
RTVSPropertyOp15
 70
     1
102
RTVSPropertyOp16
 70
     1
102
RTVSPropertyOp17
 70
     1
102
RTVSPropertyOp18
 70
     1
102
RTVSPropertyOp19
 70
     1
102
RTVSPropertyOp20
 70
     1
102
RTVSPropertyOp21
 70
     1
102
RTVSPropertyOp22
 70
     1
102
RTVSPropertyOp23
 70
     1
102
RTVSPropertyOp24
 70
     1
102
RTVSPropertyOp25
 70
     1
102
RTVSPropertyOp26
 70
     1
102
RTVSPropertyOp27
 70
     1
102
RTVSPropertyOp28
 70
     1
102
RTVSPropertyOp29
 70
     1
102
RTVSPropertyOp30
 70
     1
102
RTVSPropertyOp31
 70
     1
102
RTVSPropertyOp32
 70
     1
  0
XRECORD
  5
3C7
102
{ACAD_REACTORS
330
3C6
102
}
330
3C6
100
AcDbXrecord
280
     1
102
RTVSPropertyOp0
 70
     1
102
RTVSPropertyOp1
 70
     1
102
RTVSPropertyOp2
 70
     1
102
RTVSPropertyOp3
 70
     1
102
RTVSPropertyOp4
 70
     1
102
RTVSPropertyOp5
 70
     1
102
RTVSPropertyOp6
 70
     1
102
RTVSPropertyOp7
 70
     1
102
RTVSPropertyOp8
 70
     1
102
RTVSPropertyOp9
 70
     1
102
RTVSPropertyOp10
 70
     1
102
RTVSPropertyOp11
 70
     1
102
RTVSPropertyOp12
 70
     1
102
RTVSPropertyOp13
 70
     1
102
RTVSPropertyOp14
 70
     1
102
RTVSPropertyOp15
 70
     1
102
RTVSPropertyOp16
 70
     1
102
RTVSPropertyOp17
 70
     1
102
RTVSPropertyOp18
 70
     1
102
RTVSPropertyOp19
 70
     1
102
RTVSPropertyOp20
 70
     1
102
RTVSPropertyOp21
 70
     1
102
RTVSPropertyOp22
 70
     1
102
RTVSPropertyOp23
 70
     1
102
RTVSPropertyOp24
 70
     1
102
RTVSPropertyOp25
 70
     1
102
RTVSPropertyOp26
 70
     1
102
RTVSPropertyOp27
 70
     1
102
RTVSPropertyOp28
 70
     1
102
RTVSPropertyOp29
 70
     1
102
RTVSPropertyOp30
 70
     1
102
RTVSPropertyOp31
 70
     1
102
RTVSPropertyOp32
 70
     1
  0
XRECORD
  5
3C9
102
{ACAD_REACTORS
330
3C8
102
}
330
3C8
100
AcDbXrecord
280
     1
102
RTVSPropertyOp0
 70
     1
102
RTVSPropertyOp1
 70
     1
102
RTVSPropertyOp2
 70
     1
102
RTVSPropertyOp3
 70
     1
102
RTVSPropertyOp4
 70
     1
102
RTVSPropertyOp5
 70
     1
102
RTVSPropertyOp6
 70
     1
102
RTVSPropertyOp7
 70
     1
102
RTVSPropertyOp8
 70
     1
102
RTVSPropertyOp9
 70
     1
102
RTVSPropertyOp10
 70
     1
102
RTVSPropertyOp11
 70
     1
102
RTVSPropertyOp12
 70
     1
102
RTVSPropertyOp13
 70
     1
102
RTVSPropertyOp14
 70
     1
102
RTVSPropertyOp15
 70
     1
102
RTVSPropertyOp16
 70
     1
102
RTVSPropertyOp17
 70
     1
102
RTVSPropertyOp18
 70
     1
102
RTVSPropertyOp19
 70
     1
102
RTVSPropertyOp20
 70
     1
102
RTVSPropertyOp21
 70
     1
102
RTVSPropertyOp22
 70
     1
102
RTVSPropertyOp23
 70
     1
102
RTVSPropertyOp24
 70
     1
102
RTVSPropertyOp25
 70
     1
102
RTVSPropertyOp26
 70
     1
102
RTVSPropertyOp27
 70
     1
102
RTVSPropertyOp28
 70
     1
102
RTVSPropertyOp29
 70
     1
102
RTVSPropertyOp30
 70
     1
102
RTVSPropertyOp31
 70
     1
102
RTVSPropertyOp32
 70
     1
  0
XRECORD
  5
3D1
102
{ACAD_REACTORS
330
3D0
102
}
330
3D0
100
AcDbXrecord
280
     1
102
RTVSPropertyOp0
 70
     1
102
RTVSPropertyOp1
 70
     1
102
RTVSPropertyOp2
 70
     1
102
RTVSPropertyOp3
 70
     1
102
RTVSPropertyOp4
 70
     1
102
RTVSPropertyOp5
 70
     1
102
RTVSPropertyOp6
 70
     1
102
RTVSPropertyOp7
 70
     1
102
RTVSPropertyOp8
 70
     1
102
RTVSPropertyOp9
 70
     1
102
RTVSPropertyOp10
 70
     1
102
RTVSPropertyOp11
 70
     1
102
RTVSPropertyOp12
 70
     1
102
RTVSPropertyOp13
 70
     1
102
RTVSPropertyOp14
 70
     1
102
RTVSPropertyOp15
 70
     1
102
RTVSPropertyOp16
 70
     1
102
RTVSPropertyOp17
 70
     1
102
RTVSPropertyOp18
 70
     1
102
RTVSPropertyOp19
 70
     1
102
RTVSPropertyOp20
 70
     1
102
RTVSPropertyOp21
 70
     1
102
RTVSPropertyOp22
 70
     1
102
RTVSPropertyOp23
 70
     1
102
RTVSPropertyOp24
 70
     1
102
RTVSPropertyOp25
 70
     1
102
RTVSPropertyOp26
 70
     1
102
RTVSPropertyOp27
 70
     1
102
RTVSPropertyOp28
 70
     1
102
RTVSPropertyOp29
 70
     1
102
RTVSPropertyOp30
 70
     1
102
RTVSPropertyOp31
 70
     1
102
RTVSPropertyOp32
 70
     1
  0
XRECORD
  5
3B5
102
{ACAD_REACTORS
330
3B4
102
}
330
3B4
100
AcDbXrecord
280
     1
102
RTVSPropertyOp0
 70
     1
102
RTVSPropertyOp1
 70
     1
102
RTVSPropertyOp2
 70
     1
102
RTVSPropertyOp3
 70
     1
102
RTVSPropertyOp4
 70
     1
102
RTVSPropertyOp5
 70
     1
102
RTVSPropertyOp6
 70
     1
102
RTVSPropertyOp7
 70
     1
102
RTVSPropertyOp8
 70
     1
102
RTVSPropertyOp9
 70
     1
102
RTVSPropertyOp10
 70
     1
102
RTVSPropertyOp11
 70
     1
102
RTVSPropertyOp12
 70
     1
102
RTVSPropertyOp13
 70
     1
102
RTVSPropertyOp14
 70
     1
102
RTVSPropertyOp15
 70
     1
102
RTVSPropertyOp16
 70
     1
102
RTVSPropertyOp17
 70
     1
102
RTVSPropertyOp18
 70
     1
102
RTVSPropertyOp19
 70
     1
102
RTVSPropertyOp20
 70
     1
102
RTVSPropertyOp21
 70
     1
102
RTVSPropertyOp22
 70
     1
102
RTVSPropertyOp23
 70
     1
102
RTVSPropertyOp24
 70
     1
102
RTVSPropertyOp25
 70
     1
102
RTVSPropertyOp26
 70
     1
102
RTVSPropertyOp27
 70
     1
102
RTVSPropertyOp28
 70
     1
102
RTVSPropertyOp29
 70
     1
102
RTVSPropertyOp30
 70
     1
102
RTVSPropertyOp31
 70
     1
102
RTVSPropertyOp32
 70
     1
  0
XRECORD
  5
3B7
102
{ACAD_REACTORS
330
3B6
102
}
330
3B6
100
AcDbXrecord
280
     1
102
RTVSPropertyOp0
 70
     1
102
RTVSPropertyOp1
 70
     1
102
RTVSPropertyOp2
 70
     1
102
RTVSPropertyOp3
 70
     1
102
RTVSPropertyOp4
 70
     1
102
RTVSPropertyOp5
 70
     1
102
RTVSPropertyOp6
 70
     1
102
RTVSPropertyOp7
 70
     1
102
RTVSPropertyOp8
 70
     1
102
RTVSPropertyOp9
 70
     1
102
RTVSPropertyOp10
 70
     1
102
RTVSPropertyOp11
 70
     1
102
RTVSPropertyOp12
 70
     1
102
RTVSPropertyOp13
 70
     1
102
RTVSPropertyOp14
 70
     1
102
RTVSPropertyOp15
 70
     1
102
RTVSPropertyOp16
 70
     1
102
RTVSPropertyOp17
 70
     1
102
RTVSPropertyOp18
 70
     1
102
RTVSPropertyOp19
 70
     1
102
RTVSPropertyOp20
 70
     1
102
RTVSPropertyOp21
 70
     1
102
RTVSPropertyOp22
 70
     1
102
RTVSPropertyOp23
 70
     1
102
RTVSPropertyOp24
 70
     1
102
RTVSPropertyOp25
 70
     1
102
RTVSPropertyOp26
 70
     1
102
RTVSPropertyOp27
 70
     1
102
RTVSPropertyOp28
 70
     1
102
RTVSPropertyOp29
 70
     1
102
RTVSPropertyOp30
 70
     1
102
RTVSPropertyOp31
 70
     1
102
RTVSPropertyOp32
 70
     1
  0
XRECORD
  5
3B9
102
{ACAD_REACTORS
330
3B8
102
}
330
3B8
100
AcDbXrecord
280
     1
102
RTVSPropertyOp0
 70
     1
102
RTVSPropertyOp1
 70
     1
102
RTVSPropertyOp2
 70
     1
102
RTVSPropertyOp3
 70
     1
102
RTVSPropertyOp4
 70
     1
102
RTVSPropertyOp5
 70
     1
102
RTVSPropertyOp6
 70
     1
102
RTVSPropertyOp7
 70
     1
102
RTVSPropertyOp8
 70
     1
102
RTVSPropertyOp9
 70
     1
102
RTVSPropertyOp10
 70
     1
102
RTVSPropertyOp11
 70
     1
102
RTVSPropertyOp12
 70
     1
102
RTVSPropertyOp13
 70
     1
102
RTVSPropertyOp14
 70
     1
102
RTVSPropertyOp15
 70
     1
102
RTVSPropertyOp16
 70
     1
102
RTVSPropertyOp17
 70
     1
102
RTVSPropertyOp18
 70
     1
102
RTVSPropertyOp19
 70
     1
102
RTVSPropertyOp20
 70
     1
102
RTVSPropertyOp21
 70
     1
102
RTVSPropertyOp22
 70
     1
102
RTVSPropertyOp23
 70
     1
102
RTVSPropertyOp24
 70
     1
102
RTVSPropertyOp25
 70
     1
102
RTVSPropertyOp26
 70
     1
102
RTVSPropertyOp27
 70
     1
102
RTVSPropertyOp28
 70
     1
102
RTVSPropertyOp29
 70
     1
102
RTVSPropertyOp30
 70
     1
102
RTVSPropertyOp31
 70
     1
102
RTVSPropertyOp32
 70
     1
  0
XRECORD
  5
3BB
102
{ACAD_REACTORS
330
3BA
102
}
330
3BA
100
AcDbXrecord
280
     1
102
RTVSPropertyOp0
 70
     1
102
RTVSPropertyOp1
 70
     1
102
RTVSPropertyOp2
 70
     1
102
RTVSPropertyOp3
 70
     1
102
RTVSPropertyOp4
 70
     1
102
RTVSPropertyOp5
 70
     1
102
RTVSPropertyOp6
 70
     1
102
RTVSPropertyOp7
 70
     1
102
RTVSPropertyOp8
 70
     1
102
RTVSPropertyOp9
 70
     1
102
RTVSPropertyOp10
 70
     1
102
RTVSPropertyOp11
 70
     1
102
RTVSPropertyOp12
 70
     1
102
RTVSPropertyOp13
 70
     1
102
RTVSPropertyOp14
 70
     1
102
RTVSPropertyOp15
 70
     1
102
RTVSPropertyOp16
 70
     1
102
RTVSPropertyOp17
 70
     1
102
RTVSPropertyOp18
 70
     1
102
RTVSPropertyOp19
 70
     1
102
RTVSPropertyOp20
 70
     1
102
RTVSPropertyOp21
 70
     1
102
RTVSPropertyOp22
 70
     1
102
RTVSPropertyOp23
 70
     1
102
RTVSPropertyOp24
 70
     1
102
RTVSPropertyOp25
 70
     1
102
RTVSPropertyOp26
 70
     1
102
RTVSPropertyOp27
 70
     1
102
RTVSPropertyOp28
 70
     1
102
RTVSPropertyOp29
 70
     1
102
RTVSPropertyOp30
 70
     1
102
RTVSPropertyOp31
 70
     1
102
RTVSPropertyOp32
 70
     1
  0
XRECORD
  5
3CF
102
{ACAD_REACTORS
330
3CE
102
}
330
3CE
100
AcDbXrecord
280
     1
102
RTVSPropertyOp0
 70
     1
102
RTVSPropertyOp1
 70
     1
102
RTVSPropertyOp2
 70
     1
102
RTVSPropertyOp3
 70
     1
102
RTVSPropertyOp4
 70
     1
102
RTVSPropertyOp5
 70
     1
102
RTVSPropertyOp6
 70
     1
102
RTVSPropertyOp7
 70
     1
102
RTVSPropertyOp8
 70
     1
102
RTVSPropertyOp9
 70
     1
102
RTVSPropertyOp10
 70
     1
102
RTVSPropertyOp11
 70
     1
102
RTVSPropertyOp12
 70
     1
102
RTVSPropertyOp13
 70
     1
102
RTVSPropertyOp14
 70
     1
102
RTVSPropertyOp15
 70
     1
102
RTVSPropertyOp16
 70
     1
102
RTVSPropertyOp17
 70
     1
102
RTVSPropertyOp18
 70
     1
102
RTVSPropertyOp19
 70
     1
102
RTVSPropertyOp20
 70
     1
102
RTVSPropertyOp21
 70
     1
102
RTVSPropertyOp22
 70
     1
102
RTVSPropertyOp23
 70
     1
102
RTVSPropertyOp24
 70
     1
102
RTVSPropertyOp25
 70
     1
102
RTVSPropertyOp26
 70
     1
102
RTVSPropertyOp27
 70
     1
102
RTVSPropertyOp28
 70
     1
102
RTVSPropertyOp29
 70
     1
102
RTVSPropertyOp30
 70
     1
102
RTVSPropertyOp31
 70
     1
102
RTVSPropertyOp32
 70
     1
  0
XRECORD
  5
3C5
102
{ACAD_REACTORS
330
3C4
102
}
330
3C4
100
AcDbXrecord
280
     1
102
RTVSPropertyOp0
 70
     1
102
RTVSPropertyOp1
 70
     1
102
RTVSPropertyOp2
 70
     1
102
RTVSPropertyOp3
 70
     1
102
RTVSPropertyOp4
 70
     1
102
RTVSPropertyOp5
 70
     1
102
RTVSPropertyOp6
 70
     1
102
RTVSPropertyOp7
 70
     1
102
RTVSPropertyOp8
 70
     1
102
RTVSPropertyOp9
 70
     1
102
RTVSPropertyOp10
 70
     1
102
RTVSPropertyOp11
 70
     1
102
RTVSPropertyOp12
 70
     1
102
RTVSPropertyOp13
 70
     1
102
RTVSPropertyOp14
 70
     1
102
RTVSPropertyOp15
 70
     1
102
RTVSPropertyOp16
 70
     1
102
RTVSPropertyOp17
 70
     1
102
RTVSPropertyOp18
 70
     1
102
RTVSPropertyOp19
 70
     1
102
RTVSPropertyOp20
 70
     1
102
RTVSPropertyOp21
 70
     1
102
RTVSPropertyOp22
 70
     1
102
RTVSPropertyOp23
 70
     1
102
RTVSPropertyOp24
 70
     1
102
RTVSPropertyOp25
 70
     1
102
RTVSPropertyOp26
 70
     1
102
RTVSPropertyOp27
 70
     1
102
RTVSPropertyOp28
 70
     1
102
RTVSPropertyOp29
 70
     1
102
RTVSPropertyOp30
 70
     1
102
RTVSPropertyOp31
 70
     1
102
RTVSPropertyOp32
 70
     1
  0
XRECORD
  5
3CD
102
{ACAD_REACTORS
330
3CC
102
}
330
3CC
100
AcDbXrecord
280
     1
102
RTVSPropertyOp0
 70
     1
102
RTVSPropertyOp1
 70
     1
102
RTVSPropertyOp2
 70
     1
102
RTVSPropertyOp3
 70
     1
102
RTVSPropertyOp4
 70
     1
102
RTVSPropertyOp5
 70
     1
102
RTVSPropertyOp6
 70
     1
102
RTVSPropertyOp7
 70
     1
102
RTVSPropertyOp8
 70
     1
102
RTVSPropertyOp9
 70
     1
102
RTVSPropertyOp10
 70
     1
102
RTVSPropertyOp11
 70
     1
102
RTVSPropertyOp12
 70
     1
102
RTVSPropertyOp13
 70
     1
102
RTVSPropertyOp14
 70
     1
102
RTVSPropertyOp15
 70
     1
102
RTVSPropertyOp16
 70
     1
102
RTVSPropertyOp17
 70
     1
102
RTVSPropertyOp18
 70
     1
102
RTVSPropertyOp19
 70
     1
102
RTVSPropertyOp20
 70
     1
102
RTVSPropertyOp21
 70
     1
102
RTVSPropertyOp22
 70
     1
102
RTVSPropertyOp23
 70
     1
102
RTVSPropertyOp24
 70
     1
102
RTVSPropertyOp25
 70
     1
102
RTVSPropertyOp26
 70
     1
102
RTVSPropertyOp27
 70
     1
102
RTVSPropertyOp28
 70
     1
102
RTVSPropertyOp29
 70
     1
102
RTVSPropertyOp30
 70
     1
102
RTVSPropertyOp31
 70
     1
102
RTVSPropertyOp32
 70
     1
  0
ENDSEC
  0
EOF
