  0
SECTION
  2
HEADER
  9
$ACADVER
  1
AC1009
  9
$INSBASE
 10
0.0
 20
0.0
 30
0.0
  9
$EXTMIN
 10
-1652.450477490497
 20
-1112.5274338931169
 30
-0.0015258207003583
  9
$EXTMAX
 10
1609.6762684675859
 20
2971.369676703373
 30
0.0000000349246037
  9
$LIMMIN
 10
0.0
 20
0.0
  9
$LIMMAX
 10
420.0
 20
297.0
  9
$ORTHOMODE
 70
     0
  9
$REGENMODE
 70
     1
  9
$FILLMODE
 70
     1
  9
$QTEXTMODE
 70
     0
  9
$MIRRTEXT
 70
     0
  9
$DRAGMODE
 70
     2
  9
$LTSCALE
 40
1.0
  9
$OSMODE
 70
     0
  9
$ATTMODE
 70
     1
  9
$TEXTSIZE
 40
35.0
  9
$TRACEWID
 40
1.0
  9
$TEXTSTYLE
  7
ARIAL
  9
$CLAYER
  8
0
  9
$CELTYPE
  6
CONTINUOUS
  9
$CECOLOR
 62
   256
  9
$DIMSCALE
 40
20.0
  9
$DIMASZ
 40
1.8
  9
$DIMEXO
 40
1.8
  9
$DIMDLI
 40
5.0
  9
$DIMRND
 40
0.0
  9
$DIMDLE
 40
1.8
  9
$DIMEXE
 40
1.8
  9
$DIMTP
 40
0.0
  9
$DIMTM
 40
0.0
  9
$DIMTXT
 40
2.0
  9
$DIMCEN
 40
1.8
  9
$DIMTSZ
 40
0.0
  9
$DIMTOL
 70
     0
  9
$DIMLIM
 70
     0
  9
$DIMTIH
 70
     0
  9
$DIMTOH
 70
     0
  9
$DIMSE1
 70
     0
  9
$DIMSE2
 70
     0
  9
$DIMTAD
 70
     1
  9
$DIMZIN
 70
     0
  9
$DIMBLK
  1

  9
$DIMASO
 70
     1
  9
$DIMSHO
 70
     1
  9
$DIMPOST
  1
mm
  9
$DIMAPOST
  1
mm
  9
$DIMALT
 70
     0
  9
$DIMALTD
 70
     2
  9
$DIMALTF
 40
0.0394
  9
$DIMLFAC
 40
1.0
  9
$DIMTOFL
 70
     0
  9
$DIMTVP
 40
0.0
  9
$DIMTIX
 70
     0
  9
$DIMSOXD
 70
     0
  9
$DIMSAH
 70
     0
  9
$DIMBLK1
  1

  9
$DIMBLK2
  1

  9
$DIMSTYLE
  2
1_TO_20
  9
$DIMCLRD
 70
   256
  9
$DIMCLRE
 70
   256
  9
$DIMCLRT
 70
   256
  9
$DIMTFAC
 40
1.0
  9
$DIMGAP
 40
1.0
  9
$LUNITS
 70
     2
  9
$LUPREC
 70
     1
  9
$SKETCHINC
 40
1.0
  9
$FILLETRAD
 40
0.0
  9
$AUNITS
 70
     1
  9
$AUPREC
 70
     4
  9
$MENU
  1
acad
  9
$ELEVATION
 40
0.0
  9
$PELEVATION
 40
0.0
  9
$THICKNESS
 40
0.0
  9
$LIMCHECK
 70
     0
  9
$BLIPMODE
 70
     0
  9
$CHAMFERA
 40
10.0
  9
$CHAMFERB
 40
10.0
  9
$SKPOLY
 70
     0
  9
$TDCREATE
 40
2450935.42424213
  9
$TDUPDATE
 40
2457100.7063128012
  9
$TDINDWG
 40
7.7279741667000001
  9
$TDUSRTIMER
 40
7.7279741667000001
  9
$USRTIMER
 70
     1
  9
$ANGBASE
 50
0.0
  9
$ANGDIR
 70
     0
  9
$PDMODE
 70
     0
  9
$PDSIZE
 40
-1.0
  9
$PLINEWID
 40
0.0
  9
$COORDS
 70
     2
  9
$SPLFRAME
 70
     0
  9
$SPLINETYPE
 70
     6
  9
$SPLINESEGS
 70
     8
  9
$ATTDIA
 70
     0
  9
$ATTREQ
 70
     1
  9
$HANDLING
 70
     1
  9
$HANDSEED
  5
80000103
  9
$SURFTAB1
 70
     6
  9
$SURFTAB2
 70
     6
  9
$SURFTYPE
 70
     6
  9
$SURFU
 70
     6
  9
$SURFV
 70
     6
  9
$UCSNAME
  2

  9
$UCSORG
 10
0.0
 20
0.0
 30
0.0
  9
$UCSXDIR
 10
1.0
 20
0.0
 30
0.0
  9
$UCSYDIR
 10
0.0
 20
1.0
 30
0.0
  9
$PUCSNAME
  2

  9
$PUCSORG
 10
0.0
 20
0.0
 30
0.0
  9
$PUCSXDIR
 10
1.0
 20
0.0
 30
0.0
  9
$PUCSYDIR
 10
0.0
 20
1.0
 30
0.0
  9
$USERI1
 70
    50
  9
$USERI2
 70
     1
  9
$USERI3
 70
     0
  9
$USERI4
 70
     2
  9
$USERI5
 70
     0
  9
$USERR1
 40
50.0
  9
$USERR2
 40
0.0
  9
$USERR3
 40
50.0
  9
$USERR4
 40
100.0
  9
$USERR5
 40
100.0
  9
$WORLDVIEW
 70
     1
  9
$SHADEDGE
 70
     3
  9
$SHADEDIF
 70
    70
  9
$TILEMODE
 70
     1
  9
$MAXACTVP
 70
    16
  9
$PLIMCHECK
 70
     0
  9
$PEXTMIN
 10
0.0
 20
0.0
 30
0.0
  9
$PEXTMAX
 10
0.0
 20
0.0
 30
0.0
  9
$PLIMMIN
 10
0.0
 20
0.0
  9
$PLIMMAX
 10
12.0
 20
9.0
  9
$UNITMODE
 70
     0
  9
$VISRETAIN
 70
     0
  9
$PLINEGEN
 70
     0
  9
$PSLTSCALE
 70
     1
  0
ENDSEC
  0
SECTION
  2
TABLES
  0
TABLE
  2
VPORT
 70
     1
  0
VPORT
  2
*ACTIVE
 70
     0
 10
0.0
 20
0.0
 11
1.0
 21
1.0
 12
-21.387104511455501
 22
929.42112140512825
 13
0.0
 23
0.0
 14
1.0
 24
1.0
 15
10.0
 25
10.0
 16
0.0
 26
0.0
 36
1.0
 17
0.0
 27
0.0
 37
0.0
 40
4111.6472608383683
 41
1.0918367346938771
 42
50.0
 43
0.0
 44
0.0
 50
0.0
 51
0.0
 71
     0
 72
   100
 73
     1
 74
     1
 75
     0
 76
     0
 77
     0
 78
     1
  0
ENDTAB
  0
TABLE
  2
LTYPE
 70
     4
  0
LTYPE
  2
CONTINUOUS
 70
     0
  3
Solid line
 72
    65
 73
     0
 40
0.0
  0
LTYPE
  2
HIDDEN
 70
     0
  3
Hidden __ __ __ __ __ __ __ __ __ __ __ __ __ _
 72
    65
 73
     2
 40
9.5249999999999986
 49
6.3499999999999988
 49
-3.1749999999999989
  0
LTYPE
  2
DASHDOT
 70
     0
  3
Dash dot __ . __ . __ . __ . __ . __ . __ . __
 72
    65
 73
     4
 40
25.399999999999999
 49
12.699999999999999
 49
-6.3499999999999988
 49
0.0
 49
-6.3499999999999988
  0
LTYPE
  2
CENTER
 70
     0
  3
Center ____ _ ____ _ ____ _ ____ _ ____ _ ____
 72
    65
 73
     4
 40
50.799999999999997
 49
31.75
 49
-6.3499999999999988
 49
6.3499999999999988
 49
-6.3499999999999988
  0
ENDTAB
  0
TABLE
  2
LAYER
 70
    11
  0
LAYER
  2
0
 70
     0
 62
     7
  6
CONTINUOUS
  0
LAYER
  2
DEFPOINTS
 70
     0
 62
     7
  6
CONTINUOUS
  0
ENDTAB
  0
TABLE
  2
STYLE
 70
     6
  0
STYLE
  2
STANDARD
 70
     0
 40
0.0
 41
1.0
 50
0.0
 71
     0
 42
3.5
  3
txt
  4

  0
STYLE
  2
2_5
 70
     0
 40
2.5
 41
1.0
 50
0.0
 71
     0
 42
2.5
  3
txt
  4

  0
STYLE
  2
5
 70
     0
 40
5.0
 41
1.0
 50
0.0
 71
     0
 42
5.0
  3
txt
  4

  0
STYLE
  2
ARIAL
 70
     0
 40
0.0
 41
1.0
 50
0.0
 71
     0
 42
35.0
  3
txt
  4

  0
ENDTAB
  0
TABLE
  2
VIEW
 70
     5
  0
VIEW
  2
A
 70
     1
 40
27750.0
 10
17125.0
 20
13875.0
 41
34250.0
 11
0.0
 21
0.0
 31
1.0
 12
0.0
 22
0.0
 32
0.0
 42
50.0
 43
0.0
 44
0.0
 50
0.0
 71
     0
  0
VIEW
  2
MS-A
 70
     1
 40
27750.0
 10
17125.0
 20
13875.0
 41
34250.0
 11
0.0
 21
0.0
 31
1.0
 12
0.0
 22
0.0
 32
0.0
 42
50.0
 43
0.0
 44
0.0
 50
0.0
 71
     0
  0
VIEW
  2
PS-A
 70
     1
 40
560.0
 10
394.84013230429991
 20
280.0
 41
789.68026460859983
 11
0.0
 21
0.0
 31
1.0
 12
0.0
 22
0.0
 32
0.0
 42
50.0
 43
0.0
 44
0.0
 50
0.0
 71
     0
  0
VIEW
  2
VA
 70
     1
 40
560.0
 10
392.50000000000011
 20
280.0
 41
785.00000000000023
 11
0.0
 21
0.0
 31
1.0
 12
0.0
 22
0.0
 32
0.0
 42
50.0
 43
0.0
 44
0.0
 50
0.0
 71
     0
  0
ENDTAB
  0
TABLE
  2
UCS
 70
     0
  0
ENDTAB
  0
TABLE
  2
APPID
 70
    14
  0
APPID
  2
ACAD
 70
     0
  0
APPID
  2
CONTENTTABDATA
 70
     0
  0
APPID
  2
CONTENTCURRENTTAB
 70
     0
  0
APPID
  2
CONTENTBLOCKICON
 70
     0
  0
APPID
  2
CONTENTBLOCKDESCRIPTION
 70
     0
  0
APPID
  2
ACAD_MLEADERVER
 70
     0
  0
APPID
  2
ACAD_EXEMPT_FROM_CAD_STANDARDS
 70
     0
  0
APPID
  2
ACAD_PSEXT
 70
     0
  0
APPID
  2
ACAD_DSTYLE_DIMJAG
 70
     0
  0
APPID
  2
ACAD_DSTYLE_DIMTALN
 70
     0
  0
APPID
  2
ACADANNOPO
 70
     0
  0
APPID
  2
ACAD_DSTYLE_DIMEXT_ENABLED
 70
     0
  0
APPID
  2
ACAD_DSTYLE_DIMEXT_LENGTH
 70
     0
  0
APPID
  2
ACAD_NAV_VCDISPLAY
 70
     0
  0
ENDTAB
  0
TABLE
  2
DIMSTYLE
 70
     2
  0
DIMSTYLE
  2
1_TO_20_LEADER
 70
     0
  3

  4

  5
ARCHTICK
  6

  7

 40
20.0
 41
1.8
 42
1.8
 43
5.0
 44
1.8
 45
0.0
 46
1.8
 47
0.0
 48
0.0
140
2.0
141
1.8
142
0.0
143
0.0394
144
1.0
145
0.0
146
1.0
147
1.0
 71
     0
 72
     0
 73
     0
 74
     0
 75
     0
 76
     0
 77
     0
 78
     0
170
     0
171
     2
172
     1
173
     0
174
     1
175
     0
176
     0
177
     0
178
     0
  0
DIMSTYLE
  2
1_TO_20
 70
     0
  3
mm
  4
mm
  5

  6

  7

 40
20.0
 41
1.8
 42
1.8
 43
5.0
 44
1.8
 45
0.0
 46
1.8
 47
0.0
 48
0.0
140
2.0
141
1.8
142
0.0
143
0.0394
144
1.0
145
0.0
146
1.0
147
1.0
 71
     0
 72
     0
 73
     0
 74
     0
 75
     0
 76
     0
 77
     1
 78
     0
170
     0
171
     2
172
     0
173
     0
174
     0
175
     0
176
   256
177
   256
178
   256
  0
ENDTAB
  0
ENDSEC
  0
SECTION
  2
BLOCKS
  0
BLOCK
  8
0
  2
$MODEL_SPACE
 70
     2
 10
0.0
 20
0.0
 30
0.0
  3
$MODEL_SPACE
  1

  0
ENDBLK
  5
FFBBDAE469BA29CD
  8
0
  0
BLOCK
 67
     1
  8
0
  2
$PAPER_SPACE
 70
     0
 10
0.0
 20
0.0
 30
0.0
  3
$PAPER_SPACE
  1

  0
ENDBLK
  5
FFBBDAE469BC0DC4
 67
     1
  8
0
  0
BLOCK
  8
0
  2
*D2
 70
     1
 10
0.0
 20
0.0
 30
0.0
  3
*D2
  1

  0
LINE
  5
FFBBDAE469BC0F49
  8
0
  6
CONTINUOUS
 10
1316.7131822394981
 20
50.000413250592821
 30
0.0
 11
1452.7131822394981
 21
50.000413250592779
 31
0.0
  0
LINE
  5
FFBBDAE469BC0F4A
  8
0
  6
CONTINUOUS
 10
1316.7131822394981
 20
850.0004132505926
 30
0.0
 11
1452.713182239499
 21
850.0004132505926
 31
0.0
  0
LINE
  5
FFBBDAE469BC0F4B
  8
0
  6
CONTINUOUS
 10
1416.7131822394981
 20
86.000413250592786
 30
0.0
 11
1416.7131822394981
 21
814.00041325059271
 31
0.0
  0
SOLID
  5
FFBBDAE469BC0F4C
  8
0
  6
CONTINUOUS
 10
1410.7131822394981
 20
86.000413250592786
 30
0.0
 11
1422.7131822394981
 21
86.000413250592786
 31
0.0
 12
1416.7131822394981
 22
50.000413250592793
 32
0.0
 13
1416.7131822394981
 23
50.000413250592793
 33
0.0
  0
SOLID
  5
FFBBDAE469BC0F4D
  8
0
  6
CONTINUOUS
 10
1410.7131822394981
 20
814.00041325059271
 30
0.0
 11
1422.7131822394981
 21
814.00041325059271
 31
0.0
 12
1416.7131822394981
 22
850.0004132505926
 32
0.0
 13
1416.7131822394981
 23
850.0004132505926
 33
0.0
  0
INSERT
  5
FFBBDAE469BC0F4E
  8
0
  6
CONTINUOUS
  2
*U37
 10
0.0
 20
0.0
 30
0.0
  0
POINT
  5
FFBBDAE469BC0F4F
  8
DEFPOINTS
  6
CONTINUOUS
 62
     0
 10
1236.719109968496
 20
50.000413250592842
 30
0.0
  0
POINT
  5
FFBBDAE469BC0F50
  8
DEFPOINTS
  6
CONTINUOUS
 62
     0
 10
1132.5
 20
850.00041325059283
 30
0.0
  0
POINT
  5
FFBBDAE469BC0F51
  8
DEFPOINTS
  6
CONTINUOUS
 62
     0
 10
1416.7131822394981
 20
850.0004132505926
 30
0.0
  0
ENDBLK
  5
FFBBDAE469BBE0C6
  8
0
  0
BLOCK
  8
0
  2
*D3
 70
     1
 10
0.0
 20
0.0
 30
0.0
  3
*D3
  1

  0
LINE
  5
FFBBDAE469BC0F40
  8
0
  6
CONTINUOUS
 10
-645.0
 20
2799.8944302370851
 30
0.0
 11
-645.0
 21
2935.8944302370851
 31
0.0
  0
LINE
  5
FFBBDAE469BC0F41
  8
0
  6
CONTINUOUS
 10
-1245.0
 20
2799.8944302370851
 30
0.0
 11
-1245.0
 21
2935.8944302370851
 31
0.0
  0
LINE
  5
FFBBDAE469BC0F42
  8
0
  6
CONTINUOUS
 10
-681.0
 20
2899.8944302370851
 30
0.0
 11
-1209.0
 21
2899.8944302370851
 31
0.0
  0
SOLID
  5
FFBBDAE469BC0F43
  8
0
  6
CONTINUOUS
 10
-681.0
 20
2905.8944302370851
 30
0.0
 11
-681.0
 21
2893.8944302370842
 31
0.0
 12
-645.0
 22
2899.8944302370851
 32
0.0
 13
-645.0
 23
2899.8944302370851
 33
0.0
  0
SOLID
  5
FFBBDAE469BC0F44
  8
0
  6
CONTINUOUS
 10
-1209.0
 20
2905.8944302370851
 30
0.0
 11
-1209.0
 21
2893.8944302370842
 31
0.0
 12
-1245.0
 22
2899.8944302370851
 32
0.0
 13
-1245.0
 23
2899.8944302370851
 33
0.0
  0
INSERT
  5
FFBBDAE469BC0F45
  8
0
  6
CONTINUOUS
  2
*U36
 10
0.0
 20
0.0
 30
0.0
  0
POINT
  5
FFBBDAE469BC0F46
  8
DEFPOINTS
  6
CONTINUOUS
 62
     0
 10
-645.0
 20
2450.0004132505928
 30
0.0
  0
POINT
  5
FFBBDAE469BC0F47
  8
DEFPOINTS
  6
CONTINUOUS
 62
     0
 10
-1245.0
 20
2450.0004132505928
 30
0.0
  0
POINT
  5
FFBBDAE469BC0F48
  8
DEFPOINTS
  6
CONTINUOUS
 62
     0
 10
-1245.0
 20
2899.8944302370851
 30
0.0
  0
ENDBLK
  5
FFBBDAE469BBE0D1
  8
0
  0
BLOCK
  8
0
  2
*D4
 70
     1
 10
0.0
 20
0.0
 30
0.0
  3
*D4
  1

  0
LINE
  5
FFBBDAE469BC0F37
  8
0
  6
CONTINUOUS
 10
1316.7131822394981
 20
1650.0004132505931
 30
0.0
 11
1452.713182239499
 21
1650.0004132505931
 31
0.0
  0
LINE
  5
FFBBDAE469BC0F38
  8
0
  6
CONTINUOUS
 10
1316.7131822394981
 20
2450.0004132505928
 30
0.0
 11
1452.713182239499
 21
2450.0004132505928
 31
0.0
  0
LINE
  5
FFBBDAE469BC0F39
  8
0
  6
CONTINUOUS
 10
1416.7131822394981
 20
1686.0004132505919
 30
0.0
 11
1416.7131822394981
 21
2414.0004132505928
 31
0.0
  0
SOLID
  5
FFBBDAE469BC0F3A
  8
0
  6
CONTINUOUS
 10
1410.7131822394981
 20
1686.0004132505919
 30
0.0
 11
1422.7131822394981
 21
1686.0004132505919
 31
0.0
 12
1416.7131822394981
 22
1650.0004132505931
 32
0.0
 13
1416.7131822394981
 23
1650.0004132505931
 33
0.0
  0
SOLID
  5
FFBBDAE469BC0F3B
  8
0
  6
CONTINUOUS
 10
1410.7131822394981
 20
2414.0004132505928
 30
0.0
 11
1422.7131822394981
 21
2414.0004132505928
 31
0.0
 12
1416.7131822394981
 22
2450.0004132505928
 32
0.0
 13
1416.7131822394981
 23
2450.0004132505928
 33
0.0
  0
INSERT
  5
FFBBDAE469BC0F3C
  8
0
  6
CONTINUOUS
  2
*U35
 10
0.0
 20
0.0
 30
0.0
  0
POINT
  5
FFBBDAE469BC0F3D
  8
DEFPOINTS
  6
CONTINUOUS
 62
     0
 10
1213.994449357444
 20
1650.0004132505931
 30
0.0
  0
POINT
  5
FFBBDAE469BC0F3E
  8
DEFPOINTS
  6
CONTINUOUS
 62
     0
 10
1247.1630306641371
 20
2450.0004132505928
 30
0.0
  0
POINT
  5
FFBBDAE469BC0F3F
  8
DEFPOINTS
  6
CONTINUOUS
 62
     0
 10
1416.7131822394981
 20
2450.0004132505928
 30
0.0
  0
ENDBLK
  5
FFBBDAE469BBE0DD
  8
0
  0
BLOCK
  8
0
  2
*D5
 70
     1
 10
0.0
 20
0.0
 30
0.0
  3
*D5
  1

  0
LINE
  5
FFBBDAE469BC0F2E
  8
0
  6
CONTINUOUS
 10
-44.999999999999979
 20
2799.8944302370851
 30
0.0
 11
-44.999999999999972
 21
2935.8944302370851
 31
0.0
  0
LINE
  5
FFBBDAE469BC0F2F
  8
0
  6
CONTINUOUS
 10
-645.0
 20
2799.8944302370851
 30
0.0
 11
-645.0
 21
2935.8944302370851
 31
0.0
  0
LINE
  5
FFBBDAE469BC0F30
  8
0
  6
CONTINUOUS
 10
-80.999999999999972
 20
2899.8944302370851
 30
0.0
 11
-609.0
 21
2899.8944302370851
 31
0.0
  0
SOLID
  5
FFBBDAE469BC0F31
  8
0
  6
CONTINUOUS
 10
-80.999999999999972
 20
2905.8944302370851
 30
0.0
 11
-80.999999999999972
 21
2893.8944302370842
 31
0.0
 12
-44.999999999999972
 22
2899.8944302370851
 32
0.0
 13
-44.999999999999972
 23
2899.8944302370851
 33
0.0
  0
SOLID
  5
FFBBDAE469BC0F32
  8
0
  6
CONTINUOUS
 10
-609.0
 20
2905.8944302370851
 30
0.0
 11
-609.0
 21
2893.8944302370842
 31
0.0
 12
-645.0
 22
2899.8944302370851
 32
0.0
 13
-645.0
 23
2899.8944302370851
 33
0.0
  0
INSERT
  5
FFBBDAE469BC0F33
  8
0
  6
CONTINUOUS
  2
*U34
 10
0.0
 20
0.0
 30
0.0
  0
POINT
  5
FFBBDAE469BC0F34
  8
DEFPOINTS
  6
CONTINUOUS
 62
     0
 10
-45.0
 20
2450.0004132505928
 30
0.0
  0
POINT
  5
FFBBDAE469BC0F35
  8
DEFPOINTS
  6
CONTINUOUS
 62
     0
 10
-645.0
 20
2450.0004132505928
 30
0.0
  0
POINT
  5
FFBBDAE469BC0F36
  8
DEFPOINTS
  6
CONTINUOUS
 62
     0
 10
-645.0
 20
2899.8944302370851
 30
0.0
  0
ENDBLK
  5
FFBBDAE469BBE0E8
  8
0
  0
BLOCK
  8
0
  2
*D6
 70
     1
 10
0.0
 20
0.0
 30
0.0
  3
*D6
  1

  0
LINE
  5
FFBBDAE469BC0F25
  8
0
  6
CONTINUOUS
 10
-507.7456633362026
 20
1850.0004132505901
 30
0.0
 11
-371.74566333620271
 21
1850.0004132505901
 31
0.0
  0
LINE
  5
FFBBDAE469BC0F26
  8
0
  6
CONTINUOUS
 10
-507.74566333620248
 20
2050.000413250591
 30
0.0
 11
-371.7456633362026
 21
2050.000413250591
 31
0.0
  0
LINE
  5
FFBBDAE469BC0F27
  8
0
  6
CONTINUOUS
 10
-407.7456633362026
 20
1886.000413250591
 30
0.0
 11
-407.74566333620248
 21
2014.000413250591
 31
0.0
  0
INSERT
  5
FFBBDAE469BC0F28
  8
0
  6
CONTINUOUS
  2
*U33
 10
0.0
 20
0.0
 30
0.0
  0
SOLID
  5
FFBBDAE469BC0F29
  8
0
  6
CONTINUOUS
 10
-413.7456633362026
 20
1886.000413250591
 30
0.0
 11
-401.7456633362026
 21
1886.000413250591
 31
0.0
 12
-407.7456633362026
 22
1850.0004132505901
 32
0.0
 13
-407.7456633362026
 23
1850.0004132505901
 33
0.0
  0
SOLID
  5
FFBBDAE469BC0F2A
  8
0
  6
CONTINUOUS
 10
-413.7456633362026
 20
2014.000413250591
 30
0.0
 11
-401.7456633362026
 21
2014.000413250591
 31
0.0
 12
-407.74566333620248
 22
2050.000413250591
 32
0.0
 13
-407.74566333620248
 23
2050.000413250591
 33
0.0
  0
POINT
  5
FFBBDAE469BC0F2B
  8
DEFPOINTS
  6
CONTINUOUS
 62
     0
 10
-632.84021277907675
 20
1850.000413250591
 30
0.0
  0
POINT
  5
FFBBDAE469BC0F2C
  8
DEFPOINTS
  6
CONTINUOUS
 62
     0
 10
-632.84021277907675
 20
2050.000413250591
 30
0.0
  0
POINT
  5
FFBBDAE469BC0F2D
  8
DEFPOINTS
  6
CONTINUOUS
 62
     0
 10
-407.74566333620248
 20
2050.000413250591
 30
0.0
  0
ENDBLK
  5
FFBBDAE469BBE0F3
  8
0
  0
BLOCK
  8
0
  2
*D7
 70
     1
 10
0.0
 20
0.0
 30
0.0
  3
*D7
  1

  0
LINE
  5
FFBBDAE469BC0F1C
  8
0
  6
CONTINUOUS
 10
-1234.999999999998
 20
698.20522022016576
 30
0.0
 11
-1234.999999999998
 21
749.79588503407456
 31
0.0
  0
LINE
  5
FFBBDAE469BC0F1D
  8
0
  6
CONTINUOUS
 10
-1220.500135537543
 20
699.69854537433832
 30
0.0
 11
-1220.500135537543
 21
749.79588503407456
 31
0.0
  0
LINE
  5
FFBBDAE469BC0F1E
  8
0
  6
CONTINUOUS
 10
-1270.999999999998
 20
713.79588503407456
 30
0.0
 11
-1306.999999999998
 21
713.79588503407456
 31
0.0
  0
LINE
  5
FFBBDAE469BC0F1F
  8
0
  6
CONTINUOUS
 10
-1184.500135537543
 20
713.79588503407456
 30
0.0
 11
-1148.500135537543
 21
713.79588503407456
 31
0.0
  0
SOLID
  5
FFBBDAE469BC0F20
  8
0
  6
CONTINUOUS
 10
-1270.999999999998
 20
719.79588503407467
 30
0.0
 11
-1270.999999999998
 21
707.79588503407456
 31
0.0
 12
-1234.999999999998
 22
713.79588503407456
 32
0.0
 13
-1234.999999999998
 23
713.79588503407456
 33
0.0
  0
SOLID
  5
FFBBDAE469BC0F21
  8
0
  6
CONTINUOUS
 10
-1184.500135537543
 20
719.79588503407467
 30
0.0
 11
-1184.500135537543
 21
707.79588503407456
 31
0.0
 12
-1220.500135537543
 22
713.79588503407456
 32
0.0
 13
-1220.500135537543
 23
713.79588503407456
 33
0.0
  0
POINT
  5
FFBBDAE469BC0F22
  8
DEFPOINTS
  6
CONTINUOUS
 62
     0
 10
-1234.999999999998
 20
662.20522022016576
 30
0.0
  0
POINT
  5
FFBBDAE469BC0F23
  8
DEFPOINTS
  6
CONTINUOUS
 62
     0
 10
-1220.500135537543
 20
663.69854537433832
 30
0.0
  0
POINT
  5
FFBBDAE469BC0F24
  8
DEFPOINTS
  6
CONTINUOUS
 62
     0
 10
-1220.500135537543
 20
713.79588503407456
 30
0.0
  0
ENDBLK
  5
FFBBDAE469BBE117
  8
0
  0
BLOCK
  8
0
  2
*D8
 70
     1
 10
0.0
 20
0.0
 30
0.0
  3
*D8
  1

  0
LINE
  5
FFBBDAE469BC0F13
  8
0
  6
CONTINUOUS
 10
1316.7131822394981
 20
850.0004132505926
 30
0.0
 11
1452.7131822394981
 21
850.0004132505926
 31
0.0
  0
LINE
  5
FFBBDAE469BC0F14
  8
0
  6
CONTINUOUS
 10
1316.7131822394981
 20
1650.0004132505931
 30
0.0
 11
1452.713182239499
 21
1650.0004132505931
 31
0.0
  0
LINE
  5
FFBBDAE469BC0F15
  8
0
  6
CONTINUOUS
 10
1416.7131822394981
 20
886.0004132505926
 30
0.0
 11
1416.7131822394981
 21
1614.0004132505931
 31
0.0
  0
SOLID
  5
FFBBDAE469BC0F16
  8
0
  6
CONTINUOUS
 10
1410.7131822394981
 20
886.0004132505926
 30
0.0
 11
1422.7131822394981
 21
886.0004132505926
 31
0.0
 12
1416.7131822394981
 22
850.0004132505926
 32
0.0
 13
1416.7131822394981
 23
850.0004132505926
 33
0.0
  0
SOLID
  5
FFBBDAE469BC0F17
  8
0
  6
CONTINUOUS
 10
1410.7131822394981
 20
1614.0004132505931
 30
0.0
 11
1422.7131822394981
 21
1614.0004132505931
 31
0.0
 12
1416.7131822394981
 22
1650.0004132505931
 32
0.0
 13
1416.7131822394981
 23
1650.0004132505931
 33
0.0
  0
INSERT
  5
FFBBDAE469BC0F18
  8
0
  6
CONTINUOUS
  2
*U32
 10
0.0
 20
0.0
 30
0.0
  0
POINT
  5
FFBBDAE469BC0F19
  8
DEFPOINTS
  6
CONTINUOUS
 62
     0
 10
1213.994449357444
 20
850.0004132505926
 30
0.0
  0
POINT
  5
FFBBDAE469BC0F1A
  8
DEFPOINTS
  6
CONTINUOUS
 62
     0
 10
1227.163030664138
 20
1650.0004132505931
 30
0.0
  0
POINT
  5
FFBBDAE469BC0F1B
  8
DEFPOINTS
  6
CONTINUOUS
 62
     0
 10
1416.7131822394981
 20
1650.0004132505931
 30
0.0
  0
ENDBLK
  5
FFBBDAE469BBE505
  8
0
  0
BLOCK
  8
0
  2
*D9
 70
     1
 10
0.0
 20
0.0
 30
0.0
  3
*D9
  1

  0
LINE
  5
FFBBDAE469BC0F07
  8
0
  6
CONTINUOUS
 10
-778.58114617377487
 20
49.999999999999957
 30
0.0
 11
-721.20529983435415
 21
49.99999999999995
 31
0.0
  0
LINE
  5
FFBBDAE469BC0F08
  8
0
  6
CONTINUOUS
 10
-778.58114617377487
 20
0.0000000000000005
 30
0.0
 11
-721.20529983435415
 21
-0.0000000000000158
 31
0.0
  0
LINE
  5
FFBBDAE469BC0F09
  8
0
  6
CONTINUOUS
 10
-757.20529983435426
 20
85.999999999999972
 30
0.0
 11
-757.20529983435426
 21
121.9999999999999
 31
0.0
  0
LINE
  5
FFBBDAE469BC0F0A
  8
0
  6
CONTINUOUS
 10
-757.20529983435426
 20
-36.0
 30
0.0
 11
-757.20529983435426
 21
-72.0
 31
0.0
  0
LINE
  5
FFBBDAE469BC0F0B
  8
0
  6
CONTINUOUS
 10
-757.20529983435415
 20
617.25443383356105
 30
0.0
 11
-757.20529983435426
 21
49.999999999999957
 31
0.0
  0
INSERT
  5
FFBBDAE469BC0F0C
  8
0
  6
CONTINUOUS
  2
*U31
 10
0.0
 20
0.0
 30
0.0
  0
LINE
  5
FFBBDAE469BC0F0D
  8
0
  6
CONTINUOUS
 10
-757.20529983435426
 20
49.999999999999957
 30
0.0
 11
-757.20529983435426
 21
-0.0000000000000056
 31
0.0
  0
SOLID
  5
FFBBDAE469BC0F0E
  8
0
  6
CONTINUOUS
 10
-763.20529983435415
 20
85.999999999999972
 30
0.0
 11
-751.20529983435415
 21
85.999999999999972
 31
0.0
 12
-757.20529983435426
 22
49.999999999999957
 32
0.0
 13
-757.20529983435426
 23
49.999999999999957
 33
0.0
  0
SOLID
  5
FFBBDAE469BC0F0F
  8
0
  6
CONTINUOUS
 10
-763.20529983435415
 20
-36.0
 30
0.0
 11
-751.20529983435415
 21
-36.000000000000007
 31
0.0
 12
-757.20529983435426
 22
-0.0000000000000056
 32
0.0
 13
-757.20529983435426
 23
-0.0000000000000056
 33
0.0
  0
POINT
  5
FFBBDAE469BC0F10
  8
DEFPOINTS
  6
CONTINUOUS
 62
     0
 10
-814.58114617377475
 20
49.999999999999972
 30
0.0
  0
POINT
  5
FFBBDAE469BC0F11
  8
DEFPOINTS
  6
CONTINUOUS
 62
     0
 10
-814.58114617377475
 20
0.0000000000000107
 30
0.0
  0
POINT
  5
FFBBDAE469BC0F12
  8
DEFPOINTS
  6
CONTINUOUS
 62
     0
 10
-757.20529983435426
 20
-0.0000000000000056
 30
0.0
  0
ENDBLK
  5
FFBBDAE469BBE714
  8
0
  0
BLOCK
  8
0
  2
*D10
 70
     1
 10
0.0
 20
0.0
 30
0.0
  3
*D10
  1

  0
LINE
  5
FFBBDAE469BC0EFE
  8
0
  6
CONTINUOUS
 10
555.0
 20
2799.8944302370851
 30
0.0
 11
555.0
 21
2935.8944302370851
 31
0.0
  0
LINE
  5
FFBBDAE469BC0EFF
  8
0
  6
CONTINUOUS
 10
-44.999999999999979
 20
2799.8944302370851
 30
0.0
 11
-44.999999999999972
 21
2935.8944302370851
 31
0.0
  0
LINE
  5
FFBBDAE469BC0F00
  8
0
  6
CONTINUOUS
 10
519.0
 20
2899.8944302370851
 30
0.0
 11
-8.9999999999999716
 21
2899.8944302370851
 31
0.0
  0
SOLID
  5
FFBBDAE469BC0F01
  8
0
  6
CONTINUOUS
 10
519.0
 20
2905.8944302370851
 30
0.0
 11
519.0
 21
2893.8944302370842
 31
0.0
 12
555.0
 22
2899.8944302370851
 32
0.0
 13
555.0
 23
2899.8944302370851
 33
0.0
  0
SOLID
  5
FFBBDAE469BC0F02
  8
0
  6
CONTINUOUS
 10
-8.9999999999999716
 20
2905.8944302370851
 30
0.0
 11
-8.9999999999999716
 21
2893.8944302370842
 31
0.0
 12
-44.999999999999972
 22
2899.8944302370851
 32
0.0
 13
-44.999999999999972
 23
2899.8944302370851
 33
0.0
  0
INSERT
  5
FFBBDAE469BC0F03
  8
0
  6
CONTINUOUS
  2
*U30
 10
0.0
 20
0.0
 30
0.0
  0
POINT
  5
FFBBDAE469BC0F04
  8
DEFPOINTS
  6
CONTINUOUS
 62
     0
 10
555.0
 20
2450.0004132505928
 30
0.0
  0
POINT
  5
FFBBDAE469BC0F05
  8
DEFPOINTS
  6
CONTINUOUS
 62
     0
 10
-45.0
 20
2450.0004132505928
 30
0.0
  0
POINT
  5
FFBBDAE469BC0F06
  8
DEFPOINTS
  6
CONTINUOUS
 62
     0
 10
-44.999999999999972
 20
2899.8944302370851
 30
0.0
  0
ENDBLK
  5
FFBBDAE469BBF171
  8
0
  0
BLOCK
  8
0
  2
*D11
 70
     1
 10
0.0
 20
0.0
 30
0.0
  3
*D11
  1

  0
LINE
  5
FFBBDAE469BC0EF5
  8
0
  6
CONTINUOUS
 10
1155.0
 20
2799.8944302370851
 30
0.0
 11
1155.0
 21
2935.8944302370851
 31
0.0
  0
LINE
  5
FFBBDAE469BC0EF6
  8
0
  6
CONTINUOUS
 10
555.0
 20
2799.8944302370851
 30
0.0
 11
555.0
 21
2935.8944302370851
 31
0.0
  0
LINE
  5
FFBBDAE469BC0EF7
  8
0
  6
CONTINUOUS
 10
1119.0
 20
2899.8944302370851
 30
0.0
 11
591.0
 21
2899.8944302370851
 31
0.0
  0
SOLID
  5
FFBBDAE469BC0EF8
  8
0
  6
CONTINUOUS
 10
1119.0
 20
2905.8944302370851
 30
0.0
 11
1119.0
 21
2893.8944302370842
 31
0.0
 12
1155.0
 22
2899.8944302370851
 32
0.0
 13
1155.0
 23
2899.8944302370851
 33
0.0
  0
SOLID
  5
FFBBDAE469BC0EF9
  8
0
  6
CONTINUOUS
 10
591.0
 20
2905.8944302370851
 30
0.0
 11
591.0
 21
2893.8944302370842
 31
0.0
 12
555.0
 22
2899.8944302370851
 32
0.0
 13
555.0
 23
2899.8944302370851
 33
0.0
  0
INSERT
  5
FFBBDAE469BC0EFA
  8
0
  6
CONTINUOUS
  2
*U29
 10
0.0
 20
0.0
 30
0.0
  0
POINT
  5
FFBBDAE469BC0EFB
  8
DEFPOINTS
  6
CONTINUOUS
 62
     0
 10
1155.0
 20
2450.0004132505928
 30
0.0
  0
POINT
  5
FFBBDAE469BC0EFC
  8
DEFPOINTS
  6
CONTINUOUS
 62
     0
 10
555.0
 20
2450.0004132505928
 30
0.0
  0
POINT
  5
FFBBDAE469BC0EFD
  8
DEFPOINTS
  6
CONTINUOUS
 62
     0
 10
555.0
 20
2899.8944302370851
 30
0.0
  0
ENDBLK
  5
FFBBDAE469BBF187
  8
0
  0
BLOCK
  8
0
  2
*D12
 70
     1
 10
0.0
 20
0.0
 30
0.0
  3
*D12
  1

  0
LINE
  5
FFBBDAE469BC0EEB
  8
0
  6
CONTINUOUS
 10
-1116.72568615975
 20
2375.000413250591
 30
0.0
 11
-980.72568615974967
 21
2375.000413250591
 31
0.0
  0
LINE
  5
FFBBDAE469BC0EEC
  8
0
  6
CONTINUOUS
 10
-1116.72568615975
 20
2450.0004132505928
 30
0.0
 11
-980.72568615974967
 21
2450.0004132505928
 31
0.0
  0
LINE
  5
FFBBDAE469BC0EED
  8
0
  6
CONTINUOUS
 10
-1016.72568615975
 20
2339.000413250591
 30
0.0
 11
-1016.72568615975
 21
2303.000413250591
 31
0.0
  0
LINE
  5
FFBBDAE469BC0EEE
  8
0
  6
CONTINUOUS
 10
-1016.72568615975
 20
2486.0004132505928
 30
0.0
 11
-1016.72568615975
 21
2522.0004132505928
 31
0.0
  0
INSERT
  5
FFBBDAE469BC0EEF
  8
0
  6
CONTINUOUS
  2
*U28
 10
0.0
 20
0.0
 30
0.0
  0
SOLID
  5
FFBBDAE469BC0EF0
  8
0
  6
CONTINUOUS
 10
-1022.72568615975
 20
2339.000413250591
 30
0.0
 11
-1010.72568615975
 21
2339.000413250591
 31
0.0
 12
-1016.72568615975
 22
2375.000413250591
 32
0.0
 13
-1016.72568615975
 23
2375.000413250591
 33
0.0
  0
SOLID
  5
FFBBDAE469BC0EF1
  8
0
  6
CONTINUOUS
 10
-1022.72568615975
 20
2486.0004132505928
 30
0.0
 11
-1010.72568615975
 21
2486.0004132505928
 31
0.0
 12
-1016.72568615975
 22
2450.0004132505928
 32
0.0
 13
-1016.72568615975
 23
2450.0004132505928
 33
0.0
  0
POINT
  5
FFBBDAE469BC0EF2
  8
DEFPOINTS
  6
CONTINUOUS
 62
     0
 10
-1208.3402127790771
 20
2375.000413250591
 30
0.0
  0
POINT
  5
FFBBDAE469BC0EF3
  8
DEFPOINTS
  6
CONTINUOUS
 62
     0
 10
-1175.0000000000009
 20
2450.0004132505928
 30
0.0
  0
POINT
  5
FFBBDAE469BC0EF4
  8
DEFPOINTS
  6
CONTINUOUS
 62
     0
 10
-1016.72568615975
 20
2450.0004132505928
 30
0.0
  0
ENDBLK
  5
FFBBDAE469BBF28E
  8
0
  0
BLOCK
  8
0
  2
_ARCHTICK
 70
     0
 10
0.0
 20
0.0
 30
0.0
  3
_ARCHTICK
  1

  0
POLYLINE
  5
FFBBDAE469BC03E0
  8
0
  6
BYBLOCK
 62
     0
 66
     1
 10
0.0
 20
0.0
 30
0.0
 40
0.15
 41
0.15
  0
VERTEX
  5
FFBBDAE469BC10FC
  8
0
  6
BYBLOCK
 62
     0
 10
-0.5
 20
-0.5
 30
0.0
  0
VERTEX
  5
FFBBDAE469BC10FD
  8
0
  6
BYBLOCK
 62
     0
 10
0.5
 20
0.5
 30
0.0
  0
SEQEND
  5
FFBBDAE469BC10FE
  8
0
  6
BYBLOCK
 62
     0
  0
ENDBLK
  5
FFBBDAE469BC03E2
  8
0
  0
BLOCK
  8
0
  2
*U17
 70
     1
 10
0.0
 20
0.0
 30
0.0
  3
*U17
  1

  0
TEXT
  5
FFBBDAE469BC10A9
  8
0
  6
CONTINUOUS
 10
-1102.0395634379261
 20
2828.6608007938671
 30
0.0
 40
40.0
  1
Stud centres
  7
2_5
  0
ENDBLK
  5
FFBBDAE469BC10AB
  8
0
  0
BLOCK
  8
0
  2
*U18
 70
     1
 10
0.0
 20
0.0
 30
0.0
  3
*U18
  1

  0
TEXT
  5
FFBBDAE469BC10AD
  8
0
  6
CONTINUOUS
 10
-1652.3509389531389
 20
754.13490063316021
 30
0.0
 40
40.0
  1
Edge distance
  7
2_5
  0
ENDBLK
  5
FFBBDAE469BC10AF
  8
0
  0
BLOCK
  8
0
  2
*U19
 70
     1
 10
0.0
 20
0.0
 30
0.0
  3
*U19
  1

  0
TEXT
  5
FFBBDAE469BC10B1
  8
0
  6
CONTINUOUS
 10
1479.26954869373
 20
125.7131854425606
 30
0.0
 40
40.0
  1
Maximum nog spacing
 50
90.0
  7
2_5
  0
ENDBLK
  5
FFBBDAE469BC10B3
  8
0
  0
BLOCK
  8
0
  2
*U20
 70
     1
 10
0.0
 20
0.0
 30
0.0
  3
*U20
  1

  0
TEXT
  5
FFBBDAE469BC10B5
  8
0
  6
CONTINUOUS
 10
-1645.626743878699
 20
-179.82584404321031
 30
0.0
 40
40.0
  1
*
  7
2_5
  0
ENDBLK
  5
FFBBDAE469BC10B7
  8
0
  0
BLOCK
  8
0
  2
*U21
 70
     1
 10
0.0
 20
0.0
 30
0.0
  3
*U21
  1

  0
TEXT
  5
FFBBDAE469BC10B9
  8
0
  6
CONTINUOUS
 10
-1652.168509146132
 20
-242.65596724550781
 30
0.0
 40
40.0
  1
Follow edge
  7
2_5
  0
TEXT
  5
FFBBDAE469BC10BA
  8
0
  6
CONTINUOUS
 10
-1649.494566444904
 20
-309.32263391217452
 30
0.0
 40
40.0
  1
distance as per
  7
2_5
  0
TEXT
  5
FFBBDAE469BC10BB
  8
0
  6
CONTINUOUS
 10
-1652.168509146132
 20
-376.1530113564674
 30
0.0
 40
40.0
  1
Figure 19
  7
2_5
  0
ENDBLK
  5
FFBBDAE469BC10BD
  8
0
  0
BLOCK
  8
0
  2
*U22
 70
     1
 10
0.0
 20
0.0
 30
0.0
  3
*U22
  1

  0
TEXT
  5
FFBBDAE469BC10BF
  8
DEFPOINTS
  6
CONTINUOUS
 10
-1585.445742115995
 20
-1100.5610741099219
 30
0.0
 40
40.0
  1
Panel Fixing Setout
  7
5
  0
ENDBLK
  5
FFBBDAE469BC10C1
  8
0
  0
BLOCK
  8
0
  2
*U23
 70
     1
 10
0.0
 20
0.0
 30
0.0
  3
*U23
  1

  0
TEXT
  5
FFBBDAE469BC10C3
  8
0
  6
CONTINUOUS
 10
-1645.626743878699
 20
817.38342015294688
 30
0.0
 40
40.0
  1
*
  7
2_5
  0
ENDBLK
  5
FFBBDAE469BC10C5
  8
0
  0
BLOCK
  8
0
  2
*U24
 70
     1
 10
0.0
 20
0.0
 30
0.0
  3
*U24
  1

  0
SOLID
  5
FFBBDAE469BC10CC
  8
0
  6
CONTINUOUS
 10
546.61072426925671
 20
29.480708724504161
 30
0.0
 11
555.00000000000273
 21
65.000000000000014
 31
0.0
 12
558.58396877648477
 22
28.679824232126862
 32
0.0
 13
558.58396877648477
 23
28.679824232126862
 33
0.0
  0
POLYLINE
  8
0
  5
7FFFFFFF
  66
     1
 10
0.000000
 20
0.000000
 30
0.000000
  70
     8
  0
VERTEX
  8
0
  5
80000000
 10
552.597
 20
29.0803
 30
0.000000
  70
    32
  0
VERTEX
  8
0
  5
80000001
 10
552.409
 20
25.8937
 30
0.000000
  70
    32
  0
VERTEX
  8
0
  5
80000002
 10
552.266
 20
22.6585
 30
0.000000
  70
    32
  0
VERTEX
  8
0
  5
80000003
 10
552.167
 20
19.3758
 30
0.000000
  70
    32
  0
VERTEX
  8
0
  5
80000004
 10
552.112
 20
16.0469
 30
0.000000
  70
    32
  0
VERTEX
  8
0
  5
80000005
 10
552.099
 20
12.6729
 30
0.000000
  70
    32
  0
VERTEX
  8
0
  5
80000006
 10
552.127
 20
9.25499
 30
0.000000
  70
    32
  0
VERTEX
  8
0
  5
80000007
 10
552.195
 20
5.79434
 30
0.000000
  70
    32
  0
VERTEX
  8
0
  5
80000008
 10
552.302
 20
2.29213
 30
0.000000
  70
    32
  0
VERTEX
  8
0
  5
80000009
 10
552.446
 20
-1.25046
 30
0.000000
  70
    32
  0
VERTEX
  8
0
  5
8000000A
 10
552.628
 20
-4.83226
 30
0.000000
  70
    32
  0
VERTEX
  8
0
  5
8000000B
 10
552.845
 20
-8.45210
 30
0.000000
  70
    32
  0
VERTEX
  8
0
  5
8000000C
 10
553.096
 20
-12.1088
 30
0.000000
  70
    32
  0
VERTEX
  8
0
  5
8000000D
 10
553.381
 20
-15.8012
 30
0.000000
  70
    32
  0
VERTEX
  8
0
  5
8000000E
 10
553.698
 20
-19.5280
 30
0.000000
  70
    32
  0
VERTEX
  8
0
  5
8000000F
 10
554.046
 20
-23.2882
 30
0.000000
  70
    32
  0
VERTEX
  8
0
  5
80000010
 10
554.424
 20
-27.0806
 30
0.000000
  70
    32
  0
VERTEX
  8
0
  5
80000011
 10
554.831
 20
-30.9039
 30
0.000000
  70
    32
  0
VERTEX
  8
0
  5
80000012
 10
555.266
 20
-34.7570
 30
0.000000
  70
    32
  0
VERTEX
  8
0
  5
80000013
 10
555.728
 20
-38.6387
 30
0.000000
  70
    32
  0
VERTEX
  8
0
  5
80000014
 10
556.215
 20
-42.5479
 30
0.000000
  70
    32
  0
VERTEX
  8
0
  5
80000015
 10
556.727
 20
-46.4834
 30
0.000000
  70
    32
  0
VERTEX
  8
0
  5
80000016
 10
557.263
 20
-50.4439
 30
0.000000
  70
    32
  0
VERTEX
  8
0
  5
80000017
 10
557.821
 20
-54.4284
 30
0.000000
  70
    32
  0
VERTEX
  8
0
  5
80000018
 10
558.400
 20
-58.4356
 30
0.000000
  70
    32
  0
VERTEX
  8
0
  5
80000019
 10
558.999
 20
-62.4644
 30
0.000000
  70
    32
  0
VERTEX
  8
0
  5
8000001A
 10
559.618
 20
-66.5135
 30
0.000000
  70
    32
  0
VERTEX
  8
0
  5
8000001B
 10
560.254
 20
-70.5819
 30
0.000000
  70
    32
  0
VERTEX
  8
0
  5
8000001C
 10
560.907
 20
-74.6683
 30
0.000000
  70
    32
  0
VERTEX
  8
0
  5
8000001D
 10
561.576
 20
-78.7715
 30
0.000000
  70
    32
  0
VERTEX
  8
0
  5
8000001E
 10
562.260
 20
-82.8905
 30
0.000000
  70
    32
  0
VERTEX
  8
0
  5
8000001F
 10
562.957
 20
-87.0239
 30
0.000000
  70
    32
  0
VERTEX
  8
0
  5
80000020
 10
563.667
 20
-91.1707
 30
0.000000
  70
    32
  0
VERTEX
  8
0
  5
80000021
 10
564.388
 20
-95.3297
 30
0.000000
  70
    32
  0
VERTEX
  8
0
  5
80000022
 10
565.119
 20
-99.4996
 30
0.000000
  70
    32
  0
VERTEX
  8
0
  5
80000023
 10
565.860
 20
-103.679
 30
0.000000
  70
    32
  0
VERTEX
  8
0
  5
80000024
 10
566.609
 20
-107.868
 30
0.000000
  70
    32
  0
VERTEX
  8
0
  5
80000025
 10
567.364
 20
-112.063
 30
0.000000
  70
    32
  0
VERTEX
  8
0
  5
80000026
 10
568.125
 20
-116.265
 30
0.000000
  70
    32
  0
VERTEX
  8
0
  5
80000027
 10
568.892
 20
-120.473
 30
0.000000
  70
    32
  0
VERTEX
  8
0
  5
80000028
 10
569.662
 20
-124.684
 30
0.000000
  70
    32
  0
VERTEX
  8
0
  5
80000029
 10
570.434
 20
-128.898
 30
0.000000
  70
    32
  0
VERTEX
  8
0
  5
8000002A
 10
571.208
 20
-133.113
 30
0.000000
  70
    32
  0
VERTEX
  8
0
  5
8000002B
 10
571.982
 20
-137.329
 30
0.000000
  70
    32
  0
VERTEX
  8
0
  5
8000002C
 10
572.756
 20
-141.544
 30
0.000000
  70
    32
  0
VERTEX
  8
0
  5
8000002D
 10
573.527
 20
-145.757
 30
0.000000
  70
    32
  0
VERTEX
  8
0
  5
8000002E
 10
574.296
 20
-149.967
 30
0.000000
  70
    32
  0
VERTEX
  8
0
  5
8000002F
 10
575.061
 20
-154.172
 30
0.000000
  70
    32
  0
VERTEX
  8
0
  5
80000030
 10
575.820
 20
-158.372
 30
0.000000
  70
    32
  0
VERTEX
  8
0
  5
80000031
 10
576.574
 20
-162.566
 30
0.000000
  70
    32
  0
VERTEX
  8
0
  5
80000032
 10
577.320
 20
-166.751
 30
0.000000
  70
    32
  0
VERTEX
  8
0
  5
80000033
 10
578.057
 20
-170.928
 30
0.000000
  70
    32
  0
VERTEX
  8
0
  5
80000034
 10
578.785
 20
-175.094
 30
0.000000
  70
    32
  0
VERTEX
  8
0
  5
80000035
 10
579.503
 20
-179.249
 30
0.000000
  70
    32
  0
VERTEX
  8
0
  5
80000036
 10
580.209
 20
-183.392
 30
0.000000
  70
    32
  0
VERTEX
  8
0
  5
80000037
 10
580.901
 20
-187.521
 30
0.000000
  70
    32
  0
VERTEX
  8
0
  5
80000038
 10
581.580
 20
-191.634
 30
0.000000
  70
    32
  0
VERTEX
  8
0
  5
80000039
 10
582.244
 20
-195.732
 30
0.000000
  70
    32
  0
VERTEX
  8
0
  5
8000003A
 10
582.892
 20
-199.813
 30
0.000000
  70
    32
  0
VERTEX
  8
0
  5
8000003B
 10
583.522
 20
-203.875
 30
0.000000
  70
    32
  0
VERTEX
  8
0
  5
8000003C
 10
584.135
 20
-207.917
 30
0.000000
  70
    32
  0
VERTEX
  8
0
  5
8000003D
 10
584.727
 20
-211.939
 30
0.000000
  70
    32
  0
VERTEX
  8
0
  5
8000003E
 10
585.300
 20
-215.939
 30
0.000000
  70
    32
  0
VERTEX
  8
0
  5
8000003F
 10
585.850
 20
-219.915
 30
0.000000
  70
    32
  0
VERTEX
  8
0
  5
80000040
 10
586.378
 20
-223.868
 30
0.000000
  70
    32
  0
VERTEX
  8
0
  5
80000041
 10
586.882
 20
-227.795
 30
0.000000
  70
    32
  0
VERTEX
  8
0
  5
80000042
 10
587.361
 20
-231.695
 30
0.000000
  70
    32
  0
VERTEX
  8
0
  5
80000043
 10
587.814
 20
-235.567
 30
0.000000
  70
    32
  0
VERTEX
  8
0
  5
80000044
 10
588.240
 20
-239.410
 30
0.000000
  70
    32
  0
VERTEX
  8
0
  5
80000045
 10
588.637
 20
-243.223
 30
0.000000
  70
    32
  0
VERTEX
  8
0
  5
80000046
 10
589.006
 20
-247.005
 30
0.000000
  70
    32
  0
VERTEX
  8
0
  5
80000047
 10
589.344
 20
-250.754
 30
0.000000
  70
    32
  0
VERTEX
  8
0
  5
80000048
 10
589.650
 20
-254.470
 30
0.000000
  70
    32
  0
VERTEX
  8
0
  5
80000049
 10
589.924
 20
-258.151
 30
0.000000
  70
    32
  0
VERTEX
  8
0
  5
8000004A
 10
590.164
 20
-261.795
 30
0.000000
  70
    32
  0
VERTEX
  8
0
  5
8000004B
 10
590.369
 20
-265.402
 30
0.000000
  70
    32
  0
VERTEX
  8
0
  5
8000004C
 10
590.538
 20
-268.971
 30
0.000000
  70
    32
  0
VERTEX
  8
0
  5
8000004D
 10
590.670
 20
-272.501
 30
0.000000
  70
    32
  0
VERTEX
  8
0
  5
8000004E
 10
590.764
 20
-275.989
 30
0.000000
  70
    32
  0
VERTEX
  8
0
  5
8000004F
 10
590.819
 20
-279.436
 30
0.000000
  70
    32
  0
VERTEX
  8
0
  5
80000050
 10
590.833
 20
-282.839
 30
0.000000
  70
    32
  0
VERTEX
  8
0
  5
80000051
 10
590.806
 20
-286.198
 30
0.000000
  70
    32
  0
VERTEX
  8
0
  5
80000052
 10
590.736
 20
-289.512
 30
0.000000
  70
    32
  0
VERTEX
  8
0
  5
80000053
 10
590.623
 20
-292.779
 30
0.000000
  70
    32
  0
VERTEX
  8
0
  5
80000054
 10
590.465
 20
-295.998
 30
0.000000
  70
    32
  0
VERTEX
  8
0
  5
80000055
 10
590.262
 20
-299.168
 30
0.000000
  70
    32
  0
VERTEX
  8
0
  5
80000056
 10
590.011
 20
-302.288
 30
0.000000
  70
    32
  0
VERTEX
  8
0
  5
80000057
 10
589.712
 20
-305.356
 30
0.000000
  70
    32
  0
VERTEX
  8
0
  5
80000058
 10
589.364
 20
-308.372
 30
0.000000
  70
    32
  0
VERTEX
  8
0
  5
80000059
 10
588.966
 20
-311.335
 30
0.000000
  70
    32
  0
VERTEX
  8
0
  5
8000005A
 10
588.516
 20
-314.242
 30
0.000000
  70
    32
  0
VERTEX
  8
0
  5
8000005B
 10
588.014
 20
-317.094
 30
0.000000
  70
    32
  0
VERTEX
  8
0
  5
8000005C
 10
587.459
 20
-319.888
 30
0.000000
  70
    32
  0
VERTEX
  8
0
  5
8000005D
 10
586.849
 20
-322.623
 30
0.000000
  70
    32
  0
VERTEX
  8
0
  5
8000005E
 10
586.183
 20
-325.300
 30
0.000000
  70
    32
  0
VERTEX
  8
0
  5
8000005F
 10
585.460
 20
-327.915
 30
0.000000
  70
    32
  0
VERTEX
  8
0
  5
80000060
 10
584.680
 20
-330.468
 30
0.000000
  70
    32
  0
VERTEX
  8
0
  5
80000061
 10
583.840
 20
-332.958
 30
0.000000
  70
    32
  0
VERTEX
  8
0
  5
80000062
 10
582.940
 20
-335.384
 30
0.000000
  70
    32
  0
VERTEX
  8
0
  5
80000063
 10
581.979
 20
-337.745
 30
0.000000
  70
    32
  0
VERTEX
  8
0
  5
80000064
 10
580.956
 20
-340.039
 30
0.000000
  70
    32
  0
VERTEX
  8
0
  5
80000065
 10
579.869
 20
-342.265
 30
0.000000
  70
    32
  0
VERTEX
  8
0
  5
80000066
 10
578.717
 20
-344.422
 30
0.000000
  70
    32
  0
VERTEX
  8
0
  5
80000067
 10
577.500
 20
-346.509
 30
0.000000
  70
    32
  0
VERTEX
  8
0
  5
80000068
 10
576.216
 20
-348.524
 30
0.000000
  70
    32
  0
VERTEX
  8
0
  5
80000069
 10
574.865
 20
-350.467
 30
0.000000
  70
    32
  0
VERTEX
  8
0
  5
8000006A
 10
573.444
 20
-352.336
 30
0.000000
  70
    32
  0
VERTEX
  8
0
  5
8000006B
 10
571.954
 20
-354.131
 30
0.000000
  70
    32
  0
VERTEX
  8
0
  5
8000006C
 10
570.392
 20
-355.849
 30
0.000000
  70
    32
  0
VERTEX
  8
0
  5
8000006D
 10
568.758
 20
-357.490
 30
0.000000
  70
    32
  0
VERTEX
  8
0
  5
8000006E
 10
567.050
 20
-359.052
 30
0.000000
  70
    32
  0
VERTEX
  8
0
  5
8000006F
 10
565.269
 20
-360.535
 30
0.000000
  70
    32
  0
VERTEX
  8
0
  5
80000070
 10
563.411
 20
-361.938
 30
0.000000
  70
    32
  0
VERTEX
  8
0
  5
80000071
 10
561.477
 20
-363.258
 30
0.000000
  70
    32
  0
VERTEX
  8
0
  5
80000072
 10
559.465
 20
-364.495
 30
0.000000
  70
    32
  0
VERTEX
  8
0
  5
80000073
 10
557.375
 20
-365.648
 30
0.000000
  70
    32
  0
VERTEX
  8
0
  5
80000074
 10
555.204
 20
-366.716
 30
0.000000
  70
    32
  0
VERTEX
  8
0
  5
80000075
 10
552.953
 20
-367.696
 30
0.000000
  70
    32
  0
VERTEX
  8
0
  5
80000076
 10
550.619
 20
-368.589
 30
0.000000
  70
    32
  0
VERTEX
  8
0
  5
80000077
 10
548.202
 20
-369.393
 30
0.000000
  70
    32
  0
VERTEX
  8
0
  5
80000078
 10
545.701
 20
-370.107
 30
0.000000
  70
    32
  0
VERTEX
  8
0
  5
80000079
 10
543.114
 20
-370.729
 30
0.000000
  70
    32
  0
VERTEX
  8
0
  5
8000007A
 10
540.441
 20
-371.259
 30
0.000000
  70
    32
  0
VERTEX
  8
0
  5
8000007B
 10
537.680
 20
-371.696
 30
0.000000
  70
    32
  0
VERTEX
  8
0
  5
8000007C
 10
534.830
 20
-372.037
 30
0.000000
  70
    32
  0
VERTEX
  8
0
  5
8000007D
 10
531.890
 20
-372.282
 30
0.000000
  70
    32
  0
VERTEX
  8
0
  5
8000007E
 10
528.860
 20
-372.430
 30
0.000000
  70
    32
  0
VERTEX
  8
0
  5
8000007F
 10
525.737
 20
-372.480
 30
0.000000
  70
    32
  0
SEQEND
  8
0
  5
80000080
  0
ENDBLK
  5
FFBBDAE469BC10CF
  8
0
  0
BLOCK
  8
0
  2
*U25
 70
     1
 10
0.0
 20
0.0
 30
0.0
  3
*U25
  1

  0
TEXT
  5
FFBBDAE469BC10D1
  8
0
  6
CONTINUOUS
 10
-197.46243832004311
 20
-353.90569990985068
 30
0.0
 40
40.0
  1
70 x 19mm  
  7
ARIAL
  0
TEXT
  5
FFBBDAE469BC10D2
  8
0
  6
CONTINUOUS
 10
109.9864020619487
 20
-353.24497548965968
 30
0.0
 40
40.0
  1
CLD
  7
ARIAL
  0
TEXT
  5
FFBBDAE469BC10D3
  8
0
  6
CONTINUOUS
 10
221.71152348077541
 20
-328.19097548965982
 30
0.0
 40
30.323999999999991
  1
®
  7
ARIAL
  0
TEXT
  5
FFBBDAE469BC10D4
  8
0
  6
CONTINUOUS
 10
221.7735780510346
 20
-338.29897548965982
 30
0.0
 40
30.323999999999991
  1

  7
ARIAL
  0
TEXT
  5
FFBBDAE469BC10D5
  8
0
  6
CONTINUOUS
 10
255.01414285321749
 20
-353.90569990985068
 30
0.0
 40
40.0
  1
 Structural
  7
ARIAL
  0
TEXT
  5
FFBBDAE469BC10D6
  8
0
  6
CONTINUOUS
 10
-234.42651198989299
 20
-420.61517421635369
 30
0.0
 40
40.0
  1
Cavity Battens at stud centres
  7
ARIAL
  0
ENDBLK
  5
FFBBDAE469BC10D8
  8
0
  0
BLOCK
  8
0
  2
*U26
 70
     1
 10
0.0
 20
0.0
 30
0.0
  3
*U26
  1

  0
SOLID
  5
FFBBDAE469BC10DA
  8
0
  6
CONTINUOUS
 10
704.73061051263755
 20
12.368406673546479
 30
0.0
 11
711.43974703447293
 21
48.243014505986601
 31
0.0
 12
716.72827448650105
 22
12.13163849524528
 32
0.0
 13
716.72827448650105
 23
12.13163849524528
 33
0.0
  0
POLYLINE
  8
0
  5
80000081
  66
     1
 10
0.000000
 20
0.000000
 30
0.000000
  70
     8
  0
VERTEX
  8
0
  5
80000082
 10
710.729
 20
12.2500
 30
0.000000
  70
    32
  0
VERTEX
  8
0
  5
80000083
 10
710.642
 20
9.05161
 30
0.000000
  70
    32
  0
VERTEX
  8
0
  5
80000084
 10
710.504
 20
5.80439
 30
0.000000
  70
    32
  0
VERTEX
  8
0
  5
80000085
 10
710.318
 20
2.50956
 30
0.000000
  70
    32
  0
VERTEX
  8
0
  5
80000086
 10
710.084
 20
-0.831703
 30
0.000000
  70
    32
  0
VERTEX
  8
0
  5
80000087
 10
709.804
 20
-4.21823
 30
0.000000
  70
    32
  0
VERTEX
  8
0
  5
80000088
 10
709.479
 20
-7.64882
 30
0.000000
  70
    32
  0
VERTEX
  8
0
  5
80000089
 10
709.111
 20
-11.1223
 30
0.000000
  70
    32
  0
VERTEX
  8
0
  5
8000008A
 10
708.700
 20
-14.6375
 30
0.000000
  70
    32
  0
VERTEX
  8
0
  5
8000008B
 10
708.248
 20
-18.1933
 30
0.000000
  70
    32
  0
VERTEX
  8
0
  5
8000008C
 10
707.755
 20
-21.7884
 30
0.000000
  70
    32
  0
VERTEX
  8
0
  5
8000008D
 10
707.224
 20
-25.4216
 30
0.000000
  70
    32
  0
VERTEX
  8
0
  5
8000008E
 10
706.655
 20
-29.0919
 30
0.000000
  70
    32
  0
VERTEX
  8
0
  5
8000008F
 10
706.049
 20
-32.7980
 30
0.000000
  70
    32
  0
VERTEX
  8
0
  5
80000090
 10
705.408
 20
-36.5387
 30
0.000000
  70
    32
  0
VERTEX
  8
0
  5
80000091
 10
704.733
 20
-40.3128
 30
0.000000
  70
    32
  0
VERTEX
  8
0
  5
80000092
 10
704.025
 20
-44.1192
 30
0.000000
  70
    32
  0
VERTEX
  8
0
  5
80000093
 10
703.285
 20
-47.9567
 30
0.000000
  70
    32
  0
VERTEX
  8
0
  5
80000094
 10
702.515
 20
-51.8241
 30
0.000000
  70
    32
  0
VERTEX
  8
0
  5
80000095
 10
701.715
 20
-55.7203
 30
0.000000
  70
    32
  0
VERTEX
  8
0
  5
80000096
 10
700.887
 20
-59.6440
 30
0.000000
  70
    32
  0
VERTEX
  8
0
  5
80000097
 10
700.033
 20
-63.5940
 30
0.000000
  70
    32
  0
VERTEX
  8
0
  5
80000098
 10
699.153
 20
-67.5693
 30
0.000000
  70
    32
  0
VERTEX
  8
0
  5
80000099
 10
698.248
 20
-71.5685
 30
0.000000
  70
    32
  0
VERTEX
  8
0
  5
8000009A
 10
697.320
 20
-75.5906
 30
0.000000
  70
    32
  0
VERTEX
  8
0
  5
8000009B
 10
696.370
 20
-79.6343
 30
0.000000
  70
    32
  0
VERTEX
  8
0
  5
8000009C
 10
695.399
 20
-83.6985
 30
0.000000
  70
    32
  0
VERTEX
  8
0
  5
8000009D
 10
694.408
 20
-87.7820
 30
0.000000
  70
    32
  0
VERTEX
  8
0
  5
8000009E
 10
693.399
 20
-91.8835
 30
0.000000
  70
    32
  0
VERTEX
  8
0
  5
8000009F
 10
692.373
 20
-96.0020
 30
0.000000
  70
    32
  0
VERTEX
  8
0
  5
800000A0
 10
691.331
 20
-100.136
 30
0.000000
  70
    32
  0
VERTEX
  8
0
  5
800000A1
 10
690.273
 20
-104.285
 30
0.000000
  70
    32
  0
VERTEX
  8
0
  5
800000A2
 10
689.203
 20
-108.447
 30
0.000000
  70
    32
  0
VERTEX
  8
0
  5
800000A3
 10
688.119
 20
-112.622
 30
0.000000
  70
    32
  0
VERTEX
  8
0
  5
800000A4
 10
687.025
 20
-116.807
 30
0.000000
  70
    32
  0
VERTEX
  8
0
  5
800000A5
 10
685.920
 20
-121.002
 30
0.000000
  70
    32
  0
VERTEX
  8
0
  5
800000A6
 10
684.807
 20
-125.206
 30
0.000000
  70
    32
  0
VERTEX
  8
0
  5
800000A7
 10
683.686
 20
-129.417
 30
0.000000
  70
    32
  0
VERTEX
  8
0
  5
800000A8
 10
682.558
 20
-133.635
 30
0.000000
  70
    32
  0
VERTEX
  8
0
  5
800000A9
 10
681.425
 20
-137.858
 30
0.000000
  70
    32
  0
VERTEX
  8
0
  5
800000AA
 10
680.289
 20
-142.085
 30
0.000000
  70
    32
  0
VERTEX
  8
0
  5
800000AB
 10
679.149
 20
-146.314
 30
0.000000
  70
    32
  0
VERTEX
  8
0
  5
800000AC
 10
678.008
 20
-150.545
 30
0.000000
  70
    32
  0
VERTEX
  8
0
  5
800000AD
 10
676.867
 20
-154.777
 30
0.000000
  70
    32
  0
VERTEX
  8
0
  5
800000AE
 10
675.726
 20
-159.007
 30
0.000000
  70
    32
  0
VERTEX
  8
0
  5
800000AF
 10
674.587
 20
-163.236
 30
0.000000
  70
    32
  0
VERTEX
  8
0
  5
800000B0
 10
673.452
 20
-167.461
 30
0.000000
  70
    32
  0
VERTEX
  8
0
  5
800000B1
 10
672.321
 20
-171.683
 30
0.000000
  70
    32
  0
VERTEX
  8
0
  5
800000B2
 10
671.195
 20
-175.898
 30
0.000000
  70
    32
  0
VERTEX
  8
0
  5
800000B3
 10
670.076
 20
-180.107
 30
0.000000
  70
    32
  0
VERTEX
  8
0
  5
800000B4
 10
668.966
 20
-184.308
 30
0.000000
  70
    32
  0
VERTEX
  8
0
  5
800000B5
 10
667.864
 20
-188.500
 30
0.000000
  70
    32
  0
VERTEX
  8
0
  5
800000B6
 10
666.773
 20
-192.682
 30
0.000000
  70
    32
  0
VERTEX
  8
0
  5
800000B7
 10
665.694
 20
-196.853
 30
0.000000
  70
    32
  0
VERTEX
  8
0
  5
800000B8
 10
664.628
 20
-201.011
 30
0.000000
  70
    32
  0
VERTEX
  8
0
  5
800000B9
 10
663.575
 20
-205.155
 30
0.000000
  70
    32
  0
VERTEX
  8
0
  5
800000BA
 10
662.538
 20
-209.284
 30
0.000000
  70
    32
  0
VERTEX
  8
0
  5
800000BB
 10
661.517
 20
-213.397
 30
0.000000
  70
    32
  0
VERTEX
  8
0
  5
800000BC
 10
660.514
 20
-217.492
 30
0.000000
  70
    32
  0
VERTEX
  8
0
  5
800000BD
 10
659.530
 20
-221.570
 30
0.000000
  70
    32
  0
VERTEX
  8
0
  5
800000BE
 10
658.566
 20
-225.627
 30
0.000000
  70
    32
  0
VERTEX
  8
0
  5
800000BF
 10
657.623
 20
-229.664
 30
0.000000
  70
    32
  0
VERTEX
  8
0
  5
800000C0
 10
656.703
 20
-233.678
 30
0.000000
  70
    32
  0
VERTEX
  8
0
  5
800000C1
 10
655.806
 20
-237.670
 30
0.000000
  70
    32
  0
VERTEX
  8
0
  5
800000C2
 10
654.934
 20
-241.637
 30
0.000000
  70
    32
  0
VERTEX
  8
0
  5
800000C3
 10
654.089
 20
-245.578
 30
0.000000
  70
    32
  0
VERTEX
  8
0
  5
800000C4
 10
653.270
 20
-249.493
 30
0.000000
  70
    32
  0
VERTEX
  8
0
  5
800000C5
 10
652.480
 20
-253.379
 30
0.000000
  70
    32
  0
VERTEX
  8
0
  5
800000C6
 10
651.720
 20
-257.237
 30
0.000000
  70
    32
  0
VERTEX
  8
0
  5
800000C7
 10
650.991
 20
-261.064
 30
0.000000
  70
    32
  0
VERTEX
  8
0
  5
800000C8
 10
650.294
 20
-264.860
 30
0.000000
  70
    32
  0
VERTEX
  8
0
  5
800000C9
 10
649.630
 20
-268.623
 30
0.000000
  70
    32
  0
VERTEX
  8
0
  5
800000CA
 10
649.000
 20
-272.352
 30
0.000000
  70
    32
  0
VERTEX
  8
0
  5
800000CB
 10
648.407
 20
-276.047
 30
0.000000
  70
    32
  0
VERTEX
  8
0
  5
800000CC
 10
647.850
 20
-279.705
 30
0.000000
  70
    32
  0
VERTEX
  8
0
  5
800000CD
 10
647.331
 20
-283.325
 30
0.000000
  70
    32
  0
VERTEX
  8
0
  5
800000CE
 10
646.852
 20
-286.908
 30
0.000000
  70
    32
  0
VERTEX
  8
0
  5
800000CF
 10
646.413
 20
-290.450
 30
0.000000
  70
    32
  0
VERTEX
  8
0
  5
800000D0
 10
646.016
 20
-293.951
 30
0.000000
  70
    32
  0
VERTEX
  8
0
  5
800000D1
 10
645.662
 20
-297.411
 30
0.000000
  70
    32
  0
VERTEX
  8
0
  5
800000D2
 10
645.353
 20
-300.827
 30
0.000000
  70
    32
  0
VERTEX
  8
0
  5
800000D3
 10
645.088
 20
-304.198
 30
0.000000
  70
    32
  0
VERTEX
  8
0
  5
800000D4
 10
644.870
 20
-307.524
 30
0.000000
  70
    32
  0
VERTEX
  8
0
  5
800000D5
 10
644.700
 20
-310.803
 30
0.000000
  70
    32
  0
VERTEX
  8
0
  5
800000D6
 10
644.579
 20
-314.034
 30
0.000000
  70
    32
  0
VERTEX
  8
0
  5
800000D7
 10
644.508
 20
-317.216
 30
0.000000
  70
    32
  0
VERTEX
  8
0
  5
800000D8
 10
644.488
 20
-320.348
 30
0.000000
  70
    32
  0
VERTEX
  8
0
  5
800000D9
 10
644.521
 20
-323.428
 30
0.000000
  70
    32
  0
VERTEX
  8
0
  5
800000DA
 10
644.608
 20
-326.455
 30
0.000000
  70
    32
  0
VERTEX
  8
0
  5
800000DB
 10
644.749
 20
-329.428
 30
0.000000
  70
    32
  0
VERTEX
  8
0
  5
800000DC
 10
644.947
 20
-332.347
 30
0.000000
  70
    32
  0
VERTEX
  8
0
  5
800000DD
 10
645.202
 20
-335.208
 30
0.000000
  70
    32
  0
VERTEX
  8
0
  5
800000DE
 10
645.516
 20
-338.013
 30
0.000000
  70
    32
  0
VERTEX
  8
0
  5
800000DF
 10
645.890
 20
-340.759
 30
0.000000
  70
    32
  0
VERTEX
  8
0
  5
800000E0
 10
646.324
 20
-343.445
 30
0.000000
  70
    32
  0
VERTEX
  8
0
  5
800000E1
 10
646.821
 20
-346.070
 30
0.000000
  70
    32
  0
VERTEX
  8
0
  5
800000E2
 10
647.382
 20
-348.633
 30
0.000000
  70
    32
  0
VERTEX
  8
0
  5
800000E3
 10
648.007
 20
-351.132
 30
0.000000
  70
    32
  0
VERTEX
  8
0
  5
800000E4
 10
648.697
 20
-353.567
 30
0.000000
  70
    32
  0
VERTEX
  8
0
  5
800000E5
 10
649.455
 20
-355.936
 30
0.000000
  70
    32
  0
VERTEX
  8
0
  5
800000E6
 10
650.281
 20
-358.239
 30
0.000000
  70
    32
  0
VERTEX
  8
0
  5
800000E7
 10
651.177
 20
-360.473
 30
0.000000
  70
    32
  0
VERTEX
  8
0
  5
800000E8
 10
652.143
 20
-362.638
 30
0.000000
  70
    32
  0
VERTEX
  8
0
  5
800000E9
 10
653.181
 20
-364.733
 30
0.000000
  70
    32
  0
VERTEX
  8
0
  5
800000EA
 10
654.292
 20
-366.756
 30
0.000000
  70
    32
  0
VERTEX
  8
0
  5
800000EB
 10
655.477
 20
-368.706
 30
0.000000
  70
    32
  0
VERTEX
  8
0
  5
800000EC
 10
656.738
 20
-370.582
 30
0.000000
  70
    32
  0
VERTEX
  8
0
  5
800000ED
 10
658.075
 20
-372.383
 30
0.000000
  70
    32
  0
VERTEX
  8
0
  5
800000EE
 10
659.490
 20
-374.108
 30
0.000000
  70
    32
  0
VERTEX
  8
0
  5
800000EF
 10
660.984
 20
-375.755
 30
0.000000
  70
    32
  0
VERTEX
  8
0
  5
800000F0
 10
662.559
 20
-377.323
 30
0.000000
  70
    32
  0
VERTEX
  8
0
  5
800000F1
 10
664.215
 20
-378.812
 30
0.000000
  70
    32
  0
VERTEX
  8
0
  5
800000F2
 10
665.954
 20
-380.219
 30
0.000000
  70
    32
  0
VERTEX
  8
0
  5
800000F3
 10
667.776
 20
-381.544
 30
0.000000
  70
    32
  0
VERTEX
  8
0
  5
800000F4
 10
669.684
 20
-382.786
 30
0.000000
  70
    32
  0
VERTEX
  8
0
  5
800000F5
 10
671.678
 20
-383.943
 30
0.000000
  70
    32
  0
VERTEX
  8
0
  5
800000F6
 10
673.760
 20
-385.015
 30
0.000000
  70
    32
  0
VERTEX
  8
0
  5
800000F7
 10
675.930
 20
-385.999
 30
0.000000
  70
    32
  0
VERTEX
  8
0
  5
800000F8
 10
678.190
 20
-386.895
 30
0.000000
  70
    32
  0
VERTEX
  8
0
  5
800000F9
 10
680.541
 20
-387.702
 30
0.000000
  70
    32
  0
VERTEX
  8
0
  5
800000FA
 10
682.985
 20
-388.419
 30
0.000000
  70
    32
  0
VERTEX
  8
0
  5
800000FB
 10
685.522
 20
-389.043
 30
0.000000
  70
    32
  0
VERTEX
  8
0
  5
800000FC
 10
688.154
 20
-389.575
 30
0.000000
  70
    32
  0
VERTEX
  8
0
  5
800000FD
 10
690.881
 20
-390.013
 30
0.000000
  70
    32
  0
VERTEX
  8
0
  5
800000FE
 10
693.706
 20
-390.356
 30
0.000000
  70
    32
  0
VERTEX
  8
0
  5
800000FF
 10
696.629
 20
-390.602
 30
0.000000
  70
    32
  0
VERTEX
  8
0
  5
80000100
 10
699.652
 20
-390.750
 30
0.000000
  70
    32
  0
VERTEX
  8
0
  5
80000101
 10
702.775
 20
-390.800
 30
0.000000
  70
    32
  0
SEQEND
  8
0
  5
80000102
  0
ENDBLK
  5
FFBBDAE469BC10DD
  8
0
  0
BLOCK
  8
0
  2
*U27
 70
     1
 10
0.0
 20
0.0
 30
0.0
  3
*U27
  1

  0
TEXT
  5
FFBBDAE469BC10DF
  8
0
  6
CONTINUOUS
 10
721.27475839689976
 20
-338.2534864180293
 30
0.0
 40
40.0
  1
James Hardie uPVC vent strip fixed
  7
ARIAL
  0
TEXT
  5
FFBBDAE469BC10E0
  8
0
  6
CONTINUOUS
 10
719.11923315815477
 20
-406.24160192507799
 30
0.0
 40
40.0
  1
between the 
  7
ARIAL
  0
TEXT
  5
FFBBDAE469BC10E1
  8
0
  6
CONTINUOUS
 10
1039.1192331581551
 20
-405.58087750488698
 30
0.0
 40
40.0
  1
CLD
  7
ARIAL
  0
TEXT
  5
FFBBDAE469BC10E2
  8
0
  6
CONTINUOUS
 10
1150.844354576981
 20
-380.52687750488701
 30
0.0
 40
30.323999999999991
  1
®
  7
ARIAL
  0
TEXT
  5
FFBBDAE469BC10E3
  8
0
  6
CONTINUOUS
 10
1150.906409147241
 20
-390.63487750488702
 30
0.0
 40
30.323999999999991
  1

  7
ARIAL
  0
TEXT
  5
FFBBDAE469BC10E4
  8
0
  6
CONTINUOUS
 10
1184.146973949423
 20
-406.24160192507799
 30
0.0
 40
40.0
  1
 Structural Cavity
  7
ARIAL
  0
TEXT
  5
FFBBDAE469BC10E5
  8
0
  6
CONTINUOUS
 10
718.68267108448504
 20
-472.2689479914718
 30
0.0
 40
40.0
  1
Battens at panel joints
  7
ARIAL
  0
ENDBLK
  5
FFBBDAE469BC10E7
  8
0
  0
BLOCK
  8
0
  2
*U28
 70
     1
 10
0.0
 20
0.0
 30
0.0
  3
*U28
  1

  0
TEXT
  5
FFBBDAE469BC1108
  8
0
  6
CONTINUOUS
 10
-1037.0771615791709
 20
2514.7951356004369
 30
0.0
 40
40.0
  1
75mm
 50
90.0
  7
ARIAL
  0
TEXT
  5
FFBBDAE469BC1109
  8
0
  6
CONTINUOUS
 10
-970.41049491250419
 20
2514.2221478787451
 30
0.0
 40
40.0
  1
typical
 50
90.0
  7
ARIAL
  0
ENDBLK
  5
FFBBDAE469BC110B
  8
0
  0
BLOCK
  8
0
  2
*U29
 70
     1
 10
0.0
 20
0.0
 30
0.0
  3
*U29
  1

  0
TEXT
  5
FFBBDAE469BC110D
  8
0
  6
CONTINUOUS
 10
762.5852660300136
 20
2920.6584138660078
 30
0.0
 40
40.0
  1
600mm
  7
ARIAL
  0
ENDBLK
  5
FFBBDAE469BC110F
  8
0
  0
BLOCK
  8
0
  2
*U30
 70
     1
 10
0.0
 20
0.0
 30
0.0
  3
*U30
  1

  0
TEXT
  5
FFBBDAE469BC1111
  8
0
  6
CONTINUOUS
 10
162.5852660300136
 20
2920.6584138660078
 30
0.0
 40
40.0
  1
600mm
  7
ARIAL
  0
ENDBLK
  5
FFBBDAE469BC1113
  8
0
  0
BLOCK
  8
0
  2
*U31
 70
     1
 10
0.0
 20
0.0
 30
0.0
  3
*U31
  1

  0
TEXT
  5
FFBBDAE469BC1115
  8
0
  6
CONTINUOUS
 10
-855.71371274931539
 20
330.3785811732609
 30
0.0
 40
40.0
  1
50mm
 50
90.0
  7
ARIAL
  0
TEXT
  5
FFBBDAE469BC1116
  8
0
  6
CONTINUOUS
 10
-788.96519069383567
 20
215.75375170532089
 30
0.0
 40
40.0
  1
sheet overhang
 50
90.0
  7
ARIAL
  0
ENDBLK
  5
FFBBDAE469BC1118
  8
0
  0
BLOCK
  8
0
  2
*U32
 70
     1
 10
0.0
 20
0.0
 30
0.0
  3
*U32
  1

  0
TEXT
  5
FFBBDAE469BC111A
  8
0
  6
CONTINUOUS
 10
1395.9491986105761
 20
1157.503823891793
 30
0.0
 40
40.0
  1
800mm
 50
90.0
  7
ARIAL
  0
ENDBLK
  5
FFBBDAE469BC111C
  8
0
  0
BLOCK
  8
0
  2
*U33
 70
     1
 10
0.0
 20
0.0
 30
0.0
  3
*U33
  1

  0
TEXT
  5
FFBBDAE469BC111E
  8
0
  6
CONTINUOUS
 10
-562.52510853856722
 20
1896.077565088598
 30
0.0
 40
40.0
  1
150
 50
90.0
  7
ARIAL
  0
TEXT
  5
FFBBDAE469BC111F
  8
0
  6
CONTINUOUS
 10
-495.77658648308739
 20
1897.8101708184749
 30
0.0
 40
40.0
  1
mm
 50
90.0
  7
ARIAL
  0
TEXT
  5
FFBBDAE469BC1120
  8
0
  6
CONTINUOUS
 10
-428.76885569636619
 20
1779.774700149989
 30
0.0
 40
40.0
  1
c/c brad nails
 50
90.0
  7
ARIAL
  0
ENDBLK
  5
FFBBDAE469BC1122
  8
0
  0
BLOCK
  8
0
  2
*U34
 70
     1
 10
0.0
 20
0.0
 30
0.0
  3
*U34
  1

  0
TEXT
  5
FFBBDAE469BC1124
  8
0
  6
CONTINUOUS
 10
-437.41473396998629
 20
2920.6584138660078
 30
0.0
 40
40.0
  1
600mm
  7
ARIAL
  0
ENDBLK
  5
FFBBDAE469BC1126
  8
0
  0
BLOCK
  8
0
  2
*U35
 70
     1
 10
0.0
 20
0.0
 30
0.0
  3
*U35
  1

  0
TEXT
  5
FFBBDAE469BC1128
  8
0
  6
CONTINUOUS
 10
1395.9491986105761
 20
1957.5038238917939
 30
0.0
 40
40.0
  1
800mm
 50
90.0
  7
ARIAL
  0
ENDBLK
  5
FFBBDAE469BC112A
  8
0
  0
BLOCK
  8
0
  2
*U36
 70
     1
 10
0.0
 20
0.0
 30
0.0
  3
*U36
  1

  0
TEXT
  5
FFBBDAE469BC112C
  8
0
  6
CONTINUOUS
 10
-1037.4147339699859
 20
2920.6584138660078
 30
0.0
 40
40.0
  1
600mm
  7
ARIAL
  0
ENDBLK
  5
FFBBDAE469BC112E
  8
0
  0
BLOCK
  8
0
  2
*U37
 70
     1
 10
0.0
 20
0.0
 30
0.0
  3
*U37
  1

  0
TEXT
  5
FFBBDAE469BC1130
  8
0
  6
CONTINUOUS
 10
1395.9491986105761
 20
357.50382389179362
 30
0.0
 40
40.0
  1
800mm
 50
90.0
  7
ARIAL
  0
ENDBLK
  5
FFBBDAE469BC1132
  8
0
  0
ENDSEC
  0
SECTION
  2
ENTITIES
  0
LINE
  5
FFBBDAE469BBDEC8
  8
0
  6
CONTINUOUS
 10
-1290.0000000000009
 20
50.000000000000007
 30
0.0
 11
-1328.4349897283871
 21
50.000000000000007
 31
0.0
  0
LINE
  5
FFBBDAE469BBDECA
  8
0
  6
CONTINUOUS
 10
-1318.868106836866
 20
2450.0004132505919
 30
0.0
 11
-1235.000000000002
 21
2450.000413250591
 31
0.0
  0
LINE
  5
FFBBDAE469BBDECC
  8
0
  6
HIDDEN
 10
-1175.0000000000009
 20
2450.0004132505928
 30
0.0
 11
-1175.0000000000009
 21
0.0000000000000107
 31
0.0
  0
LINE
  5
FFBBDAE469BBDECE
  8
0
  6
CONTINUOUS
 10
1248.5231409579139
 20
2456.3980000000001
 30
0.0
 11
1242.5650385674601
 21
2428.3727162570699
 31
0.0
  0
POLYLINE
  5
FFBBDAE469BBDECF
  8
0
  6
CONTINUOUS
 66
     1
 10
0.0
 20
0.0
 30
0.0
  0
VERTEX
  5
FFBBDAE469BC0F62
  8
0
  6
CONTINUOUS
 10
1242.5650385674601
 20
2428.3727162570699
 30
0.0
  0
VERTEX
  5
FFBBDAE469BC0F63
  8
0
  6
CONTINUOUS
 10
1245.063418282203
 20
2432.2099304748349
 30
0.0
  0
VERTEX
  5
FFBBDAE469BC0F64
  8
0
  6
CONTINUOUS
 10
1237.113889343236
 20
2410.981358057652
 30
0.0
  0
VERTEX
  5
FFBBDAE469BC0F65
  8
0
  6
CONTINUOUS
 10
1239.660553004207
 20
2414.7108107201771
 30
0.0
  0
SEQEND
  5
FFBBDAE469BC0F66
  8
0
  6
CONTINUOUS
  0
LINE
  5
FFBBDAE469BBDED0
  8
0
  6
CONTINUOUS
 10
1239.660553004207
 20
2414.7108107201771
 30
0.0
 11
1232.4080383960829
 21
2380.5969660054252
 31
0.0
  0
DIMENSION
  5
FFBBDAE469BBDED4
  8
0
  6
CONTINUOUS
  2
*D2
 10
1416.7131822394981
 20
850.0004132505926
 30
0.0
 11
1376.290262730631
 21
450.000413250593
 31
0.0
 70
     0
 13
1236.719109968496
 23
50.000413250592842
 33
0.0
 14
1132.5
 24
850.00041325059283
 34
0.0
 50
90.0
  0
LINE
  5
FFBBDAE469BBDED5
  8
0
  6
CONTINUOUS
 10
-1290.0000000000009
 20
2405.0004132505901
 30
0.0
 11
-1328.4349897283871
 21
2405.0004132505919
 31
0.0
  0
LINE
  5
FFBBDAE469BBDED6
  8
0
  6
CONTINUOUS
 10
1199.999728924915
 20
2405.0004132505919
 30
0.0
 11
1237.596147772613
 21
2405.000413250591
 31
0.0
  0
DIMENSION
  5
FFBBDAE469BBDED7
  8
0
  6
CONTINUOUS
  2
*D3
 10
-1245.0
 20
2899.8944302370851
 30
0.0
 11
-945.0
 21
2940.3173497459529
 31
0.0
 70
     0
 13
-645.0
 23
2450.0004132505928
 33
0.0
 14
-1245.0
 24
2450.0004132505928
 34
0.0
  0
LINE
  5
FFBBDAE469BBDED8
  8
0
  6
HIDDEN
 10
-1175.0000000000009
 20
1672.5004132505931
 30
0.0
 11
-952.49999999999909
 21
1672.500413250591
 31
0.0
  0
LINE
  5
FFBBDAE469BBDED9
  8
0
  6
HIDDEN
 10
-1175.0000000000009
 20
1627.5004132505931
 30
0.0
 11
-952.49999999999909
 21
1627.5004132505931
 31
0.0
  0
LINE
  5
FFBBDAE469BBDEDA
  8
0
  6
CONTINUOUS
 10
-1234.999999999997
 20
0.0000000000000107
 30
0.0
 11
-1235.000000000002
 21
2450.0004132505928
 31
0.0
  0
LINE
  5
FFBBDAE469BBDEDB
  8
0
  6
CONTINUOUS
 10
-1235.000000000002
 20
2450.0004132505928
 30
0.0
 11
-55.000135537543422
 21
2450.0004132505928
 31
0.0
  0
LINE
  5
FFBBDAE469BBDEDC
  8
0
  6
CONTINUOUS
 10
1145.0
 20
2450.0004132505928
 30
0.0
 11
1145.0
 21
0.0000000000000107
 31
0.0
  0
LINE
  5
FFBBDAE469BBDEDD
  8
0
  6
HIDDEN
 10
-680.00000000000182
 20
2450.0004132505928
 30
0.0
 11
-679.99999999999363
 21
64.999999999999972
 31
0.0
  0
LINE
  5
FFBBDAE469BBDEDE
  8
0
  6
HIDDEN
 10
-610.0
 20
2450.0004132505928
 30
0.0
 11
-610.0
 21
64.999999999999972
 31
0.0
  0
LINE
  5
FFBBDAE469BBDEDF
  8
0
  6
HIDDEN
 10
-610.0
 20
1627.5004132505931
 30
0.0
 11
-352.49999999999909
 21
1627.5004132505931
 31
0.0
  0
LINE
  5
FFBBDAE469BBDEE0
  8
0
  6
HIDDEN
 10
-610.0
 20
1672.5004132505931
 30
0.0
 11
-352.49999999999909
 21
1672.5004132505931
 31
0.0
  0
LINE
  5
FFBBDAE469BBDEE1
  8
0
  6
CONTINUOUS
 10
1145.0
 20
0.0000000000000107
 30
0.0
 11
-35.000135537543429
 21
0.0000000000000036
 31
0.0
  0
LINE
  5
FFBBDAE469BBDEE3
  8
0
  6
CONTINUOUS
 10
1199.9997289249141
 20
95.000000000000966
 30
0.0
 11
1246.285905004017
 21
94.999999999999304
 31
0.0
  0
LINE
  5
FFBBDAE469BBDEE4
  8
0
  6
CONTINUOUS
 10
-1290.0000000000009
 20
94.999999999999503
 30
0.0
 11
-1318.8681068368651
 21
95.000000000001165
 31
0.0
  0
LINE
  5
FFBBDAE469BBDEE5
  8
0
  6
HIDDEN
 10
-90.000000000000895
 20
2450.0004132505928
 30
0.0
 11
-89.999999999992269
 21
0.0000000000000036
 31
0.0
  0
LINE
  5
FFBBDAE469BBDEE6
  8
0
  6
HIDDEN
 10
0.0
 20
2450.0004132505928
 30
0.0
 11
0.0
 21
0.0
 31
0.0
  0
LINE
  5
FFBBDAE469BBDEE7
  8
0
  6
HIDDEN
 10
520.0
 20
2450.0004132505928
 30
0.0
 11
520.00000000000637
 21
65.0
 31
0.0
  0
LINE
  5
FFBBDAE469BBDEE8
  8
0
  6
HIDDEN
 10
590.0
 20
2450.0004132505928
 30
0.0
 11
590.0
 21
65.0
 31
0.0
  0
LINE
  5
FFBBDAE469BBDEE9
  8
0
  6
HIDDEN
 10
0.0000000000004547
 20
1627.5004132505931
 30
0.0
 11
247.5000000000027
 21
1627.5004132505931
 31
0.0
  0
LINE
  5
FFBBDAE469BBDEEA
  8
0
  6
HIDDEN
 10
0.0000000000004547
 20
1672.5004132505931
 30
0.0
 11
247.5000000000027
 21
1672.5004132505931
 31
0.0
  0
LINE
  5
FFBBDAE469BBDEEB
  8
0
  6
HIDDEN
 10
590.00000000000045
 20
1627.5004132505931
 30
0.0
 11
847.50000000000284
 21
1627.5004132505931
 31
0.0
  0
LINE
  5
FFBBDAE469BBDEEC
  8
0
  6
HIDDEN
 10
590.00000000000045
 20
1672.5004132505931
 30
0.0
 11
847.50000000000216
 21
1672.5004132505931
 31
0.0
  0
LINE
  5
FFBBDAE469BBDEED
  8
0
  6
CONTINUOUS
 10
-55.000135537542967
 20
0.0000000000000107
 30
0.0
 11
-55.000135537543422
 21
2450.0004132505928
 31
0.0
  0
LINE
  5
FFBBDAE469BBDEEE
  8
0
  6
CONTINUOUS
 10
1145.0
 20
2450.0004132505928
 30
0.0
 11
1247.1630306641371
 21
2450.0004132505928
 31
0.0
  0
LINE
  5
FFBBDAE469BBDEEF
  8
0
  6
CONTINUOUS
 10
1248.5231409579139
 20
105.52334590763169
 30
0.0
 11
1242.5650385674601
 21
77.498062164702802
 31
0.0
  0
POLYLINE
  5
FFBBDAE469BBDEF0
  8
0
  6
CONTINUOUS
 66
     1
 10
0.0
 20
0.0
 30
0.0
  0
VERTEX
  5
FFBBDAE469BC0F67
  8
0
  6
CONTINUOUS
 10
1242.5650385674601
 20
77.498062164702802
 30
0.0
  0
VERTEX
  5
FFBBDAE469BC0F68
  8
0
  6
CONTINUOUS
 10
1245.063418282203
 20
81.335276382467796
 30
0.0
  0
VERTEX
  5
FFBBDAE469BC0F69
  8
0
  6
CONTINUOUS
 10
1237.113889343236
 20
60.10670396528441
 30
0.0
  0
VERTEX
  5
FFBBDAE469BC0F6A
  8
0
  6
CONTINUOUS
 10
1239.660553004207
 20
63.836156627809039
 30
0.0
  0
SEQEND
  5
FFBBDAE469BC0F6B
  8
0
  6
CONTINUOUS
  0
LINE
  5
FFBBDAE469BBDEF1
  8
0
  6
CONTINUOUS
 10
1239.660553004207
 20
63.836156627809039
 30
0.0
 11
1232.4080383960829
 21
29.722311913057649
 31
0.0
  0
DIMENSION
  5
FFBBDAE469BBDEF2
  8
0
  6
CONTINUOUS
  2
*D4
 10
1416.7131822394981
 20
2450.0004132505928
 30
0.0
 11
1376.290262730631
 21
2050.0004132505928
 31
0.0
 70
     0
 13
1213.994449357444
 23
1650.0004132505931
 33
0.0
 14
1247.1630306641371
 24
2450.0004132505928
 34
0.0
 50
90.0
  0
DIMENSION
  5
FFBBDAE469BBDEF3
  8
0
  6
CONTINUOUS
  2
*D5
 10
-645.0
 20
2899.8944302370851
 30
0.0
 11
-345.0
 21
2940.3173497459529
 31
0.0
 70
     0
 13
-45.0
 23
2450.0004132505928
 33
0.0
 14
-645.0
 24
2450.0004132505928
 34
0.0
  0
LINE
  5
FFBBDAE469BBDEF4
  8
0
  6
CONTINUOUS
 10
-1290.0000000000009
 20
2450.000413250591
 30
0.0
 11
-1290.0000000000009
 21
0.0000000000000071
 31
0.0
  0
LINE
  5
FFBBDAE469BBDEF6
  8
0
  6
CONTINUOUS
 10
-1316.630870882969
 20
105.52334590763169
 30
0.0
 11
-1322.5889732734231
 21
77.498062164702802
 31
0.0
  0
POLYLINE
  5
FFBBDAE469BBDEF7
  8
0
  6
CONTINUOUS
 66
     1
 10
0.0
 20
0.0
 30
0.0
  0
VERTEX
  5
FFBBDAE469BC0F6C
  8
0
  6
CONTINUOUS
 10
-1322.5889732734231
 20
77.498062164702802
 30
0.0
  0
VERTEX
  5
FFBBDAE469BC0F6D
  8
0
  6
CONTINUOUS
 10
-1320.09059355868
 20
81.335276382467796
 30
0.0
  0
VERTEX
  5
FFBBDAE469BC0F6E
  8
0
  6
CONTINUOUS
 10
-1328.040122497647
 20
60.10670396528441
 30
0.0
  0
VERTEX
  5
FFBBDAE469BC0F6F
  8
0
  6
CONTINUOUS
 10
-1325.4934588366759
 20
63.836156627809039
 30
0.0
  0
SEQEND
  5
FFBBDAE469BC0F70
  8
0
  6
CONTINUOUS
  0
LINE
  5
FFBBDAE469BBDEF8
  8
0
  6
CONTINUOUS
 10
-1325.4934588366759
 20
63.836156627809039
 30
0.0
 11
-1332.7459734448
 21
29.722311913057649
 31
0.0
  0
DIMENSION
  5
FFBBDAE469BBDEF9
  8
0
  6
CONTINUOUS
  2
*D6
 10
-407.74566333620248
 20
2050.000413250591
 30
0.0
 11
-407.74566333620248
 21
1944.3995296179289
 31
0.0
 70
   128
  1
150\Pmm\Pc/c brad nails
 13
-632.84021277907675
 23
1850.000413250591
 33
0.0
 14
-632.84021277907675
 24
2050.000413250591
 34
0.0
 50
90.0
  0
DIMENSION
  5
FFBBDAE469BBDEFC
  8
0
  6
CONTINUOUS
  2
*D7
 10
-1220.500135537543
 20
713.79588503407456
 30
0.0
 11
-1227.750067768771
 21
713.79588503407456
 31
0.0
 70
     0
  1
 
 13
-1234.999999999998
 23
662.20522022016576
 33
0.0
 14
-1220.500135537543
 24
663.69854537433832
 34
0.0
  0
LINE
  5
FFBBDAE469BBDF00
  8
0
  6
CENTER
 10
-1231.1926426601799
 20
2375.000413250591
 30
0.0
 11
-1208.3402127790771
 21
2375.000413250591
 31
0.0
  0
LINE
  5
FFBBDAE469BBDF01
  8
0
  6
CENTER
 10
-1220.500135537543
 20
2388.6985453743382
 30
0.0
 11
-1220.500135537543
 21
2363.001338148928
 31
0.0
  0
POLYLINE
  5
FFBBDAE469BBDF02
  8
0
  6
CONTINUOUS
 66
     1
 10
0.0
 20
0.0
 30
0.0
 70
     1
 40
6.0
 41
6.0
  0
VERTEX
  5
FFBBDAE469BC0F71
  8
0
  6
CONTINUOUS
 10
-1223.500135537543
 20
2375.000413250591
 30
0.0
 42
1.0
  0
VERTEX
  5
FFBBDAE469BC0F72
  8
0
  6
CONTINUOUS
 10
-1217.5001355375441
 20
2375.000413250591
 30
0.0
 42
1.0
  0
SEQEND
  5
FFBBDAE469BC0F73
  8
0
  6
CONTINUOUS
  0
LINE
  5
FFBBDAE469BBE095
  8
0
  6
CONTINUOUS
 10
-1316.630870882969
 20
2460.523759158224
 30
0.0
 11
-1322.5889732734231
 21
2432.4984754152961
 31
0.0
  0
POLYLINE
  5
FFBBDAE469BBE096
  8
0
  6
CONTINUOUS
 66
     1
 10
0.0
 20
0.0
 30
0.0
  0
VERTEX
  5
FFBBDAE469BC0F74
  8
0
  6
CONTINUOUS
 10
-1322.5889732734231
 20
2432.4984754152961
 30
0.0
  0
VERTEX
  5
FFBBDAE469BC0F75
  8
0
  6
CONTINUOUS
 10
-1320.09059355868
 20
2436.3356896330611
 30
0.0
  0
VERTEX
  5
FFBBDAE469BC0F76
  8
0
  6
CONTINUOUS
 10
-1328.040122497647
 20
2415.1071172158772
 30
0.0
  0
VERTEX
  5
FFBBDAE469BC0F77
  8
0
  6
CONTINUOUS
 10
-1325.4934588366759
 20
2418.8365698784019
 30
0.0
  0
SEQEND
  5
FFBBDAE469BC0F78
  8
0
  6
CONTINUOUS
  0
LINE
  5
FFBBDAE469BBE097
  8
0
  6
CONTINUOUS
 10
-1325.4934588366759
 20
2418.8365698784019
 30
0.0
 11
-1332.7459734448
 21
2384.72272516365
 31
0.0
  0
LINE
  5
FFBBDAE469BBE0A7
  8
0
  6
HIDDEN
 10
-937.50000000000011
 20
1672.500413250591
 30
0.0
 11
-679.99999999999898
 21
1672.5004132505931
 31
0.0
  0
LINE
  5
FFBBDAE469BBE0A8
  8
0
  6
HIDDEN
 10
-937.50000000000045
 20
1627.5004132505931
 30
0.0
 11
-679.99999999999864
 21
1627.5004132505931
 31
0.0
  0
LINE
  5
FFBBDAE469BBE0A9
  8
0
  6
HIDDEN
 10
-337.5
 20
1672.5004132505931
 30
0.0
 11
-89.999999999998181
 21
1672.5004132505931
 31
0.0
  0
LINE
  5
FFBBDAE469BBE0AA
  8
0
  6
HIDDEN
 10
-337.5
 20
1627.5004132505931
 30
0.0
 11
-89.999999999997726
 21
1627.5004132505931
 31
0.0
  0
LINE
  5
FFBBDAE469BBE0AB
  8
0
  6
HIDDEN
 10
262.5000000000004
 20
1672.5004132505931
 30
0.0
 11
520.00000000000227
 21
1672.5004132505931
 31
0.0
  0
LINE
  5
FFBBDAE469BBE0AC
  8
0
  6
HIDDEN
 10
262.5000000000004
 20
1627.5004132505931
 30
0.0
 11
520.00000000000227
 21
1627.5004132505931
 31
0.0
  0
LINE
  5
FFBBDAE469BBE0AD
  8
0
  6
HIDDEN
 10
862.50000000000045
 20
1672.5004132505931
 30
0.0
 11
1085.0000000000009
 21
1672.5004132505931
 31
0.0
  0
LINE
  5
FFBBDAE469BBE0AE
  8
0
  6
HIDDEN
 10
862.50000000000045
 20
1627.5004132505931
 30
0.0
 11
1085.0000000000009
 21
1627.5004132505919
 31
0.0
  0
LINE
  5
FFBBDAE469BBE0AF
  8
0
  6
HIDDEN
 10
-1175.0000000000009
 20
95.000000000000028
 30
0.0
 11
-952.49999999999363
 21
95.0
 31
0.0
  0
LINE
  5
FFBBDAE469BBE0B1
  8
0
  6
HIDDEN
 10
-610.0
 20
94.999999999999986
 30
0.0
 11
-352.49999999999358
 21
95.000000000000014
 31
0.0
  0
LINE
  5
FFBBDAE469BBE0B3
  8
0
  6
HIDDEN
 10
590.00000000000045
 20
94.999999999999943
 30
0.0
 11
847.50000000000807
 21
94.999999999998096
 31
0.0
  0
LINE
  5
FFBBDAE469BBE0B5
  8
0
  6
HIDDEN
 10
0.0000000000004547
 20
95.000000000000028
 30
0.0
 11
247.5000000000077
 21
95.0
 31
0.0
  0
LINE
  5
FFBBDAE469BBE452
  8
0
  6
CENTER
 10
-655.69250712264466
 20
2438.0004132505928
 30
0.0
 11
-632.84007724153469
 21
2438.0004132505928
 31
0.0
  0
LINE
  5
FFBBDAE469BBE453
  8
0
  6
CENTER
 10
-645.00000000000125
 20
2451.69854537434
 30
0.0
 11
-645.00000000000125
 21
2426.0013381489298
 31
0.0
  0
POLYLINE
  5
FFBBDAE469BBE454
  8
0
  6
CONTINUOUS
 66
     1
 10
0.0
 20
0.0
 30
0.0
 70
     1
 40
6.0
 41
6.0
  0
VERTEX
  5
FFBBDAE469BC0F79
  8
0
  6
CONTINUOUS
 10
-648.00000000000125
 20
2438.0004132505928
 30
0.0
 42
1.0
  0
VERTEX
  5
FFBBDAE469BC0F7A
  8
0
  6
CONTINUOUS
 10
-642.00000000000136
 20
2438.0004132505928
 30
0.0
 42
1.0
  0
SEQEND
  5
FFBBDAE469BC0F7B
  8
0
  6
CONTINUOUS
  0
LINE
  5
FFBBDAE469BBE493
  8
0
  6
CENTER
 10
565.6922360475578
 20
2438.0004132505928
 30
0.0
 11
542.83980616644794
 21
2438.0004132505928
 31
0.0
  0
LINE
  5
FFBBDAE469BBE494
  8
0
  6
CENTER
 10
554.99972892491439
 20
2451.69854537434
 30
0.0
 11
554.99972892491439
 21
2426.0013381489298
 31
0.0
  0
POLYLINE
  5
FFBBDAE469BBE495
  8
0
  6
CONTINUOUS
 66
     1
 10
0.0
 20
0.0
 30
0.0
 70
     1
 40
6.0
 41
6.0
  0
VERTEX
  5
FFBBDAE469BC0F7C
  8
0
  6
CONTINUOUS
 10
557.99972892491451
 20
2438.0004132505928
 30
0.0
 42
-1.0
  0
VERTEX
  5
FFBBDAE469BC0F7D
  8
0
  6
CONTINUOUS
 10
551.99972892491451
 20
2438.0004132505928
 30
0.0
 42
-1.0
  0
SEQEND
  5
FFBBDAE469BC0F7E
  8
0
  6
CONTINUOUS
  0
LINE
  5
FFBBDAE469BBE4C5
  8
0
  6
CENTER
 10
565.6922360475578
 20
125.0
 30
0.0
 11
542.83980616644794
 21
125.0
 31
0.0
  0
LINE
  5
FFBBDAE469BBE4C6
  8
0
  6
CENTER
 10
554.99972892491439
 20
111.3018678762528
 30
0.0
 11
554.99972892491439
 21
136.99907510166301
 31
0.0
  0
POLYLINE
  5
FFBBDAE469BBE4C7
  8
0
  6
CONTINUOUS
 66
     1
 10
0.0
 20
0.0
 30
0.0
 70
     1
 40
6.0
 41
6.0
  0
VERTEX
  5
FFBBDAE469BC0F7F
  8
0
  6
CONTINUOUS
 10
557.99972892491451
 20
125.0
 30
0.0
 42
1.0
  0
VERTEX
  5
FFBBDAE469BC0F80
  8
0
  6
CONTINUOUS
 10
551.99972892491451
 20
125.0
 30
0.0
 42
1.0
  0
SEQEND
  5
FFBBDAE469BC0F81
  8
0
  6
CONTINUOUS
  0
DIMENSION
  5
FFBBDAE469BBE4F9
  8
0
  6
CONTINUOUS
  2
*D8
 10
1416.7131822394981
 20
1650.0004132505931
 30
0.0
 11
1376.29026273063
 21
1250.0004132505931
 31
0.0
 70
     0
 13
1213.994449357444
 23
850.0004132505926
 33
0.0
 14
1227.163030664138
 24
1650.0004132505931
 34
0.0
 50
90.0
  0
LINE
  5
FFBBDAE469BBE50F
  8
0
  6
HIDDEN
 10
-1175.0000000000009
 20
872.50041325059283
 30
0.0
 11
-952.49999999999659
 21
872.50041325059078
 31
0.0
  0
LINE
  5
FFBBDAE469BBE510
  8
0
  6
HIDDEN
 10
-1175.0000000000009
 20
827.50041325059283
 30
0.0
 11
-952.49999999999613
 21
827.50041325059271
 31
0.0
  0
LINE
  5
FFBBDAE469BBE511
  8
0
  6
HIDDEN
 10
-610.0
 20
827.50041325059249
 30
0.0
 11
-352.49999999999591
 21
827.50041325059283
 31
0.0
  0
LINE
  5
FFBBDAE469BBE512
  8
0
  6
HIDDEN
 10
-610.0
 20
872.50041325059283
 30
0.0
 11
-352.49999999999591
 21
872.50041325059283
 31
0.0
  0
LINE
  5
FFBBDAE469BBE513
  8
0
  6
HIDDEN
 10
0.0000000000004547
 20
827.50041325059283
 30
0.0
 11
247.50000000000551
 21
827.50041325059283
 31
0.0
  0
LINE
  5
FFBBDAE469BBE514
  8
0
  6
HIDDEN
 10
0.0000000000004547
 20
872.50041325059283
 30
0.0
 11
247.50000000000551
 21
872.50041325059283
 31
0.0
  0
LINE
  5
FFBBDAE469BBE515
  8
0
  6
HIDDEN
 10
590.00000000000045
 20
827.50041325059283
 30
0.0
 11
847.50000000000534
 21
827.50041325059283
 31
0.0
  0
LINE
  5
FFBBDAE469BBE516
  8
0
  6
HIDDEN
 10
590.00000000000045
 20
872.50041325059283
 30
0.0
 11
847.50000000000489
 21
872.50041325059283
 31
0.0
  0
LINE
  5
FFBBDAE469BBE517
  8
0
  6
HIDDEN
 10
-937.50000000000011
 20
872.50041325059078
 30
0.0
 11
-679.99999999999625
 21
872.50041325059283
 31
0.0
  0
LINE
  5
FFBBDAE469BBE518
  8
0
  6
HIDDEN
 10
-937.50000000000011
 20
827.50041325059271
 30
0.0
 11
-679.99999999999579
 21
827.50041325059283
 31
0.0
  0
LINE
  5
FFBBDAE469BBE519
  8
0
  6
HIDDEN
 10
-337.5
 20
872.50041325059283
 30
0.0
 11
-89.999999999995453
 21
872.50041325059283
 31
0.0
  0
LINE
  5
FFBBDAE469BBE51A
  8
0
  6
HIDDEN
 10
-337.5
 20
827.50041325059283
 30
0.0
 11
-89.999999999994998
 21
827.50041325059283
 31
0.0
  0
LINE
  5
FFBBDAE469BBE51B
  8
0
  6
HIDDEN
 10
262.5
 20
872.5004132505926
 30
0.0
 11
520.00000000000455
 21
872.50041325059283
 31
0.0
  0
LINE
  5
FFBBDAE469BBE51C
  8
0
  6
HIDDEN
 10
262.5
 20
827.50041325059249
 30
0.0
 11
520.00000000000455
 21
827.50041325059283
 31
0.0
  0
LINE
  5
FFBBDAE469BBE51D
  8
0
  6
HIDDEN
 10
862.50000000000045
 20
872.50041325059283
 30
0.0
 11
1085.0000000000009
 21
872.50041325059283
 31
0.0
  0
LINE
  5
FFBBDAE469BBE51E
  8
0
  6
HIDDEN
 10
862.50000000000045
 20
827.50041325059271
 30
0.0
 11
1085.0000000000009
 21
827.50041325059249
 31
0.0
  0
LINE
  5
FFBBDAE469BBE54A
  8
0
  6
CENTER
 10
-1231.1926426601799
 20
2250.000413250591
 30
0.0
 11
-1208.3402127790771
 21
2250.000413250591
 31
0.0
  0
LINE
  5
FFBBDAE469BBE54B
  8
0
  6
CENTER
 10
-1220.500135537543
 20
2263.6985453743382
 30
0.0
 11
-1220.500135537543
 21
2238.001338148928
 31
0.0
  0
POLYLINE
  5
FFBBDAE469BBE54C
  8
0
  6
CONTINUOUS
 66
     1
 10
0.0
 20
0.0
 30
0.0
 70
     1
 40
6.0
 41
6.0
  0
VERTEX
  5
FFBBDAE469BC0F82
  8
0
  6
CONTINUOUS
 10
-1223.500135537543
 20
2250.000413250591
 30
0.0
 42
1.0
  0
VERTEX
  5
FFBBDAE469BC0F83
  8
0
  6
CONTINUOUS
 10
-1217.5001355375441
 20
2250.000413250591
 30
0.0
 42
1.0
  0
SEQEND
  5
FFBBDAE469BC0F84
  8
0
  6
CONTINUOUS
  0
LINE
  5
FFBBDAE469BBE54E
  8
0
  6
CENTER
 10
-1231.1926426601799
 20
2050.000413250591
 30
0.0
 11
-1208.3402127790771
 21
2050.000413250591
 31
0.0
  0
LINE
  5
FFBBDAE469BBE54F
  8
0
  6
CENTER
 10
-1220.500135537543
 20
2063.6985453743382
 30
0.0
 11
-1220.500135537543
 21
2038.001338148928
 31
0.0
  0
POLYLINE
  5
FFBBDAE469BBE550
  8
0
  6
CONTINUOUS
 66
     1
 10
0.0
 20
0.0
 30
0.0
 70
     1
 40
6.0
 41
6.0
  0
VERTEX
  5
FFBBDAE469BC0F85
  8
0
  6
CONTINUOUS
 10
-1223.500135537543
 20
2050.000413250591
 30
0.0
 42
1.0
  0
VERTEX
  5
FFBBDAE469BC0F86
  8
0
  6
CONTINUOUS
 10
-1217.5001355375441
 20
2050.000413250591
 30
0.0
 42
1.0
  0
SEQEND
  5
FFBBDAE469BC0F87
  8
0
  6
CONTINUOUS
  0
LINE
  5
FFBBDAE469BBE552
  8
0
  6
CENTER
 10
-1231.1926426601799
 20
1850.000413250591
 30
0.0
 11
-1208.3402127790771
 21
1850.000413250591
 31
0.0
  0
LINE
  5
FFBBDAE469BBE553
  8
0
  6
CENTER
 10
-1220.500135537543
 20
1863.698545374338
 30
0.0
 11
-1220.500135537543
 21
1838.001338148928
 31
0.0
  0
POLYLINE
  5
FFBBDAE469BBE554
  8
0
  6
CONTINUOUS
 66
     1
 10
0.0
 20
0.0
 30
0.0
 70
     1
 40
6.0
 41
6.0
  0
VERTEX
  5
FFBBDAE469BC0F88
  8
0
  6
CONTINUOUS
 10
-1223.500135537543
 20
1850.000413250591
 30
0.0
 42
1.0
  0
VERTEX
  5
FFBBDAE469BC0F89
  8
0
  6
CONTINUOUS
 10
-1217.5001355375441
 20
1850.000413250591
 30
0.0
 42
1.0
  0
SEQEND
  5
FFBBDAE469BC0F8A
  8
0
  6
CONTINUOUS
  0
LINE
  5
FFBBDAE469BBE555
  8
0
  6
CENTER
 10
-1231.1926426601799
 20
1650.000413250591
 30
0.0
 11
-1208.3402127790771
 21
1650.000413250591
 31
0.0
  0
LINE
  5
FFBBDAE469BBE556
  8
0
  6
CENTER
 10
-1220.500135537543
 20
1663.698545374338
 30
0.0
 11
-1220.500135537543
 21
1638.001338148928
 31
0.0
  0
POLYLINE
  5
FFBBDAE469BBE557
  8
0
  6
CONTINUOUS
 66
     1
 10
0.0
 20
0.0
 30
0.0
 70
     1
 40
6.0
 41
6.0
  0
VERTEX
  5
FFBBDAE469BC0F8B
  8
0
  6
CONTINUOUS
 10
-1223.500135537543
 20
1650.000413250591
 30
0.0
 42
1.0
  0
VERTEX
  5
FFBBDAE469BC0F8C
  8
0
  6
CONTINUOUS
 10
-1217.5001355375441
 20
1650.000413250591
 30
0.0
 42
1.0
  0
SEQEND
  5
FFBBDAE469BC0F8D
  8
0
  6
CONTINUOUS
  0
LINE
  5
FFBBDAE469BBE55A
  8
0
  6
CENTER
 10
-1231.1926426601799
 20
1450.000413250591
 30
0.0
 11
-1208.3402127790771
 21
1450.000413250591
 31
0.0
  0
LINE
  5
FFBBDAE469BBE55B
  8
0
  6
CENTER
 10
-1220.500135537543
 20
1463.698545374338
 30
0.0
 11
-1220.500135537543
 21
1438.001338148928
 31
0.0
  0
POLYLINE
  5
FFBBDAE469BBE55C
  8
0
  6
CONTINUOUS
 66
     1
 10
0.0
 20
0.0
 30
0.0
 70
     1
 40
6.0
 41
6.0
  0
VERTEX
  5
FFBBDAE469BC0F8E
  8
0
  6
CONTINUOUS
 10
-1223.500135537543
 20
1450.000413250591
 30
0.0
 42
1.0
  0
VERTEX
  5
FFBBDAE469BC0F8F
  8
0
  6
CONTINUOUS
 10
-1217.5001355375441
 20
1450.000413250591
 30
0.0
 42
1.0
  0
SEQEND
  5
FFBBDAE469BC0F90
  8
0
  6
CONTINUOUS
  0
LINE
  5
FFBBDAE469BBE55D
  8
0
  6
CENTER
 10
-1231.1926426601799
 20
1250.000413250591
 30
0.0
 11
-1208.3402127790771
 21
1250.000413250591
 31
0.0
  0
LINE
  5
FFBBDAE469BBE55E
  8
0
  6
CENTER
 10
-1220.500135537543
 20
1263.698545374338
 30
0.0
 11
-1220.500135537543
 21
1238.001338148928
 31
0.0
  0
POLYLINE
  5
FFBBDAE469BBE55F
  8
0
  6
CONTINUOUS
 66
     1
 10
0.0
 20
0.0
 30
0.0
 70
     1
 40
6.0
 41
6.0
  0
VERTEX
  5
FFBBDAE469BC0F91
  8
0
  6
CONTINUOUS
 10
-1223.500135537543
 20
1250.000413250591
 30
0.0
 42
1.0
  0
VERTEX
  5
FFBBDAE469BC0F92
  8
0
  6
CONTINUOUS
 10
-1217.5001355375441
 20
1250.000413250591
 30
0.0
 42
1.0
  0
SEQEND
  5
FFBBDAE469BC0F93
  8
0
  6
CONTINUOUS
  0
LINE
  5
FFBBDAE469BBE562
  8
0
  6
CENTER
 10
-1231.1926426601799
 20
1050.000413250591
 30
0.0
 11
-1208.3402127790771
 21
1050.000413250591
 31
0.0
  0
LINE
  5
FFBBDAE469BBE563
  8
0
  6
CENTER
 10
-1220.500135537543
 20
1063.698545374338
 30
0.0
 11
-1220.500135537543
 21
1038.001338148928
 31
0.0
  0
POLYLINE
  5
FFBBDAE469BBE564
  8
0
  6
CONTINUOUS
 66
     1
 10
0.0
 20
0.0
 30
0.0
 70
     1
 40
6.0
 41
6.0
  0
VERTEX
  5
FFBBDAE469BC0F94
  8
0
  6
CONTINUOUS
 10
-1223.500135537543
 20
1050.000413250591
 30
0.0
 42
1.0
  0
VERTEX
  5
FFBBDAE469BC0F95
  8
0
  6
CONTINUOUS
 10
-1217.5001355375441
 20
1050.000413250591
 30
0.0
 42
1.0
  0
SEQEND
  5
FFBBDAE469BC0F96
  8
0
  6
CONTINUOUS
  0
LINE
  5
FFBBDAE469BBE565
  8
0
  6
CENTER
 10
-1231.1926426601799
 20
850.00041325059101
 30
0.0
 11
-1208.3402127790771
 21
850.00041325059101
 31
0.0
  0
LINE
  5
FFBBDAE469BBE566
  8
0
  6
CENTER
 10
-1220.500135537543
 20
863.69854537433832
 30
0.0
 11
-1220.500135537543
 21
838.00133814892797
 31
0.0
  0
POLYLINE
  5
FFBBDAE469BBE567
  8
0
  6
CONTINUOUS
 66
     1
 10
0.0
 20
0.0
 30
0.0
 70
     1
 40
6.0
 41
6.0
  0
VERTEX
  5
FFBBDAE469BC0F97
  8
0
  6
CONTINUOUS
 10
-1223.500135537543
 20
850.00041325059101
 30
0.0
 42
1.0
  0
VERTEX
  5
FFBBDAE469BC0F98
  8
0
  6
CONTINUOUS
 10
-1217.5001355375441
 20
850.00041325059101
 30
0.0
 42
1.0
  0
SEQEND
  5
FFBBDAE469BC0F99
  8
0
  6
CONTINUOUS
  0
LINE
  5
FFBBDAE469BBE568
  8
0
  6
CENTER
 10
-1231.1926426601799
 20
650.00041325059112
 30
0.0
 11
-1208.3402127790771
 21
650.00041325059112
 31
0.0
  0
LINE
  5
FFBBDAE469BBE569
  8
0
  6
CENTER
 10
-1220.500135537543
 20
663.69854537433832
 30
0.0
 11
-1220.500135537543
 21
638.00133814892797
 31
0.0
  0
POLYLINE
  5
FFBBDAE469BBE56A
  8
0
  6
CONTINUOUS
 66
     1
 10
0.0
 20
0.0
 30
0.0
 70
     1
 40
6.0
 41
6.0
  0
VERTEX
  5
FFBBDAE469BC0F9A
  8
0
  6
CONTINUOUS
 10
-1223.500135537543
 20
650.00041325059112
 30
0.0
 42
1.0
  0
VERTEX
  5
FFBBDAE469BC0F9B
  8
0
  6
CONTINUOUS
 10
-1217.5001355375441
 20
650.00041325059112
 30
0.0
 42
1.0
  0
SEQEND
  5
FFBBDAE469BC0F9C
  8
0
  6
CONTINUOUS
  0
LINE
  5
FFBBDAE469BBE56E
  8
0
  6
CENTER
 10
-1231.1926426601799
 20
450.00041325059112
 30
0.0
 11
-1208.3402127790771
 21
450.00041325059112
 31
0.0
  0
LINE
  5
FFBBDAE469BBE56F
  8
0
  6
CENTER
 10
-1220.500135537543
 20
463.69854537433832
 30
0.0
 11
-1220.500135537543
 21
438.00133814892803
 31
0.0
  0
POLYLINE
  5
FFBBDAE469BBE570
  8
0
  6
CONTINUOUS
 66
     1
 10
0.0
 20
0.0
 30
0.0
 70
     1
 40
6.0
 41
6.0
  0
VERTEX
  5
FFBBDAE469BC0F9D
  8
0
  6
CONTINUOUS
 10
-1223.500135537543
 20
450.00041325059112
 30
0.0
 42
1.0
  0
VERTEX
  5
FFBBDAE469BC0F9E
  8
0
  6
CONTINUOUS
 10
-1217.5001355375441
 20
450.00041325059112
 30
0.0
 42
1.0
  0
SEQEND
  5
FFBBDAE469BC0F9F
  8
0
  6
CONTINUOUS
  0
LINE
  5
FFBBDAE469BBE572
  8
0
  6
CENTER
 10
-1231.1926426601799
 20
250.00041325059109
 30
0.0
 11
-1208.3402127790771
 21
250.00041325059109
 31
0.0
  0
LINE
  5
FFBBDAE469BBE573
  8
0
  6
CENTER
 10
-1220.500135537543
 20
263.69854537433832
 30
0.0
 11
-1220.500135537543
 21
238.00133814892811
 31
0.0
  0
POLYLINE
  5
FFBBDAE469BBE574
  8
0
  6
CONTINUOUS
 66
     1
 10
0.0
 20
0.0
 30
0.0
 70
     1
 40
6.0
 41
6.0
  0
VERTEX
  5
FFBBDAE469BC0FA0
  8
0
  6
CONTINUOUS
 10
-1223.500135537543
 20
250.00041325059109
 30
0.0
 42
1.0
  0
VERTEX
  5
FFBBDAE469BC0FA1
  8
0
  6
CONTINUOUS
 10
-1217.5001355375441
 20
250.00041325059109
 30
0.0
 42
1.0
  0
SEQEND
  5
FFBBDAE469BC0FA2
  8
0
  6
CONTINUOUS
  0
LINE
  5
FFBBDAE469BBE576
  8
0
  6
CENTER
 10
-1231.1926426601799
 20
125.0
 30
0.0
 11
-1208.3402127790771
 21
125.0
 31
0.0
  0
LINE
  5
FFBBDAE469BBE577
  8
0
  6
CENTER
 10
-1220.500135537543
 20
111.3018678762528
 30
0.0
 11
-1220.500135537543
 21
136.99907510166301
 31
0.0
  0
POLYLINE
  5
FFBBDAE469BBE578
  8
0
  6
CONTINUOUS
 66
     1
 10
0.0
 20
0.0
 30
0.0
 70
     1
 40
6.0
 41
6.0
  0
VERTEX
  5
FFBBDAE469BC0FA3
  8
0
  6
CONTINUOUS
 10
-1223.500135537543
 20
125.0
 30
0.0
 42
-1.0
  0
VERTEX
  5
FFBBDAE469BC0FA4
  8
0
  6
CONTINUOUS
 10
-1217.5001355375441
 20
125.0
 30
0.0
 42
-1.0
  0
SEQEND
  5
FFBBDAE469BC0FA5
  8
0
  6
CONTINUOUS
  0
LINE
  5
FFBBDAE469BBE5D4
  8
0
  6
CENTER
 10
-655.69264266017944
 20
2250.000413250591
 30
0.0
 11
-632.84021277907675
 21
2250.000413250591
 31
0.0
  0
LINE
  5
FFBBDAE469BBE5D5
  8
0
  6
CENTER
 10
-645.00013553754343
 20
2263.6985453743382
 30
0.0
 11
-645.00013553754343
 21
2238.001338148928
 31
0.0
  0
POLYLINE
  5
FFBBDAE469BBE5D6
  8
0
  6
CONTINUOUS
 66
     1
 10
0.0
 20
0.0
 30
0.0
 70
     1
 40
6.0
 41
6.0
  0
VERTEX
  5
FFBBDAE469BC0FA6
  8
0
  6
CONTINUOUS
 10
-648.00013553754343
 20
2250.000413250591
 30
0.0
 42
1.0
  0
VERTEX
  5
FFBBDAE469BC0FA7
  8
0
  6
CONTINUOUS
 10
-642.00013553754343
 20
2250.000413250591
 30
0.0
 42
1.0
  0
SEQEND
  5
FFBBDAE469BC0FA8
  8
0
  6
CONTINUOUS
  0
LINE
  5
FFBBDAE469BBE5D7
  8
0
  6
CENTER
 10
-655.69264266017944
 20
2050.000413250591
 30
0.0
 11
-632.84021277907675
 21
2050.000413250591
 31
0.0
  0
LINE
  5
FFBBDAE469BBE5D8
  8
0
  6
CENTER
 10
-645.00013553754343
 20
2063.6985453743382
 30
0.0
 11
-645.00013553754343
 21
2038.001338148928
 31
0.0
  0
POLYLINE
  5
FFBBDAE469BBE5D9
  8
0
  6
CONTINUOUS
 66
     1
 10
0.0
 20
0.0
 30
0.0
 70
     1
 40
6.0
 41
6.0
  0
VERTEX
  5
FFBBDAE469BC0FA9
  8
0
  6
CONTINUOUS
 10
-648.00013553754343
 20
2050.000413250591
 30
0.0
 42
1.0
  0
VERTEX
  5
FFBBDAE469BC0FAA
  8
0
  6
CONTINUOUS
 10
-642.00013553754343
 20
2050.000413250591
 30
0.0
 42
1.0
  0
SEQEND
  5
FFBBDAE469BC0FAB
  8
0
  6
CONTINUOUS
  0
LINE
  5
FFBBDAE469BBE5DA
  8
0
  6
CENTER
 10
-655.69264266017944
 20
1850.000413250591
 30
0.0
 11
-632.84021277907675
 21
1850.000413250591
 31
0.0
  0
LINE
  5
FFBBDAE469BBE5DB
  8
0
  6
CENTER
 10
-645.00013553754343
 20
1863.698545374338
 30
0.0
 11
-645.00013553754343
 21
1838.001338148928
 31
0.0
  0
POLYLINE
  5
FFBBDAE469BBE5DC
  8
0
  6
CONTINUOUS
 66
     1
 10
0.0
 20
0.0
 30
0.0
 70
     1
 40
6.0
 41
6.0
  0
VERTEX
  5
FFBBDAE469BC0FAC
  8
0
  6
CONTINUOUS
 10
-648.00013553754343
 20
1850.000413250591
 30
0.0
 42
1.0
  0
VERTEX
  5
FFBBDAE469BC0FAD
  8
0
  6
CONTINUOUS
 10
-642.00013553754343
 20
1850.000413250591
 30
0.0
 42
1.0
  0
SEQEND
  5
FFBBDAE469BC0FAE
  8
0
  6
CONTINUOUS
  0
LINE
  5
FFBBDAE469BBE5DD
  8
0
  6
CENTER
 10
-655.69264266017944
 20
1650.000413250591
 30
0.0
 11
-632.84021277907675
 21
1650.000413250591
 31
0.0
  0
LINE
  5
FFBBDAE469BBE5DE
  8
0
  6
CENTER
 10
-645.00013553754343
 20
1663.698545374338
 30
0.0
 11
-645.00013553754343
 21
1638.001338148928
 31
0.0
  0
POLYLINE
  5
FFBBDAE469BBE5DF
  8
0
  6
CONTINUOUS
 66
     1
 10
0.0
 20
0.0
 30
0.0
 70
     1
 40
6.0
 41
6.0
  0
VERTEX
  5
FFBBDAE469BC0FAF
  8
0
  6
CONTINUOUS
 10
-648.00013553754343
 20
1650.000413250591
 30
0.0
 42
1.0
  0
VERTEX
  5
FFBBDAE469BC0FB0
  8
0
  6
CONTINUOUS
 10
-642.00013553754343
 20
1650.000413250591
 30
0.0
 42
1.0
  0
SEQEND
  5
FFBBDAE469BC0FB1
  8
0
  6
CONTINUOUS
  0
LINE
  5
FFBBDAE469BBE5E0
  8
0
  6
CENTER
 10
-655.69264266017944
 20
1450.000413250591
 30
0.0
 11
-632.84021277907675
 21
1450.000413250591
 31
0.0
  0
LINE
  5
FFBBDAE469BBE5E1
  8
0
  6
CENTER
 10
-645.00013553754343
 20
1463.698545374338
 30
0.0
 11
-645.00013553754343
 21
1438.001338148928
 31
0.0
  0
POLYLINE
  5
FFBBDAE469BBE5E2
  8
0
  6
CONTINUOUS
 66
     1
 10
0.0
 20
0.0
 30
0.0
 70
     1
 40
6.0
 41
6.0
  0
VERTEX
  5
FFBBDAE469BC0FB2
  8
0
  6
CONTINUOUS
 10
-648.00013553754343
 20
1450.000413250591
 30
0.0
 42
1.0
  0
VERTEX
  5
FFBBDAE469BC0FB3
  8
0
  6
CONTINUOUS
 10
-642.00013553754343
 20
1450.000413250591
 30
0.0
 42
1.0
  0
SEQEND
  5
FFBBDAE469BC0FB4
  8
0
  6
CONTINUOUS
  0
LINE
  5
FFBBDAE469BBE5E3
  8
0
  6
CENTER
 10
-655.69264266017944
 20
1250.000413250591
 30
0.0
 11
-632.84021277907675
 21
1250.000413250591
 31
0.0
  0
LINE
  5
FFBBDAE469BBE5E4
  8
0
  6
CENTER
 10
-645.00013553754343
 20
1263.698545374338
 30
0.0
 11
-645.00013553754343
 21
1238.001338148928
 31
0.0
  0
POLYLINE
  5
FFBBDAE469BBE5E5
  8
0
  6
CONTINUOUS
 66
     1
 10
0.0
 20
0.0
 30
0.0
 70
     1
 40
6.0
 41
6.0
  0
VERTEX
  5
FFBBDAE469BC0FB5
  8
0
  6
CONTINUOUS
 10
-648.00013553754343
 20
1250.000413250591
 30
0.0
 42
1.0
  0
VERTEX
  5
FFBBDAE469BC0FB6
  8
0
  6
CONTINUOUS
 10
-642.00013553754343
 20
1250.000413250591
 30
0.0
 42
1.0
  0
SEQEND
  5
FFBBDAE469BC0FB7
  8
0
  6
CONTINUOUS
  0
LINE
  5
FFBBDAE469BBE5E6
  8
0
  6
CENTER
 10
-655.69264266017944
 20
1050.000413250591
 30
0.0
 11
-632.84021277907675
 21
1050.000413250591
 31
0.0
  0
LINE
  5
FFBBDAE469BBE5E7
  8
0
  6
CENTER
 10
-645.00013553754343
 20
1063.698545374338
 30
0.0
 11
-645.00013553754343
 21
1038.001338148928
 31
0.0
  0
POLYLINE
  5
FFBBDAE469BBE5E8
  8
0
  6
CONTINUOUS
 66
     1
 10
0.0
 20
0.0
 30
0.0
 70
     1
 40
6.0
 41
6.0
  0
VERTEX
  5
FFBBDAE469BC0FB8
  8
0
  6
CONTINUOUS
 10
-648.00013553754343
 20
1050.000413250591
 30
0.0
 42
1.0
  0
VERTEX
  5
FFBBDAE469BC0FB9
  8
0
  6
CONTINUOUS
 10
-642.00013553754343
 20
1050.000413250591
 30
0.0
 42
1.0
  0
SEQEND
  5
FFBBDAE469BC0FBA
  8
0
  6
CONTINUOUS
  0
LINE
  5
FFBBDAE469BBE5E9
  8
0
  6
CENTER
 10
-655.69264266017944
 20
850.00041325059101
 30
0.0
 11
-632.84021277907675
 21
850.00041325059101
 31
0.0
  0
LINE
  5
FFBBDAE469BBE5EA
  8
0
  6
CENTER
 10
-645.00013553754343
 20
863.69854537433832
 30
0.0
 11
-645.00013553754343
 21
838.00133814892797
 31
0.0
  0
POLYLINE
  5
FFBBDAE469BBE5EB
  8
0
  6
CONTINUOUS
 66
     1
 10
0.0
 20
0.0
 30
0.0
 70
     1
 40
6.0
 41
6.0
  0
VERTEX
  5
FFBBDAE469BC0FBB
  8
0
  6
CONTINUOUS
 10
-648.00013553754343
 20
850.00041325059101
 30
0.0
 42
1.0
  0
VERTEX
  5
FFBBDAE469BC0FBC
  8
0
  6
CONTINUOUS
 10
-642.00013553754343
 20
850.00041325059101
 30
0.0
 42
1.0
  0
SEQEND
  5
FFBBDAE469BC0FBD
  8
0
  6
CONTINUOUS
  0
LINE
  5
FFBBDAE469BBE5EC
  8
0
  6
CENTER
 10
-655.69264266017944
 20
650.0004132505909
 30
0.0
 11
-632.84021277907675
 21
650.0004132505909
 31
0.0
  0
LINE
  5
FFBBDAE469BBE5ED
  8
0
  6
CENTER
 10
-645.00013553754343
 20
663.69854537433821
 30
0.0
 11
-645.00013553754343
 21
638.00133814892797
 31
0.0
  0
POLYLINE
  5
FFBBDAE469BBE5EE
  8
0
  6
CONTINUOUS
 66
     1
 10
0.0
 20
0.0
 30
0.0
 70
     1
 40
6.0
 41
6.0
  0
VERTEX
  5
FFBBDAE469BC0FBE
  8
0
  6
CONTINUOUS
 10
-648.00013553754343
 20
650.00041325059112
 30
0.0
 42
1.0
  0
VERTEX
  5
FFBBDAE469BC0FBF
  8
0
  6
CONTINUOUS
 10
-642.00013553754343
 20
650.00041325059112
 30
0.0
 42
1.0
  0
SEQEND
  5
FFBBDAE469BC0FC0
  8
0
  6
CONTINUOUS
  0
LINE
  5
FFBBDAE469BBE5EF
  8
0
  6
CENTER
 10
-655.69264266017944
 20
450.0004132505909
 30
0.0
 11
-632.84021277907675
 21
450.0004132505909
 31
0.0
  0
LINE
  5
FFBBDAE469BBE5F0
  8
0
  6
CENTER
 10
-645.00013553754343
 20
463.69854537433821
 30
0.0
 11
-645.00013553754343
 21
438.00133814892803
 31
0.0
  0
POLYLINE
  5
FFBBDAE469BBE5F1
  8
0
  6
CONTINUOUS
 66
     1
 10
0.0
 20
0.0
 30
0.0
 70
     1
 40
6.0
 41
6.0
  0
VERTEX
  5
FFBBDAE469BC0FC1
  8
0
  6
CONTINUOUS
 10
-648.00013553754343
 20
450.00041325059112
 30
0.0
 42
1.0
  0
VERTEX
  5
FFBBDAE469BC0FC2
  8
0
  6
CONTINUOUS
 10
-642.00013553754343
 20
450.00041325059112
 30
0.0
 42
1.0
  0
SEQEND
  5
FFBBDAE469BC0FC3
  8
0
  6
CONTINUOUS
  0
LINE
  5
FFBBDAE469BBE5F2
  8
0
  6
CENTER
 10
-655.69264266017944
 20
250.00041325059101
 30
0.0
 11
-632.84021277907675
 21
250.00041325059101
 31
0.0
  0
LINE
  5
FFBBDAE469BBE5F3
  8
0
  6
CENTER
 10
-645.00013553754343
 20
263.69854537433821
 30
0.0
 11
-645.00013553754343
 21
238.001338148928
 31
0.0
  0
POLYLINE
  5
FFBBDAE469BBE5F4
  8
0
  6
CONTINUOUS
 66
     1
 10
0.0
 20
0.0
 30
0.0
 70
     1
 40
6.0
 41
6.0
  0
VERTEX
  5
FFBBDAE469BC0FC4
  8
0
  6
CONTINUOUS
 10
-648.00013553754343
 20
250.00041325059109
 30
0.0
 42
1.0
  0
VERTEX
  5
FFBBDAE469BC0FC5
  8
0
  6
CONTINUOUS
 10
-642.00013553754343
 20
250.00041325059109
 30
0.0
 42
1.0
  0
SEQEND
  5
FFBBDAE469BC0FC6
  8
0
  6
CONTINUOUS
  0
LINE
  5
FFBBDAE469BBE627
  8
0
  6
CENTER
 10
-80.192642660179445
 20
2375.000413250591
 30
0.0
 11
-57.340212779076857
 21
2375.000413250591
 31
0.0
  0
LINE
  5
FFBBDAE469BBE628
  8
0
  6
CENTER
 10
-69.500135537543429
 20
2388.6985453743382
 30
0.0
 11
-69.500135537543429
 21
2363.001338148928
 31
0.0
  0
POLYLINE
  5
FFBBDAE469BBE629
  8
0
  6
CONTINUOUS
 66
     1
 10
0.0
 20
0.0
 30
0.0
 70
     1
 40
6.0
 41
6.0
  0
VERTEX
  5
FFBBDAE469BC0FC7
  8
0
  6
CONTINUOUS
 10
-72.500135537543414
 20
2375.000413250591
 30
0.0
 42
1.0
  0
VERTEX
  5
FFBBDAE469BC0FC8
  8
0
  6
CONTINUOUS
 10
-66.500135537543429
 20
2375.000413250591
 30
0.0
 42
1.0
  0
SEQEND
  5
FFBBDAE469BC0FC9
  8
0
  6
CONTINUOUS
  0
LINE
  5
FFBBDAE469BBE62A
  8
0
  6
CENTER
 10
-80.192642660179445
 20
2250.000413250591
 30
0.0
 11
-57.340212779076857
 21
2250.000413250591
 31
0.0
  0
LINE
  5
FFBBDAE469BBE62B
  8
0
  6
CENTER
 10
-69.500135537543429
 20
2263.6985453743382
 30
0.0
 11
-69.500135537543429
 21
2238.001338148928
 31
0.0
  0
POLYLINE
  5
FFBBDAE469BBE62C
  8
0
  6
CONTINUOUS
 66
     1
 10
0.0
 20
0.0
 30
0.0
 70
     1
 40
6.0
 41
6.0
  0
VERTEX
  5
FFBBDAE469BC0FCA
  8
0
  6
CONTINUOUS
 10
-72.500135537543414
 20
2250.000413250591
 30
0.0
 42
1.0
  0
VERTEX
  5
FFBBDAE469BC0FCB
  8
0
  6
CONTINUOUS
 10
-66.500135537543429
 20
2250.000413250591
 30
0.0
 42
1.0
  0
SEQEND
  5
FFBBDAE469BC0FCC
  8
0
  6
CONTINUOUS
  0
LINE
  5
FFBBDAE469BBE62D
  8
0
  6
CENTER
 10
-80.192642660179445
 20
2050.000413250591
 30
0.0
 11
-57.340212779076857
 21
2050.000413250591
 31
0.0
  0
LINE
  5
FFBBDAE469BBE62E
  8
0
  6
CENTER
 10
-69.500135537543429
 20
2063.6985453743382
 30
0.0
 11
-69.500135537543429
 21
2038.001338148928
 31
0.0
  0
POLYLINE
  5
FFBBDAE469BBE62F
  8
0
  6
CONTINUOUS
 66
     1
 10
0.0
 20
0.0
 30
0.0
 70
     1
 40
6.0
 41
6.0
  0
VERTEX
  5
FFBBDAE469BC0FCD
  8
0
  6
CONTINUOUS
 10
-72.500135537543414
 20
2050.000413250591
 30
0.0
 42
1.0
  0
VERTEX
  5
FFBBDAE469BC0FCE
  8
0
  6
CONTINUOUS
 10
-66.500135537543429
 20
2050.000413250591
 30
0.0
 42
1.0
  0
SEQEND
  5
FFBBDAE469BC0FCF
  8
0
  6
CONTINUOUS
  0
LINE
  5
FFBBDAE469BBE630
  8
0
  6
CENTER
 10
-80.192642660179445
 20
1850.000413250591
 30
0.0
 11
-57.340212779076857
 21
1850.000413250591
 31
0.0
  0
LINE
  5
FFBBDAE469BBE631
  8
0
  6
CENTER
 10
-69.500135537543429
 20
1863.698545374338
 30
0.0
 11
-69.500135537543429
 21
1838.001338148928
 31
0.0
  0
POLYLINE
  5
FFBBDAE469BBE632
  8
0
  6
CONTINUOUS
 66
     1
 10
0.0
 20
0.0
 30
0.0
 70
     1
 40
6.0
 41
6.0
  0
VERTEX
  5
FFBBDAE469BC0FD0
  8
0
  6
CONTINUOUS
 10
-72.500135537543414
 20
1850.000413250591
 30
0.0
 42
1.0
  0
VERTEX
  5
FFBBDAE469BC0FD1
  8
0
  6
CONTINUOUS
 10
-66.500135537543429
 20
1850.000413250591
 30
0.0
 42
1.0
  0
SEQEND
  5
FFBBDAE469BC0FD2
  8
0
  6
CONTINUOUS
  0
LINE
  5
FFBBDAE469BBE633
  8
0
  6
CENTER
 10
-80.192642660179445
 20
1650.000413250591
 30
0.0
 11
-57.340212779076857
 21
1650.000413250591
 31
0.0
  0
LINE
  5
FFBBDAE469BBE634
  8
0
  6
CENTER
 10
-69.500135537543429
 20
1663.698545374338
 30
0.0
 11
-69.500135537543429
 21
1638.001338148928
 31
0.0
  0
POLYLINE
  5
FFBBDAE469BBE635
  8
0
  6
CONTINUOUS
 66
     1
 10
0.0
 20
0.0
 30
0.0
 70
     1
 40
6.0
 41
6.0
  0
VERTEX
  5
FFBBDAE469BC0FD3
  8
0
  6
CONTINUOUS
 10
-72.500135537543414
 20
1650.000413250591
 30
0.0
 42
1.0
  0
VERTEX
  5
FFBBDAE469BC0FD4
  8
0
  6
CONTINUOUS
 10
-66.500135537543429
 20
1650.000413250591
 30
0.0
 42
1.0
  0
SEQEND
  5
FFBBDAE469BC0FD5
  8
0
  6
CONTINUOUS
  0
LINE
  5
FFBBDAE469BBE636
  8
0
  6
CENTER
 10
-80.192642660179445
 20
1450.000413250591
 30
0.0
 11
-57.340212779076857
 21
1450.000413250591
 31
0.0
  0
LINE
  5
FFBBDAE469BBE637
  8
0
  6
CENTER
 10
-69.500135537543429
 20
1463.698545374338
 30
0.0
 11
-69.500135537543429
 21
1438.001338148928
 31
0.0
  0
POLYLINE
  5
FFBBDAE469BBE638
  8
0
  6
CONTINUOUS
 66
     1
 10
0.0
 20
0.0
 30
0.0
 70
     1
 40
6.0
 41
6.0
  0
VERTEX
  5
FFBBDAE469BC0FD6
  8
0
  6
CONTINUOUS
 10
-72.500135537543414
 20
1450.000413250591
 30
0.0
 42
1.0
  0
VERTEX
  5
FFBBDAE469BC0FD7
  8
0
  6
CONTINUOUS
 10
-66.500135537543429
 20
1450.000413250591
 30
0.0
 42
1.0
  0
SEQEND
  5
FFBBDAE469BC0FD8
  8
0
  6
CONTINUOUS
  0
LINE
  5
FFBBDAE469BBE639
  8
0
  6
CENTER
 10
-80.192642660179445
 20
1250.000413250591
 30
0.0
 11
-57.340212779076857
 21
1250.000413250591
 31
0.0
  0
LINE
  5
FFBBDAE469BBE63A
  8
0
  6
CENTER
 10
-69.500135537543429
 20
1263.698545374338
 30
0.0
 11
-69.500135537543429
 21
1238.001338148928
 31
0.0
  0
POLYLINE
  5
FFBBDAE469BBE63B
  8
0
  6
CONTINUOUS
 66
     1
 10
0.0
 20
0.0
 30
0.0
 70
     1
 40
6.0
 41
6.0
  0
VERTEX
  5
FFBBDAE469BC0FD9
  8
0
  6
CONTINUOUS
 10
-72.500135537543414
 20
1250.000413250591
 30
0.0
 42
1.0
  0
VERTEX
  5
FFBBDAE469BC0FDA
  8
0
  6
CONTINUOUS
 10
-66.500135537543429
 20
1250.000413250591
 30
0.0
 42
1.0
  0
SEQEND
  5
FFBBDAE469BC0FDB
  8
0
  6
CONTINUOUS
  0
LINE
  5
FFBBDAE469BBE63C
  8
0
  6
CENTER
 10
-80.192642660179445
 20
1050.000413250591
 30
0.0
 11
-57.340212779076857
 21
1050.000413250591
 31
0.0
  0
LINE
  5
FFBBDAE469BBE63D
  8
0
  6
CENTER
 10
-69.500135537543429
 20
1063.698545374338
 30
0.0
 11
-69.500135537543429
 21
1038.001338148928
 31
0.0
  0
POLYLINE
  5
FFBBDAE469BBE63E
  8
0
  6
CONTINUOUS
 66
     1
 10
0.0
 20
0.0
 30
0.0
 70
     1
 40
6.0
 41
6.0
  0
VERTEX
  5
FFBBDAE469BC0FDC
  8
0
  6
CONTINUOUS
 10
-72.500135537543414
 20
1050.000413250591
 30
0.0
 42
1.0
  0
VERTEX
  5
FFBBDAE469BC0FDD
  8
0
  6
CONTINUOUS
 10
-66.500135537543429
 20
1050.000413250591
 30
0.0
 42
1.0
  0
SEQEND
  5
FFBBDAE469BC0FDE
  8
0
  6
CONTINUOUS
  0
LINE
  5
FFBBDAE469BBE63F
  8
0
  6
CENTER
 10
-80.192642660179445
 20
850.00041325059101
 30
0.0
 11
-57.340212779076857
 21
850.00041325059101
 31
0.0
  0
LINE
  5
FFBBDAE469BBE640
  8
0
  6
CENTER
 10
-69.500135537543429
 20
863.6985453743381
 30
0.0
 11
-69.500135537543429
 21
838.00133814892786
 31
0.0
  0
POLYLINE
  5
FFBBDAE469BBE641
  8
0
  6
CONTINUOUS
 66
     1
 10
0.0
 20
0.0
 30
0.0
 70
     1
 40
6.0
 41
6.0
  0
VERTEX
  5
FFBBDAE469BC0FDF
  8
0
  6
CONTINUOUS
 10
-72.500135537543414
 20
850.00041325059101
 30
0.0
 42
1.0
  0
VERTEX
  5
FFBBDAE469BC0FE0
  8
0
  6
CONTINUOUS
 10
-66.500135537543429
 20
850.00041325059101
 30
0.0
 42
1.0
  0
SEQEND
  5
FFBBDAE469BC0FE1
  8
0
  6
CONTINUOUS
  0
LINE
  5
FFBBDAE469BBE642
  8
0
  6
CENTER
 10
-80.192642660179445
 20
650.0004132505909
 30
0.0
 11
-57.340212779076857
 21
650.0004132505909
 31
0.0
  0
LINE
  5
FFBBDAE469BBE643
  8
0
  6
CENTER
 10
-69.500135537543429
 20
663.69854537433821
 30
0.0
 11
-69.500135537543429
 21
638.00133814892797
 31
0.0
  0
POLYLINE
  5
FFBBDAE469BBE644
  8
0
  6
CONTINUOUS
 66
     1
 10
0.0
 20
0.0
 30
0.0
 70
     1
 40
6.0
 41
6.0
  0
VERTEX
  5
FFBBDAE469BC0FE2
  8
0
  6
CONTINUOUS
 10
-72.500135537543414
 20
650.00041325059112
 30
0.0
 42
1.0
  0
VERTEX
  5
FFBBDAE469BC0FE3
  8
0
  6
CONTINUOUS
 10
-66.500135537543429
 20
650.00041325059112
 30
0.0
 42
1.0
  0
SEQEND
  5
FFBBDAE469BC0FE4
  8
0
  6
CONTINUOUS
  0
LINE
  5
FFBBDAE469BBE645
  8
0
  6
CENTER
 10
-80.192642660179445
 20
450.0004132505909
 30
0.0
 11
-57.340212779076857
 21
450.0004132505909
 31
0.0
  0
LINE
  5
FFBBDAE469BBE646
  8
0
  6
CENTER
 10
-69.500135537543429
 20
463.69854537433821
 30
0.0
 11
-69.500135537543429
 21
438.00133814892803
 31
0.0
  0
POLYLINE
  5
FFBBDAE469BBE647
  8
0
  6
CONTINUOUS
 66
     1
 10
0.0
 20
0.0
 30
0.0
 70
     1
 40
6.0
 41
6.0
  0
VERTEX
  5
FFBBDAE469BC0FE5
  8
0
  6
CONTINUOUS
 10
-72.500135537543414
 20
450.00041325059112
 30
0.0
 42
1.0
  0
VERTEX
  5
FFBBDAE469BC0FE6
  8
0
  6
CONTINUOUS
 10
-66.500135537543429
 20
450.00041325059112
 30
0.0
 42
1.0
  0
SEQEND
  5
FFBBDAE469BC0FE7
  8
0
  6
CONTINUOUS
  0
LINE
  5
FFBBDAE469BBE648
  8
0
  6
CENTER
 10
-80.192642660179445
 20
250.00041325059101
 30
0.0
 11
-57.340212779076857
 21
250.00041325059101
 31
0.0
  0
LINE
  5
FFBBDAE469BBE649
  8
0
  6
CENTER
 10
-69.500135537543429
 20
263.69854537433821
 30
0.0
 11
-69.500135537543429
 21
238.001338148928
 31
0.0
  0
POLYLINE
  5
FFBBDAE469BBE64A
  8
0
  6
CONTINUOUS
 66
     1
 10
0.0
 20
0.0
 30
0.0
 70
     1
 40
6.0
 41
6.0
  0
VERTEX
  5
FFBBDAE469BC0FE8
  8
0
  6
CONTINUOUS
 10
-72.500135537543414
 20
250.00041325059109
 30
0.0
 42
1.0
  0
VERTEX
  5
FFBBDAE469BC0FE9
  8
0
  6
CONTINUOUS
 10
-66.500135537543429
 20
250.00041325059109
 30
0.0
 42
1.0
  0
SEQEND
  5
FFBBDAE469BC0FEA
  8
0
  6
CONTINUOUS
  0
LINE
  5
FFBBDAE469BBE64B
  8
0
  6
CENTER
 10
-80.192642660179445
 20
125.0
 30
0.0
 11
-57.340212779076857
 21
125.0
 31
0.0
  0
LINE
  5
FFBBDAE469BBE64C
  8
0
  6
CENTER
 10
-69.500135537543429
 20
111.3018678762528
 30
0.0
 11
-69.500135537543429
 21
136.99907510166301
 31
0.0
  0
POLYLINE
  5
FFBBDAE469BBE64D
  8
0
  6
CONTINUOUS
 66
     1
 10
0.0
 20
0.0
 30
0.0
 70
     1
 40
6.0
 41
6.0
  0
VERTEX
  5
FFBBDAE469BC0FEB
  8
0
  6
CONTINUOUS
 10
-72.500135537543414
 20
125.0
 30
0.0
 42
-1.0
  0
VERTEX
  5
FFBBDAE469BC0FEC
  8
0
  6
CONTINUOUS
 10
-66.500135537543429
 20
125.0
 30
0.0
 42
-1.0
  0
SEQEND
  5
FFBBDAE469BC0FED
  8
0
  6
CONTINUOUS
  0
LINE
  5
FFBBDAE469BBE685
  8
0
  6
CENTER
 10
565.69264266018206
 20
2250.000413250591
 30
0.0
 11
542.84021277907948
 21
2250.000413250591
 31
0.0
  0
LINE
  5
FFBBDAE469BBE686
  8
0
  6
CENTER
 10
555.00013553754604
 20
2263.6985453743382
 30
0.0
 11
555.00013553754604
 21
2238.001338148928
 31
0.0
  0
POLYLINE
  5
FFBBDAE469BBE687
  8
0
  6
CONTINUOUS
 66
     1
 10
0.0
 20
0.0
 30
0.0
 70
     1
 40
6.0
 41
6.0
  0
VERTEX
  5
FFBBDAE469BC0FEE
  8
0
  6
CONTINUOUS
 10
558.00013553754604
 20
2250.000413250591
 30
0.0
 42
-1.0
  0
VERTEX
  5
FFBBDAE469BC0FEF
  8
0
  6
CONTINUOUS
 10
552.00013553754616
 20
2250.000413250591
 30
0.0
 42
-1.0
  0
SEQEND
  5
FFBBDAE469BC0FF0
  8
0
  6
CONTINUOUS
  0
LINE
  5
FFBBDAE469BBE688
  8
0
  6
CENTER
 10
565.69264266018206
 20
2050.000413250591
 30
0.0
 11
542.84021277907948
 21
2050.000413250591
 31
0.0
  0
LINE
  5
FFBBDAE469BBE689
  8
0
  6
CENTER
 10
555.00013553754604
 20
2063.6985453743382
 30
0.0
 11
555.00013553754604
 21
2038.001338148928
 31
0.0
  0
POLYLINE
  5
FFBBDAE469BBE68A
  8
0
  6
CONTINUOUS
 66
     1
 10
0.0
 20
0.0
 30
0.0
 70
     1
 40
6.0
 41
6.0
  0
VERTEX
  5
FFBBDAE469BC0FF1
  8
0
  6
CONTINUOUS
 10
558.00013553754604
 20
2050.000413250591
 30
0.0
 42
-1.0
  0
VERTEX
  5
FFBBDAE469BC0FF2
  8
0
  6
CONTINUOUS
 10
552.00013553754616
 20
2050.000413250591
 30
0.0
 42
-1.0
  0
SEQEND
  5
FFBBDAE469BC0FF3
  8
0
  6
CONTINUOUS
  0
LINE
  5
FFBBDAE469BBE68B
  8
0
  6
CENTER
 10
565.69264266018206
 20
1850.000413250591
 30
0.0
 11
542.84021277907948
 21
1850.000413250591
 31
0.0
  0
LINE
  5
FFBBDAE469BBE68C
  8
0
  6
CENTER
 10
555.00013553754604
 20
1863.698545374338
 30
0.0
 11
555.00013553754604
 21
1838.001338148928
 31
0.0
  0
POLYLINE
  5
FFBBDAE469BBE68D
  8
0
  6
CONTINUOUS
 66
     1
 10
0.0
 20
0.0
 30
0.0
 70
     1
 40
6.0
 41
6.0
  0
VERTEX
  5
FFBBDAE469BC0FF4
  8
0
  6
CONTINUOUS
 10
558.00013553754604
 20
1850.000413250591
 30
0.0
 42
-1.0
  0
VERTEX
  5
FFBBDAE469BC0FF5
  8
0
  6
CONTINUOUS
 10
552.00013553754616
 20
1850.000413250591
 30
0.0
 42
-1.0
  0
SEQEND
  5
FFBBDAE469BC0FF6
  8
0
  6
CONTINUOUS
  0
LINE
  5
FFBBDAE469BBE68E
  8
0
  6
CENTER
 10
565.69264266018206
 20
1650.000413250591
 30
0.0
 11
542.84021277907948
 21
1650.000413250591
 31
0.0
  0
LINE
  5
FFBBDAE469BBE68F
  8
0
  6
CENTER
 10
555.00013553754604
 20
1663.698545374338
 30
0.0
 11
555.00013553754604
 21
1638.001338148928
 31
0.0
  0
POLYLINE
  5
FFBBDAE469BBE690
  8
0
  6
CONTINUOUS
 66
     1
 10
0.0
 20
0.0
 30
0.0
 70
     1
 40
6.0
 41
6.0
  0
VERTEX
  5
FFBBDAE469BC0FF7
  8
0
  6
CONTINUOUS
 10
558.00013553754604
 20
1650.000413250591
 30
0.0
 42
-1.0
  0
VERTEX
  5
FFBBDAE469BC0FF8
  8
0
  6
CONTINUOUS
 10
552.00013553754616
 20
1650.000413250591
 30
0.0
 42
-1.0
  0
SEQEND
  5
FFBBDAE469BC0FF9
  8
0
  6
CONTINUOUS
  0
LINE
  5
FFBBDAE469BBE691
  8
0
  6
CENTER
 10
565.69264266018206
 20
1450.000413250591
 30
0.0
 11
542.84021277907948
 21
1450.000413250591
 31
0.0
  0
LINE
  5
FFBBDAE469BBE692
  8
0
  6
CENTER
 10
555.00013553754604
 20
1463.698545374338
 30
0.0
 11
555.00013553754604
 21
1438.001338148928
 31
0.0
  0
POLYLINE
  5
FFBBDAE469BBE693
  8
0
  6
CONTINUOUS
 66
     1
 10
0.0
 20
0.0
 30
0.0
 70
     1
 40
6.0
 41
6.0
  0
VERTEX
  5
FFBBDAE469BC0FFA
  8
0
  6
CONTINUOUS
 10
558.00013553754604
 20
1450.000413250591
 30
0.0
 42
-1.0
  0
VERTEX
  5
FFBBDAE469BC0FFB
  8
0
  6
CONTINUOUS
 10
552.00013553754616
 20
1450.000413250591
 30
0.0
 42
-1.0
  0
SEQEND
  5
FFBBDAE469BC0FFC
  8
0
  6
CONTINUOUS
  0
LINE
  5
FFBBDAE469BBE694
  8
0
  6
CENTER
 10
565.69264266018206
 20
1250.000413250591
 30
0.0
 11
542.84021277907948
 21
1250.000413250591
 31
0.0
  0
LINE
  5
FFBBDAE469BBE695
  8
0
  6
CENTER
 10
555.00013553754604
 20
1263.698545374338
 30
0.0
 11
555.00013553754604
 21
1238.001338148928
 31
0.0
  0
POLYLINE
  5
FFBBDAE469BBE696
  8
0
  6
CONTINUOUS
 66
     1
 10
0.0
 20
0.0
 30
0.0
 70
     1
 40
6.0
 41
6.0
  0
VERTEX
  5
FFBBDAE469BC0FFD
  8
0
  6
CONTINUOUS
 10
558.00013553754604
 20
1250.000413250591
 30
0.0
 42
-1.0
  0
VERTEX
  5
FFBBDAE469BC0FFE
  8
0
  6
CONTINUOUS
 10
552.00013553754616
 20
1250.000413250591
 30
0.0
 42
-1.0
  0
SEQEND
  5
FFBBDAE469BC0FFF
  8
0
  6
CONTINUOUS
  0
LINE
  5
FFBBDAE469BBE697
  8
0
  6
CENTER
 10
565.69264266018206
 20
1050.000413250591
 30
0.0
 11
542.84021277907948
 21
1050.000413250591
 31
0.0
  0
LINE
  5
FFBBDAE469BBE698
  8
0
  6
CENTER
 10
555.00013553754604
 20
1063.698545374338
 30
0.0
 11
555.00013553754604
 21
1038.001338148928
 31
0.0
  0
POLYLINE
  5
FFBBDAE469BBE699
  8
0
  6
CONTINUOUS
 66
     1
 10
0.0
 20
0.0
 30
0.0
 70
     1
 40
6.0
 41
6.0
  0
VERTEX
  5
FFBBDAE469BC1000
  8
0
  6
CONTINUOUS
 10
558.00013553754604
 20
1050.000413250591
 30
0.0
 42
-1.0
  0
VERTEX
  5
FFBBDAE469BC1001
  8
0
  6
CONTINUOUS
 10
552.00013553754616
 20
1050.000413250591
 30
0.0
 42
-1.0
  0
SEQEND
  5
FFBBDAE469BC1002
  8
0
  6
CONTINUOUS
  0
LINE
  5
FFBBDAE469BBE69A
  8
0
  6
CENTER
 10
565.69264266018206
 20
850.00041325059101
 30
0.0
 11
542.84021277907948
 21
850.00041325059101
 31
0.0
  0
LINE
  5
FFBBDAE469BBE69B
  8
0
  6
CENTER
 10
555.00013553754604
 20
863.69854537433832
 30
0.0
 11
555.00013553754604
 21
838.00133814892797
 31
0.0
  0
POLYLINE
  5
FFBBDAE469BBE69C
  8
0
  6
CONTINUOUS
 66
     1
 10
0.0
 20
0.0
 30
0.0
 70
     1
 40
6.0
 41
6.0
  0
VERTEX
  5
FFBBDAE469BC1003
  8
0
  6
CONTINUOUS
 10
558.00013553754604
 20
850.00041325059101
 30
0.0
 42
-1.0
  0
VERTEX
  5
FFBBDAE469BC1004
  8
0
  6
CONTINUOUS
 10
552.00013553754616
 20
850.00041325059101
 30
0.0
 42
-1.0
  0
SEQEND
  5
FFBBDAE469BC1005
  8
0
  6
CONTINUOUS
  0
LINE
  5
FFBBDAE469BBE69D
  8
0
  6
CENTER
 10
565.69264266018206
 20
650.0004132505909
 30
0.0
 11
542.84021277907948
 21
650.0004132505909
 31
0.0
  0
LINE
  5
FFBBDAE469BBE69E
  8
0
  6
CENTER
 10
555.00013553754604
 20
663.69854537433821
 30
0.0
 11
555.00013553754604
 21
638.00133814892797
 31
0.0
  0
POLYLINE
  5
FFBBDAE469BBE69F
  8
0
  6
CONTINUOUS
 66
     1
 10
0.0
 20
0.0
 30
0.0
 70
     1
 40
6.0
 41
6.0
  0
VERTEX
  5
FFBBDAE469BC1006
  8
0
  6
CONTINUOUS
 10
558.00013553754604
 20
650.00041325059112
 30
0.0
 42
-1.0
  0
VERTEX
  5
FFBBDAE469BC1007
  8
0
  6
CONTINUOUS
 10
552.00013553754616
 20
650.00041325059112
 30
0.0
 42
-1.0
  0
SEQEND
  5
FFBBDAE469BC1008
  8
0
  6
CONTINUOUS
  0
LINE
  5
FFBBDAE469BBE6A0
  8
0
  6
CENTER
 10
565.69264266018206
 20
450.0004132505909
 30
0.0
 11
542.84021277907948
 21
450.0004132505909
 31
0.0
  0
LINE
  5
FFBBDAE469BBE6A1
  8
0
  6
CENTER
 10
555.00013553754604
 20
463.69854537433821
 30
0.0
 11
555.00013553754604
 21
438.00133814892803
 31
0.0
  0
POLYLINE
  5
FFBBDAE469BBE6A2
  8
0
  6
CONTINUOUS
 66
     1
 10
0.0
 20
0.0
 30
0.0
 70
     1
 40
6.0
 41
6.0
  0
VERTEX
  5
FFBBDAE469BC1009
  8
0
  6
CONTINUOUS
 10
558.00013553754604
 20
450.00041325059112
 30
0.0
 42
-1.0
  0
VERTEX
  5
FFBBDAE469BC100A
  8
0
  6
CONTINUOUS
 10
552.00013553754616
 20
450.00041325059112
 30
0.0
 42
-1.0
  0
SEQEND
  5
FFBBDAE469BC100B
  8
0
  6
CONTINUOUS
  0
LINE
  5
FFBBDAE469BBE6A3
  8
0
  6
CENTER
 10
565.69264266018206
 20
250.00041325059101
 30
0.0
 11
542.84021277907948
 21
250.00041325059101
 31
0.0
  0
LINE
  5
FFBBDAE469BBE6A4
  8
0
  6
CENTER
 10
555.00013553754604
 20
263.69854537433821
 30
0.0
 11
555.00013553754604
 21
238.001338148928
 31
0.0
  0
POLYLINE
  5
FFBBDAE469BBE6A5
  8
0
  6
CONTINUOUS
 66
     1
 10
0.0
 20
0.0
 30
0.0
 70
     1
 40
6.0
 41
6.0
  0
VERTEX
  5
FFBBDAE469BC100C
  8
0
  6
CONTINUOUS
 10
558.00013553754604
 20
250.00041325059109
 30
0.0
 42
-1.0
  0
VERTEX
  5
FFBBDAE469BC100D
  8
0
  6
CONTINUOUS
 10
552.00013553754616
 20
250.00041325059109
 30
0.0
 42
-1.0
  0
SEQEND
  5
FFBBDAE469BC100E
  8
0
  6
CONTINUOUS
  0
LINE
  5
FFBBDAE469BBE6A9
  8
0
  6
CENTER
 10
-9.8073573398178269
 20
2375.000413250591
 30
0.0
 11
-32.659787220920407
 21
2375.000413250591
 31
0.0
  0
LINE
  5
FFBBDAE469BBE6AA
  8
0
  6
CENTER
 10
-20.499864462453839
 20
2388.6985453743382
 30
0.0
 11
-20.499864462453839
 21
2363.001338148928
 31
0.0
  0
POLYLINE
  5
FFBBDAE469BBE6AB
  8
0
  6
CONTINUOUS
 66
     1
 10
0.0
 20
0.0
 30
0.0
 70
     1
 40
6.0
 41
6.0
  0
VERTEX
  5
FFBBDAE469BC100F
  8
0
  6
CONTINUOUS
 10
-17.499864462453839
 20
2375.000413250591
 30
0.0
 42
-1.0
  0
VERTEX
  5
FFBBDAE469BC1010
  8
0
  6
CONTINUOUS
 10
-23.499864462453839
 20
2375.000413250591
 30
0.0
 42
-1.0
  0
SEQEND
  5
FFBBDAE469BC1011
  8
0
  6
CONTINUOUS
  0
LINE
  5
FFBBDAE469BBE6AC
  8
0
  6
CENTER
 10
-9.8073573398178269
 20
2250.000413250591
 30
0.0
 11
-32.659787220920407
 21
2250.000413250591
 31
0.0
  0
LINE
  5
FFBBDAE469BBE6AD
  8
0
  6
CENTER
 10
-20.499864462453839
 20
2263.6985453743382
 30
0.0
 11
-20.499864462453839
 21
2238.001338148928
 31
0.0
  0
POLYLINE
  5
FFBBDAE469BBE6AE
  8
0
  6
CONTINUOUS
 66
     1
 10
0.0
 20
0.0
 30
0.0
 70
     1
 40
6.0
 41
6.0
  0
VERTEX
  5
FFBBDAE469BC1012
  8
0
  6
CONTINUOUS
 10
-17.499864462453839
 20
2250.000413250591
 30
0.0
 42
-1.0
  0
VERTEX
  5
FFBBDAE469BC1013
  8
0
  6
CONTINUOUS
 10
-23.499864462453839
 20
2250.000413250591
 30
0.0
 42
-1.0
  0
SEQEND
  5
FFBBDAE469BC1014
  8
0
  6
CONTINUOUS
  0
LINE
  5
FFBBDAE469BBE6AF
  8
0
  6
CENTER
 10
-9.8073573398178269
 20
2050.000413250591
 30
0.0
 11
-32.659787220920407
 21
2050.000413250591
 31
0.0
  0
LINE
  5
FFBBDAE469BBE6B0
  8
0
  6
CENTER
 10
-20.499864462453839
 20
2063.6985453743382
 30
0.0
 11
-20.499864462453839
 21
2038.001338148928
 31
0.0
  0
POLYLINE
  5
FFBBDAE469BBE6B1
  8
0
  6
CONTINUOUS
 66
     1
 10
0.0
 20
0.0
 30
0.0
 70
     1
 40
6.0
 41
6.0
  0
VERTEX
  5
FFBBDAE469BC1015
  8
0
  6
CONTINUOUS
 10
-17.499864462453839
 20
2050.000413250591
 30
0.0
 42
-1.0
  0
VERTEX
  5
FFBBDAE469BC1016
  8
0
  6
CONTINUOUS
 10
-23.499864462453839
 20
2050.000413250591
 30
0.0
 42
-1.0
  0
SEQEND
  5
FFBBDAE469BC1017
  8
0
  6
CONTINUOUS
  0
LINE
  5
FFBBDAE469BBE6B2
  8
0
  6
CENTER
 10
-9.8073573398178269
 20
1850.000413250591
 30
0.0
 11
-32.659787220920407
 21
1850.000413250591
 31
0.0
  0
LINE
  5
FFBBDAE469BBE6B3
  8
0
  6
CENTER
 10
-20.499864462453839
 20
1863.698545374338
 30
0.0
 11
-20.499864462453839
 21
1838.001338148928
 31
0.0
  0
POLYLINE
  5
FFBBDAE469BBE6B4
  8
0
  6
CONTINUOUS
 66
     1
 10
0.0
 20
0.0
 30
0.0
 70
     1
 40
6.0
 41
6.0
  0
VERTEX
  5
FFBBDAE469BC1018
  8
0
  6
CONTINUOUS
 10
-17.499864462453839
 20
1850.000413250591
 30
0.0
 42
-1.0
  0
VERTEX
  5
FFBBDAE469BC1019
  8
0
  6
CONTINUOUS
 10
-23.499864462453839
 20
1850.000413250591
 30
0.0
 42
-1.0
  0
SEQEND
  5
FFBBDAE469BC101A
  8
0
  6
CONTINUOUS
  0
LINE
  5
FFBBDAE469BBE6B5
  8
0
  6
CENTER
 10
-9.8073573398178269
 20
1650.000413250591
 30
0.0
 11
-32.659787220920407
 21
1650.000413250591
 31
0.0
  0
LINE
  5
FFBBDAE469BBE6B6
  8
0
  6
CENTER
 10
-20.499864462453839
 20
1663.698545374338
 30
0.0
 11
-20.499864462453839
 21
1638.001338148928
 31
0.0
  0
POLYLINE
  5
FFBBDAE469BBE6B7
  8
0
  6
CONTINUOUS
 66
     1
 10
0.0
 20
0.0
 30
0.0
 70
     1
 40
6.0
 41
6.0
  0
VERTEX
  5
FFBBDAE469BC101B
  8
0
  6
CONTINUOUS
 10
-17.499864462453839
 20
1650.000413250591
 30
0.0
 42
-1.0
  0
VERTEX
  5
FFBBDAE469BC101C
  8
0
  6
CONTINUOUS
 10
-23.499864462453839
 20
1650.000413250591
 30
0.0
 42
-1.0
  0
SEQEND
  5
FFBBDAE469BC101D
  8
0
  6
CONTINUOUS
  0
LINE
  5
FFBBDAE469BBE6B8
  8
0
  6
CENTER
 10
-9.8073573398178269
 20
1450.000413250591
 30
0.0
 11
-32.659787220920407
 21
1450.000413250591
 31
0.0
  0
LINE
  5
FFBBDAE469BBE6B9
  8
0
  6
CENTER
 10
-20.499864462453839
 20
1463.698545374338
 30
0.0
 11
-20.499864462453839
 21
1438.001338148928
 31
0.0
  0
POLYLINE
  5
FFBBDAE469BBE6BA
  8
0
  6
CONTINUOUS
 66
     1
 10
0.0
 20
0.0
 30
0.0
 70
     1
 40
6.0
 41
6.0
  0
VERTEX
  5
FFBBDAE469BC101E
  8
0
  6
CONTINUOUS
 10
-17.499864462453839
 20
1450.000413250591
 30
0.0
 42
-1.0
  0
VERTEX
  5
FFBBDAE469BC101F
  8
0
  6
CONTINUOUS
 10
-23.499864462453839
 20
1450.000413250591
 30
0.0
 42
-1.0
  0
SEQEND
  5
FFBBDAE469BC1020
  8
0
  6
CONTINUOUS
  0
LINE
  5
FFBBDAE469BBE6BB
  8
0
  6
CENTER
 10
-9.8073573398178269
 20
1250.000413250591
 30
0.0
 11
-32.659787220920407
 21
1250.000413250591
 31
0.0
  0
LINE
  5
FFBBDAE469BBE6BC
  8
0
  6
CENTER
 10
-20.499864462453839
 20
1263.698545374338
 30
0.0
 11
-20.499864462453839
 21
1238.001338148928
 31
0.0
  0
POLYLINE
  5
FFBBDAE469BBE6BD
  8
0
  6
CONTINUOUS
 66
     1
 10
0.0
 20
0.0
 30
0.0
 70
     1
 40
6.0
 41
6.0
  0
VERTEX
  5
FFBBDAE469BC1021
  8
0
  6
CONTINUOUS
 10
-17.499864462453839
 20
1250.000413250591
 30
0.0
 42
-1.0
  0
VERTEX
  5
FFBBDAE469BC1022
  8
0
  6
CONTINUOUS
 10
-23.499864462453839
 20
1250.000413250591
 30
0.0
 42
-1.0
  0
SEQEND
  5
FFBBDAE469BC1023
  8
0
  6
CONTINUOUS
  0
LINE
  5
FFBBDAE469BBE6BE
  8
0
  6
CENTER
 10
-9.8073573398178269
 20
1050.000413250591
 30
0.0
 11
-32.659787220920407
 21
1050.000413250591
 31
0.0
  0
LINE
  5
FFBBDAE469BBE6BF
  8
0
  6
CENTER
 10
-20.499864462453839
 20
1063.698545374338
 30
0.0
 11
-20.499864462453839
 21
1038.001338148928
 31
0.0
  0
POLYLINE
  5
FFBBDAE469BBE6C0
  8
0
  6
CONTINUOUS
 66
     1
 10
0.0
 20
0.0
 30
0.0
 70
     1
 40
6.0
 41
6.0
  0
VERTEX
  5
FFBBDAE469BC1024
  8
0
  6
CONTINUOUS
 10
-17.499864462453839
 20
1050.000413250591
 30
0.0
 42
-1.0
  0
VERTEX
  5
FFBBDAE469BC1025
  8
0
  6
CONTINUOUS
 10
-23.499864462453839
 20
1050.000413250591
 30
0.0
 42
-1.0
  0
SEQEND
  5
FFBBDAE469BC1026
  8
0
  6
CONTINUOUS
  0
LINE
  5
FFBBDAE469BBE6C1
  8
0
  6
CENTER
 10
-9.8073573398178269
 20
850.00041325059101
 30
0.0
 11
-32.659787220920407
 21
850.00041325059101
 31
0.0
  0
LINE
  5
FFBBDAE469BBE6C2
  8
0
  6
CENTER
 10
-20.499864462453839
 20
863.6985453743381
 30
0.0
 11
-20.499864462453839
 21
838.00133814892786
 31
0.0
  0
POLYLINE
  5
FFBBDAE469BBE6C3
  8
0
  6
CONTINUOUS
 66
     1
 10
0.0
 20
0.0
 30
0.0
 70
     1
 40
6.0
 41
6.0
  0
VERTEX
  5
FFBBDAE469BC1027
  8
0
  6
CONTINUOUS
 10
-17.499864462453839
 20
850.00041325059101
 30
0.0
 42
-1.0
  0
VERTEX
  5
FFBBDAE469BC1028
  8
0
  6
CONTINUOUS
 10
-23.499864462453839
 20
850.00041325059101
 30
0.0
 42
-1.0
  0
SEQEND
  5
FFBBDAE469BC1029
  8
0
  6
CONTINUOUS
  0
LINE
  5
FFBBDAE469BBE6C4
  8
0
  6
CENTER
 10
-9.8073573398178269
 20
650.0004132505909
 30
0.0
 11
-32.659787220920407
 21
650.0004132505909
 31
0.0
  0
LINE
  5
FFBBDAE469BBE6C5
  8
0
  6
CENTER
 10
-20.499864462453839
 20
663.69854537433821
 30
0.0
 11
-20.499864462453839
 21
638.00133814892797
 31
0.0
  0
POLYLINE
  5
FFBBDAE469BBE6C6
  8
0
  6
CONTINUOUS
 66
     1
 10
0.0
 20
0.0
 30
0.0
 70
     1
 40
6.0
 41
6.0
  0
VERTEX
  5
FFBBDAE469BC102A
  8
0
  6
CONTINUOUS
 10
-17.499864462453839
 20
650.00041325059112
 30
0.0
 42
-1.0
  0
VERTEX
  5
FFBBDAE469BC102B
  8
0
  6
CONTINUOUS
 10
-23.499864462453839
 20
650.00041325059112
 30
0.0
 42
-1.0
  0
SEQEND
  5
FFBBDAE469BC102C
  8
0
  6
CONTINUOUS
  0
LINE
  5
FFBBDAE469BBE6C7
  8
0
  6
CENTER
 10
-9.8073573398178269
 20
450.0004132505909
 30
0.0
 11
-32.659787220920407
 21
450.0004132505909
 31
0.0
  0
LINE
  5
FFBBDAE469BBE6C8
  8
0
  6
CENTER
 10
-20.499864462453839
 20
463.69854537433821
 30
0.0
 11
-20.499864462453839
 21
438.00133814892803
 31
0.0
  0
POLYLINE
  5
FFBBDAE469BBE6C9
  8
0
  6
CONTINUOUS
 66
     1
 10
0.0
 20
0.0
 30
0.0
 70
     1
 40
6.0
 41
6.0
  0
VERTEX
  5
FFBBDAE469BC102D
  8
0
  6
CONTINUOUS
 10
-17.499864462453839
 20
450.00041325059112
 30
0.0
 42
-1.0
  0
VERTEX
  5
FFBBDAE469BC102E
  8
0
  6
CONTINUOUS
 10
-23.499864462453839
 20
450.00041325059112
 30
0.0
 42
-1.0
  0
SEQEND
  5
FFBBDAE469BC102F
  8
0
  6
CONTINUOUS
  0
LINE
  5
FFBBDAE469BBE6CA
  8
0
  6
CENTER
 10
-9.8073573398178269
 20
250.00041325059101
 30
0.0
 11
-32.659787220920407
 21
250.00041325059101
 31
0.0
  0
LINE
  5
FFBBDAE469BBE6CB
  8
0
  6
CENTER
 10
-20.499864462453839
 20
263.69854537433821
 30
0.0
 11
-20.499864462453839
 21
238.001338148928
 31
0.0
  0
POLYLINE
  5
FFBBDAE469BBE6CC
  8
0
  6
CONTINUOUS
 66
     1
 10
0.0
 20
0.0
 30
0.0
 70
     1
 40
6.0
 41
6.0
  0
VERTEX
  5
FFBBDAE469BC1030
  8
0
  6
CONTINUOUS
 10
-17.499864462453839
 20
250.00041325059109
 30
0.0
 42
-1.0
  0
VERTEX
  5
FFBBDAE469BC1031
  8
0
  6
CONTINUOUS
 10
-23.499864462453839
 20
250.00041325059109
 30
0.0
 42
-1.0
  0
SEQEND
  5
FFBBDAE469BC1032
  8
0
  6
CONTINUOUS
  0
LINE
  5
FFBBDAE469BBE6CD
  8
0
  6
CENTER
 10
-9.8073573398178269
 20
125.0
 30
0.0
 11
-32.659787220920407
 21
125.0
 31
0.0
  0
LINE
  5
FFBBDAE469BBE6CE
  8
0
  6
CENTER
 10
-20.499864462453839
 20
111.3018678762528
 30
0.0
 11
-20.499864462453839
 21
136.99907510166301
 31
0.0
  0
POLYLINE
  5
FFBBDAE469BBE6CF
  8
0
  6
CONTINUOUS
 66
     1
 10
0.0
 20
0.0
 30
0.0
 70
     1
 40
6.0
 41
6.0
  0
VERTEX
  5
FFBBDAE469BC1033
  8
0
  6
CONTINUOUS
 10
-17.499864462453839
 20
125.0
 30
0.0
 42
1.0
  0
VERTEX
  5
FFBBDAE469BC1034
  8
0
  6
CONTINUOUS
 10
-23.499864462453839
 20
125.0
 30
0.0
 42
1.0
  0
SEQEND
  5
FFBBDAE469BC1035
  8
0
  6
CONTINUOUS
  0
DIMENSION
  5
FFBBDAE469BBE707
  8
0
  6
CONTINUOUS
  2
*D9
 10
-757.20529983435426
 20
-0.0000000000000056
 30
0.0
 11
-757.20529983435426
 21
407.3635743519784
 31
0.0
 70
   128
  1
50mm\Psheet overhang
 13
-814.58114617377475
 23
49.999999999999972
 33
0.0
 14
-814.58114617377475
 24
0.0000000000000107
 34
0.0
 50
90.0
  0
LINE
  5
FFBBDAE469BBE8AA
  8
0
  6
CONTINUOUS
 10
-35.000135537542981
 20
0.0000000000000107
 30
0.0
 11
-35.000135537543429
 21
2450.0004132505928
 31
0.0
  0
LINE
  5
FFBBDAE469BBE8AB
  8
0
  6
CONTINUOUS
 10
-55.000135537543422
 20
0.0000000000000036
 30
0.0
 11
-1234.999999999997
 21
0.0000000000000071
 31
0.0
  0
LINE
  5
FFBBDAE469BBE8AC
  8
0
  6
CONTINUOUS
 10
-35.000135537543429
 20
2450.0004132505928
 30
0.0
 11
1145.0
 21
2450.0004132505928
 31
0.0
  0
LINE
  5
FFBBDAE469BBE8AD
  8
0
  6
HIDDEN
 10
-45.0
 20
2450.0004132505928
 30
0.0
 11
-45.0
 21
0.0000000000000071
 31
0.0
  0
LINE
  5
FFBBDAE469BBE8AE
  8
0
  6
HIDDEN
 10
-55.000135537543422
 20
2450.0004132505928
 30
0.0
 11
-35.000135537543429
 21
2450.0004132505928
 31
0.0
  0
LINE
  5
FFBBDAE469BBE8BD
  8
0
  6
CONTINUOUS
 10
1199.9997289249141
 20
2450.000413250591
 30
0.0
 11
1199.999728924915
 21
0.0000000000000071
 31
0.0
  0
LINE
  5
FFBBDAE469BBE8BE
  8
0
  6
CENTER
 10
1141.1923715850919
 20
2375.000413250591
 30
0.0
 11
1118.33994170399
 21
2375.000413250591
 31
0.0
  0
LINE
  5
FFBBDAE469BBE8BF
  8
0
  6
CENTER
 10
1130.4998644624559
 20
2388.6985453743382
 30
0.0
 11
1130.4998644624559
 21
2363.001338148928
 31
0.0
  0
POLYLINE
  5
FFBBDAE469BBE8C0
  8
0
  6
CONTINUOUS
 66
     1
 10
0.0
 20
0.0
 30
0.0
 70
     1
 40
6.0
 41
6.0
  0
VERTEX
  5
FFBBDAE469BC1036
  8
0
  6
CONTINUOUS
 10
1133.4998644624559
 20
2375.000413250591
 30
0.0
 42
-1.0
  0
VERTEX
  5
FFBBDAE469BC1037
  8
0
  6
CONTINUOUS
 10
1127.4998644624559
 20
2375.000413250591
 30
0.0
 42
-1.0
  0
SEQEND
  5
FFBBDAE469BC1038
  8
0
  6
CONTINUOUS
  0
LINE
  5
FFBBDAE469BBE8C1
  8
0
  6
CENTER
 10
1141.1923715850919
 20
2250.000413250591
 30
0.0
 11
1118.33994170399
 21
2250.000413250591
 31
0.0
  0
LINE
  5
FFBBDAE469BBE8C2
  8
0
  6
CENTER
 10
1130.4998644624559
 20
2263.6985453743382
 30
0.0
 11
1130.4998644624559
 21
2238.001338148928
 31
0.0
  0
POLYLINE
  5
FFBBDAE469BBE8C3
  8
0
  6
CONTINUOUS
 66
     1
 10
0.0
 20
0.0
 30
0.0
 70
     1
 40
6.0
 41
6.0
  0
VERTEX
  5
FFBBDAE469BC1039
  8
0
  6
CONTINUOUS
 10
1133.4998644624559
 20
2250.000413250591
 30
0.0
 42
-1.0
  0
VERTEX
  5
FFBBDAE469BC103A
  8
0
  6
CONTINUOUS
 10
1127.4998644624559
 20
2250.000413250591
 30
0.0
 42
-1.0
  0
SEQEND
  5
FFBBDAE469BC103B
  8
0
  6
CONTINUOUS
  0
LINE
  5
FFBBDAE469BBE8C4
  8
0
  6
CENTER
 10
1141.1923715850919
 20
2050.000413250591
 30
0.0
 11
1118.33994170399
 21
2050.000413250591
 31
0.0
  0
LINE
  5
FFBBDAE469BBE8C5
  8
0
  6
CENTER
 10
1130.4998644624559
 20
2063.6985453743382
 30
0.0
 11
1130.4998644624559
 21
2038.001338148928
 31
0.0
  0
POLYLINE
  5
FFBBDAE469BBE8C6
  8
0
  6
CONTINUOUS
 66
     1
 10
0.0
 20
0.0
 30
0.0
 70
     1
 40
6.0
 41
6.0
  0
VERTEX
  5
FFBBDAE469BC103C
  8
0
  6
CONTINUOUS
 10
1133.4998644624559
 20
2050.000413250591
 30
0.0
 42
-1.0
  0
VERTEX
  5
FFBBDAE469BC103D
  8
0
  6
CONTINUOUS
 10
1127.4998644624559
 20
2050.000413250591
 30
0.0
 42
-1.0
  0
SEQEND
  5
FFBBDAE469BC103E
  8
0
  6
CONTINUOUS
  0
LINE
  5
FFBBDAE469BBE8C7
  8
0
  6
CENTER
 10
1141.1923715850919
 20
1850.000413250591
 30
0.0
 11
1118.33994170399
 21
1850.000413250591
 31
0.0
  0
LINE
  5
FFBBDAE469BBE8C8
  8
0
  6
CENTER
 10
1130.4998644624559
 20
1863.698545374338
 30
0.0
 11
1130.4998644624559
 21
1838.001338148928
 31
0.0
  0
POLYLINE
  5
FFBBDAE469BBE8C9
  8
0
  6
CONTINUOUS
 66
     1
 10
0.0
 20
0.0
 30
0.0
 70
     1
 40
6.0
 41
6.0
  0
VERTEX
  5
FFBBDAE469BC103F
  8
0
  6
CONTINUOUS
 10
1133.4998644624559
 20
1850.000413250591
 30
0.0
 42
-1.0
  0
VERTEX
  5
FFBBDAE469BC1040
  8
0
  6
CONTINUOUS
 10
1127.4998644624559
 20
1850.000413250591
 30
0.0
 42
-1.0
  0
SEQEND
  5
FFBBDAE469BC1041
  8
0
  6
CONTINUOUS
  0
LINE
  5
FFBBDAE469BBE8CA
  8
0
  6
CENTER
 10
1141.1923715850919
 20
1650.000413250591
 30
0.0
 11
1118.33994170399
 21
1650.000413250591
 31
0.0
  0
LINE
  5
FFBBDAE469BBE8CB
  8
0
  6
CENTER
 10
1130.4998644624559
 20
1663.698545374338
 30
0.0
 11
1130.4998644624559
 21
1638.001338148928
 31
0.0
  0
POLYLINE
  5
FFBBDAE469BBE8CC
  8
0
  6
CONTINUOUS
 66
     1
 10
0.0
 20
0.0
 30
0.0
 70
     1
 40
6.0
 41
6.0
  0
VERTEX
  5
FFBBDAE469BC1042
  8
0
  6
CONTINUOUS
 10
1133.4998644624559
 20
1650.000413250591
 30
0.0
 42
-1.0
  0
VERTEX
  5
FFBBDAE469BC1043
  8
0
  6
CONTINUOUS
 10
1127.4998644624559
 20
1650.000413250591
 30
0.0
 42
-1.0
  0
SEQEND
  5
FFBBDAE469BC1044
  8
0
  6
CONTINUOUS
  0
LINE
  5
FFBBDAE469BBE8CD
  8
0
  6
CENTER
 10
1141.1923715850919
 20
1450.000413250591
 30
0.0
 11
1118.33994170399
 21
1450.000413250591
 31
0.0
  0
LINE
  5
FFBBDAE469BBE8CE
  8
0
  6
CENTER
 10
1130.4998644624559
 20
1463.698545374338
 30
0.0
 11
1130.4998644624559
 21
1438.001338148928
 31
0.0
  0
POLYLINE
  5
FFBBDAE469BBE8CF
  8
0
  6
CONTINUOUS
 66
     1
 10
0.0
 20
0.0
 30
0.0
 70
     1
 40
6.0
 41
6.0
  0
VERTEX
  5
FFBBDAE469BC1045
  8
0
  6
CONTINUOUS
 10
1133.4998644624559
 20
1450.000413250591
 30
0.0
 42
-1.0
  0
VERTEX
  5
FFBBDAE469BC1046
  8
0
  6
CONTINUOUS
 10
1127.4998644624559
 20
1450.000413250591
 30
0.0
 42
-1.0
  0
SEQEND
  5
FFBBDAE469BC1047
  8
0
  6
CONTINUOUS
  0
LINE
  5
FFBBDAE469BBE8D0
  8
0
  6
CENTER
 10
1141.1923715850919
 20
1250.000413250591
 30
0.0
 11
1118.33994170399
 21
1250.000413250591
 31
0.0
  0
LINE
  5
FFBBDAE469BBE8D1
  8
0
  6
CENTER
 10
1130.4998644624559
 20
1263.698545374338
 30
0.0
 11
1130.4998644624559
 21
1238.001338148928
 31
0.0
  0
POLYLINE
  5
FFBBDAE469BBE8D2
  8
0
  6
CONTINUOUS
 66
     1
 10
0.0
 20
0.0
 30
0.0
 70
     1
 40
6.0
 41
6.0
  0
VERTEX
  5
FFBBDAE469BC1048
  8
0
  6
CONTINUOUS
 10
1133.4998644624559
 20
1250.000413250591
 30
0.0
 42
-1.0
  0
VERTEX
  5
FFBBDAE469BC1049
  8
0
  6
CONTINUOUS
 10
1127.4998644624559
 20
1250.000413250591
 30
0.0
 42
-1.0
  0
SEQEND
  5
FFBBDAE469BC104A
  8
0
  6
CONTINUOUS
  0
LINE
  5
FFBBDAE469BBE8D3
  8
0
  6
CENTER
 10
1141.1923715850919
 20
1050.000413250591
 30
0.0
 11
1118.33994170399
 21
1050.000413250591
 31
0.0
  0
LINE
  5
FFBBDAE469BBE8D4
  8
0
  6
CENTER
 10
1130.4998644624559
 20
1063.698545374338
 30
0.0
 11
1130.4998644624559
 21
1038.001338148928
 31
0.0
  0
POLYLINE
  5
FFBBDAE469BBE8D5
  8
0
  6
CONTINUOUS
 66
     1
 10
0.0
 20
0.0
 30
0.0
 70
     1
 40
6.0
 41
6.0
  0
VERTEX
  5
FFBBDAE469BC104B
  8
0
  6
CONTINUOUS
 10
1133.4998644624559
 20
1050.000413250591
 30
0.0
 42
-1.0
  0
VERTEX
  5
FFBBDAE469BC104C
  8
0
  6
CONTINUOUS
 10
1127.4998644624559
 20
1050.000413250591
 30
0.0
 42
-1.0
  0
SEQEND
  5
FFBBDAE469BC104D
  8
0
  6
CONTINUOUS
  0
LINE
  5
FFBBDAE469BBE8D6
  8
0
  6
CENTER
 10
1141.1923715850919
 20
850.00041325059101
 30
0.0
 11
1118.33994170399
 21
850.00041325059101
 31
0.0
  0
LINE
  5
FFBBDAE469BBE8D7
  8
0
  6
CENTER
 10
1130.4998644624559
 20
863.69854537433832
 30
0.0
 11
1130.4998644624559
 21
838.00133814892797
 31
0.0
  0
POLYLINE
  5
FFBBDAE469BBE8D8
  8
0
  6
CONTINUOUS
 66
     1
 10
0.0
 20
0.0
 30
0.0
 70
     1
 40
6.0
 41
6.0
  0
VERTEX
  5
FFBBDAE469BC104E
  8
0
  6
CONTINUOUS
 10
1133.4998644624559
 20
850.00041325059101
 30
0.0
 42
-1.0
  0
VERTEX
  5
FFBBDAE469BC104F
  8
0
  6
CONTINUOUS
 10
1127.4998644624559
 20
850.00041325059101
 30
0.0
 42
-1.0
  0
SEQEND
  5
FFBBDAE469BC1050
  8
0
  6
CONTINUOUS
  0
LINE
  5
FFBBDAE469BBE8D9
  8
0
  6
CENTER
 10
1141.1923715850919
 20
650.00041325059112
 30
0.0
 11
1118.33994170399
 21
650.00041325059112
 31
0.0
  0
LINE
  5
FFBBDAE469BBE8DA
  8
0
  6
CENTER
 10
1130.4998644624559
 20
663.69854537433832
 30
0.0
 11
1130.4998644624559
 21
638.00133814892797
 31
0.0
  0
POLYLINE
  5
FFBBDAE469BBE8DB
  8
0
  6
CONTINUOUS
 66
     1
 10
0.0
 20
0.0
 30
0.0
 70
     1
 40
6.0
 41
6.0
  0
VERTEX
  5
FFBBDAE469BC1051
  8
0
  6
CONTINUOUS
 10
1133.4998644624559
 20
650.00041325059112
 30
0.0
 42
-1.0
  0
VERTEX
  5
FFBBDAE469BC1052
  8
0
  6
CONTINUOUS
 10
1127.4998644624559
 20
650.00041325059112
 30
0.0
 42
-1.0
  0
SEQEND
  5
FFBBDAE469BC1053
  8
0
  6
CONTINUOUS
  0
LINE
  5
FFBBDAE469BBE8DC
  8
0
  6
CENTER
 10
1141.1923715850919
 20
450.00041325059112
 30
0.0
 11
1118.33994170399
 21
450.00041325059112
 31
0.0
  0
LINE
  5
FFBBDAE469BBE8DD
  8
0
  6
CENTER
 10
1130.4998644624559
 20
463.69854537433832
 30
0.0
 11
1130.4998644624559
 21
438.00133814892803
 31
0.0
  0
POLYLINE
  5
FFBBDAE469BBE8DE
  8
0
  6
CONTINUOUS
 66
     1
 10
0.0
 20
0.0
 30
0.0
 70
     1
 40
6.0
 41
6.0
  0
VERTEX
  5
FFBBDAE469BC1054
  8
0
  6
CONTINUOUS
 10
1133.4998644624559
 20
450.00041325059112
 30
0.0
 42
-1.0
  0
VERTEX
  5
FFBBDAE469BC1055
  8
0
  6
CONTINUOUS
 10
1127.4998644624559
 20
450.00041325059112
 30
0.0
 42
-1.0
  0
SEQEND
  5
FFBBDAE469BC1056
  8
0
  6
CONTINUOUS
  0
LINE
  5
FFBBDAE469BBE8DF
  8
0
  6
CENTER
 10
1141.1923715850919
 20
250.00041325059109
 30
0.0
 11
1118.33994170399
 21
250.00041325059109
 31
0.0
  0
LINE
  5
FFBBDAE469BBE8E0
  8
0
  6
CENTER
 10
1130.4998644624559
 20
263.69854537433832
 30
0.0
 11
1130.4998644624559
 21
238.00133814892811
 31
0.0
  0
POLYLINE
  5
FFBBDAE469BBE8E1
  8
0
  6
CONTINUOUS
 66
     1
 10
0.0
 20
0.0
 30
0.0
 70
     1
 40
6.0
 41
6.0
  0
VERTEX
  5
FFBBDAE469BC1057
  8
0
  6
CONTINUOUS
 10
1133.4998644624559
 20
250.00041325059109
 30
0.0
 42
-1.0
  0
VERTEX
  5
FFBBDAE469BC1058
  8
0
  6
CONTINUOUS
 10
1127.4998644624559
 20
250.00041325059109
 30
0.0
 42
-1.0
  0
SEQEND
  5
FFBBDAE469BC1059
  8
0
  6
CONTINUOUS
  0
LINE
  5
FFBBDAE469BBE8E2
  8
0
  6
CENTER
 10
1141.1923715850919
 20
125.0
 30
0.0
 11
1118.33994170399
 21
125.0
 31
0.0
  0
LINE
  5
FFBBDAE469BBE8E3
  8
0
  6
CENTER
 10
1130.4998644624559
 20
111.3018678762528
 30
0.0
 11
1130.4998644624559
 21
136.99907510166301
 31
0.0
  0
POLYLINE
  5
FFBBDAE469BBE8E4
  8
0
  6
CONTINUOUS
 66
     1
 10
0.0
 20
0.0
 30
0.0
 70
     1
 40
6.0
 41
6.0
  0
VERTEX
  5
FFBBDAE469BC105A
  8
0
  6
CONTINUOUS
 10
1133.4998644624559
 20
125.0
 30
0.0
 42
1.0
  0
VERTEX
  5
FFBBDAE469BC105B
  8
0
  6
CONTINUOUS
 10
1127.4998644624559
 20
125.0
 30
0.0
 42
1.0
  0
SEQEND
  5
FFBBDAE469BC105C
  8
0
  6
CONTINUOUS
  0
LINE
  5
FFBBDAE469BBE8F2
  8
0
  6
HIDDEN
 10
1085.0000000000009
 20
2450.0004132505928
 30
0.0
 11
1085.0000000000009
 21
0.0000000000000036
 31
0.0
  0
LINE
  5
FFBBDAE469BBE90A
  8
0
  6
CONTINUOUS
 10
-1245.0000000000009
 20
2450.000413250591
 30
0.0
 11
-1245.0000000000009
 21
0.0000000000000071
 31
0.0
  0
LINE
  5
FFBBDAE469BBF075
  8
0
  6
CONTINUOUS
 10
1155.0000000000009
 20
2450.000413250591
 30
0.0
 11
1155.0000000000009
 21
0.0000000000000071
 31
0.0
  0
DIMENSION
  5
FFBBDAE469BBF165
  8
0
  6
CONTINUOUS
  2
*D10
 10
-44.999999999999972
 20
2899.8944302370851
 30
0.0
 11
255.0
 21
2940.3173497459529
 31
0.0
 70
     0
 13
555.0
 23
2450.0004132505928
 33
0.0
 14
-45.0
 24
2450.0004132505928
 34
0.0
  0
DIMENSION
  5
FFBBDAE469BBF17B
  8
0
  6
CONTINUOUS
  2
*D11
 10
555.0
 20
2899.8944302370851
 30
0.0
 11
855.0
 21
2940.3173497459529
 31
0.0
 70
     0
 13
1155.0
 23
2450.0004132505928
 33
0.0
 14
555.0
 24
2450.0004132505928
 34
0.0
  0
DIMENSION
  5
FFBBDAE469BBF281
  8
0
  6
CONTINUOUS
  2
*D12
 10
-1016.72568615975
 20
2450.0004132505928
 30
0.0
 11
-938.65060405302279
 21
2591.9438395567809
 31
0.0
 70
   128
  1
75mm\Ptypical 
 13
-1208.3402127790771
 23
2375.000413250591
 33
0.0
 14
-1175.0000000000009
 24
2450.0004132505928
 34
0.0
 50
90.0
  0
LINE
  5
FFBBDAE469BBF659
  8
0
  6
DASHDOT
 10
1085.0
 20
27.99999999999978
 30
0.0
 11
0.0
 21
27.99999999999978
 31
0.0
  0
LINE
  5
FFBBDAE469BBF65A
  8
0
  6
DASHDOT
 10
1085.0
 20
50.000000000000959
 30
0.0
 11
0.0
 21
50.000000000000959
 31
0.0
  0
LINE
  5
FFBBDAE469BBF65B
  8
0
  6
DASHDOT
 10
1085.0
 20
67.999999999999787
 30
0.0
 11
590.0
 21
67.999999999999773
 31
0.0
  0
LINE
  5
FFBBDAE469BBF65C
  8
0
  6
CONTINUOUS
 10
1145.0
 20
0.0000000000000107
 30
0.0
 11
1199.999728924915
 21
0.0000000000000107
 31
0.0
  0
LINE
  5
FFBBDAE469BBF65D
  8
0
  6
CONTINUOUS
 10
1199.9997289249141
 20
50.000000000000959
 30
0.0
 11
1236.7190221124949
 21
49.999999999999659
 31
0.0
  0
LINE
  5
FFBBDAE469BBF65E
  8
0
  6
CONTINUOUS
 10
-55.000135537543422
 20
0.0000000000000036
 30
0.0
 11
-35.000135537542981
 21
0.0000000000000036
 31
0.0
  0
LINE
  5
FFBBDAE469BBF65F
  8
0
  6
HIDDEN
 10
589.99999999999955
 20
64.999999999999972
 30
0.0
 11
520.00000000000637
 21
64.999999999999957
 31
0.0
  0
LINE
  5
FFBBDAE469BBF661
  8
0
  6
HIDDEN
 10
-610.0
 20
65.0
 30
0.0
 11
-679.99999999999318
 21
64.999999999999986
 31
0.0
  0
LINE
  5
FFBBDAE469BBF663
  8
0
  6
CONTINUOUS
 10
-1234.999999999997
 20
0.0000000000000071
 30
0.0
 11
-1290.0000000000009
 21
0.0000000000000071
 31
0.0
  0
LINE
  5
FFBBDAE469BBF666
  8
0
  6
DASHDOT
 10
-89.999999999992269
 20
67.999999999999787
 30
0.0
 11
-610.0
 21
67.999999999999787
 31
0.0
  0
LINE
  5
FFBBDAE469BBF667
  8
0
  6
DASHDOT
 10
-89.999999999992724
 20
50.000000000000959
 30
0.0
 11
-1175.0000000000009
 21
50.000000000000959
 31
0.0
  0
LINE
  5
FFBBDAE469BBF668
  8
0
  6
DASHDOT
 10
-89.999999999992269
 20
27.99999999999978
 30
0.0
 11
-1175.0000000000009
 21
27.99999999999978
 31
0.0
  0
LINE
  5
FFBBDAE469BBF670
  8
0
  6
HIDDEN
 10
-937.50000000000011
 20
95.0
 30
0.0
 11
-679.99999999999409
 21
94.999999999999986
 31
0.0
  0
LINE
  5
FFBBDAE469BBF671
  8
0
  6
HIDDEN
 10
-337.5000000000004
 20
95.000000000000014
 30
0.0
 11
-89.999999999992724
 21
95.000000000000028
 31
0.0
  0
LINE
  5
FFBBDAE469BBF672
  8
0
  6
HIDDEN
 10
862.49999999999909
 20
94.99999999999801
 30
0.0
 11
1085.0000000000009
 21
94.99999999999639
 31
0.0
  0
LINE
  5
FFBBDAE469BBF673
  8
0
  6
HIDDEN
 10
262.5000000000004
 20
95.0
 30
0.0
 11
520.00000000000637
 21
94.999999999999986
 31
0.0
  0
LINE
  5
FFBBDAE469BBF674
  8
0
  6
DASHDOT
 10
520.0000000000058
 20
67.999999999999773
 30
0.0
 11
0.0
 21
67.999999999999787
 31
0.0
  0
LINE
  5
FFBBDAE469BBF679
  8
0
  6
DASHDOT
 10
-679.99999999999363
 20
67.999999999999787
 30
0.0
 11
-1175.0000000000009
 21
67.999999999999787
 31
0.0
  0
LINE
  5
FFBBDAE469BBF67A
  8
0
  6
CENTER
 10
-655.69250712264375
 20
125.0
 30
0.0
 11
-632.84007724153389
 21
125.0
 31
0.0
  0
LINE
  5
FFBBDAE469BBF67B
  8
0
  6
CENTER
 10
-645.00000000000045
 20
111.3018678762528
 30
0.0
 11
-645.00000000000045
 21
136.99907510166301
 31
0.0
  0
POLYLINE
  5
FFBBDAE469BBF67C
  8
0
  6
CONTINUOUS
 66
     1
 10
0.0
 20
0.0
 30
0.0
 70
     1
 40
5.9999999999999982
 41
5.9999999999999982
  0
VERTEX
  5
FFBBDAE469BC105D
  8
0
  6
CONTINUOUS
 10
-648.00000000000045
 20
125.0
 30
0.0
 42
-1.0
  0
VERTEX
  5
FFBBDAE469BC105E
  8
0
  6
CONTINUOUS
 10
-642.00000000000045
 20
125.0
 30
0.0
 42
-1.0
  0
SEQEND
  5
FFBBDAE469BC105F
  8
0
  6
CONTINUOUS
  0
LINE
  5
FFBBDAE469BBF6B3
  8
0
  6
HIDDEN
 10
-680.00000000000182
 20
2380.0004132505928
 30
0.0
 11
-1175.0
 21
2380.0004132505942
 31
0.0
  0
LINE
  5
FFBBDAE469BBF6B6
  8
0
  6
HIDDEN
 10
-90.000000000000455
 20
2380.0004132505919
 30
0.0
 11
-610.0
 21
2380.0004132505942
 31
0.0
  0
LINE
  5
FFBBDAE469BBF6B8
  8
0
  6
HIDDEN
 10
520.0
 20
2380.000413250591
 30
0.0
 11
0.0
 21
2380.0004132505928
 31
0.0
  0
LINE
  5
FFBBDAE469BBF6BA
  8
0
  6
HIDDEN
 10
1085.0
 20
2380.0004132505919
 30
0.0
 11
589.99999999999955
 21
2380.0004132505919
 31
0.0
  0
POLYLINE
  5
FFBBDAE469BBF82D
  8
0
  6
CONTINUOUS
 66
     1
 10
0.0
 20
0.0
 30
0.0
 70
     1
 40
5.0
 41
5.0
  0
VERTEX
  5
FFBBDAE469BC1084
  8
0
  6
CONTINUOUS
 10
852.50000000000034
 20
92.500413250592274
 30
0.0
 42
1.0
  0
VERTEX
  5
FFBBDAE469BC1085
  8
0
  6
CONTINUOUS
 10
857.50000000000045
 20
92.500413250592274
 30
0.0
 42
1.0
  0
SEQEND
  5
FFBBDAE469BC1086
  8
0
  6
CONTINUOUS
  0
LINE
  5
FFBBDAE469BBF830
  8
0
  6
CENTER
 10
865.69250712264375
 20
92.500413250592274
 30
0.0
 11
842.84007724153378
 21
92.500413250592274
 31
0.0
  0
LINE
  5
FFBBDAE469BBF831
  8
0
  6
CENTER
 10
855.00000000000045
 20
78.802281126845074
 30
0.0
 11
855.00000000000045
 21
104.4994883522553
 31
0.0
  0
POLYLINE
  5
FFBBDAE469BBF832
  8
0
  6
CONTINUOUS
 66
     1
 10
0.0
 20
0.0
 30
0.0
 70
     1
 40
6.0
 41
6.0
  0
VERTEX
  5
FFBBDAE469BC1087
  8
0
  6
CONTINUOUS
 10
858.00000000000045
 20
92.500413250592274
 30
0.0
 42
1.0
  0
VERTEX
  5
FFBBDAE469BC1088
  8
0
  6
CONTINUOUS
 10
852.00000000000045
 20
92.500413250592274
 30
0.0
 42
1.0
  0
SEQEND
  5
FFBBDAE469BC1089
  8
0
  6
CONTINUOUS
  0
POLYLINE
  5
FFBBDAE469BBF83D
  8
0
  6
CONTINUOUS
 66
     1
 10
0.0
 20
0.0
 30
0.0
 70
     1
 40
5.0
 41
5.0
  0
VERTEX
  5
FFBBDAE469BC108A
  8
0
  6
CONTINUOUS
 10
252.50000000000051
 20
92.50041325059216
 30
0.0
 42
1.0
  0
VERTEX
  5
FFBBDAE469BC108B
  8
0
  6
CONTINUOUS
 10
257.50000000000051
 20
92.50041325059216
 30
0.0
 42
1.0
  0
SEQEND
  5
FFBBDAE469BC108C
  8
0
  6
CONTINUOUS
  0
LINE
  5
FFBBDAE469BBF83F
  8
0
  6
CENTER
 10
265.69250712264369
 20
92.50041325059216
 30
0.0
 11
242.84007724153389
 21
92.50041325059216
 31
0.0
  0
LINE
  5
FFBBDAE469BBF840
  8
0
  6
CENTER
 10
255.00000000000051
 20
78.80228112684496
 30
0.0
 11
255.00000000000051
 21
104.4994883522552
 31
0.0
  0
POLYLINE
  5
FFBBDAE469BBF841
  8
0
  6
CONTINUOUS
 66
     1
 10
0.0
 20
0.0
 30
0.0
 70
     1
 40
6.0
 41
6.0
  0
VERTEX
  5
FFBBDAE469BC108D
  8
0
  6
CONTINUOUS
 10
258.0000000000004
 20
92.50041325059216
 30
0.0
 42
1.0
  0
VERTEX
  5
FFBBDAE469BC108E
  8
0
  6
CONTINUOUS
 10
252.0000000000004
 20
92.50041325059216
 30
0.0
 42
1.0
  0
SEQEND
  5
FFBBDAE469BC108F
  8
0
  6
CONTINUOUS
  0
POLYLINE
  5
FFBBDAE469BBF845
  8
0
  6
CONTINUOUS
 66
     1
 10
0.0
 20
0.0
 30
0.0
 70
     1
 40
5.0
 41
5.0
  0
VERTEX
  5
FFBBDAE469BC1090
  8
0
  6
CONTINUOUS
 10
-347.5
 20
92.500413250592388
 30
0.0
 42
1.0
  0
VERTEX
  5
FFBBDAE469BC1091
  8
0
  6
CONTINUOUS
 10
-342.5
 20
92.500413250592388
 30
0.0
 42
1.0
  0
SEQEND
  5
FFBBDAE469BC1092
  8
0
  6
CONTINUOUS
  0
LINE
  5
FFBBDAE469BBF847
  8
0
  6
CENTER
 10
-334.30749287735671
 20
92.500413250592388
 30
0.0
 11
-357.15992275846662
 21
92.500413250592388
 31
0.0
  0
LINE
  5
FFBBDAE469BBF848
  8
0
  6
CENTER
 10
-345.0
 20
78.802281126845187
 30
0.0
 11
-345.0
 21
104.4994883522554
 31
0.0
  0
POLYLINE
  5
FFBBDAE469BBF849
  8
0
  6
CONTINUOUS
 66
     1
 10
0.0
 20
0.0
 30
0.0
 70
     1
 40
6.0
 41
6.0
  0
VERTEX
  5
FFBBDAE469BC1093
  8
0
  6
CONTINUOUS
 10
-342.0
 20
92.500413250592388
 30
0.0
 42
1.0
  0
VERTEX
  5
FFBBDAE469BC1094
  8
0
  6
CONTINUOUS
 10
-348.0
 20
92.500413250592388
 30
0.0
 42
1.0
  0
SEQEND
  5
FFBBDAE469BC1095
  8
0
  6
CONTINUOUS
  0
POLYLINE
  5
FFBBDAE469BBF84D
  8
0
  6
CONTINUOUS
 66
     1
 10
0.0
 20
0.0
 30
0.0
 70
     1
 40
5.0
 41
5.0
  0
VERTEX
  5
FFBBDAE469BC1096
  8
0
  6
CONTINUOUS
 10
-947.50000000000034
 20
92.500413250592274
 30
0.0
 42
1.0
  0
VERTEX
  5
FFBBDAE469BC1097
  8
0
  6
CONTINUOUS
 10
-942.50000000000023
 20
92.500413250592274
 30
0.0
 42
1.0
  0
SEQEND
  5
FFBBDAE469BC1098
  8
0
  6
CONTINUOUS
  0
LINE
  5
FFBBDAE469BBF84F
  8
0
  6
CENTER
 10
-934.30749287735694
 20
92.500413250592274
 30
0.0
 11
-957.15992275846679
 21
92.500413250592274
 31
0.0
  0
LINE
  5
FFBBDAE469BBF850
  8
0
  6
CENTER
 10
-945.00000000000023
 20
78.802281126845074
 30
0.0
 11
-945.00000000000023
 21
104.4994883522553
 31
0.0
  0
POLYLINE
  5
FFBBDAE469BBF851
  8
0
  6
CONTINUOUS
 66
     1
 10
0.0
 20
0.0
 30
0.0
 70
     1
 40
6.0
 41
6.0
  0
VERTEX
  5
FFBBDAE469BC1099
  8
0
  6
CONTINUOUS
 10
-942.00000000000011
 20
92.500413250592274
 30
0.0
 42
1.0
  0
VERTEX
  5
FFBBDAE469BC109A
  8
0
  6
CONTINUOUS
 10
-948.00000000000023
 20
92.500413250592274
 30
0.0
 42
1.0
  0
SEQEND
  5
FFBBDAE469BC109B
  8
0
  6
CONTINUOUS
  0
LINE
  5
FFBBDAE469BBFA02
  8
0
  6
CENTER
 10
-955.69250712263704
 20
2415.0004132505942
 30
0.0
 11
-932.84007724153435
 21
2415.0004132505942
 31
0.0
  0
LINE
  5
FFBBDAE469BBFA03
  8
0
  6
CENTER
 10
-945.00000000000091
 20
2428.6985453743409
 30
0.0
 11
-945.00000000000091
 21
2403.0013381489312
 31
0.0
  0
POLYLINE
  5
FFBBDAE469BBFA04
  8
0
  6
CONTINUOUS
 66
     1
 10
0.0
 20
0.0
 30
0.0
 70
     1
 40
6.0
 41
6.0
  0
VERTEX
  5
FFBBDAE469BC109C
  8
0
  6
CONTINUOUS
 10
-948.00000000000091
 20
2415.0004132505942
 30
0.0
 42
1.0
  0
VERTEX
  5
FFBBDAE469BC109D
  8
0
  6
CONTINUOUS
 10
-942.0000000000008
 20
2415.0004132505942
 30
0.0
 42
1.0
  0
SEQEND
  5
FFBBDAE469BC109E
  8
0
  6
CONTINUOUS
  0
LINE
  5
FFBBDAE469BBFA06
  8
0
  6
CENTER
 10
-355.69250712263693
 20
2415.0004132505919
 30
0.0
 11
-332.84007724153429
 21
2415.0004132505919
 31
0.0
  0
LINE
  5
FFBBDAE469BBFA07
  8
0
  6
CENTER
 10
-345.00000000000091
 20
2428.69854537434
 30
0.0
 11
-345.00000000000091
 21
2403.0013381489289
 31
0.0
  0
POLYLINE
  5
FFBBDAE469BBFA08
  8
0
  6
CONTINUOUS
 66
     1
 10
0.0
 20
0.0
 30
0.0
 70
     1
 40
6.0
 41
6.0
  0
VERTEX
  5
FFBBDAE469BC109F
  8
0
  6
CONTINUOUS
 10
-348.00000000000091
 20
2415.0004132505919
 30
0.0
 42
1.0
  0
VERTEX
  5
FFBBDAE469BC10A0
  8
0
  6
CONTINUOUS
 10
-342.00000000000091
 20
2415.0004132505919
 30
0.0
 42
1.0
  0
SEQEND
  5
FFBBDAE469BC10A1
  8
0
  6
CONTINUOUS
  0
LINE
  5
FFBBDAE469BBFA0A
  8
0
  6
CENTER
 10
244.30749287736441
 20
2415.0004132505919
 30
0.0
 11
267.15992275846702
 21
2415.0004132505919
 31
0.0
  0
LINE
  5
FFBBDAE469BBFA0B
  8
0
  6
CENTER
 10
255.00000000000051
 20
2428.6985453743391
 30
0.0
 11
255.00000000000051
 21
2403.0013381489289
 31
0.0
  0
POLYLINE
  5
FFBBDAE469BBFA0C
  8
0
  6
CONTINUOUS
 66
     1
 10
0.0
 20
0.0
 30
0.0
 70
     1
 40
6.0
 41
6.0
  0
VERTEX
  5
FFBBDAE469BC10A2
  8
0
  6
CONTINUOUS
 10
252.0000000000004
 20
2415.0004132505919
 30
0.0
 42
1.0
  0
VERTEX
  5
FFBBDAE469BC10A3
  8
0
  6
CONTINUOUS
 10
258.0000000000004
 20
2415.0004132505919
 30
0.0
 42
1.0
  0
SEQEND
  5
FFBBDAE469BC10A4
  8
0
  6
CONTINUOUS
  0
LINE
  5
FFBBDAE469BBFA0E
  8
0
  6
CENTER
 10
844.30749287736353
 20
2415.0004132505919
 30
0.0
 11
867.159922758466
 21
2415.0004132505919
 31
0.0
  0
LINE
  5
FFBBDAE469BBFA0F
  8
0
  6
CENTER
 10
854.99999999999955
 20
2428.6985453743391
 30
0.0
 11
854.99999999999955
 21
2403.0013381489289
 31
0.0
  0
POLYLINE
  5
FFBBDAE469BBFA10
  8
0
  6
CONTINUOUS
 66
     1
 10
0.0
 20
0.0
 30
0.0
 70
     1
 40
6.0
 41
6.0
  0
VERTEX
  5
FFBBDAE469BC10A5
  8
0
  6
CONTINUOUS
 10
851.99999999999955
 20
2415.0004132505919
 30
0.0
 42
1.0
  0
VERTEX
  5
FFBBDAE469BC10A6
  8
0
  6
CONTINUOUS
 10
857.99999999999955
 20
2415.0004132505919
 30
0.0
 42
1.0
  0
SEQEND
  5
FFBBDAE469BC10A7
  8
0
  6
CONTINUOUS
  0
INSERT
  5
FFBBDAE469BBFB63
  8
0
  6
CONTINUOUS
  2
*U17
 10
0.0
 20
0.0
 30
0.0
  0
INSERT
  5
FFBBDAE469BBFB77
  8
0
  6
CONTINUOUS
  2
*U18
 10
0.0
 20
0.0
 30
0.0
  0
INSERT
  5
FFBBDAE469BBFBF8
  8
0
  6
CONTINUOUS
  2
*U19
 10
0.0
 20
0.0
 30
0.0
  0
INSERT
  5
FFBBDAE469BBFC2F
  8
0
  6
CONTINUOUS
  2
*U20
 10
0.0
 20
0.0
 30
0.0
  0
INSERT
  5
FFBBDAE469BBFC30
  8
0
  6
CONTINUOUS
  2
*U21
 10
0.0
 20
0.0
 30
0.0
  0
INSERT
  5
FFBBDAE469BBFC43
  8
0
  6
CONTINUOUS
  2
*U22
 10
0.0
 20
0.0
 30
0.0
  0
INSERT
  5
FFBBDAE469BBFC44
  8
0
  6
CONTINUOUS
  2
*U23
 10
0.0
 20
0.0
 30
0.0
  0
INSERT
  5
FFBBDAE469BBFE22
  8
0
  6
CONTINUOUS
  2
*U24
 10
0.0
 20
0.0
 30
0.0
1001
ACAD
1000
DSTYLE
1002
{
1070
    40
1040
20.0
1070
    77
1070
     0
1002
}
  0
INSERT
  5
FFBBDAE469BBFE23
  8
0
  6
CONTINUOUS
  2
*U25
 10
0.0
 20
0.0
 30
0.0
  0
INSERT
  5
FFBBDAE469BBFE8E
  8
0
  6
CONTINUOUS
  2
*U26
 10
0.0
 20
0.0
 30
0.0
1001
ACAD
1000
DSTYLE
1002
{
1070
    40
1040
20.0
1070
    77
1070
     0
1002
}
  0
INSERT
  5
FFBBDAE469BBFE8F
  8
0
  6
CONTINUOUS
  2
*U27
 10
0.0
 20
0.0
 30
0.0
  0
ENDSEC
  0
EOF
