  0
SECTION
  2
HEADER
  9
$ACADVER
  1
AC1009
  9
$INSBASE
 10
0.0
 20
0.0
 30
0.0
  9
$EXTMIN
 10
-78.940363184429657
 20
-149.32381508502701
 30
-0.0015258207003583
  9
$EXTMAX
 10
91.438429714316499
 20
97.782591165798067
 30
0.0000000349246037
  9
$LIMMIN
 10
0.0
 20
0.0
  9
$LIMMAX
 10
420.0
 20
297.0
  9
$ORTHOMODE
 70
     0
  9
$REGENMODE
 70
     1
  9
$FILLMODE
 70
     1
  9
$QTEXTMODE
 70
     0
  9
$MIRRTEXT
 70
     0
  9
$DRAGMODE
 70
     2
  9
$LTSCALE
 40
1.0
  9
$OSMODE
 70
     0
  9
$ATTMODE
 70
     1
  9
$TEXTSIZE
 40
35.0
  9
$TRACEWID
 40
1.0
  9
$TEXTSTYLE
  7
ARIAL
  9
$CLAYER
  8
0
  9
$CELTYPE
  6
CONTINUOUS
  9
$CECOLOR
 62
   256
  9
$DIMSCALE
 40
1.0
  9
$DIMASZ
 40
1.8
  9
$DIMEXO
 40
1.8
  9
$DIMDLI
 40
5.0
  9
$DIMRND
 40
0.0
  9
$DIMDLE
 40
1.8
  9
$DIMEXE
 40
1.8
  9
$DIMTP
 40
0.0
  9
$DIMTM
 40
0.0
  9
$DIMTXT
 40
2.0
  9
$DIMCEN
 40
1.8
  9
$DIMTSZ
 40
0.0
  9
$DIMTOL
 70
     0
  9
$DIMLIM
 70
     0
  9
$DIMTIH
 70
     0
  9
$DIMTOH
 70
     0
  9
$DIMSE1
 70
     0
  9
$DIMSE2
 70
     0
  9
$DIMTAD
 70
     1
  9
$DIMZIN
 70
     0
  9
$DIMBLK
  1

  9
$DIMASO
 70
     1
  9
$DIMSHO
 70
     1
  9
$DIMPOST
  1
mm
  9
$DIMAPOST
  1
mm
  9
$DIMALT
 70
     0
  9
$DIMALTD
 70
     2
  9
$DIMALTF
 40
0.0394
  9
$DIMLFAC
 40
1.0
  9
$DIMTOFL
 70
     0
  9
$DIMTVP
 40
0.0
  9
$DIMTIX
 70
     0
  9
$DIMSOXD
 70
     0
  9
$DIMSAH
 70
     0
  9
$DIMBLK1
  1

  9
$DIMBLK2
  1

  9
$DIMSTYLE
  2
1_TO_1
  9
$DIMCLRD
 70
   256
  9
$DIMCLRE
 70
   256
  9
$DIMCLRT
 70
   256
  9
$DIMTFAC
 40
1.0
  9
$DIMGAP
 40
1.0
  9
$LUNITS
 70
     2
  9
$LUPREC
 70
     1
  9
$SKETCHINC
 40
1.0
  9
$FILLETRAD
 40
0.0
  9
$AUNITS
 70
     1
  9
$AUPREC
 70
     4
  9
$MENU
  1
acad
  9
$ELEVATION
 40
0.0
  9
$PELEVATION
 40
0.0
  9
$THICKNESS
 40
0.0
  9
$LIMCHECK
 70
     0
  9
$BLIPMODE
 70
     0
  9
$CHAMFERA
 40
10.0
  9
$CHAMFERB
 40
10.0
  9
$SKPOLY
 70
     0
  9
$TDCREATE
 40
2450935.42424213
  9
$TDUPDATE
 40
2457100.7061095722
  9
$TDINDWG
 40
7.7367872568999996
  9
$TDUSRTIMER
 40
7.7367872568999996
  9
$USRTIMER
 70
     1
  9
$ANGBASE
 50
0.0
  9
$ANGDIR
 70
     0
  9
$PDMODE
 70
     0
  9
$PDSIZE
 40
-1.0
  9
$PLINEWID
 40
0.0
  9
$COORDS
 70
     2
  9
$SPLFRAME
 70
     0
  9
$SPLINETYPE
 70
     6
  9
$SPLINESEGS
 70
     8
  9
$ATTDIA
 70
     0
  9
$ATTREQ
 70
     1
  9
$HANDLING
 70
     1
  9
$HANDSEED
  5
8000079D
  9
$SURFTAB1
 70
     6
  9
$SURFTAB2
 70
     6
  9
$SURFTYPE
 70
     6
  9
$SURFU
 70
     6
  9
$SURFV
 70
     6
  9
$UCSNAME
  2

  9
$UCSORG
 10
0.0
 20
0.0
 30
0.0
  9
$UCSXDIR
 10
1.0
 20
0.0
 30
0.0
  9
$UCSYDIR
 10
0.0
 20
1.0
 30
0.0
  9
$PUCSNAME
  2

  9
$PUCSORG
 10
0.0
 20
0.0
 30
0.0
  9
$PUCSXDIR
 10
1.0
 20
0.0
 30
0.0
  9
$PUCSYDIR
 10
0.0
 20
1.0
 30
0.0
  9
$USERI1
 70
    50
  9
$USERI2
 70
     1
  9
$USERI3
 70
     0
  9
$USERI4
 70
     2
  9
$USERI5
 70
     0
  9
$USERR1
 40
50.0
  9
$USERR2
 40
0.0
  9
$USERR3
 40
50.0
  9
$USERR4
 40
100.0
  9
$USERR5
 40
100.0
  9
$WORLDVIEW
 70
     1
  9
$SHADEDGE
 70
     3
  9
$SHADEDIF
 70
    70
  9
$TILEMODE
 70
     1
  9
$MAXACTVP
 70
    16
  9
$PLIMCHECK
 70
     0
  9
$PEXTMIN
 10
0.0
 20
0.0
 30
0.0
  9
$PEXTMAX
 10
0.0
 20
0.0
 30
0.0
  9
$PLIMMIN
 10
0.0
 20
0.0
  9
$PLIMMAX
 10
12.0
 20
9.0
  9
$UNITMODE
 70
     0
  9
$VISRETAIN
 70
     0
  9
$PLINEGEN
 70
     0
  9
$PSLTSCALE
 70
     1
  0
ENDSEC
  0
SECTION
  2
TABLES
  0
TABLE
  2
VPORT
 70
     1
  0
VPORT
  2
*ACTIVE
 70
     0
 10
0.0
 20
0.0
 11
1.0
 21
1.0
 12
6.249033264943427
 22
-25.770611959614481
 13
0.0
 23
0.0
 14
1.0
 24
1.0
 15
10.0
 25
10.0
 16
0.0
 26
0.0
 36
1.0
 17
0.0
 27
0.0
 37
0.0
 40
248.78549847903
 41
1.0918367346938771
 42
50.0
 43
0.0
 44
0.0
 50
0.0
 51
0.0
 71
     0
 72
   100
 73
     1
 74
     3
 75
     0
 76
     0
 77
     0
 78
     0
  0
ENDTAB
  0
TABLE
  2
LTYPE
 70
     5
  0
LTYPE
  2
CONTINUOUS
 70
     0
  3
Solid line
 72
    65
 73
     0
 40
0.0
  0
LTYPE
  2
PHANTOM
 70
     0
  3
Phantom ______  __  __  ______  __  __  ______
 72
    65
 73
     6
 40
63.5
 49
31.75
 49
-6.3499999999999988
 49
6.3499999999999988
 49
-6.3499999999999988
 49
6.3499999999999988
 49
-6.3499999999999988
  0
LTYPE
  2
HIDDEN
 70
     0
  3
Hidden __ __ __ __ __ __ __ __ __ __ __ __ __ _
 72
    65
 73
     2
 40
9.5249999999999986
 49
6.3499999999999988
 49
-3.1749999999999989
  0
LTYPE
  2
DIVIDE2
 70
     0
  3
Divide (.5x) __..__..__..__..__..__..__..__.._
 72
    65
 73
     6
 40
15.875
 49
6.3499999999999988
 49
-3.1749999999999989
 49
0.0
 49
-3.1749999999999989
 49
0.0
 49
-3.1749999999999989
  0
LTYPE
  2
CENTER
 70
     0
  3
Center ____ _ ____ _ ____ _ ____ _ ____ _ ____
 72
    65
 73
     4
 40
50.799999999999997
 49
31.75
 49
-6.3499999999999988
 49
6.3499999999999988
 49
-6.3499999999999988
  0
ENDTAB
  0
TABLE
  2
LAYER
 70
    18
  0
LAYER
  2
0
 70
     0
 62
     7
  6
CONTINUOUS
  0
LAYER
  2
DEFPOINTS
 70
     0
 62
     7
  6
CONTINUOUS
  0
ENDTAB
  0
TABLE
  2
STYLE
 70
     5
  0
STYLE
  2
STANDARD
 70
     0
 40
0.0
 41
1.0
 50
0.0
 71
     0
 42
3.5
  3
txt
  4

  0
STYLE
  2
2_5
 70
     0
 40
2.5
 41
1.0
 50
0.0
 71
     0
 42
2.5
  3
txt
  4

  0
STYLE
  2
ARIAL
 70
     0
 40
0.0
 41
1.0
 50
0.0
 71
     0
 42
35.0
  3
txt
  4

  0
ENDTAB
  0
TABLE
  2
VIEW
 70
     5
  0
VIEW
  2
A
 70
     1
 40
27750.0
 10
17125.0
 20
13875.0
 41
34250.0
 11
0.0
 21
0.0
 31
1.0
 12
0.0
 22
0.0
 32
0.0
 42
50.0
 43
0.0
 44
0.0
 50
0.0
 71
     0
  0
VIEW
  2
MS-A
 70
     1
 40
27750.0
 10
17125.0
 20
13875.0
 41
34250.0
 11
0.0
 21
0.0
 31
1.0
 12
0.0
 22
0.0
 32
0.0
 42
50.0
 43
0.0
 44
0.0
 50
0.0
 71
     0
  0
VIEW
  2
PS-A
 70
     1
 40
560.0
 10
394.84013230429991
 20
280.0
 41
789.68026460859983
 11
0.0
 21
0.0
 31
1.0
 12
0.0
 22
0.0
 32
0.0
 42
50.0
 43
0.0
 44
0.0
 50
0.0
 71
     0
  0
VIEW
  2
VA
 70
     1
 40
560.0
 10
392.50000000000011
 20
280.0
 41
785.00000000000023
 11
0.0
 21
0.0
 31
1.0
 12
0.0
 22
0.0
 32
0.0
 42
50.0
 43
0.0
 44
0.0
 50
0.0
 71
     0
  0
ENDTAB
  0
TABLE
  2
UCS
 70
     0
  0
ENDTAB
  0
TABLE
  2
APPID
 70
    16
  0
APPID
  2
ACAD
 70
     0
  0
APPID
  2
CONTENTTABDATA
 70
     0
  0
APPID
  2
CONTENTCURRENTTAB
 70
     0
  0
APPID
  2
CONTENTBLOCKICON
 70
     0
  0
APPID
  2
CONTENTBLOCKDESCRIPTION
 70
     0
  0
APPID
  2
ACAD_MLEADERVER
 70
     0
  0
APPID
  2
ACAD_EXEMPT_FROM_CAD_STANDARDS
 70
     0
  0
APPID
  2
ACAD_PSEXT
 70
     0
  0
APPID
  2
ACAD_DSTYLE_DIMJAG
 70
     0
  0
APPID
  2
ACAD_DSTYLE_DIMTALN
 70
     0
  0
APPID
  2
ACADANNOPO
 70
     0
  0
APPID
  2
ACAD_DSTYLE_DIMEXT_ENABLED
 70
     0
  0
APPID
  2
ACAD_DSTYLE_DIMEXT_LENGTH
 70
     0
  0
APPID
  2
ACADANNOTATIVE
 70
     0
  0
APPID
  2
ACDBDYNAMICBLOCKGUID
 70
     0
  0
APPID
  2
ACAD_NAV_VCDISPLAY
 70
     0
  0
ENDTAB
  0
TABLE
  2
DIMSTYLE
 70
     2
  0
DIMSTYLE
  2
1_TO_1_LEADER
 70
     0
  3

  4

  5
ARCHTICK
  6

  7

 40
1.0
 41
1.8
 42
1.8
 43
5.0
 44
1.8
 45
0.0
 46
1.8
 47
0.0
 48
0.0
140
2.0
141
1.8
142
0.0
143
0.0394
144
1.0
145
0.0
146
1.0
147
1.0
 71
     0
 72
     0
 73
     0
 74
     0
 75
     0
 76
     0
 77
     0
 78
     0
170
     0
171
     2
172
     1
173
     0
174
     1
175
     0
176
     0
177
     0
178
     0
  0
DIMSTYLE
  2
1_TO_1
 70
     0
  3
mm
  4
mm
  5

  6

  7

 40
1.0
 41
1.8
 42
1.8
 43
5.0
 44
1.8
 45
0.0
 46
1.8
 47
0.0
 48
0.0
140
2.0
141
1.8
142
0.0
143
0.0394
144
1.0
145
0.0
146
1.0
147
1.0
 71
     0
 72
     0
 73
     0
 74
     0
 75
     0
 76
     0
 77
     1
 78
     0
170
     0
171
     2
172
     0
173
     0
174
     0
175
     0
176
   256
177
   256
178
   256
  0
ENDTAB
  0
ENDSEC
  0
SECTION
  2
BLOCKS
  0
BLOCK
  8
0
  2
$MODEL_SPACE
 70
     2
 10
0.0
 20
0.0
 30
0.0
  3
$MODEL_SPACE
  1

  0
ENDBLK
  5
FFBBDAE469BA29CD
  8
0
  0
BLOCK
 67
     1
  8
0
  2
$PAPER_SPACE
 70
     0
 10
0.0
 20
0.0
 30
0.0
  3
$PAPER_SPACE
  1

  0
ENDBLK
  5
FFBBDAE469BC0E50
 67
     1
  8
0
  0
BLOCK
  8
0
  2
*D2
 70
     1
 10
0.0
 20
0.0
 30
0.0
  3
*D2
  1

  0
LINE
  5
FFBBDAE469BC0F57
  8
0
  6
CONTINUOUS
 10
-43.081544902719521
 20
-1.999999999999998
 30
0.0
 11
-49.881544902719519
 21
-1.999999999999996
 31
0.0
  0
LINE
  5
FFBBDAE469BC0F58
  8
0
  6
CONTINUOUS
 10
-43.081544902719543
 20
-52.0
 30
0.0
 11
-49.88154490271954
 21
-51.999999999999993
 31
0.0
  0
LINE
  5
FFBBDAE469BC0F59
  8
0
  6
CONTINUOUS
 10
-48.081544902719521
 20
-3.7999999999999972
 30
0.0
 11
-48.081544902719543
 21
-50.199999999999989
 31
0.0
  0
SOLID
  5
FFBBDAE469BC0F5A
  8
0
  6
CONTINUOUS
 10
-48.381544902719533
 20
-3.7999999999999972
 30
0.0
 11
-47.781544902719531
 21
-3.7999999999999972
 31
0.0
 12
-48.081544902719521
 22
-1.999999999999996
 32
0.0
 13
-48.081544902719521
 23
-1.999999999999996
 33
0.0
  0
SOLID
  5
FFBBDAE469BC0F5B
  8
0
  6
CONTINUOUS
 10
-48.381544902719533
 20
-50.199999999999989
 30
0.0
 11
-47.781544902719538
 21
-50.200000000000003
 31
0.0
 12
-48.081544902719543
 22
-51.999999999999993
 32
0.0
 13
-48.081544902719543
 23
-51.999999999999993
 33
0.0
  0
INSERT
  5
FFBBDAE469BC0F5C
  8
0
  6
CONTINUOUS
  2
*U47
 10
0.0
 20
0.0
 30
0.0
  0
POINT
  5
FFBBDAE469BC0F5D
  8
DEFPOINTS
  6
CONTINUOUS
 62
     0
 10
-37.000000000001819
 20
-2.0
 30
0.0
  0
POINT
  5
FFBBDAE469BC0F5E
  8
DEFPOINTS
  6
CONTINUOUS
 62
     0
 10
-35.000000000002728
 20
-52.0
 30
0.0
  0
POINT
  5
FFBBDAE469BC0F5F
  8
DEFPOINTS
  6
CONTINUOUS
 62
     0
 10
-48.081544902719543
 20
-51.999999999999993
 30
0.0
  0
ENDBLK
  5
FFBBDAE469BBDC90
  8
0
  0
BLOCK
  8
0
  2
*D3
 70
     1
 10
0.0
 20
0.0
 30
0.0
  3
*D3
  1

  0
LINE
  5
FFBBDAE469BC0F4F
  8
0
  6
CONTINUOUS
 10
-58.063410895114409
 20
-1.9999999999999929
 30
0.0
 11
-64.863410895114413
 21
-1.9999999999999909
 31
0.0
  0
LINE
  5
FFBBDAE469BC0F50
  8
0
  6
CONTINUOUS
 10
-58.063410895114437
 20
-95.416227589748814
 30
0.0
 11
-64.863410895114427
 21
-95.416227589748814
 31
0.0
  0
LINE
  5
FFBBDAE469BC0F51
  8
0
  6
CONTINUOUS
 10
-63.063410895114409
 20
-3.7999999999999909
 30
0.0
 11
-63.06341089511443
 21
-93.616227589748803
 31
0.0
  0
SOLID
  5
FFBBDAE469BC0F52
  8
0
  6
CONTINUOUS
 10
-63.363410895114399
 20
-3.7999999999999909
 30
0.0
 11
-62.763410895114411
 21
-3.7999999999999918
 31
0.0
 12
-63.063410895114409
 22
-1.999999999999992
 32
0.0
 13
-63.063410895114409
 23
-1.999999999999992
 33
0.0
  0
SOLID
  5
FFBBDAE469BC0F53
  8
0
  6
CONTINUOUS
 10
-63.36341089511442
 20
-93.616227589748803
 30
0.0
 11
-62.763410895114433
 21
-93.616227589748803
 31
0.0
 12
-63.06341089511443
 22
-95.416227589748814
 32
0.0
 13
-63.06341089511443
 23
-95.416227589748814
 33
0.0
  0
POINT
  5
FFBBDAE469BC0F54
  8
DEFPOINTS
  6
CONTINUOUS
 62
     0
 10
-36.000000000001819
 20
-2.0
 30
0.0
  0
POINT
  5
FFBBDAE469BC0F55
  8
DEFPOINTS
  6
CONTINUOUS
 62
     0
 10
-36.612304889417373
 20
-95.416227589748814
 30
0.0
  0
POINT
  5
FFBBDAE469BC0F56
  8
DEFPOINTS
  6
CONTINUOUS
 62
     0
 10
-63.06341089511443
 20
-95.416227589748814
 30
0.0
  0
ENDBLK
  5
FFBBDAE469BBE4CA
  8
0
  0
BLOCK
  8
0
  2
*D4
 70
     1
 10
0.0
 20
0.0
 30
0.0
  3
*D4
  1

  0
LINE
  5
FFBBDAE469BC0F46
  8
0
  6
CONTINUOUS
 10
-36.800000000002733
 20
-52.0
 30
0.0
 11
-43.287177536117099
 21
-52.0
 31
0.0
  0
LINE
  5
FFBBDAE469BC0F47
  8
0
  6
CONTINUOUS
 10
-36.487177536117088
 20
-37.0
 30
0.0
 11
-43.287177536117092
 21
-37.0
 31
0.0
  0
LINE
  5
FFBBDAE469BC0F48
  8
0
  6
CONTINUOUS
 10
-41.487177536117088
 20
-50.200000000000003
 30
0.0
 11
-41.48717753611708
 21
-38.799999999999997
 31
0.0
  0
SOLID
  5
FFBBDAE469BC0F49
  8
0
  6
CONTINUOUS
 10
-41.787177536117092
 20
-50.200000000000003
 30
0.0
 11
-41.187177536117098
 21
-50.200000000000003
 31
0.0
 12
-41.487177536117088
 22
-52.0
 32
0.0
 13
-41.487177536117088
 23
-52.0
 33
0.0
  0
SOLID
  5
FFBBDAE469BC0F4A
  8
0
  6
CONTINUOUS
 10
-41.787177536117078
 20
-38.799999999999997
 30
0.0
 11
-41.18717753611709
 21
-38.799999999999997
 31
0.0
 12
-41.48717753611708
 22
-37.0
 32
0.0
 13
-41.48717753611708
 23
-37.0
 33
0.0
  0
INSERT
  5
FFBBDAE469BC0F4B
  8
0
  6
CONTINUOUS
  2
*U46
 10
0.0
 20
0.0
 30
0.0
  0
POINT
  5
FFBBDAE469BC0F4C
  8
DEFPOINTS
  6
CONTINUOUS
 62
     0
 10
-35.000000000002728
 20
-52.0
 30
0.0
  0
POINT
  5
FFBBDAE469BC0F4D
  8
DEFPOINTS
  6
CONTINUOUS
 62
     0
 10
-25.000000000001371
 20
-37.0
 30
0.0
  0
POINT
  5
FFBBDAE469BC0F4E
  8
DEFPOINTS
  6
CONTINUOUS
 62
     0
 10
-41.48717753611708
 20
-37.0
 30
0.0
  0
ENDBLK
  5
FFBBDAE469BBEF1C
  8
0
  0
BLOCK
  8
0
  2
_ARCHTICK
 70
     0
 10
0.0
 20
0.0
 30
0.0
  3
_ARCHTICK
  1

  0
POLYLINE
  5
FFBBDAE469BC02C3
  8
0
  6
BYBLOCK
 62
     0
 66
     1
 10
0.0
 20
0.0
 30
0.0
 40
0.15
 41
0.15
  0
VERTEX
  5
FFBBDAE469BC1182
  8
0
  6
BYBLOCK
 62
     0
 10
-0.5
 20
-0.5
 30
0.0
  0
VERTEX
  5
FFBBDAE469BC1183
  8
0
  6
BYBLOCK
 62
     0
 10
0.5
 20
0.5
 30
0.0
  0
SEQEND
  5
FFBBDAE469BC1184
  8
0
  6
BYBLOCK
 62
     0
  0
ENDBLK
  5
FFBBDAE469BC02C5
  8
0
  0
BLOCK
  8
0
  2
*U10
 70
     1
 10
0.0
 20
0.0
 30
0.0
  3
*U10
  1

  0
SOLID
  5
FFBBDAE469BC0FB0
  8
0
  6
CONTINUOUS
 10
-25.0
 20
62.821852867604051
 30
0.0
 11
-26.000000000000909
 21
62.567449768708151
 31
0.0
 12
-25.0
 22
62.567449768708151
 32
0.0
 13
-25.0
 23
62.567449768708151
 33
0.0
210
0.0
220
0.0
230
1.0
  0
SOLID
  5
FFBBDAE469BC0FB1
  8
0
  6
CONTINUOUS
 10
-26.000000000000909
 20
62.567449768708151
 30
0.0
 11
-26.000000000000909
 21
24.0
 31
0.0
 12
-25.000000000000458
 22
24.0
 32
0.0
 13
-25.000000000000458
 23
24.0
 33
0.0
210
0.0
220
0.0
230
1.0
  0
SOLID
  5
FFBBDAE469BC0FB2
  8
0
  6
CONTINUOUS
 10
26.000000000000909
 20
62.567449768708151
 30
0.0
 11
25.0
 21
62.567449768708151
 31
0.0
 12
25.000000000000458
 22
24.0
 32
0.0
 13
25.000000000000458
 23
24.0
 33
0.0
210
0.0
220
0.0
230
-1.0
  0
SOLID
  5
FFBBDAE469BC0FB3
  8
0
  6
CONTINUOUS
 10
-26.000000000000909
 20
22.000000000000011
 30
0.0
 11
-26.000000000000909
 21
-51.999999999975053
 31
0.0
 12
-25.000000000001819
 22
-51.999999999975053
 32
0.0
 13
-25.000000000001819
 23
-51.999999999975053
 33
0.0
  0
SOLID
  5
FFBBDAE469BC0FB4
  8
0
  6
CONTINUOUS
 10
26.000000000000909
 20
22.000000000000011
 30
0.0
 11
25.000000000000458
 21
22.000000000000011
 31
0.0
 12
25.000000000001819
 22
-51.999999999975053
 32
0.0
 13
25.000000000001819
 23
-51.999999999975053
 33
0.0
210
0.0
220
0.0
230
-1.0
  0
SOLID
  5
FFBBDAE469BC0FB5
  8
0
  6
CONTINUOUS
 10
26.000000000000909
 20
-52.003210851501073
 30
0.0
 11
25.008490144292601
 21
-52.003210851501073
 31
0.0
 12
25.49939873576438
 22
-52.188865481867801
 32
0.0
 13
25.49939873576438
 23
-52.188865481867801
 33
0.0
210
0.0
220
0.0
230
-1.0
  0
SOLID
  5
FFBBDAE469BC0FB6
  8
0
  6
CONTINUOUS
 10
-26.000000000000909
 20
-51.999999999975053
 30
0.0
 11
-26.000000000000909
 21
-52.003210851501073
 31
0.0
 12
-25.008490144292601
 22
-52.003210851501073
 32
0.0
 13
-25.008490144292601
 23
-52.003210851501073
 33
0.0
210
0.0
220
0.0
230
1.0
  0
SOLID
  5
FFBBDAE469BC0FB7
  8
0
  6
CONTINUOUS
 10
26.000000000000909
 20
-51.999999999975053
 30
0.0
 11
25.000000000001819
 21
-51.999999999975053
 31
0.0
 12
25.008490144292601
 22
-52.003210851501073
 32
0.0
 13
25.008490144292601
 23
-52.003210851501073
 33
0.0
210
0.0
220
0.0
230
-1.0
  0
LINE
  5
FFBBDAE469BC0FB8
  8
0
  6
CONTINUOUS
 10
-25.0
 20
62.821852867604051
 30
0.0
 11
-26.000000000000909
 21
62.567449768708151
 31
0.0
  0
LINE
  5
FFBBDAE469BC0FB9
  8
0
  6
CONTINUOUS
 10
-25.0
 20
62.567449768708151
 30
0.0
 11
-25.0
 21
62.821852867604051
 31
0.0
  0
LINE
  5
FFBBDAE469BC0FBA
  8
0
  6
CONTINUOUS
 10
-26.000000000000909
 20
62.567449768708151
 30
0.0
 11
-26.000000000000909
 21
24.0
 31
0.0
  0
LINE
  5
FFBBDAE469BC0FBB
  8
0
  6
CONTINUOUS
 10
-25.0
 20
62.567449768708151
 30
0.0
 11
-25.000000000000458
 21
24.0
 31
0.0
  0
LINE
  5
FFBBDAE469BC0FBC
  8
0
  6
CONTINUOUS
 10
-26.000000000000909
 20
22.000000000000011
 30
0.0
 11
-26.000000000000909
 21
-51.999999999975053
 31
0.0
  0
LINE
  5
FFBBDAE469BC0FBD
  8
0
  6
CONTINUOUS
 10
-25.000000000000458
 20
22.000000000000011
 30
0.0
 11
-25.000000000001819
 21
-51.999999999975053
 31
0.0
  0
LINE
  5
FFBBDAE469BC0FBE
  8
0
  6
CONTINUOUS
 10
-25.008490144292601
 20
-52.003210851501073
 30
0.0
 11
-25.49939873576438
 21
-52.188865481867801
 31
0.0
  0
LINE
  5
FFBBDAE469BC0FBF
  8
0
  6
CONTINUOUS
 10
-25.49939873576438
 20
-52.188865481867801
 30
0.0
 11
-26.000000000000909
 21
-52.003210851501073
 31
0.0
  0
LINE
  5
FFBBDAE469BC0FC0
  8
0
  6
CONTINUOUS
 10
-26.000000000000909
 20
-51.999999999975053
 30
0.0
 11
-26.000000000000909
 21
-52.003210851501073
 31
0.0
  0
LINE
  5
FFBBDAE469BC0FC1
  8
0
  6
CONTINUOUS
 10
-25.000000000001819
 20
-51.999999999975053
 30
0.0
 11
-25.008490144292601
 21
-52.003210851501073
 31
0.0
  0
ENDBLK
  5
FFBBDAE469BC0FC3
  8
0
  0
BLOCK
  8
0
  2
*X11
 70
     1
 10
0.0
 20
0.0
 30
0.0
  3
*X11
  1

  0
LINE
  5
FFBBDAE469BC0FEE
  8
0
  6
CONTINUOUS
 62
     0
 10
12.66466122092047
 20
-57.450804309027532
 30
0.0
 11
12.66466122092047
 21
-57.450804309027532
 31
0.0
  0
LINE
  5
FFBBDAE469BC0FEF
  8
0
  6
CONTINUOUS
 62
     0
 10
7.872358531654668
 20
-53.059467959525733
 30
0.0
 11
7.872358531654668
 21
-53.059467959525733
 31
0.0
  0
LINE
  5
FFBBDAE469BC0FF0
  8
0
  6
CONTINUOUS
 62
     0
 10
24.32838460776841
 20
-55.448704662381452
 30
0.0
 11
24.32838460776841
 21
-55.448704662381452
 31
0.0
  0
LINE
  5
FFBBDAE469BC0FF1
  8
0
  6
CONTINUOUS
 62
     0
 10
19.5360819185026
 20
-51.05736831287966
 30
0.0
 11
19.5360819185026
 21
-51.05736831287966
 31
0.0
  0
LINE
  5
FFBBDAE469BC0FF2
  8
0
  6
CONTINUOUS
 62
     0
 10
8.6981050673937812
 20
-41.126192260929443
 30
0.0
 11
8.6981050673937812
 21
-41.126192260929443
 31
0.0
  0
LINE
  5
FFBBDAE469BC0FF3
  8
0
  6
CONTINUOUS
 62
     0
 10
35.992107994616148
 20
-53.446605015735209
 30
0.0
 11
35.992107994616148
 21
-53.446605015735209
 31
0.0
  0
LINE
  5
FFBBDAE469BC0FF4
  8
0
  6
CONTINUOUS
 62
     0
 10
31.199805305350338
 20
-49.055268666233417
 30
0.0
 11
31.199805305350338
 21
-49.055268666233417
 31
0.0
  0
LINE
  5
FFBBDAE469BC0FF5
  8
0
  6
CONTINUOUS
 62
     0
 10
20.361828454241529
 20
-39.124092614283207
 30
0.0
 11
20.361828454241529
 21
-39.124092614283207
 31
0.0
  0
LINE
  5
FFBBDAE469BC0FF6
  8
0
  6
CONTINUOUS
 62
     0
 10
12.723635244888641
 20
-32.124978063384972
 30
0.0
 11
12.723635244888641
 21
-32.124978063384972
 31
0.0
  0
LINE
  5
FFBBDAE469BC0FF7
  8
0
  6
CONTINUOUS
 62
     0
 10
7.9313325556228369
 20
-27.73364171388317
 30
0.0
 11
7.9313325556228369
 21
-27.73364171388317
 31
0.0
  0
LINE
  5
FFBBDAE469BC0FF8
  8
0
  6
CONTINUOUS
 62
     0
 10
32.02555184108946
 20
-37.121992967637127
 30
0.0
 11
32.02555184108946
 21
-37.121992967637127
 31
0.0
  0
LINE
  5
FFBBDAE469BC0FF9
  8
0
  6
CONTINUOUS
 62
     0
 10
24.387358631736578
 20
-30.122878416738882
 30
0.0
 11
24.387358631736578
 21
-30.122878416738882
 31
0.0
  0
LINE
  5
FFBBDAE469BC0FFA
  8
0
  6
CONTINUOUS
 62
     0
 10
19.595055942470768
 20
-25.73154206723709
 30
0.0
 11
19.595055942470768
 21
-25.73154206723709
 31
0.0
  0
LINE
  5
FFBBDAE469BC0FFB
  8
0
  6
CONTINUOUS
 62
     0
 10
8.7570790913619518
 20
-15.80036601528689
 30
0.0
 11
8.7570790913619518
 21
-15.80036601528689
 31
0.0
  0
LINE
  5
FFBBDAE469BC0FFC
  8
0
  6
CONTINUOUS
 62
     0
 10
36.051082018584331
 20
-28.120778770092219
 30
0.0
 11
36.051082018584331
 21
-28.120778770092219
 31
0.0
  0
LINE
  5
FFBBDAE469BC0FFD
  8
0
  6
CONTINUOUS
 62
     0
 10
31.258779329318529
 20
-23.72944242059042
 30
0.0
 11
31.258779329318529
 21
-23.72944242059042
 31
0.0
  0
LINE
  5
FFBBDAE469BC0FFE
  8
0
  6
CONTINUOUS
 62
     0
 10
20.420802478209708
 20
-13.79826636864021
 30
0.0
 11
20.420802478209708
 21
-13.79826636864021
 31
0.0
  0
LINE
  5
FFBBDAE469BC0FFF
  8
0
  6
CONTINUOUS
 62
     0
 10
12.78260926885682
 20
-6.7991518177419694
 30
0.0
 11
12.78260926885682
 21
-6.7991518177419694
 31
0.0
  0
LINE
  5
FFBBDAE469BC1000
  8
0
  6
CONTINUOUS
 62
     0
 10
7.99030657959102
 20
-2.4078154682401758
 30
0.0
 11
7.99030657959102
 21
-2.4078154682401758
 31
0.0
  0
LINE
  5
FFBBDAE469BC1001
  8
0
  6
CONTINUOUS
 62
     0
 10
42.922502716165873
 20
-21.727342773944301
 30
0.0
 11
42.922502716165873
 21
-21.727342773944301
 31
0.0
  0
LINE
  5
FFBBDAE469BC1002
  8
0
  6
CONTINUOUS
 62
     0
 10
32.08452586505706
 20
-11.796166721994091
 30
0.0
 11
32.08452586505706
 21
-11.796166721994091
 31
0.0
  0
LINE
  5
FFBBDAE469BC1003
  8
0
  6
CONTINUOUS
 62
     0
 10
24.446332655704168
 20
-4.7970521710958511
 30
0.0
 11
24.446332655704168
 21
-4.7970521710958511
 31
0.0
  0
LINE
  5
FFBBDAE469BC1004
  8
0
  6
CONTINUOUS
 62
     0
 10
43.748249251904937
 20
-9.7940670753474972
 30
0.0
 11
43.748249251904937
 21
-9.7940670753474972
 31
0.0
  0
LINE
  5
FFBBDAE469BC1005
  8
0
  6
CONTINUOUS
 62
     0
 10
36.11005604255206
 20
-2.7949525244492568
 30
0.0
 11
36.11005604255206
 21
-2.7949525244492568
 31
0.0
  0
LINE
  5
FFBBDAE469BC1006
  8
0
  6
CONTINUOUS
 62
     0
 10
15.680033904589649
 20
-50.793680798421832
 30
0.0
 11
15.680033904589649
 21
-50.793680798421832
 31
0.0
  0
LINE
  5
FFBBDAE469BC1007
  8
0
  6
CONTINUOUS
 62
     0
 10
26.356482628036371
 20
-51.244778233108832
 30
0.0
 11
26.356482628036371
 21
-51.244778233108832
 31
0.0
  0
LINE
  5
FFBBDAE469BC1008
  8
0
  6
CONTINUOUS
 62
     0
 10
13.199576073355351
 20
-42.862904342898382
 30
0.0
 11
13.199576073355351
 21
-42.862904342898382
 31
0.0
  0
LINE
  5
FFBBDAE469BC1009
  8
0
  6
CONTINUOUS
 62
     0
 10
8.9826188442909256
 20
-40.176406301164249
 30
0.0
 11
8.9826188442909256
 21
-40.176406301164249
 31
0.0
  0
LINE
  5
FFBBDAE469BC100A
  8
0
  6
CONTINUOUS
 62
     0
 10
37.032931351485452
 20
-51.695875667796791
 30
0.0
 11
37.032931351485452
 21
-51.695875667796791
 31
0.0
  0
LINE
  5
FFBBDAE469BC100B
  8
0
  6
CONTINUOUS
 62
     0
 10
23.87602479680444
 20
-43.314001777586327
 30
0.0
 11
23.87602479680444
 21
-43.314001777586327
 31
0.0
  0
LINE
  5
FFBBDAE469BC100C
  8
0
  6
CONTINUOUS
 62
     0
 10
19.65906756774001
 20
-40.627503735852208
 30
0.0
 11
19.65906756774001
 21
-40.627503735852208
 31
0.0
  0
LINE
  5
FFBBDAE469BC100D
  8
0
  6
CONTINUOUS
 62
     0
 10
34.552473520252072
 20
-43.765099212273583
 30
0.0
 11
34.552473520252072
 21
-43.765099212273583
 31
0.0
  0
LINE
  5
FFBBDAE469BC100E
  8
0
  6
CONTINUOUS
 62
     0
 10
30.335516291187648
 20
-41.078601170539457
 30
0.0
 11
30.335516291187648
 21
-41.078601170539457
 31
0.0
  0
LINE
  5
FFBBDAE469BC100F
  8
0
  6
CONTINUOUS
 62
     0
 10
12.877313362860921
 20
-29.956499277760201
 30
0.0
 11
12.877313362860921
 21
-29.956499277760201
 31
0.0
  0
LINE
  5
FFBBDAE469BC1010
  8
0
  6
CONTINUOUS
 62
     0
 10
41.011965014636118
 20
-41.529698605226983
 30
0.0
 11
41.011965014636118
 21
-41.529698605226983
 31
0.0
  0
LINE
  5
FFBBDAE469BC1011
  8
0
  6
CONTINUOUS
 62
     0
 10
23.553762086309401
 20
-30.407596712447731
 30
0.0
 11
23.553762086309401
 21
-30.407596712447731
 31
0.0
  0
LINE
  5
FFBBDAE469BC1012
  8
0
  6
CONTINUOUS
 62
     0
 10
10.396855531628381
 20
-22.02572282223727
 30
0.0
 11
10.396855531628381
 21
-22.02572282223727
 31
0.0
  0
LINE
  5
FFBBDAE469BC1013
  8
0
  6
CONTINUOUS
 62
     0
 10
6.1798983025639549
 20
-19.339224780503141
 30
0.0
 11
6.1798983025639549
 21
-19.339224780503141
 31
0.0
  0
LINE
  5
FFBBDAE469BC1014
  8
0
  6
CONTINUOUS
 62
     0
 10
34.230210809757487
 20
-30.858694147135768
 30
0.0
 11
34.230210809757487
 21
-30.858694147135768
 31
0.0
  0
LINE
  5
FFBBDAE469BC1015
  8
0
  6
CONTINUOUS
 62
     0
 10
21.073304255076469
 20
-22.476820256925311
 30
0.0
 11
21.073304255076469
 21
-22.476820256925311
 31
0.0
  0
LINE
  5
FFBBDAE469BC1016
  8
0
  6
CONTINUOUS
 62
     0
 10
16.856347026012038
 20
-19.790322215191178
 30
0.0
 11
16.856347026012038
 21
-19.790322215191178
 31
0.0
  0
LINE
  5
FFBBDAE469BC1017
  8
0
  6
CONTINUOUS
 62
     0
 10
31.749752978524558
 20
-22.92791769161267
 30
0.0
 11
31.749752978524558
 21
-22.92791769161267
 31
0.0
  0
LINE
  5
FFBBDAE469BC1018
  8
0
  6
CONTINUOUS
 62
     0
 10
27.532795749460131
 20
-20.241419649878551
 30
0.0
 11
27.532795749460131
 21
-20.241419649878551
 31
0.0
  0
LINE
  5
FFBBDAE469BC1019
  8
0
  6
CONTINUOUS
 62
     0
 10
10.074592821133409
 20
-9.1193177570992852
 30
0.0
 11
10.074592821133409
 21
-9.1193177570992852
 31
0.0
  0
LINE
  5
FFBBDAE469BC101A
  8
0
  6
CONTINUOUS
 62
     0
 10
42.426201701973611
 20
-23.379015126300651
 30
0.0
 11
42.426201701973611
 21
-23.379015126300651
 31
0.0
  0
LINE
  5
FFBBDAE469BC101B
  8
0
  6
CONTINUOUS
 62
     0
 10
38.209244472909191
 20
-20.692517084566521
 30
0.0
 11
38.209244472909191
 21
-20.692517084566521
 31
0.0
  0
LINE
  5
FFBBDAE469BC101C
  8
0
  6
CONTINUOUS
 62
     0
 10
20.751041544582471
 20
-9.5704151917872622
 30
0.0
 11
20.751041544582471
 21
-9.5704151917872622
 31
0.0
  0
LINE
  5
FFBBDAE469BC101D
  8
0
  6
CONTINUOUS
 62
     0
 10
31.42749026803002
 20
-10.0215126264748
 30
0.0
 11
31.42749026803002
 21
-10.0215126264748
 31
0.0
  0
LINE
  5
FFBBDAE469BC101E
  8
0
  6
CONTINUOUS
 62
     0
 10
42.103938991477328
 20
-10.47261006116177
 30
0.0
 11
42.103938991477328
 21
-10.47261006116177
 31
0.0
  0
LINE
  5
FFBBDAE469BC101F
  8
0
  6
CONTINUOUS
 62
     0
 10
28.947032436796331
 20
-2.0907361709513141
 30
0.0
 11
28.947032436796331
 21
-2.0907361709513141
 31
0.0
  0
LINE
  5
FFBBDAE469BC1020
  8
0
  6
CONTINUOUS
 62
     0
 10
39.623481160245177
 20
-2.541833605639261
 30
0.0
 11
39.623481160245177
 21
-2.541833605639261
 31
0.0
  0
LINE
  5
FFBBDAE469BC1021
  8
0
  6
CONTINUOUS
 62
     0
 10
34.047842511300921
 20
-56.788695110651993
 30
0.0
 11
34.047842511300921
 21
-56.788695110651993
 31
0.0
  0
LINE
  5
FFBBDAE469BC1022
  8
0
  6
CONTINUOUS
 62
     0
 10
21.416834977398569
 20
-58.451598799535446
 30
0.0
 11
21.416834977398569
 21
-58.451598799535446
 31
0.0
  0
LINE
  5
FFBBDAE469BC1023
  8
0
  6
CONTINUOUS
 62
     0
 10
13.842196236502661
 20
-59.448818908096641
 30
0.0
 11
13.842196236502661
 21
-59.448818908096641
 31
0.0
  0
LINE
  5
FFBBDAE469BC1024
  8
0
  6
CONTINUOUS
 62
     0
 10
8.8353996865649194
 20
-60.10797617880791
 30
0.0
 11
8.8353996865649194
 21
-60.10797617880791
 31
0.0
  0
LINE
  5
FFBBDAE469BC1025
  8
0
  6
CONTINUOUS
 62
     0
 10
39.309233260144069
 20
-48.90046087300469
 30
0.0
 11
39.309233260144069
 21
-48.90046087300469
 31
0.0
  0
LINE
  5
FFBBDAE469BC1026
  8
0
  6
CONTINUOUS
 62
     0
 10
26.678225726241731
 20
-50.56336456188815
 30
0.0
 11
26.678225726241731
 21
-50.56336456188815
 31
0.0
  0
LINE
  5
FFBBDAE469BC1027
  8
0
  6
CONTINUOUS
 62
     0
 10
19.10358698534581
 20
-51.560584670449337
 30
0.0
 11
19.10358698534581
 21
-51.560584670449337
 31
0.0
  0
LINE
  5
FFBBDAE469BC1028
  8
0
  6
CONTINUOUS
 62
     0
 10
14.096790435408071
 20
-52.219741941160613
 30
0.0
 11
14.096790435408071
 21
-52.219741941160613
 31
0.0
  0
LINE
  5
FFBBDAE469BC1029
  8
0
  6
CONTINUOUS
 62
     0
 10
31.939616475084659
 20
-42.675130324240989
 30
0.0
 11
31.939616475084659
 21
-42.675130324240989
 31
0.0
  0
LINE
  5
FFBBDAE469BC102A
  8
0
  6
CONTINUOUS
 62
     0
 10
24.364977734188749
 20
-43.672350432802183
 30
0.0
 11
24.364977734188749
 21
-43.672350432802183
 31
0.0
  0
LINE
  5
FFBBDAE469BC102B
  8
0
  6
CONTINUOUS
 62
     0
 10
19.358181184251009
 20
-44.331507703513438
 30
0.0
 11
19.358181184251009
 21
-44.331507703513438
 31
0.0
  0
LINE
  5
FFBBDAE469BC102C
  8
0
  6
CONTINUOUS
 62
     0
 10
6.7271736503486643
 20
-45.994411392396891
 30
0.0
 11
6.7271736503486643
 21
-45.994411392396891
 31
0.0
  0
LINE
  5
FFBBDAE469BC102D
  8
0
  6
CONTINUOUS
 62
     0
 10
37.20100722392737
 20
-34.786896086593977
 30
0.0
 11
37.20100722392737
 21
-34.786896086593977
 31
0.0
  0
LINE
  5
FFBBDAE469BC102E
  8
0
  6
CONTINUOUS
 62
     0
 10
29.62636848303146
 20
-35.784116195155171
 30
0.0
 11
29.62636848303146
 21
-35.784116195155171
 31
0.0
  0
LINE
  5
FFBBDAE469BC102F
  8
0
  6
CONTINUOUS
 62
     0
 10
24.61957193309372
 20
-36.443273465866433
 30
0.0
 11
24.61957193309372
 21
-36.443273465866433
 31
0.0
  0
LINE
  5
FFBBDAE469BC1030
  8
0
  6
CONTINUOUS
 62
     0
 10
11.98856439919137
 20
-38.106177154749894
 30
0.0
 11
11.98856439919137
 21
-38.106177154749894
 31
0.0
  0
LINE
  5
FFBBDAE469BC1031
  8
0
  6
CONTINUOUS
 62
     0
 10
42.462397972770688
 20
-26.898661848946642
 30
0.0
 11
42.462397972770688
 21
-26.898661848946642
 31
0.0
  0
LINE
  5
FFBBDAE469BC1032
  8
0
  6
CONTINUOUS
 62
     0
 10
34.887759231874767
 20
-27.895881957507839
 30
0.0
 11
34.887759231874767
 21
-27.895881957507839
 31
0.0
  0
LINE
  5
FFBBDAE469BC1033
  8
0
  6
CONTINUOUS
 62
     0
 10
29.880962681937039
 20
-28.555039228219101
 30
0.0
 11
29.880962681937039
 21
-28.555039228219101
 31
0.0
  0
LINE
  5
FFBBDAE469BC1034
  8
0
  6
CONTINUOUS
 62
     0
 10
17.24995514803469
 20
-30.217942917102562
 30
0.0
 11
17.24995514803469
 21
-30.217942917102562
 31
0.0
  0
LINE
  5
FFBBDAE469BC1035
  8
0
  6
CONTINUOUS
 62
     0
 10
9.6753164071387801
 20
-31.215163025663749
 30
0.0
 11
9.6753164071387801
 21
-31.215163025663749
 31
0.0
  0
LINE
  5
FFBBDAE469BC1036
  8
0
  6
CONTINUOUS
 62
     0
 10
40.14914998071724
 20
-20.007647719860611
 30
0.0
 11
40.14914998071724
 21
-20.007647719860611
 31
0.0
  0
LINE
  5
FFBBDAE469BC1037
  8
0
  6
CONTINUOUS
 62
     0
 10
35.142353430779508
 20
-20.66680499057188
 30
0.0
 11
35.142353430779508
 21
-20.66680499057188
 31
0.0
  0
LINE
  5
FFBBDAE469BC1038
  8
0
  6
CONTINUOUS
 62
     0
 10
22.51134589687717
 20
-22.32970867945534
 30
0.0
 11
22.51134589687717
 21
-22.32970867945534
 31
0.0
  0
LINE
  5
FFBBDAE469BC1039
  8
0
  6
CONTINUOUS
 62
     0
 10
14.936707155981249
 20
-23.326928788016531
 30
0.0
 11
14.936707155981249
 21
-23.326928788016531
 31
0.0
  0
LINE
  5
FFBBDAE469BC103A
  8
0
  6
CONTINUOUS
 62
     0
 10
9.9299106060435136
 20
-23.986086058727789
 30
0.0
 11
9.9299106060435136
 21
-23.986086058727789
 31
0.0
  0
LINE
  5
FFBBDAE469BC103B
  8
0
  6
CONTINUOUS
 62
     0
 10
40.40374417962267
 20
-12.77857075292469
 30
0.0
 11
40.40374417962267
 21
-12.77857075292469
 31
0.0
  0
LINE
  5
FFBBDAE469BC103C
  8
0
  6
CONTINUOUS
 62
     0
 10
27.772736645720322
 20
-14.44147444180814
 30
0.0
 11
27.772736645720322
 21
-14.44147444180814
 31
0.0
  0
LINE
  5
FFBBDAE469BC103D
  8
0
  6
CONTINUOUS
 62
     0
 10
20.198097904824412
 20
-15.438694550369339
 30
0.0
 11
20.198097904824412
 21
-15.438694550369339
 31
0.0
  0
LINE
  5
FFBBDAE469BC103E
  8
0
  6
CONTINUOUS
 62
     0
 10
15.19130135488667
 20
-16.097851821080599
 30
0.0
 11
15.19130135488667
 21
-16.097851821080599
 31
0.0
  0
LINE
  5
FFBBDAE469BC103F
  8
0
  6
CONTINUOUS
 62
     0
 10
45.665134928465818
 20
-4.8903365152773839
 30
0.0
 11
45.665134928465818
 21
-4.8903365152773839
 31
0.0
  0
LINE
  5
FFBBDAE469BC1040
  8
0
  6
CONTINUOUS
 62
     0
 10
33.034127394563477
 20
-6.5532402041608409
 30
0.0
 11
33.034127394563477
 21
-6.5532402041608409
 31
0.0
  0
LINE
  5
FFBBDAE469BC1041
  8
0
  6
CONTINUOUS
 62
     0
 10
25.45948865366757
 20
-7.5504603127220351
 30
0.0
 11
25.45948865366757
 21
-7.5504603127220351
 31
0.0
  0
LINE
  5
FFBBDAE469BC1042
  8
0
  6
CONTINUOUS
 62
     0
 10
20.452692103729831
 20
-8.2096175834332961
 30
0.0
 11
20.452692103729831
 21
-8.2096175834332961
 31
0.0
  0
LINE
  5
FFBBDAE469BC1043
  8
0
  6
CONTINUOUS
 62
     0
 10
7.8216845698274824
 20
-9.872521272316753
 30
0.0
 11
7.8216845698274824
 21
-9.872521272316753
 31
0.0
  0
LINE
  5
FFBBDAE469BC1044
  8
0
  6
CONTINUOUS
 62
     0
 10
39.932325276028827
 20
-47.662634343566133
 30
0.0
 11
39.932325276028827
 21
-47.662634343566133
 31
0.0
  0
LINE
  5
FFBBDAE469BC1045
  8
0
  6
CONTINUOUS
 62
     0
 10
29.301390516126268
 20
-55.820037492282992
 30
0.0
 11
29.301390516126268
 21
-55.820037492282992
 31
0.0
  0
LINE
  5
FFBBDAE469BC1046
  8
0
  6
CONTINUOUS
 62
     0
 10
40.175522382375377
 20
-41.004757266939038
 30
0.0
 11
40.175522382375377
 21
-41.004757266939038
 31
0.0
  0
LINE
  5
FFBBDAE469BC1047
  8
0
  6
CONTINUOUS
 62
     0
 10
29.544587622472829
 20
-49.162160415655897
 30
0.0
 11
29.544587622472829
 21
-49.162160415655897
 31
0.0
  0
LINE
  5
FFBBDAE469BC1048
  8
0
  6
CONTINUOUS
 62
     0
 10
19.199260065075119
 20
-57.100409449929622
 30
0.0
 11
19.199260065075119
 21
-57.100409449929622
 31
0.0
  0
LINE
  5
FFBBDAE469BC1049
  8
0
  6
CONTINUOUS
 62
     0
 10
40.418719488720541
 20
-34.346880190313037
 30
0.0
 11
40.418719488720541
 21
-34.346880190313037
 31
0.0
  0
LINE
  5
FFBBDAE469BC104A
  8
0
  6
CONTINUOUS
 62
     0
 10
29.787784728817989
 20
-42.504283339029897
 30
0.0
 11
29.787784728817989
 21
-42.504283339029897
 31
0.0
  0
LINE
  5
FFBBDAE469BC104B
  8
0
  6
CONTINUOUS
 62
     0
 10
19.442457171420291
 20
-50.442532373303607
 30
0.0
 11
19.442457171420291
 21
-50.442532373303607
 31
0.0
  0
LINE
  5
FFBBDAE469BC104C
  8
0
  6
CONTINUOUS
 62
     0
 10
8.9305254125614226
 20
-58.508621307669159
 30
0.0
 11
8.9305254125614226
 21
-58.508621307669159
 31
0.0
  0
LINE
  5
FFBBDAE469BC104D
  8
0
  6
CONTINUOUS
 62
     0
 10
40.661916595066259
 20
-27.689003113686852
 30
0.0
 11
40.661916595066259
 21
-27.689003113686852
 31
0.0
  0
LINE
  5
FFBBDAE469BC104E
  8
0
  6
CONTINUOUS
 62
     0
 10
30.030981835163711
 20
-35.846406262403697
 30
0.0
 11
30.030981835163711
 21
-35.846406262403697
 31
0.0
  0
LINE
  5
FFBBDAE469BC104F
  8
0
  6
CONTINUOUS
 62
     0
 10
19.685654277765991
 20
-43.784655296677407
 30
0.0
 11
19.685654277765991
 21
-43.784655296677407
 31
0.0
  0
LINE
  5
FFBBDAE469BC1050
  8
0
  6
CONTINUOUS
 62
     0
 10
9.1737225189071339
 20
-51.850744231042967
 30
0.0
 11
9.1737225189071339
 21
-51.850744231042967
 31
0.0
  0
LINE
  5
FFBBDAE469BC1051
  8
0
  6
CONTINUOUS
 62
     0
 10
40.90511370141212
 20
-21.031126037061039
 30
0.0
 11
40.90511370141212
 21
-21.031126037061039
 31
0.0
  0
LINE
  5
FFBBDAE469BC1052
  8
0
  6
CONTINUOUS
 62
     0
 10
30.274178941509572
 20
-29.188529185777899
 30
0.0
 11
30.274178941509572
 21
-29.188529185777899
 31
0.0
  0
LINE
  5
FFBBDAE469BC1053
  8
0
  6
CONTINUOUS
 62
     0
 10
19.928851384111859
 20
-37.126778220051612
 30
0.0
 11
19.928851384111859
 21
-37.126778220051612
 31
0.0
  0
LINE
  5
FFBBDAE469BC1054
  8
0
  6
CONTINUOUS
 62
     0
 10
9.4169196252529943
 20
-45.192867154417158
 30
0.0
 11
9.4169196252529943
 21
-45.192867154417158
 31
0.0
  0
LINE
  5
FFBBDAE469BC1055
  8
0
  6
CONTINUOUS
 62
     0
 10
41.148310807757881
 20
-14.3732489604345
 30
0.0
 11
41.148310807757881
 21
-14.3732489604345
 31
0.0
  0
LINE
  5
FFBBDAE469BC1056
  8
0
  6
CONTINUOUS
 62
     0
 10
30.517376047855329
 20
-22.530652109151362
 30
0.0
 11
30.517376047855329
 21
-22.530652109151362
 31
0.0
  0
LINE
  5
FFBBDAE469BC1057
  8
0
  6
CONTINUOUS
 62
     0
 10
20.17204849045763
 20
-30.468901143425079
 30
0.0
 11
20.17204849045763
 21
-30.468901143425079
 31
0.0
  0
LINE
  5
FFBBDAE469BC1058
  8
0
  6
CONTINUOUS
 62
     0
 10
9.6601167315987624
 20
-38.534990077790617
 30
0.0
 11
9.6601167315987624
 21
-38.534990077790617
 31
0.0
  0
LINE
  5
FFBBDAE469BC1059
  8
0
  6
CONTINUOUS
 62
     0
 10
41.39150791410357
 20
-7.7153718838081558
 30
0.0
 11
41.39150791410357
 21
-7.7153718838081629
 31
0.0
  0
LINE
  5
FFBBDAE469BC105A
  8
0
  6
CONTINUOUS
 62
     0
 10
30.760573154201019
 20
-15.872775032525009
 30
0.0
 11
30.760573154201019
 21
-15.87277503252502
 31
0.0
  0
LINE
  5
FFBBDAE469BC105B
  8
0
  6
CONTINUOUS
 62
     0
 10
20.41524559680332
 20
-23.81102406679873
 30
0.0
 11
20.41524559680332
 21
-23.811024066798741
 31
0.0
  0
LINE
  5
FFBBDAE469BC105C
  8
0
  6
CONTINUOUS
 62
     0
 10
9.9033138379444487
 20
-31.877113001164279
 30
0.0
 11
9.9033138379444487
 21
-31.87711300116429
 31
0.0
  0
LINE
  5
FFBBDAE469BC105D
  8
0
  6
CONTINUOUS
 62
     0
 10
31.003770260547238
 20
-9.2148979558989268
 30
0.0
 11
31.003770260547238
 21
-9.2148979558989321
 31
0.0
  0
LINE
  5
FFBBDAE469BC105E
  8
0
  6
CONTINUOUS
 62
     0
 10
20.658442703149539
 20
-17.15314699017264
 30
0.0
 11
20.658442703149539
 21
-17.153146990172651
 31
0.0
  0
LINE
  5
FFBBDAE469BC105F
  8
0
  6
CONTINUOUS
 62
     0
 10
10.14651094429067
 20
-25.219235924538189
 30
0.0
 11
10.14651094429067
 21
-25.2192359245382
 31
0.0
  0
LINE
  5
FFBBDAE469BC1060
  8
0
  6
CONTINUOUS
 62
     0
 10
31.246967366892751
 20
-2.5570208792729399
 30
0.0
 11
31.246967366892751
 21
-2.557020879272947
 31
0.0
  0
LINE
  5
FFBBDAE469BC1061
  8
0
  6
CONTINUOUS
 62
     0
 10
20.901639809495041
 20
-10.495269913546659
 30
0.0
 11
20.901639809495041
 21
-10.495269913546659
 31
0.0
  0
LINE
  5
FFBBDAE469BC1062
  8
0
  6
CONTINUOUS
 62
     0
 10
10.38970805063617
 20
-18.56135884791221
 30
0.0
 11
10.38970805063617
 21
-18.56135884791221
 31
0.0
  0
LINE
  5
FFBBDAE469BC1063
  8
0
  6
CONTINUOUS
 62
     0
 10
21.14483691584126
 20
-3.8373928369201198
 30
0.0
 11
21.14483691584126
 21
-3.8373928369201269
 31
0.0
  0
LINE
  5
FFBBDAE469BC1064
  8
0
  6
CONTINUOUS
 62
     0
 10
10.632905156982391
 20
-11.903481771285669
 30
0.0
 11
10.632905156982391
 21
-11.903481771285669
 31
0.0
  0
LINE
  5
FFBBDAE469BC1065
  8
0
  6
CONTINUOUS
 62
     0
 10
10.876102263328161
 20
-5.2456046946591277
 30
0.0
 11
10.876102263328161
 21
-5.2456046946591348
 31
0.0
  0
LINE
  5
FFBBDAE469BC1066
  8
0
  6
CONTINUOUS
 62
     0
 10
38.553635216892481
 20
-39.559681253853419
 30
0.0
 11
38.959161700823529
 21
-38.351098199477377
 31
0.0
  0
LINE
  5
FFBBDAE469BC1067
  8
0
  6
CONTINUOUS
 62
     0
 10
33.687317269751937
 20
-54.062678323509942
 30
0.0
 11
34.092843753682992
 21
-52.854095269133893
 31
0.0
  0
LINE
  5
FFBBDAE469BC1068
  8
0
  6
CONTINUOUS
 62
     0
 10
36.348136486684432
 20
-2.5012999790829289
 30
0.0
 11
36.516342070219793
 21
-1.9999999999998681
 31
0.0
  0
LINE
  5
FFBBDAE469BC1069
  8
0
  6
CONTINUOUS
 62
     0
 10
31.481818539543891
 20
-17.004297048739438
 30
0.0
 11
31.887345023474939
 21
-15.7957139943634
 31
0.0
  0
LINE
  5
FFBBDAE469BC106A
  8
0
  6
CONTINUOUS
 62
     0
 10
26.61550059240334
 20
-31.507294118395961
 30
0.0
 11
27.021027076334398
 21
-30.298711064019919
 31
0.0
  0
LINE
  5
FFBBDAE469BC106B
  8
0
  6
CONTINUOUS
 62
     0
 10
21.749182645262799
 20
-46.01029118805247
 30
0.0
 11
22.154709129193851
 21
-44.801708133676428
 31
0.0
  0
LINE
  5
FFBBDAE469BC106C
  8
0
  6
CONTINUOUS
 62
     0
 10
16.882864698122251
 20
-60.513288257708993
 30
0.0
 11
17.288391182053299
 21
-59.304705203332951
 31
0.0
  0
LINE
  5
FFBBDAE469BC106D
  8
0
  6
CONTINUOUS
 62
     0
 10
19.543683915054611
 20
-8.9519099132816962
 30
0.0
 11
19.94921039898567
 21
-7.743326858905653
 31
0.0
  0
LINE
  5
FFBBDAE469BC106E
  8
0
  6
CONTINUOUS
 62
     0
 10
14.677365967914071
 20
-23.454906982938208
 30
0.0
 11
15.082892451845121
 21
-22.24632392856217
 31
0.0
  0
LINE
  5
FFBBDAE469BC106F
  8
0
  6
CONTINUOUS
 62
     0
 10
9.8110480207735247
 20
-37.957904052594728
 30
0.0
 11
10.216574504704569
 21
-36.749320998218693
 31
0.0
  0
LINE
  5
FFBBDAE469BC1070
  8
0
  6
CONTINUOUS
 62
     0
 10
15.886406522602231
 20
-59.84004190517318
 30
0.0
 11
16.881251609668279
 21
-60.51107338933808
 31
0.0
  0
LINE
  5
FFBBDAE469BC1071
  8
0
  6
CONTINUOUS
 62
     0
 10
32.69085420582622
 20
-53.389418814214437
 30
0.0
 11
33.685699292892266
 21
-54.060450298379351
 31
0.0
  0
LINE
  5
FFBBDAE469BC1072
  8
0
  6
CONTINUOUS
 62
     0
 10
20.752713161033611
 20
-45.337041004235687
 30
0.0
 11
21.747558248099661
 21
-46.0080724884006
 31
0.0
  0
LINE
  5
FFBBDAE469BC1073
  8
0
  6
CONTINUOUS
 62
     0
 10
8.8145721162410062
 20
-37.284663194256943
 30
0.0
 11
9.8094172033070564
 21
-37.95569467842185
 31
0.0
  0
LINE
  5
FFBBDAE469BC1074
  8
0
  6
CONTINUOUS
 62
     0
 10
37.557160844258341
 20
-38.886417913277782
 30
0.0
 11
38.552005931324388
 21
-39.557449397442703
 31
0.0
  0
LINE
  5
FFBBDAE469BC1075
  8
0
  6
CONTINUOUS
 62
     0
 10
25.61901979946574
 20
-30.834040103299031
 30
0.0
 11
26.61386488653179
 21
-31.505071587463942
 31
0.0
  0
LINE
  5
FFBBDAE469BC1076
  8
0
  6
CONTINUOUS
 62
     0
 10
13.68087875467314
 20
-22.781662293320281
 30
0.0
 11
14.67572384173919
 21
-23.452693777485191
 31
0.0
  0
LINE
  5
FFBBDAE469BC1077
  8
0
  6
CONTINUOUS
 62
     0
 10
42.423467482689873
 20
-24.383417012340828
 30
0.0
 11
43.348271212858847
 21
-25.007205004747451
 31
0.0
  0
LINE
  5
FFBBDAE469BC1078
  8
0
  6
CONTINUOUS
 62
     0
 10
30.485326437897271
 20
-16.331039202362071
 30
0.0
 11
31.480171524963321
 21
-17.002070686526981
 31
0.0
  0
LINE
  5
FFBBDAE469BC1079
  8
0
  6
CONTINUOUS
 62
     0
 10
18.547185393104659
 20
-8.2786613923833237
 30
0.0
 11
19.542030480170709
 21
-8.9496928765482302
 31
0.0
  0
LINE
  5
FFBBDAE469BC107A
  8
0
  6
CONTINUOUS
 62
     0
 10
35.606576778715983
 20
-2.000000000000099
 30
0.0
 11
36.346478163394799
 21
-2.4990697855894828
 31
0.0
  0
LINE
  5
FFBBDAE469BC107B
  8
0
  6
CONTINUOUS
 62
     0
 10
32.69085298163558
 20
-53.389418354268592
 30
0.0
 11
34.091223621381381
 21
-52.851866429950647
 31
0.0
  0
LINE
  5
FFBBDAE469BC107C
  8
0
  6
CONTINUOUS
 62
     0
 10
15.886405304685949
 20
-59.840041446084001
 30
0.0
 11
17.286775944431749
 21
-59.302489521766063
 31
0.0
  0
LINE
  5
FFBBDAE469BC107D
  8
0
  6
CONTINUOUS
 62
     0
 10
37.557159616215792
 20
-38.886417449146428
 30
0.0
 11
38.957530255961593
 21
-38.34886552482849
 31
0.0
  0
LINE
  5
FFBBDAE469BC107E
  8
0
  6
CONTINUOUS
 62
     0
 10
20.75271193926616
 20
-45.33704054096183
 30
0.0
 11
22.153082579011969
 21
-44.799488616643892
 31
0.0
  0
LINE
  5
FFBBDAE469BC107F
  8
0
  6
CONTINUOUS
 62
     0
 10
42.423466250796587
 20
-24.383416544024339
 30
0.0
 11
43.493253692798199
 21
-23.972763619907401
 31
0.0
  0
LINE
  5
FFBBDAE469BC1080
  8
0
  6
CONTINUOUS
 62
     0
 10
25.619018573846969
 20
-30.834039635839741
 30
0.0
 11
27.01938921359277
 21
-30.296487711521799
 31
0.0
  0
LINE
  5
FFBBDAE469BC1081
  8
0
  6
CONTINUOUS
 62
     0
 10
8.8145708968973366
 20
-37.284662727655153
 30
0.0
 11
10.21494153664314
 21
-36.747110803337208
 31
0.0
  0
LINE
  5
FFBBDAE469BC1082
  8
0
  6
CONTINUOUS
 62
     0
 10
30.485325208427309
 20
-16.331038730717879
 30
0.0
 11
31.885695848173121
 21
-15.79348680639994
 31
0.0
  0
LINE
  5
FFBBDAE469BC1083
  8
0
  6
CONTINUOUS
 62
     0
 10
13.68087753147768
 20
-22.781661822533291
 30
0.0
 11
15.08124817122348
 21
-22.244109898215349
 31
0.0
  0
LINE
  5
FFBBDAE469BC1084
  8
0
  6
CONTINUOUS
 62
     0
 10
18.547184166058059
 20
-8.2786609174109032
 30
0.0
 11
19.947554805803861
 21
-7.741108993092964
 31
0.0
  0
LINE
  5
FFBBDAE469BC1085
  8
0
  6
CONTINUOUS
 62
     0
 10
23.345288416606401
 20
-42.672601316380621
 30
0.0
 11
25.124023497746251
 21
-42.948466339756969
 31
0.0
  0
LINE
  5
FFBBDAE469BC1086
  8
0
  6
CONTINUOUS
 62
     0
 10
42.038527319278778
 20
-23.190229297874279
 30
0.0
 11
43.5696484265872
 21
-23.427691730890999
 31
0.0
  0
LINE
  5
FFBBDAE469BC1087
  8
0
  6
CONTINUOUS
 62
     0
 10
20.693706345600638
 20
-19.87984901735825
 30
0.0
 11
22.472441426740481
 21
-20.155714040734601
 31
0.0
  0
LINE
  5
FFBBDAE469BC1088
  8
0
  6
CONTINUOUS
 62
     0
 10
43.703279988418267
 20
-22.474238472698051
 30
0.0
 11
43.597949176792937
 21
-21.568818474822731
 31
0.0
  0
LINE
  5
FFBBDAE469BC1089
  8
0
  6
CONTINUOUS
 62
     0
 10
22.474094871468449
 20
-20.157821053485769
 30
0.0
 11
22.253131182139999
 21
-18.258424855591429
 31
0.0
  0
LINE
  5
FFBBDAE469BC108A
  8
0
  6
CONTINUOUS
 62
     0
 10
25.125658755147288
 20
-42.950572090726148
 30
0.0
 11
24.904695065818839
 21
-41.051175892831807
 31
0.0
  0
LINE
  5
FFBBDAE469BC108B
  8
0
  6
CONTINUOUS
 62
     0
 10
6.235683416477058
 20
-60.741920668926461
 30
0.0
 11
6.2114409548447114
 21
-60.533533310840532
 31
0.0
  0
LINE
  5
FFBBDAE469BC108C
  8
0
  6
CONTINUOUS
 62
     0
 10
42.038527374839262
 20
-23.190230001029459
 30
0.0
 11
43.596297283463443
 21
-21.566698999851781
 31
0.0
  0
LINE
  5
FFBBDAE469BC108D
  8
0
  6
CONTINUOUS
 62
     0
 10
23.34528847134921
 20
-42.67260201516175
 30
0.0
 11
24.90305837997338
 21
-41.049071013984083
 31
0.0
  0
LINE
  5
FFBBDAE469BC108E
  8
0
  6
CONTINUOUS
 62
     0
 10
6.0078672285412722
 20
-60.741920668925992
 30
0.0
 11
6.2098194764833252
 21
-60.531443028116378
 31
0.0
  0
LINE
  5
FFBBDAE469BC108F
  8
0
  6
CONTINUOUS
 62
     0
 10
20.693706402326459
 20
-19.879849714448898
 30
0.0
 11
22.251476310950629
 21
-18.256318713271231
 31
0.0
  0
LINE
  5
FFBBDAE469BC1090
  8
0
  6
CONTINUOUS
 62
     0
 10
38.976565696966311
 20
-10.084602273425499
 30
0.0
 11
38.745314459951139
 21
-8.830948575679054
 31
0.0
  0
LINE
  5
FFBBDAE469BC1091
  8
0
  6
CONTINUOUS
 62
     0
 10
41.751580620964972
 20
-25.128447079083141
 30
0.0
 11
41.5203293839498
 21
-23.874793381336691
 31
0.0
  0
LINE
  5
FFBBDAE469BC1092
  8
0
  6
CONTINUOUS
 62
     0
 10
24.631363138686961
 20
-8.8295483089866753
 30
0.0
 11
24.400111901671789
 21
-7.575894611240221
 31
0.0
  0
LINE
  5
FFBBDAE469BC1093
  8
0
  6
CONTINUOUS
 62
     0
 10
27.406378062685619
 20
-23.873393114644308
 30
0.0
 11
27.17512682567045
 21
-22.619739416897861
 31
0.0
  0
LINE
  5
FFBBDAE469BC1094
  8
0
  6
CONTINUOUS
 62
     0
 10
30.181392986684269
 20
-38.917237920301957
 30
0.0
 11
29.9501417496691
 21
-37.6635842225555
 31
0.0
  0
LINE
  5
FFBBDAE469BC1095
  8
0
  6
CONTINUOUS
 62
     0
 10
32.956407910682927
 20
-53.961082725959592
 30
0.0
 11
32.725156673667747
 21
-52.707429028213141
 31
0.0
  0
LINE
  5
FFBBDAE469BC1096
  8
0
  6
CONTINUOUS
 62
     0
 10
10.286160580408231
 20
-7.5744943445485626
 30
0.0
 11
10.05490934339306
 21
-6.3208406468021092
 31
0.0
  0
LINE
  5
FFBBDAE469BC1097
  8
0
  6
CONTINUOUS
 62
     0
 10
13.06117550440689
 20
-22.6183391502062
 30
0.0
 11
12.82992426739172
 21
-21.364685452459749
 31
0.0
  0
LINE
  5
FFBBDAE469BC1098
  8
0
  6
CONTINUOUS
 62
     0
 10
15.836190428405541
 20
-37.662183955863853
 30
0.0
 11
15.604939191390381
 21
-36.408530258117388
 31
0.0
  0
LINE
  5
FFBBDAE469BC1099
  8
0
  6
CONTINUOUS
 62
     0
 10
18.611205352404198
 20
-52.706028761521488
 30
0.0
 11
18.37995411538903
 21
-51.45237506377503
 31
0.0
  0
LINE
  5
FFBBDAE469BC109A
  8
0
  6
CONTINUOUS
 62
     0
 10
31.75935691855738
 20
-53.854254287733028
 30
0.0
 11
32.954790556267469
 21
-53.95884117903023
 31
0.0
  0
LINE
  5
FFBBDAE469BC109B
  8
0
  6
CONTINUOUS
 62
     0
 10
17.414153266036241
 20
-52.599211592166753
 30
0.0
 11
18.60958690374634
 21
-52.703798483463949
 31
0.0
  0
LINE
  5
FFBBDAE469BC109C
  8
0
  6
CONTINUOUS
 62
     0
 10
28.984330246297549
 20
-38.810411613732818
 30
0.0
 11
30.179763884007649
 21
-38.91499850503002
 31
0.0
  0
LINE
  5
FFBBDAE469BC109D
  8
0
  6
CONTINUOUS
 62
     0
 10
14.639126593776419
 20
-37.555368918166543
 30
0.0
 11
15.83456023148651
 21
-37.659955809463739
 31
0.0
  0
LINE
  5
FFBBDAE469BC109E
  8
0
  6
CONTINUOUS
 62
     0
 10
40.554507226557959
 20
-25.021611635298839
 30
0.0
 11
41.749940864268062
 21
-25.126198526596038
 31
0.0
  0
LINE
  5
FFBBDAE469BC109F
  8
0
  6
CONTINUOUS
 62
     0
 10
26.209303574036831
 20
-23.766568939732561
 30
0.0
 11
27.404737211746919
 21
-23.871155831029771
 31
0.0
  0
LINE
  5
FFBBDAE469BC10A0
  8
0
  6
CONTINUOUS
 62
     0
 10
11.86409992151569
 20
-22.51152624416628
 30
0.0
 11
13.05953355922578
 21
-22.61611313546349
 31
0.0
  0
LINE
  5
FFBBDAE469BC10A1
  8
0
  6
CONTINUOUS
 62
     0
 10
37.779480554298139
 20
-9.9777689612986276
 30
0.0
 11
38.974914192008242
 21
-10.08235585259583
 31
0.0
  0
LINE
  5
FFBBDAE469BC10A2
  8
0
  6
CONTINUOUS
 62
     0
 10
23.434276901777
 20
-8.7227262657323479
 30
0.0
 11
24.6297105394871
 21
-8.8273131570295504
 31
0.0
  0
LINE
  5
FFBBDAE469BC10A3
  8
0
  6
CONTINUOUS
 62
     0
 10
9.0890732492558701
 20
-7.4676835701660664
 30
0.0
 11
10.284506886965961
 21
-7.5722704614632681
 31
0.0
  0
LINE
  5
FFBBDAE469BC10A4
  8
0
  6
CONTINUOUS
 62
     0
 10
31.759355944488249
 20
-53.854254938210822
 30
0.0
 11
32.72353735901806
 21
-52.705188273532357
 31
0.0
  0
LINE
  5
FFBBDAE469BC10A5
  8
0
  6
CONTINUOUS
 62
     0
 10
40.554506241188477
 20
-25.02161228627569
 30
0.0
 11
41.518687655718288
 21
-23.872545621597229
 31
0.0
  0
LINE
  5
FFBBDAE469BC10A6
  8
0
  6
CONTINUOUS
 62
     0
 10
28.98432926683078
 20
-38.810412262417287
 30
0.0
 11
29.948510681360592
 21
-37.661345597738837
 31
0.0
  0
LINE
  5
FFBBDAE469BC10A7
  8
0
  6
CONTINUOUS
 62
     0
 10
17.414152292473069
 20
-52.599212238558891
 30
0.0
 11
18.378333707002881
 21
-51.450145573880427
 31
0.0
  0
LINE
  5
FFBBDAE469BC10A8
  8
0
  6
CONTINUOUS
 62
     0
 10
37.779479563531389
 20
-9.9777696104820173
 30
0.0
 11
38.7436609780612
 21
-8.8287029458035509
 31
0.0
  0
LINE
  5
FFBBDAE469BC10A9
  8
0
  6
CONTINUOUS
 62
     0
 10
26.209302589173681
 20
-23.766569586623621
 30
0.0
 11
27.173484003703489
 21
-22.61750292194515
 31
0.0
  0
LINE
  5
FFBBDAE469BC10AA
  8
0
  6
CONTINUOUS
 62
     0
 10
14.639125614815971
 20
-37.555369562765222
 30
0.0
 11
15.60330702934578
 21
-36.406302898086757
 31
0.0
  0
LINE
  5
FFBBDAE469BC10AB
  8
0
  6
CONTINUOUS
 62
     0
 10
23.434275911516082
 20
-8.7227269108304597
 30
0.0
 11
24.398457326045889
 21
-7.5736602461519933
 31
0.0
  0
LINE
  5
FFBBDAE469BC10AC
  8
0
  6
CONTINUOUS
 62
     0
 10
11.86409893715836
 20
-22.511526886972071
 30
0.0
 11
12.82828035168817
 21
-21.362460222293588
 31
0.0
  0
LINE
  5
FFBBDAE469BC10AD
  8
0
  6
CONTINUOUS
 62
     0
 10
9.0890722595016396
 20
-7.4676842111783168
 30
0.0
 11
10.053253674031451
 21
-6.3186175464998513
 31
0.0
  0
ENDBLK
  5
FFBBDAE469BC10AF
  8
0
  0
BLOCK
  8
0
  2
*U12
 70
     1
 10
0.0
 20
0.0
 30
0.0
  3
*U12
  1

  0
TEXT
  5
FFBBDAE469BC10B1
  8
0
  6
CONTINUOUS
 10
-77.388601939087351
 20
-111.5864169164447
 30
0.0
 40
2.0
  1
Notes:
  7
2_5
  0
TEXT
  5
FFBBDAE469BC10B2
  8
0
  6
CONTINUOUS
 10
-77.334082827201613
 20
-114.93680345578071
 30
0.0
 40
2.0
  1
·      
  7
2_5
  0
TEXT
  5
FFBBDAE469BC10B3
  8
0
  6
CONTINUOUS
 10
-71.546051104058137
 20
-114.93680345578071
 30
0.0
 40
2.0
  1
Check panel extends past bottom plate as specified in Architects specification (50mm min).
  7
2_5
  0
TEXT
  5
FFBBDAE469BC10B4
  8
0
  6
CONTINUOUS
 10
-77.18123495409418
 20
-118.3202262161263
 30
0.0
 40
2.0
  1
·      
  7
2_5
  0
TEXT
  5
FFBBDAE469BC10B5
  8
0
  6
CONTINUOUS
 10
-71.393203230950704
 20
-118.3202262161263
 30
0.0
 40
2.0
  1
uPVC Vent strip must remain level and secure during construction. Cut and fix uPVC vent strip between CLD
  7
2_5
  0
TEXT
  5
FFBBDAE469BC10B6
  8
0
  6
CONTINUOUS
 10
62.935208365229379
 20
-117.0675262161264
 30
0.0
 40
1.5161999999999991
  1
®
  7
2_5
  0
TEXT
  5
FFBBDAE469BC10B7
  8
0
  6
CONTINUOUS
 10
62.938311093742342
 20
-117.5729262161264
 30
0.0
 40
1.5161999999999991
  1

  7
2_5
  0
TEXT
  5
FFBBDAE469BC10B8
  8
0
  6
CONTINUOUS
 10
-71.306746550274255
 20
-121.6716829464583
 30
0.0
 40
2.0
  1
Structural Cavity Battens fixed under the panel joints.
  7
2_5
  0
TEXT
  5
FFBBDAE469BC10B9
  8
0
  6
CONTINUOUS
 10
-77.334082827201613
 20
-125.0391226917971
 30
0.0
 40
2.0
  1
·      
  7
2_5
  0
TEXT
  5
FFBBDAE469BC10BA
  8
0
  6
CONTINUOUS
 10
-71.546051104058137
 20
-125.0391226917971
 30
0.0
 40
2.0
  1
Check vent strip is free from site debris.
  7
2_5
  0
ENDBLK
  5
FFBBDAE469BC10BC
  8
0
  0
BLOCK
  8
0
  2
*U13
 70
     1
 10
0.0
 20
0.0
 30
0.0
  3
*U13
  1

  0
TEXT
  5
FFBBDAE469BC10BE
  8
DEFPOINTS
  6
CONTINUOUS
 10
-73.725059515754126
 20
-148.12602119305981
 30
0.0
 40
4.0
  1
Foundation Detail
  7
2_5
  0
ENDBLK
  5
FFBBDAE469BC10C0
  8
0
  0
BLOCK
  8
0
  2
*U14
 70
     1
 10
0.0
 20
0.0
 30
0.0
  3
*U14
  1

  0
TEXT
  5
FFBBDAE469BC10C2
  8
0
  6
CONTINUOUS
 10
-67.067152729710585
 20
-70.931851857630207
 30
0.0
 40
2.0
  1
150mm min to permanent paving or
 50
90.0
  7
2_5
  0
TEXT
  5
FFBBDAE469BC10C3
  8
0
  6
CONTINUOUS
 10
-63.725633857495929
 20
-74.007568092282312
 30
0.0
 40
2.0
  1
225mm min to unpaved ground to clause
 50
90.0
  7
2_5
  0
TEXT
  5
FFBBDAE469BC10C4
  8
0
  6
CONTINUOUS
 10
-60.358194112157143
 20
-58.295426209608372
 30
0.0
 40
2.0
  1
9.1.3 of E2/AS1
 50
90.0
  7
2_5
  0
ENDBLK
  5
FFBBDAE469BC10C6
  8
0
  0
BLOCK
  8
0
  2
*U15
 70
     1
 10
0.0
 20
0.0
 30
0.0
  3
*U15
  1

  0
TEXT
  5
FFBBDAE469BC10C8
  8
0
  6
CONTINUOUS
 10
-44.192199236774101
 20
-87.998174682604898
 30
0.0
 40
2.0
  1
G.L.
  7
2_5
  0
ENDBLK
  5
FFBBDAE469BC10CA
  8
0
  0
BLOCK
  8
0
  2
*U16
 70
     1
 10
0.0
 20
0.0
 30
0.0
  3
*U16
  1

  0
SOLID
  5
FFBBDAE469BC10CF
  8
0
  6
CONTINUOUS
 10
-13.347252463845949
 20
-23.167175800732281
 30
0.0
 11
-14.74999999999954
 21
-22.0
 31
0.0
 12
-13.044533152049191
 22
-22.64914007004829
 32
0.0
 13
-13.044533152049191
 23
-22.64914007004829
 33
0.0
  0
POLYLINE
  8
0
  5
7FFFFFFF
  66
     1
 10
0.000000
 20
0.000000
 30
0.000000
  70
     8
  0
VERTEX
  8
0
  5
80000000
 10
-13.1959
 20
-22.9082
 30
0.000000
  70
    32
  0
VERTEX
  8
0
  5
80000001
 10
-12.6917
 20
-23.2055
 30
0.000000
  70
    32
  0
VERTEX
  8
0
  5
80000002
 10
-12.1887
 20
-23.5073
 30
0.000000
  70
    32
  0
VERTEX
  8
0
  5
80000003
 10
-11.6869
 20
-23.8136
 30
0.000000
  70
    32
  0
VERTEX
  8
0
  5
80000004
 10
-11.1862
 20
-24.1242
 30
0.000000
  70
    32
  0
VERTEX
  8
0
  5
80000005
 10
-10.6867
 20
-24.4390
 30
0.000000
  70
    32
  0
VERTEX
  8
0
  5
80000006
 10
-10.1883
 20
-24.7579
 30
0.000000
  70
    32
  0
VERTEX
  8
0
  5
80000007
 10
-9.69102
 20
-25.0808
 30
0.000000
  70
    32
  0
VERTEX
  8
0
  5
80000008
 10
-9.19476
 20
-25.4076
 30
0.000000
  70
    32
  0
VERTEX
  8
0
  5
80000009
 10
-8.69952
 20
-25.7381
 30
0.000000
  70
    32
  0
VERTEX
  8
0
  5
8000000A
 10
-8.20528
 20
-26.0723
 30
0.000000
  70
    32
  0
VERTEX
  8
0
  5
8000000B
 10
-7.71199
 20
-26.4101
 30
0.000000
  70
    32
  0
VERTEX
  8
0
  5
8000000C
 10
-7.21963
 20
-26.7513
 30
0.000000
  70
    32
  0
VERTEX
  8
0
  5
8000000D
 10
-6.72818
 20
-27.0958
 30
0.000000
  70
    32
  0
VERTEX
  8
0
  5
8000000E
 10
-6.23759
 20
-27.4435
 30
0.000000
  70
    32
  0
VERTEX
  8
0
  5
8000000F
 10
-5.74785
 20
-27.7944
 30
0.000000
  70
    32
  0
VERTEX
  8
0
  5
80000010
 10
-5.25892
 20
-28.1482
 30
0.000000
  70
    32
  0
VERTEX
  8
0
  5
80000011
 10
-4.77078
 20
-28.5049
 30
0.000000
  70
    32
  0
VERTEX
  8
0
  5
80000012
 10
-4.28338
 20
-28.8644
 30
0.000000
  70
    32
  0
VERTEX
  8
0
  5
80000013
 10
-3.79671
 20
-29.2266
 30
0.000000
  70
    32
  0
VERTEX
  8
0
  5
80000014
 10
-3.31074
 20
-29.5914
 30
0.000000
  70
    32
  0
VERTEX
  8
0
  5
80000015
 10
-2.82542
 20
-29.9586
 30
0.000000
  70
    32
  0
VERTEX
  8
0
  5
80000016
 10
-2.34074
 20
-30.3281
 30
0.000000
  70
    32
  0
VERTEX
  8
0
  5
80000017
 10
-1.85667
 20
-30.6999
 30
0.000000
  70
    32
  0
VERTEX
  8
0
  5
80000018
 10
-1.37317
 20
-31.0738
 30
0.000000
  70
    32
  0
VERTEX
  8
0
  5
80000019
 10
-0.890211
 20
-31.4497
 30
0.000000
  70
    32
  0
VERTEX
  8
0
  5
8000001A
 10
-0.407770
 20
-31.8275
 30
0.000000
  70
    32
  0
VERTEX
  8
0
  5
8000001B
 10
0.0741855
 20
-32.2071
 30
0.000000
  70
    32
  0
VERTEX
  8
0
  5
8000001C
 10
0.555686
 20
-32.5883
 30
0.000000
  70
    32
  0
VERTEX
  8
0
  5
8000001D
 10
1.03676
 20
-32.9712
 30
0.000000
  70
    32
  0
VERTEX
  8
0
  5
8000001E
 10
1.51744
 20
-33.3555
 30
0.000000
  70
    32
  0
VERTEX
  8
0
  5
8000001F
 10
1.99775
 20
-33.7412
 30
0.000000
  70
    32
  0
VERTEX
  8
0
  5
80000020
 10
2.47772
 20
-34.1281
 30
0.000000
  70
    32
  0
VERTEX
  8
0
  5
80000021
 10
2.95739
 20
-34.5161
 30
0.000000
  70
    32
  0
VERTEX
  8
0
  5
80000022
 10
3.43678
 20
-34.9052
 30
0.000000
  70
    32
  0
VERTEX
  8
0
  5
80000023
 10
3.91592
 20
-35.2952
 30
0.000000
  70
    32
  0
VERTEX
  8
0
  5
80000024
 10
4.39485
 20
-35.6860
 30
0.000000
  70
    32
  0
VERTEX
  8
0
  5
80000025
 10
4.87359
 20
-36.0775
 30
0.000000
  70
    32
  0
VERTEX
  8
0
  5
80000026
 10
5.35216
 20
-36.4695
 30
0.000000
  70
    32
  0
VERTEX
  8
0
  5
80000027
 10
5.83061
 20
-36.8621
 30
0.000000
  70
    32
  0
VERTEX
  8
0
  5
80000028
 10
6.30896
 20
-37.2550
 30
0.000000
  70
    32
  0
VERTEX
  8
0
  5
80000029
 10
6.78725
 20
-37.6482
 30
0.000000
  70
    32
  0
VERTEX
  8
0
  5
8000002A
 10
7.26549
 20
-38.0415
 30
0.000000
  70
    32
  0
VERTEX
  8
0
  5
8000002B
 10
7.74372
 20
-38.4348
 30
0.000000
  70
    32
  0
VERTEX
  8
0
  5
8000002C
 10
8.22197
 20
-38.8281
 30
0.000000
  70
    32
  0
VERTEX
  8
0
  5
8000002D
 10
8.70027
 20
-39.2212
 30
0.000000
  70
    32
  0
VERTEX
  8
0
  5
8000002E
 10
9.17865
 20
-39.6140
 30
0.000000
  70
    32
  0
VERTEX
  8
0
  5
8000002F
 10
9.65714
 20
-40.0064
 30
0.000000
  70
    32
  0
VERTEX
  8
0
  5
80000030
 10
10.1358
 20
-40.3983
 30
0.000000
  70
    32
  0
VERTEX
  8
0
  5
80000031
 10
10.6146
 20
-40.7896
 30
0.000000
  70
    32
  0
VERTEX
  8
0
  5
80000032
 10
11.0936
 20
-41.1801
 30
0.000000
  70
    32
  0
VERTEX
  8
0
  5
80000033
 10
11.5728
 20
-41.5698
 30
0.000000
  70
    32
  0
VERTEX
  8
0
  5
80000034
 10
12.0523
 20
-41.9585
 30
0.000000
  70
    32
  0
VERTEX
  8
0
  5
80000035
 10
12.5320
 20
-42.3462
 30
0.000000
  70
    32
  0
VERTEX
  8
0
  5
80000036
 10
13.0121
 20
-42.7327
 30
0.000000
  70
    32
  0
VERTEX
  8
0
  5
80000037
 10
13.4925
 20
-43.1179
 30
0.000000
  70
    32
  0
VERTEX
  8
0
  5
80000038
 10
13.9733
 20
-43.5018
 30
0.000000
  70
    32
  0
VERTEX
  8
0
  5
80000039
 10
14.4546
 20
-43.8841
 30
0.000000
  70
    32
  0
VERTEX
  8
0
  5
8000003A
 10
14.9362
 20
-44.2648
 30
0.000000
  70
    32
  0
VERTEX
  8
0
  5
8000003B
 10
15.4183
 20
-44.6439
 30
0.000000
  70
    32
  0
VERTEX
  8
0
  5
8000003C
 10
15.9009
 20
-45.0210
 30
0.000000
  70
    32
  0
VERTEX
  8
0
  5
8000003D
 10
16.3841
 20
-45.3963
 30
0.000000
  70
    32
  0
VERTEX
  8
0
  5
8000003E
 10
16.8678
 20
-45.7695
 30
0.000000
  70
    32
  0
VERTEX
  8
0
  5
8000003F
 10
17.3520
 20
-46.1405
 30
0.000000
  70
    32
  0
VERTEX
  8
0
  5
80000040
 10
17.8369
 20
-46.5093
 30
0.000000
  70
    32
  0
VERTEX
  8
0
  5
80000041
 10
18.3224
 20
-46.8757
 30
0.000000
  70
    32
  0
VERTEX
  8
0
  5
80000042
 10
18.8087
 20
-47.2396
 30
0.000000
  70
    32
  0
VERTEX
  8
0
  5
80000043
 10
19.2956
 20
-47.6009
 30
0.000000
  70
    32
  0
VERTEX
  8
0
  5
80000044
 10
19.7832
 20
-47.9595
 30
0.000000
  70
    32
  0
VERTEX
  8
0
  5
80000045
 10
20.2716
 20
-48.3153
 30
0.000000
  70
    32
  0
VERTEX
  8
0
  5
80000046
 10
20.7608
 20
-48.6681
 30
0.000000
  70
    32
  0
VERTEX
  8
0
  5
80000047
 10
21.2508
 20
-49.0179
 30
0.000000
  70
    32
  0
VERTEX
  8
0
  5
80000048
 10
21.7417
 20
-49.3646
 30
0.000000
  70
    32
  0
VERTEX
  8
0
  5
80000049
 10
22.2334
 20
-49.7080
 30
0.000000
  70
    32
  0
VERTEX
  8
0
  5
8000004A
 10
22.7261
 20
-50.0481
 30
0.000000
  70
    32
  0
VERTEX
  8
0
  5
8000004B
 10
23.2197
 20
-50.3846
 30
0.000000
  70
    32
  0
VERTEX
  8
0
  5
8000004C
 10
23.7143
 20
-50.7176
 30
0.000000
  70
    32
  0
VERTEX
  8
0
  5
8000004D
 10
24.2099
 20
-51.0469
 30
0.000000
  70
    32
  0
VERTEX
  8
0
  5
8000004E
 10
24.7065
 20
-51.3724
 30
0.000000
  70
    32
  0
VERTEX
  8
0
  5
8000004F
 10
25.2041
 20
-51.6940
 30
0.000000
  70
    32
  0
VERTEX
  8
0
  5
80000050
 10
25.7029
 20
-52.0115
 30
0.000000
  70
    32
  0
VERTEX
  8
0
  5
80000051
 10
26.2028
 20
-52.3250
 30
0.000000
  70
    32
  0
VERTEX
  8
0
  5
80000052
 10
26.7038
 20
-52.6341
 30
0.000000
  70
    32
  0
VERTEX
  8
0
  5
80000053
 10
27.2060
 20
-52.9390
 30
0.000000
  70
    32
  0
VERTEX
  8
0
  5
80000054
 10
27.7094
 20
-53.2393
 30
0.000000
  70
    32
  0
VERTEX
  8
0
  5
80000055
 10
28.2140
 20
-53.5351
 30
0.000000
  70
    32
  0
VERTEX
  8
0
  5
80000056
 10
28.7200
 20
-53.8262
 30
0.000000
  70
    32
  0
VERTEX
  8
0
  5
80000057
 10
29.2272
 20
-54.1125
 30
0.000000
  70
    32
  0
VERTEX
  8
0
  5
80000058
 10
29.7357
 20
-54.3939
 30
0.000000
  70
    32
  0
VERTEX
  8
0
  5
80000059
 10
30.2456
 20
-54.6703
 30
0.000000
  70
    32
  0
VERTEX
  8
0
  5
8000005A
 10
30.7569
 20
-54.9416
 30
0.000000
  70
    32
  0
VERTEX
  8
0
  5
8000005B
 10
31.2696
 20
-55.2076
 30
0.000000
  70
    32
  0
VERTEX
  8
0
  5
8000005C
 10
31.7837
 20
-55.4684
 30
0.000000
  70
    32
  0
VERTEX
  8
0
  5
8000005D
 10
32.2994
 20
-55.7236
 30
0.000000
  70
    32
  0
VERTEX
  8
0
  5
8000005E
 10
32.8165
 20
-55.9733
 30
0.000000
  70
    32
  0
VERTEX
  8
0
  5
8000005F
 10
33.3352
 20
-56.2173
 30
0.000000
  70
    32
  0
VERTEX
  8
0
  5
80000060
 10
33.8554
 20
-56.4556
 30
0.000000
  70
    32
  0
VERTEX
  8
0
  5
80000061
 10
34.3772
 20
-56.6879
 30
0.000000
  70
    32
  0
VERTEX
  8
0
  5
80000062
 10
34.9007
 20
-56.9143
 30
0.000000
  70
    32
  0
VERTEX
  8
0
  5
80000063
 10
35.4258
 20
-57.1345
 30
0.000000
  70
    32
  0
VERTEX
  8
0
  5
80000064
 10
35.9525
 20
-57.3485
 30
0.000000
  70
    32
  0
VERTEX
  8
0
  5
80000065
 10
36.4810
 20
-57.5562
 30
0.000000
  70
    32
  0
VERTEX
  8
0
  5
80000066
 10
37.0113
 20
-57.7575
 30
0.000000
  70
    32
  0
VERTEX
  8
0
  5
80000067
 10
37.5433
 20
-57.9522
 30
0.000000
  70
    32
  0
VERTEX
  8
0
  5
80000068
 10
38.0771
 20
-58.1402
 30
0.000000
  70
    32
  0
VERTEX
  8
0
  5
80000069
 10
38.6128
 20
-58.3215
 30
0.000000
  70
    32
  0
VERTEX
  8
0
  5
8000006A
 10
39.1503
 20
-58.4959
 30
0.000000
  70
    32
  0
VERTEX
  8
0
  5
8000006B
 10
39.6897
 20
-58.6634
 30
0.000000
  70
    32
  0
VERTEX
  8
0
  5
8000006C
 10
40.2310
 20
-58.8237
 30
0.000000
  70
    32
  0
VERTEX
  8
0
  5
8000006D
 10
40.7743
 20
-58.9768
 30
0.000000
  70
    32
  0
VERTEX
  8
0
  5
8000006E
 10
41.3196
 20
-59.1226
 30
0.000000
  70
    32
  0
VERTEX
  8
0
  5
8000006F
 10
41.8668
 20
-59.2610
 30
0.000000
  70
    32
  0
VERTEX
  8
0
  5
80000070
 10
42.4161
 20
-59.3918
 30
0.000000
  70
    32
  0
VERTEX
  8
0
  5
80000071
 10
42.9675
 20
-59.5150
 30
0.000000
  70
    32
  0
VERTEX
  8
0
  5
80000072
 10
43.5210
 20
-59.6304
 30
0.000000
  70
    32
  0
VERTEX
  8
0
  5
80000073
 10
44.0766
 20
-59.7380
 30
0.000000
  70
    32
  0
VERTEX
  8
0
  5
80000074
 10
44.6344
 20
-59.8376
 30
0.000000
  70
    32
  0
VERTEX
  8
0
  5
80000075
 10
45.1943
 20
-59.9291
 30
0.000000
  70
    32
  0
VERTEX
  8
0
  5
80000076
 10
45.7565
 20
-60.0124
 30
0.000000
  70
    32
  0
VERTEX
  8
0
  5
80000077
 10
46.3209
 20
-60.0874
 30
0.000000
  70
    32
  0
VERTEX
  8
0
  5
80000078
 10
46.8876
 20
-60.1540
 30
0.000000
  70
    32
  0
VERTEX
  8
0
  5
80000079
 10
47.4566
 20
-60.2121
 30
0.000000
  70
    32
  0
VERTEX
  8
0
  5
8000007A
 10
48.0280
 20
-60.2615
 30
0.000000
  70
    32
  0
VERTEX
  8
0
  5
8000007B
 10
48.6017
 20
-60.3022
 30
0.000000
  70
    32
  0
VERTEX
  8
0
  5
8000007C
 10
49.1778
 20
-60.3341
 30
0.000000
  70
    32
  0
VERTEX
  8
0
  5
8000007D
 10
49.7564
 20
-60.3570
 30
0.000000
  70
    32
  0
VERTEX
  8
0
  5
8000007E
 10
50.3374
 20
-60.3708
 30
0.000000
  70
    32
  0
VERTEX
  8
0
  5
8000007F
 10
50.9208
 20
-60.3754
 30
0.000000
  70
    32
  0
SEQEND
  8
0
  5
80000080
  0
ENDBLK
  5
FFBBDAE469BC10D2
  8
0
  0
BLOCK
  8
0
  2
*U17
 70
     1
 10
0.0
 20
0.0
 30
0.0
  3
*U17
  1

  0
TEXT
  5
FFBBDAE469BC10D4
  8
0
  6
CONTINUOUS
 10
51.845803939083652
 20
-52.713285717452798
 30
0.0
 40
2.0
  1
James Hardie uPVC vent strip
  7
ARIAL
  0
TEXT
  5
FFBBDAE469BC10D5
  8
0
  6
CONTINUOUS
 10
51.92083804549565
 20
-56.080725462791591
 30
0.0
 40
2.0
  1
with 1000mm
  7
ARIAL
  0
TEXT
  5
FFBBDAE469BC10D6
  8
0
  6
CONTINUOUS
 10
68.536117718074109
 20
-56.080725462791591
 30
0.0
 40
2.0
  1
²
  7
ARIAL
  0
TEXT
  5
FFBBDAE469BC10D7
  8
0
  6
CONTINUOUS
 10
69.46654063758298
 20
-56.080725462791591
 30
0.0
 40
2.0
  1
 
  7
ARIAL
  0
TEXT
  5
FFBBDAE469BC10D8
  8
0
  6
CONTINUOUS
 10
71.276064447106791
 20
-56.080725462791591
 30
0.0
 40
2.0
  1
of opening per
  7
ARIAL
  0
TEXT
  5
FFBBDAE469BC10D9
  8
0
  6
CONTINUOUS
 10
51.92083804549565
 20
-59.480131238144018
 30
0.0
 40
2.0
  1
lineal metre. Fix between 
  7
ARIAL
  0
TEXT
  5
FFBBDAE469BC10DA
  8
0
  6
CONTINUOUS
 10
83.755763011389249
 20
-59.447095017134473
 30
0.0
 40
2.0
  1
CLD
  7
ARIAL
  0
TEXT
  5
FFBBDAE469BC10DB
  8
0
  6
CONTINUOUS
 10
89.342019082330594
 20
-58.194395017134468
 30
0.0
 40
1.5161999999999991
  1
®
  7
ARIAL
  0
TEXT
  5
FFBBDAE469BC10DC
  8
0
  6
CONTINUOUS
 10
89.345121810843565
 20
-58.699795017134477
 30
0.0
 40
1.5161999999999991
  1

  7
ARIAL
  0
TEXT
  5
FFBBDAE469BC10DD
  8
0
  6
CONTINUOUS
 10
51.795326449315567
 20
-62.815604953469169
 30
0.0
 40
2.0
  1
Structural Cavity Battens which
  7
ARIAL
  0
TEXT
  5
FFBBDAE469BC10DE
  8
0
  6
CONTINUOUS
 10
51.819883065959502
 20
-66.148938286802505
 30
0.0
 40
2.0
  1
are on panel joints.
  7
ARIAL
  0
TEXT
  5
FFBBDAE469BC10DF
  8
0
  6
CONTINUOUS
 10
51.716199573462909
 20
-69.51637803214129
 30
0.0
 40
2.0
  1
Keep clear of debris
  7
ARIAL
  0
ENDBLK
  5
FFBBDAE469BC10E1
  8
0
  0
BLOCK
  8
0
  2
*U18
 70
     1
 10
0.0
 20
0.0
 30
0.0
  3
*U18
  1

  0
SOLID
  5
FFBBDAE469BC10E3
  8
0
  6
CONTINUOUS
 10
-14.17723592193262
 20
-53.257097925291959
 30
0.0
 11
-15.500000000000449
 21
-52.0
 31
0.0
 12
-13.84102924767943
 22
-52.760142120227151
 32
0.0
 13
-13.84102924767943
 23
-52.760142120227151
 33
0.0
  0
POLYLINE
  8
0
  5
80000081
  66
     1
 10
0.000000
 20
0.000000
 30
0.000000
  70
     8
  0
VERTEX
  8
0
  5
80000082
 10
-14.0091
 20
-53.0086
 30
0.000000
  70
    32
  0
VERTEX
  8
0
  5
80000083
 10
-13.4987
 20
-53.3572
 30
0.000000
  70
    32
  0
VERTEX
  8
0
  5
80000084
 10
-12.9899
 20
-53.7111
 30
0.000000
  70
    32
  0
VERTEX
  8
0
  5
80000085
 10
-12.4827
 20
-54.0702
 30
0.000000
  70
    32
  0
VERTEX
  8
0
  5
80000086
 10
-11.9770
 20
-54.4344
 30
0.000000
  70
    32
  0
VERTEX
  8
0
  5
80000087
 10
-11.4729
 20
-54.8034
 30
0.000000
  70
    32
  0
VERTEX
  8
0
  5
80000088
 10
-10.9702
 20
-55.1773
 30
0.000000
  70
    32
  0
VERTEX
  8
0
  5
80000089
 10
-10.4690
 20
-55.5559
 30
0.000000
  70
    32
  0
VERTEX
  8
0
  5
8000008A
 10
-9.96911
 20
-55.9390
 30
0.000000
  70
    32
  0
VERTEX
  8
0
  5
8000008B
 10
-9.47062
 20
-56.3265
 30
0.000000
  70
    32
  0
VERTEX
  8
0
  5
8000008C
 10
-8.97344
 20
-56.7184
 30
0.000000
  70
    32
  0
VERTEX
  8
0
  5
8000008D
 10
-8.47753
 20
-57.1143
 30
0.000000
  70
    32
  0
VERTEX
  8
0
  5
8000008E
 10
-7.98286
 20
-57.5144
 30
0.000000
  70
    32
  0
VERTEX
  8
0
  5
8000008F
 10
-7.48939
 20
-57.9183
 30
0.000000
  70
    32
  0
VERTEX
  8
0
  5
80000090
 10
-6.99707
 20
-58.3260
 30
0.000000
  70
    32
  0
VERTEX
  8
0
  5
80000091
 10
-6.50587
 20
-58.7373
 30
0.000000
  70
    32
  0
VERTEX
  8
0
  5
80000092
 10
-6.01575
 20
-59.1521
 30
0.000000
  70
    32
  0
VERTEX
  8
0
  5
80000093
 10
-5.52666
 20
-59.5704
 30
0.000000
  70
    32
  0
VERTEX
  8
0
  5
80000094
 10
-5.03858
 20
-59.9919
 30
0.000000
  70
    32
  0
VERTEX
  8
0
  5
80000095
 10
-4.55145
 20
-60.4165
 30
0.000000
  70
    32
  0
VERTEX
  8
0
  5
80000096
 10
-4.06525
 20
-60.8441
 30
0.000000
  70
    32
  0
VERTEX
  8
0
  5
80000097
 10
-3.57993
 20
-61.2746
 30
0.000000
  70
    32
  0
VERTEX
  8
0
  5
80000098
 10
-3.09544
 20
-61.7079
 30
0.000000
  70
    32
  0
VERTEX
  8
0
  5
80000099
 10
-2.61176
 20
-62.1438
 30
0.000000
  70
    32
  0
VERTEX
  8
0
  5
8000009A
 10
-2.12884
 20
-62.5821
 30
0.000000
  70
    32
  0
VERTEX
  8
0
  5
8000009B
 10
-1.64665
 20
-63.0228
 30
0.000000
  70
    32
  0
VERTEX
  8
0
  5
8000009C
 10
-1.16514
 20
-63.4658
 30
0.000000
  70
    32
  0
VERTEX
  8
0
  5
8000009D
 10
-0.684268
 20
-63.9108
 30
0.000000
  70
    32
  0
VERTEX
  8
0
  5
8000009E
 10
-0.204005
 20
-64.3578
 30
0.000000
  70
    32
  0
VERTEX
  8
0
  5
8000009F
 10
0.275692
 20
-64.8067
 30
0.000000
  70
    32
  0
VERTEX
  8
0
  5
800000A0
 10
0.754864
 20
-65.2573
 30
0.000000
  70
    32
  0
VERTEX
  8
0
  5
800000A1
 10
1.23355
 20
-65.7094
 30
0.000000
  70
    32
  0
VERTEX
  8
0
  5
800000A2
 10
1.71179
 20
-66.1631
 30
0.000000
  70
    32
  0
VERTEX
  8
0
  5
800000A3
 10
2.18962
 20
-66.6180
 30
0.000000
  70
    32
  0
VERTEX
  8
0
  5
800000A4
 10
2.66708
 20
-67.0742
 30
0.000000
  70
    32
  0
VERTEX
  8
0
  5
800000A5
 10
3.14422
 20
-67.5314
 30
0.000000
  70
    32
  0
VERTEX
  8
0
  5
800000A6
 10
3.62106
 20
-67.9895
 30
0.000000
  70
    32
  0
VERTEX
  8
0
  5
800000A7
 10
4.09766
 20
-68.4485
 30
0.000000
  70
    32
  0
VERTEX
  8
0
  5
800000A8
 10
4.57404
 20
-68.9082
 30
0.000000
  70
    32
  0
VERTEX
  8
0
  5
800000A9
 10
5.05026
 20
-69.3684
 30
0.000000
  70
    32
  0
VERTEX
  8
0
  5
800000AA
 10
5.52634
 20
-69.8291
 30
0.000000
  70
    32
  0
VERTEX
  8
0
  5
800000AB
 10
6.00233
 20
-70.2900
 30
0.000000
  70
    32
  0
VERTEX
  8
0
  5
800000AC
 10
6.47827
 20
-70.7512
 30
0.000000
  70
    32
  0
VERTEX
  8
0
  5
800000AD
 10
6.95419
 20
-71.2123
 30
0.000000
  70
    32
  0
VERTEX
  8
0
  5
800000AE
 10
7.43015
 20
-71.6734
 30
0.000000
  70
    32
  0
VERTEX
  8
0
  5
800000AF
 10
7.90616
 20
-72.1343
 30
0.000000
  70
    32
  0
VERTEX
  8
0
  5
800000B0
 10
8.38229
 20
-72.5948
 30
0.000000
  70
    32
  0
VERTEX
  8
0
  5
800000B1
 10
8.85855
 20
-73.0549
 30
0.000000
  70
    32
  0
VERTEX
  8
0
  5
800000B2
 10
9.33500
 20
-73.5143
 30
0.000000
  70
    32
  0
VERTEX
  8
0
  5
800000B3
 10
9.81168
 20
-73.9731
 30
0.000000
  70
    32
  0
VERTEX
  8
0
  5
800000B4
 10
10.2886
 20
-74.4309
 30
0.000000
  70
    32
  0
VERTEX
  8
0
  5
800000B5
 10
10.7659
 20
-74.8878
 30
0.000000
  70
    32
  0
VERTEX
  8
0
  5
800000B6
 10
11.2434
 20
-75.3436
 30
0.000000
  70
    32
  0
VERTEX
  8
0
  5
800000B7
 10
11.7214
 20
-75.7981
 30
0.000000
  70
    32
  0
VERTEX
  8
0
  5
800000B8
 10
12.1998
 20
-76.2513
 30
0.000000
  70
    32
  0
VERTEX
  8
0
  5
800000B9
 10
12.6786
 20
-76.7029
 30
0.000000
  70
    32
  0
VERTEX
  8
0
  5
800000BA
 10
13.1580
 20
-77.1529
 30
0.000000
  70
    32
  0
VERTEX
  8
0
  5
800000BB
 10
13.6378
 20
-77.6012
 30
0.000000
  70
    32
  0
VERTEX
  8
0
  5
800000BC
 10
14.1183
 20
-78.0476
 30
0.000000
  70
    32
  0
VERTEX
  8
0
  5
800000BD
 10
14.5994
 20
-78.4919
 30
0.000000
  70
    32
  0
VERTEX
  8
0
  5
800000BE
 10
15.0811
 20
-78.9341
 30
0.000000
  70
    32
  0
VERTEX
  8
0
  5
800000BF
 10
15.5636
 20
-79.3741
 30
0.000000
  70
    32
  0
VERTEX
  8
0
  5
800000C0
 10
16.0467
 20
-79.8116
 30
0.000000
  70
    32
  0
VERTEX
  8
0
  5
800000C1
 10
16.5307
 20
-80.2466
 30
0.000000
  70
    32
  0
VERTEX
  8
0
  5
800000C2
 10
17.0154
 20
-80.6790
 30
0.000000
  70
    32
  0
VERTEX
  8
0
  5
800000C3
 10
17.5010
 20
-81.1085
 30
0.000000
  70
    32
  0
VERTEX
  8
0
  5
800000C4
 10
17.9875
 20
-81.5352
 30
0.000000
  70
    32
  0
VERTEX
  8
0
  5
800000C5
 10
18.4750
 20
-81.9588
 30
0.000000
  70
    32
  0
VERTEX
  8
0
  5
800000C6
 10
18.9634
 20
-82.3792
 30
0.000000
  70
    32
  0
VERTEX
  8
0
  5
800000C7
 10
19.4528
 20
-82.7963
 30
0.000000
  70
    32
  0
VERTEX
  8
0
  5
800000C8
 10
19.9433
 20
-83.2100
 30
0.000000
  70
    32
  0
VERTEX
  8
0
  5
800000C9
 10
20.4349
 20
-83.6201
 30
0.000000
  70
    32
  0
VERTEX
  8
0
  5
800000CA
 10
20.9276
 20
-84.0266
 30
0.000000
  70
    32
  0
VERTEX
  8
0
  5
800000CB
 10
21.4214
 20
-84.4292
 30
0.000000
  70
    32
  0
VERTEX
  8
0
  5
800000CC
 10
21.9165
 20
-84.8279
 30
0.000000
  70
    32
  0
VERTEX
  8
0
  5
800000CD
 10
22.4128
 20
-85.2225
 30
0.000000
  70
    32
  0
VERTEX
  8
0
  5
800000CE
 10
22.9105
 20
-85.6129
 30
0.000000
  70
    32
  0
VERTEX
  8
0
  5
800000CF
 10
23.4094
 20
-85.9990
 30
0.000000
  70
    32
  0
VERTEX
  8
0
  5
800000D0
 10
23.9097
 20
-86.3806
 30
0.000000
  70
    32
  0
VERTEX
  8
0
  5
800000D1
 10
24.4114
 20
-86.7576
 30
0.000000
  70
    32
  0
VERTEX
  8
0
  5
800000D2
 10
24.9146
 20
-87.1299
 30
0.000000
  70
    32
  0
VERTEX
  8
0
  5
800000D3
 10
25.4192
 20
-87.4974
 30
0.000000
  70
    32
  0
VERTEX
  8
0
  5
800000D4
 10
25.9254
 20
-87.8599
 30
0.000000
  70
    32
  0
VERTEX
  8
0
  5
800000D5
 10
26.4331
 20
-88.2172
 30
0.000000
  70
    32
  0
VERTEX
  8
0
  5
800000D6
 10
26.9425
 20
-88.5694
 30
0.000000
  70
    32
  0
VERTEX
  8
0
  5
800000D7
 10
27.4535
 20
-88.9162
 30
0.000000
  70
    32
  0
VERTEX
  8
0
  5
800000D8
 10
27.9661
 20
-89.2575
 30
0.000000
  70
    32
  0
VERTEX
  8
0
  5
800000D9
 10
28.4805
 20
-89.5931
 30
0.000000
  70
    32
  0
VERTEX
  8
0
  5
800000DA
 10
28.9967
 20
-89.9231
 30
0.000000
  70
    32
  0
VERTEX
  8
0
  5
800000DB
 10
29.5146
 20
-90.2471
 30
0.000000
  70
    32
  0
VERTEX
  8
0
  5
800000DC
 10
30.0344
 20
-90.5652
 30
0.000000
  70
    32
  0
VERTEX
  8
0
  5
800000DD
 10
30.5561
 20
-90.8771
 30
0.000000
  70
    32
  0
VERTEX
  8
0
  5
800000DE
 10
31.0797
 20
-91.1827
 30
0.000000
  70
    32
  0
VERTEX
  8
0
  5
800000DF
 10
31.6052
 20
-91.4820
 30
0.000000
  70
    32
  0
VERTEX
  8
0
  5
800000E0
 10
32.1328
 20
-91.7747
 30
0.000000
  70
    32
  0
VERTEX
  8
0
  5
800000E1
 10
32.6624
 20
-92.0608
 30
0.000000
  70
    32
  0
VERTEX
  8
0
  5
800000E2
 10
33.1940
 20
-92.3402
 30
0.000000
  70
    32
  0
VERTEX
  8
0
  5
800000E3
 10
33.7278
 20
-92.6126
 30
0.000000
  70
    32
  0
VERTEX
  8
0
  5
800000E4
 10
34.2637
 20
-92.8779
 30
0.000000
  70
    32
  0
VERTEX
  8
0
  5
800000E5
 10
34.8019
 20
-93.1362
 30
0.000000
  70
    32
  0
VERTEX
  8
0
  5
800000E6
 10
35.3422
 20
-93.3871
 30
0.000000
  70
    32
  0
VERTEX
  8
0
  5
800000E7
 10
35.8849
 20
-93.6306
 30
0.000000
  70
    32
  0
VERTEX
  8
0
  5
800000E8
 10
36.4298
 20
-93.8666
 30
0.000000
  70
    32
  0
VERTEX
  8
0
  5
800000E9
 10
36.9771
 20
-94.0948
 30
0.000000
  70
    32
  0
VERTEX
  8
0
  5
800000EA
 10
37.5268
 20
-94.3153
 30
0.000000
  70
    32
  0
VERTEX
  8
0
  5
800000EB
 10
38.0789
 20
-94.5278
 30
0.000000
  70
    32
  0
VERTEX
  8
0
  5
800000EC
 10
38.6335
 20
-94.7323
 30
0.000000
  70
    32
  0
VERTEX
  8
0
  5
800000ED
 10
39.1906
 20
-94.9286
 30
0.000000
  70
    32
  0
VERTEX
  8
0
  5
800000EE
 10
39.7503
 20
-95.1166
 30
0.000000
  70
    32
  0
VERTEX
  8
0
  5
800000EF
 10
40.3126
 20
-95.2961
 30
0.000000
  70
    32
  0
VERTEX
  8
0
  5
800000F0
 10
40.8774
 20
-95.4670
 30
0.000000
  70
    32
  0
VERTEX
  8
0
  5
800000F1
 10
41.4450
 20
-95.6293
 30
0.000000
  70
    32
  0
VERTEX
  8
0
  5
800000F2
 10
42.0152
 20
-95.7826
 30
0.000000
  70
    32
  0
VERTEX
  8
0
  5
800000F3
 10
42.5882
 20
-95.9271
 30
0.000000
  70
    32
  0
VERTEX
  8
0
  5
800000F4
 10
43.1640
 20
-96.0624
 30
0.000000
  70
    32
  0
VERTEX
  8
0
  5
800000F5
 10
43.7426
 20
-96.1885
 30
0.000000
  70
    32
  0
VERTEX
  8
0
  5
800000F6
 10
44.3241
 20
-96.3053
 30
0.000000
  70
    32
  0
VERTEX
  8
0
  5
800000F7
 10
44.9085
 20
-96.4126
 30
0.000000
  70
    32
  0
VERTEX
  8
0
  5
800000F8
 10
45.4958
 20
-96.5103
 30
0.000000
  70
    32
  0
VERTEX
  8
0
  5
800000F9
 10
46.0862
 20
-96.5982
 30
0.000000
  70
    32
  0
VERTEX
  8
0
  5
800000FA
 10
46.6795
 20
-96.6763
 30
0.000000
  70
    32
  0
VERTEX
  8
0
  5
800000FB
 10
47.2759
 20
-96.7444
 30
0.000000
  70
    32
  0
VERTEX
  8
0
  5
800000FC
 10
47.8754
 20
-96.8024
 30
0.000000
  70
    32
  0
VERTEX
  8
0
  5
800000FD
 10
48.4780
 20
-96.8501
 30
0.000000
  70
    32
  0
VERTEX
  8
0
  5
800000FE
 10
49.0839
 20
-96.8874
 30
0.000000
  70
    32
  0
VERTEX
  8
0
  5
800000FF
 10
49.6929
 20
-96.9142
 30
0.000000
  70
    32
  0
VERTEX
  8
0
  5
80000100
 10
50.3052
 20
-96.9304
 30
0.000000
  70
    32
  0
VERTEX
  8
0
  5
80000101
 10
50.9208
 20
-96.9358
 30
0.000000
  70
    32
  0
SEQEND
  8
0
  5
80000102
  0
ENDBLK
  5
FFBBDAE469BC10E6
  8
0
  0
BLOCK
  8
0
  2
*U19
 70
     1
 10
0.0
 20
0.0
 30
0.0
  3
*U19
  1

  0
TEXT
  5
FFBBDAE469BC10E8
  8
0
  6
CONTINUOUS
 10
51.716199573462909
 20
-96.007147156540455
 30
0.0
 40
2.0
  1
Bottom edge of 
  7
ARIAL
  0
TEXT
  5
FFBBDAE469BC10E9
  8
0
  6
CONTINUOUS
 10
71.441984020939046
 20
-95.974110935530888
 30
0.0
 40
2.0
  1
CLD
  7
ARIAL
  0
TEXT
  5
FFBBDAE469BC10EA
  8
0
  6
CONTINUOUS
 10
77.028240091880392
 20
-94.721410935530912
 30
0.0
 40
1.5161999999999991
  1
®
  7
ARIAL
  0
TEXT
  5
FFBBDAE469BC10EB
  8
0
  6
CONTINUOUS
 10
77.031342820393348
 20
-95.226810935530906
 30
0.0
 40
1.5161999999999991
  1

  7
ARIAL
  0
TEXT
  5
FFBBDAE469BC10EC
  8
0
  6
CONTINUOUS
 10
78.693371060502486
 20
-96.007147156540455
 30
0.0
 40
2.0
  1
 Structural
  7
ARIAL
  0
TEXT
  5
FFBBDAE469BC10ED
  8
0
  6
CONTINUOUS
 10
51.781683884513392
 20
-99.342620871865606
 30
0.0
 40
2.0
  1
Cavity Batten at panel joint
  7
ARIAL
  0
ENDBLK
  5
FFBBDAE469BC10EF
  8
0
  0
BLOCK
  8
0
  2
*U20
 70
     1
 10
0.0
 20
0.0
 30
0.0
  3
*U20
  1

  0
SOLID
  5
FFBBDAE469BC10F1
  8
0
  6
CONTINUOUS
 10
3.209049078689683
 20
-20.755684636272431
 30
0.0
 11
1.571193275041878
 21
-19.951055301449738
 31
0.0
 12
3.3814771978944571
 22
-20.180994681855701
 32
0.0
 13
3.3814771978944571
 23
-20.180994681855701
 33
0.0
  0
POLYLINE
  8
0
  5
80000103
  66
     1
 10
0.000000
 20
0.000000
 30
0.000000
  70
     8
  0
VERTEX
  8
0
  5
80000104
 10
3.29526
 20
-20.4683
 30
0.000000
  70
    32
  0
VERTEX
  8
0
  5
80000105
 10
3.67014
 20
-20.5817
 30
0.000000
  70
    32
  0
VERTEX
  8
0
  5
80000106
 10
4.04476
 20
-20.6969
 30
0.000000
  70
    32
  0
VERTEX
  8
0
  5
80000107
 10
4.41913
 20
-20.8137
 30
0.000000
  70
    32
  0
VERTEX
  8
0
  5
80000108
 10
4.79327
 20
-20.9321
 30
0.000000
  70
    32
  0
VERTEX
  8
0
  5
80000109
 10
5.16716
 20
-21.0522
 30
0.000000
  70
    32
  0
VERTEX
  8
0
  5
8000010A
 10
5.54083
 20
-21.1738
 30
0.000000
  70
    32
  0
VERTEX
  8
0
  5
8000010B
 10
5.91427
 20
-21.2970
 30
0.000000
  70
    32
  0
VERTEX
  8
0
  5
8000010C
 10
6.28750
 20
-21.4216
 30
0.000000
  70
    32
  0
VERTEX
  8
0
  5
8000010D
 10
6.66052
 20
-21.5477
 30
0.000000
  70
    32
  0
VERTEX
  8
0
  5
8000010E
 10
7.03333
 20
-21.6751
 30
0.000000
  70
    32
  0
VERTEX
  8
0
  5
8000010F
 10
7.40594
 20
-21.8039
 30
0.000000
  70
    32
  0
VERTEX
  8
0
  5
80000110
 10
7.77836
 20
-21.9340
 30
0.000000
  70
    32
  0
VERTEX
  8
0
  5
80000111
 10
8.15059
 20
-22.0654
 30
0.000000
  70
    32
  0
VERTEX
  8
0
  5
80000112
 10
8.52265
 20
-22.1981
 30
0.000000
  70
    32
  0
VERTEX
  8
0
  5
80000113
 10
8.89453
 20
-22.3319
 30
0.000000
  70
    32
  0
VERTEX
  8
0
  5
80000114
 10
9.26624
 20
-22.4668
 30
0.000000
  70
    32
  0
VERTEX
  8
0
  5
80000115
 10
9.63779
 20
-22.6029
 30
0.000000
  70
    32
  0
VERTEX
  8
0
  5
80000116
 10
10.0092
 20
-22.7400
 30
0.000000
  70
    32
  0
VERTEX
  8
0
  5
80000117
 10
10.3804
 20
-22.8781
 30
0.000000
  70
    32
  0
VERTEX
  8
0
  5
80000118
 10
10.7515
 20
-23.0172
 30
0.000000
  70
    32
  0
VERTEX
  8
0
  5
80000119
 10
11.1225
 20
-23.1573
 30
0.000000
  70
    32
  0
VERTEX
  8
0
  5
8000011A
 10
11.4933
 20
-23.2982
 30
0.000000
  70
    32
  0
VERTEX
  8
0
  5
8000011B
 10
11.8640
 20
-23.4400
 30
0.000000
  70
    32
  0
VERTEX
  8
0
  5
8000011C
 10
12.2346
 20
-23.5826
 30
0.000000
  70
    32
  0
VERTEX
  8
0
  5
8000011D
 10
12.6051
 20
-23.7259
 30
0.000000
  70
    32
  0
VERTEX
  8
0
  5
8000011E
 10
12.9755
 20
-23.8700
 30
0.000000
  70
    32
  0
VERTEX
  8
0
  5
8000011F
 10
13.3457
 20
-24.0148
 30
0.000000
  70
    32
  0
VERTEX
  8
0
  5
80000120
 10
13.7159
 20
-24.1602
 30
0.000000
  70
    32
  0
VERTEX
  8
0
  5
80000121
 10
14.0860
 20
-24.3062
 30
0.000000
  70
    32
  0
VERTEX
  8
0
  5
80000122
 10
14.4560
 20
-24.4528
 30
0.000000
  70
    32
  0
VERTEX
  8
0
  5
80000123
 10
14.8259
 20
-24.5999
 30
0.000000
  70
    32
  0
VERTEX
  8
0
  5
80000124
 10
15.1958
 20
-24.7474
 30
0.000000
  70
    32
  0
VERTEX
  8
0
  5
80000125
 10
15.5656
 20
-24.8954
 30
0.000000
  70
    32
  0
VERTEX
  8
0
  5
80000126
 10
15.9353
 20
-25.0438
 30
0.000000
  70
    32
  0
VERTEX
  8
0
  5
80000127
 10
16.3050
 20
-25.1926
 30
0.000000
  70
    32
  0
VERTEX
  8
0
  5
80000128
 10
16.6747
 20
-25.3416
 30
0.000000
  70
    32
  0
VERTEX
  8
0
  5
80000129
 10
17.0443
 20
-25.4909
 30
0.000000
  70
    32
  0
VERTEX
  8
0
  5
8000012A
 10
17.4138
 20
-25.6404
 30
0.000000
  70
    32
  0
VERTEX
  8
0
  5
8000012B
 10
17.7834
 20
-25.7901
 30
0.000000
  70
    32
  0
VERTEX
  8
0
  5
8000012C
 10
18.1529
 20
-25.9400
 30
0.000000
  70
    32
  0
VERTEX
  8
0
  5
8000012D
 10
18.5224
 20
-26.0899
 30
0.000000
  70
    32
  0
VERTEX
  8
0
  5
8000012E
 10
18.8919
 20
-26.2400
 30
0.000000
  70
    32
  0
VERTEX
  8
0
  5
8000012F
 10
19.2614
 20
-26.3900
 30
0.000000
  70
    32
  0
VERTEX
  8
0
  5
80000130
 10
19.6309
 20
-26.5400
 30
0.000000
  70
    32
  0
VERTEX
  8
0
  5
80000131
 10
20.0004
 20
-26.6899
 30
0.000000
  70
    32
  0
VERTEX
  8
0
  5
80000132
 10
20.3700
 20
-26.8397
 30
0.000000
  70
    32
  0
VERTEX
  8
0
  5
80000133
 10
20.7395
 20
-26.9893
 30
0.000000
  70
    32
  0
VERTEX
  8
0
  5
80000134
 10
21.1091
 20
-27.1388
 30
0.000000
  70
    32
  0
VERTEX
  8
0
  5
80000135
 10
21.4787
 20
-27.2880
 30
0.000000
  70
    32
  0
VERTEX
  8
0
  5
80000136
 10
21.8484
 20
-27.4370
 30
0.000000
  70
    32
  0
VERTEX
  8
0
  5
80000137
 10
22.2181
 20
-27.5856
 30
0.000000
  70
    32
  0
VERTEX
  8
0
  5
80000138
 10
22.5878
 20
-27.7339
 30
0.000000
  70
    32
  0
VERTEX
  8
0
  5
80000139
 10
22.9577
 20
-27.8817
 30
0.000000
  70
    32
  0
VERTEX
  8
0
  5
8000013A
 10
23.3275
 20
-28.0291
 30
0.000000
  70
    32
  0
VERTEX
  8
0
  5
8000013B
 10
23.6975
 20
-28.1760
 30
0.000000
  70
    32
  0
VERTEX
  8
0
  5
8000013C
 10
24.0675
 20
-28.3224
 30
0.000000
  70
    32
  0
VERTEX
  8
0
  5
8000013D
 10
24.4376
 20
-28.4682
 30
0.000000
  70
    32
  0
VERTEX
  8
0
  5
8000013E
 10
24.8078
 20
-28.6134
 30
0.000000
  70
    32
  0
VERTEX
  8
0
  5
8000013F
 10
25.1781
 20
-28.7580
 30
0.000000
  70
    32
  0
VERTEX
  8
0
  5
80000140
 10
25.5486
 20
-28.9018
 30
0.000000
  70
    32
  0
VERTEX
  8
0
  5
80000141
 10
25.9191
 20
-29.0450
 30
0.000000
  70
    32
  0
VERTEX
  8
0
  5
80000142
 10
26.2897
 20
-29.1873
 30
0.000000
  70
    32
  0
VERTEX
  8
0
  5
80000143
 10
26.6604
 20
-29.3288
 30
0.000000
  70
    32
  0
VERTEX
  8
0
  5
80000144
 10
27.0313
 20
-29.4694
 30
0.000000
  70
    32
  0
VERTEX
  8
0
  5
80000145
 10
27.4023
 20
-29.6092
 30
0.000000
  70
    32
  0
VERTEX
  8
0
  5
80000146
 10
27.7735
 20
-29.7480
 30
0.000000
  70
    32
  0
VERTEX
  8
0
  5
80000147
 10
28.1448
 20
-29.8858
 30
0.000000
  70
    32
  0
VERTEX
  8
0
  5
80000148
 10
28.5162
 20
-30.0225
 30
0.000000
  70
    32
  0
VERTEX
  8
0
  5
80000149
 10
28.8878
 20
-30.1582
 30
0.000000
  70
    32
  0
VERTEX
  8
0
  5
8000014A
 10
29.2596
 20
-30.2928
 30
0.000000
  70
    32
  0
VERTEX
  8
0
  5
8000014B
 10
29.6315
 20
-30.4262
 30
0.000000
  70
    32
  0
VERTEX
  8
0
  5
8000014C
 10
30.0036
 20
-30.5584
 30
0.000000
  70
    32
  0
VERTEX
  8
0
  5
8000014D
 10
30.3759
 20
-30.6894
 30
0.000000
  70
    32
  0
VERTEX
  8
0
  5
8000014E
 10
30.7484
 20
-30.8191
 30
0.000000
  70
    32
  0
VERTEX
  8
0
  5
8000014F
 10
31.1211
 20
-30.9474
 30
0.000000
  70
    32
  0
VERTEX
  8
0
  5
80000150
 10
31.4940
 20
-31.0744
 30
0.000000
  70
    32
  0
VERTEX
  8
0
  5
80000151
 10
31.8671
 20
-31.2000
 30
0.000000
  70
    32
  0
VERTEX
  8
0
  5
80000152
 10
32.2404
 20
-31.3242
 30
0.000000
  70
    32
  0
VERTEX
  8
0
  5
80000153
 10
32.6139
 20
-31.4468
 30
0.000000
  70
    32
  0
VERTEX
  8
0
  5
80000154
 10
32.9876
 20
-31.5679
 30
0.000000
  70
    32
  0
VERTEX
  8
0
  5
80000155
 10
33.3616
 20
-31.6875
 30
0.000000
  70
    32
  0
VERTEX
  8
0
  5
80000156
 10
33.7358
 20
-31.8054
 30
0.000000
  70
    32
  0
VERTEX
  8
0
  5
80000157
 10
34.1103
 20
-31.9216
 30
0.000000
  70
    32
  0
VERTEX
  8
0
  5
80000158
 10
34.4850
 20
-32.0362
 30
0.000000
  70
    32
  0
VERTEX
  8
0
  5
80000159
 10
34.8599
 20
-32.1490
 30
0.000000
  70
    32
  0
VERTEX
  8
0
  5
8000015A
 10
35.2351
 20
-32.2600
 30
0.000000
  70
    32
  0
VERTEX
  8
0
  5
8000015B
 10
35.6106
 20
-32.3692
 30
0.000000
  70
    32
  0
VERTEX
  8
0
  5
8000015C
 10
35.9864
 20
-32.4765
 30
0.000000
  70
    32
  0
VERTEX
  8
0
  5
8000015D
 10
36.3625
 20
-32.5819
 30
0.000000
  70
    32
  0
VERTEX
  8
0
  5
8000015E
 10
36.7388
 20
-32.6854
 30
0.000000
  70
    32
  0
VERTEX
  8
0
  5
8000015F
 10
37.1154
 20
-32.7869
 30
0.000000
  70
    32
  0
VERTEX
  8
0
  5
80000160
 10
37.4923
 20
-32.8863
 30
0.000000
  70
    32
  0
VERTEX
  8
0
  5
80000161
 10
37.8696
 20
-32.9836
 30
0.000000
  70
    32
  0
VERTEX
  8
0
  5
80000162
 10
38.2471
 20
-33.0789
 30
0.000000
  70
    32
  0
VERTEX
  8
0
  5
80000163
 10
38.6250
 20
-33.1719
 30
0.000000
  70
    32
  0
VERTEX
  8
0
  5
80000164
 10
39.0032
 20
-33.2628
 30
0.000000
  70
    32
  0
VERTEX
  8
0
  5
80000165
 10
39.3817
 20
-33.3514
 30
0.000000
  70
    32
  0
VERTEX
  8
0
  5
80000166
 10
39.7605
 20
-33.4377
 30
0.000000
  70
    32
  0
VERTEX
  8
0
  5
80000167
 10
40.1397
 20
-33.5217
 30
0.000000
  70
    32
  0
VERTEX
  8
0
  5
80000168
 10
40.5192
 20
-33.6034
 30
0.000000
  70
    32
  0
VERTEX
  8
0
  5
80000169
 10
40.8991
 20
-33.6826
 30
0.000000
  70
    32
  0
VERTEX
  8
0
  5
8000016A
 10
41.2794
 20
-33.7593
 30
0.000000
  70
    32
  0
VERTEX
  8
0
  5
8000016B
 10
41.6600
 20
-33.8336
 30
0.000000
  70
    32
  0
VERTEX
  8
0
  5
8000016C
 10
42.0410
 20
-33.9053
 30
0.000000
  70
    32
  0
VERTEX
  8
0
  5
8000016D
 10
42.4224
 20
-33.9744
 30
0.000000
  70
    32
  0
VERTEX
  8
0
  5
8000016E
 10
42.8041
 20
-34.0410
 30
0.000000
  70
    32
  0
VERTEX
  8
0
  5
8000016F
 10
43.1863
 20
-34.1048
 30
0.000000
  70
    32
  0
VERTEX
  8
0
  5
80000170
 10
43.5688
 20
-34.1660
 30
0.000000
  70
    32
  0
VERTEX
  8
0
  5
80000171
 10
43.9518
 20
-34.2244
 30
0.000000
  70
    32
  0
VERTEX
  8
0
  5
80000172
 10
44.3351
 20
-34.2800
 30
0.000000
  70
    32
  0
VERTEX
  8
0
  5
80000173
 10
44.7189
 20
-34.3327
 30
0.000000
  70
    32
  0
VERTEX
  8
0
  5
80000174
 10
45.1031
 20
-34.3826
 30
0.000000
  70
    32
  0
VERTEX
  8
0
  5
80000175
 10
45.4877
 20
-34.4296
 30
0.000000
  70
    32
  0
VERTEX
  8
0
  5
80000176
 10
45.8728
 20
-34.4736
 30
0.000000
  70
    32
  0
VERTEX
  8
0
  5
80000177
 10
46.2583
 20
-34.5147
 30
0.000000
  70
    32
  0
VERTEX
  8
0
  5
80000178
 10
46.6442
 20
-34.5526
 30
0.000000
  70
    32
  0
VERTEX
  8
0
  5
80000179
 10
47.0306
 20
-34.5876
 30
0.000000
  70
    32
  0
VERTEX
  8
0
  5
8000017A
 10
47.4175
 20
-34.6193
 30
0.000000
  70
    32
  0
VERTEX
  8
0
  5
8000017B
 10
47.8048
 20
-34.6479
 30
0.000000
  70
    32
  0
VERTEX
  8
0
  5
8000017C
 10
48.1926
 20
-34.6733
 30
0.000000
  70
    32
  0
VERTEX
  8
0
  5
8000017D
 10
48.5809
 20
-34.6955
 30
0.000000
  70
    32
  0
VERTEX
  8
0
  5
8000017E
 10
48.9696
 20
-34.7143
 30
0.000000
  70
    32
  0
VERTEX
  8
0
  5
8000017F
 10
49.3589
 20
-34.7299
 30
0.000000
  70
    32
  0
VERTEX
  8
0
  5
80000180
 10
49.7486
 20
-34.7420
 30
0.000000
  70
    32
  0
VERTEX
  8
0
  5
80000181
 10
50.1388
 20
-34.7507
 30
0.000000
  70
    32
  0
VERTEX
  8
0
  5
80000182
 10
50.5296
 20
-34.7560
 30
0.000000
  70
    32
  0
VERTEX
  8
0
  5
80000183
 10
50.9208
 20
-34.7578
 30
0.000000
  70
    32
  0
SEQEND
  8
0
  5
80000184
  0
ENDBLK
  5
FFBBDAE469BC10F4
  8
0
  0
BLOCK
  8
0
  2
*U21
 70
     1
 10
0.0
 20
0.0
 30
0.0
  3
*U21
  1

  0
TEXT
  5
FFBBDAE469BC10F6
  8
0
  6
CONTINUOUS
 10
51.815790296518848
 20
-35.480819384934833
 30
0.0
 40
2.0
  1
6mm framing overhang
  7
ARIAL
  0
ENDBLK
  5
FFBBDAE469BC10F8
  8
0
  0
BLOCK
  8
0
  2
*U22
 70
     1
 10
0.0
 20
0.0
 30
0.0
  3
*U22
  1

  0
SOLID
  5
FFBBDAE469BC10FA
  8
0
  6
CONTINUOUS
 10
35.433418986230819
 20
-15.327526492660541
 30
0.0
 11
34.25181711416144
 21
-13.936908998191941
 31
0.0
 12
35.82055969405473
 22
-14.869135750666761
 32
0.0
 13
35.82055969405473
 23
-14.869135750666761
 33
0.0
  0
POLYLINE
  8
0
  5
80000185
  66
     1
 10
0.000000
 20
0.000000
 30
0.000000
  70
     8
  0
VERTEX
  8
0
  5
80000186
 10
35.6270
 20
-15.0983
 30
0.000000
  70
    32
  0
VERTEX
  8
0
  5
80000187
 10
35.7471
 20
-15.2008
 30
0.000000
  70
    32
  0
VERTEX
  8
0
  5
80000188
 10
35.8667
 20
-15.3049
 30
0.000000
  70
    32
  0
VERTEX
  8
0
  5
80000189
 10
35.9857
 20
-15.4105
 30
0.000000
  70
    32
  0
VERTEX
  8
0
  5
8000018A
 10
36.1041
 20
-15.5176
 30
0.000000
  70
    32
  0
VERTEX
  8
0
  5
8000018B
 10
36.2221
 20
-15.6261
 30
0.000000
  70
    32
  0
VERTEX
  8
0
  5
8000018C
 10
36.3395
 20
-15.7360
 30
0.000000
  70
    32
  0
VERTEX
  8
0
  5
8000018D
 10
36.4564
 20
-15.8474
 30
0.000000
  70
    32
  0
VERTEX
  8
0
  5
8000018E
 10
36.5728
 20
-15.9600
 30
0.000000
  70
    32
  0
VERTEX
  8
0
  5
8000018F
 10
36.6888
 20
-16.0740
 30
0.000000
  70
    32
  0
VERTEX
  8
0
  5
80000190
 10
36.8042
 20
-16.1892
 30
0.000000
  70
    32
  0
VERTEX
  8
0
  5
80000191
 10
36.9193
 20
-16.3056
 30
0.000000
  70
    32
  0
VERTEX
  8
0
  5
80000192
 10
37.0339
 20
-16.4232
 30
0.000000
  70
    32
  0
VERTEX
  8
0
  5
80000193
 10
37.1481
 20
-16.5420
 30
0.000000
  70
    32
  0
VERTEX
  8
0
  5
80000194
 10
37.2618
 20
-16.6619
 30
0.000000
  70
    32
  0
VERTEX
  8
0
  5
80000195
 10
37.3752
 20
-16.7828
 30
0.000000
  70
    32
  0
VERTEX
  8
0
  5
80000196
 10
37.4882
 20
-16.9048
 30
0.000000
  70
    32
  0
VERTEX
  8
0
  5
80000197
 10
37.6009
 20
-17.0278
 30
0.000000
  70
    32
  0
VERTEX
  8
0
  5
80000198
 10
37.7132
 20
-17.1517
 30
0.000000
  70
    32
  0
VERTEX
  8
0
  5
80000199
 10
37.8251
 20
-17.2766
 30
0.000000
  70
    32
  0
VERTEX
  8
0
  5
8000019A
 10
37.9367
 20
-17.4023
 30
0.000000
  70
    32
  0
VERTEX
  8
0
  5
8000019B
 10
38.0481
 20
-17.5289
 30
0.000000
  70
    32
  0
VERTEX
  8
0
  5
8000019C
 10
38.1591
 20
-17.6563
 30
0.000000
  70
    32
  0
VERTEX
  8
0
  5
8000019D
 10
38.2698
 20
-17.7845
 30
0.000000
  70
    32
  0
VERTEX
  8
0
  5
8000019E
 10
38.3803
 20
-17.9134
 30
0.000000
  70
    32
  0
VERTEX
  8
0
  5
8000019F
 10
38.4905
 20
-18.0430
 30
0.000000
  70
    32
  0
VERTEX
  8
0
  5
800001A0
 10
38.6005
 20
-18.1732
 30
0.000000
  70
    32
  0
VERTEX
  8
0
  5
800001A1
 10
38.7103
 20
-18.3041
 30
0.000000
  70
    32
  0
VERTEX
  8
0
  5
800001A2
 10
38.8198
 20
-18.4355
 30
0.000000
  70
    32
  0
VERTEX
  8
0
  5
800001A3
 10
38.9292
 20
-18.5675
 30
0.000000
  70
    32
  0
VERTEX
  8
0
  5
800001A4
 10
39.0383
 20
-18.7000
 30
0.000000
  70
    32
  0
VERTEX
  8
0
  5
800001A5
 10
39.1473
 20
-18.8330
 30
0.000000
  70
    32
  0
VERTEX
  8
0
  5
800001A6
 10
39.2562
 20
-18.9663
 30
0.000000
  70
    32
  0
VERTEX
  8
0
  5
800001A7
 10
39.3649
 20
-19.1001
 30
0.000000
  70
    32
  0
VERTEX
  8
0
  5
800001A8
 10
39.4734
 20
-19.2343
 30
0.000000
  70
    32
  0
VERTEX
  8
0
  5
800001A9
 10
39.5819
 20
-19.3687
 30
0.000000
  70
    32
  0
VERTEX
  8
0
  5
800001AA
 10
39.6902
 20
-19.5034
 30
0.000000
  70
    32
  0
VERTEX
  8
0
  5
800001AB
 10
39.7985
 20
-19.6384
 30
0.000000
  70
    32
  0
VERTEX
  8
0
  5
800001AC
 10
39.9067
 20
-19.7735
 30
0.000000
  70
    32
  0
VERTEX
  8
0
  5
800001AD
 10
40.0148
 20
-19.9089
 30
0.000000
  70
    32
  0
VERTEX
  8
0
  5
800001AE
 10
40.1229
 20
-20.0443
 30
0.000000
  70
    32
  0
VERTEX
  8
0
  5
800001AF
 10
40.2309
 20
-20.1799
 30
0.000000
  70
    32
  0
VERTEX
  8
0
  5
800001B0
 10
40.3390
 20
-20.3155
 30
0.000000
  70
    32
  0
VERTEX
  8
0
  5
800001B1
 10
40.4470
 20
-20.4511
 30
0.000000
  70
    32
  0
VERTEX
  8
0
  5
800001B2
 10
40.5550
 20
-20.5867
 30
0.000000
  70
    32
  0
VERTEX
  8
0
  5
800001B3
 10
40.6631
 20
-20.7222
 30
0.000000
  70
    32
  0
VERTEX
  8
0
  5
800001B4
 10
40.7712
 20
-20.8576
 30
0.000000
  70
    32
  0
VERTEX
  8
0
  5
800001B5
 10
40.8793
 20
-20.9929
 30
0.000000
  70
    32
  0
VERTEX
  8
0
  5
800001B6
 10
40.9875
 20
-21.1280
 30
0.000000
  70
    32
  0
VERTEX
  8
0
  5
800001B7
 10
41.0958
 20
-21.2629
 30
0.000000
  70
    32
  0
VERTEX
  8
0
  5
800001B8
 10
41.2042
 20
-21.3975
 30
0.000000
  70
    32
  0
VERTEX
  8
0
  5
800001B9
 10
41.3127
 20
-21.5318
 30
0.000000
  70
    32
  0
VERTEX
  8
0
  5
800001BA
 10
41.4213
 20
-21.6658
 30
0.000000
  70
    32
  0
VERTEX
  8
0
  5
800001BB
 10
41.5300
 20
-21.7995
 30
0.000000
  70
    32
  0
VERTEX
  8
0
  5
800001BC
 10
41.6389
 20
-21.9327
 30
0.000000
  70
    32
  0
VERTEX
  8
0
  5
800001BD
 10
41.7479
 20
-22.0656
 30
0.000000
  70
    32
  0
VERTEX
  8
0
  5
800001BE
 10
41.8572
 20
-22.1979
 30
0.000000
  70
    32
  0
VERTEX
  8
0
  5
800001BF
 10
41.9666
 20
-22.3297
 30
0.000000
  70
    32
  0
VERTEX
  8
0
  5
800001C0
 10
42.0762
 20
-22.4609
 30
0.000000
  70
    32
  0
VERTEX
  8
0
  5
800001C1
 10
42.1860
 20
-22.5916
 30
0.000000
  70
    32
  0
VERTEX
  8
0
  5
800001C2
 10
42.2961
 20
-22.7216
 30
0.000000
  70
    32
  0
VERTEX
  8
0
  5
800001C3
 10
42.4064
 20
-22.8510
 30
0.000000
  70
    32
  0
VERTEX
  8
0
  5
800001C4
 10
42.5170
 20
-22.9797
 30
0.000000
  70
    32
  0
VERTEX
  8
0
  5
800001C5
 10
42.6278
 20
-23.1076
 30
0.000000
  70
    32
  0
VERTEX
  8
0
  5
800001C6
 10
42.7389
 20
-23.2347
 30
0.000000
  70
    32
  0
VERTEX
  8
0
  5
800001C7
 10
42.8504
 20
-23.3610
 30
0.000000
  70
    32
  0
VERTEX
  8
0
  5
800001C8
 10
42.9621
 20
-23.4865
 30
0.000000
  70
    32
  0
VERTEX
  8
0
  5
800001C9
 10
43.0742
 20
-23.6110
 30
0.000000
  70
    32
  0
VERTEX
  8
0
  5
800001CA
 10
43.1866
 20
-23.7346
 30
0.000000
  70
    32
  0
VERTEX
  8
0
  5
800001CB
 10
43.2993
 20
-23.8573
 30
0.000000
  70
    32
  0
VERTEX
  8
0
  5
800001CC
 10
43.4125
 20
-23.9789
 30
0.000000
  70
    32
  0
VERTEX
  8
0
  5
800001CD
 10
43.5260
 20
-24.0995
 30
0.000000
  70
    32
  0
VERTEX
  8
0
  5
800001CE
 10
43.6399
 20
-24.2191
 30
0.000000
  70
    32
  0
VERTEX
  8
0
  5
800001CF
 10
43.7542
 20
-24.3374
 30
0.000000
  70
    32
  0
VERTEX
  8
0
  5
800001D0
 10
43.8689
 20
-24.4547
 30
0.000000
  70
    32
  0
VERTEX
  8
0
  5
800001D1
 10
43.9841
 20
-24.5707
 30
0.000000
  70
    32
  0
VERTEX
  8
0
  5
800001D2
 10
44.0998
 20
-24.6855
 30
0.000000
  70
    32
  0
VERTEX
  8
0
  5
800001D3
 10
44.2159
 20
-24.7990
 30
0.000000
  70
    32
  0
VERTEX
  8
0
  5
800001D4
 10
44.3324
 20
-24.9112
 30
0.000000
  70
    32
  0
VERTEX
  8
0
  5
800001D5
 10
44.4495
 20
-25.0221
 30
0.000000
  70
    32
  0
VERTEX
  8
0
  5
800001D6
 10
44.5671
 20
-25.1316
 30
0.000000
  70
    32
  0
VERTEX
  8
0
  5
800001D7
 10
44.6852
 20
-25.2396
 30
0.000000
  70
    32
  0
VERTEX
  8
0
  5
800001D8
 10
44.8038
 20
-25.3462
 30
0.000000
  70
    32
  0
VERTEX
  8
0
  5
800001D9
 10
44.9230
 20
-25.4513
 30
0.000000
  70
    32
  0
VERTEX
  8
0
  5
800001DA
 10
45.0428
 20
-25.5548
 30
0.000000
  70
    32
  0
VERTEX
  8
0
  5
800001DB
 10
45.1631
 20
-25.6568
 30
0.000000
  70
    32
  0
VERTEX
  8
0
  5
800001DC
 10
45.2840
 20
-25.7572
 30
0.000000
  70
    32
  0
VERTEX
  8
0
  5
800001DD
 10
45.4055
 20
-25.8559
 30
0.000000
  70
    32
  0
VERTEX
  8
0
  5
800001DE
 10
45.5277
 20
-25.9529
 30
0.000000
  70
    32
  0
VERTEX
  8
0
  5
800001DF
 10
45.6505
 20
-26.0482
 30
0.000000
  70
    32
  0
VERTEX
  8
0
  5
800001E0
 10
45.7739
 20
-26.1417
 30
0.000000
  70
    32
  0
VERTEX
  8
0
  5
800001E1
 10
45.8980
 20
-26.2334
 30
0.000000
  70
    32
  0
VERTEX
  8
0
  5
800001E2
 10
46.0227
 20
-26.3233
 30
0.000000
  70
    32
  0
VERTEX
  8
0
  5
800001E3
 10
46.1481
 20
-26.4113
 30
0.000000
  70
    32
  0
VERTEX
  8
0
  5
800001E4
 10
46.2743
 20
-26.4974
 30
0.000000
  70
    32
  0
VERTEX
  8
0
  5
800001E5
 10
46.4011
 20
-26.5815
 30
0.000000
  70
    32
  0
VERTEX
  8
0
  5
800001E6
 10
46.5287
 20
-26.6636
 30
0.000000
  70
    32
  0
VERTEX
  8
0
  5
800001E7
 10
46.6571
 20
-26.7437
 30
0.000000
  70
    32
  0
VERTEX
  8
0
  5
800001E8
 10
46.7861
 20
-26.8218
 30
0.000000
  70
    32
  0
VERTEX
  8
0
  5
800001E9
 10
46.9160
 20
-26.8977
 30
0.000000
  70
    32
  0
VERTEX
  8
0
  5
800001EA
 10
47.0466
 20
-26.9715
 30
0.000000
  70
    32
  0
VERTEX
  8
0
  5
800001EB
 10
47.1781
 20
-27.0431
 30
0.000000
  70
    32
  0
VERTEX
  8
0
  5
800001EC
 10
47.3103
 20
-27.1125
 30
0.000000
  70
    32
  0
VERTEX
  8
0
  5
800001ED
 10
47.4434
 20
-27.1796
 30
0.000000
  70
    32
  0
VERTEX
  8
0
  5
800001EE
 10
47.5773
 20
-27.2444
 30
0.000000
  70
    32
  0
VERTEX
  8
0
  5
800001EF
 10
47.7121
 20
-27.3069
 30
0.000000
  70
    32
  0
VERTEX
  8
0
  5
800001F0
 10
47.8477
 20
-27.3670
 30
0.000000
  70
    32
  0
VERTEX
  8
0
  5
800001F1
 10
47.9842
 20
-27.4248
 30
0.000000
  70
    32
  0
VERTEX
  8
0
  5
800001F2
 10
48.1216
 20
-27.4800
 30
0.000000
  70
    32
  0
VERTEX
  8
0
  5
800001F3
 10
48.2599
 20
-27.5328
 30
0.000000
  70
    32
  0
VERTEX
  8
0
  5
800001F4
 10
48.3992
 20
-27.5831
 30
0.000000
  70
    32
  0
VERTEX
  8
0
  5
800001F5
 10
48.5394
 20
-27.6308
 30
0.000000
  70
    32
  0
VERTEX
  8
0
  5
800001F6
 10
48.6805
 20
-27.6759
 30
0.000000
  70
    32
  0
VERTEX
  8
0
  5
800001F7
 10
48.8226
 20
-27.7184
 30
0.000000
  70
    32
  0
VERTEX
  8
0
  5
800001F8
 10
48.9656
 20
-27.7582
 30
0.000000
  70
    32
  0
VERTEX
  8
0
  5
800001F9
 10
49.1097
 20
-27.7952
 30
0.000000
  70
    32
  0
VERTEX
  8
0
  5
800001FA
 10
49.2548
 20
-27.8296
 30
0.000000
  70
    32
  0
VERTEX
  8
0
  5
800001FB
 10
49.4009
 20
-27.8611
 30
0.000000
  70
    32
  0
VERTEX
  8
0
  5
800001FC
 10
49.5480
 20
-27.8898
 30
0.000000
  70
    32
  0
VERTEX
  8
0
  5
800001FD
 10
49.6961
 20
-27.9157
 30
0.000000
  70
    32
  0
VERTEX
  8
0
  5
800001FE
 10
49.8454
 20
-27.9387
 30
0.000000
  70
    32
  0
VERTEX
  8
0
  5
800001FF
 10
49.9957
 20
-27.9587
 30
0.000000
  70
    32
  0
VERTEX
  8
0
  5
80000200
 10
50.1471
 20
-27.9757
 30
0.000000
  70
    32
  0
VERTEX
  8
0
  5
80000201
 10
50.2996
 20
-27.9898
 30
0.000000
  70
    32
  0
VERTEX
  8
0
  5
80000202
 10
50.4532
 20
-28.0007
 30
0.000000
  70
    32
  0
VERTEX
  8
0
  5
80000203
 10
50.6079
 20
-28.0086
 30
0.000000
  70
    32
  0
VERTEX
  8
0
  5
80000204
 10
50.7638
 20
-28.0134
 30
0.000000
  70
    32
  0
VERTEX
  8
0
  5
80000205
 10
50.9208
 20
-28.0150
 30
0.000000
  70
    32
  0
SEQEND
  8
0
  5
80000206
  0
ENDBLK
  5
FFBBDAE469BC10FD
  8
0
  0
BLOCK
  8
0
  2
*U23
 70
     1
 10
0.0
 20
0.0
 30
0.0
  3
*U23
  1

  0
TEXT
  5
FFBBDAE469BC10FF
  8
0
  6
CONTINUOUS
 10
51.855353734445181
 20
-28.754405157372432
 30
0.0
 40
2.0
  1
Top of blockwall or foundation
  7
ARIAL
  0
ENDBLK
  5
FFBBDAE469BC1101
  8
0
  0
BLOCK
  8
0
  2
*U24
 70
     1
 10
0.0
 20
0.0
 30
0.0
  3
*U24
  1

  0
SOLID
  5
FFBBDAE469BC1103
  8
0
  6
CONTINUOUS
 10
41.292876611584127
 20
-2.4917738818347752
 30
0.0
 11
40.241872003851313
 21
-1.0
 31
0.0
 12
41.719884107977407
 22
-2.070271096524956
 32
0.0
 13
41.719884107977407
 23
-2.070271096524956
 33
0.0
  0
POLYLINE
  8
0
  5
80000207
  66
     1
 10
0.000000
 20
0.000000
 30
0.000000
  70
     8
  0
VERTEX
  8
0
  5
80000208
 10
41.5064
 20
-2.28102
 30
0.000000
  70
    32
  0
VERTEX
  8
0
  5
80000209
 10
41.5803
 20
-2.35671
 30
0.000000
  70
    32
  0
VERTEX
  8
0
  5
8000020A
 10
41.6537
 20
-2.43355
 30
0.000000
  70
    32
  0
VERTEX
  8
0
  5
8000020B
 10
41.7266
 20
-2.51151
 30
0.000000
  70
    32
  0
VERTEX
  8
0
  5
8000020C
 10
41.7991
 20
-2.59058
 30
0.000000
  70
    32
  0
VERTEX
  8
0
  5
8000020D
 10
41.8711
 20
-2.67071
 30
0.000000
  70
    32
  0
VERTEX
  8
0
  5
8000020E
 10
41.9427
 20
-2.75189
 30
0.000000
  70
    32
  0
VERTEX
  8
0
  5
8000020F
 10
42.0138
 20
-2.83408
 30
0.000000
  70
    32
  0
VERTEX
  8
0
  5
80000210
 10
42.0846
 20
-2.91726
 30
0.000000
  70
    32
  0
VERTEX
  8
0
  5
80000211
 10
42.1549
 20
-3.00140
 30
0.000000
  70
    32
  0
VERTEX
  8
0
  5
80000212
 10
42.2249
 20
-3.08648
 30
0.000000
  70
    32
  0
VERTEX
  8
0
  5
80000213
 10
42.2945
 20
-3.17245
 30
0.000000
  70
    32
  0
VERTEX
  8
0
  5
80000214
 10
42.3637
 20
-3.25930
 30
0.000000
  70
    32
  0
VERTEX
  8
0
  5
80000215
 10
42.4326
 20
-3.34700
 30
0.000000
  70
    32
  0
VERTEX
  8
0
  5
80000216
 10
42.5011
 20
-3.43551
 30
0.000000
  70
    32
  0
VERTEX
  8
0
  5
80000217
 10
42.5693
 20
-3.52482
 30
0.000000
  70
    32
  0
VERTEX
  8
0
  5
80000218
 10
42.6371
 20
-3.61489
 30
0.000000
  70
    32
  0
VERTEX
  8
0
  5
80000219
 10
42.7047
 20
-3.70570
 30
0.000000
  70
    32
  0
VERTEX
  8
0
  5
8000021A
 10
42.7720
 20
-3.79721
 30
0.000000
  70
    32
  0
VERTEX
  8
0
  5
8000021B
 10
42.8390
 20
-3.88941
 30
0.000000
  70
    32
  0
VERTEX
  8
0
  5
8000021C
 10
42.9057
 20
-3.98226
 30
0.000000
  70
    32
  0
VERTEX
  8
0
  5
8000021D
 10
42.9721
 20
-4.07573
 30
0.000000
  70
    32
  0
VERTEX
  8
0
  5
8000021E
 10
43.0383
 20
-4.16979
 30
0.000000
  70
    32
  0
VERTEX
  8
0
  5
8000021F
 10
43.1043
 20
-4.26443
 30
0.000000
  70
    32
  0
VERTEX
  8
0
  5
80000220
 10
43.1700
 20
-4.35960
 30
0.000000
  70
    32
  0
VERTEX
  8
0
  5
80000221
 10
43.2355
 20
-4.45529
 30
0.000000
  70
    32
  0
VERTEX
  8
0
  5
80000222
 10
43.3009
 20
-4.55146
 30
0.000000
  70
    32
  0
VERTEX
  8
0
  5
80000223
 10
43.3660
 20
-4.64809
 30
0.000000
  70
    32
  0
VERTEX
  8
0
  5
80000224
 10
43.4309
 20
-4.74514
 30
0.000000
  70
    32
  0
VERTEX
  8
0
  5
80000225
 10
43.4957
 20
-4.84260
 30
0.000000
  70
    32
  0
VERTEX
  8
0
  5
80000226
 10
43.5604
 20
-4.94043
 30
0.000000
  70
    32
  0
VERTEX
  8
0
  5
80000227
 10
43.6248
 20
-5.03860
 30
0.000000
  70
    32
  0
VERTEX
  8
0
  5
80000228
 10
43.6892
 20
-5.13709
 30
0.000000
  70
    32
  0
VERTEX
  8
0
  5
80000229
 10
43.7534
 20
-5.23587
 30
0.000000
  70
    32
  0
VERTEX
  8
0
  5
8000022A
 10
43.8175
 20
-5.33491
 30
0.000000
  70
    32
  0
VERTEX
  8
0
  5
8000022B
 10
43.8816
 20
-5.43418
 30
0.000000
  70
    32
  0
VERTEX
  8
0
  5
8000022C
 10
43.9455
 20
-5.53366
 30
0.000000
  70
    32
  0
VERTEX
  8
0
  5
8000022D
 10
44.0094
 20
-5.63331
 30
0.000000
  70
    32
  0
VERTEX
  8
0
  5
8000022E
 10
44.0732
 20
-5.73311
 30
0.000000
  70
    32
  0
VERTEX
  8
0
  5
8000022F
 10
44.1369
 20
-5.83304
 30
0.000000
  70
    32
  0
VERTEX
  8
0
  5
80000230
 10
44.2006
 20
-5.93305
 30
0.000000
  70
    32
  0
VERTEX
  8
0
  5
80000231
 10
44.2643
 20
-6.03314
 30
0.000000
  70
    32
  0
VERTEX
  8
0
  5
80000232
 10
44.3280
 20
-6.13326
 30
0.000000
  70
    32
  0
VERTEX
  8
0
  5
80000233
 10
44.3917
 20
-6.23339
 30
0.000000
  70
    32
  0
VERTEX
  8
0
  5
80000234
 10
44.4553
 20
-6.33350
 30
0.000000
  70
    32
  0
VERTEX
  8
0
  5
80000235
 10
44.5190
 20
-6.43356
 30
0.000000
  70
    32
  0
VERTEX
  8
0
  5
80000236
 10
44.5827
 20
-6.53355
 30
0.000000
  70
    32
  0
VERTEX
  8
0
  5
80000237
 10
44.6465
 20
-6.63343
 30
0.000000
  70
    32
  0
VERTEX
  8
0
  5
80000238
 10
44.7103
 20
-6.73319
 30
0.000000
  70
    32
  0
VERTEX
  8
0
  5
80000239
 10
44.7742
 20
-6.83279
 30
0.000000
  70
    32
  0
VERTEX
  8
0
  5
8000023A
 10
44.8382
 20
-6.93220
 30
0.000000
  70
    32
  0
VERTEX
  8
0
  5
8000023B
 10
44.9022
 20
-7.03140
 30
0.000000
  70
    32
  0
VERTEX
  8
0
  5
8000023C
 10
44.9664
 20
-7.13035
 30
0.000000
  70
    32
  0
VERTEX
  8
0
  5
8000023D
 10
45.0307
 20
-7.22904
 30
0.000000
  70
    32
  0
VERTEX
  8
0
  5
8000023E
 10
45.0951
 20
-7.32743
 30
0.000000
  70
    32
  0
VERTEX
  8
0
  5
8000023F
 10
45.1596
 20
-7.42549
 30
0.000000
  70
    32
  0
VERTEX
  8
0
  5
80000240
 10
45.2243
 20
-7.52319
 30
0.000000
  70
    32
  0
VERTEX
  8
0
  5
80000241
 10
45.2891
 20
-7.62052
 30
0.000000
  70
    32
  0
VERTEX
  8
0
  5
80000242
 10
45.3541
 20
-7.71744
 30
0.000000
  70
    32
  0
VERTEX
  8
0
  5
80000243
 10
45.4193
 20
-7.81392
 30
0.000000
  70
    32
  0
VERTEX
  8
0
  5
80000244
 10
45.4847
 20
-7.90993
 30
0.000000
  70
    32
  0
VERTEX
  8
0
  5
80000245
 10
45.5503
 20
-8.00545
 30
0.000000
  70
    32
  0
VERTEX
  8
0
  5
80000246
 10
45.6161
 20
-8.10044
 30
0.000000
  70
    32
  0
VERTEX
  8
0
  5
80000247
 10
45.6821
 20
-8.19489
 30
0.000000
  70
    32
  0
VERTEX
  8
0
  5
80000248
 10
45.7484
 20
-8.28876
 30
0.000000
  70
    32
  0
VERTEX
  8
0
  5
80000249
 10
45.8150
 20
-8.38203
 30
0.000000
  70
    32
  0
VERTEX
  8
0
  5
8000024A
 10
45.8818
 20
-8.47466
 30
0.000000
  70
    32
  0
VERTEX
  8
0
  5
8000024B
 10
45.9488
 20
-8.56663
 30
0.000000
  70
    32
  0
VERTEX
  8
0
  5
8000024C
 10
46.0162
 20
-8.65792
 30
0.000000
  70
    32
  0
VERTEX
  8
0
  5
8000024D
 10
46.0839
 20
-8.74848
 30
0.000000
  70
    32
  0
VERTEX
  8
0
  5
8000024E
 10
46.1518
 20
-8.83830
 30
0.000000
  70
    32
  0
VERTEX
  8
0
  5
8000024F
 10
46.2201
 20
-8.92735
 30
0.000000
  70
    32
  0
VERTEX
  8
0
  5
80000250
 10
46.2888
 20
-9.01559
 30
0.000000
  70
    32
  0
VERTEX
  8
0
  5
80000251
 10
46.3578
 20
-9.10301
 30
0.000000
  70
    32
  0
VERTEX
  8
0
  5
80000252
 10
46.4271
 20
-9.18957
 30
0.000000
  70
    32
  0
VERTEX
  8
0
  5
80000253
 10
46.4968
 20
-9.27525
 30
0.000000
  70
    32
  0
VERTEX
  8
0
  5
80000254
 10
46.5669
 20
-9.36001
 30
0.000000
  70
    32
  0
VERTEX
  8
0
  5
80000255
 10
46.6374
 20
-9.44384
 30
0.000000
  70
    32
  0
VERTEX
  8
0
  5
80000256
 10
46.7083
 20
-9.52669
 30
0.000000
  70
    32
  0
VERTEX
  8
0
  5
80000257
 10
46.7796
 20
-9.60855
 30
0.000000
  70
    32
  0
VERTEX
  8
0
  5
80000258
 10
46.8513
 20
-9.68938
 30
0.000000
  70
    32
  0
VERTEX
  8
0
  5
80000259
 10
46.9235
 20
-9.76917
 30
0.000000
  70
    32
  0
VERTEX
  8
0
  5
8000025A
 10
46.9961
 20
-9.84787
 30
0.000000
  70
    32
  0
VERTEX
  8
0
  5
8000025B
 10
47.0692
 20
-9.92546
 30
0.000000
  70
    32
  0
VERTEX
  8
0
  5
8000025C
 10
47.1427
 20
-10.0019
 30
0.000000
  70
    32
  0
VERTEX
  8
0
  5
8000025D
 10
47.2168
 20
-10.0772
 30
0.000000
  70
    32
  0
VERTEX
  8
0
  5
8000025E
 10
47.2913
 20
-10.1513
 30
0.000000
  70
    32
  0
VERTEX
  8
0
  5
8000025F
 10
47.3664
 20
-10.2242
 30
0.000000
  70
    32
  0
VERTEX
  8
0
  5
80000260
 10
47.4420
 20
-10.2958
 30
0.000000
  70
    32
  0
VERTEX
  8
0
  5
80000261
 10
47.5181
 20
-10.3662
 30
0.000000
  70
    32
  0
VERTEX
  8
0
  5
80000262
 10
47.5947
 20
-10.4352
 30
0.000000
  70
    32
  0
VERTEX
  8
0
  5
80000263
 10
47.6719
 20
-10.5030
 30
0.000000
  70
    32
  0
VERTEX
  8
0
  5
80000264
 10
47.7497
 20
-10.5693
 30
0.000000
  70
    32
  0
VERTEX
  8
0
  5
80000265
 10
47.8281
 20
-10.6343
 30
0.000000
  70
    32
  0
VERTEX
  8
0
  5
80000266
 10
47.9070
 20
-10.6979
 30
0.000000
  70
    32
  0
VERTEX
  8
0
  5
80000267
 10
47.9866
 20
-10.7600
 30
0.000000
  70
    32
  0
VERTEX
  8
0
  5
80000268
 10
48.0668
 20
-10.8206
 30
0.000000
  70
    32
  0
VERTEX
  8
0
  5
80000269
 10
48.1476
 20
-10.8798
 30
0.000000
  70
    32
  0
VERTEX
  8
0
  5
8000026A
 10
48.2290
 20
-10.9374
 30
0.000000
  70
    32
  0
VERTEX
  8
0
  5
8000026B
 10
48.3111
 20
-10.9934
 30
0.000000
  70
    32
  0
VERTEX
  8
0
  5
8000026C
 10
48.3938
 20
-11.0479
 30
0.000000
  70
    32
  0
VERTEX
  8
0
  5
8000026D
 10
48.4773
 20
-11.1008
 30
0.000000
  70
    32
  0
VERTEX
  8
0
  5
8000026E
 10
48.5614
 20
-11.1520
 30
0.000000
  70
    32
  0
VERTEX
  8
0
  5
8000026F
 10
48.6462
 20
-11.2016
 30
0.000000
  70
    32
  0
VERTEX
  8
0
  5
80000270
 10
48.7317
 20
-11.2495
 30
0.000000
  70
    32
  0
VERTEX
  8
0
  5
80000271
 10
48.8179
 20
-11.2956
 30
0.000000
  70
    32
  0
VERTEX
  8
0
  5
80000272
 10
48.9049
 20
-11.3400
 30
0.000000
  70
    32
  0
VERTEX
  8
0
  5
80000273
 10
48.9926
 20
-11.3826
 30
0.000000
  70
    32
  0
VERTEX
  8
0
  5
80000274
 10
49.0810
 20
-11.4234
 30
0.000000
  70
    32
  0
VERTEX
  8
0
  5
80000275
 10
49.1703
 20
-11.4624
 30
0.000000
  70
    32
  0
VERTEX
  8
0
  5
80000276
 10
49.2603
 20
-11.4995
 30
0.000000
  70
    32
  0
VERTEX
  8
0
  5
80000277
 10
49.3511
 20
-11.5347
 30
0.000000
  70
    32
  0
VERTEX
  8
0
  5
80000278
 10
49.4427
 20
-11.5681
 30
0.000000
  70
    32
  0
VERTEX
  8
0
  5
80000279
 10
49.5351
 20
-11.5994
 30
0.000000
  70
    32
  0
VERTEX
  8
0
  5
8000027A
 10
49.6283
 20
-11.6288
 30
0.000000
  70
    32
  0
VERTEX
  8
0
  5
8000027B
 10
49.7224
 20
-11.6562
 30
0.000000
  70
    32
  0
VERTEX
  8
0
  5
8000027C
 10
49.8173
 20
-11.6815
 30
0.000000
  70
    32
  0
VERTEX
  8
0
  5
8000027D
 10
49.9131
 20
-11.7048
 30
0.000000
  70
    32
  0
VERTEX
  8
0
  5
8000027E
 10
50.0098
 20
-11.7260
 30
0.000000
  70
    32
  0
VERTEX
  8
0
  5
8000027F
 10
50.1073
 20
-11.7451
 30
0.000000
  70
    32
  0
VERTEX
  8
0
  5
80000280
 10
50.2057
 20
-11.7621
 30
0.000000
  70
    32
  0
VERTEX
  8
0
  5
80000281
 10
50.3051
 20
-11.7769
 30
0.000000
  70
    32
  0
VERTEX
  8
0
  5
80000282
 10
50.4053
 20
-11.7894
 30
0.000000
  70
    32
  0
VERTEX
  8
0
  5
80000283
 10
50.5065
 20
-11.7998
 30
0.000000
  70
    32
  0
VERTEX
  8
0
  5
80000284
 10
50.6087
 20
-11.8079
 30
0.000000
  70
    32
  0
VERTEX
  8
0
  5
80000285
 10
50.7118
 20
-11.8137
 30
0.000000
  70
    32
  0
VERTEX
  8
0
  5
80000286
 10
50.8158
 20
-11.8173
 30
0.000000
  70
    32
  0
VERTEX
  8
0
  5
80000287
 10
50.9208
 20
-11.8184
 30
0.000000
  70
    32
  0
SEQEND
  8
0
  5
80000288
  0
ENDBLK
  5
FFBBDAE469BC1106
  8
0
  0
BLOCK
  8
0
  2
*U25
 70
     1
 10
0.0
 20
0.0
 30
0.0
  3
*U25
  1

  0
TEXT
  5
FFBBDAE469BC1108
  8
0
  6
CONTINUOUS
 10
51.705285521621171
 20
-12.81843041715547
 30
0.0
 40
2.0
  1
DPC
  7
ARIAL
  0
ENDBLK
  5
FFBBDAE469BC110A
  8
0
  0
BLOCK
  8
0
  2
*U26
 70
     1
 10
0.0
 20
0.0
 30
0.0
  3
*U26
  1

  0
SOLID
  5
FFBBDAE469BC110C
  8
0
  6
CONTINUOUS
 10
37.267954601299898
 20
37.779342805470421
 30
0.0
 11
35.89698472310738
 21
36.574999999999818
 31
0.0
 12
36.803250454758491
 22
38.158882073777683
 32
0.0
 13
36.803250454758491
 23
38.158882073777683
 33
0.0
  0
POLYLINE
  8
0
  5
80000289
  66
     1
 10
0.000000
 20
0.000000
 30
0.000000
  70
     8
  0
VERTEX
  8
0
  5
8000028A
 10
37.0356
 20
37.9691
 30
0.000000
  70
    32
  0
VERTEX
  8
0
  5
8000028B
 10
37.1444
 20
38.1040
 30
0.000000
  70
    32
  0
VERTEX
  8
0
  5
8000028C
 10
37.2523
 20
38.2410
 30
0.000000
  70
    32
  0
VERTEX
  8
0
  5
8000028D
 10
37.3592
 20
38.3800
 30
0.000000
  70
    32
  0
VERTEX
  8
0
  5
8000028E
 10
37.4652
 20
38.5209
 30
0.000000
  70
    32
  0
VERTEX
  8
0
  5
8000028F
 10
37.5703
 20
38.6638
 30
0.000000
  70
    32
  0
VERTEX
  8
0
  5
80000290
 10
37.6744
 20
38.8085
 30
0.000000
  70
    32
  0
VERTEX
  8
0
  5
80000291
 10
37.7778
 20
38.9550
 30
0.000000
  70
    32
  0
VERTEX
  8
0
  5
80000292
 10
37.8803
 20
39.1032
 30
0.000000
  70
    32
  0
VERTEX
  8
0
  5
80000293
 10
37.9820
 20
39.2532
 30
0.000000
  70
    32
  0
VERTEX
  8
0
  5
80000294
 10
38.0829
 20
39.4049
 30
0.000000
  70
    32
  0
VERTEX
  8
0
  5
80000295
 10
38.1830
 20
39.5581
 30
0.000000
  70
    32
  0
VERTEX
  8
0
  5
80000296
 10
38.2824
 20
39.7129
 30
0.000000
  70
    32
  0
VERTEX
  8
0
  5
80000297
 10
38.3811
 20
39.8693
 30
0.000000
  70
    32
  0
VERTEX
  8
0
  5
80000298
 10
38.4791
 20
40.0271
 30
0.000000
  70
    32
  0
VERTEX
  8
0
  5
80000299
 10
38.5764
 20
40.1863
 30
0.000000
  70
    32
  0
VERTEX
  8
0
  5
8000029A
 10
38.6730
 20
40.3468
 30
0.000000
  70
    32
  0
VERTEX
  8
0
  5
8000029B
 10
38.7691
 20
40.5087
 30
0.000000
  70
    32
  0
VERTEX
  8
0
  5
8000029C
 10
38.8645
 20
40.6718
 30
0.000000
  70
    32
  0
VERTEX
  8
0
  5
8000029D
 10
38.9594
 20
40.8361
 30
0.000000
  70
    32
  0
VERTEX
  8
0
  5
8000029E
 10
39.0537
 20
41.0017
 30
0.000000
  70
    32
  0
VERTEX
  8
0
  5
8000029F
 10
39.1475
 20
41.1683
 30
0.000000
  70
    32
  0
VERTEX
  8
0
  5
800002A0
 10
39.2408
 20
41.3359
 30
0.000000
  70
    32
  0
VERTEX
  8
0
  5
800002A1
 10
39.3336
 20
41.5046
 30
0.000000
  70
    32
  0
VERTEX
  8
0
  5
800002A2
 10
39.4260
 20
41.6743
 30
0.000000
  70
    32
  0
VERTEX
  8
0
  5
800002A3
 10
39.5179
 20
41.8449
 30
0.000000
  70
    32
  0
VERTEX
  8
0
  5
800002A4
 10
39.6094
 20
42.0163
 30
0.000000
  70
    32
  0
VERTEX
  8
0
  5
800002A5
 10
39.7005
 20
42.1885
 30
0.000000
  70
    32
  0
VERTEX
  8
0
  5
800002A6
 10
39.7913
 20
42.3615
 30
0.000000
  70
    32
  0
VERTEX
  8
0
  5
800002A7
 10
39.8817
 20
42.5353
 30
0.000000
  70
    32
  0
VERTEX
  8
0
  5
800002A8
 10
39.9718
 20
42.7096
 30
0.000000
  70
    32
  0
VERTEX
  8
0
  5
800002A9
 10
40.0617
 20
42.8846
 30
0.000000
  70
    32
  0
VERTEX
  8
0
  5
800002AA
 10
40.1512
 20
43.0602
 30
0.000000
  70
    32
  0
VERTEX
  8
0
  5
800002AB
 10
40.2405
 20
43.2363
 30
0.000000
  70
    32
  0
VERTEX
  8
0
  5
800002AC
 10
40.3296
 20
43.4128
 30
0.000000
  70
    32
  0
VERTEX
  8
0
  5
800002AD
 10
40.4185
 20
43.5898
 30
0.000000
  70
    32
  0
VERTEX
  8
0
  5
800002AE
 10
40.5072
 20
43.7671
 30
0.000000
  70
    32
  0
VERTEX
  8
0
  5
800002AF
 10
40.5958
 20
43.9447
 30
0.000000
  70
    32
  0
VERTEX
  8
0
  5
800002B0
 10
40.6842
 20
44.1227
 30
0.000000
  70
    32
  0
VERTEX
  8
0
  5
800002B1
 10
40.7726
 20
44.3008
 30
0.000000
  70
    32
  0
VERTEX
  8
0
  5
800002B2
 10
40.8608
 20
44.4791
 30
0.000000
  70
    32
  0
VERTEX
  8
0
  5
800002B3
 10
40.9490
 20
44.6575
 30
0.000000
  70
    32
  0
VERTEX
  8
0
  5
800002B4
 10
41.0372
 20
44.8359
 30
0.000000
  70
    32
  0
VERTEX
  8
0
  5
800002B5
 10
41.1254
 20
45.0144
 30
0.000000
  70
    32
  0
VERTEX
  8
0
  5
800002B6
 10
41.2135
 20
45.1929
 30
0.000000
  70
    32
  0
VERTEX
  8
0
  5
800002B7
 10
41.3018
 20
45.3712
 30
0.000000
  70
    32
  0
VERTEX
  8
0
  5
800002B8
 10
41.3900
 20
45.5495
 30
0.000000
  70
    32
  0
VERTEX
  8
0
  5
800002B9
 10
41.4784
 20
45.7275
 30
0.000000
  70
    32
  0
VERTEX
  8
0
  5
800002BA
 10
41.5669
 20
45.9053
 30
0.000000
  70
    32
  0
VERTEX
  8
0
  5
800002BB
 10
41.6555
 20
46.0829
 30
0.000000
  70
    32
  0
VERTEX
  8
0
  5
800002BC
 10
41.7443
 20
46.2601
 30
0.000000
  70
    32
  0
VERTEX
  8
0
  5
800002BD
 10
41.8332
 20
46.4369
 30
0.000000
  70
    32
  0
VERTEX
  8
0
  5
800002BE
 10
41.9224
 20
46.6133
 30
0.000000
  70
    32
  0
VERTEX
  8
0
  5
800002BF
 10
42.0118
 20
46.7892
 30
0.000000
  70
    32
  0
VERTEX
  8
0
  5
800002C0
 10
42.1014
 20
46.9646
 30
0.000000
  70
    32
  0
VERTEX
  8
0
  5
800002C1
 10
42.1913
 20
47.1394
 30
0.000000
  70
    32
  0
VERTEX
  8
0
  5
800002C2
 10
42.2815
 20
47.3136
 30
0.000000
  70
    32
  0
VERTEX
  8
0
  5
800002C3
 10
42.3721
 20
47.4871
 30
0.000000
  70
    32
  0
VERTEX
  8
0
  5
800002C4
 10
42.4629
 20
47.6598
 30
0.000000
  70
    32
  0
VERTEX
  8
0
  5
800002C5
 10
42.5542
 20
47.8318
 30
0.000000
  70
    32
  0
VERTEX
  8
0
  5
800002C6
 10
42.6458
 20
48.0029
 30
0.000000
  70
    32
  0
VERTEX
  8
0
  5
800002C7
 10
42.7379
 20
48.1732
 30
0.000000
  70
    32
  0
VERTEX
  8
0
  5
800002C8
 10
42.8304
 20
48.3425
 30
0.000000
  70
    32
  0
VERTEX
  8
0
  5
800002C9
 10
42.9234
 20
48.5109
 30
0.000000
  70
    32
  0
VERTEX
  8
0
  5
800002CA
 10
43.0168
 20
48.6782
 30
0.000000
  70
    32
  0
VERTEX
  8
0
  5
800002CB
 10
43.1108
 20
48.8445
 30
0.000000
  70
    32
  0
VERTEX
  8
0
  5
800002CC
 10
43.2053
 20
49.0096
 30
0.000000
  70
    32
  0
VERTEX
  8
0
  5
800002CD
 10
43.3004
 20
49.1736
 30
0.000000
  70
    32
  0
VERTEX
  8
0
  5
800002CE
 10
43.3960
 20
49.3363
 30
0.000000
  70
    32
  0
VERTEX
  8
0
  5
800002CF
 10
43.4923
 20
49.4977
 30
0.000000
  70
    32
  0
VERTEX
  8
0
  5
800002D0
 10
43.5891
 20
49.6578
 30
0.000000
  70
    32
  0
VERTEX
  8
0
  5
800002D1
 10
43.6867
 20
49.8165
 30
0.000000
  70
    32
  0
VERTEX
  8
0
  5
800002D2
 10
43.7849
 20
49.9739
 30
0.000000
  70
    32
  0
VERTEX
  8
0
  5
800002D3
 10
43.8838
 20
50.1297
 30
0.000000
  70
    32
  0
VERTEX
  8
0
  5
800002D4
 10
43.9834
 20
50.2840
 30
0.000000
  70
    32
  0
VERTEX
  8
0
  5
800002D5
 10
44.0838
 20
50.4367
 30
0.000000
  70
    32
  0
VERTEX
  8
0
  5
800002D6
 10
44.1850
 20
50.5878
 30
0.000000
  70
    32
  0
VERTEX
  8
0
  5
800002D7
 10
44.2869
 20
50.7372
 30
0.000000
  70
    32
  0
VERTEX
  8
0
  5
800002D8
 10
44.3897
 20
50.8849
 30
0.000000
  70
    32
  0
VERTEX
  8
0
  5
800002D9
 10
44.4933
 20
51.0308
 30
0.000000
  70
    32
  0
VERTEX
  8
0
  5
800002DA
 10
44.5978
 20
51.1749
 30
0.000000
  70
    32
  0
VERTEX
  8
0
  5
800002DB
 10
44.7032
 20
51.3171
 30
0.000000
  70
    32
  0
VERTEX
  8
0
  5
800002DC
 10
44.8095
 20
51.4574
 30
0.000000
  70
    32
  0
VERTEX
  8
0
  5
800002DD
 10
44.9167
 20
51.5957
 30
0.000000
  70
    32
  0
VERTEX
  8
0
  5
800002DE
 10
45.0249
 20
51.7320
 30
0.000000
  70
    32
  0
VERTEX
  8
0
  5
800002DF
 10
45.1340
 20
51.8662
 30
0.000000
  70
    32
  0
VERTEX
  8
0
  5
800002E0
 10
45.2442
 20
51.9983
 30
0.000000
  70
    32
  0
VERTEX
  8
0
  5
800002E1
 10
45.3554
 20
52.1282
 30
0.000000
  70
    32
  0
VERTEX
  8
0
  5
800002E2
 10
45.4677
 20
52.2559
 30
0.000000
  70
    32
  0
VERTEX
  8
0
  5
800002E3
 10
45.5810
 20
52.3814
 30
0.000000
  70
    32
  0
VERTEX
  8
0
  5
800002E4
 10
45.6955
 20
52.5044
 30
0.000000
  70
    32
  0
VERTEX
  8
0
  5
800002E5
 10
45.8110
 20
52.6252
 30
0.000000
  70
    32
  0
VERTEX
  8
0
  5
800002E6
 10
45.9278
 20
52.7435
 30
0.000000
  70
    32
  0
VERTEX
  8
0
  5
800002E7
 10
46.0457
 20
52.8593
 30
0.000000
  70
    32
  0
VERTEX
  8
0
  5
800002E8
 10
46.1647
 20
52.9726
 30
0.000000
  70
    32
  0
VERTEX
  8
0
  5
800002E9
 10
46.2851
 20
53.0833
 30
0.000000
  70
    32
  0
VERTEX
  8
0
  5
800002EA
 10
46.4066
 20
53.1914
 30
0.000000
  70
    32
  0
VERTEX
  8
0
  5
800002EB
 10
46.5294
 20
53.2968
 30
0.000000
  70
    32
  0
VERTEX
  8
0
  5
800002EC
 10
46.6535
 20
53.3995
 30
0.000000
  70
    32
  0
VERTEX
  8
0
  5
800002ED
 10
46.7790
 20
53.4995
 30
0.000000
  70
    32
  0
VERTEX
  8
0
  5
800002EE
 10
46.9057
 20
53.5966
 30
0.000000
  70
    32
  0
VERTEX
  8
0
  5
800002EF
 10
47.0339
 20
53.6908
 30
0.000000
  70
    32
  0
VERTEX
  8
0
  5
800002F0
 10
47.1634
 20
53.7822
 30
0.000000
  70
    32
  0
VERTEX
  8
0
  5
800002F1
 10
47.2943
 20
53.8705
 30
0.000000
  70
    32
  0
VERTEX
  8
0
  5
800002F2
 10
47.4267
 20
53.9558
 30
0.000000
  70
    32
  0
VERTEX
  8
0
  5
800002F3
 10
47.5605
 20
54.0381
 30
0.000000
  70
    32
  0
VERTEX
  8
0
  5
800002F4
 10
47.6958
 20
54.1172
 30
0.000000
  70
    32
  0
VERTEX
  8
0
  5
800002F5
 10
47.8326
 20
54.1932
 30
0.000000
  70
    32
  0
VERTEX
  8
0
  5
800002F6
 10
47.9709
 20
54.2660
 30
0.000000
  70
    32
  0
VERTEX
  8
0
  5
800002F7
 10
48.1108
 20
54.3354
 30
0.000000
  70
    32
  0
VERTEX
  8
0
  5
800002F8
 10
48.2522
 20
54.4016
 30
0.000000
  70
    32
  0
VERTEX
  8
0
  5
800002F9
 10
48.3953
 20
54.4644
 30
0.000000
  70
    32
  0
VERTEX
  8
0
  5
800002FA
 10
48.5400
 20
54.5237
 30
0.000000
  70
    32
  0
VERTEX
  8
0
  5
800002FB
 10
48.6863
 20
54.5796
 30
0.000000
  70
    32
  0
VERTEX
  8
0
  5
800002FC
 10
48.8343
 20
54.6320
 30
0.000000
  70
    32
  0
VERTEX
  8
0
  5
800002FD
 10
48.9840
 20
54.6808
 30
0.000000
  70
    32
  0
VERTEX
  8
0
  5
800002FE
 10
49.1354
 20
54.7260
 30
0.000000
  70
    32
  0
VERTEX
  8
0
  5
800002FF
 10
49.2885
 20
54.7675
 30
0.000000
  70
    32
  0
VERTEX
  8
0
  5
80000300
 10
49.4434
 20
54.8054
 30
0.000000
  70
    32
  0
VERTEX
  8
0
  5
80000301
 10
49.6001
 20
54.8394
 30
0.000000
  70
    32
  0
VERTEX
  8
0
  5
80000302
 10
49.7586
 20
54.8696
 30
0.000000
  70
    32
  0
VERTEX
  8
0
  5
80000303
 10
49.9190
 20
54.8960
 30
0.000000
  70
    32
  0
VERTEX
  8
0
  5
80000304
 10
50.0811
 20
54.9184
 30
0.000000
  70
    32
  0
VERTEX
  8
0
  5
80000305
 10
50.2452
 20
54.9369
 30
0.000000
  70
    32
  0
VERTEX
  8
0
  5
80000306
 10
50.4112
 20
54.9513
 30
0.000000
  70
    32
  0
VERTEX
  8
0
  5
80000307
 10
50.5791
 20
54.9617
 30
0.000000
  70
    32
  0
VERTEX
  8
0
  5
80000308
 10
50.7490
 20
54.9680
 30
0.000000
  70
    32
  0
VERTEX
  8
0
  5
80000309
 10
50.9208
 20
54.9701
 30
0.000000
  70
    32
  0
SEQEND
  8
0
  5
8000030A
  0
ENDBLK
  5
FFBBDAE469BC110F
  8
0
  0
BLOCK
  8
0
  2
*U27
 70
     1
 10
0.0
 20
0.0
 30
0.0
  3
*U27
  1

  0
TEXT
  5
FFBBDAE469BC1111
  8
0
  6
CONTINUOUS
 10
51.815790296518848
 20
55.943682591172667
 30
0.0
 40
2.0
  1
65 x 2.8mm RounDrive ring
  7
ARIAL
  0
TEXT
  5
FFBBDAE469BC1112
  8
0
  6
CONTINUOUS
 10
51.834889887241907
 20
52.576242845833882
 30
0.0
 40
2.0
  1
shank nails for batten fixing
  7
ARIAL
  0
ENDBLK
  5
FFBBDAE469BC1114
  8
0
  0
BLOCK
  8
0
  2
*U28
 70
     1
 10
0.0
 20
0.0
 30
0.0
  3
*U28
  1

  0
SOLID
  5
FFBBDAE469BC1116
  8
0
  6
CONTINUOUS
 10
12.061632612222549
 20
41.395361872437292
 30
0.0
 11
10.4542161537297
 21
40.531526049513559
 31
0.0
 12
11.69458226649091
 22
41.869992300979632
 32
0.0
 13
11.69458226649091
 23
41.869992300979632
 33
0.0
  0
POLYLINE
  8
0
  5
8000030B
  66
     1
 10
0.000000
 20
0.000000
 30
0.000000
  70
     8
  0
VERTEX
  8
0
  5
8000030C
 10
11.8781
 20
41.6327
 30
0.000000
  70
    32
  0
VERTEX
  8
0
  5
8000030D
 10
12.1849
 20
41.8723
 30
0.000000
  70
    32
  0
VERTEX
  8
0
  5
8000030E
 10
12.4904
 20
42.1155
 30
0.000000
  70
    32
  0
VERTEX
  8
0
  5
8000030F
 10
12.7948
 20
42.3624
 30
0.000000
  70
    32
  0
VERTEX
  8
0
  5
80000310
 10
13.0979
 20
42.6127
 30
0.000000
  70
    32
  0
VERTEX
  8
0
  5
80000311
 10
13.3999
 20
42.8663
 30
0.000000
  70
    32
  0
VERTEX
  8
0
  5
80000312
 10
13.7007
 20
43.1233
 30
0.000000
  70
    32
  0
VERTEX
  8
0
  5
80000313
 10
14.0005
 20
43.3835
 30
0.000000
  70
    32
  0
VERTEX
  8
0
  5
80000314
 10
14.2991
 20
43.6469
 30
0.000000
  70
    32
  0
VERTEX
  8
0
  5
80000315
 10
14.5968
 20
43.9132
 30
0.000000
  70
    32
  0
VERTEX
  8
0
  5
80000316
 10
14.8934
 20
44.1826
 30
0.000000
  70
    32
  0
VERTEX
  8
0
  5
80000317
 10
15.1891
 20
44.4547
 30
0.000000
  70
    32
  0
VERTEX
  8
0
  5
80000318
 10
15.4838
 20
44.7297
 30
0.000000
  70
    32
  0
VERTEX
  8
0
  5
80000319
 10
15.7776
 20
45.0073
 30
0.000000
  70
    32
  0
VERTEX
  8
0
  5
8000031A
 10
16.0705
 20
45.2875
 30
0.000000
  70
    32
  0
VERTEX
  8
0
  5
8000031B
 10
16.3626
 20
45.5703
 30
0.000000
  70
    32
  0
VERTEX
  8
0
  5
8000031C
 10
16.6538
 20
45.8554
 30
0.000000
  70
    32
  0
VERTEX
  8
0
  5
8000031D
 10
16.9442
 20
46.1429
 30
0.000000
  70
    32
  0
VERTEX
  8
0
  5
8000031E
 10
17.2339
 20
46.4326
 30
0.000000
  70
    32
  0
VERTEX
  8
0
  5
8000031F
 10
17.5229
 20
46.7245
 30
0.000000
  70
    32
  0
VERTEX
  8
0
  5
80000320
 10
17.8111
 20
47.0184
 30
0.000000
  70
    32
  0
VERTEX
  8
0
  5
80000321
 10
18.0986
 20
47.3143
 30
0.000000
  70
    32
  0
VERTEX
  8
0
  5
80000322
 10
18.3856
 20
47.6121
 30
0.000000
  70
    32
  0
VERTEX
  8
0
  5
80000323
 10
18.6719
 20
47.9117
 30
0.000000
  70
    32
  0
VERTEX
  8
0
  5
80000324
 10
18.9576
 20
48.2130
 30
0.000000
  70
    32
  0
VERTEX
  8
0
  5
80000325
 10
19.2427
 20
48.5159
 30
0.000000
  70
    32
  0
VERTEX
  8
0
  5
80000326
 10
19.5274
 20
48.8204
 30
0.000000
  70
    32
  0
VERTEX
  8
0
  5
80000327
 10
19.8115
 20
49.1263
 30
0.000000
  70
    32
  0
VERTEX
  8
0
  5
80000328
 10
20.0952
 20
49.4335
 30
0.000000
  70
    32
  0
VERTEX
  8
0
  5
80000329
 10
20.3784
 20
49.7421
 30
0.000000
  70
    32
  0
VERTEX
  8
0
  5
8000032A
 10
20.6613
 20
50.0518
 30
0.000000
  70
    32
  0
VERTEX
  8
0
  5
8000032B
 10
20.9438
 20
50.3625
 30
0.000000
  70
    32
  0
VERTEX
  8
0
  5
8000032C
 10
21.2259
 20
50.6743
 30
0.000000
  70
    32
  0
VERTEX
  8
0
  5
8000032D
 10
21.5077
 20
50.9871
 30
0.000000
  70
    32
  0
VERTEX
  8
0
  5
8000032E
 10
21.7892
 20
51.3006
 30
0.000000
  70
    32
  0
VERTEX
  8
0
  5
8000032F
 10
22.0705
 20
51.6149
 30
0.000000
  70
    32
  0
VERTEX
  8
0
  5
80000330
 10
22.3516
 20
51.9298
 30
0.000000
  70
    32
  0
VERTEX
  8
0
  5
80000331
 10
22.6324
 20
52.2453
 30
0.000000
  70
    32
  0
VERTEX
  8
0
  5
80000332
 10
22.9132
 20
52.5612
 30
0.000000
  70
    32
  0
VERTEX
  8
0
  5
80000333
 10
23.1937
 20
52.8776
 30
0.000000
  70
    32
  0
VERTEX
  8
0
  5
80000334
 10
23.4742
 20
53.1942
 30
0.000000
  70
    32
  0
VERTEX
  8
0
  5
80000335
 10
23.7546
 20
53.5110
 30
0.000000
  70
    32
  0
VERTEX
  8
0
  5
80000336
 10
24.0350
 20
53.8280
 30
0.000000
  70
    32
  0
VERTEX
  8
0
  5
80000337
 10
24.3153
 20
54.1450
 30
0.000000
  70
    32
  0
VERTEX
  8
0
  5
80000338
 10
24.5957
 20
54.4619
 30
0.000000
  70
    32
  0
VERTEX
  8
0
  5
80000339
 10
24.8761
 20
54.7787
 30
0.000000
  70
    32
  0
VERTEX
  8
0
  5
8000033A
 10
25.1567
 20
55.0952
 30
0.000000
  70
    32
  0
VERTEX
  8
0
  5
8000033B
 10
25.4373
 20
55.4114
 30
0.000000
  70
    32
  0
VERTEX
  8
0
  5
8000033C
 10
25.7180
 20
55.7272
 30
0.000000
  70
    32
  0
VERTEX
  8
0
  5
8000033D
 10
25.9990
 20
56.0425
 30
0.000000
  70
    32
  0
VERTEX
  8
0
  5
8000033E
 10
26.2801
 20
56.3573
 30
0.000000
  70
    32
  0
VERTEX
  8
0
  5
8000033F
 10
26.5615
 20
56.6713
 30
0.000000
  70
    32
  0
VERTEX
  8
0
  5
80000340
 10
26.8431
 20
56.9846
 30
0.000000
  70
    32
  0
VERTEX
  8
0
  5
80000341
 10
27.1250
 20
57.2970
 30
0.000000
  70
    32
  0
VERTEX
  8
0
  5
80000342
 10
27.4072
 20
57.6084
 30
0.000000
  70
    32
  0
VERTEX
  8
0
  5
80000343
 10
27.6898
 20
57.9189
 30
0.000000
  70
    32
  0
VERTEX
  8
0
  5
80000344
 10
27.9728
 20
58.2282
 30
0.000000
  70
    32
  0
VERTEX
  8
0
  5
80000345
 10
28.2562
 20
58.5363
 30
0.000000
  70
    32
  0
VERTEX
  8
0
  5
80000346
 10
28.5400
 20
58.8431
 30
0.000000
  70
    32
  0
VERTEX
  8
0
  5
80000347
 10
28.8243
 20
59.1486
 30
0.000000
  70
    32
  0
VERTEX
  8
0
  5
80000348
 10
29.1091
 20
59.4525
 30
0.000000
  70
    32
  0
VERTEX
  8
0
  5
80000349
 10
29.3945
 20
59.7549
 30
0.000000
  70
    32
  0
VERTEX
  8
0
  5
8000034A
 10
29.6804
 20
60.0557
 30
0.000000
  70
    32
  0
VERTEX
  8
0
  5
8000034B
 10
29.9669
 20
60.3547
 30
0.000000
  70
    32
  0
VERTEX
  8
0
  5
8000034C
 10
30.2540
 20
60.6518
 30
0.000000
  70
    32
  0
VERTEX
  8
0
  5
8000034D
 10
30.5418
 20
60.9471
 30
0.000000
  70
    32
  0
VERTEX
  8
0
  5
8000034E
 10
30.8303
 20
61.2403
 30
0.000000
  70
    32
  0
VERTEX
  8
0
  5
8000034F
 10
31.1194
 20
61.5315
 30
0.000000
  70
    32
  0
VERTEX
  8
0
  5
80000350
 10
31.4094
 20
61.8205
 30
0.000000
  70
    32
  0
VERTEX
  8
0
  5
80000351
 10
31.7001
 20
62.1072
 30
0.000000
  70
    32
  0
VERTEX
  8
0
  5
80000352
 10
31.9916
 20
62.3915
 30
0.000000
  70
    32
  0
VERTEX
  8
0
  5
80000353
 10
32.2839
 20
62.6734
 30
0.000000
  70
    32
  0
VERTEX
  8
0
  5
80000354
 10
32.5771
 20
62.9528
 30
0.000000
  70
    32
  0
VERTEX
  8
0
  5
80000355
 10
32.8712
 20
63.2296
 30
0.000000
  70
    32
  0
VERTEX
  8
0
  5
80000356
 10
33.1662
 20
63.5036
 30
0.000000
  70
    32
  0
VERTEX
  8
0
  5
80000357
 10
33.4622
 20
63.7748
 30
0.000000
  70
    32
  0
VERTEX
  8
0
  5
80000358
 10
33.7592
 20
64.0432
 30
0.000000
  70
    32
  0
VERTEX
  8
0
  5
80000359
 10
34.0572
 20
64.3085
 30
0.000000
  70
    32
  0
VERTEX
  8
0
  5
8000035A
 10
34.3562
 20
64.5708
 30
0.000000
  70
    32
  0
VERTEX
  8
0
  5
8000035B
 10
34.6563
 20
64.8300
 30
0.000000
  70
    32
  0
VERTEX
  8
0
  5
8000035C
 10
34.9575
 20
65.0859
 30
0.000000
  70
    32
  0
VERTEX
  8
0
  5
8000035D
 10
35.2599
 20
65.3384
 30
0.000000
  70
    32
  0
VERTEX
  8
0
  5
8000035E
 10
35.5634
 20
65.5876
 30
0.000000
  70
    32
  0
VERTEX
  8
0
  5
8000035F
 10
35.8682
 20
65.8332
 30
0.000000
  70
    32
  0
VERTEX
  8
0
  5
80000360
 10
36.1741
 20
66.0753
 30
0.000000
  70
    32
  0
VERTEX
  8
0
  5
80000361
 10
36.4813
 20
66.3136
 30
0.000000
  70
    32
  0
VERTEX
  8
0
  5
80000362
 10
36.7898
 20
66.5482
 30
0.000000
  70
    32
  0
VERTEX
  8
0
  5
80000363
 10
37.0996
 20
66.7790
 30
0.000000
  70
    32
  0
VERTEX
  8
0
  5
80000364
 10
37.4108
 20
67.0057
 30
0.000000
  70
    32
  0
VERTEX
  8
0
  5
80000365
 10
37.7234
 20
67.2285
 30
0.000000
  70
    32
  0
VERTEX
  8
0
  5
80000366
 10
38.0373
 20
67.4471
 30
0.000000
  70
    32
  0
VERTEX
  8
0
  5
80000367
 10
38.3527
 20
67.6615
 30
0.000000
  70
    32
  0
VERTEX
  8
0
  5
80000368
 10
38.6696
 20
67.8716
 30
0.000000
  70
    32
  0
VERTEX
  8
0
  5
80000369
 10
38.9879
 20
68.0773
 30
0.000000
  70
    32
  0
VERTEX
  8
0
  5
8000036A
 10
39.3078
 20
68.2785
 30
0.000000
  70
    32
  0
VERTEX
  8
0
  5
8000036B
 10
39.6293
 20
68.4751
 30
0.000000
  70
    32
  0
VERTEX
  8
0
  5
8000036C
 10
39.9524
 20
68.6671
 30
0.000000
  70
    32
  0
VERTEX
  8
0
  5
8000036D
 10
40.2770
 20
68.8544
 30
0.000000
  70
    32
  0
VERTEX
  8
0
  5
8000036E
 10
40.6034
 20
69.0368
 30
0.000000
  70
    32
  0
VERTEX
  8
0
  5
8000036F
 10
40.9314
 20
69.2143
 30
0.000000
  70
    32
  0
VERTEX
  8
0
  5
80000370
 10
41.2611
 20
69.3867
 30
0.000000
  70
    32
  0
VERTEX
  8
0
  5
80000371
 10
41.5925
 20
69.5541
 30
0.000000
  70
    32
  0
VERTEX
  8
0
  5
80000372
 10
41.9258
 20
69.7163
 30
0.000000
  70
    32
  0
VERTEX
  8
0
  5
80000373
 10
42.2608
 20
69.8732
 30
0.000000
  70
    32
  0
VERTEX
  8
0
  5
80000374
 10
42.5977
 20
70.0247
 30
0.000000
  70
    32
  0
VERTEX
  8
0
  5
80000375
 10
42.9364
 20
70.1708
 30
0.000000
  70
    32
  0
VERTEX
  8
0
  5
80000376
 10
43.2770
 20
70.3114
 30
0.000000
  70
    32
  0
VERTEX
  8
0
  5
80000377
 10
43.6196
 20
70.4463
 30
0.000000
  70
    32
  0
VERTEX
  8
0
  5
80000378
 10
43.9641
 20
70.5755
 30
0.000000
  70
    32
  0
VERTEX
  8
0
  5
80000379
 10
44.3105
 20
70.6989
 30
0.000000
  70
    32
  0
VERTEX
  8
0
  5
8000037A
 10
44.6590
 20
70.8164
 30
0.000000
  70
    32
  0
VERTEX
  8
0
  5
8000037B
 10
45.0096
 20
70.9279
 30
0.000000
  70
    32
  0
VERTEX
  8
0
  5
8000037C
 10
45.3622
 20
71.0333
 30
0.000000
  70
    32
  0
VERTEX
  8
0
  5
8000037D
 10
45.7169
 20
71.1326
 30
0.000000
  70
    32
  0
VERTEX
  8
0
  5
8000037E
 10
46.0738
 20
71.2256
 30
0.000000
  70
    32
  0
VERTEX
  8
0
  5
8000037F
 10
46.4328
 20
71.3123
 30
0.000000
  70
    32
  0
VERTEX
  8
0
  5
80000380
 10
46.7940
 20
71.3926
 30
0.000000
  70
    32
  0
VERTEX
  8
0
  5
80000381
 10
47.1574
 20
71.4663
 30
0.000000
  70
    32
  0
VERTEX
  8
0
  5
80000382
 10
47.5231
 20
71.5334
 30
0.000000
  70
    32
  0
VERTEX
  8
0
  5
80000383
 10
47.8911
 20
71.5939
 30
0.000000
  70
    32
  0
VERTEX
  8
0
  5
80000384
 10
48.2614
 20
71.6476
 30
0.000000
  70
    32
  0
VERTEX
  8
0
  5
80000385
 10
48.6340
 20
71.6944
 30
0.000000
  70
    32
  0
VERTEX
  8
0
  5
80000386
 10
49.0090
 20
71.7342
 30
0.000000
  70
    32
  0
VERTEX
  8
0
  5
80000387
 10
49.3865
 20
71.7670
 30
0.000000
  70
    32
  0
VERTEX
  8
0
  5
80000388
 10
49.7663
 20
71.7927
 30
0.000000
  70
    32
  0
VERTEX
  8
0
  5
80000389
 10
50.1487
 20
71.8111
 30
0.000000
  70
    32
  0
VERTEX
  8
0
  5
8000038A
 10
50.5335
 20
71.8222
 30
0.000000
  70
    32
  0
VERTEX
  8
0
  5
8000038B
 10
50.9208
 20
71.8260
 30
0.000000
  70
    32
  0
SEQEND
  8
0
  5
8000038C
  0
ENDBLK
  5
FFBBDAE469BC1119
  8
0
  0
BLOCK
  8
0
  2
*U29
 70
     1
 10
0.0
 20
0.0
 30
0.0
  3
*U29
  1

  0
TEXT
  5
FFBBDAE469BC111B
  8
0
  6
CONTINUOUS
 10
51.716199573462909
 20
71.103579786749094
 30
0.0
 40
2.0
  1
Bottom plate
  7
ARIAL
  0
ENDBLK
  5
FFBBDAE469BC111D
  8
0
  0
BLOCK
  8
0
  2
*U30
 70
     1
 10
0.0
 20
0.0
 30
0.0
  3
*U30
  1

  0
SOLID
  5
FFBBDAE469BC111F
  8
0
  6
CONTINUOUS
 10
-1.224527087454337
 20
63.893082798740203
 30
0.0
 11
-3.0
 21
63.471542839997703
 31
0.0
 12
-1.4572142585354531
 22
64.446125907741902
 32
0.0
 13
-1.4572142585354531
 23
64.446125907741902
 33
0.0
  0
POLYLINE
  8
0
  5
8000038D
  66
     1
 10
0.000000
 20
0.000000
 30
0.000000
  70
     8
  0
VERTEX
  8
0
  5
8000038E
 10
-1.34087
 20
64.1696
 30
0.000000
  70
    32
  0
VERTEX
  8
0
  5
8000038F
 10
-0.929634
 20
64.3441
 30
0.000000
  70
    32
  0
VERTEX
  8
0
  5
80000390
 10
-0.518935
 20
64.5212
 30
0.000000
  70
    32
  0
VERTEX
  8
0
  5
80000391
 10
-0.108760
 20
64.7010
 30
0.000000
  70
    32
  0
VERTEX
  8
0
  5
80000392
 10
0.300904
 20
64.8833
 30
0.000000
  70
    32
  0
VERTEX
  8
0
  5
80000393
 10
0.710070
 20
65.0680
 30
0.000000
  70
    32
  0
VERTEX
  8
0
  5
80000394
 10
1.11875
 20
65.2552
 30
0.000000
  70
    32
  0
VERTEX
  8
0
  5
80000395
 10
1.52696
 20
65.4447
 30
0.000000
  70
    32
  0
VERTEX
  8
0
  5
80000396
 10
1.93471
 20
65.6365
 30
0.000000
  70
    32
  0
VERTEX
  8
0
  5
80000397
 10
2.34201
 20
65.8305
 30
0.000000
  70
    32
  0
VERTEX
  8
0
  5
80000398
 10
2.74888
 20
66.0266
 30
0.000000
  70
    32
  0
VERTEX
  8
0
  5
80000399
 10
3.15533
 20
66.2248
 30
0.000000
  70
    32
  0
VERTEX
  8
0
  5
8000039A
 10
3.56137
 20
66.4250
 30
0.000000
  70
    32
  0
VERTEX
  8
0
  5
8000039B
 10
3.96702
 20
66.6272
 30
0.000000
  70
    32
  0
VERTEX
  8
0
  5
8000039C
 10
4.37228
 20
66.8313
 30
0.000000
  70
    32
  0
VERTEX
  8
0
  5
8000039D
 10
4.77718
 20
67.0372
 30
0.000000
  70
    32
  0
VERTEX
  8
0
  5
8000039E
 10
5.18172
 20
67.2449
 30
0.000000
  70
    32
  0
VERTEX
  8
0
  5
8000039F
 10
5.58593
 20
67.4542
 30
0.000000
  70
    32
  0
VERTEX
  8
0
  5
800003A0
 10
5.98980
 20
67.6652
 30
0.000000
  70
    32
  0
VERTEX
  8
0
  5
800003A1
 10
6.39335
 20
67.8778
 30
0.000000
  70
    32
  0
VERTEX
  8
0
  5
800003A2
 10
6.79660
 20
68.0918
 30
0.000000
  70
    32
  0
VERTEX
  8
0
  5
800003A3
 10
7.19956
 20
68.3073
 30
0.000000
  70
    32
  0
VERTEX
  8
0
  5
800003A4
 10
7.60225
 20
68.5242
 30
0.000000
  70
    32
  0
VERTEX
  8
0
  5
800003A5
 10
8.00467
 20
68.7424
 30
0.000000
  70
    32
  0
VERTEX
  8
0
  5
800003A6
 10
8.40684
 20
68.9618
 30
0.000000
  70
    32
  0
VERTEX
  8
0
  5
800003A7
 10
8.80877
 20
69.1824
 30
0.000000
  70
    32
  0
VERTEX
  8
0
  5
800003A8
 10
9.21047
 20
69.4041
 30
0.000000
  70
    32
  0
VERTEX
  8
0
  5
800003A9
 10
9.61197
 20
69.6269
 30
0.000000
  70
    32
  0
VERTEX
  8
0
  5
800003AA
 10
10.0133
 20
69.8507
 30
0.000000
  70
    32
  0
VERTEX
  8
0
  5
800003AB
 10
10.4144
 20
70.0753
 30
0.000000
  70
    32
  0
VERTEX
  8
0
  5
800003AC
 10
10.8153
 20
70.3009
 30
0.000000
  70
    32
  0
VERTEX
  8
0
  5
800003AD
 10
11.2161
 20
70.5272
 30
0.000000
  70
    32
  0
VERTEX
  8
0
  5
800003AE
 10
11.6167
 20
70.7543
 30
0.000000
  70
    32
  0
VERTEX
  8
0
  5
800003AF
 10
12.0172
 20
70.9820
 30
0.000000
  70
    32
  0
VERTEX
  8
0
  5
800003B0
 10
12.4176
 20
71.2104
 30
0.000000
  70
    32
  0
VERTEX
  8
0
  5
800003B1
 10
12.8178
 20
71.4392
 30
0.000000
  70
    32
  0
VERTEX
  8
0
  5
800003B2
 10
13.2180
 20
71.6686
 30
0.000000
  70
    32
  0
VERTEX
  8
0
  5
800003B3
 10
13.6181
 20
71.8983
 30
0.000000
  70
    32
  0
VERTEX
  8
0
  5
800003B4
 10
14.0181
 20
72.1284
 30
0.000000
  70
    32
  0
VERTEX
  8
0
  5
800003B5
 10
14.4180
 20
72.3588
 30
0.000000
  70
    32
  0
VERTEX
  8
0
  5
800003B6
 10
14.8180
 20
72.5894
 30
0.000000
  70
    32
  0
VERTEX
  8
0
  5
800003B7
 10
15.2179
 20
72.8201
 30
0.000000
  70
    32
  0
VERTEX
  8
0
  5
800003B8
 10
15.6177
 20
73.0510
 30
0.000000
  70
    32
  0
VERTEX
  8
0
  5
800003B9
 10
16.0176
 20
73.2818
 30
0.000000
  70
    32
  0
VERTEX
  8
0
  5
800003BA
 10
16.4175
 20
73.5126
 30
0.000000
  70
    32
  0
VERTEX
  8
0
  5
800003BB
 10
16.8173
 20
73.7433
 30
0.000000
  70
    32
  0
VERTEX
  8
0
  5
800003BC
 10
17.2173
 20
73.9738
 30
0.000000
  70
    32
  0
VERTEX
  8
0
  5
800003BD
 10
17.6173
 20
74.2041
 30
0.000000
  70
    32
  0
VERTEX
  8
0
  5
800003BE
 10
18.0173
 20
74.4341
 30
0.000000
  70
    32
  0
VERTEX
  8
0
  5
800003BF
 10
18.4174
 20
74.6637
 30
0.000000
  70
    32
  0
VERTEX
  8
0
  5
800003C0
 10
18.8176
 20
74.8929
 30
0.000000
  70
    32
  0
VERTEX
  8
0
  5
800003C1
 10
19.2179
 20
75.1216
 30
0.000000
  70
    32
  0
VERTEX
  8
0
  5
800003C2
 10
19.6183
 20
75.3498
 30
0.000000
  70
    32
  0
VERTEX
  8
0
  5
800003C3
 10
20.0188
 20
75.5773
 30
0.000000
  70
    32
  0
VERTEX
  8
0
  5
800003C4
 10
20.4195
 20
75.8041
 30
0.000000
  70
    32
  0
VERTEX
  8
0
  5
800003C5
 10
20.8203
 20
76.0302
 30
0.000000
  70
    32
  0
VERTEX
  8
0
  5
800003C6
 10
21.2213
 20
76.2555
 30
0.000000
  70
    32
  0
VERTEX
  8
0
  5
800003C7
 10
21.6225
 20
76.4799
 30
0.000000
  70
    32
  0
VERTEX
  8
0
  5
800003C8
 10
22.0239
 20
76.7033
 30
0.000000
  70
    32
  0
VERTEX
  8
0
  5
800003C9
 10
22.4254
 20
76.9257
 30
0.000000
  70
    32
  0
VERTEX
  8
0
  5
800003CA
 10
22.8272
 20
77.1471
 30
0.000000
  70
    32
  0
VERTEX
  8
0
  5
800003CB
 10
23.2292
 20
77.3673
 30
0.000000
  70
    32
  0
VERTEX
  8
0
  5
800003CC
 10
23.6315
 20
77.5863
 30
0.000000
  70
    32
  0
VERTEX
  8
0
  5
800003CD
 10
24.0340
 20
77.8041
 30
0.000000
  70
    32
  0
VERTEX
  8
0
  5
800003CE
 10
24.4367
 20
78.0205
 30
0.000000
  70
    32
  0
VERTEX
  8
0
  5
800003CF
 10
24.8398
 20
78.2355
 30
0.000000
  70
    32
  0
VERTEX
  8
0
  5
800003D0
 10
25.2431
 20
78.4491
 30
0.000000
  70
    32
  0
VERTEX
  8
0
  5
800003D1
 10
25.6468
 20
78.6611
 30
0.000000
  70
    32
  0
VERTEX
  8
0
  5
800003D2
 10
26.0508
 20
78.8716
 30
0.000000
  70
    32
  0
VERTEX
  8
0
  5
800003D3
 10
26.4551
 20
79.0804
 30
0.000000
  70
    32
  0
VERTEX
  8
0
  5
800003D4
 10
26.8598
 20
79.2875
 30
0.000000
  70
    32
  0
VERTEX
  8
0
  5
800003D5
 10
27.2648
 20
79.4928
 30
0.000000
  70
    32
  0
VERTEX
  8
0
  5
800003D6
 10
27.6702
 20
79.6962
 30
0.000000
  70
    32
  0
VERTEX
  8
0
  5
800003D7
 10
28.0759
 20
79.8978
 30
0.000000
  70
    32
  0
VERTEX
  8
0
  5
800003D8
 10
28.4821
 20
80.0973
 30
0.000000
  70
    32
  0
VERTEX
  8
0
  5
800003D9
 10
28.8887
 20
80.2949
 30
0.000000
  70
    32
  0
VERTEX
  8
0
  5
800003DA
 10
29.2957
 20
80.4903
 30
0.000000
  70
    32
  0
VERTEX
  8
0
  5
800003DB
 10
29.7032
 20
80.6835
 30
0.000000
  70
    32
  0
VERTEX
  8
0
  5
800003DC
 10
30.1111
 20
80.8746
 30
0.000000
  70
    32
  0
VERTEX
  8
0
  5
800003DD
 10
30.5194
 20
81.0633
 30
0.000000
  70
    32
  0
VERTEX
  8
0
  5
800003DE
 10
30.9283
 20
81.2496
 30
0.000000
  70
    32
  0
VERTEX
  8
0
  5
800003DF
 10
31.3376
 20
81.4336
 30
0.000000
  70
    32
  0
VERTEX
  8
0
  5
800003E0
 10
31.7474
 20
81.6150
 30
0.000000
  70
    32
  0
VERTEX
  8
0
  5
800003E1
 10
32.1578
 20
81.7939
 30
0.000000
  70
    32
  0
VERTEX
  8
0
  5
800003E2
 10
32.5687
 20
81.9702
 30
0.000000
  70
    32
  0
VERTEX
  8
0
  5
800003E3
 10
32.9801
 20
82.1438
 30
0.000000
  70
    32
  0
VERTEX
  8
0
  5
800003E4
 10
33.3921
 20
82.3146
 30
0.000000
  70
    32
  0
VERTEX
  8
0
  5
800003E5
 10
33.8046
 20
82.4827
 30
0.000000
  70
    32
  0
VERTEX
  8
0
  5
800003E6
 10
34.2177
 20
82.6478
 30
0.000000
  70
    32
  0
VERTEX
  8
0
  5
800003E7
 10
34.6314
 20
82.8100
 30
0.000000
  70
    32
  0
VERTEX
  8
0
  5
800003E8
 10
35.0458
 20
82.9692
 30
0.000000
  70
    32
  0
VERTEX
  8
0
  5
800003E9
 10
35.4607
 20
83.1254
 30
0.000000
  70
    32
  0
VERTEX
  8
0
  5
800003EA
 10
35.8763
 20
83.2784
 30
0.000000
  70
    32
  0
VERTEX
  8
0
  5
800003EB
 10
36.2925
 20
83.4282
 30
0.000000
  70
    32
  0
VERTEX
  8
0
  5
800003EC
 10
36.7094
 20
83.5747
 30
0.000000
  70
    32
  0
VERTEX
  8
0
  5
800003ED
 10
37.1269
 20
83.7179
 30
0.000000
  70
    32
  0
VERTEX
  8
0
  5
800003EE
 10
37.5451
 20
83.8577
 30
0.000000
  70
    32
  0
VERTEX
  8
0
  5
800003EF
 10
37.9641
 20
83.9941
 30
0.000000
  70
    32
  0
VERTEX
  8
0
  5
800003F0
 10
38.3837
 20
84.1269
 30
0.000000
  70
    32
  0
VERTEX
  8
0
  5
800003F1
 10
38.8041
 20
84.2562
 30
0.000000
  70
    32
  0
VERTEX
  8
0
  5
800003F2
 10
39.2252
 20
84.3818
 30
0.000000
  70
    32
  0
VERTEX
  8
0
  5
800003F3
 10
39.6470
 20
84.5037
 30
0.000000
  70
    32
  0
VERTEX
  8
0
  5
800003F4
 10
40.0697
 20
84.6218
 30
0.000000
  70
    32
  0
VERTEX
  8
0
  5
800003F5
 10
40.4930
 20
84.7361
 30
0.000000
  70
    32
  0
VERTEX
  8
0
  5
800003F6
 10
40.9172
 20
84.8464
 30
0.000000
  70
    32
  0
VERTEX
  8
0
  5
800003F7
 10
41.3422
 20
84.9528
 30
0.000000
  70
    32
  0
VERTEX
  8
0
  5
800003F8
 10
41.7680
 20
85.0552
 30
0.000000
  70
    32
  0
VERTEX
  8
0
  5
800003F9
 10
42.1946
 20
85.1534
 30
0.000000
  70
    32
  0
VERTEX
  8
0
  5
800003FA
 10
42.6221
 20
85.2475
 30
0.000000
  70
    32
  0
VERTEX
  8
0
  5
800003FB
 10
43.0504
 20
85.3374
 30
0.000000
  70
    32
  0
VERTEX
  8
0
  5
800003FC
 10
43.4796
 20
85.4229
 30
0.000000
  70
    32
  0
VERTEX
  8
0
  5
800003FD
 10
43.9096
 20
85.5041
 30
0.000000
  70
    32
  0
VERTEX
  8
0
  5
800003FE
 10
44.3406
 20
85.5809
 30
0.000000
  70
    32
  0
VERTEX
  8
0
  5
800003FF
 10
44.7724
 20
85.6532
 30
0.000000
  70
    32
  0
VERTEX
  8
0
  5
80000400
 10
45.2052
 20
85.7210
 30
0.000000
  70
    32
  0
VERTEX
  8
0
  5
80000401
 10
45.6389
 20
85.7841
 30
0.000000
  70
    32
  0
VERTEX
  8
0
  5
80000402
 10
46.0736
 20
85.8425
 30
0.000000
  70
    32
  0
VERTEX
  8
0
  5
80000403
 10
46.5092
 20
85.8963
 30
0.000000
  70
    32
  0
VERTEX
  8
0
  5
80000404
 10
46.9458
 20
85.9451
 30
0.000000
  70
    32
  0
VERTEX
  8
0
  5
80000405
 10
47.3833
 20
85.9892
 30
0.000000
  70
    32
  0
VERTEX
  8
0
  5
80000406
 10
47.8219
 20
86.0283
 30
0.000000
  70
    32
  0
VERTEX
  8
0
  5
80000407
 10
48.2615
 20
86.0623
 30
0.000000
  70
    32
  0
VERTEX
  8
0
  5
80000408
 10
48.7021
 20
86.0914
 30
0.000000
  70
    32
  0
VERTEX
  8
0
  5
80000409
 10
49.1437
 20
86.1152
 30
0.000000
  70
    32
  0
VERTEX
  8
0
  5
8000040A
 10
49.5864
 20
86.1339
 30
0.000000
  70
    32
  0
VERTEX
  8
0
  5
8000040B
 10
50.0301
 20
86.1474
 30
0.000000
  70
    32
  0
VERTEX
  8
0
  5
8000040C
 10
50.4749
 20
86.1555
 30
0.000000
  70
    32
  0
VERTEX
  8
0
  5
8000040D
 10
50.9208
 20
86.1582
 30
0.000000
  70
    32
  0
SEQEND
  8
0
  5
8000040E
  0
ENDBLK
  5
FFBBDAE469BC1122
  8
0
  0
BLOCK
  8
0
  2
*U31
 70
     1
 10
0.0
 20
0.0
 30
0.0
  3
*U31
  1

  0
TEXT
  5
FFBBDAE469BC1124
  8
0
  6
CONTINUOUS
 10
51.845803939083652
 20
87.135895190182453
 30
0.0
 40
2.0
  1
James Hardie rigid air
  7
ARIAL
  0
TEXT
  5
FFBBDAE469BC1125
  8
0
  6
CONTINUOUS
 10
51.738027677146398
 20
83.768455444843653
 30
0.0
 40
2.0
  1
barrier/Building underlay
  7
ARIAL
  0
ENDBLK
  5
FFBBDAE469BC1127
  8
0
  0
BLOCK
  8
0
  2
*U32
 70
     1
 10
0.0
 20
0.0
 30
0.0
  3
*U32
  1

  0
SOLID
  5
FFBBDAE469BC1129
  8
0
  6
CONTINUOUS
 10
-17.84931508237278
 20
59.022339777920749
 30
0.0
 11
-16.91189326464746
 21
57.456696033113978
 31
0.0
 12
-18.306419982433059
 22
58.633681688668929
 32
0.0
 13
-18.306419982433059
 23
58.633681688668929
 33
0.0
  0
POLYLINE
  8
0
  5
8000040F
  66
     1
 10
0.000000
 20
0.000000
 30
0.000000
  70
     8
  0
VERTEX
  8
0
  5
80000410
 10
-18.0779
 20
58.8280
 30
0.000000
  70
    32
  0
VERTEX
  8
0
  5
80000411
 10
-18.3100
 20
59.1043
 30
0.000000
  70
    32
  0
VERTEX
  8
0
  5
80000412
 10
-18.5402
 20
59.3848
 30
0.000000
  70
    32
  0
VERTEX
  8
0
  5
80000413
 10
-18.7684
 20
59.6695
 30
0.000000
  70
    32
  0
VERTEX
  8
0
  5
80000414
 10
-18.9948
 20
59.9581
 30
0.000000
  70
    32
  0
VERTEX
  8
0
  5
80000415
 10
-19.2194
 20
60.2507
 30
0.000000
  70
    32
  0
VERTEX
  8
0
  5
80000416
 10
-19.4423
 20
60.5470
 30
0.000000
  70
    32
  0
VERTEX
  8
0
  5
80000417
 10
-19.6634
 20
60.8471
 30
0.000000
  70
    32
  0
VERTEX
  8
0
  5
80000418
 10
-19.8829
 20
61.1507
 30
0.000000
  70
    32
  0
VERTEX
  8
0
  5
80000419
 10
-20.1007
 20
61.4579
 30
0.000000
  70
    32
  0
VERTEX
  8
0
  5
8000041A
 10
-20.3170
 20
61.7685
 30
0.000000
  70
    32
  0
VERTEX
  8
0
  5
8000041B
 10
-20.5317
 20
62.0823
 30
0.000000
  70
    32
  0
VERTEX
  8
0
  5
8000041C
 10
-20.7450
 20
62.3994
 30
0.000000
  70
    32
  0
VERTEX
  8
0
  5
8000041D
 10
-20.9568
 20
62.7196
 30
0.000000
  70
    32
  0
VERTEX
  8
0
  5
8000041E
 10
-21.1673
 20
63.0427
 30
0.000000
  70
    32
  0
VERTEX
  8
0
  5
8000041F
 10
-21.3764
 20
63.3687
 30
0.000000
  70
    32
  0
VERTEX
  8
0
  5
80000420
 10
-21.5843
 20
63.6976
 30
0.000000
  70
    32
  0
VERTEX
  8
0
  5
80000421
 10
-21.7908
 20
64.0291
 30
0.000000
  70
    32
  0
VERTEX
  8
0
  5
80000422
 10
-21.9962
 20
64.3632
 30
0.000000
  70
    32
  0
VERTEX
  8
0
  5
80000423
 10
-22.2005
 20
64.6998
 30
0.000000
  70
    32
  0
VERTEX
  8
0
  5
80000424
 10
-22.4036
 20
65.0387
 30
0.000000
  70
    32
  0
VERTEX
  8
0
  5
80000425
 10
-22.6057
 20
65.3799
 30
0.000000
  70
    32
  0
VERTEX
  8
0
  5
80000426
 10
-22.8068
 20
65.7233
 30
0.000000
  70
    32
  0
VERTEX
  8
0
  5
80000427
 10
-23.0070
 20
66.0688
 30
0.000000
  70
    32
  0
VERTEX
  8
0
  5
80000428
 10
-23.2062
 20
66.4163
 30
0.000000
  70
    32
  0
VERTEX
  8
0
  5
80000429
 10
-23.4045
 20
66.7656
 30
0.000000
  70
    32
  0
VERTEX
  8
0
  5
8000042A
 10
-23.6021
 20
67.1167
 30
0.000000
  70
    32
  0
VERTEX
  8
0
  5
8000042B
 10
-23.7988
 20
67.4695
 30
0.000000
  70
    32
  0
VERTEX
  8
0
  5
8000042C
 10
-23.9949
 20
67.8238
 30
0.000000
  70
    32
  0
VERTEX
  8
0
  5
8000042D
 10
-24.1902
 20
68.1796
 30
0.000000
  70
    32
  0
VERTEX
  8
0
  5
8000042E
 10
-24.3850
 20
68.5367
 30
0.000000
  70
    32
  0
VERTEX
  8
0
  5
8000042F
 10
-24.5791
 20
68.8951
 30
0.000000
  70
    32
  0
VERTEX
  8
0
  5
80000430
 10
-24.7728
 20
69.2547
 30
0.000000
  70
    32
  0
VERTEX
  8
0
  5
80000431
 10
-24.9659
 20
69.6153
 30
0.000000
  70
    32
  0
VERTEX
  8
0
  5
80000432
 10
-25.1586
 20
69.9768
 30
0.000000
  70
    32
  0
VERTEX
  8
0
  5
80000433
 10
-25.3509
 20
70.3393
 30
0.000000
  70
    32
  0
VERTEX
  8
0
  5
80000434
 10
-25.5429
 20
70.7024
 30
0.000000
  70
    32
  0
VERTEX
  8
0
  5
80000435
 10
-25.7345
 20
71.0662
 30
0.000000
  70
    32
  0
VERTEX
  8
0
  5
80000436
 10
-25.9259
 20
71.4306
 30
0.000000
  70
    32
  0
VERTEX
  8
0
  5
80000437
 10
-26.1171
 20
71.7954
 30
0.000000
  70
    32
  0
VERTEX
  8
0
  5
80000438
 10
-26.3082
 20
72.1605
 30
0.000000
  70
    32
  0
VERTEX
  8
0
  5
80000439
 10
-26.4991
 20
72.5259
 30
0.000000
  70
    32
  0
VERTEX
  8
0
  5
8000043A
 10
-26.6900
 20
72.8914
 30
0.000000
  70
    32
  0
VERTEX
  8
0
  5
8000043B
 10
-26.8808
 20
73.2569
 30
0.000000
  70
    32
  0
VERTEX
  8
0
  5
8000043C
 10
-27.0717
 20
73.6224
 30
0.000000
  70
    32
  0
VERTEX
  8
0
  5
8000043D
 10
-27.2627
 20
73.9877
 30
0.000000
  70
    32
  0
VERTEX
  8
0
  5
8000043E
 10
-27.4538
 20
74.3527
 30
0.000000
  70
    32
  0
VERTEX
  8
0
  5
8000043F
 10
-27.6450
 20
74.7174
 30
0.000000
  70
    32
  0
VERTEX
  8
0
  5
80000440
 10
-27.8365
 20
75.0816
 30
0.000000
  70
    32
  0
VERTEX
  8
0
  5
80000441
 10
-28.0283
 20
75.4452
 30
0.000000
  70
    32
  0
VERTEX
  8
0
  5
80000442
 10
-28.2204
 20
75.8081
 30
0.000000
  70
    32
  0
VERTEX
  8
0
  5
80000443
 10
-28.4128
 20
76.1702
 30
0.000000
  70
    32
  0
VERTEX
  8
0
  5
80000444
 10
-28.6056
 20
76.5315
 30
0.000000
  70
    32
  0
VERTEX
  8
0
  5
80000445
 10
-28.7989
 20
76.8917
 30
0.000000
  70
    32
  0
VERTEX
  8
0
  5
80000446
 10
-28.9927
 20
77.2509
 30
0.000000
  70
    32
  0
VERTEX
  8
0
  5
80000447
 10
-29.1871
 20
77.6089
 30
0.000000
  70
    32
  0
VERTEX
  8
0
  5
80000448
 10
-29.3820
 20
77.9656
 30
0.000000
  70
    32
  0
VERTEX
  8
0
  5
80000449
 10
-29.5776
 20
78.3209
 30
0.000000
  70
    32
  0
VERTEX
  8
0
  5
8000044A
 10
-29.7739
 20
78.6747
 30
0.000000
  70
    32
  0
VERTEX
  8
0
  5
8000044B
 10
-29.9709
 20
79.0270
 30
0.000000
  70
    32
  0
VERTEX
  8
0
  5
8000044C
 10
-30.1687
 20
79.3775
 30
0.000000
  70
    32
  0
VERTEX
  8
0
  5
8000044D
 10
-30.3673
 20
79.7262
 30
0.000000
  70
    32
  0
VERTEX
  8
0
  5
8000044E
 10
-30.5668
 20
80.0730
 30
0.000000
  70
    32
  0
VERTEX
  8
0
  5
8000044F
 10
-30.7673
 20
80.4178
 30
0.000000
  70
    32
  0
VERTEX
  8
0
  5
80000450
 10
-30.9687
 20
80.7605
 30
0.000000
  70
    32
  0
VERTEX
  8
0
  5
80000451
 10
-31.1712
 20
81.1010
 30
0.000000
  70
    32
  0
VERTEX
  8
0
  5
80000452
 10
-31.3747
 20
81.4391
 30
0.000000
  70
    32
  0
VERTEX
  8
0
  5
80000453
 10
-31.5793
 20
81.7749
 30
0.000000
  70
    32
  0
VERTEX
  8
0
  5
80000454
 10
-31.7851
 20
82.1081
 30
0.000000
  70
    32
  0
VERTEX
  8
0
  5
80000455
 10
-31.9921
 20
82.4388
 30
0.000000
  70
    32
  0
VERTEX
  8
0
  5
80000456
 10
-32.2003
 20
82.7667
 30
0.000000
  70
    32
  0
VERTEX
  8
0
  5
80000457
 10
-32.4099
 20
83.0918
 30
0.000000
  70
    32
  0
VERTEX
  8
0
  5
80000458
 10
-32.6208
 20
83.4139
 30
0.000000
  70
    32
  0
VERTEX
  8
0
  5
80000459
 10
-32.8331
 20
83.7331
 30
0.000000
  70
    32
  0
VERTEX
  8
0
  5
8000045A
 10
-33.0469
 20
84.0491
 30
0.000000
  70
    32
  0
VERTEX
  8
0
  5
8000045B
 10
-33.2621
 20
84.3618
 30
0.000000
  70
    32
  0
VERTEX
  8
0
  5
8000045C
 10
-33.4789
 20
84.6713
 30
0.000000
  70
    32
  0
VERTEX
  8
0
  5
8000045D
 10
-33.6973
 20
84.9773
 30
0.000000
  70
    32
  0
VERTEX
  8
0
  5
8000045E
 10
-33.9173
 20
85.2798
 30
0.000000
  70
    32
  0
VERTEX
  8
0
  5
8000045F
 10
-34.1390
 20
85.5786
 30
0.000000
  70
    32
  0
VERTEX
  8
0
  5
80000460
 10
-34.3624
 20
85.8737
 30
0.000000
  70
    32
  0
VERTEX
  8
0
  5
80000461
 10
-34.5876
 20
86.1650
 30
0.000000
  70
    32
  0
VERTEX
  8
0
  5
80000462
 10
-34.8147
 20
86.4523
 30
0.000000
  70
    32
  0
VERTEX
  8
0
  5
80000463
 10
-35.0436
 20
86.7356
 30
0.000000
  70
    32
  0
VERTEX
  8
0
  5
80000464
 10
-35.2744
 20
87.0147
 30
0.000000
  70
    32
  0
VERTEX
  8
0
  5
80000465
 10
-35.5071
 20
87.2896
 30
0.000000
  70
    32
  0
VERTEX
  8
0
  5
80000466
 10
-35.7419
 20
87.5601
 30
0.000000
  70
    32
  0
VERTEX
  8
0
  5
80000467
 10
-35.9788
 20
87.8262
 30
0.000000
  70
    32
  0
VERTEX
  8
0
  5
80000468
 10
-36.2177
 20
88.0877
 30
0.000000
  70
    32
  0
VERTEX
  8
0
  5
80000469
 10
-36.4588
 20
88.3445
 30
0.000000
  70
    32
  0
VERTEX
  8
0
  5
8000046A
 10
-36.7021
 20
88.5966
 30
0.000000
  70
    32
  0
VERTEX
  8
0
  5
8000046B
 10
-36.9477
 20
88.8439
 30
0.000000
  70
    32
  0
VERTEX
  8
0
  5
8000046C
 10
-37.1955
 20
89.0861
 30
0.000000
  70
    32
  0
VERTEX
  8
0
  5
8000046D
 10
-37.4457
 20
89.3233
 30
0.000000
  70
    32
  0
VERTEX
  8
0
  5
8000046E
 10
-37.6983
 20
89.5554
 30
0.000000
  70
    32
  0
VERTEX
  8
0
  5
8000046F
 10
-37.9533
 20
89.7821
 30
0.000000
  70
    32
  0
VERTEX
  8
0
  5
80000470
 10
-38.2108
 20
90.0035
 30
0.000000
  70
    32
  0
VERTEX
  8
0
  5
80000471
 10
-38.4709
 20
90.2195
 30
0.000000
  70
    32
  0
VERTEX
  8
0
  5
80000472
 10
-38.7335
 20
90.4298
 30
0.000000
  70
    32
  0
VERTEX
  8
0
  5
80000473
 10
-38.9987
 20
90.6345
 30
0.000000
  70
    32
  0
VERTEX
  8
0
  5
80000474
 10
-39.2666
 20
90.8334
 30
0.000000
  70
    32
  0
VERTEX
  8
0
  5
80000475
 10
-39.5372
 20
91.0264
 30
0.000000
  70
    32
  0
VERTEX
  8
0
  5
80000476
 10
-39.8106
 20
91.2134
 30
0.000000
  70
    32
  0
VERTEX
  8
0
  5
80000477
 10
-40.0868
 20
91.3944
 30
0.000000
  70
    32
  0
VERTEX
  8
0
  5
80000478
 10
-40.3659
 20
91.5691
 30
0.000000
  70
    32
  0
VERTEX
  8
0
  5
80000479
 10
-40.6479
 20
91.7376
 30
0.000000
  70
    32
  0
VERTEX
  8
0
  5
8000047A
 10
-40.9328
 20
91.8997
 30
0.000000
  70
    32
  0
VERTEX
  8
0
  5
8000047B
 10
-41.2207
 20
92.0552
 30
0.000000
  70
    32
  0
VERTEX
  8
0
  5
8000047C
 10
-41.5117
 20
92.2042
 30
0.000000
  70
    32
  0
VERTEX
  8
0
  5
8000047D
 10
-41.8058
 20
92.3465
 30
0.000000
  70
    32
  0
VERTEX
  8
0
  5
8000047E
 10
-42.1030
 20
92.4820
 30
0.000000
  70
    32
  0
VERTEX
  8
0
  5
8000047F
 10
-42.4034
 20
92.6106
 30
0.000000
  70
    32
  0
VERTEX
  8
0
  5
80000480
 10
-42.7071
 20
92.7322
 30
0.000000
  70
    32
  0
VERTEX
  8
0
  5
80000481
 10
-43.0140
 20
92.8467
 30
0.000000
  70
    32
  0
VERTEX
  8
0
  5
80000482
 10
-43.3243
 20
92.9539
 30
0.000000
  70
    32
  0
VERTEX
  8
0
  5
80000483
 10
-43.6379
 20
93.0539
 30
0.000000
  70
    32
  0
VERTEX
  8
0
  5
80000484
 10
-43.9550
 20
93.1465
 30
0.000000
  70
    32
  0
VERTEX
  8
0
  5
80000485
 10
-44.2755
 20
93.2315
 30
0.000000
  70
    32
  0
VERTEX
  8
0
  5
80000486
 10
-44.5996
 20
93.3089
 30
0.000000
  70
    32
  0
VERTEX
  8
0
  5
80000487
 10
-44.9272
 20
93.3786
 30
0.000000
  70
    32
  0
VERTEX
  8
0
  5
80000488
 10
-45.2585
 20
93.4405
 30
0.000000
  70
    32
  0
VERTEX
  8
0
  5
80000489
 10
-45.5934
 20
93.4945
 30
0.000000
  70
    32
  0
VERTEX
  8
0
  5
8000048A
 10
-45.9320
 20
93.5404
 30
0.000000
  70
    32
  0
VERTEX
  8
0
  5
8000048B
 10
-46.2744
 20
93.5783
 30
0.000000
  70
    32
  0
VERTEX
  8
0
  5
8000048C
 10
-46.6206
 20
93.6078
 30
0.000000
  70
    32
  0
VERTEX
  8
0
  5
8000048D
 10
-46.9706
 20
93.6291
 30
0.000000
  70
    32
  0
VERTEX
  8
0
  5
8000048E
 10
-47.3245
 20
93.6419
 30
0.000000
  70
    32
  0
VERTEX
  8
0
  5
8000048F
 10
-47.6824
 20
93.6462
 30
0.000000
  70
    32
  0
SEQEND
  8
0
  5
80000490
  0
ENDBLK
  5
FFBBDAE469BC112C
  8
0
  0
BLOCK
  8
0
  2
*U33
 70
     1
 10
0.0
 20
0.0
 30
0.0
  3
*U33
  1

  0
TEXT
  5
FFBBDAE469BC112E
  8
0
  6
CONTINUOUS
 10
-70.428636656784974
 20
94.574942995001706
 30
0.0
 40
2.0
  1
70 x 19mm 
  7
ARIAL
  0
TEXT
  5
FFBBDAE469BC112F
  8
0
  6
CONTINUOUS
 10
-55.832456574929587
 20
94.607979216011245
 30
0.0
 40
2.0
  1
CLD
  7
ARIAL
  0
TEXT
  5
FFBBDAE469BC1130
  8
0
  6
CONTINUOUS
 10
-50.246200503988263
 20
95.860679216011249
 30
0.0
 40
1.5161999999999991
  1
®
  7
ARIAL
  0
TEXT
  5
FFBBDAE469BC1131
  8
0
  6
CONTINUOUS
 10
-50.243097775475299
 20
95.355279216011255
 30
0.0
 40
1.5161999999999991
  1

  7
ARIAL
  0
TEXT
  5
FFBBDAE469BC1132
  8
0
  6
CONTINUOUS
 10
-77.839314828681296
 20
91.239469279676555
 30
0.0
 40
2.0
  1
Structural Cavity Batten
  7
ARIAL
  0
ENDBLK
  5
FFBBDAE469BC1134
  8
0
  0
BLOCK
  8
0
  2
*U34
 70
     1
 10
0.0
 20
0.0
 30
0.0
  3
*U34
  1

  0
SOLID
  5
FFBBDAE469BC1136
  8
0
  6
CONTINUOUS
 10
-32.463336530610817
 20
48.421481060340248
 30
0.0
 11
-31.608678315637459
 21
46.809166160707257
 31
0.0
 12
-32.94005172968243
 22
48.057142455503872
 32
0.0
 13
-32.94005172968243
 23
48.057142455503872
 33
0.0
  0
POLYLINE
  8
0
  5
80000491
  66
     1
 10
0.000000
 20
0.000000
 30
0.000000
  70
     8
  0
VERTEX
  8
0
  5
80000492
 10
-32.7017
 20
48.2393
 30
0.000000
  70
    32
  0
VERTEX
  8
0
  5
80000493
 10
-32.8930
 20
48.4929
 30
0.000000
  70
    32
  0
VERTEX
  8
0
  5
80000494
 10
-33.0824
 20
48.7503
 30
0.000000
  70
    32
  0
VERTEX
  8
0
  5
80000495
 10
-33.2700
 20
49.0115
 30
0.000000
  70
    32
  0
VERTEX
  8
0
  5
80000496
 10
-33.4557
 20
49.2764
 30
0.000000
  70
    32
  0
VERTEX
  8
0
  5
80000497
 10
-33.6396
 20
49.5449
 30
0.000000
  70
    32
  0
VERTEX
  8
0
  5
80000498
 10
-33.8219
 20
49.8169
 30
0.000000
  70
    32
  0
VERTEX
  8
0
  5
80000499
 10
-34.0024
 20
50.0923
 30
0.000000
  70
    32
  0
VERTEX
  8
0
  5
8000049A
 10
-34.1813
 20
50.3709
 30
0.000000
  70
    32
  0
VERTEX
  8
0
  5
8000049B
 10
-34.3586
 20
50.6528
 30
0.000000
  70
    32
  0
VERTEX
  8
0
  5
8000049C
 10
-34.5344
 20
50.9379
 30
0.000000
  70
    32
  0
VERTEX
  8
0
  5
8000049D
 10
-34.7087
 20
51.2259
 30
0.000000
  70
    32
  0
VERTEX
  8
0
  5
8000049E
 10
-34.8815
 20
51.5169
 30
0.000000
  70
    32
  0
VERTEX
  8
0
  5
8000049F
 10
-35.0529
 20
51.8107
 30
0.000000
  70
    32
  0
VERTEX
  8
0
  5
800004A0
 10
-35.2230
 20
52.1072
 30
0.000000
  70
    32
  0
VERTEX
  8
0
  5
800004A1
 10
-35.3917
 20
52.4065
 30
0.000000
  70
    32
  0
VERTEX
  8
0
  5
800004A2
 10
-35.5592
 20
52.7082
 30
0.000000
  70
    32
  0
VERTEX
  8
0
  5
800004A3
 10
-35.7255
 20
53.0125
 30
0.000000
  70
    32
  0
VERTEX
  8
0
  5
800004A4
 10
-35.8906
 20
53.3191
 30
0.000000
  70
    32
  0
VERTEX
  8
0
  5
800004A5
 10
-36.0546
 20
53.6280
 30
0.000000
  70
    32
  0
VERTEX
  8
0
  5
800004A6
 10
-36.2175
 20
53.9390
 30
0.000000
  70
    32
  0
VERTEX
  8
0
  5
800004A7
 10
-36.3793
 20
54.2522
 30
0.000000
  70
    32
  0
VERTEX
  8
0
  5
800004A8
 10
-36.5402
 20
54.5673
 30
0.000000
  70
    32
  0
VERTEX
  8
0
  5
800004A9
 10
-36.7002
 20
54.8844
 30
0.000000
  70
    32
  0
VERTEX
  8
0
  5
800004AA
 10
-36.8592
 20
55.2033
 30
0.000000
  70
    32
  0
VERTEX
  8
0
  5
800004AB
 10
-37.0174
 20
55.5238
 30
0.000000
  70
    32
  0
VERTEX
  8
0
  5
800004AC
 10
-37.1748
 20
55.8460
 30
0.000000
  70
    32
  0
VERTEX
  8
0
  5
800004AD
 10
-37.3314
 20
56.1698
 30
0.000000
  70
    32
  0
VERTEX
  8
0
  5
800004AE
 10
-37.4873
 20
56.4950
 30
0.000000
  70
    32
  0
VERTEX
  8
0
  5
800004AF
 10
-37.6426
 20
56.8215
 30
0.000000
  70
    32
  0
VERTEX
  8
0
  5
800004B0
 10
-37.7972
 20
57.1492
 30
0.000000
  70
    32
  0
VERTEX
  8
0
  5
800004B1
 10
-37.9513
 20
57.4781
 30
0.000000
  70
    32
  0
VERTEX
  8
0
  5
800004B2
 10
-38.1049
 20
57.8081
 30
0.000000
  70
    32
  0
VERTEX
  8
0
  5
800004B3
 10
-38.2579
 20
58.1390
 30
0.000000
  70
    32
  0
VERTEX
  8
0
  5
800004B4
 10
-38.4106
 20
58.4709
 30
0.000000
  70
    32
  0
VERTEX
  8
0
  5
800004B5
 10
-38.5628
 20
58.8035
 30
0.000000
  70
    32
  0
VERTEX
  8
0
  5
800004B6
 10
-38.7148
 20
59.1367
 30
0.000000
  70
    32
  0
VERTEX
  8
0
  5
800004B7
 10
-38.8664
 20
59.4706
 30
0.000000
  70
    32
  0
VERTEX
  8
0
  5
800004B8
 10
-39.0177
 20
59.8050
 30
0.000000
  70
    32
  0
VERTEX
  8
0
  5
800004B9
 10
-39.1689
 20
60.1398
 30
0.000000
  70
    32
  0
VERTEX
  8
0
  5
800004BA
 10
-39.3199
 20
60.4749
 30
0.000000
  70
    32
  0
VERTEX
  8
0
  5
800004BB
 10
-39.4709
 20
60.8102
 30
0.000000
  70
    32
  0
VERTEX
  8
0
  5
800004BC
 10
-39.6217
 20
61.1456
 30
0.000000
  70
    32
  0
VERTEX
  8
0
  5
800004BD
 10
-39.7725
 20
61.4811
 30
0.000000
  70
    32
  0
VERTEX
  8
0
  5
800004BE
 10
-39.9234
 20
61.8165
 30
0.000000
  70
    32
  0
VERTEX
  8
0
  5
800004BF
 10
-40.0744
 20
62.1517
 30
0.000000
  70
    32
  0
VERTEX
  8
0
  5
800004C0
 10
-40.2254
 20
62.4867
 30
0.000000
  70
    32
  0
VERTEX
  8
0
  5
800004C1
 10
-40.3767
 20
62.8214
 30
0.000000
  70
    32
  0
VERTEX
  8
0
  5
800004C2
 10
-40.5281
 20
63.1556
 30
0.000000
  70
    32
  0
VERTEX
  8
0
  5
800004C3
 10
-40.6798
 20
63.4893
 30
0.000000
  70
    32
  0
VERTEX
  8
0
  5
800004C4
 10
-40.8318
 20
63.8223
 30
0.000000
  70
    32
  0
VERTEX
  8
0
  5
800004C5
 10
-40.9842
 20
64.1547
 30
0.000000
  70
    32
  0
VERTEX
  8
0
  5
800004C6
 10
-41.1370
 20
64.4862
 30
0.000000
  70
    32
  0
VERTEX
  8
0
  5
800004C7
 10
-41.2902
 20
64.8168
 30
0.000000
  70
    32
  0
VERTEX
  8
0
  5
800004C8
 10
-41.4439
 20
65.1465
 30
0.000000
  70
    32
  0
VERTEX
  8
0
  5
800004C9
 10
-41.5982
 20
65.4750
 30
0.000000
  70
    32
  0
VERTEX
  8
0
  5
800004CA
 10
-41.7530
 20
65.8024
 30
0.000000
  70
    32
  0
VERTEX
  8
0
  5
800004CB
 10
-41.9085
 20
66.1284
 30
0.000000
  70
    32
  0
VERTEX
  8
0
  5
800004CC
 10
-42.0647
 20
66.4531
 30
0.000000
  70
    32
  0
VERTEX
  8
0
  5
800004CD
 10
-42.2216
 20
66.7764
 30
0.000000
  70
    32
  0
VERTEX
  8
0
  5
800004CE
 10
-42.3792
 20
67.0981
 30
0.000000
  70
    32
  0
VERTEX
  8
0
  5
800004CF
 10
-42.5377
 20
67.4181
 30
0.000000
  70
    32
  0
VERTEX
  8
0
  5
800004D0
 10
-42.6970
 20
67.7363
 30
0.000000
  70
    32
  0
VERTEX
  8
0
  5
800004D1
 10
-42.8573
 20
68.0528
 30
0.000000
  70
    32
  0
VERTEX
  8
0
  5
800004D2
 10
-43.0185
 20
68.3673
 30
0.000000
  70
    32
  0
VERTEX
  8
0
  5
800004D3
 10
-43.1807
 20
68.6798
 30
0.000000
  70
    32
  0
VERTEX
  8
0
  5
800004D4
 10
-43.3439
 20
68.9901
 30
0.000000
  70
    32
  0
VERTEX
  8
0
  5
800004D5
 10
-43.5083
 20
69.2982
 30
0.000000
  70
    32
  0
VERTEX
  8
0
  5
800004D6
 10
-43.6737
 20
69.6041
 30
0.000000
  70
    32
  0
VERTEX
  8
0
  5
800004D7
 10
-43.8404
 20
69.9075
 30
0.000000
  70
    32
  0
VERTEX
  8
0
  5
800004D8
 10
-44.0083
 20
70.2084
 30
0.000000
  70
    32
  0
VERTEX
  8
0
  5
800004D9
 10
-44.1775
 20
70.5068
 30
0.000000
  70
    32
  0
VERTEX
  8
0
  5
800004DA
 10
-44.3480
 20
70.8024
 30
0.000000
  70
    32
  0
VERTEX
  8
0
  5
800004DB
 10
-44.5199
 20
71.0953
 30
0.000000
  70
    32
  0
VERTEX
  8
0
  5
800004DC
 10
-44.6932
 20
71.3853
 30
0.000000
  70
    32
  0
VERTEX
  8
0
  5
800004DD
 10
-44.8680
 20
71.6723
 30
0.000000
  70
    32
  0
VERTEX
  8
0
  5
800004DE
 10
-45.0443
 20
71.9563
 30
0.000000
  70
    32
  0
VERTEX
  8
0
  5
800004DF
 10
-45.2221
 20
72.2372
 30
0.000000
  70
    32
  0
VERTEX
  8
0
  5
800004E0
 10
-45.4016
 20
72.5148
 30
0.000000
  70
    32
  0
VERTEX
  8
0
  5
800004E1
 10
-45.5827
 20
72.7890
 30
0.000000
  70
    32
  0
VERTEX
  8
0
  5
800004E2
 10
-45.7655
 20
73.0598
 30
0.000000
  70
    32
  0
VERTEX
  8
0
  5
800004E3
 10
-45.9500
 20
73.3271
 30
0.000000
  70
    32
  0
VERTEX
  8
0
  5
800004E4
 10
-46.1363
 20
73.5908
 30
0.000000
  70
    32
  0
VERTEX
  8
0
  5
800004E5
 10
-46.3245
 20
73.8508
 30
0.000000
  70
    32
  0
VERTEX
  8
0
  5
800004E6
 10
-46.5145
 20
74.1069
 30
0.000000
  70
    32
  0
VERTEX
  8
0
  5
800004E7
 10
-46.7065
 20
74.3592
 30
0.000000
  70
    32
  0
VERTEX
  8
0
  5
800004E8
 10
-46.9004
 20
74.6074
 30
0.000000
  70
    32
  0
VERTEX
  8
0
  5
800004E9
 10
-47.0964
 20
74.8516
 30
0.000000
  70
    32
  0
VERTEX
  8
0
  5
800004EA
 10
-47.2944
 20
75.0916
 30
0.000000
  70
    32
  0
VERTEX
  8
0
  5
800004EB
 10
-47.4946
 20
75.3273
 30
0.000000
  70
    32
  0
VERTEX
  8
0
  5
800004EC
 10
-47.6969
 20
75.5587
 30
0.000000
  70
    32
  0
VERTEX
  8
0
  5
800004ED
 10
-47.9014
 20
75.7856
 30
0.000000
  70
    32
  0
VERTEX
  8
0
  5
800004EE
 10
-48.1081
 20
76.0079
 30
0.000000
  70
    32
  0
VERTEX
  8
0
  5
800004EF
 10
-48.3172
 20
76.2256
 30
0.000000
  70
    32
  0
VERTEX
  8
0
  5
800004F0
 10
-48.5286
 20
76.4386
 30
0.000000
  70
    32
  0
VERTEX
  8
0
  5
800004F1
 10
-48.7424
 20
76.6467
 30
0.000000
  70
    32
  0
VERTEX
  8
0
  5
800004F2
 10
-48.9586
 20
76.8499
 30
0.000000
  70
    32
  0
VERTEX
  8
0
  5
800004F3
 10
-49.1773
 20
77.0480
 30
0.000000
  70
    32
  0
VERTEX
  8
0
  5
800004F4
 10
-49.3986
 20
77.2411
 30
0.000000
  70
    32
  0
VERTEX
  8
0
  5
800004F5
 10
-49.6224
 20
77.4289
 30
0.000000
  70
    32
  0
VERTEX
  8
0
  5
800004F6
 10
-49.8488
 20
77.6114
 30
0.000000
  70
    32
  0
VERTEX
  8
0
  5
800004F7
 10
-50.0779
 20
77.7886
 30
0.000000
  70
    32
  0
VERTEX
  8
0
  5
800004F8
 10
-50.3097
 20
77.9602
 30
0.000000
  70
    32
  0
VERTEX
  8
0
  5
800004F9
 10
-50.5443
 20
78.1262
 30
0.000000
  70
    32
  0
VERTEX
  8
0
  5
800004FA
 10
-50.7817
 20
78.2866
 30
0.000000
  70
    32
  0
VERTEX
  8
0
  5
800004FB
 10
-51.0220
 20
78.4412
 30
0.000000
  70
    32
  0
VERTEX
  8
0
  5
800004FC
 10
-51.2651
 20
78.5900
 30
0.000000
  70
    32
  0
VERTEX
  8
0
  5
800004FD
 10
-51.5112
 20
78.7328
 30
0.000000
  70
    32
  0
VERTEX
  8
0
  5
800004FE
 10
-51.7603
 20
78.8695
 30
0.000000
  70
    32
  0
VERTEX
  8
0
  5
800004FF
 10
-52.0124
 20
79.0001
 30
0.000000
  70
    32
  0
VERTEX
  8
0
  5
80000500
 10
-52.2676
 20
79.1244
 30
0.000000
  70
    32
  0
VERTEX
  8
0
  5
80000501
 10
-52.5259
 20
79.2424
 30
0.000000
  70
    32
  0
VERTEX
  8
0
  5
80000502
 10
-52.7874
 20
79.3540
 30
0.000000
  70
    32
  0
VERTEX
  8
0
  5
80000503
 10
-53.0522
 20
79.4591
 30
0.000000
  70
    32
  0
VERTEX
  8
0
  5
80000504
 10
-53.3202
 20
79.5575
 30
0.000000
  70
    32
  0
VERTEX
  8
0
  5
80000505
 10
-53.5915
 20
79.6492
 30
0.000000
  70
    32
  0
VERTEX
  8
0
  5
80000506
 10
-53.8662
 20
79.7342
 30
0.000000
  70
    32
  0
VERTEX
  8
0
  5
80000507
 10
-54.1443
 20
79.8122
 30
0.000000
  70
    32
  0
VERTEX
  8
0
  5
80000508
 10
-54.4258
 20
79.8833
 30
0.000000
  70
    32
  0
VERTEX
  8
0
  5
80000509
 10
-54.7108
 20
79.9473
 30
0.000000
  70
    32
  0
VERTEX
  8
0
  5
8000050A
 10
-54.9994
 20
80.0041
 30
0.000000
  70
    32
  0
VERTEX
  8
0
  5
8000050B
 10
-55.2916
 20
80.0536
 30
0.000000
  70
    32
  0
VERTEX
  8
0
  5
8000050C
 10
-55.5874
 20
80.0958
 30
0.000000
  70
    32
  0
VERTEX
  8
0
  5
8000050D
 10
-55.8870
 20
80.1305
 30
0.000000
  70
    32
  0
VERTEX
  8
0
  5
8000050E
 10
-56.1902
 20
80.1576
 30
0.000000
  70
    32
  0
VERTEX
  8
0
  5
8000050F
 10
-56.4972
 20
80.1771
 30
0.000000
  70
    32
  0
VERTEX
  8
0
  5
80000510
 10
-56.8081
 20
80.1889
 30
0.000000
  70
    32
  0
VERTEX
  8
0
  5
80000511
 10
-57.1228
 20
80.1929
 30
0.000000
  70
    32
  0
SEQEND
  8
0
  5
80000512
  0
ENDBLK
  5
FFBBDAE469BC1139
  8
0
  0
BLOCK
  8
0
  2
*U35
 70
     1
 10
0.0
 20
0.0
 30
0.0
  3
*U35
  1

  0
TEXT
  5
FFBBDAE469BC113B
  8
0
  6
CONTINUOUS
 10
-78.667133798766969
 20
79.48685451971771
 30
0.0
 40
2.0
  1
EasyLap
  7
ARIAL
  0
TEXT
  5
FFBBDAE469BC113C
  8
0
  6
CONTINUOUS
 10
-67.826751806952515
 20
80.653521186384381
 30
0.0
 40
1.0
  1
TM
  7
ARIAL
  0
TEXT
  5
FFBBDAE469BC113D
  8
0
  6
CONTINUOUS
 10
-67.794009651427274
 20
80.320187853051053
 30
0.0
 40
1.0
  1

  7
ARIAL
  0
TEXT
  5
FFBBDAE469BC113E
  8
0
  6
CONTINUOUS
 10
-65.848579910636005
 20
79.48685451971771
 30
0.0
 40
2.0
  1
 Panel
  7
ARIAL
  0
ENDBLK
  5
FFBBDAE469BC1140
  8
0
  0
BLOCK
  8
0
  2
*U36
 70
     1
 10
0.0
 20
0.0
 30
0.0
  3
*U36
  1

  0
SOLID
  5
FFBBDAE469BC1142
  8
0
  6
CONTINUOUS
 10
-26.86575912413436
 20
30.84911642219366
 30
0.0
 11
-26.000000000000909
 21
29.24273504189205
 31
0.0
 12
-27.33994988941415
 22
30.481498253269208
 32
0.0
 13
-27.33994988941415
 23
30.481498253269208
 33
0.0
  0
POLYLINE
  8
0
  5
80000513
  66
     1
 10
0.000000
 20
0.000000
 30
0.000000
  70
     8
  0
VERTEX
  8
0
  5
80000514
 10
-27.1029
 20
30.6653
 30
0.000000
  70
    32
  0
VERTEX
  8
0
  5
80000515
 10
-27.2329
 20
30.8353
 30
0.000000
  70
    32
  0
VERTEX
  8
0
  5
80000516
 10
-27.3618
 20
31.0078
 30
0.000000
  70
    32
  0
VERTEX
  8
0
  5
80000517
 10
-27.4893
 20
31.1829
 30
0.000000
  70
    32
  0
VERTEX
  8
0
  5
80000518
 10
-27.6157
 20
31.3604
 30
0.000000
  70
    32
  0
VERTEX
  8
0
  5
80000519
 10
-27.7409
 20
31.5404
 30
0.000000
  70
    32
  0
VERTEX
  8
0
  5
8000051A
 10
-27.8649
 20
31.7226
 30
0.000000
  70
    32
  0
VERTEX
  8
0
  5
8000051B
 10
-27.9879
 20
31.9072
 30
0.000000
  70
    32
  0
VERTEX
  8
0
  5
8000051C
 10
-28.1097
 20
32.0940
 30
0.000000
  70
    32
  0
VERTEX
  8
0
  5
8000051D
 10
-28.2305
 20
32.2829
 30
0.000000
  70
    32
  0
VERTEX
  8
0
  5
8000051E
 10
-28.3502
 20
32.4740
 30
0.000000
  70
    32
  0
VERTEX
  8
0
  5
8000051F
 10
-28.4690
 20
32.6670
 30
0.000000
  70
    32
  0
VERTEX
  8
0
  5
80000520
 10
-28.5868
 20
32.8620
 30
0.000000
  70
    32
  0
VERTEX
  8
0
  5
80000521
 10
-28.7037
 20
33.0590
 30
0.000000
  70
    32
  0
VERTEX
  8
0
  5
80000522
 10
-28.8196
 20
33.2577
 30
0.000000
  70
    32
  0
VERTEX
  8
0
  5
80000523
 10
-28.9347
 20
33.4583
 30
0.000000
  70
    32
  0
VERTEX
  8
0
  5
80000524
 10
-29.0490
 20
33.6605
 30
0.000000
  70
    32
  0
VERTEX
  8
0
  5
80000525
 10
-29.1624
 20
33.8644
 30
0.000000
  70
    32
  0
VERTEX
  8
0
  5
80000526
 10
-29.2751
 20
34.0699
 30
0.000000
  70
    32
  0
VERTEX
  8
0
  5
80000527
 10
-29.3870
 20
34.2769
 30
0.000000
  70
    32
  0
VERTEX
  8
0
  5
80000528
 10
-29.4982
 20
34.4854
 30
0.000000
  70
    32
  0
VERTEX
  8
0
  5
80000529
 10
-29.6087
 20
34.6953
 30
0.000000
  70
    32
  0
VERTEX
  8
0
  5
8000052A
 10
-29.7186
 20
34.9066
 30
0.000000
  70
    32
  0
VERTEX
  8
0
  5
8000052B
 10
-29.8278
 20
35.1191
 30
0.000000
  70
    32
  0
VERTEX
  8
0
  5
8000052C
 10
-29.9365
 20
35.3328
 30
0.000000
  70
    32
  0
VERTEX
  8
0
  5
8000052D
 10
-30.0445
 20
35.5476
 30
0.000000
  70
    32
  0
VERTEX
  8
0
  5
8000052E
 10
-30.1521
 20
35.7636
 30
0.000000
  70
    32
  0
VERTEX
  8
0
  5
8000052F
 10
-30.2591
 20
35.9806
 30
0.000000
  70
    32
  0
VERTEX
  8
0
  5
80000530
 10
-30.3657
 20
36.1985
 30
0.000000
  70
    32
  0
VERTEX
  8
0
  5
80000531
 10
-30.4718
 20
36.4173
 30
0.000000
  70
    32
  0
VERTEX
  8
0
  5
80000532
 10
-30.5775
 20
36.6370
 30
0.000000
  70
    32
  0
VERTEX
  8
0
  5
80000533
 10
-30.6829
 20
36.8575
 30
0.000000
  70
    32
  0
VERTEX
  8
0
  5
80000534
 10
-30.7879
 20
37.0786
 30
0.000000
  70
    32
  0
VERTEX
  8
0
  5
80000535
 10
-30.8925
 20
37.3004
 30
0.000000
  70
    32
  0
VERTEX
  8
0
  5
80000536
 10
-30.9969
 20
37.5228
 30
0.000000
  70
    32
  0
VERTEX
  8
0
  5
80000537
 10
-31.1011
 20
37.7457
 30
0.000000
  70
    32
  0
VERTEX
  8
0
  5
80000538
 10
-31.2050
 20
37.9691
 30
0.000000
  70
    32
  0
VERTEX
  8
0
  5
80000539
 10
-31.3087
 20
38.1929
 30
0.000000
  70
    32
  0
VERTEX
  8
0
  5
8000053A
 10
-31.4122
 20
38.4170
 30
0.000000
  70
    32
  0
VERTEX
  8
0
  5
8000053B
 10
-31.5156
 20
38.6414
 30
0.000000
  70
    32
  0
VERTEX
  8
0
  5
8000053C
 10
-31.6189
 20
38.8660
 30
0.000000
  70
    32
  0
VERTEX
  8
0
  5
8000053D
 10
-31.7222
 20
39.0907
 30
0.000000
  70
    32
  0
VERTEX
  8
0
  5
8000053E
 10
-31.8254
 20
39.3155
 30
0.000000
  70
    32
  0
VERTEX
  8
0
  5
8000053F
 10
-31.9286
 20
39.5404
 30
0.000000
  70
    32
  0
VERTEX
  8
0
  5
80000540
 10
-32.0318
 20
39.7652
 30
0.000000
  70
    32
  0
VERTEX
  8
0
  5
80000541
 10
-32.1350
 20
39.9898
 30
0.000000
  70
    32
  0
VERTEX
  8
0
  5
80000542
 10
-32.2384
 20
40.2144
 30
0.000000
  70
    32
  0
VERTEX
  8
0
  5
80000543
 10
-32.3418
 20
40.4387
 30
0.000000
  70
    32
  0
VERTEX
  8
0
  5
80000544
 10
-32.4454
 20
40.6627
 30
0.000000
  70
    32
  0
VERTEX
  8
0
  5
80000545
 10
-32.5492
 20
40.8863
 30
0.000000
  70
    32
  0
VERTEX
  8
0
  5
80000546
 10
-32.6532
 20
41.1095
 30
0.000000
  70
    32
  0
VERTEX
  8
0
  5
80000547
 10
-32.7574
 20
41.3323
 30
0.000000
  70
    32
  0
VERTEX
  8
0
  5
80000548
 10
-32.8619
 20
41.5545
 30
0.000000
  70
    32
  0
VERTEX
  8
0
  5
80000549
 10
-32.9667
 20
41.7761
 30
0.000000
  70
    32
  0
VERTEX
  8
0
  5
8000054A
 10
-33.0718
 20
41.9970
 30
0.000000
  70
    32
  0
VERTEX
  8
0
  5
8000054B
 10
-33.1772
 20
42.2172
 30
0.000000
  70
    32
  0
VERTEX
  8
0
  5
8000054C
 10
-33.2831
 20
42.4366
 30
0.000000
  70
    32
  0
VERTEX
  8
0
  5
8000054D
 10
-33.3893
 20
42.6552
 30
0.000000
  70
    32
  0
VERTEX
  8
0
  5
8000054E
 10
-33.4961
 20
42.8728
 30
0.000000
  70
    32
  0
VERTEX
  8
0
  5
8000054F
 10
-33.6033
 20
43.0894
 30
0.000000
  70
    32
  0
VERTEX
  8
0
  5
80000550
 10
-33.7110
 20
43.3050
 30
0.000000
  70
    32
  0
VERTEX
  8
0
  5
80000551
 10
-33.8192
 20
43.5195
 30
0.000000
  70
    32
  0
VERTEX
  8
0
  5
80000552
 10
-33.9281
 20
43.7328
 30
0.000000
  70
    32
  0
VERTEX
  8
0
  5
80000553
 10
-34.0375
 20
43.9449
 30
0.000000
  70
    32
  0
VERTEX
  8
0
  5
80000554
 10
-34.1476
 20
44.1557
 30
0.000000
  70
    32
  0
VERTEX
  8
0
  5
80000555
 10
-34.2583
 20
44.3651
 30
0.000000
  70
    32
  0
VERTEX
  8
0
  5
80000556
 10
-34.3698
 20
44.5732
 30
0.000000
  70
    32
  0
VERTEX
  8
0
  5
80000557
 10
-34.4819
 20
44.7797
 30
0.000000
  70
    32
  0
VERTEX
  8
0
  5
80000558
 10
-34.5949
 20
44.9847
 30
0.000000
  70
    32
  0
VERTEX
  8
0
  5
80000559
 10
-34.7086
 20
45.1880
 30
0.000000
  70
    32
  0
VERTEX
  8
0
  5
8000055A
 10
-34.8231
 20
45.3897
 30
0.000000
  70
    32
  0
VERTEX
  8
0
  5
8000055B
 10
-34.9385
 20
45.5897
 30
0.000000
  70
    32
  0
VERTEX
  8
0
  5
8000055C
 10
-35.0548
 20
45.7878
 30
0.000000
  70
    32
  0
VERTEX
  8
0
  5
8000055D
 10
-35.1719
 20
45.9841
 30
0.000000
  70
    32
  0
VERTEX
  8
0
  5
8000055E
 10
-35.2900
 20
46.1785
 30
0.000000
  70
    32
  0
VERTEX
  8
0
  5
8000055F
 10
-35.4091
 20
46.3709
 30
0.000000
  70
    32
  0
VERTEX
  8
0
  5
80000560
 10
-35.5292
 20
46.5612
 30
0.000000
  70
    32
  0
VERTEX
  8
0
  5
80000561
 10
-35.6504
 20
46.7494
 30
0.000000
  70
    32
  0
VERTEX
  8
0
  5
80000562
 10
-35.7726
 20
46.9355
 30
0.000000
  70
    32
  0
VERTEX
  8
0
  5
80000563
 10
-35.8959
 20
47.1193
 30
0.000000
  70
    32
  0
VERTEX
  8
0
  5
80000564
 10
-36.0203
 20
47.3008
 30
0.000000
  70
    32
  0
VERTEX
  8
0
  5
80000565
 10
-36.1459
 20
47.4800
 30
0.000000
  70
    32
  0
VERTEX
  8
0
  5
80000566
 10
-36.2726
 20
47.6567
 30
0.000000
  70
    32
  0
VERTEX
  8
0
  5
80000567
 10
-36.4006
 20
47.8309
 30
0.000000
  70
    32
  0
VERTEX
  8
0
  5
80000568
 10
-36.5298
 20
48.0026
 30
0.000000
  70
    32
  0
VERTEX
  8
0
  5
80000569
 10
-36.6604
 20
48.1717
 30
0.000000
  70
    32
  0
VERTEX
  8
0
  5
8000056A
 10
-36.7922
 20
48.3381
 30
0.000000
  70
    32
  0
VERTEX
  8
0
  5
8000056B
 10
-36.9254
 20
48.5017
 30
0.000000
  70
    32
  0
VERTEX
  8
0
  5
8000056C
 10
-37.0599
 20
48.6626
 30
0.000000
  70
    32
  0
VERTEX
  8
0
  5
8000056D
 10
-37.1959
 20
48.8206
 30
0.000000
  70
    32
  0
VERTEX
  8
0
  5
8000056E
 10
-37.3332
 20
48.9756
 30
0.000000
  70
    32
  0
VERTEX
  8
0
  5
8000056F
 10
-37.4721
 20
49.1277
 30
0.000000
  70
    32
  0
VERTEX
  8
0
  5
80000570
 10
-37.6124
 20
49.2767
 30
0.000000
  70
    32
  0
VERTEX
  8
0
  5
80000571
 10
-37.7543
 20
49.4226
 30
0.000000
  70
    32
  0
VERTEX
  8
0
  5
80000572
 10
-37.8977
 20
49.5654
 30
0.000000
  70
    32
  0
VERTEX
  8
0
  5
80000573
 10
-38.0427
 20
49.7048
 30
0.000000
  70
    32
  0
VERTEX
  8
0
  5
80000574
 10
-38.1894
 20
49.8410
 30
0.000000
  70
    32
  0
VERTEX
  8
0
  5
80000575
 10
-38.3377
 20
49.9738
 30
0.000000
  70
    32
  0
VERTEX
  8
0
  5
80000576
 10
-38.4876
 20
50.1032
 30
0.000000
  70
    32
  0
VERTEX
  8
0
  5
80000577
 10
-38.6393
 20
50.2291
 30
0.000000
  70
    32
  0
VERTEX
  8
0
  5
80000578
 10
-38.7927
 20
50.3514
 30
0.000000
  70
    32
  0
VERTEX
  8
0
  5
80000579
 10
-38.9479
 20
50.4702
 30
0.000000
  70
    32
  0
VERTEX
  8
0
  5
8000057A
 10
-39.1049
 20
50.5852
 30
0.000000
  70
    32
  0
VERTEX
  8
0
  5
8000057B
 10
-39.2638
 20
50.6965
 30
0.000000
  70
    32
  0
VERTEX
  8
0
  5
8000057C
 10
-39.4245
 20
50.8040
 30
0.000000
  70
    32
  0
VERTEX
  8
0
  5
8000057D
 10
-39.5870
 20
50.9076
 30
0.000000
  70
    32
  0
VERTEX
  8
0
  5
8000057E
 10
-39.7516
 20
51.0073
 30
0.000000
  70
    32
  0
VERTEX
  8
0
  5
8000057F
 10
-39.9180
 20
51.1030
 30
0.000000
  70
    32
  0
VERTEX
  8
0
  5
80000580
 10
-40.0865
 20
51.1946
 30
0.000000
  70
    32
  0
VERTEX
  8
0
  5
80000581
 10
-40.2570
 20
51.2822
 30
0.000000
  70
    32
  0
VERTEX
  8
0
  5
80000582
 10
-40.4295
 20
51.3655
 30
0.000000
  70
    32
  0
VERTEX
  8
0
  5
80000583
 10
-40.6041
 20
51.4446
 30
0.000000
  70
    32
  0
VERTEX
  8
0
  5
80000584
 10
-40.7809
 20
51.5194
 30
0.000000
  70
    32
  0
VERTEX
  8
0
  5
80000585
 10
-40.9597
 20
51.5898
 30
0.000000
  70
    32
  0
VERTEX
  8
0
  5
80000586
 10
-41.1408
 20
51.6558
 30
0.000000
  70
    32
  0
VERTEX
  8
0
  5
80000587
 10
-41.3240
 20
51.7173
 30
0.000000
  70
    32
  0
VERTEX
  8
0
  5
80000588
 10
-41.5095
 20
51.7742
 30
0.000000
  70
    32
  0
VERTEX
  8
0
  5
80000589
 10
-41.6972
 20
51.8265
 30
0.000000
  70
    32
  0
VERTEX
  8
0
  5
8000058A
 10
-41.8872
 20
51.8741
 30
0.000000
  70
    32
  0
VERTEX
  8
0
  5
8000058B
 10
-42.0796
 20
51.9170
 30
0.000000
  70
    32
  0
VERTEX
  8
0
  5
8000058C
 10
-42.2743
 20
51.9551
 30
0.000000
  70
    32
  0
VERTEX
  8
0
  5
8000058D
 10
-42.4714
 20
51.9883
 30
0.000000
  70
    32
  0
VERTEX
  8
0
  5
8000058E
 10
-42.6709
 20
52.0165
 30
0.000000
  70
    32
  0
VERTEX
  8
0
  5
8000058F
 10
-42.8729
 20
52.0398
 30
0.000000
  70
    32
  0
VERTEX
  8
0
  5
80000590
 10
-43.0774
 20
52.0580
 30
0.000000
  70
    32
  0
VERTEX
  8
0
  5
80000591
 10
-43.2843
 20
52.0711
 30
0.000000
  70
    32
  0
VERTEX
  8
0
  5
80000592
 10
-43.4938
 20
52.0790
 30
0.000000
  70
    32
  0
VERTEX
  8
0
  5
80000593
 10
-43.7059
 20
52.0816
 30
0.000000
  70
    32
  0
SEQEND
  8
0
  5
80000594
  0
ENDBLK
  5
FFBBDAE469BC1145
  8
0
  0
BLOCK
  8
0
  2
*U37
 70
     1
 10
0.0
 20
0.0
 30
0.0
  3
*U37
  1

  0
TEXT
  5
FFBBDAE469BC1147
  8
0
  6
CONTINUOUS
 10
-72.790502163559395
 20
56.12798802355077
 30
0.0
 40
2.0
  1
Apply continuous 6mm
  7
ARIAL
  0
TEXT
  5
FFBBDAE469BC1148
  8
0
  6
CONTINUOUS
 10
-75.340297525087394
 20
52.760548278211978
 30
0.0
 40
2.0
  1
bead of Seal n Flex -1 or
  7
ARIAL
  0
TEXT
  5
FFBBDAE469BC1149
  8
0
  6
CONTINUOUS
 10
-73.941934632863635
 20
49.393108532873178
 30
0.0
 40
2.0
  1
Sikaflex 11FC adhesive
  7
ARIAL
  0
TEXT
  5
FFBBDAE469BC114A
  8
0
  6
CONTINUOUS
 10
-53.69500420994413
 20
46.059775199539843
 30
0.0
 40
2.0
  1
sealant
  7
ARIAL
  0
ENDBLK
  5
FFBBDAE469BC114C
  8
0
  0
BLOCK
  8
0
  2
*U38
 70
     1
 10
0.0
 20
0.0
 30
0.0
  3
*U38
  1

  0
SOLID
  5
FFBBDAE469BC114E
  8
0
  6
CONTINUOUS
 10
-36.133059867791779
 20
24.430445852173978
 30
0.0
 11
-35.000000000000909
 21
23.0
 31
0.0
 12
-36.53574177294059
 22
23.985645578718891
 32
0.0
 13
-36.53574177294059
 23
23.985645578718891
 33
0.0
  0
POLYLINE
  8
0
  5
80000595
  66
     1
 10
0.000000
 20
0.000000
 30
0.000000
  70
     8
  0
VERTEX
  8
0
  5
80000596
 10
-36.3344
 20
24.2080
 30
0.000000
  70
    32
  0
VERTEX
  8
0
  5
80000597
 10
-36.4547
 20
24.3181
 30
0.000000
  70
    32
  0
VERTEX
  8
0
  5
80000598
 10
-36.5743
 20
24.4298
 30
0.000000
  70
    32
  0
VERTEX
  8
0
  5
80000599
 10
-36.6933
 20
24.5432
 30
0.000000
  70
    32
  0
VERTEX
  8
0
  5
8000059A
 10
-36.8117
 20
24.6582
 30
0.000000
  70
    32
  0
VERTEX
  8
0
  5
8000059B
 10
-36.9295
 20
24.7747
 30
0.000000
  70
    32
  0
VERTEX
  8
0
  5
8000059C
 10
-37.0467
 20
24.8927
 30
0.000000
  70
    32
  0
VERTEX
  8
0
  5
8000059D
 10
-37.1634
 20
25.0122
 30
0.000000
  70
    32
  0
VERTEX
  8
0
  5
8000059E
 10
-37.2795
 20
25.1332
 30
0.000000
  70
    32
  0
VERTEX
  8
0
  5
8000059F
 10
-37.3950
 20
25.2555
 30
0.000000
  70
    32
  0
VERTEX
  8
0
  5
800005A0
 10
-37.5101
 20
25.3792
 30
0.000000
  70
    32
  0
VERTEX
  8
0
  5
800005A1
 10
-37.6246
 20
25.5042
 30
0.000000
  70
    32
  0
VERTEX
  8
0
  5
800005A2
 10
-37.7386
 20
25.6305
 30
0.000000
  70
    32
  0
VERTEX
  8
0
  5
800005A3
 10
-37.8522
 20
25.7580
 30
0.000000
  70
    32
  0
VERTEX
  8
0
  5
800005A4
 10
-37.9653
 20
25.8868
 30
0.000000
  70
    32
  0
VERTEX
  8
0
  5
800005A5
 10
-38.0779
 20
26.0166
 30
0.000000
  70
    32
  0
VERTEX
  8
0
  5
800005A6
 10
-38.1901
 20
26.1476
 30
0.000000
  70
    32
  0
VERTEX
  8
0
  5
800005A7
 10
-38.3020
 20
26.2796
 30
0.000000
  70
    32
  0
VERTEX
  8
0
  5
800005A8
 10
-38.4134
 20
26.4127
 30
0.000000
  70
    32
  0
VERTEX
  8
0
  5
800005A9
 10
-38.5244
 20
26.5467
 30
0.000000
  70
    32
  0
VERTEX
  8
0
  5
800005AA
 10
-38.6351
 20
26.6818
 30
0.000000
  70
    32
  0
VERTEX
  8
0
  5
800005AB
 10
-38.7454
 20
26.8177
 30
0.000000
  70
    32
  0
VERTEX
  8
0
  5
800005AC
 10
-38.8554
 20
26.9544
 30
0.000000
  70
    32
  0
VERTEX
  8
0
  5
800005AD
 10
-38.9651
 20
27.0920
 30
0.000000
  70
    32
  0
VERTEX
  8
0
  5
800005AE
 10
-39.0744
 20
27.2304
 30
0.000000
  70
    32
  0
VERTEX
  8
0
  5
800005AF
 10
-39.1835
 20
27.3696
 30
0.000000
  70
    32
  0
VERTEX
  8
0
  5
800005B0
 10
-39.2923
 20
27.5094
 30
0.000000
  70
    32
  0
VERTEX
  8
0
  5
800005B1
 10
-39.4009
 20
27.6499
 30
0.000000
  70
    32
  0
VERTEX
  8
0
  5
800005B2
 10
-39.5092
 20
27.7910
 30
0.000000
  70
    32
  0
VERTEX
  8
0
  5
800005B3
 10
-39.6173
 20
27.9327
 30
0.000000
  70
    32
  0
VERTEX
  8
0
  5
800005B4
 10
-39.7252
 20
28.0750
 30
0.000000
  70
    32
  0
VERTEX
  8
0
  5
800005B5
 10
-39.8328
 20
28.2177
 30
0.000000
  70
    32
  0
VERTEX
  8
0
  5
800005B6
 10
-39.9404
 20
28.3610
 30
0.000000
  70
    32
  0
VERTEX
  8
0
  5
800005B7
 10
-40.0477
 20
28.5046
 30
0.000000
  70
    32
  0
VERTEX
  8
0
  5
800005B8
 10
-40.1549
 20
28.6486
 30
0.000000
  70
    32
  0
VERTEX
  8
0
  5
800005B9
 10
-40.2620
 20
28.7929
 30
0.000000
  70
    32
  0
VERTEX
  8
0
  5
800005BA
 10
-40.3689
 20
28.9376
 30
0.000000
  70
    32
  0
VERTEX
  8
0
  5
800005BB
 10
-40.4758
 20
29.0825
 30
0.000000
  70
    32
  0
VERTEX
  8
0
  5
800005BC
 10
-40.5826
 20
29.2276
 30
0.000000
  70
    32
  0
VERTEX
  8
0
  5
800005BD
 10
-40.6893
 20
29.3729
 30
0.000000
  70
    32
  0
VERTEX
  8
0
  5
800005BE
 10
-40.7959
 20
29.5183
 30
0.000000
  70
    32
  0
VERTEX
  8
0
  5
800005BF
 10
-40.9025
 20
29.6639
 30
0.000000
  70
    32
  0
VERTEX
  8
0
  5
800005C0
 10
-41.0091
 20
29.8094
 30
0.000000
  70
    32
  0
VERTEX
  8
0
  5
800005C1
 10
-41.1157
 20
29.9550
 30
0.000000
  70
    32
  0
VERTEX
  8
0
  5
800005C2
 10
-41.2223
 20
30.1006
 30
0.000000
  70
    32
  0
VERTEX
  8
0
  5
800005C3
 10
-41.3289
 20
30.2461
 30
0.000000
  70
    32
  0
VERTEX
  8
0
  5
800005C4
 10
-41.4356
 20
30.3915
 30
0.000000
  70
    32
  0
VERTEX
  8
0
  5
800005C5
 10
-41.5423
 20
30.5367
 30
0.000000
  70
    32
  0
VERTEX
  8
0
  5
800005C6
 10
-41.6491
 20
30.6818
 30
0.000000
  70
    32
  0
VERTEX
  8
0
  5
800005C7
 10
-41.7560
 20
30.8266
 30
0.000000
  70
    32
  0
VERTEX
  8
0
  5
800005C8
 10
-41.8630
 20
30.9712
 30
0.000000
  70
    32
  0
VERTEX
  8
0
  5
800005C9
 10
-41.9701
 20
31.1154
 30
0.000000
  70
    32
  0
VERTEX
  8
0
  5
800005CA
 10
-42.0774
 20
31.2593
 30
0.000000
  70
    32
  0
VERTEX
  8
0
  5
800005CB
 10
-42.1848
 20
31.4028
 30
0.000000
  70
    32
  0
VERTEX
  8
0
  5
800005CC
 10
-42.2923
 20
31.5458
 30
0.000000
  70
    32
  0
VERTEX
  8
0
  5
800005CD
 10
-42.4001
 20
31.6884
 30
0.000000
  70
    32
  0
VERTEX
  8
0
  5
800005CE
 10
-42.5080
 20
31.8305
 30
0.000000
  70
    32
  0
VERTEX
  8
0
  5
800005CF
 10
-42.6162
 20
31.9720
 30
0.000000
  70
    32
  0
VERTEX
  8
0
  5
800005D0
 10
-42.7246
 20
32.1129
 30
0.000000
  70
    32
  0
VERTEX
  8
0
  5
800005D1
 10
-42.8332
 20
32.2532
 30
0.000000
  70
    32
  0
VERTEX
  8
0
  5
800005D2
 10
-42.9421
 20
32.3928
 30
0.000000
  70
    32
  0
VERTEX
  8
0
  5
800005D3
 10
-43.0513
 20
32.5317
 30
0.000000
  70
    32
  0
VERTEX
  8
0
  5
800005D4
 10
-43.1608
 20
32.6699
 30
0.000000
  70
    32
  0
VERTEX
  8
0
  5
800005D5
 10
-43.2705
 20
32.8072
 30
0.000000
  70
    32
  0
VERTEX
  8
0
  5
800005D6
 10
-43.3806
 20
32.9437
 30
0.000000
  70
    32
  0
VERTEX
  8
0
  5
800005D7
 10
-43.4911
 20
33.0793
 30
0.000000
  70
    32
  0
VERTEX
  8
0
  5
800005D8
 10
-43.6019
 20
33.2140
 30
0.000000
  70
    32
  0
VERTEX
  8
0
  5
800005D9
 10
-43.7130
 20
33.3477
 30
0.000000
  70
    32
  0
VERTEX
  8
0
  5
800005DA
 10
-43.8246
 20
33.4805
 30
0.000000
  70
    32
  0
VERTEX
  8
0
  5
800005DB
 10
-43.9365
 20
33.6122
 30
0.000000
  70
    32
  0
VERTEX
  8
0
  5
800005DC
 10
-44.0489
 20
33.7428
 30
0.000000
  70
    32
  0
VERTEX
  8
0
  5
800005DD
 10
-44.1617
 20
33.8722
 30
0.000000
  70
    32
  0
VERTEX
  8
0
  5
800005DE
 10
-44.2749
 20
34.0006
 30
0.000000
  70
    32
  0
VERTEX
  8
0
  5
800005DF
 10
-44.3887
 20
34.1277
 30
0.000000
  70
    32
  0
VERTEX
  8
0
  5
800005E0
 10
-44.5029
 20
34.2535
 30
0.000000
  70
    32
  0
VERTEX
  8
0
  5
800005E1
 10
-44.6175
 20
34.3781
 30
0.000000
  70
    32
  0
VERTEX
  8
0
  5
800005E2
 10
-44.7327
 20
34.5014
 30
0.000000
  70
    32
  0
VERTEX
  8
0
  5
800005E3
 10
-44.8485
 20
34.6232
 30
0.000000
  70
    32
  0
VERTEX
  8
0
  5
800005E4
 10
-44.9647
 20
34.7437
 30
0.000000
  70
    32
  0
VERTEX
  8
0
  5
800005E5
 10
-45.0816
 20
34.8627
 30
0.000000
  70
    32
  0
VERTEX
  8
0
  5
800005E6
 10
-45.1990
 20
34.9803
 30
0.000000
  70
    32
  0
VERTEX
  8
0
  5
800005E7
 10
-45.3170
 20
35.0963
 30
0.000000
  70
    32
  0
VERTEX
  8
0
  5
800005E8
 10
-45.4356
 20
35.2107
 30
0.000000
  70
    32
  0
VERTEX
  8
0
  5
800005E9
 10
-45.5548
 20
35.3236
 30
0.000000
  70
    32
  0
VERTEX
  8
0
  5
800005EA
 10
-45.6746
 20
35.4347
 30
0.000000
  70
    32
  0
VERTEX
  8
0
  5
800005EB
 10
-45.7952
 20
35.5442
 30
0.000000
  70
    32
  0
VERTEX
  8
0
  5
800005EC
 10
-45.9163
 20
35.6520
 30
0.000000
  70
    32
  0
VERTEX
  8
0
  5
800005ED
 10
-46.0382
 20
35.7579
 30
0.000000
  70
    32
  0
VERTEX
  8
0
  5
800005EE
 10
-46.1608
 20
35.8621
 30
0.000000
  70
    32
  0
VERTEX
  8
0
  5
800005EF
 10
-46.2840
 20
35.9644
 30
0.000000
  70
    32
  0
VERTEX
  8
0
  5
800005F0
 10
-46.4080
 20
36.0648
 30
0.000000
  70
    32
  0
VERTEX
  8
0
  5
800005F1
 10
-46.5328
 20
36.1633
 30
0.000000
  70
    32
  0
VERTEX
  8
0
  5
800005F2
 10
-46.6583
 20
36.2598
 30
0.000000
  70
    32
  0
VERTEX
  8
0
  5
800005F3
 10
-46.7846
 20
36.3543
 30
0.000000
  70
    32
  0
VERTEX
  8
0
  5
800005F4
 10
-46.9117
 20
36.4467
 30
0.000000
  70
    32
  0
VERTEX
  8
0
  5
800005F5
 10
-47.0396
 20
36.5370
 30
0.000000
  70
    32
  0
VERTEX
  8
0
  5
800005F6
 10
-47.1683
 20
36.6252
 30
0.000000
  70
    32
  0
VERTEX
  8
0
  5
800005F7
 10
-47.2978
 20
36.7112
 30
0.000000
  70
    32
  0
VERTEX
  8
0
  5
800005F8
 10
-47.4283
 20
36.7950
 30
0.000000
  70
    32
  0
VERTEX
  8
0
  5
800005F9
 10
-47.5595
 20
36.8765
 30
0.000000
  70
    32
  0
VERTEX
  8
0
  5
800005FA
 10
-47.6917
 20
36.9557
 30
0.000000
  70
    32
  0
VERTEX
  8
0
  5
800005FB
 10
-47.8248
 20
37.0326
 30
0.000000
  70
    32
  0
VERTEX
  8
0
  5
800005FC
 10
-47.9588
 20
37.1071
 30
0.000000
  70
    32
  0
VERTEX
  8
0
  5
800005FD
 10
-48.0937
 20
37.1791
 30
0.000000
  70
    32
  0
VERTEX
  8
0
  5
800005FE
 10
-48.2296
 20
37.2487
 30
0.000000
  70
    32
  0
VERTEX
  8
0
  5
800005FF
 10
-48.3664
 20
37.3158
 30
0.000000
  70
    32
  0
VERTEX
  8
0
  5
80000600
 10
-48.5043
 20
37.3804
 30
0.000000
  70
    32
  0
VERTEX
  8
0
  5
80000601
 10
-48.6431
 20
37.4424
 30
0.000000
  70
    32
  0
VERTEX
  8
0
  5
80000602
 10
-48.7829
 20
37.5017
 30
0.000000
  70
    32
  0
VERTEX
  8
0
  5
80000603
 10
-48.9238
 20
37.5584
 30
0.000000
  70
    32
  0
VERTEX
  8
0
  5
80000604
 10
-49.0657
 20
37.6123
 30
0.000000
  70
    32
  0
VERTEX
  8
0
  5
80000605
 10
-49.2086
 20
37.6636
 30
0.000000
  70
    32
  0
VERTEX
  8
0
  5
80000606
 10
-49.3527
 20
37.7120
 30
0.000000
  70
    32
  0
VERTEX
  8
0
  5
80000607
 10
-49.4978
 20
37.7576
 30
0.000000
  70
    32
  0
VERTEX
  8
0
  5
80000608
 10
-49.6441
 20
37.8003
 30
0.000000
  70
    32
  0
VERTEX
  8
0
  5
80000609
 10
-49.7914
 20
37.8401
 30
0.000000
  70
    32
  0
VERTEX
  8
0
  5
8000060A
 10
-49.9399
 20
37.8770
 30
0.000000
  70
    32
  0
VERTEX
  8
0
  5
8000060B
 10
-50.0896
 20
37.9109
 30
0.000000
  70
    32
  0
VERTEX
  8
0
  5
8000060C
 10
-50.2404
 20
37.9417
 30
0.000000
  70
    32
  0
VERTEX
  8
0
  5
8000060D
 10
-50.3924
 20
37.9695
 30
0.000000
  70
    32
  0
VERTEX
  8
0
  5
8000060E
 10
-50.5456
 20
37.9941
 30
0.000000
  70
    32
  0
VERTEX
  8
0
  5
8000060F
 10
-50.7000
 20
38.0156
 30
0.000000
  70
    32
  0
VERTEX
  8
0
  5
80000610
 10
-50.8557
 20
38.0339
 30
0.000000
  70
    32
  0
VERTEX
  8
0
  5
80000611
 10
-51.0126
 20
38.0490
 30
0.000000
  70
    32
  0
VERTEX
  8
0
  5
80000612
 10
-51.1707
 20
38.0608
 30
0.000000
  70
    32
  0
VERTEX
  8
0
  5
80000613
 10
-51.3302
 20
38.0692
 30
0.000000
  70
    32
  0
VERTEX
  8
0
  5
80000614
 10
-51.4909
 20
38.0743
 30
0.000000
  70
    32
  0
VERTEX
  8
0
  5
80000615
 10
-51.6529
 20
38.0761
 30
0.000000
  70
    32
  0
SEQEND
  8
0
  5
80000616
  0
ENDBLK
  5
FFBBDAE469BC1151
  8
0
  0
BLOCK
  8
0
  2
*U39
 70
     1
 10
0.0
 20
0.0
 30
0.0
  3
*U39
  1

  0
TEXT
  5
FFBBDAE469BC1153
  8
0
  6
CONTINUOUS
 10
-75.255936214936156
 20
40.70339042803311
 30
0.0
 40
2.0
  1
C - 25mm 'T' head
  7
ARIAL
  0
TEXT
  5
FFBBDAE469BC1154
  8
0
  6
CONTINUOUS
 10
-76.367805246314063
 20
37.370057094699781
 30
0.0
 40
2.0
  1
stainless steel brad
  7
ARIAL
  0
TEXT
  5
FFBBDAE469BC1155
  8
0
  6
CONTINUOUS
 10
-77.160438261320877
 20
34.002617349360989
 30
0.0
 40
2.0
  1
nails for panel fixing
  7
ARIAL
  0
ENDBLK
  5
FFBBDAE469BC1157
  8
0
  0
BLOCK
  8
0
  2
*U40
 70
     1
 10
0.0
 20
0.0
 30
0.0
  3
*U40
  1

  0
SOLID
  5
FFBBDAE469BC1159
  8
0
  6
CONTINUOUS
 10
-37.52005633571995
 20
12.241182400975021
 30
0.0
 11
-35.725614450675486
 21
12.57281219637661
 31
0.0
 12
-37.31550386774947
 22
11.67712718395528
 32
0.0
 13
-37.31550386774947
 23
11.67712718395528
 33
0.0
  0
POLYLINE
  8
0
  5
80000617
  66
     1
 10
0.000000
 20
0.000000
 30
0.000000
  70
     8
  0
VERTEX
  8
0
  5
80000618
 10
-37.4178
 20
11.9592
 30
0.000000
  70
    32
  0
VERTEX
  8
0
  5
80000619
 10
-37.5731
 20
11.9023
 30
0.000000
  70
    32
  0
VERTEX
  8
0
  5
8000061A
 10
-37.7283
 20
11.8447
 30
0.000000
  70
    32
  0
VERTEX
  8
0
  5
8000061B
 10
-37.8834
 20
11.7862
 30
0.000000
  70
    32
  0
VERTEX
  8
0
  5
8000061C
 10
-38.0383
 20
11.7268
 30
0.000000
  70
    32
  0
VERTEX
  8
0
  5
8000061D
 10
-38.1931
 20
11.6667
 30
0.000000
  70
    32
  0
VERTEX
  8
0
  5
8000061E
 10
-38.3477
 20
11.6057
 30
0.000000
  70
    32
  0
VERTEX
  8
0
  5
8000061F
 10
-38.5022
 20
11.5440
 30
0.000000
  70
    32
  0
VERTEX
  8
0
  5
80000620
 10
-38.6565
 20
11.4816
 30
0.000000
  70
    32
  0
VERTEX
  8
0
  5
80000621
 10
-38.8108
 20
11.4185
 30
0.000000
  70
    32
  0
VERTEX
  8
0
  5
80000622
 10
-38.9649
 20
11.3546
 30
0.000000
  70
    32
  0
VERTEX
  8
0
  5
80000623
 10
-39.1189
 20
11.2901
 30
0.000000
  70
    32
  0
VERTEX
  8
0
  5
80000624
 10
-39.2728
 20
11.2249
 30
0.000000
  70
    32
  0
VERTEX
  8
0
  5
80000625
 10
-39.4265
 20
11.1591
 30
0.000000
  70
    32
  0
VERTEX
  8
0
  5
80000626
 10
-39.5802
 20
11.0926
 30
0.000000
  70
    32
  0
VERTEX
  8
0
  5
80000627
 10
-39.7338
 20
11.0256
 30
0.000000
  70
    32
  0
VERTEX
  8
0
  5
80000628
 10
-39.8872
 20
10.9580
 30
0.000000
  70
    32
  0
VERTEX
  8
0
  5
80000629
 10
-40.0406
 20
10.8898
 30
0.000000
  70
    32
  0
VERTEX
  8
0
  5
8000062A
 10
-40.1938
 20
10.8211
 30
0.000000
  70
    32
  0
VERTEX
  8
0
  5
8000062B
 10
-40.3470
 20
10.7519
 30
0.000000
  70
    32
  0
VERTEX
  8
0
  5
8000062C
 10
-40.5001
 20
10.6823
 30
0.000000
  70
    32
  0
VERTEX
  8
0
  5
8000062D
 10
-40.6531
 20
10.6121
 30
0.000000
  70
    32
  0
VERTEX
  8
0
  5
8000062E
 10
-40.8061
 20
10.5415
 30
0.000000
  70
    32
  0
VERTEX
  8
0
  5
8000062F
 10
-40.9589
 20
10.4705
 30
0.000000
  70
    32
  0
VERTEX
  8
0
  5
80000630
 10
-41.1117
 20
10.3990
 30
0.000000
  70
    32
  0
VERTEX
  8
0
  5
80000631
 10
-41.2644
 20
10.3272
 30
0.000000
  70
    32
  0
VERTEX
  8
0
  5
80000632
 10
-41.4171
 20
10.2550
 30
0.000000
  70
    32
  0
VERTEX
  8
0
  5
80000633
 10
-41.5696
 20
10.1825
 30
0.000000
  70
    32
  0
VERTEX
  8
0
  5
80000634
 10
-41.7222
 20
10.1096
 30
0.000000
  70
    32
  0
VERTEX
  8
0
  5
80000635
 10
-41.8747
 20
10.0365
 30
0.000000
  70
    32
  0
VERTEX
  8
0
  5
80000636
 10
-42.0271
 20
9.96307
 30
0.000000
  70
    32
  0
VERTEX
  8
0
  5
80000637
 10
-42.1795
 20
9.88939
 30
0.000000
  70
    32
  0
VERTEX
  8
0
  5
80000638
 10
-42.3318
 20
9.81546
 30
0.000000
  70
    32
  0
VERTEX
  8
0
  5
80000639
 10
-42.4841
 20
9.74132
 30
0.000000
  70
    32
  0
VERTEX
  8
0
  5
8000063A
 10
-42.6364
 20
9.66699
 30
0.000000
  70
    32
  0
VERTEX
  8
0
  5
8000063B
 10
-42.7887
 20
9.59248
 30
0.000000
  70
    32
  0
VERTEX
  8
0
  5
8000063C
 10
-42.9409
 20
9.51781
 30
0.000000
  70
    32
  0
VERTEX
  8
0
  5
8000063D
 10
-43.0931
 20
9.44301
 30
0.000000
  70
    32
  0
VERTEX
  8
0
  5
8000063E
 10
-43.2452
 20
9.36810
 30
0.000000
  70
    32
  0
VERTEX
  8
0
  5
8000063F
 10
-43.3974
 20
9.29310
 30
0.000000
  70
    32
  0
VERTEX
  8
0
  5
80000640
 10
-43.5495
 20
9.21803
 30
0.000000
  70
    32
  0
VERTEX
  8
0
  5
80000641
 10
-43.7017
 20
9.14291
 30
0.000000
  70
    32
  0
VERTEX
  8
0
  5
80000642
 10
-43.8538
 20
9.06777
 30
0.000000
  70
    32
  0
VERTEX
  8
0
  5
80000643
 10
-44.0059
 20
8.99261
 30
0.000000
  70
    32
  0
VERTEX
  8
0
  5
80000644
 10
-44.1581
 20
8.91747
 30
0.000000
  70
    32
  0
VERTEX
  8
0
  5
80000645
 10
-44.3102
 20
8.84237
 30
0.000000
  70
    32
  0
VERTEX
  8
0
  5
80000646
 10
-44.4623
 20
8.76732
 30
0.000000
  70
    32
  0
VERTEX
  8
0
  5
80000647
 10
-44.6145
 20
8.69235
 30
0.000000
  70
    32
  0
VERTEX
  8
0
  5
80000648
 10
-44.7667
 20
8.61747
 30
0.000000
  70
    32
  0
VERTEX
  8
0
  5
80000649
 10
-44.9189
 20
8.54272
 30
0.000000
  70
    32
  0
VERTEX
  8
0
  5
8000064A
 10
-45.0711
 20
8.46810
 30
0.000000
  70
    32
  0
VERTEX
  8
0
  5
8000064B
 10
-45.2234
 20
8.39364
 30
0.000000
  70
    32
  0
VERTEX
  8
0
  5
8000064C
 10
-45.3756
 20
8.31937
 30
0.000000
  70
    32
  0
VERTEX
  8
0
  5
8000064D
 10
-45.5280
 20
8.24530
 30
0.000000
  70
    32
  0
VERTEX
  8
0
  5
8000064E
 10
-45.6803
 20
8.17145
 30
0.000000
  70
    32
  0
VERTEX
  8
0
  5
8000064F
 10
-45.8327
 20
8.09785
 30
0.000000
  70
    32
  0
VERTEX
  8
0
  5
80000650
 10
-45.9852
 20
8.02451
 30
0.000000
  70
    32
  0
VERTEX
  8
0
  5
80000651
 10
-46.1377
 20
7.95146
 30
0.000000
  70
    32
  0
VERTEX
  8
0
  5
80000652
 10
-46.2902
 20
7.87872
 30
0.000000
  70
    32
  0
VERTEX
  8
0
  5
80000653
 10
-46.4428
 20
7.80631
 30
0.000000
  70
    32
  0
VERTEX
  8
0
  5
80000654
 10
-46.5955
 20
7.73424
 30
0.000000
  70
    32
  0
VERTEX
  8
0
  5
80000655
 10
-46.7482
 20
7.66255
 30
0.000000
  70
    32
  0
VERTEX
  8
0
  5
80000656
 10
-46.9011
 20
7.59125
 30
0.000000
  70
    32
  0
VERTEX
  8
0
  5
80000657
 10
-47.0539
 20
7.52036
 30
0.000000
  70
    32
  0
VERTEX
  8
0
  5
80000658
 10
-47.2069
 20
7.44990
 30
0.000000
  70
    32
  0
VERTEX
  8
0
  5
80000659
 10
-47.3599
 20
7.37990
 30
0.000000
  70
    32
  0
VERTEX
  8
0
  5
8000065A
 10
-47.5130
 20
7.31037
 30
0.000000
  70
    32
  0
VERTEX
  8
0
  5
8000065B
 10
-47.6662
 20
7.24134
 30
0.000000
  70
    32
  0
VERTEX
  8
0
  5
8000065C
 10
-47.8195
 20
7.17282
 30
0.000000
  70
    32
  0
VERTEX
  8
0
  5
8000065D
 10
-47.9729
 20
7.10485
 30
0.000000
  70
    32
  0
VERTEX
  8
0
  5
8000065E
 10
-48.1264
 20
7.03743
 30
0.000000
  70
    32
  0
VERTEX
  8
0
  5
8000065F
 10
-48.2800
 20
6.97059
 30
0.000000
  70
    32
  0
VERTEX
  8
0
  5
80000660
 10
-48.4337
 20
6.90436
 30
0.000000
  70
    32
  0
VERTEX
  8
0
  5
80000661
 10
-48.5875
 20
6.83874
 30
0.000000
  70
    32
  0
VERTEX
  8
0
  5
80000662
 10
-48.7414
 20
6.77377
 30
0.000000
  70
    32
  0
VERTEX
  8
0
  5
80000663
 10
-48.8955
 20
6.70947
 30
0.000000
  70
    32
  0
VERTEX
  8
0
  5
80000664
 10
-49.0496
 20
6.64585
 30
0.000000
  70
    32
  0
VERTEX
  8
0
  5
80000665
 10
-49.2039
 20
6.58293
 30
0.000000
  70
    32
  0
VERTEX
  8
0
  5
80000666
 10
-49.3583
 20
6.52074
 30
0.000000
  70
    32
  0
VERTEX
  8
0
  5
80000667
 10
-49.5129
 20
6.45930
 30
0.000000
  70
    32
  0
VERTEX
  8
0
  5
80000668
 10
-49.6675
 20
6.39863
 30
0.000000
  70
    32
  0
VERTEX
  8
0
  5
80000669
 10
-49.8223
 20
6.33875
 30
0.000000
  70
    32
  0
VERTEX
  8
0
  5
8000066A
 10
-49.9773
 20
6.27968
 30
0.000000
  70
    32
  0
VERTEX
  8
0
  5
8000066B
 10
-50.1324
 20
6.22144
 30
0.000000
  70
    32
  0
VERTEX
  8
0
  5
8000066C
 10
-50.2876
 20
6.16405
 30
0.000000
  70
    32
  0
VERTEX
  8
0
  5
8000066D
 10
-50.4431
 20
6.10754
 30
0.000000
  70
    32
  0
VERTEX
  8
0
  5
8000066E
 10
-50.5986
 20
6.05192
 30
0.000000
  70
    32
  0
VERTEX
  8
0
  5
8000066F
 10
-50.7543
 20
5.99721
 30
0.000000
  70
    32
  0
VERTEX
  8
0
  5
80000670
 10
-50.9102
 20
5.94345
 30
0.000000
  70
    32
  0
VERTEX
  8
0
  5
80000671
 10
-51.0663
 20
5.89064
 30
0.000000
  70
    32
  0
VERTEX
  8
0
  5
80000672
 10
-51.2225
 20
5.83881
 30
0.000000
  70
    32
  0
VERTEX
  8
0
  5
80000673
 10
-51.3789
 20
5.78798
 30
0.000000
  70
    32
  0
VERTEX
  8
0
  5
80000674
 10
-51.5355
 20
5.73817
 30
0.000000
  70
    32
  0
VERTEX
  8
0
  5
80000675
 10
-51.6923
 20
5.68940
 30
0.000000
  70
    32
  0
VERTEX
  8
0
  5
80000676
 10
-51.8492
 20
5.64169
 30
0.000000
  70
    32
  0
VERTEX
  8
0
  5
80000677
 10
-52.0064
 20
5.59507
 30
0.000000
  70
    32
  0
VERTEX
  8
0
  5
80000678
 10
-52.1637
 20
5.54955
 30
0.000000
  70
    32
  0
VERTEX
  8
0
  5
80000679
 10
-52.3212
 20
5.50516
 30
0.000000
  70
    32
  0
VERTEX
  8
0
  5
8000067A
 10
-52.4790
 20
5.46191
 30
0.000000
  70
    32
  0
VERTEX
  8
0
  5
8000067B
 10
-52.6369
 20
5.41983
 30
0.000000
  70
    32
  0
VERTEX
  8
0
  5
8000067C
 10
-52.7951
 20
5.37894
 30
0.000000
  70
    32
  0
VERTEX
  8
0
  5
8000067D
 10
-52.9534
 20
5.33926
 30
0.000000
  70
    32
  0
VERTEX
  8
0
  5
8000067E
 10
-53.1120
 20
5.30080
 30
0.000000
  70
    32
  0
VERTEX
  8
0
  5
8000067F
 10
-53.2708
 20
5.26360
 30
0.000000
  70
    32
  0
VERTEX
  8
0
  5
80000680
 10
-53.4298
 20
5.22767
 30
0.000000
  70
    32
  0
VERTEX
  8
0
  5
80000681
 10
-53.5891
 20
5.19304
 30
0.000000
  70
    32
  0
VERTEX
  8
0
  5
80000682
 10
-53.7485
 20
5.15971
 30
0.000000
  70
    32
  0
VERTEX
  8
0
  5
80000683
 10
-53.9083
 20
5.12773
 30
0.000000
  70
    32
  0
VERTEX
  8
0
  5
80000684
 10
-54.0682
 20
5.09710
 30
0.000000
  70
    32
  0
VERTEX
  8
0
  5
80000685
 10
-54.2284
 20
5.06784
 30
0.000000
  70
    32
  0
VERTEX
  8
0
  5
80000686
 10
-54.3889
 20
5.03999
 30
0.000000
  70
    32
  0
VERTEX
  8
0
  5
80000687
 10
-54.5495
 20
5.01355
 30
0.000000
  70
    32
  0
VERTEX
  8
0
  5
80000688
 10
-54.7105
 20
4.98855
 30
0.000000
  70
    32
  0
VERTEX
  8
0
  5
80000689
 10
-54.8717
 20
4.96501
 30
0.000000
  70
    32
  0
VERTEX
  8
0
  5
8000068A
 10
-55.0331
 20
4.94296
 30
0.000000
  70
    32
  0
VERTEX
  8
0
  5
8000068B
 10
-55.1949
 20
4.92241
 30
0.000000
  70
    32
  0
VERTEX
  8
0
  5
8000068C
 10
-55.3569
 20
4.90338
 30
0.000000
  70
    32
  0
VERTEX
  8
0
  5
8000068D
 10
-55.5191
 20
4.88589
 30
0.000000
  70
    32
  0
VERTEX
  8
0
  5
8000068E
 10
-55.6817
 20
4.86997
 30
0.000000
  70
    32
  0
VERTEX
  8
0
  5
8000068F
 10
-55.8445
 20
4.85564
 30
0.000000
  70
    32
  0
VERTEX
  8
0
  5
80000690
 10
-56.0076
 20
4.84292
 30
0.000000
  70
    32
  0
VERTEX
  8
0
  5
80000691
 10
-56.1710
 20
4.83182
 30
0.000000
  70
    32
  0
VERTEX
  8
0
  5
80000692
 10
-56.3346
 20
4.82238
 30
0.000000
  70
    32
  0
VERTEX
  8
0
  5
80000693
 10
-56.4986
 20
4.81460
 30
0.000000
  70
    32
  0
VERTEX
  8
0
  5
80000694
 10
-56.6629
 20
4.80852
 30
0.000000
  70
    32
  0
VERTEX
  8
0
  5
80000695
 10
-56.8274
 20
4.80414
 30
0.000000
  70
    32
  0
VERTEX
  8
0
  5
80000696
 10
-56.9923
 20
4.80151
 30
0.000000
  70
    32
  0
VERTEX
  8
0
  5
80000697
 10
-57.1575
 20
4.80062
 30
0.000000
  70
    32
  0
SEQEND
  8
0
  5
80000698
  0
ENDBLK
  5
FFBBDAE469BC115C
  8
0
  0
BLOCK
  8
0
  2
*U41
 70
     1
 10
0.0
 20
0.0
 30
0.0
  3
*U41
  1

  0
TEXT
  5
FFBBDAE469BC115E
  8
0
  6
CONTINUOUS
 10
-78.629532163340158
 20
4.0775651151494081
 30
0.0
 40
2.0
  1
Selected coating
  7
ARIAL
  0
ENDBLK
  5
FFBBDAE469BC1160
  8
0
  0
BLOCK
  8
0
  2
*U42
 70
     1
 10
0.0
 20
0.0
 30
0.0
  3
*U42
  1

  0
SOLID
  5
FFBBDAE469BC1162
  8
0
  6
CONTINUOUS
 10
-16.168673628043809
 20
-13.83326674153729
 30
0.0
 11
-15.5
 21
-15.531170030643811
 31
0.0
 12
-16.683200444616531
 22
-14.141912420314011
 32
0.0
 13
-16.683200444616531
 23
-14.141912420314011
 33
0.0
  0
POLYLINE
  8
0
  5
80000699
  66
     1
 10
0.000000
 20
0.000000
 30
0.000000
  70
     8
  0
VERTEX
  8
0
  5
8000069A
 10
-16.4259
 20
-13.9876
 30
0.000000
  70
    32
  0
VERTEX
  8
0
  5
8000069B
 10
-16.5925
 20
-13.7056
 30
0.000000
  70
    32
  0
VERTEX
  8
0
  5
8000069C
 10
-16.7567
 20
-13.4193
 30
0.000000
  70
    32
  0
VERTEX
  8
0
  5
8000069D
 10
-16.9185
 20
-13.1289
 30
0.000000
  70
    32
  0
VERTEX
  8
0
  5
8000069E
 10
-17.0779
 20
-12.8343
 30
0.000000
  70
    32
  0
VERTEX
  8
0
  5
8000069F
 10
-17.2352
 20
-12.5357
 30
0.000000
  70
    32
  0
VERTEX
  8
0
  5
800006A0
 10
-17.3902
 20
-12.2333
 30
0.000000
  70
    32
  0
VERTEX
  8
0
  5
800006A1
 10
-17.5430
 20
-11.9271
 30
0.000000
  70
    32
  0
VERTEX
  8
0
  5
800006A2
 10
-17.6938
 20
-11.6172
 30
0.000000
  70
    32
  0
VERTEX
  8
0
  5
800006A3
 10
-17.8426
 20
-11.3037
 30
0.000000
  70
    32
  0
VERTEX
  8
0
  5
800006A4
 10
-17.9894
 20
-10.9867
 30
0.000000
  70
    32
  0
VERTEX
  8
0
  5
800006A5
 10
-18.1342
 20
-10.6664
 30
0.000000
  70
    32
  0
VERTEX
  8
0
  5
800006A6
 10
-18.2773
 20
-10.3429
 30
0.000000
  70
    32
  0
VERTEX
  8
0
  5
800006A7
 10
-18.4185
 20
-10.0161
 30
0.000000
  70
    32
  0
VERTEX
  8
0
  5
800006A8
 10
-18.5581
 20
-9.68635
 30
0.000000
  70
    32
  0
VERTEX
  8
0
  5
800006A9
 10
-18.6959
 20
-9.35362
 30
0.000000
  70
    32
  0
VERTEX
  8
0
  5
800006AA
 10
-18.8322
 20
-9.01804
 30
0.000000
  70
    32
  0
VERTEX
  8
0
  5
800006AB
 10
-18.9669
 20
-8.67973
 30
0.000000
  70
    32
  0
VERTEX
  8
0
  5
800006AC
 10
-19.1001
 20
-8.33877
 30
0.000000
  70
    32
  0
VERTEX
  8
0
  5
800006AD
 10
-19.2318
 20
-7.99528
 30
0.000000
  70
    32
  0
VERTEX
  8
0
  5
800006AE
 10
-19.3622
 20
-7.64937
 30
0.000000
  70
    32
  0
VERTEX
  8
0
  5
800006AF
 10
-19.4913
 20
-7.30113
 30
0.000000
  70
    32
  0
VERTEX
  8
0
  5
800006B0
 10
-19.6191
 20
-6.95067
 30
0.000000
  70
    32
  0
VERTEX
  8
0
  5
800006B1
 10
-19.7457
 20
-6.59809
 30
0.000000
  70
    32
  0
VERTEX
  8
0
  5
800006B2
 10
-19.8712
 20
-6.24351
 30
0.000000
  70
    32
  0
VERTEX
  8
0
  5
800006B3
 10
-19.9956
 20
-5.88701
 30
0.000000
  70
    32
  0
VERTEX
  8
0
  5
800006B4
 10
-20.1190
 20
-5.52871
 30
0.000000
  70
    32
  0
VERTEX
  8
0
  5
800006B5
 10
-20.2414
 20
-5.16871
 30
0.000000
  70
    32
  0
VERTEX
  8
0
  5
800006B6
 10
-20.3629
 20
-4.80711
 30
0.000000
  70
    32
  0
VERTEX
  8
0
  5
800006B7
 10
-20.4836
 20
-4.44402
 30
0.000000
  70
    32
  0
VERTEX
  8
0
  5
800006B8
 10
-20.6035
 20
-4.07955
 30
0.000000
  70
    32
  0
VERTEX
  8
0
  5
800006B9
 10
-20.7226
 20
-3.71379
 30
0.000000
  70
    32
  0
VERTEX
  8
0
  5
800006BA
 10
-20.8411
 20
-3.34685
 30
0.000000
  70
    32
  0
VERTEX
  8
0
  5
800006BB
 10
-20.9590
 20
-2.97883
 30
0.000000
  70
    32
  0
VERTEX
  8
0
  5
800006BC
 10
-21.0763
 20
-2.60984
 30
0.000000
  70
    32
  0
VERTEX
  8
0
  5
800006BD
 10
-21.1931
 20
-2.23999
 30
0.000000
  70
    32
  0
VERTEX
  8
0
  5
800006BE
 10
-21.3095
 20
-1.86937
 30
0.000000
  70
    32
  0
VERTEX
  8
0
  5
800006BF
 10
-21.4256
 20
-1.49810
 30
0.000000
  70
    32
  0
VERTEX
  8
0
  5
800006C0
 10
-21.5413
 20
-1.12627
 30
0.000000
  70
    32
  0
VERTEX
  8
0
  5
800006C1
 10
-21.6567
 20
-0.753984
 30
0.000000
  70
    32
  0
VERTEX
  8
0
  5
800006C2
 10
-21.7720
 20
-0.381355
 30
0.000000
  70
    32
  0
VERTEX
  8
0
  5
800006C3
 10
-21.8871
 20
-0.00848234
 30
0.000000
  70
    32
  0
VERTEX
  8
0
  5
800006C4
 10
-22.0022
 20
0.364529
 30
0.000000
  70
    32
  0
VERTEX
  8
0
  5
800006C5
 10
-22.1172
 20
0.737574
 30
0.000000
  70
    32
  0
VERTEX
  8
0
  5
800006C6
 10
-22.2323
 20
1.11055
 30
0.000000
  70
    32
  0
VERTEX
  8
0
  5
800006C7
 10
-22.3474
 20
1.48335
 30
0.000000
  70
    32
  0
VERTEX
  8
0
  5
800006C8
 10
-22.4627
 20
1.85588
 30
0.000000
  70
    32
  0
VERTEX
  8
0
  5
800006C9
 10
-22.5783
 20
2.22802
 30
0.000000
  70
    32
  0
VERTEX
  8
0
  5
800006CA
 10
-22.6941
 20
2.59968
 30
0.000000
  70
    32
  0
VERTEX
  8
0
  5
800006CB
 10
-22.8102
 20
2.97075
 30
0.000000
  70
    32
  0
VERTEX
  8
0
  5
800006CC
 10
-22.9268
 20
3.34112
 30
0.000000
  70
    32
  0
VERTEX
  8
0
  5
800006CD
 10
-23.0438
 20
3.71070
 30
0.000000
  70
    32
  0
VERTEX
  8
0
  5
800006CE
 10
-23.1613
 20
4.07937
 30
0.000000
  70
    32
  0
VERTEX
  8
0
  5
800006CF
 10
-23.2794
 20
4.44704
 30
0.000000
  70
    32
  0
VERTEX
  8
0
  5
800006D0
 10
-23.3981
 20
4.81360
 30
0.000000
  70
    32
  0
VERTEX
  8
0
  5
800006D1
 10
-23.5174
 20
5.17894
 30
0.000000
  70
    32
  0
VERTEX
  8
0
  5
800006D2
 10
-23.6376
 20
5.54297
 30
0.000000
  70
    32
  0
VERTEX
  8
0
  5
800006D3
 10
-23.7585
 20
5.90557
 30
0.000000
  70
    32
  0
VERTEX
  8
0
  5
800006D4
 10
-23.8803
 20
6.26665
 30
0.000000
  70
    32
  0
VERTEX
  8
0
  5
800006D5
 10
-24.0031
 20
6.62609
 30
0.000000
  70
    32
  0
VERTEX
  8
0
  5
800006D6
 10
-24.1268
 20
6.98380
 30
0.000000
  70
    32
  0
VERTEX
  8
0
  5
800006D7
 10
-24.2515
 20
7.33968
 30
0.000000
  70
    32
  0
VERTEX
  8
0
  5
800006D8
 10
-24.3774
 20
7.69360
 30
0.000000
  70
    32
  0
VERTEX
  8
0
  5
800006D9
 10
-24.5044
 20
8.04549
 30
0.000000
  70
    32
  0
VERTEX
  8
0
  5
800006DA
 10
-24.6326
 20
8.39522
 30
0.000000
  70
    32
  0
VERTEX
  8
0
  5
800006DB
 10
-24.7621
 20
8.74270
 30
0.000000
  70
    32
  0
VERTEX
  8
0
  5
800006DC
 10
-24.8930
 20
9.08781
 30
0.000000
  70
    32
  0
VERTEX
  8
0
  5
800006DD
 10
-25.0252
 20
9.43047
 30
0.000000
  70
    32
  0
VERTEX
  8
0
  5
800006DE
 10
-25.1589
 20
9.77055
 30
0.000000
  70
    32
  0
VERTEX
  8
0
  5
800006DF
 10
-25.2941
 20
10.1080
 30
0.000000
  70
    32
  0
VERTEX
  8
0
  5
800006E0
 10
-25.4309
 20
10.4426
 30
0.000000
  70
    32
  0
VERTEX
  8
0
  5
800006E1
 10
-25.5693
 20
10.7744
 30
0.000000
  70
    32
  0
VERTEX
  8
0
  5
800006E2
 10
-25.7094
 20
11.1031
 30
0.000000
  70
    32
  0
VERTEX
  8
0
  5
800006E3
 10
-25.8512
 20
11.4288
 30
0.000000
  70
    32
  0
VERTEX
  8
0
  5
800006E4
 10
-25.9949
 20
11.7513
 30
0.000000
  70
    32
  0
VERTEX
  8
0
  5
800006E5
 10
-26.1404
 20
12.0705
 30
0.000000
  70
    32
  0
VERTEX
  8
0
  5
800006E6
 10
-26.2878
 20
12.3863
 30
0.000000
  70
    32
  0
VERTEX
  8
0
  5
800006E7
 10
-26.4372
 20
12.6986
 30
0.000000
  70
    32
  0
VERTEX
  8
0
  5
800006E8
 10
-26.5887
 20
13.0073
 30
0.000000
  70
    32
  0
VERTEX
  8
0
  5
800006E9
 10
-26.7423
 20
13.3123
 30
0.000000
  70
    32
  0
VERTEX
  8
0
  5
800006EA
 10
-26.8980
 20
13.6135
 30
0.000000
  70
    32
  0
VERTEX
  8
0
  5
800006EB
 10
-27.0560
 20
13.9107
 30
0.000000
  70
    32
  0
VERTEX
  8
0
  5
800006EC
 10
-27.2162
 20
14.2039
 30
0.000000
  70
    32
  0
VERTEX
  8
0
  5
800006ED
 10
-27.3788
 20
14.4930
 30
0.000000
  70
    32
  0
VERTEX
  8
0
  5
800006EE
 10
-27.5437
 20
14.7778
 30
0.000000
  70
    32
  0
VERTEX
  8
0
  5
800006EF
 10
-27.7112
 20
15.0584
 30
0.000000
  70
    32
  0
VERTEX
  8
0
  5
800006F0
 10
-27.8811
 20
15.3344
 30
0.000000
  70
    32
  0
VERTEX
  8
0
  5
800006F1
 10
-28.0536
 20
15.6060
 30
0.000000
  70
    32
  0
VERTEX
  8
0
  5
800006F2
 10
-28.2288
 20
15.8729
 30
0.000000
  70
    32
  0
VERTEX
  8
0
  5
800006F3
 10
-28.4066
 20
16.1350
 30
0.000000
  70
    32
  0
VERTEX
  8
0
  5
800006F4
 10
-28.5872
 20
16.3923
 30
0.000000
  70
    32
  0
VERTEX
  8
0
  5
800006F5
 10
-28.7706
 20
16.6446
 30
0.000000
  70
    32
  0
VERTEX
  8
0
  5
800006F6
 10
-28.9568
 20
16.8918
 30
0.000000
  70
    32
  0
VERTEX
  8
0
  5
800006F7
 10
-29.1460
 20
17.1339
 30
0.000000
  70
    32
  0
VERTEX
  8
0
  5
800006F8
 10
-29.3382
 20
17.3707
 30
0.000000
  70
    32
  0
VERTEX
  8
0
  5
800006F9
 10
-29.5334
 20
17.6021
 30
0.000000
  70
    32
  0
VERTEX
  8
0
  5
800006FA
 10
-29.7317
 20
17.8281
 30
0.000000
  70
    32
  0
VERTEX
  8
0
  5
800006FB
 10
-29.9332
 20
18.0484
 30
0.000000
  70
    32
  0
VERTEX
  8
0
  5
800006FC
 10
-30.1379
 20
18.2631
 30
0.000000
  70
    32
  0
VERTEX
  8
0
  5
800006FD
 10
-30.3459
 20
18.4720
 30
0.000000
  70
    32
  0
VERTEX
  8
0
  5
800006FE
 10
-30.5573
 20
18.6749
 30
0.000000
  70
    32
  0
VERTEX
  8
0
  5
800006FF
 10
-30.7720
 20
18.8719
 30
0.000000
  70
    32
  0
VERTEX
  8
0
  5
80000700
 10
-30.9902
 20
19.0628
 30
0.000000
  70
    32
  0
VERTEX
  8
0
  5
80000701
 10
-31.2119
 20
19.2474
 30
0.000000
  70
    32
  0
VERTEX
  8
0
  5
80000702
 10
-31.4372
 20
19.4258
 30
0.000000
  70
    32
  0
VERTEX
  8
0
  5
80000703
 10
-31.6661
 20
19.5977
 30
0.000000
  70
    32
  0
VERTEX
  8
0
  5
80000704
 10
-31.8987
 20
19.7631
 30
0.000000
  70
    32
  0
VERTEX
  8
0
  5
80000705
 10
-32.1350
 20
19.9219
 30
0.000000
  70
    32
  0
VERTEX
  8
0
  5
80000706
 10
-32.3752
 20
20.0739
 30
0.000000
  70
    32
  0
VERTEX
  8
0
  5
80000707
 10
-32.6192
 20
20.2191
 30
0.000000
  70
    32
  0
VERTEX
  8
0
  5
80000708
 10
-32.8672
 20
20.3574
 30
0.000000
  70
    32
  0
VERTEX
  8
0
  5
80000709
 10
-33.1192
 20
20.4886
 30
0.000000
  70
    32
  0
VERTEX
  8
0
  5
8000070A
 10
-33.3752
 20
20.6127
 30
0.000000
  70
    32
  0
VERTEX
  8
0
  5
8000070B
 10
-33.6353
 20
20.7296
 30
0.000000
  70
    32
  0
VERTEX
  8
0
  5
8000070C
 10
-33.8996
 20
20.8390
 30
0.000000
  70
    32
  0
VERTEX
  8
0
  5
8000070D
 10
-34.1681
 20
20.9411
 30
0.000000
  70
    32
  0
VERTEX
  8
0
  5
8000070E
 10
-34.4408
 20
21.0355
 30
0.000000
  70
    32
  0
VERTEX
  8
0
  5
8000070F
 10
-34.7180
 20
21.1223
 30
0.000000
  70
    32
  0
VERTEX
  8
0
  5
80000710
 10
-34.9995
 20
21.2013
 30
0.000000
  70
    32
  0
VERTEX
  8
0
  5
80000711
 10
-35.2855
 20
21.2724
 30
0.000000
  70
    32
  0
VERTEX
  8
0
  5
80000712
 10
-35.5760
 20
21.3356
 30
0.000000
  70
    32
  0
VERTEX
  8
0
  5
80000713
 10
-35.8711
 20
21.3907
 30
0.000000
  70
    32
  0
VERTEX
  8
0
  5
80000714
 10
-36.1708
 20
21.4376
 30
0.000000
  70
    32
  0
VERTEX
  8
0
  5
80000715
 10
-36.4752
 20
21.4762
 30
0.000000
  70
    32
  0
VERTEX
  8
0
  5
80000716
 10
-36.7844
 20
21.5064
 30
0.000000
  70
    32
  0
VERTEX
  8
0
  5
80000717
 10
-37.0983
 20
21.5281
 30
0.000000
  70
    32
  0
VERTEX
  8
0
  5
80000718
 10
-37.4172
 20
21.5412
 30
0.000000
  70
    32
  0
VERTEX
  8
0
  5
80000719
 10
-37.7410
 20
21.5456
 30
0.000000
  70
    32
  0
SEQEND
  8
0
  5
8000071A
  0
ENDBLK
  5
FFBBDAE469BC1165
  8
0
  0
BLOCK
  8
0
  2
*U43
 70
     1
 10
0.0
 20
0.0
 30
0.0
  3
*U43
  1

  0
TEXT
  5
FFBBDAE469BC1167
  8
0
  6
CONTINUOUS
 10
-74.57175895944718
 20
22.47425713253347
 30
0.0
 40
2.0
  1
Bottom of intermediate 
  7
ARIAL
  0
TEXT
  5
FFBBDAE469BC1168
  8
0
  6
CONTINUOUS
 10
-45.686356503785518
 20
22.50729335354302
 30
0.0
 40
2.0
  1
CLD
  7
ARIAL
  0
TEXT
  5
FFBBDAE469BC1169
  8
0
  6
CONTINUOUS
 10
-40.100100432844187
 20
23.75999335354302
 30
0.0
 40
1.5161999999999991
  1
®
  7
ARIAL
  0
TEXT
  5
FFBBDAE469BC116A
  8
0
  6
CONTINUOUS
 10
-40.096997704331223
 20
23.254593353543019
 30
0.0
 40
1.5161999999999991
  1

  7
ARIAL
  0
TEXT
  5
FFBBDAE469BC116B
  8
0
  6
CONTINUOUS
 10
-67.897853229569961
 20
19.13878341720832
 30
0.0
 40
2.0
  1
Structural Cavity Batten
  7
ARIAL
  0
ENDBLK
  5
FFBBDAE469BC116D
  8
0
  0
BLOCK
  8
0
  2
*U44
 70
     1
 10
0.0
 20
0.0
 30
0.0
  3
*U44
  1

  0
SOLID
  5
FFBBDAE469BC1186
  8
0
  6
CONTINUOUS
 10
28.770814841300801
 20
11.48153550035803
 30
0.0
 11
27.263273956874801
 21
12.5097964019701
 31
0.0
 12
29.022816166989799
 22
12.026049349448201
 32
0.0
 13
29.022816166989799
 23
12.026049349448201
 33
0.0
  0
POLYLINE
  8
0
  5
8000071B
  66
     1
 10
0.000000
 20
0.000000
 30
0.000000
  70
     8
  0
VERTEX
  8
0
  5
8000071C
 10
28.8968
 20
11.7538
 30
0.000000
  70
    32
  0
VERTEX
  8
0
  5
8000071D
 10
29.0701
 20
11.6729
 30
0.000000
  70
    32
  0
VERTEX
  8
0
  5
8000071E
 10
29.2431
 20
11.5908
 30
0.000000
  70
    32
  0
VERTEX
  8
0
  5
8000071F
 10
29.4158
 20
11.5075
 30
0.000000
  70
    32
  0
VERTEX
  8
0
  5
80000720
 10
29.5883
 20
11.4230
 30
0.000000
  70
    32
  0
VERTEX
  8
0
  5
80000721
 10
29.7606
 20
11.3373
 30
0.000000
  70
    32
  0
VERTEX
  8
0
  5
80000722
 10
29.9325
 20
11.2506
 30
0.000000
  70
    32
  0
VERTEX
  8
0
  5
80000723
 10
30.1043
 20
11.1627
 30
0.000000
  70
    32
  0
VERTEX
  8
0
  5
80000724
 10
30.2758
 20
11.0738
 30
0.000000
  70
    32
  0
VERTEX
  8
0
  5
80000725
 10
30.4471
 20
10.9839
 30
0.000000
  70
    32
  0
VERTEX
  8
0
  5
80000726
 10
30.6182
 20
10.8930
 30
0.000000
  70
    32
  0
VERTEX
  8
0
  5
80000727
 10
30.7890
 20
10.8011
 30
0.000000
  70
    32
  0
VERTEX
  8
0
  5
80000728
 10
30.9597
 20
10.7083
 30
0.000000
  70
    32
  0
VERTEX
  8
0
  5
80000729
 10
31.1301
 20
10.6146
 30
0.000000
  70
    32
  0
VERTEX
  8
0
  5
8000072A
 10
31.3004
 20
10.5200
 30
0.000000
  70
    32
  0
VERTEX
  8
0
  5
8000072B
 10
31.4705
 20
10.4245
 30
0.000000
  70
    32
  0
VERTEX
  8
0
  5
8000072C
 10
31.6404
 20
10.3283
 30
0.000000
  70
    32
  0
VERTEX
  8
0
  5
8000072D
 10
31.8101
 20
10.2312
 30
0.000000
  70
    32
  0
VERTEX
  8
0
  5
8000072E
 10
31.9796
 20
10.1334
 30
0.000000
  70
    32
  0
VERTEX
  8
0
  5
8000072F
 10
32.1490
 20
10.0349
 30
0.000000
  70
    32
  0
VERTEX
  8
0
  5
80000730
 10
32.3183
 20
9.93567
 30
0.000000
  70
    32
  0
VERTEX
  8
0
  5
80000731
 10
32.4874
 20
9.83577
 30
0.000000
  70
    32
  0
VERTEX
  8
0
  5
80000732
 10
32.6563
 20
9.73524
 30
0.000000
  70
    32
  0
VERTEX
  8
0
  5
80000733
 10
32.8251
 20
9.63411
 30
0.000000
  70
    32
  0
VERTEX
  8
0
  5
80000734
 10
32.9938
 20
9.53239
 30
0.000000
  70
    32
  0
VERTEX
  8
0
  5
80000735
 10
33.1624
 20
9.43013
 30
0.000000
  70
    32
  0
VERTEX
  8
0
  5
80000736
 10
33.3309
 20
9.32735
 30
0.000000
  70
    32
  0
VERTEX
  8
0
  5
80000737
 10
33.4992
 20
9.22408
 30
0.000000
  70
    32
  0
VERTEX
  8
0
  5
80000738
 10
33.6675
 20
9.12036
 30
0.000000
  70
    32
  0
VERTEX
  8
0
  5
80000739
 10
33.8356
 20
9.01621
 30
0.000000
  70
    32
  0
VERTEX
  8
0
  5
8000073A
 10
34.0037
 20
8.91166
 30
0.000000
  70
    32
  0
VERTEX
  8
0
  5
8000073B
 10
34.1717
 20
8.80674
 30
0.000000
  70
    32
  0
VERTEX
  8
0
  5
8000073C
 10
34.3396
 20
8.70148
 30
0.000000
  70
    32
  0
VERTEX
  8
0
  5
8000073D
 10
34.5074
 20
8.59592
 30
0.000000
  70
    32
  0
VERTEX
  8
0
  5
8000073E
 10
34.6752
 20
8.49007
 30
0.000000
  70
    32
  0
VERTEX
  8
0
  5
8000073F
 10
34.8430
 20
8.38398
 30
0.000000
  70
    32
  0
VERTEX
  8
0
  5
80000740
 10
35.0106
 20
8.27767
 30
0.000000
  70
    32
  0
VERTEX
  8
0
  5
80000741
 10
35.1783
 20
8.17117
 30
0.000000
  70
    32
  0
VERTEX
  8
0
  5
80000742
 10
35.3459
 20
8.06450
 30
0.000000
  70
    32
  0
VERTEX
  8
0
  5
80000743
 10
35.5135
 20
7.95772
 30
0.000000
  70
    32
  0
VERTEX
  8
0
  5
80000744
 10
35.6810
 20
7.85083
 30
0.000000
  70
    32
  0
VERTEX
  8
0
  5
80000745
 10
35.8485
 20
7.74387
 30
0.000000
  70
    32
  0
VERTEX
  8
0
  5
80000746
 10
36.0161
 20
7.63687
 30
0.000000
  70
    32
  0
VERTEX
  8
0
  5
80000747
 10
36.1836
 20
7.52986
 30
0.000000
  70
    32
  0
VERTEX
  8
0
  5
80000748
 10
36.3511
 20
7.42287
 30
0.000000
  70
    32
  0
VERTEX
  8
0
  5
80000749
 10
36.5187
 20
7.31593
 30
0.000000
  70
    32
  0
VERTEX
  8
0
  5
8000074A
 10
36.6862
 20
7.20907
 30
0.000000
  70
    32
  0
VERTEX
  8
0
  5
8000074B
 10
36.8538
 20
7.10232
 30
0.000000
  70
    32
  0
VERTEX
  8
0
  5
8000074C
 10
37.0214
 20
6.99571
 30
0.000000
  70
    32
  0
VERTEX
  8
0
  5
8000074D
 10
37.1891
 20
6.88927
 30
0.000000
  70
    32
  0
VERTEX
  8
0
  5
8000074E
 10
37.3568
 20
6.78303
 30
0.000000
  70
    32
  0
VERTEX
  8
0
  5
8000074F
 10
37.5245
 20
6.67702
 30
0.000000
  70
    32
  0
VERTEX
  8
0
  5
80000750
 10
37.6923
 20
6.57126
 30
0.000000
  70
    32
  0
VERTEX
  8
0
  5
80000751
 10
37.8602
 20
6.46579
 30
0.000000
  70
    32
  0
VERTEX
  8
0
  5
80000752
 10
38.0281
 20
6.36065
 30
0.000000
  70
    32
  0
VERTEX
  8
0
  5
80000753
 10
38.1962
 20
6.25585
 30
0.000000
  70
    32
  0
VERTEX
  8
0
  5
80000754
 10
38.3642
 20
6.15143
 30
0.000000
  70
    32
  0
VERTEX
  8
0
  5
80000755
 10
38.5324
 20
6.04741
 30
0.000000
  70
    32
  0
VERTEX
  8
0
  5
80000756
 10
38.7007
 20
5.94384
 30
0.000000
  70
    32
  0
VERTEX
  8
0
  5
80000757
 10
38.8691
 20
5.84073
 30
0.000000
  70
    32
  0
VERTEX
  8
0
  5
80000758
 10
39.0376
 20
5.73812
 30
0.000000
  70
    32
  0
VERTEX
  8
0
  5
80000759
 10
39.2062
 20
5.63604
 30
0.000000
  70
    32
  0
VERTEX
  8
0
  5
8000075A
 10
39.3749
 20
5.53451
 30
0.000000
  70
    32
  0
VERTEX
  8
0
  5
8000075B
 10
39.5438
 20
5.43358
 30
0.000000
  70
    32
  0
VERTEX
  8
0
  5
8000075C
 10
39.7128
 20
5.33325
 30
0.000000
  70
    32
  0
VERTEX
  8
0
  5
8000075D
 10
39.8820
 20
5.23358
 30
0.000000
  70
    32
  0
VERTEX
  8
0
  5
8000075E
 10
40.0512
 20
5.13458
 30
0.000000
  70
    32
  0
VERTEX
  8
0
  5
8000075F
 10
40.2207
 20
5.03629
 30
0.000000
  70
    32
  0
VERTEX
  8
0
  5
80000760
 10
40.3903
 20
4.93874
 30
0.000000
  70
    32
  0
VERTEX
  8
0
  5
80000761
 10
40.5601
 20
4.84195
 30
0.000000
  70
    32
  0
VERTEX
  8
0
  5
80000762
 10
40.7300
 20
4.74596
 30
0.000000
  70
    32
  0
VERTEX
  8
0
  5
80000763
 10
40.9002
 20
4.65079
 30
0.000000
  70
    32
  0
VERTEX
  8
0
  5
80000764
 10
41.0705
 20
4.55648
 30
0.000000
  70
    32
  0
VERTEX
  8
0
  5
80000765
 10
41.2410
 20
4.46306
 30
0.000000
  70
    32
  0
VERTEX
  8
0
  5
80000766
 10
41.4117
 20
4.37055
 30
0.000000
  70
    32
  0
VERTEX
  8
0
  5
80000767
 10
41.5827
 20
4.27899
 30
0.000000
  70
    32
  0
VERTEX
  8
0
  5
80000768
 10
41.7538
 20
4.18840
 30
0.000000
  70
    32
  0
VERTEX
  8
0
  5
80000769
 10
41.9252
 20
4.09882
 30
0.000000
  70
    32
  0
VERTEX
  8
0
  5
8000076A
 10
42.0968
 20
4.01027
 30
0.000000
  70
    32
  0
VERTEX
  8
0
  5
8000076B
 10
42.2686
 20
3.92279
 30
0.000000
  70
    32
  0
VERTEX
  8
0
  5
8000076C
 10
42.4407
 20
3.83640
 30
0.000000
  70
    32
  0
VERTEX
  8
0
  5
8000076D
 10
42.6130
 20
3.75113
 30
0.000000
  70
    32
  0
VERTEX
  8
0
  5
8000076E
 10
42.7855
 20
3.66702
 30
0.000000
  70
    32
  0
VERTEX
  8
0
  5
8000076F
 10
42.9584
 20
3.58410
 30
0.000000
  70
    32
  0
VERTEX
  8
0
  5
80000770
 10
43.1315
 20
3.50239
 30
0.000000
  70
    32
  0
VERTEX
  8
0
  5
80000771
 10
43.3048
 20
3.42192
 30
0.000000
  70
    32
  0
VERTEX
  8
0
  5
80000772
 10
43.4785
 20
3.34273
 30
0.000000
  70
    32
  0
VERTEX
  8
0
  5
80000773
 10
43.6524
 20
3.26484
 30
0.000000
  70
    32
  0
VERTEX
  8
0
  5
80000774
 10
43.8267
 20
3.18828
 30
0.000000
  70
    32
  0
VERTEX
  8
0
  5
80000775
 10
44.0012
 20
3.11309
 30
0.000000
  70
    32
  0
VERTEX
  8
0
  5
80000776
 10
44.1760
 20
3.03929
 30
0.000000
  70
    32
  0
VERTEX
  8
0
  5
80000777
 10
44.3512
 20
2.96692
 30
0.000000
  70
    32
  0
VERTEX
  8
0
  5
80000778
 10
44.5267
 20
2.89600
 30
0.000000
  70
    32
  0
VERTEX
  8
0
  5
80000779
 10
44.7025
 20
2.82656
 30
0.000000
  70
    32
  0
VERTEX
  8
0
  5
8000077A
 10
44.8786
 20
2.75863
 30
0.000000
  70
    32
  0
VERTEX
  8
0
  5
8000077B
 10
45.0551
 20
2.69224
 30
0.000000
  70
    32
  0
VERTEX
  8
0
  5
8000077C
 10
45.2319
 20
2.62743
 30
0.000000
  70
    32
  0
VERTEX
  8
0
  5
8000077D
 10
45.4091
 20
2.56422
 30
0.000000
  70
    32
  0
VERTEX
  8
0
  5
8000077E
 10
45.5866
 20
2.50264
 30
0.000000
  70
    32
  0
VERTEX
  8
0
  5
8000077F
 10
45.7645
 20
2.44273
 30
0.000000
  70
    32
  0
VERTEX
  8
0
  5
80000780
 10
45.9427
 20
2.38450
 30
0.000000
  70
    32
  0
VERTEX
  8
0
  5
80000781
 10
46.1214
 20
2.32800
 30
0.000000
  70
    32
  0
VERTEX
  8
0
  5
80000782
 10
46.3004
 20
2.27325
 30
0.000000
  70
    32
  0
VERTEX
  8
0
  5
80000783
 10
46.4799
 20
2.22028
 30
0.000000
  70
    32
  0
VERTEX
  8
0
  5
80000784
 10
46.6597
 20
2.16912
 30
0.000000
  70
    32
  0
VERTEX
  8
0
  5
80000785
 10
46.8399
 20
2.11981
 30
0.000000
  70
    32
  0
VERTEX
  8
0
  5
80000786
 10
47.0206
 20
2.07236
 30
0.000000
  70
    32
  0
VERTEX
  8
0
  5
80000787
 10
47.2016
 20
2.02681
 30
0.000000
  70
    32
  0
VERTEX
  8
0
  5
80000788
 10
47.3831
 20
1.98320
 30
0.000000
  70
    32
  0
VERTEX
  8
0
  5
80000789
 10
47.5650
 20
1.94155
 30
0.000000
  70
    32
  0
VERTEX
  8
0
  5
8000078A
 10
47.7474
 20
1.90188
 30
0.000000
  70
    32
  0
VERTEX
  8
0
  5
8000078B
 10
47.9302
 20
1.86424
 30
0.000000
  70
    32
  0
VERTEX
  8
0
  5
8000078C
 10
48.1134
 20
1.82865
 30
0.000000
  70
    32
  0
VERTEX
  8
0
  5
8000078D
 10
48.2971
 20
1.79513
 30
0.000000
  70
    32
  0
VERTEX
  8
0
  5
8000078E
 10
48.4813
 20
1.76373
 30
0.000000
  70
    32
  0
VERTEX
  8
0
  5
8000078F
 10
48.6660
 20
1.73447
 30
0.000000
  70
    32
  0
VERTEX
  8
0
  5
80000790
 10
48.8511
 20
1.70737
 30
0.000000
  70
    32
  0
VERTEX
  8
0
  5
80000791
 10
49.0367
 20
1.68248
 30
0.000000
  70
    32
  0
VERTEX
  8
0
  5
80000792
 10
49.2228
 20
1.65981
 30
0.000000
  70
    32
  0
VERTEX
  8
0
  5
80000793
 10
49.4094
 20
1.63940
 30
0.000000
  70
    32
  0
VERTEX
  8
0
  5
80000794
 10
49.5965
 20
1.62129
 30
0.000000
  70
    32
  0
VERTEX
  8
0
  5
80000795
 10
49.7841
 20
1.60549
 30
0.000000
  70
    32
  0
VERTEX
  8
0
  5
80000796
 10
49.9722
 20
1.59204
 30
0.000000
  70
    32
  0
VERTEX
  8
0
  5
80000797
 10
50.1609
 20
1.58097
 30
0.000000
  70
    32
  0
VERTEX
  8
0
  5
80000798
 10
50.3500
 20
1.57230
 30
0.000000
  70
    32
  0
VERTEX
  8
0
  5
80000799
 10
50.5398
 20
1.56608
 30
0.000000
  70
    32
  0
VERTEX
  8
0
  5
8000079A
 10
50.7300
 20
1.56232
 30
0.000000
  70
    32
  0
VERTEX
  8
0
  5
8000079B
 10
50.9208
 20
1.56106
 30
0.000000
  70
    32
  0
SEQEND
  8
0
  5
8000079C
  0
ENDBLK
  5
FFBBDAE469BC1189
  8
0
  0
BLOCK
  8
0
  2
*U45
 70
     1
 10
0.0
 20
0.0
 30
0.0
  3
*U45
  1

  0
TEXT
  5
FFBBDAE469BC118B
  8
0
  6
CONTINUOUS
 10
51.708014034581602
 20
0.5740224346848694
 30
0.0
 40
2.0
  1
Nail at 600mm centres
  7
ARIAL
  0
ENDBLK
  5
FFBBDAE469BC118D
  8
0
  0
BLOCK
  8
0
  2
*U46
 70
     1
 10
0.0
 20
0.0
 30
0.0
  3
*U46
  1

  0
TEXT
  5
FFBBDAE469BC1197
  8
0
  6
CONTINUOUS
 10
-42.525376717563191
 20
-48.443383356070939
 30
0.0
 40
2.0
  1
15mm
 50
90.0
  7
ARIAL
  0
ENDBLK
  5
FFBBDAE469BC1199
  8
0
  0
BLOCK
  8
0
  2
*U47
 70
     1
 10
0.0
 20
0.0
 30
0.0
  3
*U47
  1

  0
TEXT
  5
FFBBDAE469BC119B
  8
0
  6
CONTINUOUS
 10
-49.673632215134262
 20
-37.059345156889499
 30
0.0
 40
2.0
  1
50mm overhang
 50
90.0
  7
ARIAL
  0
ENDBLK
  5
FFBBDAE469BC119D
  8
0
  0
ENDSEC
  0
SECTION
  2
ENTITIES
  0
POLYLINE
  5
FFBBDAE469BBD6C7
  8
0
  6
CONTINUOUS
 66
     1
 10
0.0
 20
0.0
 30
0.0
  0
VERTEX
  5
FFBBDAE469BC0F74
  8
0
  6
CONTINUOUS
 10
-35.000000000000909
 20
60.277821878647053
 30
0.0
  0
VERTEX
  5
FFBBDAE469BC0F75
  8
0
  6
CONTINUOUS
 10
-35.000000000002728
 20
-52.0
 30
0.0
  0
VERTEX
  5
FFBBDAE469BC0F76
  8
0
  6
CONTINUOUS
 10
-26.000000000000909
 20
-52.0
 30
0.0
  0
VERTEX
  5
FFBBDAE469BC0F77
  8
0
  6
CONTINUOUS
 10
-26.000000000000909
 20
22.075000000000269
 30
0.0
  0
SEQEND
  5
FFBBDAE469BC0F78
  8
0
  6
CONTINUOUS
  0
POLYLINE
  5
FFBBDAE469BBD6C8
  8
0
  6
CONTINUOUS
 66
     1
 10
0.0
 20
0.0
 30
0.0
  0
VERTEX
  5
FFBBDAE469BC0F79
  8
0
  6
CONTINUOUS
 10
53.160154557782327
 20
45.0
 30
0.0
  0
VERTEX
  5
FFBBDAE469BC0F7A
  8
0
  6
CONTINUOUS
 10
0.0
 20
45.0
 30
0.0
  0
VERTEX
  5
FFBBDAE469BC0F7B
  8
0
  6
CONTINUOUS
 10
0.0
 20
36.399999999999643
 30
0.0
  0
SEQEND
  5
FFBBDAE469BC0F7C
  8
0
  6
CONTINUOUS
  0
LINE
  5
FFBBDAE469BBD6C9
  8
0
  6
CONTINUOUS
 10
0.0
 20
45.0
 30
0.0
 11
17.0
 21
36.499999999999552
 31
0.0
  0
LINE
  5
FFBBDAE469BBD6CA
  8
0
  6
CONTINUOUS
 10
50.383954470243218
 20
25.191977235121609
 30
0.0
 11
27.455414471103531
 21
13.72770723555103
 31
0.0
  0
POLYLINE
  5
FFBBDAE469BBD6CB
  8
0
  6
CONTINUOUS
 66
     1
 10
0.0
 20
0.0
 30
0.0
  0
VERTEX
  5
FFBBDAE469BC0F7D
  8
0
  6
CONTINUOUS
 10
8.9565959794344963
 20
70.933112495158625
 30
0.0
  0
VERTEX
  5
FFBBDAE469BC0F7E
  8
0
  6
CONTINUOUS
 10
-17.027355305144731
 20
64.813358972996866
 30
0.0
  0
VERTEX
  5
FFBBDAE469BC0F7F
  8
0
  6
CONTINUOUS
 10
-17.362201798196111
 20
63.11704224313371
 30
0.0
  0
VERTEX
  5
FFBBDAE469BC0F80
  8
0
  6
CONTINUOUS
 10
-18.6392448426468
 20
66.051179435327853
 30
0.0
  0
VERTEX
  5
FFBBDAE469BC0F81
  8
0
  6
CONTINUOUS
 10
-18.974091335698169
 20
64.354862705464711
 30
0.0
  0
VERTEX
  5
FFBBDAE469BC0F82
  8
0
  6
CONTINUOUS
 10
-37.683433395537577
 20
59.59514810714245
 30
0.0
  0
SEQEND
  5
FFBBDAE469BC0F83
  8
0
  6
CONTINUOUS
  0
POLYLINE
  5
FFBBDAE469BBD6CC
  8
0
  6
CONTINUOUS
 66
     1
 10
0.0
 20
0.0
 30
0.0
  0
VERTEX
  5
FFBBDAE469BC0F84
  8
0
  6
CONTINUOUS
 10
53.393425322923576
 20
46.664373056911252
 30
0.0
  0
VERTEX
  5
FFBBDAE469BC0F85
  8
0
  6
CONTINUOUS
 10
49.841619339094898
 20
21.322448279985561
 30
0.0
  0
VERTEX
  5
FFBBDAE469BC0F86
  8
0
  6
CONTINUOUS
 10
51.301543644480262
 20
20.396039275027309
 30
0.0
  0
VERTEX
  5
FFBBDAE469BC0F87
  8
0
  6
CONTINUOUS
 10
48.104097597144573
 20
20.268216059680981
 30
0.0
  0
VERTEX
  5
FFBBDAE469BC0F88
  8
0
  6
CONTINUOUS
 10
49.56402190252993
 20
19.34180705472227
 30
0.0
  0
VERTEX
  5
FFBBDAE469BC0F89
  8
0
  6
CONTINUOUS
 10
38.11960194664789
 20
-62.313449723908427
 30
0.0
  0
SEQEND
  5
FFBBDAE469BC0F8A
  8
0
  6
CONTINUOUS
  0
LINE
  5
FFBBDAE469BBD6D1
  8
0
  6
CONTINUOUS
 10
-6.0
 20
67.410527345492937
 30
0.0
 11
-6.0000000000004539
 21
36.399999999999643
 31
0.0
  0
LINE
  5
FFBBDAE469BBD6D3
  8
0
  6
CONTINUOUS
 10
6.0
 20
-2.0
 30
0.0
 11
6.0
 21
-60.741920668926468
 31
0.0
  0
DIMENSION
  5
FFBBDAE469BBD6D6
  8
0
  6
CONTINUOUS
  2
*D2
 10
-48.081544902719543
 20
-51.999999999999993
 30
0.0
 11
-50.379634943647218
 21
-27.000000000000011
 31
0.0
 70
     0
  1
50mm overhang
 13
-37.000000000001819
 23
-2.0
 33
0.0
 14
-35.000000000002728
 24
-52.0
 34
0.0
 50
90.0
  0
POLYLINE
  5
FFBBDAE469BBD6D7
  8
0
  6
CONTINUOUS
 66
     1
 10
0.0
 20
0.0
 30
0.0
  0
VERTEX
  5
FFBBDAE469BC0F8B
  8
0
  6
CONTINUOUS
 10
1.926135589112163
 20
-60.741920668926468
 30
0.0
  0
VERTEX
  5
FFBBDAE469BC0F8C
  8
0
  6
CONTINUOUS
 10
20.612929986495139
 20
-60.741920668926468
 30
0.0
  0
VERTEX
  5
FFBBDAE469BC0F8D
  8
0
  6
CONTINUOUS
 10
21.327736297456791
 20
-59.167543153928357
 30
0.0
  0
VERTEX
  5
FFBBDAE469BC0F8E
  8
0
  6
CONTINUOUS
 10
21.89812367553532
 20
-62.316298183924573
 30
0.0
  0
VERTEX
  5
FFBBDAE469BC0F8F
  8
0
  6
CONTINUOUS
 10
22.61292998649515
 20
-60.741920668926468
 30
0.0
  0
VERTEX
  5
FFBBDAE469BC0F90
  8
0
  6
CONTINUOUS
 10
41.625679239821693
 20
-60.741920668926468
 30
0.0
  0
SEQEND
  5
FFBBDAE469BC0F91
  8
0
  6
CONTINUOUS
  0
LINE
  5
FFBBDAE469BBD729
  8
0
  6
CONTINUOUS
 10
6.0000000000004539
 20
-2.0
 30
0.0
 11
46.572853762383602
 21
-2.0
 31
0.0
  0
POLYLINE
  5
FFBBDAE469BBDF77
  8
0
  6
CONTINUOUS
 66
     1
 10
0.0
 20
0.0
 30
0.0
  0
VERTEX
  5
FFBBDAE469BC0F92
  8
0
  6
CONTINUOUS
 10
-5.5
 20
38.0
 30
0.0
  0
VERTEX
  5
FFBBDAE469BC0F93
  8
0
  6
CONTINUOUS
 10
-4.5
 20
38.0
 30
0.0
  0
VERTEX
  5
FFBBDAE469BC0F94
  8
0
  6
CONTINUOUS
 10
-4.5
 20
34.534796401969743
 30
0.0
  0
SEQEND
  5
FFBBDAE469BC0F95
  8
0
  6
CONTINUOUS
  0
LINE
  5
FFBBDAE469BBDF92
  8
0
  6
CONTINUOUS
 10
-5.9999999999990896
 20
33.599999999999909
 30
0.0
 11
-6.0000000000004539
 21
-21.0
 31
0.0
  0
POLYLINE
  5
FFBBDAE469BBDF97
  8
0
  6
CONTINUOUS
 66
     1
 10
0.0
 20
0.0
 30
0.0
  0
VERTEX
  5
FFBBDAE469BC0F96
  8
0
  6
CONTINUOUS
 10
0.0
 20
33.599999999999909
 30
0.0
  0
VERTEX
  5
FFBBDAE469BC0F97
  8
0
  6
CONTINUOUS
 10
0.0
 20
14.534796401969739
 30
0.0
  0
SEQEND
  5
FFBBDAE469BC0F98
  8
0
  6
CONTINUOUS
  0
POLYLINE
  5
FFBBDAE469BBDFAD
  8
0
  6
CONTINUOUS
 66
     1
 10
0.0
 20
0.0
 30
0.0
  0
VERTEX
  5
FFBBDAE469BC0F99
  8
0
  6
CONTINUOUS
 10
0.0
 20
11.734796401969559
 30
0.0
  0
VERTEX
  5
FFBBDAE469BC0F9A
  8
0
  6
CONTINUOUS
 10
0.0
 20
0.0
 30
0.0
  0
VERTEX
  5
FFBBDAE469BC0F9B
  8
0
  6
CONTINUOUS
 10
46.853164434528928
 20
0.0
 30
0.0
  0
SEQEND
  5
FFBBDAE469BC0F9C
  8
0
  6
CONTINUOUS
  0
LINE
  5
FFBBDAE469BBDFAF
  8
0
  6
CONTINUOUS
 10
23.769592803940199
 20
11.8847964019701
 30
0.0
 11
0.0
 21
0.0
 31
0.0
  0
POLYLINE
  5
FFBBDAE469BBDFB0
  8
0
  6
CONTINUOUS
 66
     1
 10
0.0
 20
0.0
 30
0.0
  0
VERTEX
  5
FFBBDAE469BC0F9D
  8
0
  6
CONTINUOUS
 10
-4.5
 20
34.534796401969743
 30
0.0
  0
VERTEX
  5
FFBBDAE469BC0F9E
  8
0
  6
CONTINUOUS
 10
-4.5
 20
-37.0
 30
0.0
  0
VERTEX
  5
FFBBDAE469BC0F9F
  8
0
  6
CONTINUOUS
 10
-25.0
 20
-37.0
 30
0.0
  0
VERTEX
  5
FFBBDAE469BC0FA0
  8
0
  6
CONTINUOUS
 10
-25.0
 20
-17.0
 30
0.0
  0
VERTEX
  5
FFBBDAE469BC0FA1
  8
0
  6
CONTINUOUS
 10
-24.0
 20
-17.0
 30
0.0
  0
VERTEX
  5
FFBBDAE469BC0FA2
  8
0
  6
CONTINUOUS
 10
-24.0
 20
-36.0
 30
0.0
  0
VERTEX
  5
FFBBDAE469BC0FA3
  8
0
  6
CONTINUOUS
 10
-5.5
 20
-36.0
 30
0.0
  0
VERTEX
  5
FFBBDAE469BC0FA4
  8
0
  6
CONTINUOUS
 10
-5.5
 20
38.0
 30
0.0
  0
SEQEND
  5
FFBBDAE469BC0FA5
  8
0
  6
CONTINUOUS
  0
LINE
  5
FFBBDAE469BBDFB2
  8
0
  6
CONTINUOUS
 10
-25.000000000000909
 20
-52.0
 30
0.0
 11
-6.0
 21
-52.0
 31
0.0
  0
LINE
  5
FFBBDAE469BBE0D1
  8
0
  6
HIDDEN
 10
4.5000000000009086
 20
-1.0
 30
0.0
 11
46.713009098456489
 21
-1.0
 31
0.0
  0
LINE
  5
FFBBDAE469BBE477
  8
0
  6
CONTINUOUS
 10
-25.0
 20
62.821852867603873
 30
0.0
 11
-25.000000000000458
 21
24.0
 31
0.0
  0
LINE
  5
FFBBDAE469BBE47C
  8
0
  6
CONTINUOUS
 10
0.0
 20
45.0
 30
0.0
 11
0.0
 21
68.823650420225931
 31
0.0
  0
POLYLINE
  5
FFBBDAE469BBE481
  8
0
  6
CONTINUOUS
 66
     1
 10
0.0
 20
0.0
 30
0.0
  0
VERTEX
  5
FFBBDAE469BC0FA6
  8
0
  6
CONTINUOUS
 10
-26.000000000000909
 20
24.0
 30
0.0
  0
VERTEX
  5
FFBBDAE469BC0FA7
  8
0
  6
CONTINUOUS
 10
-26.000000000000909
 20
62.567449768708229
 30
0.0
  0
SEQEND
  5
FFBBDAE469BC0FA8
  8
0
  6
CONTINUOUS
  0
LINE
  5
FFBBDAE469BBE483
  8
0
  6
CONTINUOUS
 10
-25.000000000000458
 20
22.075000000000269
 30
0.0
 11
-25.000000000001819
 21
-52.0
 31
0.0
  0
DIMENSION
  5
FFBBDAE469BBE4BE
  8
0
  6
CONTINUOUS
  2
*D3
 10
-63.06341089511443
 20
-95.416227589748814
 30
0.0
 11
-63.063410895114409
 21
-48.708113794874421
 31
0.0
 70
     0
  1
 
 13
-36.000000000001819
 23
-2.0
 33
0.0
 14
-36.612304889417373
 24
-95.416227589748814
 34
0.0
 50
90.0
  0
LINE
  5
FFBBDAE469BBE8E5
  8
0
  6
PHANTOM
 10
-3.0
 20
68.117088882859207
 30
0.0
 11
-3.0
 21
36.399999999999181
 31
0.0
  0
LINE
  5
FFBBDAE469BBE8F8
  8
0
  6
PHANTOM
 10
-2.9999999999986349
 20
33.599999999999909
 30
0.0
 11
-3.0
 21
14.534796401969739
 31
0.0
  0
LINE
  5
FFBBDAE469BBE8F9
  8
0
  6
PHANTOM
 10
-3.0
 20
11.734796401969559
 30
0.0
 11
-3.0
 21
-22.0
 31
0.0
  0
DIMENSION
  5
FFBBDAE469BBEF10
  8
0
  6
CONTINUOUS
  2
*D4
 10
-41.48717753611708
 20
-37.0
 30
0.0
 11
-43.508323511560462
 21
-44.500000000000007
 31
0.0
 70
     0
 13
-35.000000000002728
 23
-52.0
 33
0.0
 14
-25.000000000001371
 24
-37.0
 34
0.0
 50
90.0
  0
LINE
  5
FFBBDAE469BBEFA0
  8
0
  6
CONTINUOUS
 10
-71.741628818358535
 20
-95.416227589748814
 30
0.0
 11
-26.1689822297717
 21
-95.416227589748814
 31
0.0
  0
POLYLINE
  5
FFBBDAE469BBF123
  8
0
  6
CONTINUOUS
 66
     1
 10
0.0
 20
0.0
 30
0.0
  0
VERTEX
  5
FFBBDAE469BC0FA9
  8
0
  6
CONTINUOUS
 10
-8.0000000000013642
 20
24.0
 30
0.0
  0
VERTEX
  5
FFBBDAE469BC0FAA
  8
0
  6
CONTINUOUS
 10
-8.0000000000013642
 20
22.0
 30
0.0
  0
VERTEX
  5
FFBBDAE469BC0FAB
  8
0
  6
CONTINUOUS
 10
-35.000000000001371
 20
22.0
 30
0.0
  0
VERTEX
  5
FFBBDAE469BC0FAC
  8
0
  6
CONTINUOUS
 10
-35.000000000001371
 20
24.0
 30
0.0
  0
VERTEX
  5
FFBBDAE469BC0FAD
  8
0
  6
CONTINUOUS
 10
-8.0000000000013642
 20
24.0
 30
0.0
  0
SEQEND
  5
FFBBDAE469BC0FAE
  8
0
  6
CONTINUOUS
  0
LINE
  5
FFBBDAE469BBF124
  8
0
  6
CENTER
 10
-35.000000000001371
 20
23.0
 30
0.0
 11
-8.0000000000013642
 21
23.0
 31
0.0
  0
LINE
  5
FFBBDAE469BBF125
  8
0
  6
CONTINUOUS
 10
-33.000000000001371
 20
24.0
 30
0.0
 11
-33.000000000001371
 21
22.0
 31
0.0
  0
LINE
  5
FFBBDAE469BBF126
  8
0
  6
CONTINUOUS
 10
-13.500000000001361
 20
24.0
 30
0.0
 11
-13.500000000001361
 21
22.0
 31
0.0
  0
LINE
  5
FFBBDAE469BBF127
  8
0
  6
CONTINUOUS
 10
22.999999999999542
 20
33.500000000000909
 30
0.0
 11
49.36292078594942
 21
20.318539607025741
 31
0.0
  0
ARC
  5
FFBBDAE469BBF128
  8
0
  6
CONTINUOUS
 10
-25.501842678362671
 20
-51.42771456022183
 30
0.0
 40
0.7611548452042627
 50
228.75216091793311
 51
311.24783908206689
  0
INSERT
  5
FFBBDAE469BBF1F8
  8
0
  6
CONTINUOUS
  2
*U10
 10
0.0
 20
0.0
 30
0.0
1001
ACAD
1002
{
1000
R14_HATCH_DATA
1000
FFBBDAE469BBF1F8
1011
1.0
1021
0.0
1031
0.0
1021
0.0
1031
0.0
1011
0.0
1021
0.0
1031
0.0
1021
1.0
1031
0.0
1011
0.0
1021
0.0
1031
0.0
1021
0.0
1031
1.0
1040
0.0
1010
0.0
1020
0.0
1030
1.0
1000
SOLID
1070
     1
1070
     1
1071
        2
1071
        7
1070
     0
1070
     1
1071
        4
1040
-25.0
1040
62.821852867604051
1040
-26.000000000000909
1040
62.567449768708151
1040
-26.000000000000909
1040
24.0
1040
-25.000000000000458
1040
24.0
1071
        4
1005
FFBBDAE469BBD6CB
1005
FFBBDAE469BBE481
1005
FFBBDAE469BBF123
1005
FFBBDAE469BBE477
1071
        7
1070
     1
1070
     1
1071
        4
1040
-25.000000000000458
1040
22.000000000000011
1040
0.0
1040
-26.000000000000909
1040
22.000000000000011
1040
0.0
1040
-26.000000000000909
1040
-52.003210851501073
1040
0.3745201122598299
1040
-25.000000000001819
1040
-51.999999999975053
1040
0.0
1071
        4
1005
FFBBDAE469BBF123
1005
FFBBDAE469BBD6C7
1005
FFBBDAE469BBF128
1005
FFBBDAE469BBE483
1070
     0
1070
     1
1040
0.1462174895546146
1071
        2
1040
-25.36627959673115
1040
47.929537811621231
1040
0.0
1040
-25.36627959673115
1040
14.88438497386414
1040
0.0
1002
}
  0
LINE
  5
FFBBDAE469BBF1FA
  8
0
  6
HIDDEN
 10
-6.0
 20
-15.53117003064426
 30
0.0
 11
-25.0
 21
-15.531170030643811
 31
0.0
  0
LINE
  5
FFBBDAE469BBF1FE
  8
0
  6
CONTINUOUS
 10
-6.0000000000004539
 20
-22.0
 30
0.0
 11
-6.0000000000013642
 21
-52.0
 31
0.0
  0
POLYLINE
  5
FFBBDAE469BBF20E
  8
0
  6
DIVIDE2
 66
     1
 10
0.0
 20
0.0
 30
0.0
  0
VERTEX
  5
FFBBDAE469BC0FC4
  8
0
  6
DIVIDE2
 10
-36.000000000000909
 20
60.023418779751402
 30
0.0
  0
VERTEX
  5
FFBBDAE469BC0FC5
  8
0
  6
DIVIDE2
 10
-36.000000000002728
 20
-53.0
 30
0.0
  0
VERTEX
  5
FFBBDAE469BC0FC6
  8
0
  6
DIVIDE2
 10
-25.000000000000909
 20
-53.0
 30
0.0
  0
VERTEX
  5
FFBBDAE469BC0FC7
  8
0
  6
DIVIDE2
 10
-25.000000000000909
 20
-53.0
 30
0.0
  0
SEQEND
  5
FFBBDAE469BC0FC8
  8
0
  6
DIVIDE2
  0
LINE
  5
FFBBDAE469BBF2C5
  8
0
  6
CENTER
 10
-27.521794765370942
 20
35.0
 30
0.0
 11
43.073418545082397
 21
35.0
 31
0.0
  0
LINE
  5
FFBBDAE469BBF2C6
  8
0
  6
CONTINUOUS
 10
-25.000000000000458
 20
38.5
 30
0.0
 11
-25.000000000000458
 21
31.5
 31
0.0
  0
LINE
  5
FFBBDAE469BBF2C7
  8
0
  6
CONTINUOUS
 10
36.352875309428327
 20
36.399999999999643
 30
0.0
 11
39.999999999999552
 21
35.0
 31
0.0
  0
LINE
  5
FFBBDAE469BBF2C8
  8
0
  6
CONTINUOUS
 10
-23.937306695895131
 20
36.399999999999643
 30
0.0
 11
36.352875309428782
 21
36.399999999999643
 31
0.0
  0
LINE
  5
FFBBDAE469BBF2C9
  8
0
  6
CONTINUOUS
 10
-23.937306695895131
 20
33.599999999999909
 30
0.0
 11
36.352875309428327
 21
33.599999999999909
 31
0.0
  0
LINE
  5
FFBBDAE469BBF2CA
  8
0
  6
CONTINUOUS
 10
36.352875309428327
 20
33.599999999999909
 30
0.0
 11
39.999999999999552
 21
35.0
 31
0.0
  0
LINE
  5
FFBBDAE469BBF2CB
  8
0
  6
CONTINUOUS
 10
-24.500000000000451
 20
38.5
 30
0.0
 11
-24.500000000000451
 21
31.5
 31
0.0
  0
LINE
  5
FFBBDAE469BBF2CC
  8
0
  6
CONTINUOUS
 10
-25.000000000000458
 20
38.5
 30
0.0
 11
-24.500000000000451
 21
38.5
 31
0.0
  0
LINE
  5
FFBBDAE469BBF2CD
  8
0
  6
CONTINUOUS
 10
-25.000000000000458
 20
31.5
 30
0.0
 11
-24.500000000000451
 21
31.5
 31
0.0
  0
LINE
  5
FFBBDAE469BBF2CE
  8
0
  6
CONTINUOUS
 10
-23.937306695895131
 20
33.599999999999909
 30
0.0
 11
-24.500000000000451
 21
31.5
 31
0.0
  0
LINE
  5
FFBBDAE469BBF2CF
  8
0
  6
CONTINUOUS
 10
-23.937306695895131
 20
36.399999999999643
 30
0.0
 11
-24.500000000000451
 21
38.5
 31
0.0
  0
LINE
  5
FFBBDAE469BBF2D0
  8
0
  6
CONTINUOUS
 10
-23.937306695895131
 20
36.399999999999643
 30
0.0
 11
-23.937306695895131
 21
33.599999999999909
 31
0.0
  0
LINE
  5
FFBBDAE469BBF2D1
  8
0
  6
CONTINUOUS
 10
-20.000000000000458
 20
35.878288927898211
 30
0.0
 11
-20.000000000000458
 21
34.121711072101789
 31
0.0
  0
LINE
  5
FFBBDAE469BBF2D2
  8
0
  6
CONTINUOUS
 10
-12.000000000000449
 20
35.878288927898211
 30
0.0
 11
-12.000000000000449
 21
34.121711072101789
 31
0.0
  0
LINE
  5
FFBBDAE469BBF2D3
  8
0
  6
CONTINUOUS
 10
-18.700000000000269
 20
35.878288927898211
 30
0.0
 11
-18.700000000000269
 21
34.121711072101789
 31
0.0
  0
LINE
  5
FFBBDAE469BBF2D4
  8
0
  6
CONTINUOUS
 10
-17.400000000000539
 20
35.878288927898211
 30
0.0
 11
-17.400000000000539
 21
34.121711072101789
 31
0.0
  0
LINE
  5
FFBBDAE469BBF2D5
  8
0
  6
CONTINUOUS
 10
-16.10000000000036
 20
35.878288927898211
 30
0.0
 11
-16.10000000000036
 21
34.121711072101789
 31
0.0
  0
LINE
  5
FFBBDAE469BBF2D6
  8
0
  6
CONTINUOUS
 10
-14.80000000000063
 20
35.878288927898211
 30
0.0
 11
-14.80000000000063
 21
34.121711072101789
 31
0.0
  0
LINE
  5
FFBBDAE469BBF2D7
  8
0
  6
CONTINUOUS
 10
-13.500000000000449
 20
35.878288927898211
 30
0.0
 11
-13.500000000000449
 21
34.121711072101789
 31
0.0
  0
LINE
  5
FFBBDAE469BBF2D8
  8
0
  6
CONTINUOUS
 10
4.9999999999995453
 20
36.75
 30
0.0
 11
4.9999999999995453
 21
33.25
 31
0.0
  0
LINE
  5
FFBBDAE469BBF2D9
  8
0
  6
CONTINUOUS
 10
6.4999999999995453
 20
36.75
 30
0.0
 11
6.4999999999995453
 21
33.25
 31
0.0
  0
LINE
  5
FFBBDAE469BBF2DA
  8
0
  6
CONTINUOUS
 10
7.9999999999995453
 20
36.75
 30
0.0
 11
7.9999999999995453
 21
33.25
 31
0.0
  0
LINE
  5
FFBBDAE469BBF2DB
  8
0
  6
CONTINUOUS
 10
9.4999999999995453
 20
36.75
 30
0.0
 11
9.4999999999995453
 21
33.25
 31
0.0
  0
LINE
  5
FFBBDAE469BBF2DC
  8
0
  6
CONTINUOUS
 10
10.99999999999954
 20
36.75
 30
0.0
 11
10.99999999999954
 21
33.25
 31
0.0
  0
LINE
  5
FFBBDAE469BBF2DD
  8
0
  6
CONTINUOUS
 10
12.49999999999954
 20
36.75
 30
0.0
 11
12.49999999999954
 21
33.25
 31
0.0
  0
LINE
  5
FFBBDAE469BBF2DE
  8
0
  6
CONTINUOUS
 10
13.99999999999954
 20
36.75
 30
0.0
 11
13.99999999999954
 21
33.25
 31
0.0
  0
LINE
  5
FFBBDAE469BBF2DF
  8
0
  6
CONTINUOUS
 10
15.49999999999954
 20
36.75
 30
0.0
 11
15.49999999999954
 21
33.25
 31
0.0
  0
LINE
  5
FFBBDAE469BBF2E0
  8
0
  6
CONTINUOUS
 10
16.999999999999542
 20
36.75
 30
0.0
 11
16.999999999999542
 21
33.25
 31
0.0
  0
LINE
  5
FFBBDAE469BBF2E1
  8
0
  6
CONTINUOUS
 10
18.499999999999542
 20
36.75
 30
0.0
 11
18.499999999999542
 21
33.25
 31
0.0
  0
LINE
  5
FFBBDAE469BBF2E2
  8
0
  6
CONTINUOUS
 10
19.999999999999542
 20
36.75
 30
0.0
 11
19.999999999999542
 21
33.25
 31
0.0
  0
LINE
  5
FFBBDAE469BBF2E3
  8
0
  6
CONTINUOUS
 10
21.499999999999549
 20
36.75
 30
0.0
 11
21.499999999999549
 21
33.25
 31
0.0
  0
LINE
  5
FFBBDAE469BBF2E4
  8
0
  6
CONTINUOUS
 10
22.999999999999542
 20
36.75
 30
0.0
 11
22.999999999999542
 21
33.25
 31
0.0
  0
LINE
  5
FFBBDAE469BBF2E5
  8
0
  6
CONTINUOUS
 10
24.499999999999549
 20
36.75
 30
0.0
 11
24.499999999999549
 21
33.25
 31
0.0
  0
LINE
  5
FFBBDAE469BBF2E6
  8
0
  6
CONTINUOUS
 10
25.999999999999549
 20
36.75
 30
0.0
 11
25.999999999999549
 21
33.25
 31
0.0
  0
LINE
  5
FFBBDAE469BBF2E7
  8
0
  6
CONTINUOUS
 10
27.499999999999549
 20
36.75
 30
0.0
 11
27.499999999999549
 21
33.25
 31
0.0
  0
LINE
  5
FFBBDAE469BBF2E8
  8
0
  6
CONTINUOUS
 10
28.999999999999549
 20
36.75
 30
0.0
 11
28.999999999999549
 21
33.25
 31
0.0
  0
LINE
  5
FFBBDAE469BBF2E9
  8
0
  6
CONTINUOUS
 10
30.499999999999542
 20
36.75
 30
0.0
 11
30.499999999999542
 21
33.25
 31
0.0
  0
LINE
  5
FFBBDAE469BBF2EA
  8
0
  6
CONTINUOUS
 10
31.999999999999549
 20
36.75
 30
0.0
 11
31.999999999999549
 21
33.25
 31
0.0
  0
LINE
  5
FFBBDAE469BBF2EB
  8
0
  6
CONTINUOUS
 10
33.499999999999552
 20
36.75
 30
0.0
 11
33.499999999999552
 21
33.25
 31
0.0
  0
LINE
  5
FFBBDAE469BBF2EC
  8
0
  6
CONTINUOUS
 10
34.999999999999552
 20
36.75
 30
0.0
 11
34.999999999999552
 21
33.25
 31
0.0
  0
LINE
  5
FFBBDAE469BBF2ED
  8
0
  6
CONTINUOUS
 10
-8.5000000000004547
 20
36.75
 30
0.0
 11
-8.5000000000004547
 21
33.25
 31
0.0
  0
LINE
  5
FFBBDAE469BBF2EE
  8
0
  6
CONTINUOUS
 10
-7.0000000000004539
 20
36.75
 30
0.0
 11
-7.0000000000004539
 21
33.25
 31
0.0
  0
LINE
  5
FFBBDAE469BBF2EF
  8
0
  6
CONTINUOUS
 10
-5.5000000000004539
 20
36.75
 30
0.0
 11
-5.5000000000004539
 21
33.25
 31
0.0
  0
LINE
  5
FFBBDAE469BBF2F0
  8
0
  6
CONTINUOUS
 10
-4.0000000000004539
 20
36.75
 30
0.0
 11
-4.0000000000004539
 21
33.25
 31
0.0
  0
LINE
  5
FFBBDAE469BBF2F1
  8
0
  6
CONTINUOUS
 10
-2.5000000000004539
 20
36.75
 30
0.0
 11
-2.5000000000004539
 21
33.25
 31
0.0
  0
LINE
  5
FFBBDAE469BBF2F2
  8
0
  6
CONTINUOUS
 10
-1.0000000000004541
 20
36.75
 30
0.0
 11
-1.0000000000004541
 21
33.25
 31
0.0
  0
LINE
  5
FFBBDAE469BBF2F3
  8
0
  6
CONTINUOUS
 10
0.4999999999995453
 20
36.75
 30
0.0
 11
0.4999999999995453
 21
33.25
 31
0.0
  0
LINE
  5
FFBBDAE469BBF2F4
  8
0
  6
CONTINUOUS
 10
1.999999999999545
 20
36.75
 30
0.0
 11
1.999999999999545
 21
33.25
 31
0.0
  0
LINE
  5
FFBBDAE469BBF2F5
  8
0
  6
CONTINUOUS
 10
3.4999999999995448
 20
36.75
 30
0.0
 11
3.4999999999995448
 21
33.25
 31
0.0
  0
LINE
  5
FFBBDAE469BBF2F9
  8
0
  6
HIDDEN
 10
-13.25
 20
-36.0
 30
0.0
 11
-13.25
 21
-37.0
 31
0.0
  0
LINE
  5
FFBBDAE469BBF2FA
  8
0
  6
HIDDEN
 10
-16.25
 20
-36.0
 30
0.0
 11
-16.25
 21
-37.0
 31
0.0
  0
LINE
  5
FFBBDAE469BBF46A
  8
0
  6
HIDDEN
 10
-33.000000000002728
 20
60.786628076437857
 30
0.0
 11
-33.000000000002728
 21
-52.0
 31
0.0
  0
INSERT
  5
FFBBDAE469BBF764
  8
0
  6
CONTINUOUS
  2
*X11
 10
0.0
 20
0.0
 30
0.0
1001
ACAD
1000
HATCH
1002
{
1070
    19
1000
AR-CONC
1040
2.0
1040
0.0
1000
R14_HATCH_DATA
1000
FFBBDAE469BBF764
1011
1.0
1021
0.0
1031
0.0
1021
0.0
1031
0.0
1011
0.0
1021
0.0
1031
0.0
1021
1.0
1031
0.0
1011
0.0
1021
0.0
1031
0.0
1021
0.0
1031
1.0
1040
0.0
1010
0.0
1020
0.0
1030
1.0
1000
AR-CONC
1070
     0
1070
     0
1071
        1
1071
        7
1070
     0
1070
     1
1071
        8
1040
46.572853762384497
1040
-2.0
1040
6.0000000000004539
1040
-2.0
1040
5.9999999999995453
1040
-60.741920668926468
1040
20.612929986495139
1040
-60.741920668926468
1040
21.32773629745725
1040
-59.167543153929273
1040
21.89812367553532
1040
-62.316298183924573
1040
22.61292998649515
1040
-60.741920668926468
1040
38.339860129496181
1040
-60.741920668926468
1071
        0
1070
     0
1070
     1
1040
0.0
1040
2.0
1070
     0
1070
    13
1040
0.8726646259971645
1040
-2812.0630386194421
1040
-2158.4204621690928
1040
14.345203652015069
1040
-1.255042699651902
1070
     2
1040
1.5
1040
-16.5
1040
6.195918844579869
1040
-2812.0630386194421
1040
-2158.4204621690928
1040
-2.7750266722600001
1040
15.04384267400024
1070
     2
1040
1.1999999999999991
1040
-13.199999999999999
1040
1.753207668237831
1040
-2810.8676050194422
1040
-2158.525048969092
1040
11.57018763428043
1040
13.78879084121907
1070
     2
1040
1.2748037999999999
1040
-14.022842239999999
1040
0.8060663523995653
1040
-2812.0630386194421
1040
-2154.4204621690919
1040
21.344820972512888
1040
-3.3103802865803611
1070
     2
1040
2.2499999999999991
1040
-24.75
1040
1.6866093946402321
1040
-2810.284303719443
1040
-2154.6963283090922
1040
18.69325411097406
1040
19.482357418008831
1070
     2
1040
1.9122057599999991
1040
-21.03426
1040
6.1293205709822702
1040
-2812.0630386194421
1040
-2154.4204621690919
1040
18.69323890267254
1040
19.482372018506489
1070
     2
1040
1.8
1040
-19.800000000000001
1040
0.3665191429188092
1040
-2810.063038619443
1040
-2155.4204621690928
1040
11.93814104236923
1040
-8.0523778133067765
1070
     2
1040
1.5
1040
-16.5
1040
5.6897733615015138
1040
-2810.063038619443
1040
-2155.4204621690928
1040
4.8663066384316336
1040
14.50300090093706
1070
     2
1040
1.1999999999999991
1040
-13.199999999999999
1040
1.2470621851594761
1040
-2809.0681939594429
1040
-2156.0914942890922
1040
16.804452571629799
1040
6.450609934199047
1070
     2
1040
1.2748037999999999
1040
-14.022842239999999
1040
0.6544984694978737
1040
-2812.0630386194421
1040
-2158.4204621690928
1040
0.2431971063458134
1040
6.657877076626229
1070
     6
1040
0.0
1040
-13.039999999999999
1040
0.0
1040
-13.4
1040
0.0
1040
-13.25
1040
0.1308996938995747
1040
-2812.0630386194421
1040
-2158.4204621690928
1040
5.2613907488429721
1040
7.8882342376472039
1070
     6
1040
0.0
1040
-7.6399999999999988
1040
0.0
1040
-12.74
1040
0.0
1040
-5.0499999999999989
1040
5.715953300281428
1040
-2816.523038619443
1040
-2158.4204621690928
1040
10.67644872344818
1040
-0.451097434687596
1070
     6
1040
0.0
1040
-5.0
1040
0.0
1040
-15.6
1040
0.0
1040
-20.699999999999999
1040
5.5414203750819961
1040
-2818.5230386194421
1040
-2158.4204621690928
1040
11.663723386847719
1040
2.0020996466463519
1070
     6
1040
0.0
1040
-6.5
1040
0.0
1040
-10.359999999999999
1040
0.0
1040
-14.699999999999999
1040
0.1796037046617748
1071
        1
1040
25.696940902452749
1040
-23.761845692058611
1040
0.0
1002
}
  0
INSERT
  5
FFBBDAE469BBF868
  8
0
  6
CONTINUOUS
  2
*U12
 10
0.0
 20
0.0
 30
0.0
  0
INSERT
  5
FFBBDAE469BBF869
  8
0
  6
CONTINUOUS
  2
*U13
 10
0.0
 20
0.0
 30
0.0
  0
INSERT
  5
FFBBDAE469BBF86B
  8
0
  6
CONTINUOUS
  2
*U14
 10
0.0
 20
0.0
 30
0.0
  0
INSERT
  5
FFBBDAE469BBF86D
  8
0
  6
CONTINUOUS
  2
*U15
 10
0.0
 20
0.0
 30
0.0
  0
LINE
  5
FFBBDAE469BBF86E
  8
0
  6
CONTINUOUS
 10
-46.533538636949743
 20
-91.666227589748814
 30
0.0
 11
-46.533538636949743
 21
-88.631988098572037
 31
0.0
  0
LINE
  5
FFBBDAE469BBF86F
  8
0
  6
CONTINUOUS
 10
-46.533538636949743
 20
-95.416227589748814
 30
0.0
 11
-44.368475127488637
 21
-91.666227589749269
 31
0.0
  0
LINE
  5
FFBBDAE469BBF870
  8
0
  6
CONTINUOUS
 10
-46.533538636949743
 20
-95.416227589748814
 30
0.0
 11
-48.698602146411297
 21
-91.666227589749269
 31
0.0
  0
LINE
  5
FFBBDAE469BBF871
  8
0
  6
CONTINUOUS
 10
-48.698602146411297
 20
-91.666227589749269
 30
0.0
 11
-44.368475127488637
 21
-91.666227589749269
 31
0.0
  0
LINE
  5
FFBBDAE469BBF872
  8
0
  6
CONTINUOUS
 10
-47.517969353957589
 20
-89.911126225145836
 30
0.0
 11
-35.311028463061582
 21
-89.911126225145836
 31
0.0
  0
INSERT
  5
FFBBDAE469BBFA5D
  8
0
  6
CONTINUOUS
  2
*U16
 10
0.0
 20
0.0
 30
0.0
1001
ACAD
1000
DSTYLE
1002
{
1070
    40
1040
1.0
1070
    77
1070
     0
1002
}
  0
INSERT
  5
FFBBDAE469BBFA5E
  8
0
  6
CONTINUOUS
  2
*U17
 10
0.0
 20
0.0
 30
0.0
  0
INSERT
  5
FFBBDAE469BBFA5F
  8
0
  6
CONTINUOUS
  2
*U18
 10
0.0
 20
0.0
 30
0.0
1001
ACAD
1000
DSTYLE
1002
{
1070
    40
1040
1.0
1070
    77
1070
     0
1002
}
  0
INSERT
  5
FFBBDAE469BBFA60
  8
0
  6
CONTINUOUS
  2
*U19
 10
0.0
 20
0.0
 30
0.0
  0
INSERT
  5
FFBBDAE469BBFA61
  8
0
  6
CONTINUOUS
  2
*U20
 10
0.0
 20
0.0
 30
0.0
1001
ACAD
1000
DSTYLE
1002
{
1070
    40
1040
1.0
1070
    77
1070
     0
1002
}
  0
INSERT
  5
FFBBDAE469BBFA62
  8
0
  6
CONTINUOUS
  2
*U21
 10
0.0
 20
0.0
 30
0.0
  0
INSERT
  5
FFBBDAE469BBFA63
  8
0
  6
CONTINUOUS
  2
*U22
 10
0.0
 20
0.0
 30
0.0
1001
ACAD
1000
DSTYLE
1002
{
1070
    40
1040
1.0
1070
    77
1070
     0
1002
}
  0
INSERT
  5
FFBBDAE469BBFA64
  8
0
  6
CONTINUOUS
  2
*U23
 10
0.0
 20
0.0
 30
0.0
  0
INSERT
  5
FFBBDAE469BBFA65
  8
0
  6
CONTINUOUS
  2
*U24
 10
0.0
 20
0.0
 30
0.0
1001
ACAD
1000
DSTYLE
1002
{
1070
    40
1040
1.0
1070
    77
1070
     0
1002
}
  0
INSERT
  5
FFBBDAE469BBFA66
  8
0
  6
CONTINUOUS
  2
*U25
 10
0.0
 20
0.0
 30
0.0
  0
INSERT
  5
FFBBDAE469BBFA67
  8
0
  6
CONTINUOUS
  2
*U26
 10
0.0
 20
0.0
 30
0.0
1001
ACAD
1000
DSTYLE
1002
{
1070
    40
1040
1.0
1070
    77
1070
     0
1002
}
  0
INSERT
  5
FFBBDAE469BBFA68
  8
0
  6
CONTINUOUS
  2
*U27
 10
0.0
 20
0.0
 30
0.0
  0
INSERT
  5
FFBBDAE469BBFA69
  8
0
  6
CONTINUOUS
  2
*U28
 10
0.0
 20
0.0
 30
0.0
1001
ACAD
1000
DSTYLE
1002
{
1070
    40
1040
1.0
1070
    77
1070
     0
1002
}
  0
INSERT
  5
FFBBDAE469BBFA6A
  8
0
  6
CONTINUOUS
  2
*U29
 10
0.0
 20
0.0
 30
0.0
  0
INSERT
  5
FFBBDAE469BBFA6B
  8
0
  6
CONTINUOUS
  2
*U30
 10
0.0
 20
0.0
 30
0.0
1001
ACAD
1000
DSTYLE
1002
{
1070
    40
1040
1.0
1070
    77
1070
     0
1002
}
  0
INSERT
  5
FFBBDAE469BBFA6C
  8
0
  6
CONTINUOUS
  2
*U31
 10
0.0
 20
0.0
 30
0.0
  0
INSERT
  5
FFBBDAE469BBFA6D
  8
0
  6
CONTINUOUS
  2
*U32
 10
0.0
 20
0.0
 30
0.0
1001
ACAD
1000
DSTYLE
1002
{
1070
    40
1040
1.0
1070
    77
1070
     0
1002
}
  0
INSERT
  5
FFBBDAE469BBFA6E
  8
0
  6
CONTINUOUS
  2
*U33
 10
0.0
 20
0.0
 30
0.0
  0
INSERT
  5
FFBBDAE469BBFA6F
  8
0
  6
CONTINUOUS
  2
*U34
 10
0.0
 20
0.0
 30
0.0
1001
ACAD
1000
DSTYLE
1002
{
1070
    40
1040
1.0
1070
    77
1070
     0
1002
}
  0
INSERT
  5
FFBBDAE469BBFA70
  8
0
  6
CONTINUOUS
  2
*U35
 10
0.0
 20
0.0
 30
0.0
  0
INSERT
  5
FFBBDAE469BBFA71
  8
0
  6
CONTINUOUS
  2
*U36
 10
0.0
 20
0.0
 30
0.0
1001
ACAD
1000
DSTYLE
1002
{
1070
    40
1040
1.0
1070
    77
1070
     0
1002
}
  0
INSERT
  5
FFBBDAE469BBFA72
  8
0
  6
CONTINUOUS
  2
*U37
 10
0.0
 20
0.0
 30
0.0
  0
INSERT
  5
FFBBDAE469BBFA73
  8
0
  6
CONTINUOUS
  2
*U38
 10
0.0
 20
0.0
 30
0.0
1001
ACAD
1000
DSTYLE
1002
{
1070
    40
1040
1.0
1070
    77
1070
     0
1002
}
  0
INSERT
  5
FFBBDAE469BBFA74
  8
0
  6
CONTINUOUS
  2
*U39
 10
0.0
 20
0.0
 30
0.0
  0
INSERT
  5
FFBBDAE469BBFA75
  8
0
  6
CONTINUOUS
  2
*U40
 10
0.0
 20
0.0
 30
0.0
1001
ACAD
1000
DSTYLE
1002
{
1070
    40
1040
1.0
1070
    77
1070
     0
1002
}
  0
INSERT
  5
FFBBDAE469BBFA76
  8
0
  6
CONTINUOUS
  2
*U41
 10
0.0
 20
0.0
 30
0.0
  0
INSERT
  5
FFBBDAE469BBFA77
  8
0
  6
CONTINUOUS
  2
*U42
 10
0.0
 20
0.0
 30
0.0
1001
ACAD
1000
DSTYLE
1002
{
1070
    40
1040
1.0
1070
    77
1070
     0
1002
}
  0
INSERT
  5
FFBBDAE469BBFA78
  8
0
  6
CONTINUOUS
  2
*U43
 10
0.0
 20
0.0
 30
0.0
  0
INSERT
  5
FFBBDAE469BC0763
  8
0
  6
CONTINUOUS
  2
*U44
 10
0.0
 20
0.0
 30
0.0
1001
ACAD
1000
DSTYLE
1002
{
1070
    40
1040
1.0
1070
    77
1070
     0
1002
}
  0
INSERT
  5
FFBBDAE469BC0764
  8
0
  6
CONTINUOUS
  2
*U45
 10
0.0
 20
0.0
 30
0.0
  0
LINE
  5
FFBBDAE469BC0E53
  8
0
 10
-5.9999999999996021
 20
15.48479640196865
 30
0.0
 11
-5.9999999999996021
 21
10.78479640197156
 31
0.0
  0
LINE
  5
FFBBDAE469BC0E54
  8
0
 10
25.743638669140118
 20
14.3847964019701
 30
0.0
 11
29.000000000000401
 21
13.1347964019701
 31
0.0
  0
LINE
  5
FFBBDAE469BC0E55
  8
0
 10
-4.8044700328867398
 20
14.38479640197011
 30
0.0
 11
25.743638669135581
 21
14.3847964019701
 31
0.0
  0
LINE
  5
FFBBDAE469BC0E56
  8
0
 10
-4.8044700328867398
 20
11.88479640197011
 30
0.0
 11
25.52654791374556
 21
11.8847964019701
 31
0.0
  0
LINE
  5
FFBBDAE469BC0E57
  8
0
 10
25.526547913749202
 20
11.8847964019701
 30
0.0
 11
29.000000000000401
 21
13.1347964019701
 31
0.0
  0
LINE
  5
FFBBDAE469BC0E58
  8
0
 10
-5.4999999999996021
 20
15.48479640196501
 30
0.0
 11
-5.4999999999996021
 21
10.78479640197156
 31
0.0
  0
LINE
  5
FFBBDAE469BC0E59
  8
0
 10
-5.9999999999996021
 20
15.48479640196865
 30
0.0
 11
-5.4999999999996021
 21
15.48479640196865
 31
0.0
  0
LINE
  5
FFBBDAE469BC0E5A
  8
0
 10
-5.9999999999996021
 20
10.78479640197156
 30
0.0
 11
-5.4999999999996021
 21
10.78479640197156
 31
0.0
  0
LINE
  5
FFBBDAE469BC0E5B
  8
0
 10
-4.8044700328867398
 20
11.88479640197011
 30
0.0
 11
-5.4999999999996021
 21
10.78479640197156
 31
0.0
  0
LINE
  5
FFBBDAE469BC0E5C
  8
0
 10
-4.8044700328867398
 20
14.38479640197011
 30
0.0
 11
-5.4999999999996021
 21
15.48479640196865
 31
0.0
  0
LINE
  5
FFBBDAE469BC0E5D
  8
0
 10
-4.8044700328867398
 20
14.38479640197011
 30
0.0
 11
-4.8044700328867398
 21
11.884796401973739
 31
0.0
  0
LINE
  5
FFBBDAE469BC0E5E
  8
0
 10
-0.999999999999602
 20
14.013085329869231
 30
0.0
 11
-0.999999999999602
 21
12.25650747407099
 31
0.0
  0
LINE
  5
FFBBDAE469BC0E5F
  8
0
 10
7.000000000000397
 20
14.01308532986922
 30
0.0
 11
7.000000000000397
 21
12.256507474070981
 31
0.0
  0
LINE
  5
FFBBDAE469BC0E60
  8
0
 10
0.2999999999996703
 20
14.01308532986922
 30
0.0
 11
0.2999999999996703
 21
12.256507474070981
 31
0.0
  0
LINE
  5
FFBBDAE469BC0E61
  8
0
 10
1.599999999998942
 20
14.01308532986922
 30
0.0
 11
1.599999999998942
 21
12.256507474070981
 31
0.0
  0
LINE
  5
FFBBDAE469BC0E62
  8
0
 10
2.9000000000018531
 20
14.01308532986922
 30
0.0
 11
2.9000000000018531
 21
12.256507474070981
 31
0.0
  0
LINE
  5
FFBBDAE469BC0E63
  8
0
 10
4.2000000000011246
 20
14.01308532986922
 30
0.0
 11
4.2000000000011246
 21
12.256507474070981
 31
0.0
  0
LINE
  5
FFBBDAE469BC0E64
  8
0
 10
5.500000000000397
 20
14.01308532986922
 30
0.0
 11
5.500000000000397
 21
12.256507474070981
 31
0.0
  0
LINE
  5
FFBBDAE469BC0E65
  8
0
  6
CENTER
 10
29.000000000000401
 20
13.1347964019701
 30
0.0
 11
-5.9999999999996021
 21
13.13479640197011
 31
0.0
  0
ENDSEC
  0
EOF
