  0
SECTION
  2
HEADER
  9
$ACADVER
  1
AC1018
  9
$ACADMAINTVER
 70
     0
  9
$DWGCODEPAGE
  3
ANSI_1252
  9
$INSBASE
 10
0.0
 20
0.0
 30
0.0
  9
$EXTMIN
 10
1.000000000000000E+20
 20
1.000000000000000E+20
 30
1.000000000000000E+20
  9
$EXTMAX
 10
-1.000000000000000E+20
 20
-1.000000000000000E+20
 30
-1.000000000000000E+20
  9
$LIMMIN
 10
0.0
 20
0.0
  9
$LIMMAX
 10
12.0
 20
9.0
  9
$ORTHOMODE
 70
     0
  9
$REGENMODE
 70
     1
  9
$FILLMODE
 70
     1
  9
$QTEXTMODE
 70
     0
  9
$MIRRTEXT
 70
     1
  9
$LTSCALE
 40
1.0
  9
$ATTMODE
 70
     1
  9
$TEXTSIZE
 40
0.2
  9
$TRACEWID
 40
0.05
  9
$TEXTSTYLE
  7
Standard
  9
$CLAYER
  8
0
  9
$CELTYPE
  6
ByLayer
  9
$CECOLOR
 62
   256
  9
$CELTSCALE
 40
1.0
  9
$DISPSILH
 70
     0
  9
$DIMSCALE
 40
1.0
  9
$DIMASZ
 40
0.18
  9
$DIMEXO
 40
0.0625
  9
$DIMDLI
 40
0.38
  9
$DIMRND
 40
0.0
  9
$DIMDLE
 40
0.0
  9
$DIMEXE
 40
0.18
  9
$DIMTP
 40
0.0
  9
$DIMTM
 40
0.0
  9
$DIMTXT
 40
0.18
  9
$DIMCEN
 40
0.09
  9
$DIMTSZ
 40
0.0
  9
$DIMTOL
 70
     0
  9
$DIMLIM
 70
     0
  9
$DIMTIH
 70
     1
  9
$DIMTOH
 70
     1
  9
$DIMSE1
 70
     0
  9
$DIMSE2
 70
     0
  9
$DIMTAD
 70
     0
  9
$DIMZIN
 70
     0
  9
$DIMBLK
  1

  9
$DIMASO
 70
     1
  9
$DIMSHO
 70
     1
  9
$DIMPOST
  1

  9
$DIMAPOST
  1

  9
$DIMALT
 70
     0
  9
$DIMALTD
 70
     2
  9
$DIMALTF
 40
25.4
  9
$DIMLFAC
 40
1.0
  9
$DIMTOFL
 70
     0
  9
$DIMTVP
 40
0.0
  9
$DIMTIX
 70
     0
  9
$DIMSOXD
 70
     0
  9
$DIMSAH
 70
     0
  9
$DIMBLK1
  1

  9
$DIMBLK2
  1

  9
$DIMSTYLE
  2
Standard
  9
$DIMCLRD
 70
     0
  9
$DIMCLRE
 70
     0
  9
$DIMCLRT
 70
     0
  9
$DIMTFAC
 40
1.0
  9
$DIMGAP
 40
0.09
  9
$DIMJUST
 70
     0
  9
$DIMSD1
 70
     0
  9
$DIMSD2
 70
     0
  9
$DIMTOLJ
 70
     1
  9
$DIMTZIN
 70
     0
  9
$DIMALTZ
 70
     0
  9
$DIMALTTZ
 70
     0
  9
$DIMUPT
 70
     0
  9
$DIMDEC
 70
     4
  9
$DIMTDEC
 70
     4
  9
$DIMALTU
 70
     2
  9
$DIMALTTD
 70
     2
  9
$DIMTXSTY
  7
Standard
  9
$DIMAUNIT
 70
     0
  9
$DIMADEC
 70
     0
  9
$DIMALTRND
 40
0.0
  9
$DIMAZIN
 70
     0
  9
$DIMDSEP
 70
    46
  9
$DIMATFIT
 70
     3
  9
$DIMFRAC
 70
     0
  9
$DIMLDRBLK
  1

  9
$DIMLUNIT
 70
     2
  9
$DIMLWD
 70
    -2
  9
$DIMLWE
 70
    -2
  9
$DIMTMOVE
 70
     0
  9
$LUNITS
 70
     2
  9
$LUPREC
 70
     4
  9
$SKETCHINC
 40
0.1
  9
$FILLETRAD
 40
0.5
  9
$AUNITS
 70
     0
  9
$AUPREC
 70
     0
  9
$MENU
  1
.
  9
$ELEVATION
 40
0.0
  9
$PELEVATION
 40
0.0
  9
$THICKNESS
 40
0.0
  9
$LIMCHECK
 70
     0
  9
$CHAMFERA
 40
0.5
  9
$CHAMFERB
 40
0.5
  9
$CHAMFERC
 40
1.0
  9
$CHAMFERD
 40
0.0
  9
$SKPOLY
 70
     0
  9
$TDCREATE
 40
2457126.473953495
  9
$TDUCREATE
 40
2457125.973953495
  9
$TDUPDATE
 40
2457126.473954618
  9
$TDUUPDATE
 40
2457125.973954618
  9
$TDINDWG
 40
0.0000000116
  9
$TDUSRTIMER
 40
0.0000000116
  9
$USRTIMER
 70
     1
  9
$ANGBASE
 50
0.0
  9
$ANGDIR
 70
     0
  9
$PDMODE
 70
     0
  9
$PDSIZE
 40
0.0
  9
$PLINEWID
 40
0.0
  9
$SPLFRAME
 70
     0
  9
$SPLINETYPE
 70
     6
  9
$SPLINESEGS
 70
     8
  9
$HANDSEED
  5
174
  9
$SURFTAB1
 70
     6
  9
$SURFTAB2
 70
     6
  9
$SURFTYPE
 70
     6
  9
$SURFU
 70
     6
  9
$SURFV
 70
     6
  9
$UCSBASE
  2

  9
$UCSNAME
  2

  9
$UCSORG
 10
0.0
 20
0.0
 30
0.0
  9
$UCSXDIR
 10
1.0
 20
0.0
 30
0.0
  9
$UCSYDIR
 10
0.0
 20
1.0
 30
0.0
  9
$UCSORTHOREF
  2

  9
$UCSORTHOVIEW
 70
     0
  9
$UCSORGTOP
 10
0.0
 20
0.0
 30
0.0
  9
$UCSORGBOTTOM
 10
0.0
 20
0.0
 30
0.0
  9
$UCSORGLEFT
 10
0.0
 20
0.0
 30
0.0
  9
$UCSORGRIGHT
 10
0.0
 20
0.0
 30
0.0
  9
$UCSORGFRONT
 10
0.0
 20
0.0
 30
0.0
  9
$UCSORGBACK
 10
0.0
 20
0.0
 30
0.0
  9
$PUCSBASE
  2

  9
$PUCSNAME
  2

  9
$PUCSORG
 10
0.0
 20
0.0
 30
0.0
  9
$PUCSXDIR
 10
1.0
 20
0.0
 30
0.0
  9
$PUCSYDIR
 10
0.0
 20
1.0
 30
0.0
  9
$PUCSORTHOREF
  2

  9
$PUCSORTHOVIEW
 70
     0
  9
$PUCSORGTOP
 10
0.0
 20
0.0
 30
0.0
  9
$PUCSORGBOTTOM
 10
0.0
 20
0.0
 30
0.0
  9
$PUCSORGLEFT
 10
0.0
 20
0.0
 30
0.0
  9
$PUCSORGRIGHT
 10
0.0
 20
0.0
 30
0.0
  9
$PUCSORGFRONT
 10
0.0
 20
0.0
 30
0.0
  9
$PUCSORGBACK
 10
0.0
 20
0.0
 30
0.0
  9
$USERI1
 70
     0
  9
$USERI2
 70
     0
  9
$USERI3
 70
     0
  9
$USERI4
 70
     0
  9
$USERI5
 70
     0
  9
$USERR1
 40
0.0
  9
$USERR2
 40
0.0
  9
$USERR3
 40
0.0
  9
$USERR4
 40
0.0
  9
$USERR5
 40
0.0
  9
$WORLDVIEW
 70
     1
  9
$SHADEDGE
 70
     3
  9
$SHADEDIF
 70
    70
  9
$TILEMODE
 70
     1
  9
$MAXACTVP
 70
    64
  9
$PINSBASE
 10
0.0
 20
0.0
 30
0.0
  9
$PLIMCHECK
 70
     0
  9
$PEXTMIN
 10
1.000000000000000E+20
 20
1.000000000000000E+20
 30
1.000000000000000E+20
  9
$PEXTMAX
 10
-1.000000000000000E+20
 20
-1.000000000000000E+20
 30
-1.000000000000000E+20
  9
$PLIMMIN
 10
0.0
 20
0.0
  9
$PLIMMAX
 10
12.0
 20
9.0
  9
$UNITMODE
 70
     0
  9
$VISRETAIN
 70
     1
  9
$PLINEGEN
 70
     0
  9
$PSLTSCALE
 70
     1
  9
$TREEDEPTH
 70
  3020
  9
$CMLSTYLE
  2
Standard
  9
$CMLJUST
 70
     0
  9
$CMLSCALE
 40
1.0
  9
$PROXYGRAPHICS
 70
     1
  9
$MEASUREMENT
 70
     0
  9
$CELWEIGHT
370
    -1
  9
$ENDCAPS
280
     0
  9
$JOINSTYLE
280
     0
  9
$LWDISPLAY
290
     1
  9
$INSUNITS
 70
     4
  9
$HYPERLINKBASE
  1

  9
$STYLESHEET
  1

  9
$XEDIT
290
     1
  9
$CEPSNTYPE
380
     0
  9
$PSTYLEMODE
290
     1
  9
$FINGERPRINTGUID
  2
{2B6E72D6-0A6E-4074-99B8-7CCA4C39A828}
  9
$VERSIONGUID
  2
{FAEB1C32-E019-11D5-929B-00C0DF256EC4}
  9
$EXTNAMES
290
     1
  9
$PSVPSCALE
 40
0.0
  9
$OLESTARTUP
290
     0
  9
$SORTENTS
280
   127
  9
$INDEXCTL
280
     0
  9
$HIDETEXT
280
     1
  9
$XCLIPFRAME
290
     0
  9
$HALOGAP
280
     0
  9
$OBSCOLOR
 70
   257
  9
$OBSLTYPE
280
     0
  9
$INTERSECTIONDISPLAY
280
     0
  9
$INTERSECTIONCOLOR
 70
   257
  9
$DIMASSOC
280
     2
  9
$PROJECTNAME
  1

  0
ENDSEC
  0
SECTION
  2
CLASSES
  0
CLASS
  1
ACDBDICTIONARYWDFLT
  2
AcDbDictionaryWithDefault
  3
ObjectDBX Classes
 90
        0
 91
        4
280
     0
281
     0
  0
CLASS
  1
VISUALSTYLE
  2
AcDbVisualStyle
  3
ObjectDBX Classes
 90
     4095
 91
        4
280
     0
281
     0
  0
CLASS
  1
MATERIAL
  2
AcDbMaterial
  3
ObjectDBX Classes
 90
     1153
 91
        4
280
     0
281
     0
  0
CLASS
  1
WIPEOUT
  2
AcDbWipeout
  3
WipeOut|AutoCAD Express Tool|expresstools@autodesk.com
 90
      127
 91
        4
280
     0
281
     1
  0
CLASS
  1
SCALE
  2
AcDbScale
  3
ObjectDBX Classes
 90
     1153
 91
        4
280
     0
281
     0
  0
CLASS
  1
DICTIONARYVAR
  2
AcDbDictionaryVar
  3
ObjectDBX Classes
 90
        0
 91
        4
280
     0
281
     0
  0
ENDSEC
  0
SECTION
  2
TABLES
  0
TABLE
  2
VPORT
  5
8
330
0
100
AcDbSymbolTable
 70
     1
  0
VPORT
  5
29
330
8
100
AcDbSymbolTableRecord
100
AcDbViewportTableRecord
  2
*Active
 70
     0
 10
0.0
 20
0.0
 11
1.0
 21
1.0
 12
168.0452901716393
 22
234.3590905519529
 13
0.0
 23
0.0
 14
0.5
 24
0.5
 15
0.5
 25
0.5
 16
0.0
 26
0.0
 36
1.0
 17
0.0
 27
0.0
 37
0.0
 40
498.5562293408308
 41
0.7466184481303083
 42
50.0
 43
0.0
 44
0.0
 50
0.0
 51
0.0
 71
     0
 72
   100
 73
     1
 74
     3
 75
     0
 76
     0
 77
     0
 78
     0
281
     0
 65
     1
110
0.0
120
0.0
130
0.0
111
1.0
121
0.0
131
0.0
112
0.0
122
1.0
132
0.0
 79
     0
146
0.0
  0
ENDTAB
  0
TABLE
  2
LTYPE
  5
5
330
0
100
AcDbSymbolTable
 70
     4
  0
LTYPE
  5
14
330
5
100
AcDbSymbolTableRecord
100
AcDbLinetypeTableRecord
  2
ByBlock
 70
     0
  3

 72
    65
 73
     0
 40
0.0
  0
LTYPE
  5
15
330
5
100
AcDbSymbolTableRecord
100
AcDbLinetypeTableRecord
  2
ByLayer
 70
     0
  3

 72
    65
 73
     0
 40
0.0
  0
LTYPE
  5
16
330
5
100
AcDbSymbolTableRecord
100
AcDbLinetypeTableRecord
  2
Continuous
 70
     0
  3
Solid line
 72
    65
 73
     0
 40
0.0
  0
LTYPE
  5
E3
330
5
100
AcDbSymbolTableRecord
100
AcDbLinetypeTableRecord
  2
Above
 70
     0
  3
- - - - - 
 72
    65
 73
     2
 40
15.0
 49
10.0
 74
     0
 49
-4.999999999999999
 74
     0
  0
LTYPE
  5
E8
330
5
100
AcDbSymbolTableRecord
100
AcDbLinetypeTableRecord
  2
Dashed
 70
     0
  3
- - - - - 
 72
    65
 73
     2
 40
11.28888893127441
 49
5.644444465637208
 74
     0
 49
-5.644444465637206
 74
     0
  0
LTYPE
  5
103
330
5
100
AcDbSymbolTableRecord
100
AcDbLinetypeTableRecord
  2
Wipeout_Contour
 70
     0
  3
- - - - - 
 72
    65
 73
     2
 40
1000.0
 49
0.0
 74
     0
 49
-1000.0
 74
     0
  0
ENDTAB
  0
TABLE
  2
LAYER
  5
2
330
0
100
AcDbSymbolTable
 70
     9
  0
LAYER
  5
10
330
2
100
AcDbSymbolTableRecord
100
AcDbLayerTableRecord
  2
0
 70
     0
 62
     7
  6
Continuous
370
    -3
390
F
  0
LAYER
  5
40
330
2
100
AcDbSymbolTableRecord
100
AcDbLayerTableRecord
  2
0_Pen_No__146
 70
     0
 62
     9
420
 13290186
  6
Continuous
370
     5
390
F
  0
LAYER
  5
49
330
2
100
AcDbSymbolTableRecord
100
AcDbLayerTableRecord
  2
_Fills_Pen_No__61
 70
     0
 62
   251
420
  6974058
  6
Continuous
370
    20
390
F
  0
LAYER
  5
4B
330
2
100
AcDbSymbolTableRecord
100
AcDbLayerTableRecord
  2
_Fills_Pen_No__1
 70
     0
 62
     7
  6
Continuous
370
    13
390
F
  0
LAYER
  5
4F
330
2
100
AcDbSymbolTableRecord
100
AcDbLayerTableRecord
  2
_Lines_Pen_No__1
 70
     0
 62
     7
  6
Continuous
370
    13
390
F
  0
LAYER
  5
EA
330
2
100
AcDbSymbolTableRecord
100
AcDbLayerTableRecord
  2
0_Pen_No__1
 70
     0
 62
     7
  6
Continuous
370
    13
390
F
  0
LAYER
  5
F1
330
2
100
AcDbSymbolTableRecord
100
AcDbLayerTableRecord
  2
_Text_Pen_No__1
 70
     0
 62
     7
  6
Continuous
370
    13
390
F
  0
LAYER
  5
FB
330
2
100
AcDbSymbolTableRecord
100
AcDbLayerTableRecord
  2
_Text
 70
     0
 62
     7
  6
Continuous
370
    -3
390
F
  0
LAYER
  5
104
330
2
100
AcDbSymbolTableRecord
100
AcDbLayerTableRecord
  2
Key_ Sections_Pen_No__1
 70
     0
 62
     7
  6
Continuous
370
    13
390
F
  0
ENDTAB
  0
TABLE
  2
STYLE
  5
3
330
0
100
AcDbSymbolTable
 70
     2
  0
STYLE
  5
11
330
3
100
AcDbSymbolTableRecord
100
AcDbTextStyleTableRecord
  2
Standard
 70
     0
 40
0.0
 41
1.0
 50
0.0
 71
     0
 42
0.2
  3
txt
  4

  0
STYLE
  5
F8
330
3
100
AcDbSymbolTableRecord
100
AcDbTextStyleTableRecord
  2
GENERATED_STYLE_1
 70
     0
 40
0.0
 41
1.0
 50
0.0
 71
     0
 42
0.2
  3

  4

1001
ACAD
1000
Arial
1071
       34
  0
ENDTAB
  0
TABLE
  2
VIEW
  5
6
330
0
100
AcDbSymbolTable
 70
     0
  0
ENDTAB
  0
TABLE
  2
UCS
  5
7
330
0
100
AcDbSymbolTable
 70
     0
  0
ENDTAB
  0
TABLE
  2
APPID
  5
9
330
0
100
AcDbSymbolTable
 70
     1
  0
APPID
  5
12
330
9
100
AcDbSymbolTableRecord
100
AcDbRegAppTableRecord
  2
ACAD
 70
     0
  0
ENDTAB
  0
TABLE
  2
DIMSTYLE
  5
A
330
0
100
AcDbSymbolTable
 70
     3
100
AcDbDimStyleTable
  0
DIMSTYLE
105
27
330
A
100
AcDbSymbolTableRecord
100
AcDbDimStyleTableRecord
  2
Standard
 70
     0
178
     0
340
11
  0
DIMSTYLE
105
FC
102
{ACAD_REACTORS
330
FA
102
}
330
A
100
AcDbSymbolTableRecord
100
AcDbDimStyleTableRecord
  2
GENERATED_STYLE__1
 70
     0
 41
3.04
 42
100.0
 73
     0
 74
     0
 77
     1
140
5.0
172
     1
176
     7
177
     7
271
     0
178
     7
271
     0
279
     2
288
     1
340
F8
342
FD
343
FD
344
FD
  0
DIMSTYLE
105
107
330
A
100
AcDbSymbolTableRecord
100
AcDbDimStyleTableRecord
  2
GENERATED_STYLE__2
 70
     0
 41
3.648
172
     1
178
     0
340
0
341
108
  0
ENDTAB
  0
TABLE
  2
BLOCK_RECORD
  5
1
330
0
100
AcDbSymbolTable
 70
     5
  0
BLOCK_RECORD
  5
1F
330
1
100
AcDbSymbolTableRecord
100
AcDbBlockTableRecord
  2
*Model_Space
340
22
  0
BLOCK_RECORD
  5
1B
330
1
100
AcDbSymbolTableRecord
100
AcDbBlockTableRecord
  2
*Paper_Space
340
1E
  0
BLOCK_RECORD
  5
23
330
1
100
AcDbSymbolTableRecord
100
AcDbBlockTableRecord
  2
*Paper_Space0
340
26
  0
BLOCK_RECORD
  5
ED
330
1
100
AcDbSymbolTableRecord
100
AcDbBlockTableRecord
  2
*D1
340
0
  0
BLOCK_RECORD
  5
FD
330
1
100
AcDbSymbolTableRecord
100
AcDbBlockTableRecord
  2
ARROWHEAD_2
340
0
  0
BLOCK_RECORD
  5
108
330
1
100
AcDbSymbolTableRecord
100
AcDbBlockTableRecord
  2
ARROWHEAD_5
340
0
  0
BLOCK_RECORD
  5
122
330
1
100
AcDbSymbolTableRecord
100
AcDbBlockTableRecord
  2
DF-29-R Palliside   Brick - Sil_STORY_MARKER
340
0
  0
ENDTAB
  0
ENDSEC
  0
SECTION
  2
BLOCKS
  0
BLOCK
  5
20
330
1F
100
AcDbEntity
  8
0
100
AcDbBlockBegin
  2
*Model_Space
 70
     0
 10
0.0
 20
0.0
 30
0.0
  3
*Model_Space
  1

  0
ENDBLK
  5
21
330
1F
100
AcDbEntity
  8
0
100
AcDbBlockEnd
  0
BLOCK
  5
1C
330
1B
100
AcDbEntity
 67
     1
  8
0
100
AcDbBlockBegin
  2
*Paper_Space
 70
     0
 10
0.0
 20
0.0
 30
0.0
  3
*Paper_Space
  1

  0
ENDBLK
  5
1D
330
1B
100
AcDbEntity
 67
     1
  8
0
100
AcDbBlockEnd
  0
BLOCK
  5
24
330
23
100
AcDbEntity
  8
0
100
AcDbBlockBegin
  2
*Paper_Space0
 70
     0
 10
0.0
 20
0.0
 30
0.0
  3
*Paper_Space0
  1

  0
ENDBLK
  5
25
330
23
100
AcDbEntity
  8
0
100
AcDbBlockEnd
  0
BLOCK
  5
EE
330
ED
100
AcDbEntity
  8
0
100
AcDbBlockBegin
  2
*D1
 70
     1
 10
0.0
 20
0.0
 30
0.0
  3
*D1
  1

  0
LINE
  5
F0
330
ED
100
AcDbEntity
  8
_Text_Pen_No__1
  6
Continuous
100
AcDbLine
 10
178.1031484889446
 20
219.9145749099791
 30
0.0
 11
178.6730491082227
 21
221.7857107372632
 31
0.0
  0
LINE
  5
F2
330
ED
100
AcDbEntity
  8
_Text_Pen_No__1
  6
Continuous
100
AcDbLine
 10
178.6730491082227
 20
221.7857107372632
 30
0.0
 11
180.1339100750256
 21
226.5821071635877
 31
0.0
  0
LINE
  5
F3
330
ED
100
AcDbEntity
  8
_Text_Pen_No__1
  6
Continuous
100
AcDbLine
 10
177.0962559540878
 20
223.4730327098201
 30
0.0
 11
180.2498422623576
 21
220.0983887647063
 31
0.0
  0
LINE
  5
F4
330
ED
100
AcDbEntity
  8
_Text_Pen_No__1
  6
Continuous
100
AcDbLine
 10
181.7107032291605
 20
224.8947851910308
 30
0.0
 11
178.5571169208907
 21
228.2694291361447
 31
0.0
  0
LINE
  5
F5
330
ED
100
AcDbEntity
  8
_Text_Pen_No__1
  6
Continuous
100
AcDbLine
 10
180.1339100750256
 20
226.5821071635877
 30
0.0
 11
180.7038106943038
 21
228.4532429908719
 31
0.0
  0
LINE
  5
F6
330
ED
100
AcDbEntity
  8
_Text_Pen_No__1
  6
Continuous
100
AcDbLine
 10
181.5428893341187
 20
220.9116300328488
 30
0.0
 11
175.8032088823268
 21
222.6597914416776
 31
0.0
  0
LINE
  5
F7
330
ED
100
AcDbEntity
  8
_Text_Pen_No__1
  6
Continuous
100
AcDbLine
 10
183.0037503009216
 20
225.7080264591734
 30
0.0
 11
177.2640698491297
 21
227.4561878680021
 31
0.0
  0
MTEXT
  5
F9
330
ED
100
AcDbEntity
  8
_Text_Pen_No__1
100
AcDbMText
 10
187.3187250357181
 20
216.3882647457924
 30
0.0
 40
5.0
 41
0.0
 71
     7
 72
     1
  1
{5mm gap}
  7
GENERATED_STYLE_1
 11
0.2913602348047825
 21
0.9566134086319834
 31
0.0
 73
     1
 44
1.0
  0
ENDBLK
  5
EF
330
ED
100
AcDbEntity
  8
0
100
AcDbBlockEnd
  0
BLOCK
  5
FE
330
FD
100
AcDbEntity
  8
0
100
AcDbBlockBegin
  2
ARROWHEAD_2
 70
     0
 10
0.0
 20
0.0
 30
0.0
  3
ARROWHEAD_2
  1

  0
LINE
  5
100
330
FD
100
AcDbEntity
  8
0
  6
Continuous
 62
     0
370
     0
100
AcDbLine
 10
-0.3781315
 20
-0.655
 30
0.0
 11
0.3781315
 21
0.655
 31
0.0
  0
LINE
  5
101
330
FD
100
AcDbEntity
  8
0
  6
Continuous
 62
     0
370
     0
100
AcDbLine
 10
0.0
 20
0.0
 30
0.0
 11
-1.0
 21
0.0
 31
0.0
  0
ENDBLK
  5
FF
330
FD
100
AcDbEntity
  8
0
100
AcDbBlockEnd
  0
BLOCK
  5
109
330
108
100
AcDbEntity
  8
0
100
AcDbBlockBegin
  2
ARROWHEAD_5
 70
     0
 10
0.0
 20
0.0
 30
0.0
  3
ARROWHEAD_5
  1

  0
SOLID
  5
10B
330
108
100
AcDbEntity
  8
0
  6
Continuous
 62
     0
370
     0
100
AcDbTrace
 10
-1.0
 20
0.2679
 30
0.0
 11
0.0
 21
0.0
 31
0.0
 12
-1.0
 22
-0.2679
 32
0.0
 13
-1.0
 23
0.2679
 33
0.0
  0
LINE
  5
10C
330
108
100
AcDbEntity
  8
0
  6
Continuous
 62
     0
370
     0
100
AcDbLine
 10
0.0
 20
0.0
 30
0.0
 11
-1.0
 21
0.0
 31
0.0
  0
ENDBLK
  5
10A
330
108
100
AcDbEntity
  8
0
100
AcDbBlockEnd
  0
BLOCK
  5
123
330
122
100
AcDbEntity
  8
0
100
AcDbBlockBegin
  2
DF-29-R Palliside   Brick - Sil_STORY_MARKER
 70
     0
 10
0.0
 20
0.0
 30
0.0
  3
DF-29-R Palliside   Brick - Sil_STORY_MARKER
  1

  0
ENDBLK
  5
124
330
122
100
AcDbEntity
  8
0
100
AcDbBlockEnd
  0
ENDSEC
  0
SECTION
  2
ENTITIES
  0
HATCH
  5
3F
330
1F
100
AcDbEntity
  8
0_Pen_No__146
  6
Continuous
 62
   250
420
  3289650
370
     0
100
AcDbHatch
 10
0.0
 20
0.0
 30
0.0
210
0.0
220
0.0
230
1.0
  2
SOLID
 70
     1
 71
     0
 91
        8
 92
        3
 72
     1
 73
     1
 93
        7
 10
112.905931993901
 20
162.7753990573244
 42
0.0
 10
216.501193009504
 20
125.069807636607
 42
0.0
 10
240.4426030423008
 20
190.8482910916204
 42
0.0
 10
112.905931993901
 20
237.2678431306385
 42
0.0
 10
112.905931993901
 20
188.2668007532717
 42
-0.7006388876331323
 10
127.4599041887963
 20
176.0689151162701
 42
-0.4666600107197208
 10
112.905931993901
 20
170.7812395992595
 42
0.0
 97
        0
 92
        2
 72
     1
 73
     1
 93
        2
 10
139.4514241400457
 20
209.0153454072685
 42
-1.000000004237996
 10
120.465777871684
 20
215.9255555272596
 42
-0.9999999957620043
 97
        0
 92
        2
 72
     1
 73
     1
 93
        2
 10
154.1178602223319
 20
166.3662126136862
 42
-0.9999999937184683
 10
135.1322139539697
 20
173.2764227336769
 42
-1.000000006281532
 97
        0
 92
        2
 72
     1
 73
     1
 93
        2
 10
166.1093801735813
 20
199.3126429046845
 42
-0.9999999887836151
 10
147.1237339052196
 20
206.2228530246756
 42
-1.000000011216385
 97
        0
 92
        2
 72
     1
 73
     1
 93
        2
 10
180.7758162558675
 20
156.663510111102
 42
-0.9999999919508855
 10
161.7901699875057
 20
163.5737202310929
 42
-1.000000008049114
 97
        0
 92
        2
 72
     1
 73
     1
 93
        2
 10
192.7673362071172
 20
189.6099404021003
 42
-0.9999999999999999
 10
173.7816899387554
 20
196.5201505220914
 42
-0.9999999999999999
 97
        0
 92
        2
 72
     1
 73
     1
 93
        2
 10
207.4337722894033
 20
146.9608076085178
 42
-1.000000020879162
 10
188.4481260210409
 20
153.8710177285087
 42
-0.9999999791208382
 97
        0
 92
        2
 72
     1
 73
     1
 93
        2
 10
219.4252922406532
 20
179.9072378995163
 42
-1.000000026752076
 10
200.439645972291
 20
186.8174480195072
 42
-0.9999999732479244
 97
        0
 75
     0
 76
     1
 98
        0
  0
HATCH
  5
41
330
1F
100
AcDbEntity
  8
0_Pen_No__146
  6
Continuous
 62
   250
420
  3289650
370
     0
100
AcDbHatch
 10
0.0
 20
0.0
 30
0.0
210
0.0
220
0.0
230
1.0
  2
SOLID
 70
     1
 71
     0
 91
        1
 92
        3
 72
     0
 73
     1
 93
        4
 10
202.4980468750004
 20
124.5575485089589
 10
132.4980468750001
 20
150.0354649075932
 10
132.4980468750003
 20
99.066150342969
 10
202.4980468750004
 20
99.066150342969
 97
        0
 75
     0
 76
     1
 98
        0
  0
HATCH
  5
42
330
1F
100
AcDbEntity
  8
0_Pen_No__146
  6
Continuous
 62
   250
420
  3289650
370
     0
100
AcDbHatch
 10
0.0
 20
0.0
 30
0.0
210
0.0
220
0.0
230
1.0
  2
SOLID
 70
     1
 71
     0
 91
        1
 92
        3
 72
     0
 73
     1
 93
        4
 10
202.4980468750004
 20
92.06615034296932
 10
132.4980468750001
 20
92.06615034296932
 10
132.4980468750001
 20
32.06615034296905
 10
202.4980468750004
 20
32.06615034296905
 97
        0
 75
     0
 76
     1
 98
        0
  0
HATCH
  5
43
330
1F
100
AcDbEntity
  8
0_Pen_No__146
  6
Continuous
100
AcDbHatch
 10
0.0
 20
0.0
 30
0.0
210
0.0
220
0.0
230
1.0
  2
SMALLDOTS
 70
     0
 71
     0
 91
        1
 92
        3
 72
     1
 73
     1
 93
        4
 10
132.4980468750001
 20
25.0661503429696
 42
0.0
 10
202.4980468750004
 20
25.0661503429696
 42
-0.5158460541800158
 10
202.4980468750004
 20
32.06615034296905
 42
0.0
 10
132.4980468750001
 20
32.06615034296905
 42
-0.515846054180016
 97
        0
 75
     0
 76
     2
 52
0.0
 41
1.0
 77
     0
 78
     2
 53
45.0
 43
0.0
 44
0.0
 45
-4.772970773009195
 46
4.772970773009196
 79
     4
 49
0.0
 49
-4.5
 49
0.0
 49
-6.75
 53
110.0
 43
15.0
 44
0.0
 45
6.34292519030488
 46
2.308635967448266
 79
     4
 49
0.0
 49
-3.3
 49
0.0
 49
-5.700000000000001
 98
        0
  0
HATCH
  5
44
330
1F
100
AcDbEntity
  8
0_Pen_No__146
  6
Continuous
 62
   250
420
  3289650
370
     0
100
AcDbHatch
 10
0.0
 20
0.0
 30
0.0
210
0.0
220
0.0
230
1.0
  2
SOLID
 70
     1
 71
     0
 91
        1
 92
        3
 72
     0
 73
     1
 93
        4
 10
202.4980468750004
 20
25.0661503429696
 10
132.4980468750001
 20
25.0661503429696
 10
132.4980468750001
 20
0.0371271462755067
 10
202.4980468750004
 20
0.0371271462755067
 97
        0
 75
     0
 76
     1
 98
        0
  0
HATCH
  5
45
330
1F
100
AcDbEntity
  8
0_Pen_No__146
  6
Continuous
100
AcDbHatch
 10
0.0
 20
0.0
 30
0.0
210
0.0
220
0.0
230
1.0
  2
SMALLDOTS
 70
     0
 71
     0
 91
        1
 92
        3
 72
     0
 73
     1
 93
        4
 10
135.5744470145195
 20
148.9157468281159
 10
200.0486034160223
 20
125.4490730185449
 10
200.0486034160223
 20
131.0580605252322
 10
135.5744470145197
 20
154.524734334803
 97
        0
 75
     0
 76
     2
 52
0.0
 41
1.0
 77
     0
 78
     2
 53
45.0
 43
0.0
 44
0.0
 45
-4.772970773009195
 46
4.772970773009196
 79
     4
 49
0.0
 49
-4.5
 49
0.0
 49
-6.75
 53
110.0
 43
15.0
 44
0.0
 45
6.34292519030488
 46
2.308635967448266
 79
     4
 49
0.0
 49
-3.3
 49
0.0
 49
-5.700000000000001
 98
        0
  0
HATCH
  5
46
330
1F
100
AcDbEntity
  8
0_Pen_No__146
  6
Continuous
 62
   250
420
  3289650
370
     0
100
AcDbHatch
 10
0.0
 20
0.0
 30
0.0
210
0.0
220
0.0
230
1.0
  2
SOLID
 70
     1
 71
     0
 91
        1
 92
        3
 72
     0
 73
     1
 93
        4
 10
102.4980468749996
 20
257.0559432791679
 10
102.4980468750001
 20
297.0559432791679
 10
12.49804687500022
 20
297.0559432791679
 10
12.49804687500022
 20
257.0559432791679
 97
        0
 75
     0
 76
     1
 98
        0
  0
HATCH
  5
47
330
1F
100
AcDbEntity
  8
0_Pen_No__146
  6
Continuous
100
AcDbHatch
 10
0.0
 20
0.0
 30
0.0
210
0.0
220
0.0
230
1.0
  2
SMALLDOTS
 70
     0
 71
     0
 91
        1
 92
        3
 72
     0
 73
     1
 93
        4
 10
0.000000000000222
 20
469.1782161852638
 10
0.0
 20
-0.0000000000000662
 10
10.49804687500022
 20
-0.0141644069927112
 10
10.49804687500022
 20
469.1782161852638
 97
        0
 75
     0
 76
     2
 52
0.0
 41
1.0
 77
     0
 78
     2
 53
45.0
 43
0.0
 44
0.0
 45
-4.772970773009195
 46
4.772970773009196
 79
     4
 49
0.0
 49
-4.5
 49
0.0
 49
-6.75
 53
110.0
 43
15.0
 44
0.0
 45
6.34292519030488
 46
2.308635967448266
 79
     4
 49
0.0
 49
-3.3
 49
0.0
 49
-5.700000000000001
 98
        0
  0
HATCH
  5
48
330
1F
100
AcDbEntity
  8
_Fills_Pen_No__61
  6
Continuous
100
AcDbHatch
 10
0.0
 20
0.0
 30
0.0
210
0.0
220
0.0
230
1.0
  2
SMALLDOTS
 70
     0
 71
     0
 91
        1
 92
        3
 72
     1
 73
     1
 93
        4
 10
132.4980468750001
 20
92.06615034296932
 42
0.0
 10
202.4980468750004
 20
92.06615034296932
 42
-0.5158460541800158
 10
202.4980468750004
 20
99.066150342969
 42
0.0
 10
132.4980468750001
 20
99.066150342969
 42
-0.515846054180016
 97
        0
 75
     0
 76
     2
 52
0.0
 41
1.0
 77
     0
 78
     2
 53
45.0
 43
0.0
 44
0.0
 45
-4.772970773009195
 46
4.772970773009196
 79
     4
 49
0.0
 49
-4.5
 49
0.0
 49
-6.75
 53
110.0
 43
15.0
 44
0.0
 45
6.34292519030488
 46
2.308635967448266
 79
     4
 49
0.0
 49
-3.3
 49
0.0
 49
-5.700000000000001
 98
        0
  0
HATCH
  5
4A
330
1F
100
AcDbEntity
  8
_Fills_Pen_No__1
  6
Continuous
100
AcDbHatch
 10
0.0
 20
0.0
 30
0.0
210
0.0
220
0.0
230
1.0
  2
SOLID
 70
     1
 71
     0
 91
        1
 92
        3
 72
     0
 73
     1
 93
       15
 10
106.4980468749999
 20
242.0138312508734
 10
107.7980472465929
 20
241.5793447154298
 10
157.8895623912185
 20
222.9209909103666
 10
160.9327642804379
 20
222.9747953152886
 10
162.9173754792354
 20
219.6736875192419
 10
163.8202739969576
 20
220.3286936168466
 10
161.5711776929563
 20
224.0692173578382
 10
158.3381536236868
 20
224.142233820304
 10
107.7980472465929
 20
242.9676803048588
 10
107.7980472465929
 20
329.8383828848827
 10
108.5568370387064
 20
329.8383828848827
 10
108.5568370387064
 20
324.59374230255
 10
109.8739373389409
 20
324.59374230255
 10
109.8739373389409
 20
331.2819049100352
 10
106.4980468749999
 20
331.2819049100352
 97
        0
 75
     0
 76
     1
 98
        0
  0
HATCH
  5
4C
330
1F
100
AcDbEntity
  8
0_Pen_No__146
  6
Continuous
100
AcDbHatch
 10
0.0
 20
0.0
 30
0.0
210
0.0
220
0.0
230
1.0
  2
SMALLDOTS
 70
     0
 71
     0
 91
        1
 92
        3
 72
     1
 73
     1
 93
       19
 10
111.3282460284872
 20
381.1167093510849
 42
0.2578442516232813
 10
126.3282460284842
 20
339.4617809894757
 42
0.0
 10
126.3282460284842
 20
277.4617809894746
 42
0.0
 10
112.3282460284885
 20
277.4617809894746
 42
0.0
 10
112.3282460284885
 20
263.1917526382605
 42
0.0
 10
118.4589967986844
 20
263.1917526382605
 42
0.0
 10
118.4589967986844
 20
270.4617809894767
 42
0.0
 10
126.3282460284842
 20
270.4617809894767
 42
0.0
 10
126.3282460284842
 20
250.4617809894735
 42
0.0
 10
119.3282460284863
 20
250.4617809894735
 42
0.0
 10
119.3282460284863
 20
243.4617809894754
 42
0.0
 10
133.3282460284855
 20
243.4617809894754
 42
0.0
 10
133.3282460284855
 20
344.1167093510859
 42
-0.2372885156421136
 10
118.3282460284887
 20
374.1167093510835
 42
0.0
 10
133.3282460284855
 20
374.1167093510835
 42
0.0
 10
133.3282460284855
 20
469.1782161852633
 42
0.0
 10
125.8476284404599
 20
469.1782161852633
 42
0.0
 10
126.3282460284842
 20
468.8068526278659
 42
0.0
 10
126.3282460284842
 20
381.1167093510849
 42
0.0
 97
        0
 75
     0
 76
     2
 52
0.0
 41
1.0
 77
     0
 78
     2
 53
45.0
 43
0.0
 44
0.0
 45
-4.772970773009195
 46
4.772970773009196
 79
     4
 49
0.0
 49
-4.5
 49
0.0
 49
-6.75
 53
110.0
 43
15.0
 44
0.0
 45
6.34292519030488
 46
2.308635967448266
 79
     4
 49
0.0
 49
-3.3
 49
0.0
 49
-5.700000000000001
 98
        0
  0
HATCH
  5
4D
330
1F
100
AcDbEntity
  8
0_Pen_No__146
  6
Continuous
 62
   250
420
  3289650
370
     0
100
AcDbHatch
 10
0.0
 20
0.0
 30
0.0
210
0.0
220
0.0
230
1.0
  2
SOLID
 70
     1
 71
     0
 91
        1
 92
        3
 72
     1
 73
     1
 93
       20
 10
113.3617869034058
 20
317.4969747126061
 42
0.0
 10
114.5617869034055
 20
317.4969747126061
 42
0.0
 10
114.5617869034055
 20
321.546974712606
 42
0.9210526313216791
 10
110.7617869034057
 20
321.546974712606
 42
0.0
 10
110.7617869034057
 20
249.8218772126061
 42
0.0
 10
111.9617869034055
 20
249.8218772126061
 42
0.0
 10
111.9617869034055
 20
260.296974712606
 42
0.0
 10
114.3617869034057
 20
260.296974712606
 42
0.0
 10
114.3617869034057
 20
249.8218152126057
 42
0.0
 10
115.5617869034056
 20
249.8218152126057
 42
0.0
 10
115.5617869034056
 20
260.296974712606
 42
0.0
 10
120.5617869034052
 20
260.296974712606
 42
0.0
 10
120.5617869034052
 20
264.6169747126061
 42
0.0
 10
122.3723009034057
 20
268.3069747126058
 42
0.0
 10
120.7014719034056
 20
268.3069747126058
 42
0.0
 10
119.0617869034054
 20
264.965139712606
 42
0.0
 10
119.0617869034054
 20
261.7969747126058
 42
0.0
 10
111.9617869034055
 20
261.7969747126058
 42
0.0
 10
111.9645859501688
 20
321.5580842987462
 42
-0.7793043966570153
 10
113.3617869034058
 20
321.546974712606
 42
0.0
 97
        0
 75
     0
 76
     1
 98
        0
  0
LWPOLYLINE
  5
4E
330
1F
100
AcDbEntity
  8
_Lines_Pen_No__1
  6
Continuous
100
AcDbPolyline
 90
        2
 70
   128
 43
0.0
 10
112.905931993901
 20
162.7753990573244
 10
216.501193009504
 20
125.069807636607
  0
LWPOLYLINE
  5
50
330
1F
100
AcDbEntity
  8
_Lines_Pen_No__1
  6
Continuous
100
AcDbPolyline
 90
        2
 70
   128
 43
0.0
 10
216.501193009504
 20
125.069807636607
 10
240.4426030423008
 20
190.8482910916204
  0
LWPOLYLINE
  5
51
330
1F
100
AcDbEntity
  8
_Lines_Pen_No__1
  6
Continuous
100
AcDbPolyline
 90
        2
 70
   128
 43
0.0
 10
240.4426030423008
 20
190.8482910916204
 10
112.905931993901
 20
237.2678431306385
  0
LWPOLYLINE
  5
52
330
1F
100
AcDbEntity
  8
_Lines_Pen_No__1
  6
Continuous
100
AcDbPolyline
 90
        2
 70
   128
 43
0.0
 10
112.905931993901
 20
237.2678431306385
 10
112.905931993901
 20
188.2668007532717
  0
LWPOLYLINE
  5
53
330
1F
100
AcDbEntity
  8
_Lines_Pen_No__1
  6
Continuous
100
AcDbPolyline
 90
        2
 70
   128
 43
0.0
 10
112.905931993901
 20
170.7812395992595
 10
112.905931993901
 20
162.7753990573244
  0
LWPOLYLINE
  5
54
330
1F
100
AcDbEntity
  8
_Lines_Pen_No__1
  6
Continuous
100
AcDbPolyline
 90
        2
 70
   128
 43
0.0
 10
202.4980468750004
 20
124.5575485089589
 10
132.4980468750001
 20
150.0354649075932
  0
LWPOLYLINE
  5
55
330
1F
100
AcDbEntity
  8
_Lines_Pen_No__1
  6
Continuous
100
AcDbPolyline
 90
        2
 70
   128
 43
0.0
 10
132.4980468750001
 20
150.0354649075932
 10
132.4980468750003
 20
99.066150342969
  0
LWPOLYLINE
  5
56
330
1F
100
AcDbEntity
  8
_Lines_Pen_No__1
  6
Continuous
100
AcDbPolyline
 90
        2
 70
   128
 43
0.0
 10
132.4980468750003
 20
99.066150342969
 10
202.4980468750004
 20
99.066150342969
  0
LWPOLYLINE
  5
57
330
1F
100
AcDbEntity
  8
_Lines_Pen_No__1
  6
Continuous
100
AcDbPolyline
 90
        2
 70
   128
 43
0.0
 10
202.4980468750004
 20
99.066150342969
 10
202.4980468750004
 20
124.5575485089589
  0
LWPOLYLINE
  5
58
330
1F
100
AcDbEntity
  8
_Lines_Pen_No__1
  6
Continuous
100
AcDbPolyline
 90
        2
 70
   128
 43
0.0
 10
202.4980468750004
 20
92.06615034296932
 10
132.4980468750001
 20
92.06615034296932
  0
LWPOLYLINE
  5
59
330
1F
100
AcDbEntity
  8
_Lines_Pen_No__1
  6
Continuous
100
AcDbPolyline
 90
        2
 70
   128
 43
0.0
 10
132.4980468750001
 20
92.06615034296932
 10
132.4980468750001
 20
32.06615034296905
  0
LWPOLYLINE
  5
5A
330
1F
100
AcDbEntity
  8
_Lines_Pen_No__1
  6
Continuous
100
AcDbPolyline
 90
        2
 70
   128
 43
0.0
 10
132.4980468750001
 20
32.06615034296905
 10
202.4980468750004
 20
32.06615034296905
  0
LWPOLYLINE
  5
5B
330
1F
100
AcDbEntity
  8
_Lines_Pen_No__1
  6
Continuous
100
AcDbPolyline
 90
        2
 70
   128
 43
0.0
 10
202.4980468750004
 20
32.06615034296905
 10
202.4980468750004
 20
92.06615034296932
  0
LWPOLYLINE
  5
5C
330
1F
100
AcDbEntity
  8
_Lines_Pen_No__1
  6
Continuous
100
AcDbPolyline
 90
        2
 70
   128
 43
0.0
 10
132.4980468750001
 20
32.06615034296905
 10
202.4980468750004
 20
32.06615034296905
  0
LWPOLYLINE
  5
5D
330
1F
100
AcDbEntity
  8
_Lines_Pen_No__1
  6
Continuous
100
AcDbPolyline
 90
        2
 70
   128
 43
0.0
 10
202.4980468750004
 20
25.0661503429696
 10
132.4980468750001
 20
25.0661503429696
  0
LWPOLYLINE
  5
5E
330
1F
100
AcDbEntity
  8
_Lines_Pen_No__1
  6
Continuous
100
AcDbPolyline
 90
        2
 70
   128
 43
0.0
 10
202.4980468750004
 20
25.0661503429696
 10
132.4980468750001
 20
25.0661503429696
  0
LWPOLYLINE
  5
5F
330
1F
100
AcDbEntity
  8
_Lines_Pen_No__1
  6
Continuous
100
AcDbPolyline
 90
        2
 70
   128
 43
0.0
 10
132.4980468750001
 20
25.0661503429696
 10
132.4980468750001
 20
0.0371271462755067
  0
LWPOLYLINE
  5
60
330
1F
100
AcDbEntity
  8
_Lines_Pen_No__1
  6
Continuous
100
AcDbPolyline
 90
        2
 70
   128
 43
0.0
 10
132.4980468750001
 20
0.0371271462755067
 10
202.4980468750004
 20
0.0371271462755067
  0
LWPOLYLINE
  5
61
330
1F
100
AcDbEntity
  8
_Lines_Pen_No__1
  6
Continuous
100
AcDbPolyline
 90
        2
 70
   128
 43
0.0
 10
202.4980468750004
 20
0.0371271462755067
 10
202.4980468750004
 20
25.0661503429696
  0
LWPOLYLINE
  5
62
330
1F
100
AcDbEntity
  8
_Lines_Pen_No__1
  6
Continuous
100
AcDbPolyline
 90
        2
 70
   128
 43
0.0
 10
135.5744470145195
 20
148.9157468281159
 10
135.5744470145197
 20
154.524734334803
  0
LWPOLYLINE
  5
63
330
1F
100
AcDbEntity
  8
_Lines_Pen_No__1
  6
Continuous
100
AcDbPolyline
 90
        2
 70
   128
 43
0.0
 10
135.5744470145197
 20
154.524734334803
 10
200.0486034160223
 20
131.0580605252322
  0
LWPOLYLINE
  5
64
330
1F
100
AcDbEntity
  8
_Lines_Pen_No__1
  6
Continuous
100
AcDbPolyline
 90
        2
 70
   128
 43
0.0
 10
200.0486034160223
 20
131.0580605252322
 10
200.0486034160223
 20
125.4490730185449
  0
LWPOLYLINE
  5
65
330
1F
100
AcDbEntity
  8
_Lines_Pen_No__1
  6
Continuous
100
AcDbPolyline
 90
        2
 70
   128
 43
0.0
 10
200.0486034160223
 20
125.4490730185449
 10
135.5744470145195
 20
148.9157468281159
  0
LWPOLYLINE
  5
66
330
1F
100
AcDbEntity
  8
_Lines_Pen_No__1
  6
Continuous
100
AcDbPolyline
 90
        2
 70
   128
 43
0.0
 10
102.4980468749996
 20
257.0559432791679
 10
102.4980468750001
 20
297.0559432791679
  0
LWPOLYLINE
  5
67
330
1F
100
AcDbEntity
  8
_Lines_Pen_No__1
  6
Continuous
100
AcDbPolyline
 90
        2
 70
   128
 43
0.0
 10
102.4980468750001
 20
297.0559432791679
 10
12.49804687500022
 20
297.0559432791679
  0
LWPOLYLINE
  5
68
330
1F
100
AcDbEntity
  8
_Lines_Pen_No__1
  6
Continuous
100
AcDbPolyline
 90
        2
 70
   128
 43
0.0
 10
12.49804687500022
 20
297.0559432791679
 10
12.49804687500022
 20
257.0559432791679
  0
LWPOLYLINE
  5
69
330
1F
100
AcDbEntity
  8
_Lines_Pen_No__1
  6
Continuous
100
AcDbPolyline
 90
        2
 70
   128
 43
0.0
 10
12.49804687500022
 20
257.0559432791679
 10
102.4980468749996
 20
257.0559432791679
  0
LWPOLYLINE
  5
6A
330
1F
100
AcDbEntity
  8
_Lines_Pen_No__1
  6
Continuous
100
AcDbPolyline
 90
        2
 70
   128
 43
0.0
 10
0.000000000000222
 20
469.1782161852638
 10
0.0
 20
-0.0000000000000662
  0
LWPOLYLINE
  5
6B
330
1F
100
AcDbEntity
  8
_Lines_Pen_No__1
  6
Continuous
100
AcDbPolyline
 90
        2
 70
   128
 43
0.0
 10
0.0
 20
-0.0000000000000662
 10
10.49804687500022
 20
-0.0141644069927112
  0
LWPOLYLINE
  5
6C
330
1F
100
AcDbEntity
  8
_Lines_Pen_No__1
  6
Continuous
100
AcDbPolyline
 90
        2
 70
   128
 43
0.0
 10
10.49804687500022
 20
-0.0141644069927112
 10
10.49804687500022
 20
469.1782161852638
  0
LWPOLYLINE
  5
6D
330
1F
100
AcDbEntity
  8
_Lines_Pen_No__1
  6
Continuous
100
AcDbPolyline
 90
        2
 70
   128
 43
0.0
 10
10.49804687500022
 20
469.1782161852638
 10
0.000000000000222
 20
469.1782161852638
  0
LWPOLYLINE
  5
6E
330
1F
100
AcDbEntity
  8
_Lines_Pen_No__1
  6
Continuous
100
AcDbPolyline
 90
        2
 70
   128
 43
0.0
 10
132.4980468750001
 20
99.066150342969
 10
202.4980468750004
 20
99.066150342969
  0
LWPOLYLINE
  5
6F
330
1F
100
AcDbEntity
  8
_Lines_Pen_No__1
  6
Continuous
100
AcDbPolyline
 90
        2
 70
   128
 43
0.0
 10
202.4980468750004
 20
92.06615034296932
 10
132.4980468750001
 20
92.06615034296932
  0
LWPOLYLINE
  5
70
330
1F
100
AcDbEntity
  8
_Lines_Pen_No__1
  6
Continuous
100
AcDbPolyline
 90
        2
 70
   128
 43
0.0
 10
106.4980468749999
 20
242.0138307341803
 10
107.7980468750002
 20
241.5793445809073
  0
LWPOLYLINE
  5
71
330
1F
100
AcDbEntity
  8
_Lines_Pen_No__1
  6
Continuous
100
AcDbPolyline
 90
        2
 70
   128
 43
0.0
 10
107.7980468750002
 20
241.5793445809073
 10
157.8895623617598
 20
222.9209915849483
  0
LWPOLYLINE
  5
72
330
1F
100
AcDbEntity
  8
_Lines_Pen_No__1
  6
Continuous
100
AcDbPolyline
 90
        2
 70
   128
 43
0.0
 10
157.8895623617598
 20
222.9209915849483
 10
160.9327645537824
 20
222.9747949773941
  0
LWPOLYLINE
  5
73
330
1F
100
AcDbEntity
  8
_Lines_Pen_No__1
  6
Continuous
100
AcDbPolyline
 90
        2
 70
   128
 43
0.0
 10
160.9327645537824
 20
222.9747949773941
 10
162.9173747995976
 20
219.6736875192419
  0
LWPOLYLINE
  5
74
330
1F
100
AcDbEntity
  8
_Lines_Pen_No__1
  6
Continuous
100
AcDbPolyline
 90
        2
 70
   128
 43
0.0
 10
162.9173747995976
 20
219.6736875192419
 10
163.8202737917083
 20
220.3286934132355
  0
LWPOLYLINE
  5
75
330
1F
100
AcDbEntity
  8
_Lines_Pen_No__1
  6
Continuous
100
AcDbPolyline
 90
        2
 70
   128
 43
0.0
 10
163.8202737917083
 20
220.3286934132355
 10
161.5711775696116
 20
224.0692172902443
  0
LWPOLYLINE
  5
76
330
1F
100
AcDbEntity
  8
_Lines_Pen_No__1
  6
Continuous
100
AcDbPolyline
 90
        2
 70
   128
 43
0.0
 10
161.5711775696116
 20
224.0692172902443
 10
158.3381543968312
 20
224.1422336203366
  0
LWPOLYLINE
  5
77
330
1F
100
AcDbEntity
  8
_Lines_Pen_No__1
  6
Continuous
100
AcDbPolyline
 90
        2
 70
   128
 43
0.0
 10
158.3381543968312
 20
224.1422336203366
 10
107.7980468750002
 20
242.9676805534666
  0
LWPOLYLINE
  5
78
330
1F
100
AcDbEntity
  8
_Lines_Pen_No__1
  6
Continuous
100
AcDbPolyline
 90
        2
 70
   128
 43
0.0
 10
107.7980468750002
 20
242.9676805534666
 10
107.7980468750002
 20
287.6105843679137
  0
LWPOLYLINE
  5
79
330
1F
100
AcDbEntity
  8
_Lines_Pen_No__1
  6
Continuous
100
AcDbPolyline
 90
        2
 70
   128
 43
0.0
 10
107.7980468750002
 20
287.6105843679137
 10
107.7980468750002
 20
329.838382635319
  0
LWPOLYLINE
  5
7A
330
1F
100
AcDbEntity
  8
_Lines_Pen_No__1
  6
Continuous
100
AcDbPolyline
 90
        2
 70
   128
 43
0.0
 10
107.7980468750002
 20
329.838382635319
 10
108.5568369017216
 20
329.838382635319
  0
LWPOLYLINE
  5
7B
330
1F
100
AcDbEntity
  8
_Lines_Pen_No__1
  6
Continuous
100
AcDbPolyline
 90
        2
 70
   128
 43
0.0
 10
108.5568369017216
 20
329.838382635319
 10
108.5568369017216
 20
324.5937431007195
  0
LWPOLYLINE
  5
7C
330
1F
100
AcDbEntity
  8
_Lines_Pen_No__1
  6
Continuous
100
AcDbPolyline
 90
        2
 70
   128
 43
0.0
 10
108.5568369017216
 20
324.5937431007195
 10
109.8739376744933
 20
324.5937431007195
  0
LWPOLYLINE
  5
7D
330
1F
100
AcDbEntity
  8
_Lines_Pen_No__1
  6
Continuous
100
AcDbPolyline
 90
        2
 70
   128
 43
0.0
 10
109.8739376744933
 20
324.5937431007195
 10
109.8739376744933
 20
331.281904910035
  0
LWPOLYLINE
  5
7E
330
1F
100
AcDbEntity
  8
_Lines_Pen_No__1
  6
Continuous
100
AcDbPolyline
 90
        2
 70
   128
 43
0.0
 10
109.8739376744933
 20
331.281904910035
 10
106.4980468749999
 20
331.2819049100352
  0
LWPOLYLINE
  5
7F
330
1F
100
AcDbEntity
  8
_Lines_Pen_No__1
  6
Continuous
100
AcDbPolyline
 90
        2
 70
   128
 43
0.0
 10
106.4980468749999
 20
331.2819049100352
 10
106.4980468749999
 20
242.0138307341803
  0
LWPOLYLINE
  5
80
330
1F
100
AcDbEntity
  8
_Lines_Pen_No__1
  6
Continuous
100
AcDbPolyline
 90
        2
 70
   128
 43
0.0
 10
133.3282460284855
 20
374.1167093510835
 10
133.3282460284855
 20
461.4621755782923
  0
LWPOLYLINE
  5
81
330
1F
100
AcDbEntity
  8
_Lines_Pen_No__1
  6
Continuous
100
AcDbPolyline
 90
        2
 70
   128
 43
0.0
 10
133.3282460284855
 20
461.4621755782923
 10
133.3282460284855
 20
468.7224562817089
  0
LWPOLYLINE
  5
82
330
1F
100
AcDbEntity
  8
_Lines_Pen_No__1
  6
Continuous
100
AcDbPolyline
 90
        2
 70
   128
 43
0.0
 10
133.3282460284855
 20
468.7224562817089
 10
133.3282460284855
 20
469.1782161852633
  0
LWPOLYLINE
  5
83
330
1F
100
AcDbEntity
  8
_Lines_Pen_No__1
  6
Continuous
100
AcDbPolyline
 90
        2
 70
   128
 43
0.0
 10
133.3282460284855
 20
469.1782161852633
 10
125.8476284404599
 20
469.1782161852633
  0
LWPOLYLINE
  5
84
330
1F
100
AcDbEntity
  8
_Lines_Pen_No__1
  6
Continuous
100
AcDbPolyline
 90
        2
 70
   128
 43
0.0
 10
125.8476284404599
 20
469.1782161852633
 10
126.3282460284842
 20
468.8068526278659
  0
LWPOLYLINE
  5
85
330
1F
100
AcDbEntity
  8
_Lines_Pen_No__1
  6
Continuous
100
AcDbPolyline
 90
        2
 70
   128
 43
0.0
 10
126.3282460284842
 20
468.8068526278659
 10
126.3282460284842
 20
468.7224562817089
  0
LWPOLYLINE
  5
86
330
1F
100
AcDbEntity
  8
_Lines_Pen_No__1
  6
Continuous
100
AcDbPolyline
 90
        2
 70
   128
 43
0.0
 10
126.3282460284842
 20
468.7224562817089
 10
126.3282460284842
 20
461.4621755782923
  0
LWPOLYLINE
  5
87
330
1F
100
AcDbEntity
  8
_Lines_Pen_No__1
  6
Continuous
100
AcDbPolyline
 90
        2
 70
   128
 43
0.0
 10
126.3282460284842
 20
461.4621755782923
 10
126.3282460284842
 20
381.1167093510849
  0
LWPOLYLINE
  5
88
330
1F
100
AcDbEntity
  8
_Lines_Pen_No__1
  6
Continuous
100
AcDbPolyline
 90
        2
 70
   128
 43
0.0
 10
126.3282460284842
 20
381.1167093510849
 10
111.3282460284872
 20
381.1167093510849
  0
LWPOLYLINE
  5
89
330
1F
100
AcDbEntity
  8
_Lines_Pen_No__1
  6
Continuous
100
AcDbPolyline
 90
        2
 70
   128
 43
0.0
 10
126.3282460284842
 20
339.4617809894757
 10
126.3282460284842
 20
277.4617809894746
  0
LWPOLYLINE
  5
8A
330
1F
100
AcDbEntity
  8
_Lines_Pen_No__1
  6
Continuous
100
AcDbPolyline
 90
        2
 70
   128
 43
0.0
 10
126.3282460284842
 20
277.4617809894746
 10
112.3282460284885
 20
277.4617809894746
  0
LWPOLYLINE
  5
8B
330
1F
100
AcDbEntity
  8
_Lines_Pen_No__1
  6
Continuous
100
AcDbPolyline
 90
        2
 70
   128
 43
0.0
 10
112.3282460284885
 20
277.4617809894746
 10
112.3282460284885
 20
263.1917526382605
  0
LWPOLYLINE
  5
8C
330
1F
100
AcDbEntity
  8
_Lines_Pen_No__1
  6
Continuous
100
AcDbPolyline
 90
        2
 70
   128
 43
0.0
 10
112.3282460284885
 20
263.1917526382605
 10
118.4589967986844
 20
263.1917526382605
  0
LWPOLYLINE
  5
8D
330
1F
100
AcDbEntity
  8
_Lines_Pen_No__1
  6
Continuous
100
AcDbPolyline
 90
        2
 70
   128
 43
0.0
 10
118.4589967986844
 20
263.1917526382605
 10
118.4589967986844
 20
270.4617809894767
  0
LWPOLYLINE
  5
8E
330
1F
100
AcDbEntity
  8
_Lines_Pen_No__1
  6
Continuous
100
AcDbPolyline
 90
        2
 70
   128
 43
0.0
 10
118.4589967986844
 20
270.4617809894767
 10
126.3282460284842
 20
270.4617809894767
  0
LWPOLYLINE
  5
8F
330
1F
100
AcDbEntity
  8
_Lines_Pen_No__1
  6
Continuous
100
AcDbPolyline
 90
        2
 70
   128
 43
0.0
 10
126.3282460284842
 20
270.4617809894767
 10
126.3282460284842
 20
250.4617809894735
  0
LWPOLYLINE
  5
90
330
1F
100
AcDbEntity
  8
_Lines_Pen_No__1
  6
Continuous
100
AcDbPolyline
 90
        2
 70
   128
 43
0.0
 10
126.3282460284842
 20
250.4617809894735
 10
119.3282460284863
 20
250.4617809894735
  0
LWPOLYLINE
  5
91
330
1F
100
AcDbEntity
  8
_Lines_Pen_No__1
  6
Continuous
100
AcDbPolyline
 90
        2
 70
   128
 43
0.0
 10
119.3282460284863
 20
250.4617809894735
 10
119.3282460284863
 20
243.4617809894754
  0
LWPOLYLINE
  5
92
330
1F
100
AcDbEntity
  8
_Lines_Pen_No__1
  6
Continuous
100
AcDbPolyline
 90
        2
 70
   128
 43
0.0
 10
119.3282460284863
 20
243.4617809894754
 10
133.3282460284855
 20
243.4617809894754
  0
LWPOLYLINE
  5
93
330
1F
100
AcDbEntity
  8
_Lines_Pen_No__1
  6
Continuous
100
AcDbPolyline
 90
        2
 70
   128
 43
0.0
 10
133.3282460284855
 20
243.4617809894754
 10
133.3282460284855
 20
344.1167093510859
  0
LWPOLYLINE
  5
94
330
1F
100
AcDbEntity
  8
_Lines_Pen_No__1
  6
Continuous
100
AcDbPolyline
 90
        2
 70
   128
 43
0.0
 10
118.3282460284887
 20
374.1167093510835
 10
133.3282460284855
 20
374.1167093510835
  0
LWPOLYLINE
  5
95
330
1F
100
AcDbEntity
  8
_Lines_Pen_No__1
  6
Continuous
100
AcDbPolyline
 90
        2
 70
   128
 43
0.0
 10
113.3617869034058
 20
317.4969747126061
 10
114.5617869034055
 20
317.4969747126061
  0
LWPOLYLINE
  5
96
330
1F
100
AcDbEntity
  8
_Lines_Pen_No__1
  6
Continuous
100
AcDbPolyline
 90
        2
 70
   128
 43
0.0
 10
114.5617869034055
 20
317.4969747126061
 10
114.5617869034055
 20
321.546974712606
  0
LWPOLYLINE
  5
97
330
1F
100
AcDbEntity
  8
_Lines_Pen_No__1
  6
Continuous
100
AcDbPolyline
 90
        2
 70
   128
 43
0.0
 10
110.7617869034057
 20
321.546974712606
 10
110.7617869034057
 20
249.8218772126061
  0
LWPOLYLINE
  5
98
330
1F
100
AcDbEntity
  8
_Lines_Pen_No__1
  6
Continuous
100
AcDbPolyline
 90
        2
 70
   128
 43
0.0
 10
110.7617869034057
 20
249.8218772126061
 10
111.9617869034055
 20
249.8218772126061
  0
LWPOLYLINE
  5
99
330
1F
100
AcDbEntity
  8
_Lines_Pen_No__1
  6
Continuous
100
AcDbPolyline
 90
        2
 70
   128
 43
0.0
 10
111.9617869034055
 20
249.8218772126061
 10
111.9617869034055
 20
260.296974712606
  0
LWPOLYLINE
  5
9A
330
1F
100
AcDbEntity
  8
_Lines_Pen_No__1
  6
Continuous
100
AcDbPolyline
 90
        2
 70
   128
 43
0.0
 10
111.9617869034055
 20
260.296974712606
 10
114.3617869034057
 20
260.296974712606
  0
LWPOLYLINE
  5
9B
330
1F
100
AcDbEntity
  8
_Lines_Pen_No__1
  6
Continuous
100
AcDbPolyline
 90
        2
 70
   128
 43
0.0
 10
114.3617869034057
 20
260.296974712606
 10
114.3617869034057
 20
249.8218152126057
  0
LWPOLYLINE
  5
9C
330
1F
100
AcDbEntity
  8
_Lines_Pen_No__1
  6
Continuous
100
AcDbPolyline
 90
        2
 70
   128
 43
0.0
 10
114.3617869034057
 20
249.8218152126057
 10
115.5617869034056
 20
249.8218152126057
  0
LWPOLYLINE
  5
9D
330
1F
100
AcDbEntity
  8
_Lines_Pen_No__1
  6
Continuous
100
AcDbPolyline
 90
        2
 70
   128
 43
0.0
 10
115.5617869034056
 20
249.8218152126057
 10
115.5617869034056
 20
260.296974712606
  0
LWPOLYLINE
  5
9E
330
1F
100
AcDbEntity
  8
_Lines_Pen_No__1
  6
Continuous
100
AcDbPolyline
 90
        2
 70
   128
 43
0.0
 10
115.5617869034056
 20
260.296974712606
 10
120.5617869034052
 20
260.296974712606
  0
LWPOLYLINE
  5
9F
330
1F
100
AcDbEntity
  8
_Lines_Pen_No__1
  6
Continuous
100
AcDbPolyline
 90
        2
 70
   128
 43
0.0
 10
120.5617869034052
 20
260.296974712606
 10
120.5617869034052
 20
264.6169747126061
  0
LWPOLYLINE
  5
A0
330
1F
100
AcDbEntity
  8
_Lines_Pen_No__1
  6
Continuous
100
AcDbPolyline
 90
        2
 70
   128
 43
0.0
 10
120.5617869034052
 20
264.6169747126061
 10
122.3723009034057
 20
268.3069747126058
  0
LWPOLYLINE
  5
A1
330
1F
100
AcDbEntity
  8
_Lines_Pen_No__1
  6
Continuous
100
AcDbPolyline
 90
        2
 70
   128
 43
0.0
 10
122.3723009034057
 20
268.3069747126058
 10
120.7014719034056
 20
268.3069747126058
  0
LWPOLYLINE
  5
A2
330
1F
100
AcDbEntity
  8
_Lines_Pen_No__1
  6
Continuous
100
AcDbPolyline
 90
        2
 70
   128
 43
0.0
 10
120.7014719034056
 20
268.3069747126058
 10
119.0617869034054
 20
264.965139712606
  0
LWPOLYLINE
  5
A3
330
1F
100
AcDbEntity
  8
_Lines_Pen_No__1
  6
Continuous
100
AcDbPolyline
 90
        2
 70
   128
 43
0.0
 10
119.0617869034054
 20
264.965139712606
 10
119.0617869034054
 20
261.7969747126058
  0
LWPOLYLINE
  5
A4
330
1F
100
AcDbEntity
  8
_Lines_Pen_No__1
  6
Continuous
100
AcDbPolyline
 90
        2
 70
   128
 43
0.0
 10
119.0617869034054
 20
261.7969747126058
 10
111.9617869034055
 20
261.7969747126058
  0
LWPOLYLINE
  5
A5
330
1F
100
AcDbEntity
  8
_Lines_Pen_No__1
  6
Continuous
100
AcDbPolyline
 90
        2
 70
   128
 43
0.0
 10
111.9617869034055
 20
261.7969747126058
 10
111.9645859501688
 20
321.5580842987462
  0
LWPOLYLINE
  5
A6
330
1F
100
AcDbEntity
  8
_Lines_Pen_No__1
  6
Continuous
100
AcDbPolyline
 90
        2
 70
   128
 43
0.0
 10
113.3617869034058
 20
321.546974712606
 10
113.3617869034058
 20
317.4969747126061
  0
LWPOLYLINE
  5
A7
330
1F
100
AcDbEntity
  8
_Lines_Pen_No__1
  6
Continuous
100
AcDbPolyline
 90
        2
 70
   128
 43
0.0
 10
127.4599041887963
 20
176.0689151162701
 42
0.700638887633119
 10
112.9059319939008
 20
188.2668007532719
  0
LWPOLYLINE
  5
A8
330
1F
100
AcDbEntity
  8
_Lines_Pen_No__1
  6
Continuous
100
AcDbPolyline
 90
        2
 70
   128
 43
0.0
 10
112.905931993901
 20
170.7812395992595
 42
0.466660010719721
 10
127.4599041887963
 20
176.0689151162701
  0
LWPOLYLINE
  5
A9
330
1F
100
AcDbEntity
  8
_Lines_Pen_No__1
  6
Continuous
100
AcDbPolyline
 90
        2
 70
   128
 43
0.0
 10
219.4252922406532
 20
179.9072378995163
 42
0.9999999999999895
 10
200.439645972291
 20
186.8174480195072
  0
LWPOLYLINE
  5
AA
330
1F
100
AcDbEntity
  8
_Lines_Pen_No__1
  6
Continuous
100
AcDbPolyline
 90
        2
 70
   128
 43
0.0
 10
200.439645972291
 20
186.8174480195072
 42
1.00000000000001
 10
219.4252922406532
 20
179.9072378995163
  0
LWPOLYLINE
  5
AB
330
1F
100
AcDbEntity
  8
_Lines_Pen_No__1
  6
Continuous
100
AcDbPolyline
 90
        2
 70
   128
 43
0.0
 10
192.7673362071172
 20
189.6099404021003
 42
1.00000000000001
 10
173.7816899387554
 20
196.5201505220914
  0
LWPOLYLINE
  5
AC
330
1F
100
AcDbEntity
  8
_Lines_Pen_No__1
  6
Continuous
100
AcDbPolyline
 90
        2
 70
   128
 43
0.0
 10
173.7816899387554
 20
196.5201505220914
 42
0.9999999999999897
 10
192.7673362071172
 20
189.6099404021003
  0
LWPOLYLINE
  5
AD
330
1F
100
AcDbEntity
  8
_Lines_Pen_No__1
  6
Continuous
100
AcDbPolyline
 90
        2
 70
   128
 43
0.0
 10
147.1237339052196
 20
206.2228530246756
 42
0.9999999999999999
 10
166.1093801735813
 20
199.3126429046845
  0
LWPOLYLINE
  5
AE
330
1F
100
AcDbEntity
  8
_Lines_Pen_No__1
  6
Continuous
100
AcDbPolyline
 90
        2
 70
   128
 43
0.0
 10
166.1093801735813
 20
199.3126429046845
 42
0.9999999999999999
 10
147.1237339052196
 20
206.2228530246756
  0
LWPOLYLINE
  5
AF
330
1F
100
AcDbEntity
  8
_Lines_Pen_No__1
  6
Continuous
100
AcDbPolyline
 90
        2
 70
   128
 43
0.0
 10
120.465777871684
 20
215.9255555272596
 42
1.00000000000001
 10
139.4514241400457
 20
209.0153454072685
  0
LWPOLYLINE
  5
B0
330
1F
100
AcDbEntity
  8
_Lines_Pen_No__1
  6
Continuous
100
AcDbPolyline
 90
        2
 70
   128
 43
0.0
 10
139.4514241400457
 20
209.0153454072685
 42
0.9999999999999897
 10
120.465777871684
 20
215.9255555272596
  0
LWPOLYLINE
  5
B1
330
1F
100
AcDbEntity
  8
_Lines_Pen_No__1
  6
Continuous
100
AcDbPolyline
 90
        2
 70
   128
 43
0.0
 10
135.1322139539697
 20
173.2764227336769
 42
0.9999999999999895
 10
154.1178602223319
 20
166.3662126136862
  0
LWPOLYLINE
  5
B2
330
1F
100
AcDbEntity
  8
_Lines_Pen_No__1
  6
Continuous
100
AcDbPolyline
 90
        2
 70
   128
 43
0.0
 10
154.1178602223319
 20
166.3662126136862
 42
1.00000000000001
 10
135.1322139539697
 20
173.2764227336769
  0
LWPOLYLINE
  5
B3
330
1F
100
AcDbEntity
  8
_Lines_Pen_No__1
  6
Continuous
100
AcDbPolyline
 90
        2
 70
   128
 43
0.0
 10
161.7901699875057
 20
163.5737202310929
 42
1.00000000000001
 10
180.7758162558675
 20
156.663510111102
  0
LWPOLYLINE
  5
B4
330
1F
100
AcDbEntity
  8
_Lines_Pen_No__1
  6
Continuous
100
AcDbPolyline
 90
        2
 70
   128
 43
0.0
 10
180.7758162558675
 20
156.663510111102
 42
0.9999999999999897
 10
161.7901699875057
 20
163.5737202310929
  0
LWPOLYLINE
  5
B5
330
1F
100
AcDbEntity
  8
_Lines_Pen_No__1
  6
Continuous
100
AcDbPolyline
 90
        2
 70
   128
 43
0.0
 10
188.4481260210409
 20
153.8710177285087
 42
1.000000000000004
 10
207.4337722894031
 20
146.9608076085178
  0
LWPOLYLINE
  5
B6
330
1F
100
AcDbEntity
  8
_Lines_Pen_No__1
  6
Continuous
100
AcDbPolyline
 90
        2
 70
   128
 43
0.0
 10
207.4337722894033
 20
146.9608076085178
 42
0.9999999999999961
 10
188.4481260210407
 20
153.8710177285087
  0
LWPOLYLINE
  5
B7
330
1F
100
AcDbEntity
  8
_Lines_Pen_No__1
  6
Continuous
100
AcDbPolyline
 90
        2
 70
   128
 43
0.0
 10
132.4980468750001
 20
25.0661503429696
 42
0.515846054180016
 10
132.4980468750001
 20
32.06615034296905
  0
LWPOLYLINE
  5
B8
330
1F
100
AcDbEntity
  8
_Lines_Pen_No__1
  6
Continuous
100
AcDbPolyline
 90
        2
 70
   128
 43
0.0
 10
202.4980468750004
 20
32.06615034296905
 42
0.5158460541800158
 10
202.4980468750004
 20
25.0661503429696
  0
LWPOLYLINE
  5
B9
330
1F
100
AcDbEntity
  8
_Lines_Pen_No__1
  6
Continuous
100
AcDbPolyline
 90
        2
 70
   128
 43
0.0
 10
132.4980468750001
 20
92.06615034296932
 42
0.515846054180016
 10
132.4980468750001
 20
99.066150342969
  0
LWPOLYLINE
  5
BA
330
1F
100
AcDbEntity
  8
_Lines_Pen_No__1
  6
Continuous
100
AcDbPolyline
 90
        2
 70
   128
 43
0.0
 10
202.4980468750004
 20
99.066150342969
 42
0.5158460541800158
 10
202.4980468750004
 20
92.06615034296932
  0
LWPOLYLINE
  5
BB
330
1F
100
AcDbEntity
  8
_Lines_Pen_No__1
  6
Continuous
100
AcDbPolyline
 90
        2
 70
   128
 43
0.0
 10
111.3282460284872
 20
381.1167093510849
 42
0.2578442516232812
 10
126.3282460284842
 20
339.4617809894757
  0
LWPOLYLINE
  5
BC
330
1F
100
AcDbEntity
  8
_Lines_Pen_No__1
  6
Continuous
100
AcDbPolyline
 90
        2
 70
   128
 43
0.0
 10
118.3282460284887
 20
374.1167093510835
 42
0.2372885156421135
 10
133.3282460284855
 20
344.1167093510859
  0
LWPOLYLINE
  5
BD
330
1F
100
AcDbEntity
  8
_Lines_Pen_No__1
  6
Continuous
100
AcDbPolyline
 90
        2
 70
   128
 43
0.0
 10
114.5617869034055
 20
321.546974712606
 42
0.9210526313216791
 10
110.7617869034057
 20
321.546974712606
  0
LWPOLYLINE
  5
BE
330
1F
100
AcDbEntity
  8
_Lines_Pen_No__1
  6
Continuous
100
AcDbPolyline
 90
        2
 70
   128
 43
0.0
 10
113.3617869034058
 20
321.546974712606
 42
0.77930439665703
 10
111.9645859501688
 20
321.5580842987462
  0
LWPOLYLINE
  5
BF
330
1F
100
AcDbEntity
  8
_Lines_Pen_No__1
  6
Continuous
100
AcDbPolyline
 90
        2
 70
   128
 43
0.0
 10
-14.42102269902201
 20
469.1782161852633
 10
113.4981632290206
 20
469.1782161852633
  0
LWPOLYLINE
  5
C0
330
1F
100
AcDbEntity
  8
_Lines_Pen_No__1
  6
Continuous
100
AcDbPolyline
 90
        2
 70
   128
 43
0.0
 10
113.4981632290206
 20
469.1782161852633
 10
114.9690536821257
 20
459.1098710905337
  0
LWPOLYLINE
  5
C1
330
1F
100
AcDbEntity
  8
_Lines_Pen_No__1
  6
Continuous
100
AcDbPolyline
 90
        2
 70
   128
 43
0.0
 10
114.9690536821257
 20
459.1098710905337
 10
117.5771115029318
 20
478.7493990523601
  0
LWPOLYLINE
  5
C2
330
1F
100
AcDbEntity
  8
_Lines_Pen_No__1
  6
Continuous
100
AcDbPolyline
 90
        2
 70
   128
 43
0.0
 10
117.5771115029318
 20
478.7493990523601
 10
119.4295145955027
 20
469.1782161852633
  0
LWPOLYLINE
  5
C3
330
1F
100
AcDbEntity
  8
_Lines_Pen_No__1
  6
Continuous
100
AcDbPolyline
 90
        2
 70
   128
 43
0.0
 10
119.4295145955027
 20
469.1782161852633
 10
233.2707020900075
 20
469.1782161852633
  0
LWPOLYLINE
  5
C4
330
1F
100
AcDbEntity
  8
_Lines_Pen_No__1
  6
Continuous
100
AcDbPolyline
 90
        2
 70
   128
 43
0.0
 10
-14.42102269902201
 20
0.0371271462755067
 10
113.4981632290206
 20
0.0371271462755067
  0
LWPOLYLINE
  5
C5
330
1F
100
AcDbEntity
  8
_Lines_Pen_No__1
  6
Continuous
100
AcDbPolyline
 90
        2
 70
   128
 43
0.0
 10
113.4981632290206
 20
0.0371271462755067
 10
114.9690536821257
 20
-10.03121794845436
  0
LWPOLYLINE
  5
C6
330
1F
100
AcDbEntity
  8
_Lines_Pen_No__1
  6
Continuous
100
AcDbPolyline
 90
        2
 70
   128
 43
0.0
 10
114.9690536821257
 20
-10.03121794845436
 10
117.5771115029318
 20
9.608310013372302
  0
LWPOLYLINE
  5
C7
330
1F
100
AcDbEntity
  8
_Lines_Pen_No__1
  6
Continuous
100
AcDbPolyline
 90
        2
 70
   128
 43
0.0
 10
117.5771115029318
 20
9.608310013372302
 10
119.4295145955027
 20
0.0371271462755067
  0
LWPOLYLINE
  5
C8
330
1F
100
AcDbEntity
  8
_Lines_Pen_No__1
  6
Continuous
100
AcDbPolyline
 90
        2
 70
   128
 43
0.0
 10
119.4295145955027
 20
0.0371271462755067
 10
233.2707020900075
 20
0.0371271462755067
  0
LWPOLYLINE
  5
C9
330
1F
100
AcDbEntity
  8
_Lines_Pen_No__1
  6
Continuous
100
AcDbPolyline
 90
        2
 70
   128
 43
0.0
 10
113.0570856938293
 20
294.2103468539376
 10
113.8373418081946
 20
294.2808215997512
  0
LWPOLYLINE
  5
CA
330
1F
100
AcDbEntity
  8
_Lines_Pen_No__1
  6
Continuous
100
AcDbPolyline
 90
        2
 70
   128
 43
0.0
 10
113.8373418081946
 20
294.2808215997512
 10
114.1521999216164
 20
290.7948924868663
  0
LWPOLYLINE
  5
CB
330
1F
100
AcDbEntity
  8
_Lines_Pen_No__1
  6
Continuous
100
AcDbPolyline
 90
        2
 70
   128
 43
0.0
 10
112.4269506735078
 20
291.6870377057212
 10
113.0570856938293
 20
294.2103468539376
  0
LWPOLYLINE
  5
CC
330
1F
100
AcDbEntity
  8
_Lines_Pen_No__1
  6
Continuous
100
AcDbPolyline
 90
        2
 70
   128
 43
0.0
 10
81.8257745964579
 20
288.877103822436
 10
79.29396775607111
 20
287.6464070009458
  0
LWPOLYLINE
  5
CD
330
1F
100
AcDbEntity
  8
_Lines_Pen_No__1
  6
Continuous
100
AcDbPolyline
 90
        2
 70
   128
 43
0.0
 10
112.4269506735078
 20
291.6870377057212
 10
81.8257745964579
 20
288.877103822436
  0
LWPOLYLINE
  5
CE
330
1F
100
AcDbEntity
  8
_Lines_Pen_No__1
  6
Continuous
100
AcDbPolyline
 90
        2
 70
   128
 43
0.0
 10
113.6868019206731
 20
287.2384886281678
 10
114.4670580350384
 20
287.3089633739813
  0
LWPOLYLINE
  5
CF
330
1F
100
AcDbEntity
  8
_Lines_Pen_No__1
  6
Continuous
100
AcDbPolyline
 90
        2
 70
   128
 43
0.0
 10
114.4670580350384
 20
287.3089633739813
 10
114.1521999216164
 20
290.7948924868663
  0
LWPOLYLINE
  5
D0
330
1F
100
AcDbEntity
  8
_Lines_Pen_No__1
  6
Continuous
100
AcDbPolyline
 90
        2
 70
   128
 43
0.0
 10
112.6147302018088
 20
289.6080500709603
 10
113.6868019206731
 20
287.2384886281678
  0
LWPOLYLINE
  5
D1
330
1F
100
AcDbEntity
  8
_Lines_Pen_No__1
  6
Continuous
100
AcDbPolyline
 90
        2
 70
   128
 43
0.0
 10
82.00531945107659
 20
286.8892857891553
 10
79.29396775607111
 20
287.6464070009458
  0
LWPOLYLINE
  5
D2
330
1F
100
AcDbEntity
  8
_Lines_Pen_No__1
  6
Continuous
100
AcDbPolyline
 90
        2
 70
   128
 43
0.0
 10
112.6147302018088
 20
289.6080500709603
 10
82.00531945107659
 20
286.8892857891553
  0
LWPOLYLINE
  5
D3
330
1F
100
AcDbEntity
  8
_Lines_Pen_No__1
  6
Continuous
100
AcDbPolyline
 90
        2
 70
   128
 43
0.0
 10
132.4980468750003
 20
99.066150342969
 10
202.4980468750004
 20
99.066150342969
  0
LWPOLYLINE
  5
D4
330
1F
100
AcDbEntity
  8
_Lines_Pen_No__1
  6
Continuous
100
AcDbPolyline
 90
        2
 70
   128
 43
0.0
 10
132.4980468750003
 20
32.06615034296905
 10
202.4980468750004
 20
32.06615034296905
  0
LWPOLYLINE
  5
D5
330
1F
100
AcDbEntity
  8
_Lines_Pen_No__1
  6
Continuous
100
AcDbPolyline
 90
        2
 70
   128
 43
0.0
 10
132.4980468750003
 20
92.06615034296932
 10
202.4980468750004
 20
92.06615034296932
  0
LWPOLYLINE
  5
D6
330
1F
100
AcDbEntity
  8
_Lines_Pen_No__1
  6
Continuous
100
AcDbPolyline
 90
        2
 70
   128
 43
0.0
 10
132.4980468750003
 20
32.06615034296882
 10
132.4980468750003
 20
92.06615034296976
  0
LWPOLYLINE
  5
D7
330
1F
100
AcDbEntity
  8
_Lines_Pen_No__1
  6
Continuous
100
AcDbPolyline
 90
        2
 70
   128
 43
0.0
 10
132.4980468750003
 20
25.0661503429696
 10
202.4980468750004
 20
25.0661503429696
  0
LWPOLYLINE
  5
D8
330
1F
100
AcDbEntity
  8
_Lines_Pen_No__1
  6
Continuous
100
AcDbPolyline
 90
        2
 70
   128
 43
0.0
 10
202.4980468750004
 20
124.5575485089591
 10
132.4980468750003
 20
150.0354649075934
  0
LWPOLYLINE
  5
D9
330
1F
100
AcDbEntity
  8
_Lines_Pen_No__1
  6
Continuous
100
AcDbPolyline
 90
        2
 70
   128
 43
0.0
 10
132.4980468750003
 20
99.06615034296877
 10
132.4980468750003
 20
150.0354649075932
  0
LWPOLYLINE
  5
DA
330
1F
100
AcDbEntity
  8
_Lines_Pen_No__1
  6
Continuous
100
AcDbPolyline
 90
        2
 70
   128
 43
0.0
 10
202.4980468750004
 20
99.066150342969
 10
202.4980468750004
 20
124.5575485089591
  0
LWPOLYLINE
  5
DB
330
1F
100
AcDbEntity
  8
_Lines_Pen_No__1
  6
Continuous
100
AcDbPolyline
 90
        2
 70
   128
 43
0.0
 10
200.0486034160223
 20
125.4490730185453
 10
200.0486034160223
 20
131.0580605252322
  0
LWPOLYLINE
  5
DC
330
1F
100
AcDbEntity
  8
_Lines_Pen_No__1
  6
Continuous
100
AcDbPolyline
 90
        2
 70
   128
 43
0.0
 10
135.5744470145195
 20
148.9157468281161
 10
135.5744470145195
 20
154.524734334803
  0
LWPOLYLINE
  5
DD
330
1F
100
AcDbEntity
  8
_Lines_Pen_No__1
  6
Continuous
100
AcDbPolyline
 90
        2
 70
   128
 43
0.0
 10
202.4980468750004
 20
0.0371271462755067
 10
202.4980468750004
 20
25.06615034296982
  0
LWPOLYLINE
  5
DE
330
1F
100
AcDbEntity
  8
_Lines_Pen_No__1
  6
Continuous
100
AcDbPolyline
 90
        2
 70
   128
 43
0.0
 10
132.4980468750003
 20
0.0371271462757287
 10
132.4980468750003
 20
25.06615034297004
  0
LWPOLYLINE
  5
DF
330
1F
100
AcDbEntity
  8
_Lines_Pen_No__1
  6
Continuous
100
AcDbPolyline
 90
        2
 70
   128
 43
0.0
 10
12.49804687500022
 20
0.0371271462755067
 10
12.49804687500022
 20
469.1782161852633
  0
LWPOLYLINE
  5
E0
330
1F
100
AcDbEntity
  8
_Lines_Pen_No__1
  6
Continuous
100
AcDbPolyline
 90
        2
 70
   128
 43
0.0
 10
102.4980468750001
 20
0.0371271462755067
 10
102.4980468750001
 20
469.1782161852633
  0
LWPOLYLINE
  5
E1
330
1F
100
AcDbEntity
  8
_Lines_Pen_No__1
  6
Continuous
100
AcDbPolyline
 90
        2
 70
   128
 43
0.0
 10
102.4980468749996
 20
257.0559432791679
 10
12.49804687500022
 20
297.0559432791679
  0
LWPOLYLINE
  5
E2
330
1F
100
AcDbEntity
  8
_Lines_Pen_No__1
  6
Continuous
100
AcDbPolyline
 90
        2
 70
   128
 43
0.0
 10
12.49804687500022
 20
257.0559432791679
 10
102.4980468750001
 20
297.0559432791679
  0
LWPOLYLINE
  5
E4
330
1F
100
AcDbEntity
  8
_Lines_Pen_No__1
  6
Above
100
AcDbPolyline
 90
        2
 70
   128
 43
0.0
 10
104.4980468749996
 20
0.0371271462755067
 10
104.4980468750001
 20
469.1782161852633
  0
LWPOLYLINE
  5
E5
330
1F
100
AcDbEntity
  8
_Lines_Pen_No__1
  6
Continuous
100
AcDbPolyline
 90
        2
 70
   128
 43
0.0
 10
132.4980468750001
 20
92.06615034296932
 42
0.515846054180016
 10
132.4980468750001
 20
99.066150342969
  0
LWPOLYLINE
  5
E6
330
1F
100
AcDbEntity
  8
_Lines_Pen_No__1
  6
Continuous
100
AcDbPolyline
 90
        2
 70
   128
 43
0.0
 10
202.4980468750004
 20
32.06615034296905
 42
0.515846054180016
 10
202.4980468750004
 20
25.0661503429696
  0
LWPOLYLINE
  5
E7
330
1F
100
AcDbEntity
  8
_Lines_Pen_No__1
  6
Continuous
100
AcDbPolyline
 90
        2
 70
   128
 43
0.0
 10
132.4980468750001
 20
25.0661503429696
 42
0.515846054180016
 10
132.4980468750001
 20
32.06615034296905
  0
LWPOLYLINE
  5
E9
330
1F
100
AcDbEntity
  8
0_Pen_No__1
  6
Dashed
100
AcDbPolyline
 90
        2
 70
   128
 43
0.0
 10
132.4980468750001
 20
32.06615034296905
 10
202.4980468750004
 20
92.0661503429691
  0
LWPOLYLINE
  5
EB
330
1F
100
AcDbEntity
  8
0_Pen_No__1
  6
Dashed
100
AcDbPolyline
 90
        2
 70
   128
 43
0.0
 10
132.4980468750001
 20
92.0661503429691
 10
202.4980468750004
 20
32.06615034296905
  0
SPLINE
  5
EC
330
1F
100
AcDbEntity
  8
0_Pen_No__1
  6
Above
100
AcDbSpline
210
0.0
220
0.0
230
1.0
 70
     8
 71
     3
 72
    26
 73
    22
 74
     0
 42
0.00001
 43
0.00001
 12
1.0
 22
0.0
 32
0.0
 13
1.0
 23
0.0
 33
0.0
 40
0.0
 40
0.0
 40
0.0
 40
0.0
 40
1.0
 40
1.0
 40
1.0
 40
2.0
 40
2.0
 40
2.0
 40
3.0
 40
3.0
 40
3.0
 40
4.0
 40
4.0
 40
4.0
 40
5.0
 40
5.0
 40
5.0
 40
6.0
 40
6.0
 40
6.0
 40
7.0
 40
7.0
 40
7.0
 40
7.0
 10
105.9235638269751
 20
358.6662482959732
 30
0.0
 10
105.9235638269751
 20
358.6662482959732
 30
0.0
 10
105.6034402920841
 20
350.370263743364
 30
0.0
 10
105.9235638269751
 20
342.0460828340952
 30
0.0
 10
106.0062278483988
 20
339.8965680561424
 30
0.0
 10
107.1433112362483
 20
335.808089820487
 30
0.0
 10
107.1433112362483
 20
335.808089820487
 30
0.0
 10
107.1433112362483
 20
335.808089820487
 30
0.0
 10
111.005844698938
 20
331.1323914182573
 30
0.0
 10
111.0058446989381
 20
331.1323914182573
 30
0.0
 10
111.0058446989381
 20
331.1323914182573
 30
0.0
 10
111.0058446989845
 20
324.6270719021923
 30
0.0
 10
111.0058446989846
 20
324.6270719021923
 30
0.0
 10
111.0058446989846
 20
324.6270719021923
 30
0.0
 10
110.2228615661775
 20
321.659557997136
 30
0.0
 10
109.8258522076341
 20
320.1737181526613
 30
0.0
 10
108.3552474638563
 20
314.6698601786439
 30
0.0
 10
108.7264807681556
 20
308.8720047272537
 30
0.0
 10
108.7696411151738
 20
303.1677411740577
 30
0.0
 10
108.8319387313834
 20
294.9342109513937
 30
0.0
 10
108.769641115201
 20
286.7011511487768
 30
0.0
 10
108.7696411152011
 20
286.7011511487768
 30
0.0
  0
DIMENSION
  5
FA
330
1F
100
AcDbEntity
  8
_Text
  6
Continuous
100
AcDbDimension
  2
*D1
 10
180.1339100750256
 20
226.5821071635877
 30
0.0
 11
189.0828261231294
 21
230.7607228034462
 31
0.0
 70
   160
  1
5mm gap
 71
     5
 42
-1.0
 53
73.06059114610852
  3
GENERATED_STYLE__1
100
AcDbAlignedDimension
 13
119.8961324536445
 23
239.687672055231
 33
0.0
 14
121.3569934204477
 24
244.4840684815554
 34
0.0
 50
73.06059114610852
100
AcDbRotatedDimension
  0
WIPEOUT
  5
102
330
1F
100
AcDbEntity
  8
Key_ Sections_Pen_No__1
  6
Wipeout_Contour
 48
2109.999236030183
 92
      296
310
28010000060000000C0000000E000000120000000C00000016000000000000C20C00000014000000010000006C0000000700000004000000AA7CEDE614E770407C833AE3B7377B400000000000000000B8A99F8404DB75407C833AE3B7377B400000000000000000B8A99F8404DB7540EA95BDA382F7794000000000000000
310
00AA7CEDE614E77040EA95BDA382F7794000000000000000000C0000000E00000007000000840000000600000005000000AA7CEDE614E770407C833AE3B7377B400000000000000000B8A99F8404DB75407C833AE3B7377B400000000000000000B8A99F8404DB7540EA95BDA382F779400000000000000000AA7CEDE614E7
310
7040EA95BDA382F779400000000000000000AA7CEDE614E770407C833AE3B7377B400000000000000000
100
AcDbWipeout
 90
        0
 10
270.4426030423007
 20
415.469394436425
 30
0.0
 11
79.24599999999998
 21
0.0
 31
0.0
 12
0.0
 22
20.01300000000003
 32
0.0
 13
1.0
 23
1.0
340
0
 70
    15
280
     1
281
    50
282
    50
283
     0
360
0
 71
     2
 91
        5
 14
-0.5
 24
-0.5
 14
0.5
 24
-0.5
 14
0.5
 24
0.5
 14
-0.5
 24
0.5
 14
-0.5
 24
-0.5
  0
MTEXT
  5
105
102
{ACAD_REACTORS
330
106
102
}
330
1F
100
AcDbEntity
  8
Key_ Sections_Pen_No__1
  6
Continuous
100
AcDbMText
 10
272.4426030423007
 20
425.1163887037382
 30
0.0
 40
4.999999999999997
 41
75.246
 71
     4
 72
     1
  1
{Absorbent breather type \Pbuilding underlay}
  7
GENERATED_STYLE_1
 73
     1
 44
0.9578820155126033
  0
LEADER
  5
106
330
1F
100
AcDbEntity
  8
Key_ Sections_Pen_No__1
  6
Continuous
100
AcDbLeader
  3
GENERATED_STYLE__2
 72
     1
 73
     0
 74
     0
 40
14.44735012927169
 41
74.58999999999996
 76
     2
 10
104.4980468749996
 20
425.4758944364251
 30
0.0
 10
272.3526030423007
 20
425.1163887037382
 30
0.0
340
105
  0
WIPEOUT
  5
10D
330
1F
100
AcDbEntity
  8
Key_ Sections_Pen_No__1
  6
Wipeout_Contour
 48
1951.235070237226
 92
      296
310
28010000060000000C0000000E000000120000000C00000016000000000000C20C00000014000000010000006C0000000700000004000000AA7CEDE614E77040BFB518F404B278400000000000000000120EDB6354007540BFB518F404B278400000000000000000120EDB6354007540C30B2721B7F1764000000000000000
310
00AA7CEDE614E77040C30B2721B7F1764000000000000000000C0000000E00000007000000840000000600000005000000AA7CEDE614E77040BFB518F404B278400000000000000000120EDB6354007540BFB518F404B278400000000000000000120EDB6354007540C30B2721B7F176400000000000000000AA7CEDE614E7
310
7040C30B2721B7F176400000000000000000AA7CEDE614E77040BFB518F404B278400000000000000000
100
AcDbWipeout
 90
        0
 10
270.4426030423007
 20
367.1072093510849
 30
0.0
 11
65.57799999999997
 21
0.0
 31
0.0
 12
0.0
 22
28.01900000000001
 32
0.0
 13
1.0
 23
1.0
340
0
 70
    15
280
     1
281
    50
282
    50
283
     0
360
0
 71
     2
 91
        5
 14
-0.5
 24
-0.5
 14
0.5
 24
-0.5
 14
0.5
 24
0.5
 14
-0.5
 24
0.5
 14
-0.5
 24
-0.5
  0
MTEXT
  5
10E
102
{ACAD_REACTORS
330
10F
102
}
330
1F
100
AcDbEntity
  8
Key_ Sections_Pen_No__1
  6
Continuous
100
AcDbMText
 10
272.4426030423007
 20
381.4376264571397
 30
0.0
 40
4.999999999999997
 41
61.578
 71
     4
 72
     1
  1
{Palliside Rusticated \Pweatherboard fixed \Pwith Palliside nails}
  7
GENERATED_STYLE_1
 73
     1
 44
0.9558154610760368
  0
LEADER
  5
10F
330
1F
100
AcDbEntity
  8
Key_ Sections_Pen_No__1
  6
Continuous
100
AcDbLeader
  3
GENERATED_STYLE__2
 72
     1
 73
     0
 74
     0
 40
21.09150199879206
 41
59.84999999999997
 76
     2
 10
133.3282460284855
 20
381.1167093510849
 30
0.0
 10
272.3526030423007
 20
381.4376264571397
 30
0.0
340
10E
  0
WIPEOUT
  5
110
330
1F
100
AcDbEntity
  8
Key_ Sections_Pen_No__1
  6
Wipeout_Contour
 48
1794.934480124017
 92
      296
310
28010000060000000C0000000E000000120000000C00000016000000000000C20C00000014000000010000006C0000000700000004000000AA7CEDE614E77040E1DD11F31B1F75400000000000000000741E339D083D7540E1DD11F31B1F75400000000000000000741E339D083D75404FF094B3E6DE734000000000000000
310
00AA7CEDE614E770404FF094B3E6DE734000000000000000000C0000000E00000007000000840000000600000005000000AA7CEDE614E77040E1DD11F31B1F75400000000000000000741E339D083D7540E1DD11F31B1F75400000000000000000741E339D083D75404FF094B3E6DE73400000000000000000AA7CEDE614E7
310
70404FF094B3E6DE73400000000000000000AA7CEDE614E77040E1DD11F31B1F75400000000000000000
100
AcDbWipeout
 90
        0
 10
270.4426030423007
 20
317.9313236062926
 30
0.0
 11
69.37199999999996
 21
0.0
 31
0.0
 12
0.0
 22
20.01300000000003
 32
0.0
 13
1.0
 23
1.0
340
0
 70
    15
280
     1
281
    50
282
    50
283
     0
360
0
 71
     2
 91
        5
 14
-0.5
 24
-0.5
 14
0.5
 24
-0.5
 14
0.5
 24
0.5
 14
-0.5
 24
0.5
 14
-0.5
 24
-0.5
  0
MTEXT
  5
111
102
{ACAD_REACTORS
330
112
102
}
330
1F
100
AcDbEntity
  8
Key_ Sections_Pen_No__1
  6
Continuous
100
AcDbMText
 10
272.4426030423007
 20
327.5783178736057
 30
0.0
 40
4.999999999999999
 41
65.372
 71
     4
 72
     1
  1
{Flashing tape lapped \Pover flashing upstand}
  7
GENERATED_STYLE_1
 73
     1
 44
0.4795147043118093
  0
LEADER
  5
112
330
1F
100
AcDbEntity
  8
Key_ Sections_Pen_No__1
  6
Continuous
100
AcDbLeader
  3
GENERATED_STYLE__2
 72
     1
 73
     0
 74
     0
 40
14.41767048839666
 41
63.705
 76
     2
 10
111.0058446989544
 20
327.9378236062926
 30
0.0
 10
272.3526030423007
 20
327.5783178736057
 30
0.0
340
111
  0
WIPEOUT
  5
113
330
1F
100
AcDbEntity
  8
Key_ Sections_Pen_No__1
  6
Wipeout_Contour
 48
1675.565632524374
 92
      296
310
28010000060000000C0000000E000000120000000C00000016000000000000C20C00000014000000010000006C0000000700000004000000A97CEDE614E77040D1331C521ABB7240000000000000000024919B2EF63F7540D1331C521ABB7240000000000000000024919B2EF63F7540D4892A7FCCFA704000000000000000
310
00A97CEDE614E77040D4892A7FCCFA704000000000000000000C0000000E00000007000000840000000600000005000000A97CEDE614E77040D1331C521ABB7240000000000000000024919B2EF63F7540D1331C521ABB7240000000000000000024919B2EF63F7540D4892A7FCCFA70400000000000000000A97CEDE614E7
310
7040D4892A7FCCFA70400000000000000000A97CEDE614E77040D1331C521ABB72400000000000000000
100
AcDbWipeout
 90
        0
 10
270.4426030423006
 20
271.674925962606
 30
0.0
 11
69.55500000000001
 21
0.0
 31
0.0
 12
0.0
 22
28.01900000000006
 32
0.0
 13
1.0
 23
1.0
340
0
 70
    15
280
     1
281
    50
282
    50
283
     0
360
0
 71
     2
 91
        5
 14
-0.4999999999999996
 24
-0.500000000000001
 14
0.5000000000000004
 24
-0.500000000000001
 14
0.5000000000000004
 24
0.499999999999999
 14
-0.4999999999999996
 24
0.499999999999999
 14
-0.4999999999999996
 24
-0.500000000000001
  0
MTEXT
  5
114
102
{ACAD_REACTORS
330
115
102
}
330
1F
100
AcDbEntity
  8
Key_ Sections_Pen_No__1
  6
Continuous
100
AcDbMText
 10
272.4426030423006
 20
286.0053430686608
 30
0.0
 40
4.999999999999996
 41
65.555
 71
     4
 72
     1
  1
{Starter strip / starting \Ptrim for use with full \PPalliside board}
  7
GENERATED_STYLE_1
 73
     1
 44
0.9509903492301884
  0
LEADER
  5
115
330
1F
100
AcDbEntity
  8
Key_ Sections_Pen_No__1
  6
Continuous
100
AcDbLeader
  3
GENERATED_STYLE__2
 72
     1
 73
     0
 74
     0
 40
21.09150751320559
 41
63.98999999999995
 76
     2
 10
111.9629057262247
 20
285.684425962606
 30
0.0
 10
272.3526030423006
 20
286.0053430686608
 30
0.0
340
114
  0
WIPEOUT
  5
116
330
1F
100
AcDbEntity
  8
Key_ Sections_Pen_No__1
  6
Wipeout_Contour
 48
1618.547323559936
 92
      296
310
28010000060000000C0000000E000000120000000C00000016000000000000C20C00000014000000010000006C0000000700000004000000A97CEDE614E77040C62CE74240FF7040000000000000000072F3AB862FE87540C62CE74240FF7040000000000000000072F3AB862FE875409405EBDFE47D6E4000000000000000
310
00A97CEDE614E770409405EBDFE47D6E4000000000000000000C0000000E00000007000000840000000600000005000000A97CEDE614E77040C62CE74240FF7040000000000000000072F3AB862FE87540C62CE74240FF7040000000000000000072F3AB862FE875409405EBDFE47D6E400000000000000000A97CEDE614E7
310
70409405EBDFE47D6E400000000000000000A97CEDE614E77040C62CE74240FF70400000000000000000
100
AcDbWipeout
 90
        0
 10
270.4426030423006
 20
243.9341888036985
 30
0.0
 11
80.06900000000002
 21
0.0
 31
0.0
 12
0.0
 22
28.01900000000001
 32
0.0
 13
1.0
 23
1.0
340
0
 70
    15
280
     1
281
    50
282
    50
283
     0
360
0
 71
     2
 91
        5
 14
-0.5000000000000003
 24
-0.5
 14
0.4999999999999997
 24
-0.5
 14
0.4999999999999997
 24
0.5
 14
-0.5000000000000003
 24
0.5
 14
-0.5000000000000003
 24
-0.5
  0
MTEXT
  5
117
102
{ACAD_REACTORS
330
118
102
}
330
1F
100
AcDbEntity
  8
Key_ Sections_Pen_No__1
  6
Continuous
100
AcDbMText
 10
272.4426030423006
 20
257.5823201954675
 30
0.0
 40
4.999999999999999
 41
76.069
 71
     4
 72
     1
  1
{Custom folded corrosion \Presistant flashing to suit \P(min upstand 100mm)}
  7
GENERATED_STYLE_1
 73
     1
 44
0.9450728526219182
  0
LEADER
  5
118
330
1F
100
AcDbEntity
  8
Key_ Sections_Pen_No__1
  6
Continuous
100
AcDbLeader
  3
GENERATED_STYLE__2
 72
     1
 73
     0
 74
     0
 40
22.46187659531103
 41
74.80499999999999
 76
     3
 10
148.967137134519
 20
227.6327996712431
 30
0.0
 10
169.5142574770871
 20
245.7318938387596
 30
0.0
 10
272.3526030423006
 20
257.5823201954675
 30
0.0
340
117
  0
WIPEOUT
  5
119
330
1F
100
AcDbEntity
  8
Key_ Sections_Pen_No__1
  6
Wipeout_Contour
 48
1506.843428753298
 92
      296
310
28010000060000000C0000000E000000120000000C00000016000000000000C20C00000014000000010000006C0000000700000004000000AA7CEDE614E77040175F3A70688A6C400000000000000000B77E186E2B067540175F3A70688A6C400000000000000000B77E186E2B06754038A02BD4340A6B4000000000000000
310
00AA7CEDE614E7704038A02BD4340A6B4000000000000000000C0000000E00000007000000840000000600000005000000AA7CEDE614E77040175F3A70688A6C400000000000000000B77E186E2B067540175F3A70688A6C400000000000000000B77E186E2B06754038A02BD4340A6B400000000000000000AA7CEDE614E7
310
704038A02BD4340A6B400000000000000000AA7CEDE614E77040175F3A70688A6C400000000000000000
100
AcDbWipeout
 90
        0
 10
270.4426030423007
 20
216.318948826987
 30
0.0
 11
65.94300000000004
 21
0.0
 31
0.0
 12
0.0
 22
12.00629999999998
 32
0.0
 13
1.0
 23
1.0
340
0
 70
    15
280
     1
281
    50
282
    50
283
     0
360
0
 71
     2
 91
        5
 14
-0.4999999999999996
 24
-0.4999999999999988
 14
0.5000000000000004
 24
-0.4999999999999988
 14
0.5000000000000004
 24
0.5000000000000012
 14
-0.4999999999999996
 24
0.5000000000000012
 14
-0.4999999999999996
 24
-0.4999999999999988
  0
MTEXT
  5
11A
102
{ACAD_REACTORS
330
11B
102
}
330
1F
100
AcDbEntity
  8
Key_ Sections_Pen_No__1
  6
Continuous
100
AcDbMText
 10
272.4426030423007
 20
221.9623916841299
 30
0.0
 40
5.0
 41
61.943
 71
     4
 72
     1
  1
{15 degree min slope}
  7
GENERATED_STYLE_1
 73
     1
 44
1.0
  0
LEADER
  5
11B
330
1F
100
AcDbEntity
  8
Key_ Sections_Pen_No__1
  6
Continuous
100
AcDbLeader
  3
GENERATED_STYLE__2
 72
     1
 73
     0
 74
     0
 40
14.73833333333334
 41
43.37
 76
     3
 10
212.2518244187235
 20
201.1088953913906
 30
0.0
 10
235.6338476766754
 20
216.3727232628354
 30
0.0
 10
272.3526030423007
 20
221.9623916841299
 30
0.0
340
11A
  0
WIPEOUT
  5
11C
330
1F
100
AcDbEntity
  8
Key_ Sections_Pen_No__1
  6
Wipeout_Contour
 48
1249.310520846349
 92
      296
310
28010000060000000C0000000E000000120000000C00000016000000000000C20C00000014000000010000006C0000000700000004000000AA7CEDE614E7704087315AF328745D4000000000000000006C721643A487734087315AF328745D4000000000000000006C721643A4877340C8B33CBBC1735A4000000000000000
310
00AA7CEDE614E77040C8B33CBBC1735A4000000000000000000C0000000E00000007000000840000000600000005000000AA7CEDE614E7704087315AF328745D4000000000000000006C721643A487734087315AF328745D4000000000000000006C721643A4877340C8B33CBBC1735A400000000000000000AA7CEDE614E7
310
7040C8B33CBBC1735A400000000000000000AA7CEDE614E7704087315AF328745D400000000000000000
100
AcDbWipeout
 90
        0
 10
270.4426030423007
 20
105.8086994259639
 30
0.0
 11
42.03499999999997
 21
0.0
 31
0.0
 12
0.0
 22
12.0063
 32
0.0
 13
1.0
 23
1.0
340
0
 70
    15
280
     1
281
    50
282
    50
283
     0
360
0
 71
     2
 91
        5
 14
-0.5
 24
-0.4999999999999994
 14
0.5
 24
-0.4999999999999994
 14
0.5
 24
0.5000000000000006
 14
-0.5
 24
0.5000000000000006
 14
-0.5
 24
-0.4999999999999994
  0
MTEXT
  5
11D
102
{ACAD_REACTORS
330
11E
102
}
330
1F
100
AcDbEntity
  8
Key_ Sections_Pen_No__1
  6
Continuous
100
AcDbMText
 10
272.4426030423007
 20
112.1327137116782
 30
0.0
 40
5.0
 41
38.035
 71
     4
 72
     1
  1
{Brick veneer}
  7
GENERATED_STYLE_1
 73
     1
 44
1.0
  0
LEADER
  5
11E
330
1F
100
AcDbEntity
  8
Key_ Sections_Pen_No__1
  6
Continuous
100
AcDbLeader
  3
GENERATED_STYLE__2
 72
     1
 73
     0
 74
     0
 40
13.41333333333333
 41
21.34
 76
     2
 10
202.4980468750003
 20
111.8118494259639
 30
0.0
 10
272.3526030423007
 20
112.1327137116782
 30
0.0
340
11D
  0
WIPEOUT
  5
11F
330
1F
100
AcDbEntity
  8
Key_ Sections_Pen_No__1
  6
Wipeout_Contour
 48
1175.813197269287
 92
      296
310
28010000060000000C0000000E000000120000000C00000016000000000000C20C00000014000000010000006C00000007000000040000008A5F6679A04A7040ED69EC5AF44239400000000000000000B7110469485D7440ED69EC5AF44239400000000000000000B7110469485D7440DEE5ECF4AE822A4000000000000000
310
008A5F6679A04A7040DEE5ECF4AE822A4000000000000000000C0000000E000000070000008400000006000000050000008A5F6679A04A7040ED69EC5AF44239400000000000000000B7110469485D7440ED69EC5AF44239400000000000000000B7110469485D7440DEE5ECF4AE822A4000000000000000008A5F6679A04A
310
7040DEE5ECF4AE822A4000000000000000008A5F6679A04A7040ED69EC5AF44239400000000000000000
100
AcDbWipeout
 90
        0
 10
260.6641782759622
 20
13.25524106399365
 30
0.0
 11
65.166
 21
0.0
 31
0.0
 12
0.0
 22
12.0063
 32
0.0
 13
1.0
 23
1.0
340
0
 70
    15
280
     1
281
    50
282
    50
283
     0
360
0
 71
     2
 91
        5
 14
-0.4999999999999996
 24
-0.5
 14
0.5000000000000004
 24
-0.5
 14
0.5000000000000004
 24
0.5
 14
-0.4999999999999996
 24
0.5
 14
-0.4999999999999996
 24
-0.5
  0
MTEXT
  5
120
102
{ACAD_REACTORS
330
121
102
}
330
1F
100
AcDbEntity
  8
Key_ Sections_Pen_No__1
  6
Continuous
100
AcDbMText
 10
262.6641782759622
 20
18.89868392113651
 30
0.0
 40
5.000000000000002
 41
61.166
 71
     4
 72
     1
  1
{Ventilation openings}
  7
GENERATED_STYLE_1
 73
     1
 44
1.0
  0
LEADER
  5
121
330
1F
100
AcDbEntity
  8
Key_ Sections_Pen_No__1
  6
Continuous
100
AcDbLeader
  3
GENERATED_STYLE__2
 72
     1
 73
     0
 74
     0
 40
14.79833333333334
 41
32.07500000000001
 76
     3
 10
202.4980468750004
 20
32.06615034296905
 30
0.0
 10
240.8852216312991
 20
21.38444168569615
 30
0.0
 10
262.5741782759622
 20
18.89868392113651
 30
0.0
340
120
  0
ENDSEC
  0
SECTION
  2
OBJECTS
  0
DICTIONARY
  5
C
330
0
100
AcDbDictionary
281
     1
  3
ACAD_GROUP
350
D
  3
ACAD_LAYOUT
350
1A
  3
ACAD_MATERIAL
350
3B
  3
ACAD_MLEADERSTYLE
350
172
  3
ACAD_MLINESTYLE
350
17
  3
ACAD_PLOTSETTINGS
350
19
  3
ACAD_PLOTSTYLENAME
350
E
  3
ACAD_SCALELIST
350
125
  3
ACAD_TABLESTYLE
350
171
  3
ACAD_VISUALSTYLE
350
2A
  3
AcDbVariableDictionary
350
149
  3
WATERMARKS
350
147
  0
DICTIONARY
  5
D
102
{ACAD_REACTORS
330
C
102
}
330
C
100
AcDbDictionary
281
     1
  0
DICTIONARY
  5
1A
102
{ACAD_REACTORS
330
C
102
}
330
C
100
AcDbDictionary
281
     1
  3
Layout1
350
1E
  3
Layout2
350
26
  3
Model
350
22
  0
DICTIONARY
  5
3B
102
{ACAD_REACTORS
330
C
102
}
330
C
100
AcDbDictionary
281
     1
  3
ByBlock
350
3D
  3
ByLayer
350
3C
  3
Global
350
3E
  0
DICTIONARY
  5
172
102
{ACAD_REACTORS
330
C
102
}
330
C
100
AcDbDictionary
281
     1
  0
DICTIONARY
  5
17
102
{ACAD_REACTORS
330
C
102
}
330
C
100
AcDbDictionary
281
     1
  3
Standard
350
18
  0
DICTIONARY
  5
19
102
{ACAD_REACTORS
330
C
102
}
330
C
100
AcDbDictionary
281
     1
  0
ACDBDICTIONARYWDFLT
  5
E
102
{ACAD_REACTORS
330
C
102
}
330
C
100
AcDbDictionary
281
     1
  3
Normal
350
F
100
AcDbDictionaryWithDefault
340
F
  0
DICTIONARY
  5
125
102
{ACAD_REACTORS
330
C
102
}
330
C
100
AcDbDictionary
281
     1
  3
A0
350
126
  3
A1
350
127
  3
A2
350
128
  3
A3
350
129
  3
A4
350
12A
  3
A5
350
12B
  3
A6
350
12C
  3
A7
350
12D
  3
A8
350
12E
  3
A9
350
12F
  3
B0
350
130
  3
B1
350
131
  3
B2
350
132
  3
B3
350
133
  3
B4
350
134
  3
B5
350
135
  3
B6
350
136
  3
B7
350
137
  3
B8
350
138
  3
B9
350
139
  3
C0
350
13A
  3
C1
350
13B
  3
C2
350
13C
  3
C3
350
13D
  3
C4
350
13E
  3
C5
350
13F
  3
C6
350
140
  3
C7
350
141
  3
C8
350
142
  3
C9
350
143
  3
D0
350
144
  3
D1
350
145
  3
D2
350
146
  0
DICTIONARY
  5
171
102
{ACAD_REACTORS
330
C
102
}
330
C
100
AcDbDictionary
281
     1
  0
DICTIONARY
  5
2A
102
{ACAD_REACTORS
330
C
102
}
330
C
100
AcDbDictionary
281
     1
  3
2dWireframe
350
2F
  3
3D Hidden
350
31
  3
3dWireframe
350
30
  3
Basic
350
32
  3
Brighten
350
36
  3
ColorChange
350
3A
  3
Conceptual
350
34
  3
Dim
350
35
  3
Facepattern
350
39
  3
Flat
350
2B
  3
FlatWithEdges
350
2C
  3
Gouraud
350
2D
  3
GouraudWithEdges
350
2E
  3
Linepattern
350
38
  3
Realistic
350
33
  3
Thicken
350
37
  0
DICTIONARY
  5
149
102
{ACAD_REACTORS
330
C
102
}
330
C
100
AcDbDictionary
281
     1
  3
CANNOSCALE
350
14A
  3
XCLIPFRAME
350
173
  0
DICTIONARY
  5
147
102
{ACAD_REACTORS
330
C
102
}
330
C
100
AcDbDictionary
281
     1
  3
AC_WATERMARK
350
148
  0
LAYOUT
  5
1E
102
{ACAD_REACTORS
330
1A
102
}
330
1A
100
AcDbPlotSettings
  1

  2
none_device
  4

  6

 40
0.0
 41
0.0
 42
0.0
 43
0.0
 44
0.0
 45
0.0
 46
0.0
 47
0.0
 48
0.0
 49
0.0
140
0.0
141
0.0
142
1.0
143
1.0
 70
   688
 72
     0
 73
     0
 74
     5
  7

 75
    16
 76
     0
 77
     2
 78
   300
147
1.0
148
0.0
149
0.0
100
AcDbLayout
  1
Layout1
 70
     1
 71
     1
 10
0.0
 20
0.0
 11
12.0
 21
9.0
 12
0.0
 22
0.0
 32
0.0
 14
1.000000000000000E+20
 24
1.000000000000000E+20
 34
1.000000000000000E+20
 15
-1.000000000000000E+20
 25
-1.000000000000000E+20
 35
-1.000000000000000E+20
146
0.0
 13
0.0
 23
0.0
 33
0.0
 16
1.0
 26
0.0
 36
0.0
 17
0.0
 27
1.0
 37
0.0
 76
     0
330
1B
  0
LAYOUT
  5
26
102
{ACAD_REACTORS
330
1A
102
}
330
1A
100
AcDbPlotSettings
  1

  2
none_device
  4

  6

 40
0.0
 41
0.0
 42
0.0
 43
0.0
 44
0.0
 45
0.0
 46
0.0
 47
0.0
 48
0.0
 49
0.0
140
0.0
141
0.0
142
1.0
143
1.0
 70
   688
 72
     0
 73
     0
 74
     5
  7

 75
    16
 76
     0
 77
     2
 78
   300
147
1.0
148
0.0
149
0.0
100
AcDbLayout
  1
Layout2
 70
     1
 71
     2
 10
0.0
 20
0.0
 11
0.0
 21
0.0
 12
0.0
 22
0.0
 32
0.0
 14
0.0
 24
0.0
 34
0.0
 15
0.0
 25
0.0
 35
0.0
146
0.0
 13
0.0
 23
0.0
 33
0.0
 16
1.0
 26
0.0
 36
0.0
 17
0.0
 27
1.0
 37
0.0
 76
     0
330
23
  0
LAYOUT
  5
22
102
{ACAD_REACTORS
330
1A
102
}
330
1A
100
AcDbPlotSettings
  1

  2
none_device
  4

  6

 40
0.0
 41
0.0
 42
0.0
 43
0.0
 44
0.0
 45
0.0
 46
0.0
 47
0.0
 48
0.0
 49
0.0
140
0.0
141
0.0
142
1.0
143
1.0
 70
  1712
 72
     0
 73
     0
 74
     0
  7

 75
     0
 76
     0
 77
     2
 78
   300
147
1.0
148
0.0
149
0.0
100
AcDbLayout
  1
Model
 70
     1
 71
     0
 10
0.0
 20
0.0
 11
12.0
 21
9.0
 12
0.0
 22
0.0
 32
0.0
 14
1.000000000000000E+20
 24
1.000000000000000E+20
 34
1.000000000000000E+20
 15
-1.000000000000000E+20
 25
-1.000000000000000E+20
 35
-1.000000000000000E+20
146
0.0
 13
0.0
 23
0.0
 33
0.0
 16
1.0
 26
0.0
 36
0.0
 17
0.0
 27
1.0
 37
0.0
 76
     0
330
1F
331
29
  0
MATERIAL
  5
3D
102
{ACAD_REACTORS
330
3B
102
}
102
{ACAD_XDICTIONARY
360
16D
102
}
330
3B
100
AcDbMaterial
  1
ByBlock
  0
MATERIAL
  5
3C
102
{ACAD_REACTORS
330
3B
102
}
102
{ACAD_XDICTIONARY
360
16B
102
}
330
3B
100
AcDbMaterial
  1
ByLayer
  0
MATERIAL
  5
3E
102
{ACAD_REACTORS
330
3B
102
}
102
{ACAD_XDICTIONARY
360
16F
102
}
330
3B
100
AcDbMaterial
  1
Global
  0
MLINESTYLE
  5
18
102
{ACAD_REACTORS
330
17
102
}
330
17
100
AcDbMlineStyle
  2
Standard
 70
     0
  3

 62
   256
 51
90.0
 52
90.0
 71
     2
 49
0.5
 62
   256
  6
BYLAYER
 49
-0.5
 62
   256
  6
BYLAYER
  0
ACDBPLACEHOLDER
  5
F
102
{ACAD_REACTORS
330
E
102
}
330
E
  0
SCALE
  5
126
102
{ACAD_REACTORS
330
125
102
}
330
125
100
AcDbScale
 70
     0
300
1:1
140
1.0
141
1.0
290
     1
  0
SCALE
  5
127
102
{ACAD_REACTORS
330
125
102
}
330
125
100
AcDbScale
 70
     0
300
1:2
140
1.0
141
2.0
290
     0
  0
SCALE
  5
128
102
{ACAD_REACTORS
330
125
102
}
330
125
100
AcDbScale
 70
     0
300
1:4
140
1.0
141
4.0
290
     0
  0
SCALE
  5
129
102
{ACAD_REACTORS
330
125
102
}
330
125
100
AcDbScale
 70
     0
300
1:5
140
1.0
141
5.0
290
     0
  0
SCALE
  5
12A
102
{ACAD_REACTORS
330
125
102
}
330
125
100
AcDbScale
 70
     0
300
1:8
140
1.0
141
8.0
290
     0
  0
SCALE
  5
12B
102
{ACAD_REACTORS
330
125
102
}
330
125
100
AcDbScale
 70
     0
300
1:10
140
1.0
141
10.0
290
     0
  0
SCALE
  5
12C
102
{ACAD_REACTORS
330
125
102
}
330
125
100
AcDbScale
 70
     0
300
1:16
140
1.0
141
16.0
290
     0
  0
SCALE
  5
12D
102
{ACAD_REACTORS
330
125
102
}
330
125
100
AcDbScale
 70
     0
300
1:20
140
1.0
141
20.0
290
     0
  0
SCALE
  5
12E
102
{ACAD_REACTORS
330
125
102
}
330
125
100
AcDbScale
 70
     0
300
1:30
140
1.0
141
30.0
290
     0
  0
SCALE
  5
12F
102
{ACAD_REACTORS
330
125
102
}
330
125
100
AcDbScale
 70
     0
300
1:40
140
1.0
141
40.0
290
     0
  0
SCALE
  5
130
102
{ACAD_REACTORS
330
125
102
}
330
125
100
AcDbScale
 70
     0
300
1:50
140
1.0
141
50.0
290
     0
  0
SCALE
  5
131
102
{ACAD_REACTORS
330
125
102
}
330
125
100
AcDbScale
 70
     0
300
1:100
140
1.0
141
100.0
290
     0
  0
SCALE
  5
132
102
{ACAD_REACTORS
330
125
102
}
330
125
100
AcDbScale
 70
     0
300
2:1
140
2.0
141
1.0
290
     0
  0
SCALE
  5
133
102
{ACAD_REACTORS
330
125
102
}
330
125
100
AcDbScale
 70
     0
300
4:1
140
4.0
141
1.0
290
     0
  0
SCALE
  5
134
102
{ACAD_REACTORS
330
125
102
}
330
125
100
AcDbScale
 70
     0
300
8:1
140
8.0
141
1.0
290
     0
  0
SCALE
  5
135
102
{ACAD_REACTORS
330
125
102
}
330
125
100
AcDbScale
 70
     0
300
10:1
140
10.0
141
1.0
290
     0
  0
SCALE
  5
136
102
{ACAD_REACTORS
330
125
102
}
330
125
100
AcDbScale
 70
     0
300
100:1
140
100.0
141
1.0
290
     0
  0
SCALE
  5
137
102
{ACAD_REACTORS
330
125
102
}
330
125
100
AcDbScale
 70
     0
300
1/128" = 1'-0"
140
0.0078125
141
12.0
290
     0
  0
SCALE
  5
138
102
{ACAD_REACTORS
330
125
102
}
330
125
100
AcDbScale
 70
     0
300
1/64" = 1'-0"
140
0.015625
141
12.0
290
     0
  0
SCALE
  5
139
102
{ACAD_REACTORS
330
125
102
}
330
125
100
AcDbScale
 70
     0
300
1/32" = 1'-0"
140
0.03125
141
12.0
290
     0
  0
SCALE
  5
13A
102
{ACAD_REACTORS
330
125
102
}
330
125
100
AcDbScale
 70
     0
300
1/16" = 1'-0"
140
0.0625
141
12.0
290
     0
  0
SCALE
  5
13B
102
{ACAD_REACTORS
330
125
102
}
330
125
100
AcDbScale
 70
     0
300
3/32" = 1'-0"
140
0.09375
141
12.0
290
     0
  0
SCALE
  5
13C
102
{ACAD_REACTORS
330
125
102
}
330
125
100
AcDbScale
 70
     0
300
1/8" = 1'-0"
140
0.125
141
12.0
290
     0
  0
SCALE
  5
13D
102
{ACAD_REACTORS
330
125
102
}
330
125
100
AcDbScale
 70
     0
300
3/16" = 1'-0"
140
0.1875
141
12.0
290
     0
  0
SCALE
  5
13E
102
{ACAD_REACTORS
330
125
102
}
330
125
100
AcDbScale
 70
     0
300
1/4" = 1'-0"
140
0.25
141
12.0
290
     0
  0
SCALE
  5
13F
102
{ACAD_REACTORS
330
125
102
}
330
125
100
AcDbScale
 70
     0
300
3/8" = 1'-0"
140
0.375
141
12.0
290
     0
  0
SCALE
  5
140
102
{ACAD_REACTORS
330
125
102
}
330
125
100
AcDbScale
 70
     0
300
1/2" = 1'-0"
140
0.5
141
12.0
290
     0
  0
SCALE
  5
141
102
{ACAD_REACTORS
330
125
102
}
330
125
100
AcDbScale
 70
     0
300
3/4" = 1'-0"
140
0.75
141
12.0
290
     0
  0
SCALE
  5
142
102
{ACAD_REACTORS
330
125
102
}
330
125
100
AcDbScale
 70
     0
300
1" = 1'-0"
140
1.0
141
12.0
290
     0
  0
SCALE
  5
143
102
{ACAD_REACTORS
330
125
102
}
330
125
100
AcDbScale
 70
     0
300
1-1/2" = 1'-0"
140
1.5
141
12.0
290
     0
  0
SCALE
  5
144
102
{ACAD_REACTORS
330
125
102
}
330
125
100
AcDbScale
 70
     0
300
3" = 1'-0"
140
3.0
141
12.0
290
     0
  0
SCALE
  5
145
102
{ACAD_REACTORS
330
125
102
}
330
125
100
AcDbScale
 70
     0
300
6" = 1'-0"
140
6.0
141
12.0
290
     0
  0
SCALE
  5
146
102
{ACAD_REACTORS
330
125
102
}
330
125
100
AcDbScale
 70
     0
300
1'-0" = 1'-0"
140
12.0
141
12.0
290
     0
  0
VISUALSTYLE
  5
2F
102
{ACAD_REACTORS
330
2A
102
}
102
{ACAD_XDICTIONARY
360
153
102
}
330
2A
100
AcDbVisualStyle
  2
2dWireframe
 70
     4
 71
     0
 72
     2
 73
     0
 90
        0
 40
-0.6
 41
-30.0
 62
     5
 63
     7
421
 16777215
 74
     1
 91
        4
 64
     7
 65
   257
 75
     1
175
     1
 42
1.0
 92
        0
 66
   257
 43
1.0
 76
     1
 77
     6
 78
     2
 67
     7
 79
     5
170
     0
171
     0
290
     0
174
     0
 93
        1
 44
0.0
173
     0
291
     0
 45
0.0
1001
ACAD
1000
AcDbSavedByObjectVersion
1070
     0
  0
VISUALSTYLE
  5
31
102
{ACAD_REACTORS
330
2A
102
}
102
{ACAD_XDICTIONARY
360
157
102
}
330
2A
100
AcDbVisualStyle
  2
3D Hidden
 70
     6
 71
     1
 72
     2
 73
     2
 90
        0
 40
-0.6
 41
-30.0
 62
     5
 63
     7
421
 16777215
 74
     2
 91
        2
 64
     7
 65
   257
 75
     2
175
     1
 42
40.0
 92
        0
 66
   257
 43
1.0
 76
     1
 77
     6
 78
     2
 67
     7
 79
     3
170
     0
171
     0
290
     0
174
     0
 93
        1
 44
0.0
173
     0
291
     0
 45
0.0
1001
ACAD
1000
AcDbSavedByObjectVersion
1070
     0
  0
VISUALSTYLE
  5
30
102
{ACAD_REACTORS
330
2A
102
}
102
{ACAD_XDICTIONARY
360
155
102
}
330
2A
100
AcDbVisualStyle
  2
3dWireframe
 70
     5
 71
     0
 72
     2
 73
     0
 90
        0
 40
-0.6
 41
-30.0
 62
     5
 63
     7
421
 16777215
 74
     1
 91
        4
 64
     7
 65
   257
 75
     1
175
     1
 42
1.0
 92
        0
 66
   257
 43
1.0
 76
     1
 77
     6
 78
     2
 67
     7
 79
     5
170
     0
171
     0
290
     0
174
     0
 93
        1
 44
0.0
173
     0
291
     0
 45
0.0
1001
ACAD
1000
AcDbSavedByObjectVersion
1070
     0
  0
VISUALSTYLE
  5
32
102
{ACAD_REACTORS
330
2A
102
}
102
{ACAD_XDICTIONARY
360
159
102
}
330
2A
100
AcDbVisualStyle
  2
Basic
 70
     7
 71
     1
 72
     0
 73
     1
 90
        0
 40
-0.6
 41
-30.0
 62
     5
 63
     7
421
 16777215
 74
     0
 91
        4
 64
     7
 65
   257
 75
     1
175
     1
 42
1.0
 92
        8
 66
     7
 43
1.0
 76
     1
 77
     6
 78
     2
 67
     7
 79
     5
170
     0
171
     0
290
     0
174
     0
 93
        1
 44
0.0
173
     0
291
     1
 45
0.0
1001
ACAD
1000
AcDbSavedByObjectVersion
1070
     0
  0
VISUALSTYLE
  5
36
102
{ACAD_REACTORS
330
2A
102
}
102
{ACAD_XDICTIONARY
360
161
102
}
330
2A
100
AcDbVisualStyle
  2
Brighten
 70
    12
 71
     2
 72
     2
 73
     0
 90
        0
 40
-0.6
 41
-30.0
 62
     5
 63
     7
421
 16777215
 74
     1
 91
        4
 64
     7
 65
   257
 75
     1
175
     1
 42
1.0
 92
        8
 66
     7
 43
1.0
 76
     1
 77
     6
 78
     2
 67
     7
 79
     5
170
     0
171
     0
290
     0
174
     0
 93
        1
 44
50.0
173
     0
291
     1
 45
0.0
1001
ACAD
1000
AcDbSavedByObjectVersion
1070
     0
  0
VISUALSTYLE
  5
3A
102
{ACAD_REACTORS
330
2A
102
}
102
{ACAD_XDICTIONARY
360
169
102
}
330
2A
100
AcDbVisualStyle
  2
ColorChange
 70
    16
 71
     2
 72
     2
 73
     3
 90
        0
 40
-0.6
 41
-30.0
 62
     5
 63
     8
421
  8421504
 74
     1
 91
        4
 64
     7
 65
   257
 75
     1
175
     1
 42
1.0
 92
        8
 66
     8
424
  8421504
 43
1.0
 76
     1
 77
     6
 78
     2
 67
     7
 79
     5
170
     0
171
     0
290
     0
174
     0
 93
        1
 44
0.0
173
     0
291
     1
 45
0.0
1001
ACAD
1000
AcDbSavedByObjectVersion
1070
     0
  0
VISUALSTYLE
  5
34
102
{ACAD_REACTORS
330
2A
102
}
102
{ACAD_XDICTIONARY
360
15D
102
}
330
2A
100
AcDbVisualStyle
  2
Conceptual
 70
     9
 71
     3
 72
     2
 73
     0
 90
        0
 40
-0.6
 41
-30.0
 62
     5
 63
     7
421
 16777215
 74
     2
 91
        2
 64
     7
 65
   257
 75
     1
175
     1
 42
40.0
 92
        8
 66
     7
 43
1.0
 76
     1
 77
     6
 78
     2
 67
     7
 79
     3
170
     0
171
     0
290
     0
174
     0
 93
        1
 44
0.0
173
     0
291
     0
 45
0.0
1001
ACAD
1000
AcDbSavedByObjectVersion
1070
     0
  0
VISUALSTYLE
  5
35
102
{ACAD_REACTORS
330
2A
102
}
102
{ACAD_XDICTIONARY
360
15F
102
}
330
2A
100
AcDbVisualStyle
  2
Dim
 70
    11
 71
     2
 72
     2
 73
     0
 90
        0
 40
-0.6
 41
-30.0
 62
     5
 63
     7
421
 16777215
 74
     1
 91
        4
 64
     7
 65
   257
 75
     1
175
     1
 42
1.0
 92
        8
 66
     7
 43
1.0
 76
     1
 77
     6
 78
     2
 67
     7
 79
     5
170
     0
171
     0
290
     0
174
     0
 93
        1
 44
-50.0
173
     0
291
     1
 45
0.0
1001
ACAD
1000
AcDbSavedByObjectVersion
1070
     0
  0
VISUALSTYLE
  5
39
102
{ACAD_REACTORS
330
2A
102
}
102
{ACAD_XDICTIONARY
360
167
102
}
330
2A
100
AcDbVisualStyle
  2
Facepattern
 70
    15
 71
     2
 72
     2
 73
     0
 90
        0
 40
-0.6
 41
-30.0
 62
     5
 63
     7
421
 16777215
 74
     1
 91
        4
 64
     7
 65
   257
 75
     1
175
     1
 42
1.0
 92
        8
 66
     7
 43
1.0
 76
     1
 77
     6
 78
     2
 67
     7
 79
     5
170
     0
171
     0
290
     0
174
     0
 93
        1
 44
0.0
173
     0
291
     1
 45
0.0
1001
ACAD
1000
AcDbSavedByObjectVersion
1070
     0
  0
VISUALSTYLE
  5
2B
102
{ACAD_REACTORS
330
2A
102
}
102
{ACAD_XDICTIONARY
360
14B
102
}
330
2A
100
AcDbVisualStyle
  2
Flat
 70
     0
 71
     2
 72
     1
 73
     1
 90
        2
 40
-0.6
 41
30.0
 62
     5
 63
     7
421
 16777215
 74
     0
 91
        4
 64
     7
 65
   257
 75
     1
175
     1
 42
1.0
 92
        8
 66
     7
 43
1.0
 76
     1
 77
     6
 78
     2
 67
     7
 79
     5
170
     0
171
     0
290
     0
174
     0
 93
       13
 44
0.0
173
     0
291
     1
 45
0.0
1001
ACAD
1000
AcDbSavedByObjectVersion
1070
     0
  0
VISUALSTYLE
  5
2C
102
{ACAD_REACTORS
330
2A
102
}
102
{ACAD_XDICTIONARY
360
14D
102
}
330
2A
100
AcDbVisualStyle
  2
FlatWithEdges
 70
     1
 71
     2
 72
     1
 73
     1
 90
        2
 40
-0.6
 41
30.0
 62
     5
 63
     7
421
 16777215
 74
     1
 91
        4
 64
     7
 65
   257
 75
     1
175
     1
 42
1.0
 92
        0
 66
   257
 43
1.0
 76
     1
 77
     6
 78
     2
 67
     7
 79
     5
170
     0
171
     0
290
     0
174
     0
 93
       13
 44
0.0
173
     0
291
     1
 45
0.0
1001
ACAD
1000
AcDbSavedByObjectVersion
1070
     0
  0
VISUALSTYLE
  5
2D
102
{ACAD_REACTORS
330
2A
102
}
102
{ACAD_XDICTIONARY
360
14F
102
}
330
2A
100
AcDbVisualStyle
  2
Gouraud
 70
     2
 71
     2
 72
     2
 73
     1
 90
        2
 40
-0.6
 41
30.0
 62
     5
 63
     7
421
 16777215
 74
     0
 91
        4
 64
     7
 65
   257
 75
     1
175
     1
 42
1.0
 92
        0
 66
     7
 43
1.0
 76
     1
 77
     6
 78
     2
 67
     7
 79
     5
170
     0
171
     0
290
     0
174
     0
 93
       13
 44
0.0
173
     0
291
     1
 45
0.0
1001
ACAD
1000
AcDbSavedByObjectVersion
1070
     0
  0
VISUALSTYLE
  5
2E
102
{ACAD_REACTORS
330
2A
102
}
102
{ACAD_XDICTIONARY
360
151
102
}
330
2A
100
AcDbVisualStyle
  2
GouraudWithEdges
 70
     3
 71
     2
 72
     2
 73
     1
 90
        2
 40
-0.6
 41
30.0
 62
     5
 63
     7
421
 16777215
 74
     1
 91
        4
 64
     7
 65
   257
 75
     1
175
     1
 42
1.0
 92
        0
 66
   257
 43
1.0
 76
     1
 77
     6
 78
     2
 67
     7
 79
     5
170
     0
171
     0
290
     0
174
     0
 93
       13
 44
0.0
173
     0
291
     1
 45
0.0
1001
ACAD
1000
AcDbSavedByObjectVersion
1070
     0
  0
VISUALSTYLE
  5
38
102
{ACAD_REACTORS
330
2A
102
}
102
{ACAD_XDICTIONARY
360
165
102
}
330
2A
100
AcDbVisualStyle
  2
Linepattern
 70
    14
 71
     2
 72
     2
 73
     0
 90
        0
 40
-0.6
 41
-30.0
 62
     5
 63
     7
421
 16777215
 74
     1
 91
        4
 64
     7
 65
   257
 75
     7
175
     7
 42
1.0
 92
        8
 66
     7
 43
1.0
 76
     1
 77
     6
 78
     2
 67
     7
 79
     5
170
     0
171
     0
290
     0
174
     0
 93
        1
 44
0.0
173
     0
291
     1
 45
0.0
1001
ACAD
1000
AcDbSavedByObjectVersion
1070
     0
  0
VISUALSTYLE
  5
33
102
{ACAD_REACTORS
330
2A
102
}
102
{ACAD_XDICTIONARY
360
15B
102
}
330
2A
100
AcDbVisualStyle
  2
Realistic
 70
     8
 71
     2
 72
     2
 73
     0
 90
        0
 40
-0.6
 41
-30.0
 62
     5
 63
     7
421
 16777215
 74
     1
 91
        0
 64
     7
 65
   257
 75
     1
175
     1
 42
1.0
 92
        8
 66
     8
424
  7895160
 43
1.0
 76
     1
 77
     6
 78
     2
 67
     7
 79
     5
170
     0
171
     0
290
     0
174
     0
 93
       13
 44
0.0
173
     0
291
     0
 45
0.0
1001
ACAD
1000
AcDbSavedByObjectVersion
1070
     0
  0
VISUALSTYLE
  5
37
102
{ACAD_REACTORS
330
2A
102
}
102
{ACAD_XDICTIONARY
360
163
102
}
330
2A
100
AcDbVisualStyle
  2
Thicken
 70
    13
 71
     2
 72
     2
 73
     0
 90
        0
 40
-0.6
 41
-30.0
 62
     5
 63
     7
421
 16777215
 74
     1
 91
        4
 64
     7
 65
   257
 75
     1
175
     1
 42
1.0
 92
       12
 66
     7
 43
1.0
 76
     1
 77
     6
 78
     2
 67
     7
 79
     5
170
     0
171
     0
290
     0
174
     0
 93
        1
 44
0.0
173
     0
291
     1
 45
0.0
1001
ACAD
1000
AcDbSavedByObjectVersion
1070
     0
  0
DICTIONARYVAR
  5
14A
102
{ACAD_REACTORS
330
149
102
}
330
149
100
DictionaryVariables
280
     0
  1
1:1
  0
DICTIONARYVAR
  5
173
102
{ACAD_REACTORS
330
149
102
}
330
149
100
DictionaryVariables
280
     0
  1
0
  0
XRECORD
  5
148
102
{ACAD_REACTORS
330
147
102
}
330
147
100
AcDbXrecord
280
     1
1000
This DWG file was created in ArchiCAD(TM)®
  0
DICTIONARY
  5
16D
330
3D
100
AcDbDictionary
280
     1
281
     1
  3
ACAD_XREC_ROUNDTRIP
360
16E
  0
DICTIONARY
  5
16B
330
3C
100
AcDbDictionary
280
     1
281
     1
  3
ACAD_XREC_ROUNDTRIP
360
16C
  0
DICTIONARY
  5
16F
330
3E
100
AcDbDictionary
280
     1
281
     1
  3
ACAD_XREC_ROUNDTRIP
360
170
  0
DICTIONARY
  5
153
330
2F
100
AcDbDictionary
280
     1
281
     1
  3
ACAD_XREC_ROUNDTRIP
360
154
  0
DICTIONARY
  5
157
330
31
100
AcDbDictionary
280
     1
281
     1
  3
ACAD_XREC_ROUNDTRIP
360
158
  0
DICTIONARY
  5
155
330
30
100
AcDbDictionary
280
     1
281
     1
  3
ACAD_XREC_ROUNDTRIP
360
156
  0
DICTIONARY
  5
159
330
32
100
AcDbDictionary
280
     1
281
     1
  3
ACAD_XREC_ROUNDTRIP
360
15A
  0
DICTIONARY
  5
161
330
36
100
AcDbDictionary
280
     1
281
     1
  3
ACAD_XREC_ROUNDTRIP
360
162
  0
DICTIONARY
  5
169
330
3A
100
AcDbDictionary
280
     1
281
     1
  3
ACAD_XREC_ROUNDTRIP
360
16A
  0
DICTIONARY
  5
15D
330
34
100
AcDbDictionary
280
     1
281
     1
  3
ACAD_XREC_ROUNDTRIP
360
15E
  0
DICTIONARY
  5
15F
330
35
100
AcDbDictionary
280
     1
281
     1
  3
ACAD_XREC_ROUNDTRIP
360
160
  0
DICTIONARY
  5
167
330
39
100
AcDbDictionary
280
     1
281
     1
  3
ACAD_XREC_ROUNDTRIP
360
168
  0
DICTIONARY
  5
14B
330
2B
100
AcDbDictionary
280
     1
281
     1
  3
ACAD_XREC_ROUNDTRIP
360
14C
  0
DICTIONARY
  5
14D
330
2C
100
AcDbDictionary
280
     1
281
     1
  3
ACAD_XREC_ROUNDTRIP
360
14E
  0
DICTIONARY
  5
14F
330
2D
100
AcDbDictionary
280
     1
281
     1
  3
ACAD_XREC_ROUNDTRIP
360
150
  0
DICTIONARY
  5
151
330
2E
100
AcDbDictionary
280
     1
281
     1
  3
ACAD_XREC_ROUNDTRIP
360
152
  0
DICTIONARY
  5
165
330
38
100
AcDbDictionary
280
     1
281
     1
  3
ACAD_XREC_ROUNDTRIP
360
166
  0
DICTIONARY
  5
15B
330
33
100
AcDbDictionary
280
     1
281
     1
  3
ACAD_XREC_ROUNDTRIP
360
15C
  0
DICTIONARY
  5
163
330
37
100
AcDbDictionary
280
     1
281
     1
  3
ACAD_XREC_ROUNDTRIP
360
164
  0
XRECORD
  5
16E
102
{ACAD_REACTORS
330
16D
102
}
330
16D
100
AcDbXrecord
280
     1
102
MATERIAL
148
0.0
149
0.0
149
0.0
 93
        0
 94
      127
282
     0
 72
     1
 77
     1
171
     1
175
     1
179
     1
273
     0
  0
XRECORD
  5
16C
102
{ACAD_REACTORS
330
16B
102
}
330
16B
100
AcDbXrecord
280
     1
102
MATERIAL
148
0.0
149
0.0
149
0.0
 93
        0
 94
      127
282
     0
 72
     1
 77
     1
171
     1
175
     1
179
     1
273
     0
  0
XRECORD
  5
170
102
{ACAD_REACTORS
330
16F
102
}
330
16F
100
AcDbXrecord
280
     1
102
MATERIAL
148
0.0
149
0.0
149
0.0
 93
        0
 94
      127
282
     0
 72
     1
 77
     1
171
     1
175
     1
179
     1
273
     0
  0
XRECORD
  5
154
102
{ACAD_REACTORS
330
153
102
}
330
153
100
AcDbXrecord
280
     1
102
RTVSPropertyOp0
 70
     1
102
RTVSPropertyOp1
 70
     1
102
RTVSPropertyOp2
 70
     1
102
RTVSPropertyOp3
 70
     1
102
RTVSPropertyOp4
 70
     1
102
RTVSPropertyOp5
 70
     1
102
RTVSPropertyOp6
 70
     1
102
RTVSPropertyOp7
 70
     1
102
RTVSPropertyOp8
 70
     1
102
RTVSPropertyOp9
 70
     1
102
RTVSPropertyOp10
 70
     1
102
RTVSPropertyOp11
 70
     1
102
RTVSPropertyOp12
 70
     1
102
RTVSPropertyOp13
 70
     1
102
RTVSPropertyOp14
 70
     1
102
RTVSPropertyOp15
 70
     1
102
RTVSPropertyOp16
 70
     1
102
RTVSPropertyOp17
 70
     1
102
RTVSPropertyOp18
 70
     1
102
RTVSPropertyOp19
 70
     1
102
RTVSPropertyOp20
 70
     1
102
RTVSPropertyOp21
 70
     1
102
RTVSPropertyOp22
 70
     1
102
RTVSPropertyOp23
 70
     1
102
RTVSPropertyOp24
 70
     1
102
RTVSPropertyOp25
 70
     1
102
RTVSPropertyOp26
 70
     1
102
RTVSPropertyOp27
 70
     1
102
RTVSPropertyOp28
 70
     1
102
RTVSPropertyOp29
 70
     1
102
RTVSPropertyOp30
 70
     1
102
RTVSPropertyOp31
 70
     1
102
RTVSPropertyOp32
 70
     1
  0
XRECORD
  5
158
102
{ACAD_REACTORS
330
157
102
}
330
157
100
AcDbXrecord
280
     1
102
RTVSPropertyOp0
 70
     1
102
RTVSPropertyOp1
 70
     1
102
RTVSPropertyOp2
 70
     1
102
RTVSPropertyOp3
 70
     1
102
RTVSPropertyOp4
 70
     1
102
RTVSPropertyOp5
 70
     1
102
RTVSPropertyOp6
 70
     1
102
RTVSPropertyOp7
 70
     1
102
RTVSPropertyOp8
 70
     1
102
RTVSPropertyOp9
 70
     1
102
RTVSPropertyOp10
 70
     1
102
RTVSPropertyOp11
 70
     1
102
RTVSPropertyOp12
 70
     1
102
RTVSPropertyOp13
 70
     1
102
RTVSPropertyOp14
 70
     1
102
RTVSPropertyOp15
 70
     1
102
RTVSPropertyOp16
 70
     1
102
RTVSPropertyOp17
 70
     1
102
RTVSPropertyOp18
 70
     1
102
RTVSPropertyOp19
 70
     1
102
RTVSPropertyOp20
 70
     1
102
RTVSPropertyOp21
 70
     1
102
RTVSPropertyOp22
 70
     1
102
RTVSPropertyOp23
 70
     1
102
RTVSPropertyOp24
 70
     1
102
RTVSPropertyOp25
 70
     1
102
RTVSPropertyOp26
 70
     1
102
RTVSPropertyOp27
 70
     1
102
RTVSPropertyOp28
 70
     1
102
RTVSPropertyOp29
 70
     1
102
RTVSPropertyOp30
 70
     1
102
RTVSPropertyOp31
 70
     1
102
RTVSPropertyOp32
 70
     1
  0
XRECORD
  5
156
102
{ACAD_REACTORS
330
155
102
}
330
155
100
AcDbXrecord
280
     1
102
RTVSPropertyOp0
 70
     1
102
RTVSPropertyOp1
 70
     1
102
RTVSPropertyOp2
 70
     1
102
RTVSPropertyOp3
 70
     1
102
RTVSPropertyOp4
 70
     1
102
RTVSPropertyOp5
 70
     1
102
RTVSPropertyOp6
 70
     1
102
RTVSPropertyOp7
 70
     1
102
RTVSPropertyOp8
 70
     1
102
RTVSPropertyOp9
 70
     1
102
RTVSPropertyOp10
 70
     1
102
RTVSPropertyOp11
 70
     1
102
RTVSPropertyOp12
 70
     1
102
RTVSPropertyOp13
 70
     1
102
RTVSPropertyOp14
 70
     1
102
RTVSPropertyOp15
 70
     1
102
RTVSPropertyOp16
 70
     1
102
RTVSPropertyOp17
 70
     1
102
RTVSPropertyOp18
 70
     1
102
RTVSPropertyOp19
 70
     1
102
RTVSPropertyOp20
 70
     1
102
RTVSPropertyOp21
 70
     1
102
RTVSPropertyOp22
 70
     1
102
RTVSPropertyOp23
 70
     1
102
RTVSPropertyOp24
 70
     1
102
RTVSPropertyOp25
 70
     1
102
RTVSPropertyOp26
 70
     1
102
RTVSPropertyOp27
 70
     1
102
RTVSPropertyOp28
 70
     1
102
RTVSPropertyOp29
 70
     1
102
RTVSPropertyOp30
 70
     1
102
RTVSPropertyOp31
 70
     1
102
RTVSPropertyOp32
 70
     1
  0
XRECORD
  5
15A
102
{ACAD_REACTORS
330
159
102
}
330
159
100
AcDbXrecord
280
     1
102
RTVSPropertyOp0
 70
     1
102
RTVSPropertyOp1
 70
     1
102
RTVSPropertyOp2
 70
     1
102
RTVSPropertyOp3
 70
     1
102
RTVSPropertyOp4
 70
     1
102
RTVSPropertyOp5
 70
     1
102
RTVSPropertyOp6
 70
     1
102
RTVSPropertyOp7
 70
     1
102
RTVSPropertyOp8
 70
     1
102
RTVSPropertyOp9
 70
     1
102
RTVSPropertyOp10
 70
     1
102
RTVSPropertyOp11
 70
     1
102
RTVSPropertyOp12
 70
     1
102
RTVSPropertyOp13
 70
     1
102
RTVSPropertyOp14
 70
     1
102
RTVSPropertyOp15
 70
     1
102
RTVSPropertyOp16
 70
     1
102
RTVSPropertyOp17
 70
     1
102
RTVSPropertyOp18
 70
     1
102
RTVSPropertyOp19
 70
     1
102
RTVSPropertyOp20
 70
     1
102
RTVSPropertyOp21
 70
     1
102
RTVSPropertyOp22
 70
     1
102
RTVSPropertyOp23
 70
     1
102
RTVSPropertyOp24
 70
     1
102
RTVSPropertyOp25
 70
     1
102
RTVSPropertyOp26
 70
     1
102
RTVSPropertyOp27
 70
     1
102
RTVSPropertyOp28
 70
     1
102
RTVSPropertyOp29
 70
     1
102
RTVSPropertyOp30
 70
     1
102
RTVSPropertyOp31
 70
     1
102
RTVSPropertyOp32
 70
     1
  0
XRECORD
  5
162
102
{ACAD_REACTORS
330
161
102
}
330
161
100
AcDbXrecord
280
     1
102
RTVSPropertyOp0
 70
     1
102
RTVSPropertyOp1
 70
     1
102
RTVSPropertyOp2
 70
     1
102
RTVSPropertyOp3
 70
     1
102
RTVSPropertyOp4
 70
     1
102
RTVSPropertyOp5
 70
     1
102
RTVSPropertyOp6
 70
     1
102
RTVSPropertyOp7
 70
     1
102
RTVSPropertyOp8
 70
     1
102
RTVSPropertyOp9
 70
     1
102
RTVSPropertyOp10
 70
     1
102
RTVSPropertyOp11
 70
     1
102
RTVSPropertyOp12
 70
     1
102
RTVSPropertyOp13
 70
     1
102
RTVSPropertyOp14
 70
     1
102
RTVSPropertyOp15
 70
     1
102
RTVSPropertyOp16
 70
     1
102
RTVSPropertyOp17
 70
     1
102
RTVSPropertyOp18
 70
     1
102
RTVSPropertyOp19
 70
     1
102
RTVSPropertyOp20
 70
     1
102
RTVSPropertyOp21
 70
     1
102
RTVSPropertyOp22
 70
     1
102
RTVSPropertyOp23
 70
     1
102
RTVSPropertyOp24
 70
     1
102
RTVSPropertyOp25
 70
     1
102
RTVSPropertyOp26
 70
     1
102
RTVSPropertyOp27
 70
     1
102
RTVSPropertyOp28
 70
     1
102
RTVSPropertyOp29
 70
     1
102
RTVSPropertyOp30
 70
     1
102
RTVSPropertyOp31
 70
     1
102
RTVSPropertyOp32
 70
     1
  0
XRECORD
  5
16A
102
{ACAD_REACTORS
330
169
102
}
330
169
100
AcDbXrecord
280
     1
102
RTVSPropertyOp0
 70
     1
102
RTVSPropertyOp1
 70
     1
102
RTVSPropertyOp2
 70
     1
102
RTVSPropertyOp3
 70
     1
102
RTVSPropertyOp4
 70
     1
102
RTVSPropertyOp5
 70
     1
102
RTVSPropertyOp6
 70
     1
102
RTVSPropertyOp7
 70
     1
102
RTVSPropertyOp8
 70
     1
102
RTVSPropertyOp9
 70
     1
102
RTVSPropertyOp10
 70
     1
102
RTVSPropertyOp11
 70
     1
102
RTVSPropertyOp12
 70
     1
102
RTVSPropertyOp13
 70
     1
102
RTVSPropertyOp14
 70
     1
102
RTVSPropertyOp15
 70
     1
102
RTVSPropertyOp16
 70
     1
102
RTVSPropertyOp17
 70
     1
102
RTVSPropertyOp18
 70
     1
102
RTVSPropertyOp19
 70
     1
102
RTVSPropertyOp20
 70
     1
102
RTVSPropertyOp21
 70
     1
102
RTVSPropertyOp22
 70
     1
102
RTVSPropertyOp23
 70
     1
102
RTVSPropertyOp24
 70
     1
102
RTVSPropertyOp25
 70
     1
102
RTVSPropertyOp26
 70
     1
102
RTVSPropertyOp27
 70
     1
102
RTVSPropertyOp28
 70
     1
102
RTVSPropertyOp29
 70
     1
102
RTVSPropertyOp30
 70
     1
102
RTVSPropertyOp31
 70
     1
102
RTVSPropertyOp32
 70
     1
  0
XRECORD
  5
15E
102
{ACAD_REACTORS
330
15D
102
}
330
15D
100
AcDbXrecord
280
     1
102
RTVSPropertyOp0
 70
     1
102
RTVSPropertyOp1
 70
     1
102
RTVSPropertyOp2
 70
     1
102
RTVSPropertyOp3
 70
     1
102
RTVSPropertyOp4
 70
     1
102
RTVSPropertyOp5
 70
     1
102
RTVSPropertyOp6
 70
     1
102
RTVSPropertyOp7
 70
     1
102
RTVSPropertyOp8
 70
     1
102
RTVSPropertyOp9
 70
     1
102
RTVSPropertyOp10
 70
     1
102
RTVSPropertyOp11
 70
     1
102
RTVSPropertyOp12
 70
     1
102
RTVSPropertyOp13
 70
     1
102
RTVSPropertyOp14
 70
     1
102
RTVSPropertyOp15
 70
     1
102
RTVSPropertyOp16
 70
     1
102
RTVSPropertyOp17
 70
     1
102
RTVSPropertyOp18
 70
     1
102
RTVSPropertyOp19
 70
     1
102
RTVSPropertyOp20
 70
     1
102
RTVSPropertyOp21
 70
     1
102
RTVSPropertyOp22
 70
     1
102
RTVSPropertyOp23
 70
     1
102
RTVSPropertyOp24
 70
     1
102
RTVSPropertyOp25
 70
     1
102
RTVSPropertyOp26
 70
     1
102
RTVSPropertyOp27
 70
     1
102
RTVSPropertyOp28
 70
     1
102
RTVSPropertyOp29
 70
     1
102
RTVSPropertyOp30
 70
     1
102
RTVSPropertyOp31
 70
     1
102
RTVSPropertyOp32
 70
     1
  0
XRECORD
  5
160
102
{ACAD_REACTORS
330
15F
102
}
330
15F
100
AcDbXrecord
280
     1
102
RTVSPropertyOp0
 70
     1
102
RTVSPropertyOp1
 70
     1
102
RTVSPropertyOp2
 70
     1
102
RTVSPropertyOp3
 70
     1
102
RTVSPropertyOp4
 70
     1
102
RTVSPropertyOp5
 70
     1
102
RTVSPropertyOp6
 70
     1
102
RTVSPropertyOp7
 70
     1
102
RTVSPropertyOp8
 70
     1
102
RTVSPropertyOp9
 70
     1
102
RTVSPropertyOp10
 70
     1
102
RTVSPropertyOp11
 70
     1
102
RTVSPropertyOp12
 70
     1
102
RTVSPropertyOp13
 70
     1
102
RTVSPropertyOp14
 70
     1
102
RTVSPropertyOp15
 70
     1
102
RTVSPropertyOp16
 70
     1
102
RTVSPropertyOp17
 70
     1
102
RTVSPropertyOp18
 70
     1
102
RTVSPropertyOp19
 70
     1
102
RTVSPropertyOp20
 70
     1
102
RTVSPropertyOp21
 70
     1
102
RTVSPropertyOp22
 70
     1
102
RTVSPropertyOp23
 70
     1
102
RTVSPropertyOp24
 70
     1
102
RTVSPropertyOp25
 70
     1
102
RTVSPropertyOp26
 70
     1
102
RTVSPropertyOp27
 70
     1
102
RTVSPropertyOp28
 70
     1
102
RTVSPropertyOp29
 70
     1
102
RTVSPropertyOp30
 70
     1
102
RTVSPropertyOp31
 70
     1
102
RTVSPropertyOp32
 70
     1
  0
XRECORD
  5
168
102
{ACAD_REACTORS
330
167
102
}
330
167
100
AcDbXrecord
280
     1
102
RTVSPropertyOp0
 70
     1
102
RTVSPropertyOp1
 70
     1
102
RTVSPropertyOp2
 70
     1
102
RTVSPropertyOp3
 70
     1
102
RTVSPropertyOp4
 70
     1
102
RTVSPropertyOp5
 70
     1
102
RTVSPropertyOp6
 70
     1
102
RTVSPropertyOp7
 70
     1
102
RTVSPropertyOp8
 70
     1
102
RTVSPropertyOp9
 70
     1
102
RTVSPropertyOp10
 70
     1
102
RTVSPropertyOp11
 70
     1
102
RTVSPropertyOp12
 70
     1
102
RTVSPropertyOp13
 70
     1
102
RTVSPropertyOp14
 70
     1
102
RTVSPropertyOp15
 70
     1
102
RTVSPropertyOp16
 70
     1
102
RTVSPropertyOp17
 70
     1
102
RTVSPropertyOp18
 70
     1
102
RTVSPropertyOp19
 70
     1
102
RTVSPropertyOp20
 70
     1
102
RTVSPropertyOp21
 70
     1
102
RTVSPropertyOp22
 70
     1
102
RTVSPropertyOp23
 70
     1
102
RTVSPropertyOp24
 70
     1
102
RTVSPropertyOp25
 70
     1
102
RTVSPropertyOp26
 70
     1
102
RTVSPropertyOp27
 70
     1
102
RTVSPropertyOp28
 70
     1
102
RTVSPropertyOp29
 70
     1
102
RTVSPropertyOp30
 70
     1
102
RTVSPropertyOp31
 70
     1
102
RTVSPropertyOp32
 70
     1
  0
XRECORD
  5
14C
102
{ACAD_REACTORS
330
14B
102
}
330
14B
100
AcDbXrecord
280
     1
102
RTVSPropertyOp0
 70
     1
102
RTVSPropertyOp1
 70
     1
102
RTVSPropertyOp2
 70
     1
102
RTVSPropertyOp3
 70
     1
102
RTVSPropertyOp4
 70
     1
102
RTVSPropertyOp5
 70
     1
102
RTVSPropertyOp6
 70
     1
102
RTVSPropertyOp7
 70
     1
102
RTVSPropertyOp8
 70
     1
102
RTVSPropertyOp9
 70
     1
102
RTVSPropertyOp10
 70
     1
102
RTVSPropertyOp11
 70
     1
102
RTVSPropertyOp12
 70
     1
102
RTVSPropertyOp13
 70
     1
102
RTVSPropertyOp14
 70
     1
102
RTVSPropertyOp15
 70
     1
102
RTVSPropertyOp16
 70
     1
102
RTVSPropertyOp17
 70
     1
102
RTVSPropertyOp18
 70
     1
102
RTVSPropertyOp19
 70
     1
102
RTVSPropertyOp20
 70
     1
102
RTVSPropertyOp21
 70
     1
102
RTVSPropertyOp22
 70
     1
102
RTVSPropertyOp23
 70
     1
102
RTVSPropertyOp24
 70
     1
102
RTVSPropertyOp25
 70
     1
102
RTVSPropertyOp26
 70
     1
102
RTVSPropertyOp27
 70
     1
102
RTVSPropertyOp28
 70
     1
102
RTVSPropertyOp29
 70
     1
102
RTVSPropertyOp30
 70
     1
102
RTVSPropertyOp31
 70
     1
102
RTVSPropertyOp32
 70
     1
  0
XRECORD
  5
14E
102
{ACAD_REACTORS
330
14D
102
}
330
14D
100
AcDbXrecord
280
     1
102
RTVSPropertyOp0
 70
     1
102
RTVSPropertyOp1
 70
     1
102
RTVSPropertyOp2
 70
     1
102
RTVSPropertyOp3
 70
     1
102
RTVSPropertyOp4
 70
     1
102
RTVSPropertyOp5
 70
     1
102
RTVSPropertyOp6
 70
     1
102
RTVSPropertyOp7
 70
     1
102
RTVSPropertyOp8
 70
     1
102
RTVSPropertyOp9
 70
     1
102
RTVSPropertyOp10
 70
     1
102
RTVSPropertyOp11
 70
     1
102
RTVSPropertyOp12
 70
     1
102
RTVSPropertyOp13
 70
     1
102
RTVSPropertyOp14
 70
     1
102
RTVSPropertyOp15
 70
     1
102
RTVSPropertyOp16
 70
     1
102
RTVSPropertyOp17
 70
     1
102
RTVSPropertyOp18
 70
     1
102
RTVSPropertyOp19
 70
     1
102
RTVSPropertyOp20
 70
     1
102
RTVSPropertyOp21
 70
     1
102
RTVSPropertyOp22
 70
     1
102
RTVSPropertyOp23
 70
     1
102
RTVSPropertyOp24
 70
     1
102
RTVSPropertyOp25
 70
     1
102
RTVSPropertyOp26
 70
     1
102
RTVSPropertyOp27
 70
     1
102
RTVSPropertyOp28
 70
     1
102
RTVSPropertyOp29
 70
     1
102
RTVSPropertyOp30
 70
     1
102
RTVSPropertyOp31
 70
     1
102
RTVSPropertyOp32
 70
     1
  0
XRECORD
  5
150
102
{ACAD_REACTORS
330
14F
102
}
330
14F
100
AcDbXrecord
280
     1
102
RTVSPropertyOp0
 70
     1
102
RTVSPropertyOp1
 70
     1
102
RTVSPropertyOp2
 70
     1
102
RTVSPropertyOp3
 70
     1
102
RTVSPropertyOp4
 70
     1
102
RTVSPropertyOp5
 70
     1
102
RTVSPropertyOp6
 70
     1
102
RTVSPropertyOp7
 70
     1
102
RTVSPropertyOp8
 70
     1
102
RTVSPropertyOp9
 70
     1
102
RTVSPropertyOp10
 70
     1
102
RTVSPropertyOp11
 70
     1
102
RTVSPropertyOp12
 70
     1
102
RTVSPropertyOp13
 70
     1
102
RTVSPropertyOp14
 70
     1
102
RTVSPropertyOp15
 70
     1
102
RTVSPropertyOp16
 70
     1
102
RTVSPropertyOp17
 70
     1
102
RTVSPropertyOp18
 70
     1
102
RTVSPropertyOp19
 70
     1
102
RTVSPropertyOp20
 70
     1
102
RTVSPropertyOp21
 70
     1
102
RTVSPropertyOp22
 70
     1
102
RTVSPropertyOp23
 70
     1
102
RTVSPropertyOp24
 70
     1
102
RTVSPropertyOp25
 70
     1
102
RTVSPropertyOp26
 70
     1
102
RTVSPropertyOp27
 70
     1
102
RTVSPropertyOp28
 70
     1
102
RTVSPropertyOp29
 70
     1
102
RTVSPropertyOp30
 70
     1
102
RTVSPropertyOp31
 70
     1
102
RTVSPropertyOp32
 70
     1
  0
XRECORD
  5
152
102
{ACAD_REACTORS
330
151
102
}
330
151
100
AcDbXrecord
280
     1
102
RTVSPropertyOp0
 70
     1
102
RTVSPropertyOp1
 70
     1
102
RTVSPropertyOp2
 70
     1
102
RTVSPropertyOp3
 70
     1
102
RTVSPropertyOp4
 70
     1
102
RTVSPropertyOp5
 70
     1
102
RTVSPropertyOp6
 70
     1
102
RTVSPropertyOp7
 70
     1
102
RTVSPropertyOp8
 70
     1
102
RTVSPropertyOp9
 70
     1
102
RTVSPropertyOp10
 70
     1
102
RTVSPropertyOp11
 70
     1
102
RTVSPropertyOp12
 70
     1
102
RTVSPropertyOp13
 70
     1
102
RTVSPropertyOp14
 70
     1
102
RTVSPropertyOp15
 70
     1
102
RTVSPropertyOp16
 70
     1
102
RTVSPropertyOp17
 70
     1
102
RTVSPropertyOp18
 70
     1
102
RTVSPropertyOp19
 70
     1
102
RTVSPropertyOp20
 70
     1
102
RTVSPropertyOp21
 70
     1
102
RTVSPropertyOp22
 70
     1
102
RTVSPropertyOp23
 70
     1
102
RTVSPropertyOp24
 70
     1
102
RTVSPropertyOp25
 70
     1
102
RTVSPropertyOp26
 70
     1
102
RTVSPropertyOp27
 70
     1
102
RTVSPropertyOp28
 70
     1
102
RTVSPropertyOp29
 70
     1
102
RTVSPropertyOp30
 70
     1
102
RTVSPropertyOp31
 70
     1
102
RTVSPropertyOp32
 70
     1
  0
XRECORD
  5
166
102
{ACAD_REACTORS
330
165
102
}
330
165
100
AcDbXrecord
280
     1
102
RTVSPropertyOp0
 70
     1
102
RTVSPropertyOp1
 70
     1
102
RTVSPropertyOp2
 70
     1
102
RTVSPropertyOp3
 70
     1
102
RTVSPropertyOp4
 70
     1
102
RTVSPropertyOp5
 70
     1
102
RTVSPropertyOp6
 70
     1
102
RTVSPropertyOp7
 70
     1
102
RTVSPropertyOp8
 70
     1
102
RTVSPropertyOp9
 70
     1
102
RTVSPropertyOp10
 70
     1
102
RTVSPropertyOp11
 70
     1
102
RTVSPropertyOp12
 70
     1
102
RTVSPropertyOp13
 70
     1
102
RTVSPropertyOp14
 70
     1
102
RTVSPropertyOp15
 70
     1
102
RTVSPropertyOp16
 70
     1
102
RTVSPropertyOp17
 70
     1
102
RTVSPropertyOp18
 70
     1
102
RTVSPropertyOp19
 70
     1
102
RTVSPropertyOp20
 70
     1
102
RTVSPropertyOp21
 70
     1
102
RTVSPropertyOp22
 70
     1
102
RTVSPropertyOp23
 70
     1
102
RTVSPropertyOp24
 70
     1
102
RTVSPropertyOp25
 70
     1
102
RTVSPropertyOp26
 70
     1
102
RTVSPropertyOp27
 70
     1
102
RTVSPropertyOp28
 70
     1
102
RTVSPropertyOp29
 70
     1
102
RTVSPropertyOp30
 70
     1
102
RTVSPropertyOp31
 70
     1
102
RTVSPropertyOp32
 70
     1
  0
XRECORD
  5
15C
102
{ACAD_REACTORS
330
15B
102
}
330
15B
100
AcDbXrecord
280
     1
102
RTVSPropertyOp0
 70
     1
102
RTVSPropertyOp1
 70
     1
102
RTVSPropertyOp2
 70
     1
102
RTVSPropertyOp3
 70
     1
102
RTVSPropertyOp4
 70
     1
102
RTVSPropertyOp5
 70
     1
102
RTVSPropertyOp6
 70
     1
102
RTVSPropertyOp7
 70
     1
102
RTVSPropertyOp8
 70
     1
102
RTVSPropertyOp9
 70
     1
102
RTVSPropertyOp10
 70
     1
102
RTVSPropertyOp11
 70
     1
102
RTVSPropertyOp12
 70
     1
102
RTVSPropertyOp13
 70
     1
102
RTVSPropertyOp14
 70
     1
102
RTVSPropertyOp15
 70
     1
102
RTVSPropertyOp16
 70
     1
102
RTVSPropertyOp17
 70
     1
102
RTVSPropertyOp18
 70
     1
102
RTVSPropertyOp19
 70
     1
102
RTVSPropertyOp20
 70
     1
102
RTVSPropertyOp21
 70
     1
102
RTVSPropertyOp22
 70
     1
102
RTVSPropertyOp23
 70
     1
102
RTVSPropertyOp24
 70
     1
102
RTVSPropertyOp25
 70
     1
102
RTVSPropertyOp26
 70
     1
102
RTVSPropertyOp27
 70
     1
102
RTVSPropertyOp28
 70
     1
102
RTVSPropertyOp29
 70
     1
102
RTVSPropertyOp30
 70
     1
102
RTVSPropertyOp31
 70
     1
102
RTVSPropertyOp32
 70
     1
  0
XRECORD
  5
164
102
{ACAD_REACTORS
330
163
102
}
330
163
100
AcDbXrecord
280
     1
102
RTVSPropertyOp0
 70
     1
102
RTVSPropertyOp1
 70
     1
102
RTVSPropertyOp2
 70
     1
102
RTVSPropertyOp3
 70
     1
102
RTVSPropertyOp4
 70
     1
102
RTVSPropertyOp5
 70
     1
102
RTVSPropertyOp6
 70
     1
102
RTVSPropertyOp7
 70
     1
102
RTVSPropertyOp8
 70
     1
102
RTVSPropertyOp9
 70
     1
102
RTVSPropertyOp10
 70
     1
102
RTVSPropertyOp11
 70
     1
102
RTVSPropertyOp12
 70
     1
102
RTVSPropertyOp13
 70
     1
102
RTVSPropertyOp14
 70
     1
102
RTVSPropertyOp15
 70
     1
102
RTVSPropertyOp16
 70
     1
102
RTVSPropertyOp17
 70
     1
102
RTVSPropertyOp18
 70
     1
102
RTVSPropertyOp19
 70
     1
102
RTVSPropertyOp20
 70
     1
102
RTVSPropertyOp21
 70
     1
102
RTVSPropertyOp22
 70
     1
102
RTVSPropertyOp23
 70
     1
102
RTVSPropertyOp24
 70
     1
102
RTVSPropertyOp25
 70
     1
102
RTVSPropertyOp26
 70
     1
102
RTVSPropertyOp27
 70
     1
102
RTVSPropertyOp28
 70
     1
102
RTVSPropertyOp29
 70
     1
102
RTVSPropertyOp30
 70
     1
102
RTVSPropertyOp31
 70
     1
102
RTVSPropertyOp32
 70
     1
  0
ENDSEC
  0
EOF
