  0
SECTION
  2
HEADER
  9
$ACADVER
  1
AC1018
  9
$ACADMAINTVER
 70
     0
  9
$DWGCODEPAGE
  3
ANSI_1252
  9
$INSBASE
 10
0.0
 20
0.0
 30
0.0
  9
$EXTMIN
 10
1.000000000000000E+20
 20
1.000000000000000E+20
 30
1.000000000000000E+20
  9
$EXTMAX
 10
-1.000000000000000E+20
 20
-1.000000000000000E+20
 30
-1.000000000000000E+20
  9
$LIMMIN
 10
0.0
 20
0.0
  9
$LIMMAX
 10
12.0
 20
9.0
  9
$ORTHOMODE
 70
     0
  9
$REGENMODE
 70
     1
  9
$FILLMODE
 70
     1
  9
$QTEXTMODE
 70
     0
  9
$MIRRTEXT
 70
     1
  9
$LTSCALE
 40
1.0
  9
$ATTMODE
 70
     1
  9
$TEXTSIZE
 40
0.2
  9
$TRACEWID
 40
0.05
  9
$TEXTSTYLE
  7
Standard
  9
$CLAYER
  8
0
  9
$CELTYPE
  6
ByLayer
  9
$CECOLOR
 62
   256
  9
$CELTSCALE
 40
1.0
  9
$DISPSILH
 70
     0
  9
$DIMSCALE
 40
1.0
  9
$DIMASZ
 40
0.18
  9
$DIMEXO
 40
0.0625
  9
$DIMDLI
 40
0.38
  9
$DIMRND
 40
0.0
  9
$DIMDLE
 40
0.0
  9
$DIMEXE
 40
0.18
  9
$DIMTP
 40
0.0
  9
$DIMTM
 40
0.0
  9
$DIMTXT
 40
0.18
  9
$DIMCEN
 40
0.09
  9
$DIMTSZ
 40
0.0
  9
$DIMTOL
 70
     0
  9
$DIMLIM
 70
     0
  9
$DIMTIH
 70
     1
  9
$DIMTOH
 70
     1
  9
$DIMSE1
 70
     0
  9
$DIMSE2
 70
     0
  9
$DIMTAD
 70
     0
  9
$DIMZIN
 70
     0
  9
$DIMBLK
  1

  9
$DIMASO
 70
     1
  9
$DIMSHO
 70
     1
  9
$DIMPOST
  1

  9
$DIMAPOST
  1

  9
$DIMALT
 70
     0
  9
$DIMALTD
 70
     2
  9
$DIMALTF
 40
25.4
  9
$DIMLFAC
 40
1.0
  9
$DIMTOFL
 70
     0
  9
$DIMTVP
 40
0.0
  9
$DIMTIX
 70
     0
  9
$DIMSOXD
 70
     0
  9
$DIMSAH
 70
     0
  9
$DIMBLK1
  1

  9
$DIMBLK2
  1

  9
$DIMSTYLE
  2
Standard
  9
$DIMCLRD
 70
     0
  9
$DIMCLRE
 70
     0
  9
$DIMCLRT
 70
     0
  9
$DIMTFAC
 40
1.0
  9
$DIMGAP
 40
0.09
  9
$DIMJUST
 70
     0
  9
$DIMSD1
 70
     0
  9
$DIMSD2
 70
     0
  9
$DIMTOLJ
 70
     1
  9
$DIMTZIN
 70
     0
  9
$DIMALTZ
 70
     0
  9
$DIMALTTZ
 70
     0
  9
$DIMUPT
 70
     0
  9
$DIMDEC
 70
     4
  9
$DIMTDEC
 70
     4
  9
$DIMALTU
 70
     2
  9
$DIMALTTD
 70
     2
  9
$DIMTXSTY
  7
Standard
  9
$DIMAUNIT
 70
     0
  9
$DIMADEC
 70
     0
  9
$DIMALTRND
 40
0.0
  9
$DIMAZIN
 70
     0
  9
$DIMDSEP
 70
    46
  9
$DIMATFIT
 70
     3
  9
$DIMFRAC
 70
     0
  9
$DIMLDRBLK
  1

  9
$DIMLUNIT
 70
     2
  9
$DIMLWD
 70
    -2
  9
$DIMLWE
 70
    -2
  9
$DIMTMOVE
 70
     0
  9
$LUNITS
 70
     2
  9
$LUPREC
 70
     4
  9
$SKETCHINC
 40
0.1
  9
$FILLETRAD
 40
0.5
  9
$AUNITS
 70
     0
  9
$AUPREC
 70
     0
  9
$MENU
  1
.
  9
$ELEVATION
 40
0.0
  9
$PELEVATION
 40
0.0
  9
$THICKNESS
 40
0.0
  9
$LIMCHECK
 70
     0
  9
$CHAMFERA
 40
0.5
  9
$CHAMFERB
 40
0.5
  9
$CHAMFERC
 40
1.0
  9
$CHAMFERD
 40
0.0
  9
$SKPOLY
 70
     0
  9
$TDCREATE
 40
2457126.392973959
  9
$TDUCREATE
 40
2457125.892973959
  9
$TDUPDATE
 40
2457126.39297647
  9
$TDUUPDATE
 40
2457125.89297647
  9
$TDINDWG
 40
0.0000000116
  9
$TDUSRTIMER
 40
0.0000000116
  9
$USRTIMER
 70
     1
  9
$ANGBASE
 50
0.0
  9
$ANGDIR
 70
     0
  9
$PDMODE
 70
     0
  9
$PDSIZE
 40
0.0
  9
$PLINEWID
 40
0.0
  9
$SPLFRAME
 70
     0
  9
$SPLINETYPE
 70
     6
  9
$SPLINESEGS
 70
     8
  9
$HANDSEED
  5
32B
  9
$SURFTAB1
 70
     6
  9
$SURFTAB2
 70
     6
  9
$SURFTYPE
 70
     6
  9
$SURFU
 70
     6
  9
$SURFV
 70
     6
  9
$UCSBASE
  2

  9
$UCSNAME
  2

  9
$UCSORG
 10
0.0
 20
0.0
 30
0.0
  9
$UCSXDIR
 10
1.0
 20
0.0
 30
0.0
  9
$UCSYDIR
 10
0.0
 20
1.0
 30
0.0
  9
$UCSORTHOREF
  2

  9
$UCSORTHOVIEW
 70
     0
  9
$UCSORGTOP
 10
0.0
 20
0.0
 30
0.0
  9
$UCSORGBOTTOM
 10
0.0
 20
0.0
 30
0.0
  9
$UCSORGLEFT
 10
0.0
 20
0.0
 30
0.0
  9
$UCSORGRIGHT
 10
0.0
 20
0.0
 30
0.0
  9
$UCSORGFRONT
 10
0.0
 20
0.0
 30
0.0
  9
$UCSORGBACK
 10
0.0
 20
0.0
 30
0.0
  9
$PUCSBASE
  2

  9
$PUCSNAME
  2

  9
$PUCSORG
 10
0.0
 20
0.0
 30
0.0
  9
$PUCSXDIR
 10
1.0
 20
0.0
 30
0.0
  9
$PUCSYDIR
 10
0.0
 20
1.0
 30
0.0
  9
$PUCSORTHOREF
  2

  9
$PUCSORTHOVIEW
 70
     0
  9
$PUCSORGTOP
 10
0.0
 20
0.0
 30
0.0
  9
$PUCSORGBOTTOM
 10
0.0
 20
0.0
 30
0.0
  9
$PUCSORGLEFT
 10
0.0
 20
0.0
 30
0.0
  9
$PUCSORGRIGHT
 10
0.0
 20
0.0
 30
0.0
  9
$PUCSORGFRONT
 10
0.0
 20
0.0
 30
0.0
  9
$PUCSORGBACK
 10
0.0
 20
0.0
 30
0.0
  9
$USERI1
 70
     0
  9
$USERI2
 70
     0
  9
$USERI3
 70
     0
  9
$USERI4
 70
     0
  9
$USERI5
 70
     0
  9
$USERR1
 40
0.0
  9
$USERR2
 40
0.0
  9
$USERR3
 40
0.0
  9
$USERR4
 40
0.0
  9
$USERR5
 40
0.0
  9
$WORLDVIEW
 70
     1
  9
$SHADEDGE
 70
     3
  9
$SHADEDIF
 70
    70
  9
$TILEMODE
 70
     1
  9
$MAXACTVP
 70
    64
  9
$PINSBASE
 10
0.0
 20
0.0
 30
0.0
  9
$PLIMCHECK
 70
     0
  9
$PEXTMIN
 10
1.000000000000000E+20
 20
1.000000000000000E+20
 30
1.000000000000000E+20
  9
$PEXTMAX
 10
-1.000000000000000E+20
 20
-1.000000000000000E+20
 30
-1.000000000000000E+20
  9
$PLIMMIN
 10
0.0
 20
0.0
  9
$PLIMMAX
 10
12.0
 20
9.0
  9
$UNITMODE
 70
     0
  9
$VISRETAIN
 70
     1
  9
$PLINEGEN
 70
     0
  9
$PSLTSCALE
 70
     1
  9
$TREEDEPTH
 70
  3020
  9
$CMLSTYLE
  2
Standard
  9
$CMLJUST
 70
     0
  9
$CMLSCALE
 40
1.0
  9
$PROXYGRAPHICS
 70
     1
  9
$MEASUREMENT
 70
     0
  9
$CELWEIGHT
370
    -1
  9
$ENDCAPS
280
     0
  9
$JOINSTYLE
280
     0
  9
$LWDISPLAY
290
     1
  9
$INSUNITS
 70
     4
  9
$HYPERLINKBASE
  1

  9
$STYLESHEET
  1

  9
$XEDIT
290
     1
  9
$CEPSNTYPE
380
     0
  9
$PSTYLEMODE
290
     1
  9
$FINGERPRINTGUID
  2
{D09D4F9B-300F-41D8-A7DB-0C67245E0B85}
  9
$VERSIONGUID
  2
{FAEB1C32-E019-11D5-929B-00C0DF256EC4}
  9
$EXTNAMES
290
     1
  9
$PSVPSCALE
 40
0.0
  9
$OLESTARTUP
290
     0
  9
$SORTENTS
280
   127
  9
$INDEXCTL
280
     0
  9
$HIDETEXT
280
     1
  9
$XCLIPFRAME
290
     0
  9
$HALOGAP
280
     0
  9
$OBSCOLOR
 70
   257
  9
$OBSLTYPE
280
     0
  9
$INTERSECTIONDISPLAY
280
     0
  9
$INTERSECTIONCOLOR
 70
   257
  9
$DIMASSOC
280
     2
  9
$PROJECTNAME
  1

  0
ENDSEC
  0
SECTION
  2
CLASSES
  0
CLASS
  1
ACDBDICTIONARYWDFLT
  2
AcDbDictionaryWithDefault
  3
ObjectDBX Classes
 90
        0
 91
        4
280
     0
281
     0
  0
CLASS
  1
VISUALSTYLE
  2
AcDbVisualStyle
  3
ObjectDBX Classes
 90
     4095
 91
        4
280
     0
281
     0
  0
CLASS
  1
MATERIAL
  2
AcDbMaterial
  3
ObjectDBX Classes
 90
     1153
 91
        4
280
     0
281
     0
  0
CLASS
  1
WIPEOUT
  2
AcDbWipeout
  3
WipeOut|AutoCAD Express Tool|expresstools@autodesk.com
 90
      127
 91
        4
280
     0
281
     1
  0
CLASS
  1
SCALE
  2
AcDbScale
  3
ObjectDBX Classes
 90
     1153
 91
        4
280
     0
281
     0
  0
CLASS
  1
DICTIONARYVAR
  2
AcDbDictionaryVar
  3
ObjectDBX Classes
 90
        0
 91
        4
280
     0
281
     0
  0
ENDSEC
  0
SECTION
  2
TABLES
  0
TABLE
  2
VPORT
  5
8
330
0
100
AcDbSymbolTable
 70
     1
  0
VPORT
  5
29
330
8
100
AcDbSymbolTableRecord
100
AcDbViewportTableRecord
  2
*Active
 70
     0
 10
0.0
 20
0.0
 11
1.0
 21
1.0
 12
449.7198507117301
 22
559.9985197558584
 13
0.0
 23
0.0
 14
0.5
 24
0.5
 15
0.5
 25
0.5
 16
0.0
 26
0.0
 36
1.0
 17
0.0
 27
0.0
 37
0.0
 40
1305.603019397168
 41
0.7348110339014359
 42
50.0
 43
0.0
 44
0.0
 50
0.0
 51
0.0
 71
     0
 72
   100
 73
     1
 74
     3
 75
     0
 76
     0
 77
     0
 78
     0
281
     0
 65
     1
110
0.0
120
0.0
130
0.0
111
1.0
121
0.0
131
0.0
112
0.0
122
1.0
132
0.0
 79
     0
146
0.0
  0
ENDTAB
  0
TABLE
  2
LTYPE
  5
5
330
0
100
AcDbSymbolTable
 70
     5
  0
LTYPE
  5
14
330
5
100
AcDbSymbolTableRecord
100
AcDbLinetypeTableRecord
  2
ByBlock
 70
     0
  3

 72
    65
 73
     0
 40
0.0
  0
LTYPE
  5
15
330
5
100
AcDbSymbolTableRecord
100
AcDbLinetypeTableRecord
  2
ByLayer
 70
     0
  3

 72
    65
 73
     0
 40
0.0
  0
LTYPE
  5
16
330
5
100
AcDbSymbolTableRecord
100
AcDbLinetypeTableRecord
  2
Continuous
 70
     0
  3
Solid line
 72
    65
 73
     0
 40
0.0
  0
LTYPE
  5
108
330
5
100
AcDbSymbolTableRecord
100
AcDbLinetypeTableRecord
  2
Above
 70
     0
  3
- - - - - 
 72
    65
 73
     2
 40
15.0
 49
10.0
 74
     0
 49
-4.999999999999999
 74
     0
  0
LTYPE
  5
10C
330
5
100
AcDbSymbolTableRecord
100
AcDbLinetypeTableRecord
  2
DASHED2
 70
     0
  3
- - - - - 
 72
    65
 73
     2
 40
7.5
 49
5.0
 74
     0
 49
-2.5
 74
     0
  0
LTYPE
  5
17C
330
5
100
AcDbSymbolTableRecord
100
AcDbLinetypeTableRecord
  2
HIDDEN
 70
     0
  3
- - - - - 
 72
    65
 73
     2
 40
1.875
 49
1.25
 74
     0
 49
-0.6249999999999999
 74
     0
  0
LTYPE
  5
29F
330
5
100
AcDbSymbolTableRecord
100
AcDbLinetypeTableRecord
  2
Wipeout_Contour
 70
     0
  3
- - - - - 
 72
    65
 73
     2
 40
1000.0
 49
0.0
 74
     0
 49
-1000.0
 74
     0
  0
ENDTAB
  0
TABLE
  2
LAYER
  5
2
330
0
100
AcDbSymbolTable
 70
     4
  0
LAYER
  5
10
330
2
100
AcDbSymbolTableRecord
100
AcDbLayerTableRecord
  2
0
 70
     0
 62
     7
  6
Continuous
370
    -3
390
F
  0
LAYER
  5
40
330
2
100
AcDbSymbolTableRecord
100
AcDbLayerTableRecord
  2
0_Pen_No__146
 70
     0
 62
     9
420
 13290186
  6
Continuous
370
     5
390
F
  0
LAYER
  5
53
330
2
100
AcDbSymbolTableRecord
100
AcDbLayerTableRecord
  2
0_Pen_No__1
 70
     0
 62
     7
  6
Continuous
370
    13
390
F
  0
LAYER
  5
2A0
330
2
100
AcDbSymbolTableRecord
100
AcDbLayerTableRecord
  2
Key_ Sections_Pen_No__1
 70
     0
 62
     7
  6
Continuous
370
    13
390
F
  0
ENDTAB
  0
TABLE
  2
STYLE
  5
3
330
0
100
AcDbSymbolTable
 70
     2
  0
STYLE
  5
11
330
3
100
AcDbSymbolTableRecord
100
AcDbTextStyleTableRecord
  2
Standard
 70
     0
 40
0.0
 41
1.0
 50
0.0
 71
     0
 42
0.2
  3
txt
  4

  0
STYLE
  5
280
330
3
100
AcDbSymbolTableRecord
100
AcDbTextStyleTableRecord
  2
GENERATED_STYLE_1
 70
     0
 40
0.0
 41
1.0
 50
0.0
 71
     0
 42
0.2
  3

  4

1001
ACAD
1000
Arial
1071
       34
  0
ENDTAB
  0
TABLE
  2
VIEW
  5
6
330
0
100
AcDbSymbolTable
 70
     0
  0
ENDTAB
  0
TABLE
  2
UCS
  5
7
330
0
100
AcDbSymbolTable
 70
     0
  0
ENDTAB
  0
TABLE
  2
APPID
  5
9
330
0
100
AcDbSymbolTable
 70
     1
  0
APPID
  5
12
330
9
100
AcDbSymbolTableRecord
100
AcDbRegAppTableRecord
  2
ACAD
 70
     0
  0
ENDTAB
  0
TABLE
  2
DIMSTYLE
  5
A
330
0
100
AcDbSymbolTable
 70
     4
100
AcDbDimStyleTable
  0
DIMSTYLE
105
27
330
A
100
AcDbSymbolTableRecord
100
AcDbDimStyleTableRecord
  2
Standard
 70
     0
178
     0
340
11
  0
DIMSTYLE
105
283
102
{ACAD_REACTORS
330
282
330
292
102
}
330
A
100
AcDbSymbolTableRecord
100
AcDbDimStyleTableRecord
  2
GENERATED_STYLE__1
 70
     0
 41
10.23882825346851
 42
0.0
 73
     0
 74
     0
 75
     1
 76
     1
 77
     1
140
12.5
172
     1
176
     7
177
     7
271
     0
178
     7
271
     0
279
     2
288
     1
340
280
342
284
343
284
344
284
  0
DIMSTYLE
105
29D
102
{ACAD_REACTORS
330
29C
102
}
330
A
100
AcDbSymbolTableRecord
100
AcDbDimStyleTableRecord
  2
GENERATED_STYLE__2
 70
     0
 41
10.23882825346851
 42
0.0
 73
     0
 74
     0
 75
     1
 76
     1
 77
     1
140
12.5
172
     1
176
     7
177
     7
271
     0
178
     7
271
     0
288
     1
340
280
342
284
343
284
344
284
  0
DIMSTYLE
105
2A3
330
A
100
AcDbSymbolTableRecord
100
AcDbDimStyleTableRecord
  2
GENERATED_STYLE__3
 70
     0
 41
9.12
172
     1
178
     0
340
0
341
2A4
  0
ENDTAB
  0
TABLE
  2
BLOCK_RECORD
  5
1
330
0
100
AcDbSymbolTable
 70
     7
  0
BLOCK_RECORD
  5
1F
330
1
100
AcDbSymbolTableRecord
100
AcDbBlockTableRecord
  2
*Model_Space
340
22
  0
BLOCK_RECORD
  5
1B
330
1
100
AcDbSymbolTableRecord
100
AcDbBlockTableRecord
  2
*Paper_Space
340
1E
  0
BLOCK_RECORD
  5
23
330
1
100
AcDbSymbolTableRecord
100
AcDbBlockTableRecord
  2
*Paper_Space0
340
26
  0
BLOCK_RECORD
  5
278
330
1
100
AcDbSymbolTableRecord
100
AcDbBlockTableRecord
  2
*D1
340
0
  0
BLOCK_RECORD
  5
284
330
1
100
AcDbSymbolTableRecord
100
AcDbBlockTableRecord
  2
ARROWHEAD_2
340
0
  0
BLOCK_RECORD
  5
289
330
1
100
AcDbSymbolTableRecord
100
AcDbBlockTableRecord
  2
*D3
340
0
  0
BLOCK_RECORD
  5
293
330
1
100
AcDbSymbolTableRecord
100
AcDbBlockTableRecord
  2
*D4
340
0
  0
BLOCK_RECORD
  5
2A4
330
1
100
AcDbSymbolTableRecord
100
AcDbBlockTableRecord
  2
ARROWHEAD_5
340
0
  0
BLOCK_RECORD
  5
2D9
330
1
100
AcDbSymbolTableRecord
100
AcDbBlockTableRecord
  2
DC-24-R Balustrade   Wall Junct_STORY_MARKER
340
0
  0
ENDTAB
  0
ENDSEC
  0
SECTION
  2
BLOCKS
  0
BLOCK
  5
20
330
1F
100
AcDbEntity
  8
0
100
AcDbBlockBegin
  2
*Model_Space
 70
     0
 10
0.0
 20
0.0
 30
0.0
  3
*Model_Space
  1

  0
ENDBLK
  5
21
330
1F
100
AcDbEntity
  8
0
100
AcDbBlockEnd
  0
BLOCK
  5
1C
330
1B
100
AcDbEntity
 67
     1
  8
0
100
AcDbBlockBegin
  2
*Paper_Space
 70
     0
 10
0.0
 20
0.0
 30
0.0
  3
*Paper_Space
  1

  0
ENDBLK
  5
1D
330
1B
100
AcDbEntity
 67
     1
  8
0
100
AcDbBlockEnd
  0
BLOCK
  5
24
330
23
100
AcDbEntity
  8
0
100
AcDbBlockBegin
  2
*Paper_Space0
 70
     0
 10
0.0
 20
0.0
 30
0.0
  3
*Paper_Space0
  1

  0
ENDBLK
  5
25
330
23
100
AcDbEntity
  8
0
100
AcDbBlockEnd
  0
BLOCK
  5
279
330
278
100
AcDbEntity
  8
0
100
AcDbBlockBegin
  2
*D1
 70
     1
 10
0.0
 20
0.0
 30
0.0
  3
*D1
  1

  0
LINE
  5
27B
330
278
100
AcDbEntity
  8
0_Pen_No__1
  6
Continuous
100
AcDbLine
 10
637.1269786654935
 20
378.2699478962839
 30
0.0
 11
642.832248063402
 21
381.5638867333598
 31
0.0
  0
LINE
  5
27C
330
278
100
AcDbEntity
  8
0_Pen_No__1
  6
Continuous
100
AcDbLine
 10
642.832248063402
 20
381.5638867333598
 30
0.0
 11
686.1335182526237
 21
406.5638868426066
 31
0.0
  0
LINE
  5
27D
330
278
100
AcDbEntity
  8
0_Pen_No__1
  6
Continuous
100
AcDbLine
 10
642.8322464783371
 20
389.3420308903069
 30
0.0
 11
642.8322496484669
 21
373.7857425764126
 31
0.0
  0
LINE
  5
27E
330
278
100
AcDbEntity
  8
0_Pen_No__1
  6
Continuous
100
AcDbLine
 10
686.1335198376887
 20
398.7857426856595
 30
0.0
 11
686.1335166675588
 21
414.3420309995537
 31
0.0
  0
LINE
  5
27F
330
278
100
AcDbEntity
  8
0_Pen_No__1
  6
Continuous
100
AcDbLine
 10
686.1335182526237
 20
406.5638868426066
 30
0.0
 11
691.8387876505321
 21
409.8578256796825
 31
0.0
  0
MTEXT
  5
281
330
278
100
AcDbEntity
  8
0_Pen_No__1
100
AcDbMText
 10
644.3368890900557
 20
356.4518293815622
 30
0.0
 40
12.5
 41
0.0
 71
     7
 72
     1
  1
{50mm min}
  7
GENERATED_STYLE_1
 11
0.866025402838332
 21
0.5000000016387049
 31
0.0
 73
     1
 44
1.0
  0
ENDBLK
  5
27A
330
278
100
AcDbEntity
  8
0
100
AcDbBlockEnd
  0
BLOCK
  5
285
330
284
100
AcDbEntity
  8
0
100
AcDbBlockBegin
  2
ARROWHEAD_2
 70
     0
 10
0.0
 20
0.0
 30
0.0
  3
ARROWHEAD_2
  1

  0
LINE
  5
287
330
284
100
AcDbEntity
  8
0
  6
Continuous
 62
     0
370
     0
100
AcDbLine
 10
-0.3781315
 20
-0.655
 30
0.0
 11
0.3781315
 21
0.655
 31
0.0
  0
LINE
  5
288
330
284
100
AcDbEntity
  8
0
  6
Continuous
 62
     0
370
     0
100
AcDbLine
 10
0.0
 20
0.0
 30
0.0
 11
-1.0
 21
0.0
 31
0.0
  0
ENDBLK
  5
286
330
284
100
AcDbEntity
  8
0
100
AcDbBlockEnd
  0
BLOCK
  5
28A
330
289
100
AcDbEntity
  8
0
100
AcDbBlockBegin
  2
*D3
 70
     1
 10
0.0
 20
0.0
 30
0.0
  3
*D3
  1

  0
LINE
  5
28C
330
289
100
AcDbEntity
  8
0_Pen_No__1
  6
Continuous
100
AcDbLine
 10
747.5493649526979
 20
640.4344653348094
 30
0.0
 11
747.5493649526979
 21
647.02234298737
 31
0.0
  0
LINE
  5
28D
330
289
100
AcDbEntity
  8
0_Pen_No__1
  6
Continuous
100
AcDbLine
 10
747.5493649526979
 20
647.02234298737
 30
0.0
 11
747.5493649526979
 21
697.0223429873706
 31
0.0
  0
LINE
  5
28E
330
289
100
AcDbEntity
  8
0_Pen_No__1
  6
Continuous
100
AcDbLine
 10
740.8132937333108
 20
650.9114137058832
 30
0.0
 11
754.2854361720852
 21
643.1332722688569
 31
0.0
  0
LINE
  5
28F
330
289
100
AcDbEntity
  8
0_Pen_No__1
  6
Continuous
100
AcDbLine
 10
754.2854361720852
 20
693.1332722688575
 30
0.0
 11
740.8132937333108
 21
700.9114137058839
 31
0.0
  0
LINE
  5
290
330
289
100
AcDbEntity
  8
0_Pen_No__1
  6
Continuous
100
AcDbLine
 10
747.5493649526979
 20
697.0223429873706
 30
0.0
 11
747.5493649526979
 21
703.6102206399313
 31
0.0
  0
MTEXT
  5
291
330
289
100
AcDbEntity
  8
0_Pen_No__1
100
AcDbMText
 10
770.049364915445
 20
630.5833473523469
 30
0.0
 40
12.5
 41
0.0
 71
     7
 72
     1
  1
{50mm min}
  7
GENERATED_STYLE_1
 11
6.123233995736766E-17
 21
1.0
 31
0.0
 73
     1
 44
1.0
  0
ENDBLK
  5
28B
330
289
100
AcDbEntity
  8
0
100
AcDbBlockEnd
  0
BLOCK
  5
294
330
293
100
AcDbEntity
  8
0
100
AcDbBlockBegin
  2
*D4
 70
     1
 10
0.0
 20
0.0
 30
0.0
  3
*D4
  1

  0
LINE
  5
296
330
293
100
AcDbEntity
  8
0_Pen_No__1
  6
Continuous
100
AcDbLine
 10
507.2231684406385
 20
434.8578259042882
 30
0.0
 11
512.9284378385466
 21
431.5638870672118
 31
0.0
  0
LINE
  5
297
330
293
100
AcDbEntity
  8
0_Pen_No__1
  6
Continuous
100
AcDbLine
 10
512.9284378385466
 20
431.5638870672118
 30
0.0
 11
599.5309780674653
 21
381.5638869350362
 31
0.0
  0
LINE
  5
298
330
293
100
AcDbEntity
  8
0_Pen_No__1
  6
Continuous
100
AcDbLine
 10
519.6645074949462
 20
435.452960492899
 30
0.0
 11
506.1923681821472
 21
427.6748136415246
 31
0.0
  0
LINE
  5
299
330
293
100
AcDbEntity
  8
0_Pen_No__1
  6
Continuous
100
AcDbLine
 10
592.7949084110658
 20
377.674813509349
 30
0.0
 11
606.2670477238647
 21
385.4529603607234
 31
0.0
  0
LINE
  5
29A
330
293
100
AcDbEntity
  8
0_Pen_No__1
  6
Continuous
100
AcDbLine
 10
599.5309780674653
 20
381.5638869350362
 30
0.0
 11
605.2362474653734
 21
378.2699480979598
 31
0.0
  0
MTEXT
  5
29B
330
293
100
AcDbEntity
  8
0_Pen_No__1
100
AcDbMText
 10
518.7807122918583
 20
431.0718262135729
 30
0.0
 40
12.5
 41
0.0
 71
     7
 72
     1
  1
{100mm min}
  7
GENERATED_STYLE_1
 11
0.8660254028382881
 21
-0.5000000016387808
 31
0.0
 73
     1
 44
1.0
  0
ENDBLK
  5
295
330
293
100
AcDbEntity
  8
0
100
AcDbBlockEnd
  0
BLOCK
  5
2A5
330
2A4
100
AcDbEntity
  8
0
100
AcDbBlockBegin
  2
ARROWHEAD_5
 70
     0
 10
0.0
 20
0.0
 30
0.0
  3
ARROWHEAD_5
  1

  0
SOLID
  5
2A7
330
2A4
100
AcDbEntity
  8
0
  6
Continuous
 62
     0
370
     0
100
AcDbTrace
 10
-1.0
 20
0.2679
 30
0.0
 11
0.0
 21
0.0
 31
0.0
 12
-1.0
 22
-0.2679
 32
0.0
 13
-1.0
 23
0.2679
 33
0.0
  0
LINE
  5
2A8
330
2A4
100
AcDbEntity
  8
0
  6
Continuous
 62
     0
370
     0
100
AcDbLine
 10
0.0
 20
0.0
 30
0.0
 11
-1.0
 21
0.0
 31
0.0
  0
ENDBLK
  5
2A6
330
2A4
100
AcDbEntity
  8
0
100
AcDbBlockEnd
  0
BLOCK
  5
2DA
330
2D9
100
AcDbEntity
  8
0
100
AcDbBlockBegin
  2
DC-24-R Balustrade   Wall Junct_STORY_MARKER
 70
     0
 10
0.0
 20
0.0
 30
0.0
  3
DC-24-R Balustrade   Wall Junct_STORY_MARKER
  1

  0
ENDBLK
  5
2DB
330
2D9
100
AcDbEntity
  8
0
100
AcDbBlockEnd
  0
ENDSEC
  0
SECTION
  2
ENTITIES
  0
HATCH
  5
3F
330
1F
100
AcDbEntity
  8
0_Pen_No__146
  6
Continuous
 62
   250
420
  3289650
370
     0
100
AcDbHatch
 10
0.0
 20
0.0
 30
0.0
210
0.0
220
0.0
230
1.0
  2
SOLID
 70
     1
 71
     0
 91
        1
 92
        3
 72
     0
 73
     1
 93
       12
 10
48.78463705795427
 20
303.5770138798919
 10
48.78463705795294
 20
260.7537984540993
 10
36.66028145796035
 20
267.7537984540941
 10
36.6602814579608
 20
254.9536388920963
 10
42.72245925795998
 20
251.4536388920974
 10
42.72245925795998
 20
257.2537984540973
 10
48.78463705795294
 20
253.7537984541019
 10
48.78463705795249
 20
233.7537984541027
 10
42.72245925795998
 20
237.2537984540977
 10
42.72245925795998
 20
230.2537984540998
 10
54.84681485795745
 20
223.2537984541012
 10
54.84681485795745
 20
300.077013879889
 97
        0
 75
     0
 76
     1
 98
        0
  0
HATCH
  5
41
330
1F
100
AcDbEntity
  8
0_Pen_No__146
  6
Continuous
 62
   250
420
  3289650
370
     0
100
AcDbHatch
 10
0.0
 20
0.0
 30
0.0
210
0.0
220
0.0
230
1.0
  2
SOLID
 70
     1
 71
     0
 91
        1
 92
        3
 72
     0
 73
     1
 93
        4
 10
297.9898500114639
 20
418.4133616867973
 10
305.5287278684344
 20
419.3180270296339
 10
307.9061589529119
 20
420.3986775225777
 10
297.9898500114639
 20
424.1096923684096
 97
        0
 75
     0
 76
     1
 98
        0
  0
HATCH
  5
42
330
1F
100
AcDbEntity
  8
0_Pen_No__146
  6
Continuous
 62
   250
420
  3289650
370
     0
100
AcDbHatch
 10
0.0
 20
0.0
 30
0.0
210
0.0
220
0.0
230
1.0
  2
SOLID
 70
     1
 71
     0
 91
        1
 92
        3
 72
     0
 73
     1
 93
        4
 10
360.3888592933728
 20
97.9732090554728
 10
464.3119076339727
 20
157.9732092521173
 10
464.3119076339727
 20
197.9732092521174
 10
360.3888592933728
 20
117.9732090554728
 97
        0
 75
     0
 76
     1
 98
        0
  0
HATCH
  5
43
330
1F
100
AcDbEntity
  8
0_Pen_No__146
  6
Continuous
 62
   250
420
  3289650
370
     0
100
AcDbHatch
 10
0.0
 20
0.0
 30
0.0
210
0.0
220
0.0
230
1.0
  2
SOLID
 70
     1
 71
     0
 91
        1
 92
        3
 72
     0
 73
     1
 93
       25
 10
351.915744488769
 20
22.0928487154739
 10
350.9529344248703
 20
15.09834761347428
 10
349.0306168286421
 20
7.845774395976557
 10
346.2137379984386
 20
0.5554948299775209
 10
342.5878873726311
 20
-6.550979628023645
 10
338.9253634887714
 20
-12.14519897852262
 10
338.9253634887713
 20
-79.42735808947454
 10
340.657414283097
 20
-78.42735809712056
 10
341.5234396868814
 20
-75.92735809712057
 10
342.3894650906658
 20
-79.42735809712056
 10
343.2554904944503
 20
-76.92735809712057
 10
344.9875412887758
 20
-75.92735810476658
 10
344.9875412887741
 20
-13.30012734051933
 10
346.5340259095393
 20
-10.9975378305236
 10
351.0749939577963
 20
-2.319840157023689
 10
354.6362553457935
 20
6.610736812977303
 10
357.1096029468328
 20
15.52284201847276
 10
358.4198853474205
 20
24.14568565147612
 10
358.5272902791205
 20
32.21726697297478
 10
357.9779222887682
 20
35.85480102147476
 10
344.9875412887728
 20
28.35480102147625
 10
344.9875412887706
 20
108.8956291258867
 10
338.9253634887714
 20
105.3956291258873
 10
338.9253634887714
 20
17.85480102147496
 10
351.915744488769
 20
25.35480102147436
 97
        0
 75
     0
 76
     1
 98
        0
  0
HATCH
  5
44
330
1F
100
AcDbEntity
  8
0_Pen_No__146
  6
Continuous
 62
   250
420
  3289650
370
     0
100
AcDbHatch
 10
0.0
 20
0.0
 30
0.0
210
0.0
220
0.0
230
1.0
  2
SOLID
 70
     1
 71
     0
 91
        1
 92
        3
 72
     0
 73
     1
 93
       29
 10
473.1144653454337
 20
92.05941410328866
 10
473.1144653454337
 20
95.3289154392849
 10
486.1048463454318
 20
102.828915439285
 10
486.1048463454318
 20
205.8597801121385
 10
480.0426685454322
 20
203.7267916269532
 10
480.0426685454322
 20
106.3289154392877
 10
467.0522875454341
 20
98.8289154392874
 10
466.5029195550827
 20
94.55702587378556
 10
466.6103244867822
 20
86.60946508528843
 10
467.9206068873706
 20
79.49960525229005
 10
470.3939544884094
 20
73.44347586578981
 10
473.9552158764064
 20
68.62508935578693
 10
478.4961839246635
 20
65.19084995528934
 10
480.0426685454322
 20
64.6739870772881
 10
480.0426685454322
 20
2.673987077290052
 10
467.9183129454346
 20
-4.326012922707845
 10
467.9183129454346
 20
-17.12617248470516
 10
473.9804907454334
 20
-13.62617248470621
 10
473.9804907454334
 20
-7.826012922706349
 10
480.0426685454331
 20
-4.326012922707401
 10
480.0426685454331
 20
-24.32601292270742
 10
473.9804907454334
 20
-27.82601292270659
 10
473.9804907454334
 20
-34.82601292270427
 10
486.1048463454318
 20
-27.82601292270659
 10
486.1048463454318
 20
72.8289154392876
 10
482.4423224615734
 20
74.19401647079039
 10
478.8164718357632
 20
77.11371924078824
 10
475.9995930055597
 20
81.15134729078855
 10
474.0772754093336
 20
86.18421933528508
 97
        0
 75
     0
 76
     1
 98
        0
  0
HATCH
  5
45
330
1F
100
AcDbEntity
  8
0_Pen_No__146
  6
Continuous
 62
   250
420
  3289650
370
     0
100
AcDbHatch
 10
0.0
 20
0.0
 30
0.0
210
0.0
220
0.0
230
1.0
  2
SOLID
 70
     1
 71
     0
 91
        1
 92
        3
 72
     0
 73
     1
 93
        4
 10
346.4482595503725
 20
108.5543640662581
 10
346.448259550373
 20
73.12288896454677
 10
358.4327381616121
 20
80.04213094707934
 10
358.4327381616121
 20
115.4736060487906
 97
        0
 75
     0
 76
     1
 98
        0
  0
HATCH
  5
46
330
1F
100
AcDbEntity
  8
0_Pen_No__146
  6
Continuous
 62
   250
420
  3289650
370
     0
100
AcDbHatch
 10
0.0
 20
0.0
 30
0.0
210
0.0
220
0.0
230
1.0
  2
SOLID
 70
     1
 71
     0
 91
        1
 92
        3
 72
     0
 73
     1
 93
        4
 10
377.7093673501396
 20
64.55882771752353
 10
446.9913995772059
 20
104.5588278486196
 10
446.9913995772059
 20
144.5588278486196
 10
377.7093673501396
 20
104.5588277175236
 97
        0
 75
     0
 76
     1
 98
        0
  0
HATCH
  5
47
330
1F
100
AcDbEntity
  8
0_Pen_No__146
  6
Continuous
 62
   250
420
  3289650
370
     0
100
AcDbHatch
 10
0.0
 20
0.0
 30
0.0
210
0.0
220
0.0
230
1.0
  2
SOLID
 70
     1
 71
     0
 91
        1
 92
        3
 72
     0
 73
     1
 93
        4
 10
465.3711626926737
 20
195.9744793568168
 10
465.3711626926746
 20
160.9433136116258
 10
477.3556413039134
 20
167.8625555941589
 10
477.3556413039134
 20
202.8937213393494
 97
        0
 75
     0
 76
     1
 98
        0
  0
HATCH
  5
48
330
1F
100
AcDbEntity
  8
0_Pen_No__146
  6
Continuous
 62
   250
420
  3289650
370
     0
100
AcDbHatch
 10
0.0
 20
0.0
 30
0.0
210
0.0
220
0.0
230
1.0
  2
SOLID
 70
     1
 71
     0
 91
        1
 92
        3
 72
     0
 73
     1
 93
        4
 10
359.2331737244103
 20
93.18165896209108
 10
359.2331737244107
 20
54.23749184590032
 10
376.5798462204201
 20
64.25259792478077
 10
376.5798462204201
 20
103.1967650409718
 97
        0
 75
     0
 76
     1
 98
        0
  0
HATCH
  5
49
330
1F
100
AcDbEntity
  8
0_Pen_No__146
  6
Continuous
 62
   250
420
  3289650
370
     0
100
AcDbHatch
 10
0.0
 20
0.0
 30
0.0
210
0.0
220
0.0
230
1.0
  2
SOLID
 70
     1
 71
     0
 91
        1
 92
        3
 72
     0
 73
     1
 93
        4
 10
448.5699712462365
 20
145.2929412213793
 10
448.5699712462369
 20
105.6685727959927
 10
465.9166437422459
 20
115.6836788748727
 10
465.9166437422459
 20
155.3080473002597
 97
        0
 75
     0
 76
     1
 98
        0
  0
HATCH
  5
4A
330
1F
100
AcDbEntity
  8
0_Pen_No__146
  6
Continuous
 62
   250
420
  3289650
370
     0
100
AcDbHatch
 10
0.0
 20
0.0
 30
0.0
210
0.0
220
0.0
230
1.0
  2
SOLID
 70
     1
 71
     0
 91
        1
 92
        3
 72
     0
 73
     1
 93
       48
 10
-20.56029857653924
 20
280.5053155040283
 10
-17.32051092894388
 20
221.8519955230183
 10
-8.829634580337197
 20
165.7123909150206
 10
-2.126401330160343
 20
131.358305986883
 10
17.98331003715509
 20
112.0865016800359
 10
26.36235740826892
 20
86.1114583146192
 10
38.59720728372723
 20
68.0504888976663
 10
44.8302918336902
 20
66.0472789347637
 10
38.59720728372723
 20
80.99532180095936
 10
36.66257700904291
 20
87.96628708710807
 10
35.35229082570618
 20
96.58913591780171
 10
35.24488784316743
 20
104.6607160410267
 10
35.79425720634427
 20
108.2982507784664
 10
48.78463952227457
 20
115.7982502462516
 10
48.78463952227457
 20
188.4883925050236
 10
47.41964989999209
 20
190.3495930838963
 10
43.18849746661962
 20
199.1041994861606
 10
43.31359862058232
 20
197.4735572323598
 10
39.98475670181229
 20
204.89989466864
 10
37.53425987089892
 20
212.4029667759668
 10
36.03657752588057
 20
219.7547941554621
 10
35.53720099547147
 20
226.7319918465789
 10
35.79425720634427
 20
229.9272814005486
 10
35.79425720634427
 20
232.3563104134173
 10
35.06966026341279
 20
253.7222899154178
 10
42.85432323080668
 20
249.2278140158507
 10
42.72246110817374
 20
251.4536364231206
 10
36.6602826940729
 20
254.9536400470151
 10
36.6602826940729
 20
267.7537975141995
 10
48.78463952227457
 20
274.7537989535965
 10
48.78463952227457
 20
303.5770165390628
 10
67.65609457951433
 20
331.2696479830396
 10
72.48431489386226
 20
334.1271679063451
 10
72.48431489386226
 20
358.7942368285719
 10
107.1253285946163
 20
378.794233473202
 10
122.713787373732
 20
369.7942341118596
 10
123.0413632758606
 20
352.5716770855076
 10
143.6333222246095
 20
353.2817414308342
 10
200.438725420001
 20
373.8737003795833
 10
243.7528479702635
 20
398.0159984801423
 10
247.760377299004
 20
399.7612112726152
 10
247.760377299004
 20
445.9005707016239
 10
229.9967743356807
 20
455.8415180033351
 10
189.7537404862363
 20
445.5725127029322
 10
129.9038103681429
 20
406.1909970287696
 10
84.17777032881041
 20
384.4054773489096
 10
54.85111033830531
 20
370.9990050401635
 10
12.95588509952234
 20
337.4828271724941
 97
        0
 75
     0
 76
     1
 98
        0
  0
HATCH
  5
4B
330
1F
100
AcDbEntity
  8
0_Pen_No__146
  6
Continuous
 62
   250
420
  3289650
370
     0
100
AcDbHatch
 10
0.0
 20
0.0
 30
0.0
210
0.0
220
0.0
230
1.0
  2
SOLID
 70
     1
 71
     0
 91
        1
 92
        3
 72
     0
 73
     1
 93
       44
 10
41.13183627910328
 20
94.53629611644044
 10
41.13183627910328
 20
97.79824842244112
 10
54.12221727910044
 20
90.2982484224415
 10
54.12221727910044
 20
189.6433200604397
 10
50.90327042732795
 20
193.8303674599409
 10
47.57682678454106
 20
199.3017433349373
 10
44.83490978274535
 20
205.0486878509403
 10
42.7608311823357
 20
210.8965830064386
 10
41.41761081335677
 20
216.6677434664366
 10
41.13183627910328
 20
219.4272794534338
 10
41.13183627910328
 20
245.406943976433
 10
46.05635909445688
 20
242.5637693909364
 10
46.05635909445688
 20
252.9837791715099
 10
42.85432300875941
 20
254.8324755756188
 10
42.85432300875941
 20
249.2278132790471
 10
35.06965847910365
 20
253.7222914604365
 10
35.06965847910365
 20
229.9272794534373
 10
34.81260267473058
 20
226.7319923309357
 10
35.31197725568441
 20
219.7547927759356
 10
36.80966478328379
 20
212.4029665899383
 10
39.2601587802876
 20
204.8998952909402
 10
42.58900222535583
 20
197.4735559034388
 10
46.69504989632806
 20
190.3495939919382
 10
48.0600394791017
 20
188.4883916984377
 10
48.06003947909904
 20
100.7982484224432
 10
35.06965847910365
 20
108.2982484224417
 10
34.52029048875133
 20
104.6607143739413
 10
34.62769542045135
 20
96.58913305244266
 10
35.9379778210393
 20
87.96628941943973
 10
38.41132542207898
 20
79.05418421394384
 10
41.97258681007593
 20
70.12360724394284
 10
46.51355485833303
 20
61.44590957044316
 10
48.06003947909815
 20
59.14332006044765
 10
48.06003947909593
 20
-5.697878109882685
 10
49.79209034380938
 20
-6.697878142875161
 10
50.65811574759383
 20
-9.19787814287515
 10
51.52414115137827
 20
-5.69787814287516
 10
52.39016655516271
 20
-8.197878142875147
 10
54.1222173494883
 20
-9.197878135229121
 10
54.12221727910044
 20
60.29824842244391
 10
50.4596933952412
 20
65.8924677729429
 10
46.83384276943364
 20
72.9989422309445
 10
44.01696393923022
 20
80.28922179694308
 10
42.09464634300225
 20
87.54179501444082
 97
        0
 75
     0
 76
     1
 98
        0
  0
HATCH
  5
4C
330
1F
100
AcDbEntity
  8
0_Pen_No__146
  6
Continuous
 62
   250
420
  3289650
370
     0
100
AcDbHatch
 10
0.0
 20
0.0
 30
0.0
210
0.0
220
0.0
230
1.0
  2
SOLID
 70
     1
 71
     0
 91
        1
 92
        3
 72
     0
 73
     1
 93
       19
 10
12.95588334914344
 20
982.1000058990695
 10
-17.32051032845749
 20
936.4691809743148
 10
-8.829637017211844
 20
880.3295773061271
 10
-2.12639579856333
 20
845.9754879624045
 10
17.98330973171236
 20
826.7036838082787
 10
26.36235370266071
 20
800.7286444773944
 10
43.95834906259699
 20
774.7536051465102
 10
72.48431660565069
 20
764.9947204003803
 10
72.48431660565069
 20
1003.411419164385
 10
107.1253292591895
 20
1023.41141605772
 10
122.7137858595658
 20
1014.41141685153
 10
122.7137858595658
 20
987.1100787633701
 10
247.7603766026041
 20
1078.745278119281
 10
247.7603766468416
 20
1103.705519061813
 10
229.9967731747444
 20
1100.458701823825
 10
189.7537443665448
 20
1090.189694270916
 10
129.9038100642805
 20
1050.808178544625
 10
84.17777220692801
 20
1029.022664220159
 10
54.85110924577441
 20
1015.616187824753
 97
        0
 75
     0
 76
     1
 98
        0
  0
HATCH
  5
4D
330
1F
100
AcDbEntity
  8
0_Pen_No__146
  6
Continuous
 62
   250
420
  3289650
370
     0
100
AcDbHatch
 10
0.0
 20
0.0
 30
0.0
210
0.0
220
0.0
230
1.0
  2
SOLID
 70
     1
 71
     0
 91
        1
 92
        3
 72
     0
 73
     1
 93
       10
 10
297.9898500114641
 20
1008.616477411181
 10
335.494416478418
 20
986.9632066309041
 10
350.6314173398429
 20
1000.149926068288
 10
357.3346541618288
 20
1031.990298555848
 10
366.5516035836228
 20
1078.912953892876
 10
367.0901095448443
 20
1101.53023084979
 10
354.9686632761902
 20
1117.203634992648
 10
342.8975145581913
 20
1127.854648283016
 10
313.784745542354
 20
1119.925797001015
 10
297.9898500114641
 20
1113.111033036707
 97
        0
 75
     0
 76
     1
 98
        0
  0
HATCH
  5
4E
330
1F
100
AcDbEntity
  8
0_Pen_No__146
  6
Continuous
 62
   250
420
  3289650
370
     0
100
AcDbHatch
 10
0.0
 20
0.0
 30
0.0
210
0.0
220
0.0
230
1.0
  2
SOLID
 70
     1
 71
     0
 91
        1
 92
        3
 72
     0
 73
     1
 93
        6
 10
224.9030005209519
 20
800.5562446732227
 10
249.2449663465072
 20
792.1301795797611
 10
377.7093673501394
 20
731.3211951861377
 10
377.7093673501394
 20
790.3464498563166
 10
360.3888592933732
 20
780.3464498235425
 10
224.9030005209519
 20
858.5692471990275
 97
        0
 75
     0
 76
     1
 98
        0
  0
HATCH
  5
4F
330
1F
100
AcDbEntity
  8
0_Pen_No__146
  6
Continuous
 62
   250
420
  3289650
370
     0
100
AcDbHatch
 10
0.0
 20
0.0
 30
0.0
210
0.0
220
0.0
230
1.0
  2
SOLID
 70
     1
 71
     0
 91
        1
 92
        3
 72
     0
 73
     1
 93
        5
 10
446.991399577206
 20
822.590393039833
 10
390.2389689261313
 20
789.8243617830857
 10
405.2060916544938
 20
781.9799396265904
 10
429.3377426786677
 20
772.9305704925252
 10
446.991399577206
 20
759.8592595210981
 97
        0
 75
     0
 76
     1
 98
        0
  0
HATCH
  5
50
330
1F
100
AcDbEntity
  8
0_Pen_No__146
  6
Continuous
 62
   250
420
  3289650
370
     0
100
AcDbHatch
 10
0.0
 20
0.0
 30
0.0
210
0.0
220
0.0
230
1.0
  2
SOLID
 70
     1
 71
     0
 91
        1
 92
        3
 72
     0
 73
     1
 93
        4
 10
147.1821355620356
 20
812.3687536992984
 10
174.6735271563294
 20
809.7771691812658
 10
174.6735271563294
 20
879.813190346498
 10
147.0206113135516
 20
895.7786088219744
 97
        0
 75
     0
 76
     1
 98
        0
  0
HATCH
  5
51
330
1F
100
AcDbEntity
  8
0_Pen_No__146
  6
Continuous
 62
   250
420
  3289650
370
     0
100
AcDbHatch
 10
0.0
 20
0.0
 30
0.0
210
0.0
220
0.0
230
1.0
  2
SOLID
 70
     1
 71
     0
 91
        1
 92
        3
 72
     0
 73
     1
 93
        6
 10
122.7137879075099
 20
796.2683242314147
 10
147.1821355620356
 20
812.3687536992984
 10
147.2243184825123
 20
869.4377824638119
 10
147.0206113135516
 20
895.7786088219744
 10
129.9038104257452
 20
905.6609984654015
 10
122.7137879075099
 20
901.5098370108786
 97
        0
 75
     0
 76
     1
 98
        0
  0
LINE
  5
52
330
1F
100
AcDbEntity
  8
0_Pen_No__1
  6
Continuous
100
AcDbLine
 10
48.78463705795427
 20
303.5770138798919
 30
0.0
 11
48.78463705795294
 21
260.7537984540993
 31
0.0
  0
LINE
  5
54
330
1F
100
AcDbEntity
  8
0_Pen_No__1
  6
Continuous
100
AcDbLine
 10
48.78463705795294
 20
260.7537984540993
 30
0.0
 11
36.66028145796035
 21
267.7537984540941
 31
0.0
  0
LINE
  5
55
330
1F
100
AcDbEntity
  8
0_Pen_No__1
  6
Continuous
100
AcDbLine
 10
36.66028145796035
 20
267.7537984540941
 30
0.0
 11
36.6602814579608
 21
254.9536388920963
 31
0.0
  0
LINE
  5
56
330
1F
100
AcDbEntity
  8
0_Pen_No__1
  6
Continuous
100
AcDbLine
 10
36.6602814579608
 20
254.9536388920963
 30
0.0
 11
42.72245925795998
 21
251.4536388920974
 31
0.0
  0
LINE
  5
57
330
1F
100
AcDbEntity
  8
0_Pen_No__1
  6
Continuous
100
AcDbLine
 10
42.72245925795998
 20
251.4536388920974
 30
0.0
 11
42.72245925795998
 21
257.2537984540973
 31
0.0
  0
LINE
  5
58
330
1F
100
AcDbEntity
  8
0_Pen_No__1
  6
Continuous
100
AcDbLine
 10
42.72245925795998
 20
257.2537984540973
 30
0.0
 11
48.78463705795294
 21
253.7537984541019
 31
0.0
  0
LINE
  5
59
330
1F
100
AcDbEntity
  8
0_Pen_No__1
  6
Continuous
100
AcDbLine
 10
48.78463705795294
 20
253.7537984541019
 30
0.0
 11
48.78463705795249
 21
233.7537984541027
 31
0.0
  0
LINE
  5
5A
330
1F
100
AcDbEntity
  8
0_Pen_No__1
  6
Continuous
100
AcDbLine
 10
48.78463705795249
 20
233.7537984541027
 30
0.0
 11
42.72245925795998
 21
237.2537984540977
 31
0.0
  0
LINE
  5
5B
330
1F
100
AcDbEntity
  8
0_Pen_No__1
  6
Continuous
100
AcDbLine
 10
42.72245925795998
 20
237.2537984540977
 30
0.0
 11
42.72245925795998
 21
230.2537984540998
 31
0.0
  0
LINE
  5
5C
330
1F
100
AcDbEntity
  8
0_Pen_No__1
  6
Continuous
100
AcDbLine
 10
42.72245925795998
 20
230.2537984540998
 30
0.0
 11
54.84681485795745
 21
223.2537984541012
 31
0.0
  0
LINE
  5
5D
330
1F
100
AcDbEntity
  8
0_Pen_No__1
  6
Continuous
100
AcDbLine
 10
54.84681485795745
 20
223.2537984541012
 30
0.0
 11
54.84681485795745
 21
300.077013879889
 31
0.0
  0
LINE
  5
5E
330
1F
100
AcDbEntity
  8
0_Pen_No__1
  6
Continuous
100
AcDbLine
 10
54.84681485795745
 20
300.077013879889
 30
0.0
 11
48.78463705795427
 21
303.5770138798919
 31
0.0
  0
LINE
  5
5F
330
1F
100
AcDbEntity
  8
0_Pen_No__1
  6
Continuous
100
AcDbLine
 10
247.7603766468418
 20
445.2544292648051
 30
0.0
 11
247.7603766468418
 21
445.9005720886336
 31
0.0
  0
LINE
  5
60
330
1F
100
AcDbEntity
  8
0_Pen_No__1
  6
Continuous
100
AcDbLine
 10
247.7603766468418
 20
445.9005720886336
 30
0.0
 11
229.9967723677367
 21
455.8415180033351
 31
0.0
  0
LINE
  5
61
330
1F
100
AcDbEntity
  8
0_Pen_No__1
  6
Continuous
100
AcDbLine
 10
229.9967723677367
 20
455.8415180033351
 30
0.0
 11
189.7537433355251
 21
445.5725113416437
 31
0.0
  0
LINE
  5
62
330
1F
100
AcDbEntity
  8
0_Pen_No__1
  6
Continuous
100
AcDbLine
 10
189.7537433355251
 20
445.5725113416437
 30
0.0
 11
129.9038104257457
 21
406.1909975174725
 31
0.0
  0
LINE
  5
63
330
1F
100
AcDbEntity
  8
0_Pen_No__1
  6
Continuous
100
AcDbLine
 10
129.9038104257457
 20
406.1909975174725
 30
0.0
 11
84.17777010476784
 21
384.4054792317604
 31
0.0
  0
LINE
  5
64
330
1F
100
AcDbEntity
  8
0_Pen_No__1
  6
Continuous
100
AcDbLine
 10
84.17777010476784
 20
384.4054792317604
 30
0.0
 11
54.85111087400168
 21
370.999006440553
 31
0.0
  0
LINE
  5
65
330
1F
100
AcDbEntity
  8
0_Pen_No__1
  6
Continuous
100
AcDbLine
 10
54.85111087400168
 20
370.999006440553
 30
0.0
 11
12.95588340147974
 21
337.4828244625349
 31
0.0
  0
LINE
  5
66
330
1F
100
AcDbEntity
  8
0_Pen_No__1
  6
Continuous
100
AcDbLine
 10
12.95588340147974
 20
337.4828244625349
 30
0.0
 11
-20.56029857653924
 21
280.505315099904
 31
0.0
  0
LINE
  5
67
330
1F
100
AcDbEntity
  8
0_Pen_No__1
  6
Continuous
100
AcDbLine
 10
-20.56029857653924
 20
280.505315099904
 30
0.0
 11
-17.32050805676716
 21
221.8519966383721
 31
0.0
  0
LINE
  5
68
330
1F
100
AcDbEntity
  8
0_Pen_No__1
  6
Continuous
100
AcDbLine
 10
-17.32050805676716
 20
221.8519966383721
 30
0.0
 11
-8.829634884232773
 21
165.7123918251913
 31
0.0
  0
LINE
  5
69
330
1F
100
AcDbEntity
  8
0_Pen_No__1
  6
Continuous
100
AcDbLine
 10
-8.829634884232773
 20
165.7123918251913
 30
0.0
 11
-2.126398488628445
 21
131.358305297723
 31
0.0
  0
LINE
  5
6A
330
1F
100
AcDbEntity
  8
0_Pen_No__1
  6
Continuous
100
AcDbLine
 10
-2.126398488628445
 20
131.358305297723
 30
0.0
 11
17.98331069818187
 21
112.0865006603624
 31
0.0
  0
LINE
  5
6B
330
1F
100
AcDbEntity
  8
0_Pen_No__1
  6
Continuous
100
AcDbLine
 10
17.98331069818187
 20
112.0865006603624
 30
0.0
 11
26.36235619268662
 21
86.11145962739796
 31
0.0
  0
LINE
  5
6C
330
1F
100
AcDbEntity
  8
0_Pen_No__1
  6
Continuous
100
AcDbLine
 10
26.36235619268662
 20
86.11145962739796
 30
0.0
 11
38.59720558436436
 21
68.0504914777782
 31
0.0
  0
LINE
  5
6D
330
1F
100
AcDbEntity
  8
0_Pen_No__1
  6
Continuous
100
AcDbLine
 10
38.59720558436436
 20
68.0504914777782
 30
0.0
 11
44.83029357326357
 21
66.0472789347637
 31
0.0
  0
LINE
  5
6E
330
1F
100
AcDbEntity
  8
0_Pen_No__1
  6
Continuous
100
AcDbLine
 10
35.79425605796066
 20
253.7222914604367
 30
0.0
 11
38.5972055843648
 21
252.10400778977
 31
0.0
  0
LINE
  5
6F
330
1F
100
AcDbEntity
  8
0_Pen_No__1
  6
Continuous
100
AcDbLine
 10
38.5972055843648
 20
252.10400778977
 30
0.0
 11
38.59720558436436
 21
253.8353552214307
 31
0.0
  0
LINE
  5
70
330
1F
100
AcDbEntity
  8
0_Pen_No__1
  6
Continuous
100
AcDbLine
 10
38.59720558436436
 20
253.8353552214307
 30
0.0
 11
36.6602814579608
 21
254.9536388920963
 31
0.0
  0
LINE
  5
71
330
1F
100
AcDbEntity
  8
0_Pen_No__1
  6
Continuous
100
AcDbLine
 10
36.6602814579608
 20
254.9536388920963
 30
0.0
 11
36.66028145796035
 21
267.7537984540941
 31
0.0
  0
LINE
  5
72
330
1F
100
AcDbEntity
  8
0_Pen_No__1
  6
Continuous
100
AcDbLine
 10
36.66028145796035
 20
267.7537984540941
 30
0.0
 11
38.59720558436391
 21
266.6355147834281
 31
0.0
  0
LINE
  5
73
330
1F
100
AcDbEntity
  8
0_Pen_No__1
  6
Continuous
100
AcDbLine
 10
38.59720558436391
 20
266.6355147834281
 30
0.0
 11
38.59720558436436
 21
268.8720821247599
 31
0.0
  0
LINE
  5
74
330
1F
100
AcDbEntity
  8
0_Pen_No__1
  6
Continuous
100
AcDbLine
 10
38.59720558436436
 20
268.8720821247599
 30
0.0
 11
48.78463705795338
 21
274.7537984540897
 31
0.0
  0
LINE
  5
75
330
1F
100
AcDbEntity
  8
0_Pen_No__1
  6
Continuous
100
AcDbLine
 10
48.78463705795338
 20
274.7537984540897
 30
0.0
 11
48.78463705795427
 21
303.5770138798919
 31
0.0
  0
LINE
  5
76
330
1F
100
AcDbEntity
  8
0_Pen_No__1
  6
Continuous
100
AcDbLine
 10
48.78463705795427
 20
303.5770138798919
 30
0.0
 11
67.6560934809291
 21
331.2696489279892
 31
0.0
  0
LINE
  5
77
330
1F
100
AcDbEntity
  8
0_Pen_No__1
  6
Continuous
100
AcDbLine
 10
67.6560934809291
 20
331.2696489279892
 30
0.0
 11
72.4843145428879
 21
334.1271675156794
 31
0.0
  0
LINE
  5
78
330
1F
100
AcDbEntity
  8
0_Pen_No__1
  6
Continuous
100
AcDbLine
 10
72.4843145428879
 20
334.1271675156794
 30
0.0
 11
72.4843145428879
 21
358.7942345946227
 31
0.0
  0
LINE
  5
79
330
1F
100
AcDbEntity
  8
0_Pen_No__1
  6
Continuous
100
AcDbLine
 10
72.4843145428879
 20
358.7942345946227
 30
0.0
 11
107.1253306564212
 21
378.7942346601707
 31
0.0
  0
LINE
  5
7A
330
1F
100
AcDbEntity
  8
0_Pen_No__1
  6
Continuous
100
AcDbLine
 10
107.1253306564212
 20
378.7942346601707
 30
0.0
 11
122.7137879075099
 21
369.7942346306726
 31
0.0
  0
LINE
  5
7B
330
1F
100
AcDbEntity
  8
0_Pen_No__1
  6
Continuous
100
AcDbLine
 10
122.7137879075099
 20
369.7942346306726
 30
0.0
 11
123.0413635771241
 21
352.5716758880646
 31
0.0
  0
LINE
  5
7C
330
1F
100
AcDbEntity
  8
0_Pen_No__1
  6
Continuous
100
AcDbLine
 10
123.0413635771241
 20
352.5716758880646
 30
0.0
 11
143.6333229718638
 21
353.2817434534008
 31
0.0
  0
LINE
  5
7D
330
1F
100
AcDbEntity
  8
0_Pen_No__1
  6
Continuous
100
AcDbLine
 10
143.6333229718638
 20
353.2817434534008
 30
0.0
 11
200.4387281987298
 21
373.8737028481391
 31
0.0
  0
LINE
  5
7E
330
1F
100
AcDbEntity
  8
0_Pen_No__1
  6
Continuous
100
AcDbLine
 10
200.4387281987298
 20
373.8737028481391
 30
0.0
 11
243.7528496842178
 21
398.0160000695594
 31
0.0
  0
LINE
  5
7F
330
1F
100
AcDbEntity
  8
0_Pen_No__1
  6
Continuous
100
AcDbLine
 10
243.7528496842178
 20
398.0160000695594
 30
0.0
 11
247.7603766468418
 21
399.7612134242507
 31
0.0
  0
LINE
  5
80
330
1F
100
AcDbEntity
  8
0_Pen_No__1
  6
Continuous
100
AcDbLine
 10
247.7603766468418
 20
399.7612134242507
 30
0.0
 11
247.7603766468418
 21
445.2544292648051
 31
0.0
  0
LINE
  5
81
330
1F
100
AcDbEntity
  8
0_Pen_No__1
  6
Continuous
100
AcDbLine
 10
297.9898500114639
 20
418.4133616867973
 30
0.0
 11
305.5287278684344
 21
419.3180270296339
 31
0.0
  0
LINE
  5
82
330
1F
100
AcDbEntity
  8
0_Pen_No__1
  6
Continuous
100
AcDbLine
 10
305.5287278684344
 20
419.3180270296339
 30
0.0
 11
307.9061589529119
 21
420.3986775225777
 31
0.0
  0
LINE
  5
83
330
1F
100
AcDbEntity
  8
0_Pen_No__1
  6
Continuous
100
AcDbLine
 10
307.9061589529119
 20
420.3986775225777
 30
0.0
 11
297.9898500114639
 21
424.1096923684096
 31
0.0
  0
LINE
  5
84
330
1F
100
AcDbEntity
  8
0_Pen_No__1
  6
Continuous
100
AcDbLine
 10
297.9898500114639
 20
424.1096923684096
 30
0.0
 11
297.9898500114639
 21
418.4133616867973
 31
0.0
  0
LINE
  5
85
330
1F
100
AcDbEntity
  8
0_Pen_No__1
  6
Continuous
100
AcDbLine
 10
360.3888592933728
 20
97.9732090554728
 30
0.0
 11
464.3119076339727
 21
157.9732092521173
 31
0.0
  0
LINE
  5
86
330
1F
100
AcDbEntity
  8
0_Pen_No__1
  6
Continuous
100
AcDbLine
 10
464.3119076339727
 20
157.9732092521173
 30
0.0
 11
464.3119076339727
 21
197.9732092521174
 31
0.0
  0
LINE
  5
87
330
1F
100
AcDbEntity
  8
0_Pen_No__1
  6
Continuous
100
AcDbLine
 10
464.3119076339727
 20
197.9732092521174
 30
0.0
 11
360.3888592933728
 21
117.9732090554728
 31
0.0
  0
LINE
  5
88
330
1F
100
AcDbEntity
  8
0_Pen_No__1
  6
Continuous
100
AcDbLine
 10
360.3888592933728
 20
117.9732090554728
 30
0.0
 11
360.3888592933728
 21
97.9732090554728
 31
0.0
  0
LINE
  5
89
330
1F
100
AcDbEntity
  8
0_Pen_No__1
  6
Continuous
100
AcDbLine
 10
351.915744488769
 20
22.0928487154739
 30
0.0
 11
350.9529344248703
 21
15.09834761347428
 31
0.0
  0
LINE
  5
8A
330
1F
100
AcDbEntity
  8
0_Pen_No__1
  6
Continuous
100
AcDbLine
 10
350.9529344248703
 20
15.09834761347428
 30
0.0
 11
349.0306168286421
 21
7.845774395976557
 31
0.0
  0
LINE
  5
8B
330
1F
100
AcDbEntity
  8
0_Pen_No__1
  6
Continuous
100
AcDbLine
 10
349.0306168286421
 20
7.845774395976557
 30
0.0
 11
346.2137379984386
 21
0.5554948299775209
 31
0.0
  0
LINE
  5
8C
330
1F
100
AcDbEntity
  8
0_Pen_No__1
  6
Continuous
100
AcDbLine
 10
346.2137379984386
 20
0.5554948299775209
 30
0.0
 11
342.5878873726311
 21
-6.550979628023645
 31
0.0
  0
LINE
  5
8D
330
1F
100
AcDbEntity
  8
0_Pen_No__1
  6
Continuous
100
AcDbLine
 10
342.5878873726311
 20
-6.550979628023645
 30
0.0
 11
338.9253634887714
 21
-12.14519897852262
 31
0.0
  0
LINE
  5
8E
330
1F
100
AcDbEntity
  8
0_Pen_No__1
  6
Continuous
100
AcDbLine
 10
338.9253634887714
 20
-12.14519897852262
 30
0.0
 11
338.9253634887713
 21
-79.42735808947454
 31
0.0
  0
LINE
  5
8F
330
1F
100
AcDbEntity
  8
0_Pen_No__1
  6
Continuous
100
AcDbLine
 10
338.9253634887713
 20
-79.42735808947454
 30
0.0
 11
340.657414283097
 21
-78.42735809712056
 31
0.0
  0
LINE
  5
90
330
1F
100
AcDbEntity
  8
0_Pen_No__1
  6
Continuous
100
AcDbLine
 10
342.3894650906658
 20
-79.42735809712056
 30
0.0
 11
341.5234396868814
 21
-75.92735809712057
 31
0.0
  0
LINE
  5
91
330
1F
100
AcDbEntity
  8
0_Pen_No__1
  6
Continuous
100
AcDbLine
 10
340.657414283097
 20
-78.42735809712056
 30
0.0
 11
341.5234396868814
 21
-75.92735809712057
 31
0.0
  0
LINE
  5
92
330
1F
100
AcDbEntity
  8
0_Pen_No__1
  6
Continuous
100
AcDbLine
 10
343.2554904944503
 20
-76.92735809712057
 30
0.0
 11
344.9875412887758
 21
-75.92735810476658
 31
0.0
  0
LINE
  5
93
330
1F
100
AcDbEntity
  8
0_Pen_No__1
  6
Continuous
100
AcDbLine
 10
343.2554904944503
 20
-76.92735809712057
 30
0.0
 11
342.3894650906658
 21
-79.42735809712056
 31
0.0
  0
LINE
  5
94
330
1F
100
AcDbEntity
  8
0_Pen_No__1
  6
Continuous
100
AcDbLine
 10
344.9875412887758
 20
-75.92735810476658
 30
0.0
 11
344.9875412887741
 21
-13.30012734051933
 31
0.0
  0
LINE
  5
95
330
1F
100
AcDbEntity
  8
0_Pen_No__1
  6
Continuous
100
AcDbLine
 10
344.9875412887741
 20
-13.30012734051933
 30
0.0
 11
346.5340259095393
 21
-10.9975378305236
 31
0.0
  0
LINE
  5
96
330
1F
100
AcDbEntity
  8
0_Pen_No__1
  6
Continuous
100
AcDbLine
 10
346.5340259095393
 20
-10.9975378305236
 30
0.0
 11
351.0749939577963
 21
-2.319840157023689
 31
0.0
  0
LINE
  5
97
330
1F
100
AcDbEntity
  8
0_Pen_No__1
  6
Continuous
100
AcDbLine
 10
351.0749939577963
 20
-2.319840157023689
 30
0.0
 11
354.6362553457935
 21
6.610736812977303
 31
0.0
  0
LINE
  5
98
330
1F
100
AcDbEntity
  8
0_Pen_No__1
  6
Continuous
100
AcDbLine
 10
354.6362553457935
 20
6.610736812977303
 30
0.0
 11
357.1096029468328
 21
15.52284201847276
 31
0.0
  0
LINE
  5
99
330
1F
100
AcDbEntity
  8
0_Pen_No__1
  6
Continuous
100
AcDbLine
 10
357.1096029468328
 20
15.52284201847276
 30
0.0
 11
358.4198853474205
 21
24.14568565147612
 31
0.0
  0
LINE
  5
9A
330
1F
100
AcDbEntity
  8
0_Pen_No__1
  6
Continuous
100
AcDbLine
 10
358.4198853474205
 20
24.14568565147612
 30
0.0
 11
358.5272902791205
 21
32.21726697297478
 31
0.0
  0
LINE
  5
9B
330
1F
100
AcDbEntity
  8
0_Pen_No__1
  6
Continuous
100
AcDbLine
 10
358.5272902791205
 20
32.21726697297478
 30
0.0
 11
357.9779222887682
 21
35.85480102147476
 31
0.0
  0
LINE
  5
9C
330
1F
100
AcDbEntity
  8
0_Pen_No__1
  6
Continuous
100
AcDbLine
 10
357.9779222887682
 20
35.85480102147476
 30
0.0
 11
344.9875412887728
 21
28.35480102147625
 31
0.0
  0
LINE
  5
9D
330
1F
100
AcDbEntity
  8
0_Pen_No__1
  6
Continuous
100
AcDbLine
 10
344.9875412887728
 20
28.35480102147625
 30
0.0
 11
344.9875412887706
 21
108.8956291258867
 31
0.0
  0
LINE
  5
9E
330
1F
100
AcDbEntity
  8
0_Pen_No__1
  6
Continuous
100
AcDbLine
 10
344.9875412887706
 20
108.8956291258867
 30
0.0
 11
338.9253634887714
 21
105.3956291258873
 31
0.0
  0
LINE
  5
9F
330
1F
100
AcDbEntity
  8
0_Pen_No__1
  6
Continuous
100
AcDbLine
 10
338.9253634887714
 20
105.3956291258873
 30
0.0
 11
338.9253634887714
 21
17.85480102147496
 31
0.0
  0
LINE
  5
A0
330
1F
100
AcDbEntity
  8
0_Pen_No__1
  6
Continuous
100
AcDbLine
 10
338.9253634887714
 20
17.85480102147496
 30
0.0
 11
351.915744488769
 21
25.35480102147436
 31
0.0
  0
LINE
  5
A1
330
1F
100
AcDbEntity
  8
0_Pen_No__1
  6
Continuous
100
AcDbLine
 10
351.915744488769
 20
25.35480102147436
 30
0.0
 11
351.915744488769
 21
22.0928487154739
 31
0.0
  0
LINE
  5
A2
330
1F
100
AcDbEntity
  8
0_Pen_No__1
  6
Continuous
100
AcDbLine
 10
473.1144653454337
 20
92.05941410328866
 30
0.0
 11
473.1144653454337
 21
95.3289154392849
 31
0.0
  0
LINE
  5
A3
330
1F
100
AcDbEntity
  8
0_Pen_No__1
  6
Continuous
100
AcDbLine
 10
473.1144653454337
 20
95.3289154392849
 30
0.0
 11
486.1048463454318
 21
102.828915439285
 31
0.0
  0
LINE
  5
A4
330
1F
100
AcDbEntity
  8
0_Pen_No__1
  6
Continuous
100
AcDbLine
 10
486.1048463454318
 20
102.828915439285
 30
0.0
 11
486.1048463454318
 21
205.8597801121385
 31
0.0
  0
LINE
  5
A5
330
1F
100
AcDbEntity
  8
0_Pen_No__1
  6
Continuous
100
AcDbLine
 10
486.1048463454318
 20
205.8597801121385
 30
0.0
 11
480.0426685454322
 21
203.7267916269532
 31
0.0
  0
LINE
  5
A6
330
1F
100
AcDbEntity
  8
0_Pen_No__1
  6
Continuous
100
AcDbLine
 10
480.0426685454322
 20
203.7267916269532
 30
0.0
 11
480.0426685454322
 21
106.3289154392877
 31
0.0
  0
LINE
  5
A7
330
1F
100
AcDbEntity
  8
0_Pen_No__1
  6
Continuous
100
AcDbLine
 10
480.0426685454322
 20
106.3289154392877
 30
0.0
 11
467.0522875454341
 21
98.8289154392874
 31
0.0
  0
LINE
  5
A8
330
1F
100
AcDbEntity
  8
0_Pen_No__1
  6
Continuous
100
AcDbLine
 10
467.0522875454341
 20
98.8289154392874
 30
0.0
 11
466.5029195550827
 21
94.55702587378556
 31
0.0
  0
LINE
  5
A9
330
1F
100
AcDbEntity
  8
0_Pen_No__1
  6
Continuous
100
AcDbLine
 10
466.5029195550827
 20
94.55702587378556
 30
0.0
 11
466.6103244867822
 21
86.60946508528843
 31
0.0
  0
LINE
  5
AA
330
1F
100
AcDbEntity
  8
0_Pen_No__1
  6
Continuous
100
AcDbLine
 10
466.6103244867822
 20
86.60946508528843
 30
0.0
 11
467.9206068873706
 21
79.49960525229005
 31
0.0
  0
LINE
  5
AB
330
1F
100
AcDbEntity
  8
0_Pen_No__1
  6
Continuous
100
AcDbLine
 10
467.9206068873706
 20
79.49960525229005
 30
0.0
 11
470.3939544884094
 21
73.44347586578981
 31
0.0
  0
LINE
  5
AC
330
1F
100
AcDbEntity
  8
0_Pen_No__1
  6
Continuous
100
AcDbLine
 10
470.3939544884094
 20
73.44347586578981
 30
0.0
 11
473.9552158764064
 21
68.62508935578693
 31
0.0
  0
LINE
  5
AD
330
1F
100
AcDbEntity
  8
0_Pen_No__1
  6
Continuous
100
AcDbLine
 10
473.9552158764064
 20
68.62508935578693
 30
0.0
 11
478.4961839246635
 21
65.19084995528934
 31
0.0
  0
LINE
  5
AE
330
1F
100
AcDbEntity
  8
0_Pen_No__1
  6
Continuous
100
AcDbLine
 10
478.4961839246635
 20
65.19084995528934
 30
0.0
 11
480.0426685454322
 21
64.6739870772881
 31
0.0
  0
LINE
  5
AF
330
1F
100
AcDbEntity
  8
0_Pen_No__1
  6
Continuous
100
AcDbLine
 10
480.0426685454322
 20
64.6739870772881
 30
0.0
 11
480.0426685454322
 21
2.673987077290052
 31
0.0
  0
LINE
  5
B0
330
1F
100
AcDbEntity
  8
0_Pen_No__1
  6
Continuous
100
AcDbLine
 10
480.0426685454322
 20
2.673987077290052
 30
0.0
 11
467.9183129454346
 21
-4.326012922707845
 31
0.0
  0
LINE
  5
B1
330
1F
100
AcDbEntity
  8
0_Pen_No__1
  6
Continuous
100
AcDbLine
 10
467.9183129454346
 20
-4.326012922707845
 30
0.0
 11
467.9183129454346
 21
-17.12617248470516
 31
0.0
  0
LINE
  5
B2
330
1F
100
AcDbEntity
  8
0_Pen_No__1
  6
Continuous
100
AcDbLine
 10
467.9183129454346
 20
-17.12617248470516
 30
0.0
 11
473.9804907454334
 21
-13.62617248470621
 31
0.0
  0
LINE
  5
B3
330
1F
100
AcDbEntity
  8
0_Pen_No__1
  6
Continuous
100
AcDbLine
 10
473.9804907454334
 20
-13.62617248470621
 30
0.0
 11
473.9804907454334
 21
-7.826012922706349
 31
0.0
  0
LINE
  5
B4
330
1F
100
AcDbEntity
  8
0_Pen_No__1
  6
Continuous
100
AcDbLine
 10
473.9804907454334
 20
-7.826012922706349
 30
0.0
 11
480.0426685454331
 21
-4.326012922707401
 31
0.0
  0
LINE
  5
B5
330
1F
100
AcDbEntity
  8
0_Pen_No__1
  6
Continuous
100
AcDbLine
 10
480.0426685454331
 20
-4.326012922707401
 30
0.0
 11
480.0426685454331
 21
-24.32601292270742
 31
0.0
  0
LINE
  5
B6
330
1F
100
AcDbEntity
  8
0_Pen_No__1
  6
Continuous
100
AcDbLine
 10
480.0426685454331
 20
-24.32601292270742
 30
0.0
 11
473.9804907454334
 21
-27.82601292270659
 31
0.0
  0
LINE
  5
B7
330
1F
100
AcDbEntity
  8
0_Pen_No__1
  6
Continuous
100
AcDbLine
 10
473.9804907454334
 20
-27.82601292270659
 30
0.0
 11
473.9804907454334
 21
-34.82601292270427
 31
0.0
  0
LINE
  5
B8
330
1F
100
AcDbEntity
  8
0_Pen_No__1
  6
Continuous
100
AcDbLine
 10
473.9804907454334
 20
-34.82601292270427
 30
0.0
 11
486.1048463454318
 21
-27.82601292270659
 31
0.0
  0
LINE
  5
B9
330
1F
100
AcDbEntity
  8
0_Pen_No__1
  6
Continuous
100
AcDbLine
 10
486.1048463454318
 20
-27.82601292270659
 30
0.0
 11
486.1048463454318
 21
72.8289154392876
 31
0.0
  0
LINE
  5
BA
330
1F
100
AcDbEntity
  8
0_Pen_No__1
  6
Continuous
100
AcDbLine
 10
486.1048463454318
 20
72.8289154392876
 30
0.0
 11
482.4423224615734
 21
74.19401647079039
 31
0.0
  0
LINE
  5
BB
330
1F
100
AcDbEntity
  8
0_Pen_No__1
  6
Continuous
100
AcDbLine
 10
482.4423224615734
 20
74.19401647079039
 30
0.0
 11
478.8164718357632
 21
77.11371924078824
 31
0.0
  0
LINE
  5
BC
330
1F
100
AcDbEntity
  8
0_Pen_No__1
  6
Continuous
100
AcDbLine
 10
478.8164718357632
 20
77.11371924078824
 30
0.0
 11
475.9995930055597
 21
81.15134729078855
 31
0.0
  0
LINE
  5
BD
330
1F
100
AcDbEntity
  8
0_Pen_No__1
  6
Continuous
100
AcDbLine
 10
475.9995930055597
 20
81.15134729078855
 30
0.0
 11
474.0772754093336
 21
86.18421933528508
 31
0.0
  0
LINE
  5
BE
330
1F
100
AcDbEntity
  8
0_Pen_No__1
  6
Continuous
100
AcDbLine
 10
474.0772754093336
 20
86.18421933528508
 30
0.0
 11
473.1144653454337
 21
92.05941410328866
 31
0.0
  0
LINE
  5
BF
330
1F
100
AcDbEntity
  8
0_Pen_No__1
  6
Continuous
100
AcDbLine
 10
346.4482595503725
 20
108.5543640662581
 30
0.0
 11
346.448259550373
 21
73.12288896454677
 31
0.0
  0
LINE
  5
C0
330
1F
100
AcDbEntity
  8
0_Pen_No__1
  6
Continuous
100
AcDbLine
 10
346.448259550373
 20
73.12288896454677
 30
0.0
 11
358.4327381616121
 21
80.04213094707934
 31
0.0
  0
LINE
  5
C1
330
1F
100
AcDbEntity
  8
0_Pen_No__1
  6
Continuous
100
AcDbLine
 10
358.4327381616121
 20
80.04213094707934
 30
0.0
 11
358.4327381616121
 21
115.4736060487906
 31
0.0
  0
LINE
  5
C2
330
1F
100
AcDbEntity
  8
0_Pen_No__1
  6
Continuous
100
AcDbLine
 10
358.4327381616121
 20
115.4736060487906
 30
0.0
 11
346.4482595503725
 21
108.5543640662581
 31
0.0
  0
LINE
  5
C3
330
1F
100
AcDbEntity
  8
0_Pen_No__1
  6
Continuous
100
AcDbLine
 10
377.7093673501396
 20
64.55882771752353
 30
0.0
 11
446.9913995772059
 21
104.5588278486196
 31
0.0
  0
LINE
  5
C4
330
1F
100
AcDbEntity
  8
0_Pen_No__1
  6
Continuous
100
AcDbLine
 10
446.9913995772059
 20
104.5588278486196
 30
0.0
 11
446.9913995772059
 21
144.5588278486196
 31
0.0
  0
LINE
  5
C5
330
1F
100
AcDbEntity
  8
0_Pen_No__1
  6
Continuous
100
AcDbLine
 10
446.9913995772059
 20
144.5588278486196
 30
0.0
 11
377.7093673501396
 21
104.5588277175236
 31
0.0
  0
LINE
  5
C6
330
1F
100
AcDbEntity
  8
0_Pen_No__1
  6
Continuous
100
AcDbLine
 10
377.7093673501396
 20
104.5588277175236
 30
0.0
 11
377.7093673501396
 21
64.55882771752353
 31
0.0
  0
LINE
  5
C7
330
1F
100
AcDbEntity
  8
0_Pen_No__1
  6
Continuous
100
AcDbLine
 10
465.3711626926737
 20
195.9744793568168
 30
0.0
 11
465.3711626926746
 21
160.9433136116258
 31
0.0
  0
LINE
  5
C8
330
1F
100
AcDbEntity
  8
0_Pen_No__1
  6
Continuous
100
AcDbLine
 10
465.3711626926746
 20
160.9433136116258
 30
0.0
 11
477.3556413039134
 21
167.8625555941589
 31
0.0
  0
LINE
  5
C9
330
1F
100
AcDbEntity
  8
0_Pen_No__1
  6
Continuous
100
AcDbLine
 10
477.3556413039134
 20
167.8625555941589
 30
0.0
 11
477.3556413039134
 21
202.8937213393494
 31
0.0
  0
LINE
  5
CA
330
1F
100
AcDbEntity
  8
0_Pen_No__1
  6
Continuous
100
AcDbLine
 10
477.3556413039134
 20
202.8937213393494
 30
0.0
 11
465.3711626926737
 21
195.9744793568168
 31
0.0
  0
LINE
  5
CB
330
1F
100
AcDbEntity
  8
0_Pen_No__1
  6
Continuous
100
AcDbLine
 10
359.2331737244103
 20
93.18165896209108
 30
0.0
 11
359.2331737244107
 21
54.23749184590032
 31
0.0
  0
LINE
  5
CC
330
1F
100
AcDbEntity
  8
0_Pen_No__1
  6
Continuous
100
AcDbLine
 10
359.2331737244107
 20
54.23749184590032
 30
0.0
 11
376.5798462204201
 21
64.25259792478077
 31
0.0
  0
LINE
  5
CD
330
1F
100
AcDbEntity
  8
0_Pen_No__1
  6
Continuous
100
AcDbLine
 10
376.5798462204201
 20
64.25259792478077
 30
0.0
 11
376.5798462204201
 21
103.1967650409718
 31
0.0
  0
LINE
  5
CE
330
1F
100
AcDbEntity
  8
0_Pen_No__1
  6
Continuous
100
AcDbLine
 10
376.5798462204201
 20
103.1967650409718
 30
0.0
 11
359.2331737244103
 21
93.18165896209108
 31
0.0
  0
LINE
  5
CF
330
1F
100
AcDbEntity
  8
0_Pen_No__1
  6
Continuous
100
AcDbLine
 10
448.5699712462365
 20
145.2929412213793
 30
0.0
 11
448.5699712462369
 21
105.6685727959927
 31
0.0
  0
LINE
  5
D0
330
1F
100
AcDbEntity
  8
0_Pen_No__1
  6
Continuous
100
AcDbLine
 10
448.5699712462369
 20
105.6685727959927
 30
0.0
 11
465.9166437422459
 21
115.6836788748727
 31
0.0
  0
LINE
  5
D1
330
1F
100
AcDbEntity
  8
0_Pen_No__1
  6
Continuous
100
AcDbLine
 10
465.9166437422459
 20
115.6836788748727
 30
0.0
 11
465.9166437422459
 21
155.3080473002597
 31
0.0
  0
LINE
  5
D2
330
1F
100
AcDbEntity
  8
0_Pen_No__1
  6
Continuous
100
AcDbLine
 10
465.9166437422459
 20
155.3080473002597
 30
0.0
 11
448.5699712462365
 21
145.2929412213793
 31
0.0
  0
LINE
  5
D3
330
1F
100
AcDbEntity
  8
0_Pen_No__1
  6
Continuous
100
AcDbLine
 10
48.78463705803732
 20
274.7537984541382
 30
0.0
 11
36.66028145796035
 21
267.7537984540941
 31
0.0
  0
LINE
  5
D4
330
1F
100
AcDbEntity
  8
0_Pen_No__1
  6
Continuous
100
AcDbLine
 10
362.4422870217507
 20
400.8441278854266
 30
0.0
 11
54.84681485795745
 21
223.2537984541019
 31
0.0
  0
LINE
  5
D5
330
1F
100
AcDbEntity
  8
0_Pen_No__1
  6
Continuous
100
AcDbLine
 10
238.6734074008698
 20
295.7756532130878
 30
0.0
 11
54.84681485795745
 21
189.6433200604399
 31
0.0
  0
LINE
  5
D6
330
1F
100
AcDbEntity
  8
0_Pen_No__1
  6
Continuous
100
AcDbLine
 10
158.5739328743462
 20
121.9807484904651
 30
0.0
 11
338.9253634887718
 21
17.85480102147496
 31
0.0
  0
LINE
  5
D7
330
1F
100
AcDbEntity
  8
0_Pen_No__1
  6
Continuous
100
AcDbLine
 10
158.5739328743462
 20
91.98074849046733
 30
0.0
 11
338.9253634887718
 21
-12.14519897852262
 31
0.0
  0
LINE
  5
D8
330
1F
100
AcDbEntity
  8
0_Pen_No__1
  6
Continuous
100
AcDbLine
 10
158.5739328828263
 20
24.69858890430761
 30
0.0
 11
338.9253634887714
 21
-79.42735810476901
 31
0.0
  0
LINE
  5
D9
330
1F
100
AcDbEntity
  8
0_Pen_No__1
  6
Continuous
100
AcDbLine
 10
109.7225144467772
 20
91.98074849046733
 30
0.0
 11
54.84681485795745
 21
60.29824842244458
 31
0.0
  0
LINE
  5
DA
330
1F
100
AcDbEntity
  8
0_Pen_No__1
  6
Continuous
100
AcDbLine
 10
364.2548298237843
 20
368.280121571009
 30
0.0
 11
297.8503179380069
 21
329.9414585908142
 31
0.0
  0
LINE
  5
DB
330
1F
100
AcDbEntity
  8
0_Pen_No__1
  6
Continuous
100
AcDbLine
 10
108.9979168679202
 20
121.9807484904645
 30
0.0
 11
54.12221727910044
 21
90.2982484224415
 31
0.0
  0
LINE
  5
DC
330
1F
100
AcDbEntity
  8
0_Pen_No__1
  6
Continuous
100
AcDbLine
 10
47.36962322312527
 20
115.3996364094578
 30
0.0
 11
35.06965847910365
 21
108.2982484224417
 31
0.0
  0
LINE
  5
DD
330
1F
100
AcDbEntity
  8
0_Pen_No__1
  6
Continuous
100
AcDbLine
 10
109.7225144876356
 20
22.90296838450341
 30
0.0
 11
54.1222173494883
 21
-9.197878135229121
 31
0.0
  0
LINE
  5
DE
330
1F
100
AcDbEntity
  8
0_Pen_No__1
  6
Continuous
100
AcDbLine
 10
251.1473668231118
 20
505.3828158189815
 30
0.0
 11
285.788382936645
 21
525.3828158845297
 31
0.0
  0
LINE
  5
DF
330
1F
100
AcDbEntity
  8
0_Pen_No__1
  6
Continuous
100
AcDbLine
 10
207.846096681199
 20
570.3828160320204
 30
0.0
 11
285.788382936645
 21
525.3828158845297
 31
0.0
  0
LINE
  5
E0
330
1F
100
AcDbEntity
  8
0_Pen_No__1
  6
Continuous
100
AcDbLine
 10
207.846096681199
 20
570.3828160320204
 30
0.0
 11
173.2050805676665
 21
550.3828159664719
 31
0.0
  0
LINE
  5
E1
330
1F
100
AcDbEntity
  8
0_Pen_No__1
  6
Continuous
100
AcDbLine
 10
69.28203222706658
 20
490.3828157698276
 30
0.0
 11
103.9230483405999
 21
510.3828158353758
 31
0.0
  0
LINE
  5
E2
330
1F
100
AcDbEntity
  8
0_Pen_No__1
  6
Continuous
100
AcDbLine
 10
69.28203222706658
 20
490.3828157698276
 30
0.0
 11
147.2243184825119
 21
445.3828156223374
 31
0.0
  0
LINE
  5
E3
330
1F
100
AcDbEntity
  8
0_Pen_No__1
  6
Continuous
100
AcDbLine
 10
181.8653345960452
 20
465.3828156878854
 30
0.0
 11
216.5063507095785
 21
485.3828157534335
 31
0.0
  0
LINE
  5
E4
330
1F
100
AcDbEntity
  8
0_Pen_No__1
  6
Continuous
100
AcDbLine
 10
147.2243184825119
 20
445.3828156223374
 30
0.0
 11
181.8653345960452
 21
465.3828156878854
 31
0.0
  0
LINE
  5
E5
330
1F
100
AcDbEntity
  8
0_Pen_No__1
  6
Continuous
100
AcDbLine
 10
360.3888592933728
 20
97.9732090554728
 30
0.0
 11
464.3119076339727
 21
197.9732092521174
 31
0.0
  0
LINE
  5
E6
330
1F
100
AcDbEntity
  8
0_Pen_No__1
  6
Continuous
100
AcDbLine
 10
360.3888592933728
 20
117.9732090554728
 30
0.0
 11
464.3119076339727
 21
157.9732092521173
 31
0.0
  0
LINE
  5
E7
330
1F
100
AcDbEntity
  8
0_Pen_No__1
  6
Continuous
100
AcDbLine
 10
360.3888592933728
 20
97.9732090554728
 30
0.0
 11
464.3119076339727
 21
157.9732092521173
 31
0.0
  0
LINE
  5
E8
330
1F
100
AcDbEntity
  8
0_Pen_No__1
  6
Continuous
100
AcDbLine
 10
103.9230483405999
 20
510.3828158353758
 30
0.0
 11
181.8653345960452
 21
465.3828156878854
 31
0.0
  0
LINE
  5
E9
330
1F
100
AcDbEntity
  8
0_Pen_No__1
  6
Continuous
100
AcDbLine
 10
360.3888592933728
 20
117.9732090554728
 30
0.0
 11
360.3888592933728
 21
97.9732090554728
 31
0.0
  0
LINE
  5
EA
330
1F
100
AcDbEntity
  8
0_Pen_No__1
  6
Continuous
100
AcDbLine
 10
173.2050805676665
 20
550.3828159664719
 30
0.0
 11
173.2050805676665
 21
510.3828158353718
 31
0.0
  0
LINE
  5
EB
330
1F
100
AcDbEntity
  8
0_Pen_No__1
  6
Continuous
100
AcDbLine
 10
69.28203222706658
 20
450.3828156387273
 30
0.0
 11
69.28203222706658
 21
490.3828157698276
 31
0.0
  0
LINE
  5
EC
330
1F
100
AcDbEntity
  8
0_Pen_No__1
  6
Continuous
100
AcDbLine
 10
34.64101611353326
 20
470.3828157042798
 30
0.0
 11
77.94228625544525
 21
405.3828154912409
 31
0.0
  0
LINE
  5
ED
330
1F
100
AcDbEntity
  8
0_Pen_No__1
  6
Continuous
100
AcDbLine
 10
-0.0000000000000555
 20
450.3828156387313
 30
0.0
 11
112.5833023689786
 21
425.3828155567889
 31
0.0
  0
LINE
  5
EE
330
1F
100
AcDbEntity
  8
0_Pen_No__1
  6
Continuous
100
AcDbLine
 10
138.5640644541332
 20
530.3828159009238
 30
0.0
 11
181.8653345960452
 21
465.3828156878854
 31
0.0
  0
LINE
  5
EF
330
1F
100
AcDbEntity
  8
0_Pen_No__1
  6
Continuous
100
AcDbLine
 10
103.9230483405999
 20
510.3828158353758
 30
0.0
 11
216.5063507095785
 21
485.3828157534335
 31
0.0
  0
LINE
  5
F0
330
1F
100
AcDbEntity
  8
0_Pen_No__1
  6
Continuous
100
AcDbLine
 10
103.9230483405999
 20
510.3828158353758
 30
0.0
 11
147.2243184825119
 21
445.3828156223374
 31
0.0
  0
LINE
  5
F1
330
1F
100
AcDbEntity
  8
0_Pen_No__1
  6
Continuous
100
AcDbLine
 10
69.28203222706658
 20
490.3828157698276
 30
0.0
 11
181.8653345960452
 21
465.3828156878854
 31
0.0
  0
LINE
  5
F2
330
1F
100
AcDbEntity
  8
0_Pen_No__1
  6
Continuous
100
AcDbLine
 10
207.846096681199
 20
570.3828160320204
 30
0.0
 11
251.1473668231118
 21
505.3828158189815
 31
0.0
  0
LINE
  5
F3
330
1F
100
AcDbEntity
  8
0_Pen_No__1
  6
Continuous
100
AcDbLine
 10
173.2050805676665
 20
550.3828159664719
 30
0.0
 11
285.788382936645
 21
525.3828158845297
 31
0.0
  0
LINE
  5
F4
330
1F
100
AcDbEntity
  8
0_Pen_No__1
  6
Continuous
100
AcDbLine
 10
112.5833023689786
 20
-25.00000008194236
 30
0.0
 11
77.94228625544525
 21
-45.0000001474904
 31
0.0
  0
LINE
  5
F5
330
1F
100
AcDbEntity
  8
0_Pen_No__1
  6
Continuous
100
AcDbLine
 10
-0.0000000000000555
 20
0.0
 30
0.0
 11
-0.0000000000000555
 21
129.3205067461207
 31
0.0
  0
LINE
  5
F6
330
1F
100
AcDbEntity
  8
0_Pen_No__1
  6
Continuous
100
AcDbLine
 10
-0.0000000000000555
 20
315.4578226800193
 30
0.0
 11
-0.0000000000000555
 21
450.3828156387313
 31
0.0
  0
LINE
  5
F7
330
1F
100
AcDbEntity
  8
0_Pen_No__1
  6
Continuous
100
AcDbLine
 10
216.5063507095785
 20
452.3991024295533
 30
0.0
 11
216.5063507095785
 21
485.3828157534335
 31
0.0
  0
LINE
  5
F8
330
1F
100
AcDbEntity
  8
0_Pen_No__1
  6
Continuous
100
AcDbLine
 10
77.94228625544525
 20
381.5549723292129
 30
0.0
 11
77.94228625544525
 21
405.3828154912409
 31
0.0
  0
LINE
  5
F9
330
1F
100
AcDbEntity
  8
0_Pen_No__1
  6
Continuous
100
AcDbLine
 10
112.5833023689786
 20
397.938889039682
 30
0.0
 11
112.5833023689786
 21
425.3828155567889
 31
0.0
  0
LINE
  5
FA
330
1F
100
AcDbEntity
  8
0_Pen_No__1
  6
Continuous
100
AcDbLine
 10
147.2243184825119
 20
417.5879664749389
 30
0.0
 11
147.2243184825119
 21
445.3828156223374
 31
0.0
  0
LINE
  5
FB
330
1F
100
AcDbEntity
  8
0_Pen_No__1
  6
Continuous
100
AcDbLine
 10
181.8653345960452
 20
440.3819043898729
 30
0.0
 11
181.8653345960452
 21
465.3828156878854
 31
0.0
  0
LINE
  5
FC
330
1F
100
AcDbEntity
  8
0_Pen_No__1
  6
Continuous
100
AcDbLine
 10
112.5833023689786
 20
-25.00000008194236
 30
0.0
 11
112.5833023689786
 21
-21.33656380616689
 31
0.0
  0
LINE
  5
FD
330
1F
100
AcDbEntity
  8
0_Pen_No__1
  6
Continuous
100
AcDbLine
 10
88.07277179397704
 20
-35.487725293464
 30
0.0
 11
72.4843145428879
 21
-26.48772526396614
 31
0.0
  0
LINE
  5
FE
330
1F
100
AcDbEntity
  8
0_Pen_No__1
  6
Continuous
100
AcDbLine
 10
77.94228625544525
 20
-45.0000001474904
 30
0.0
 11
77.94228625544525
 21
-29.63888671521131
 31
0.0
  0
LINE
  5
FF
330
1F
100
AcDbEntity
  8
0_Pen_No__1
  6
Continuous
100
AcDbLine
 10
356.3963177631943
 20
120.278304058296
 30
0.0
 11
360.3888593614945
 21
117.973209081693
 31
0.0
  0
LINE
  5
100
330
1F
100
AcDbEntity
  8
0_Pen_No__1
  6
Continuous
100
AcDbLine
 10
173.2050805676665
 20
550.3828159664719
 30
0.0
 11
251.1473668231118
 21
505.3828158189815
 31
0.0
  0
LINE
  5
101
330
1F
100
AcDbEntity
  8
0_Pen_No__1
  6
Continuous
100
AcDbLine
 10
34.64101611353326
 20
470.3828157042798
 30
0.0
 11
112.5833023689786
 21
425.3828155567889
 31
0.0
  0
LINE
  5
102
330
1F
100
AcDbEntity
  8
0_Pen_No__1
  6
Continuous
100
AcDbLine
 10
-0.0000000000000555
 20
450.3828156387313
 30
0.0
 11
34.64101611353326
 21
470.3828157042798
 31
0.0
  0
LINE
  5
103
330
1F
100
AcDbEntity
  8
0_Pen_No__1
  6
Continuous
100
AcDbLine
 10
-0.0000000000000555
 20
450.3828156387313
 30
0.0
 11
77.94228625544525
 21
405.3828154912409
 31
0.0
  0
LINE
  5
104
330
1F
100
AcDbEntity
  8
0_Pen_No__1
  6
Continuous
100
AcDbLine
 10
77.94228625544525
 20
405.3828154912409
 30
0.0
 11
112.5833023689786
 21
425.3828155567889
 31
0.0
  0
LINE
  5
105
330
1F
100
AcDbEntity
  8
0_Pen_No__1
  6
Continuous
100
AcDbLine
 10
464.3119076339727
 20
197.9732092521174
 30
0.0
 11
360.3888592933728
 21
117.9732090554728
 31
0.0
  0
LINE
  5
106
330
1F
100
AcDbEntity
  8
0_Pen_No__1
  6
Continuous
100
AcDbLine
 10
138.5640644541332
 20
530.3828159009238
 30
0.0
 11
103.9230483405999
 21
510.3828158353758
 31
0.0
  0
LINE
  5
107
330
1F
100
AcDbEntity
  8
0_Pen_No__1
  6
Continuous
100
AcDbLine
 10
138.5640644541332
 20
530.3828159009238
 30
0.0
 11
216.5063507095785
 21
485.3828157534335
 31
0.0
  0
LINE
  5
109
330
1F
100
AcDbEntity
  8
0_Pen_No__1
  6
Above
100
AcDbLine
 10
174.6735271563295
 20
165.1960065260085
 30
0.0
 11
174.6735271563295
 21
165.5873790692686
 31
0.0
  0
LINE
  5
10A
330
1F
100
AcDbEntity
  8
0_Pen_No__1
  6
Continuous
100
AcDbLine
 10
88.07277179397704
 20
-35.487725293464
 30
0.0
 11
88.07277179397704
 21
10.4034836124335
 31
0.0
  0
LINE
  5
10B
330
1F
100
AcDbEntity
  8
0_Pen_No__1
  6
Continuous
100
AcDbLine
 10
72.4843145428879
 20
-26.48772526396614
 30
0.0
 11
72.4843145428879
 21
1.403483622266208
 31
0.0
  0
LINE
  5
10D
330
1F
100
AcDbEntity
  8
0_Pen_No__1
  6
DASHED2
100
AcDbLine
 10
152.811651669924
 20
180.3283424612754
 30
0.0
 11
109.5103815280076
 21
155.328342379341
 31
0.0
  0
LINE
  5
10E
330
1F
100
AcDbEntity
  8
0_Pen_No__1
  6
DASHED2
100
AcDbLine
 10
109.5103815280076
 20
155.328342379341
 30
0.0
 11
109.5103815280076
 21
269.2756963105374
 31
0.0
  0
LINE
  5
10F
330
1F
100
AcDbEntity
  8
0_Pen_No__1
  6
DASHED2
100
AcDbLine
 10
318.4192549664259
 20
389.8892911533745
 30
0.0
 11
109.5103815280076
 21
269.2756963105374
 31
0.0
  0
LINE
  5
110
330
1F
100
AcDbEntity
  8
0_Pen_No__1
  6
DASHED2
100
AcDbLine
 10
318.419254966427
 20
286.0837912898673
 30
0.0
 11
275.1179848245095
 21
261.0837912079329
 31
0.0
  0
LINE
  5
111
330
1F
100
AcDbEntity
  8
0_Pen_No__1
  6
DASHED2
100
AcDbLine
 10
318.4192549664259
 20
389.8892911533745
 30
0.0
 11
318.419254966427
 21
286.0837912898673
 31
0.0
  0
LINE
  5
112
330
1F
100
AcDbEntity
  8
0_Pen_No__1
  6
Continuous
100
AcDbLine
 10
48.78463705795427
 20
303.5770138798919
 30
0.0
 11
67.65609348092866
 21
331.2696489279896
 31
0.0
  0
LINE
  5
113
330
1F
100
AcDbEntity
  8
0_Pen_No__1
  6
Continuous
100
AcDbLine
 10
67.65609348092866
 20
331.2696489279896
 30
0.0
 11
102.4494041823844
 21
351.8616083227288
 31
0.0
  0
LINE
  5
114
330
1F
100
AcDbEntity
  8
0_Pen_No__1
  6
Continuous
100
AcDbLine
 10
102.4494041823844
 20
351.8616083227288
 30
0.0
 11
143.6333229718633
 21
353.2817434534003
 31
0.0
  0
LINE
  5
115
330
1F
100
AcDbEntity
  8
0_Pen_No__1
  6
Continuous
100
AcDbLine
 10
143.6333229718633
 20
353.2817434534003
 30
0.0
 11
200.4387281987303
 21
373.8737028481401
 31
0.0
  0
LINE
  5
116
330
1F
100
AcDbEntity
  8
0_Pen_No__1
  6
Continuous
100
AcDbLine
 10
200.4387281987303
 20
373.8737028481401
 30
0.0
 11
243.752849684216
 21
398.0160000695585
 31
0.0
  0
LINE
  5
117
330
1F
100
AcDbEntity
  8
0_Pen_No__1
  6
Continuous
100
AcDbLine
 10
243.752849684216
 20
398.0160000695585
 30
0.0
 11
287.7770387350382
 21
417.1878243336262
 31
0.0
  0
LINE
  5
118
330
1F
100
AcDbEntity
  8
0_Pen_No__1
  6
Continuous
100
AcDbLine
 10
287.7770387350382
 20
417.1878243336262
 30
0.0
 11
305.5287278684339
 21
419.3180270296335
 31
0.0
  0
LINE
  5
119
330
1F
100
AcDbEntity
  8
0_Pen_No__1
  6
Continuous
100
AcDbLine
 10
305.5287278684339
 20
419.3180270296335
 30
0.0
 11
328.9609575245166
 21
429.9690405096712
 31
0.0
  0
LINE
  5
11A
330
1F
100
AcDbEntity
  8
0_Pen_No__1
  6
Continuous
100
AcDbLine
 10
54.84681485795745
 20
300.077013879889
 30
0.0
 11
73.71827128093229
 21
327.7696489279867
 31
0.0
  0
LINE
  5
11B
330
1F
100
AcDbEntity
  8
0_Pen_No__1
  6
Continuous
100
AcDbLine
 10
73.71827128093229
 20
327.7696489279867
 30
0.0
 11
108.511581982388
 21
348.3616083227263
 31
0.0
  0
LINE
  5
11C
330
1F
100
AcDbEntity
  8
0_Pen_No__1
  6
Continuous
100
AcDbLine
 10
108.511581982388
 20
348.3616083227263
 30
0.0
 11
149.6955007718669
 21
349.7817434533978
 31
0.0
  0
LINE
  5
11D
330
1F
100
AcDbEntity
  8
0_Pen_No__1
  6
Continuous
100
AcDbLine
 10
149.6955007718669
 20
349.7817434533978
 30
0.0
 11
206.5009059987339
 21
370.3737028481371
 31
0.0
  0
LINE
  5
11E
330
1F
100
AcDbEntity
  8
0_Pen_No__1
  6
Continuous
100
AcDbLine
 10
206.5009059987339
 20
370.3737028481371
 30
0.0
 11
249.8150274842199
 21
394.5160000695556
 31
0.0
  0
LINE
  5
11F
330
1F
100
AcDbEntity
  8
0_Pen_No__1
  6
Continuous
100
AcDbLine
 10
249.8150274842199
 20
394.5160000695556
 30
0.0
 11
293.8392165350416
 21
413.6878243336233
 31
0.0
  0
LINE
  5
120
330
1F
100
AcDbEntity
  8
0_Pen_No__1
  6
Continuous
100
AcDbLine
 10
293.8392165350416
 20
413.6878243336233
 30
0.0
 11
311.5909056684375
 21
415.818027029631
 31
0.0
  0
LINE
  5
121
330
1F
100
AcDbEntity
  8
0_Pen_No__1
  6
Continuous
100
AcDbLine
 10
311.5909056684375
 20
415.818027029631
 30
0.0
 11
335.0231353245198
 21
426.4690405096683
 31
0.0
  0
LINE
  5
122
330
1F
100
AcDbEntity
  8
0_Pen_No__1
  6
Continuous
100
AcDbLine
 10
328.9609575245166
 20
429.9690405096712
 30
0.0
 11
335.0231353245198
 21
426.4690405096683
 31
0.0
  0
LINE
  5
123
330
1F
100
AcDbEntity
  8
0_Pen_No__1
  6
Continuous
100
AcDbLine
 10
335.0231353245198
 20
426.4690405096683
 30
0.0
 11
345.8262498178583
 21
416.2216839179649
 31
0.0
  0
LINE
  5
124
330
1F
100
AcDbEntity
  8
0_Pen_No__1
  6
Continuous
100
AcDbLine
 10
345.8262498178583
 20
416.2216839179649
 30
0.0
 11
362.4422870217507
 21
400.8441278854266
 31
0.0
  0
LINE
  5
125
330
1F
100
AcDbEntity
  8
0_Pen_No__1
  6
Continuous
100
AcDbLine
 10
355.12137087918
 20
396.6173949613285
 30
0.0
 11
355.7567857914019
 21
384.7179146225865
 31
0.0
  0
LINE
  5
126
330
1F
100
AcDbEntity
  8
0_Pen_No__1
  6
Continuous
100
AcDbLine
 10
355.7567857914019
 20
384.7179146225865
 30
0.0
 11
360.8932699156481
 21
374.1025140991441
 31
0.0
  0
LINE
  5
127
330
1F
100
AcDbEntity
  8
0_Pen_No__1
  6
Continuous
100
AcDbLine
 10
360.8932699156481
 20
374.1025140991441
 30
0.0
 11
364.2548298237843
 21
368.280121571009
 31
0.0
  0
LINE
  5
128
330
1F
100
AcDbEntity
  8
0_Pen_No__1
  6
Continuous
100
AcDbLine
 10
364.2548298237843
 20
368.280121571009
 30
0.0
 11
361.9128301512828
 21
340.6801978063932
 31
0.0
  0
LINE
  5
129
330
1F
100
AcDbEntity
  8
0_Pen_No__1
  6
Continuous
100
AcDbLine
 10
361.9128301512828
 20
340.6801978063932
 30
0.0
 11
360.8932699156481
 21
319.6557823821313
 31
0.0
  0
LINE
  5
12A
330
1F
100
AcDbEntity
  8
0_Pen_No__1
  6
Continuous
100
AcDbLine
 10
360.8932699156481
 20
319.6557823821313
 30
0.0
 11
359.8659730907989
 21
303.2190331845426
 31
0.0
  0
LINE
  5
12B
330
1F
100
AcDbEntity
  8
0_Pen_No__1
  6
Continuous
100
AcDbLine
 10
359.8659730907989
 20
303.2190331845426
 30
0.0
 11
357.2604281985591
 21
280.0066597724042
 31
0.0
  0
LINE
  5
12C
330
1F
100
AcDbEntity
  8
0_Pen_No__1
  6
Continuous
100
AcDbLine
 10
158.5739328743466
 20
1.610709079708394
 30
0.0
 11
156.84188206867
 21
0.6107090764306822
 31
0.0
  0
LINE
  5
12D
330
1F
100
AcDbEntity
  8
0_Pen_No__1
  6
Continuous
100
AcDbLine
 10
122.7128954467726
 20
206.6441847547409
 30
0.0
 11
124.4449462524492
 21
205.8437270203826
 31
0.0
  0
LINE
  5
12E
330
1F
100
AcDbEntity
  8
0_Pen_No__1
  6
Continuous
100
AcDbLine
 10
103.6031531856149
 20
-26.52125537720185
 30
0.0
 11
105.3341442521049
 21
-20.36662020598579
 31
0.0
  0
LINE
  5
12F
330
1F
100
AcDbEntity
  8
0_Pen_No__1
  6
Continuous
100
AcDbLine
 10
105.3341442521049
 20
-20.36662020598579
 30
0.0
 11
105.3341442521049
 21
-31.69574282388199
 31
0.0
  0
LINE
  5
130
330
1F
100
AcDbEntity
  8
0_Pen_No__1
  6
Continuous
100
AcDbLine
 10
105.3341442521049
 20
-31.69574282388199
 30
0.0
 11
107.088104546936
 21
-24.50921776183801
 31
0.0
  0
LINE
  5
131
330
1F
100
AcDbEntity
  8
0_Pen_No__1
  6
Continuous
100
AcDbLine
 10
88.07277179397704
 20
-35.487725293464
 30
0.0
 11
103.6031531856154
 21
-26.52125537720185
 31
0.0
  0
LINE
  5
132
330
1F
100
AcDbEntity
  8
0_Pen_No__1
  6
Continuous
100
AcDbLine
 10
107.0881045469356
 20
-24.50921776183801
 30
0.0
 11
122.7137879075108
 21
-15.48772522791575
 31
0.0
  0
LINE
  5
133
330
1F
100
AcDbEntity
  8
0_Pen_No__1
  6
Continuous
100
AcDbLine
 10
30.84052556015931
 20
-17.80578581192049
 30
0.0
 11
31.69484723578181
 21
-13.9365776390723
 31
0.0
  0
LINE
  5
134
330
1F
100
AcDbEntity
  8
0_Pen_No__1
  6
Continuous
100
AcDbLine
 10
31.69484723578181
 20
-13.9365776390723
 30
0.0
 11
31.69484723578181
 21
-23.12235273466356
 31
0.0
  0
LINE
  5
135
330
1F
100
AcDbEntity
  8
0_Pen_No__1
  6
Continuous
100
AcDbLine
 10
31.69484723578181
 20
-23.12235273466356
 30
0.0
 11
32.84579192855603
 21
-18.96352689457115
 31
0.0
  0
LINE
  5
136
330
1F
100
AcDbEntity
  8
0_Pen_No__1
  6
Continuous
100
AcDbLine
 10
32.84579192855603
 20
-18.96352689457048
 30
0.0
 11
77.94228625544525
 21
-45.0000001474904
 31
0.0
  0
LINE
  5
137
330
1F
100
AcDbEntity
  8
0_Pen_No__1
  6
Continuous
100
AcDbLine
 10
-0.0000000000000555
 20
0.0
 30
0.0
 11
30.84052556015931
 21
-17.80578581192049
 31
0.0
  0
LINE
  5
138
330
1F
100
AcDbEntity
  8
0_Pen_No__1
  6
Continuous
100
AcDbLine
 10
88.0727717939766
 20
349.7942345651246
 30
0.0
 11
72.4843145428879
 21
358.7942345946227
 31
0.0
  0
LINE
  5
139
330
1F
100
AcDbEntity
  8
0_Pen_No__1
  6
Continuous
100
AcDbLine
 10
282.4013927603754
 20
479.989916740599
 30
0.0
 11
247.7603766468418
 21
459.9899166750509
 31
0.0
  0
LINE
  5
13A
330
1F
100
AcDbEntity
  8
0_Pen_No__1
  6
Continuous
100
AcDbLine
 10
282.4013927603754
 20
479.989916740599
 30
0.0
 11
263.3488338979305
 21
450.9899166455529
 31
0.0
  0
LINE
  5
13B
330
1F
100
AcDbEntity
  8
0_Pen_No__1
  6
Continuous
100
AcDbLine
 10
247.7603766468418
 20
459.9899166750509
 30
0.0
 11
297.9898500114639
 21
470.9899167111009
 31
0.0
  0
LINE
  5
13C
330
1F
100
AcDbEntity
  8
0_Pen_No__1
  6
Continuous
100
AcDbLine
 10
107.1253306564212
 20
378.7942346601707
 30
0.0
 11
88.0727717939766
 21
349.7942345651246
 31
0.0
  0
LINE
  5
13D
330
1F
100
AcDbEntity
  8
0_Pen_No__1
  6
Continuous
100
AcDbLine
 10
72.4843145428879
 20
358.7942345946227
 30
0.0
 11
122.7137879075099
 21
369.7942346306726
 31
0.0
  0
LINE
  5
13E
330
1F
100
AcDbEntity
  8
0_Pen_No__1
  6
Continuous
100
AcDbLine
 10
307.9061589529115
 20
420.3986775225779
 30
0.0
 11
297.9898500114639
 21
424.1096923684096
 31
0.0
  0
LINE
  5
13F
330
1F
100
AcDbEntity
  8
0_Pen_No__1
  6
Continuous
100
AcDbLine
 10
107.1253306564212
 20
378.7942346601707
 30
0.0
 11
72.4843145428879
 21
358.7942345946227
 31
0.0
  0
LINE
  5
140
330
1F
100
AcDbEntity
  8
0_Pen_No__1
  6
Continuous
100
AcDbLine
 10
88.0727717939766
 20
349.7942345651246
 30
0.0
 11
122.7137879075099
 21
369.7942346306726
 31
0.0
  0
LINE
  5
141
330
1F
100
AcDbEntity
  8
0_Pen_No__1
  6
Continuous
100
AcDbLine
 10
122.7137879075099
 20
369.7942346306726
 30
0.0
 11
107.1253306564212
 21
378.7942346601707
 31
0.0
  0
LINE
  5
142
330
1F
100
AcDbEntity
  8
0_Pen_No__1
  6
Continuous
100
AcDbLine
 10
297.9898500114639
 20
470.9899167111009
 30
0.0
 11
282.4013927603754
 21
479.989916740599
 31
0.0
  0
LINE
  5
143
330
1F
100
AcDbEntity
  8
0_Pen_No__1
  6
Continuous
100
AcDbLine
 10
263.3488338979305
 20
450.9899166455529
 30
0.0
 11
297.9898500114639
 21
470.9899167111009
 31
0.0
  0
LINE
  5
144
330
1F
100
AcDbEntity
  8
0_Pen_No__1
  6
Continuous
100
AcDbLine
 10
247.7603766468418
 20
399.7612134242499
 30
0.0
 11
247.7603766468418
 21
459.9899166750509
 31
0.0
  0
LINE
  5
145
330
1F
100
AcDbEntity
  8
0_Pen_No__1
  6
Continuous
100
AcDbLine
 10
263.3488338979305
 20
406.5497351303698
 30
0.0
 11
263.3488338979305
 21
450.9899166455529
 31
0.0
  0
LINE
  5
146
330
1F
100
AcDbEntity
  8
0_Pen_No__1
  6
Continuous
100
AcDbLine
 10
297.9898500114639
 20
418.4133616867973
 30
0.0
 11
297.9898500114639
 21
470.9899167111009
 31
0.0
  0
LINE
  5
147
330
1F
100
AcDbEntity
  8
0_Pen_No__1
  6
Continuous
100
AcDbLine
 10
72.4843145428879
 20
334.1271675156794
 30
0.0
 11
72.4843145428879
 21
358.7942345946227
 31
0.0
  0
LINE
  5
148
330
1F
100
AcDbEntity
  8
0_Pen_No__1
  6
Continuous
100
AcDbLine
 10
122.7137879075099
 20
352.5603801753194
 30
0.0
 11
122.7137879075099
 21
369.7942346306726
 31
0.0
  0
LINE
  5
149
330
1F
100
AcDbEntity
  8
0_Pen_No__1
  6
Continuous
100
AcDbLine
 10
88.0727717939766
 20
343.3529891540792
 30
0.0
 11
88.0727717939766
 21
349.7942345651246
 31
0.0
  0
LINE
  5
14A
330
1F
100
AcDbEntity
  8
0_Pen_No__1
  6
Continuous
100
AcDbLine
 10
263.3488338979305
 20
450.9899166455529
 30
0.0
 11
247.7603766468418
 21
459.9899166750509
 31
0.0
  0
LINE
  5
14B
330
1F
100
AcDbEntity
  8
0_Pen_No__1
  6
Continuous
100
AcDbLine
 10
285.788382936645
 20
478.0344370420411
 30
0.0
 11
285.788382936645
 21
525.3828158845297
 31
0.0
  0
LINE
  5
14C
330
1F
100
AcDbEntity
  8
0_Pen_No__1
  6
Continuous
100
AcDbLine
 10
251.1473668231118
 20
461.945396373608
 30
0.0
 11
251.1473668231118
 21
505.3828158189815
 31
0.0
  0
LINE
  5
14D
330
1F
100
AcDbEntity
  8
0_Pen_No__1
  6
Continuous
100
AcDbLine
 10
109.7225144467776
 20
-0.1849113159124727
 30
0.0
 11
109.7225144467772
 21
199.1441847547437
 31
0.0
  0
LINE
  5
14E
330
1F
100
AcDbEntity
  8
0_Pen_No__1
  6
Continuous
100
AcDbLine
 10
333.8097706445128
 20
51.14073241714024
 30
0.0
 11
141.5344064921235
 21
162.1509661541805
 31
0.0
  0
LINE
  5
14F
330
1F
100
AcDbEntity
  8
0_Pen_No__1
  6
Continuous
100
AcDbLine
 10
336.2733806226232
 20
57.28765976177574
 30
0.0
 11
143.9980164702339
 21
168.2978934988155
 31
0.0
  0
LINE
  5
150
330
1F
100
AcDbEntity
  8
0_Pen_No__1
  6
Continuous
100
AcDbLine
 10
143.9980164702339
 20
218.2978934988156
 30
0.0
 11
336.2733806226232
 21
107.2876597617756
 31
0.0
  0
LINE
  5
151
330
1F
100
AcDbEntity
  8
0_Pen_No__1
  6
Continuous
100
AcDbLine
 10
98.36112835001248
 20
113.234011436466
 30
0.0
 11
97.91235933653559
 21
115.162152228599
 31
0.0
  0
LINE
  5
152
330
1F
100
AcDbEntity
  8
0_Pen_No__1
  6
Continuous
100
AcDbLine
 10
169.935318971111
 20
113.2340114364665
 30
0.0
 11
170.3840879845879
 21
115.1621522285995
 31
0.0
  0
LINE
  5
153
330
1F
100
AcDbEntity
  8
0_Pen_No__1
  6
Continuous
100
AcDbLine
 10
158.5739328743462
 20
91.98074849046733
 30
0.0
 11
161.7928797261192
 21
96.16779588996872
 31
0.0
  0
LINE
  5
154
330
1F
100
AcDbEntity
  8
0_Pen_No__1
  6
Continuous
100
AcDbLine
 10
161.7928797261192
 20
96.16779588996872
 30
0.0
 11
165.1193233689061
 21
101.6391717649656
 31
0.0
  0
LINE
  5
155
330
1F
100
AcDbEntity
  8
0_Pen_No__1
  6
Continuous
100
AcDbLine
 10
165.1193233689061
 20
101.6391717649656
 30
0.0
 11
167.8612403707013
 21
107.3861162809682
 31
0.0
  0
LINE
  5
156
330
1F
100
AcDbEntity
  8
0_Pen_No__1
  6
Continuous
100
AcDbLine
 10
167.8612403707013
 20
107.3861162809682
 30
0.0
 11
169.935318971111
 21
113.2340114364665
 31
0.0
  0
LINE
  5
157
330
1F
100
AcDbEntity
  8
0_Pen_No__1
  6
Continuous
100
AcDbLine
 10
109.7225144467772
 20
91.9807484904669
 30
0.0
 11
106.5035675950043
 21
96.16779588996826
 31
0.0
  0
LINE
  5
158
330
1F
100
AcDbEntity
  8
0_Pen_No__1
  6
Continuous
100
AcDbLine
 10
106.5035675950043
 20
96.16779588996826
 30
0.0
 11
103.1771239522174
 21
101.6391717649652
 31
0.0
  0
LINE
  5
159
330
1F
100
AcDbEntity
  8
0_Pen_No__1
  6
Continuous
100
AcDbLine
 10
103.1771239522174
 20
101.6391717649652
 30
0.0
 11
100.4352069504221
 21
107.3861162809677
 31
0.0
  0
LINE
  5
15A
330
1F
100
AcDbEntity
  8
0_Pen_No__1
  6
Continuous
100
AcDbLine
 10
100.4352069504221
 20
107.3861162809677
 30
0.0
 11
98.36112835001248
 21
113.234011436466
 31
0.0
  0
LINE
  5
15B
330
1F
100
AcDbEntity
  8
0_Pen_No__1
  6
Continuous
100
AcDbLine
 10
135.7032765319274
 20
214.1441848039047
 30
0.0
 11
109.7234069075145
 21
199.1447000171933
 31
0.0
  0
LINE
  5
15C
330
1F
100
AcDbEntity
  8
0_Pen_No__1
  6
DASHED2
100
AcDbLine
 10
158.5739328743462
 20
152.3131909675479
 30
0.0
 11
158.5739328743462
 21
200.9398051503621
 31
0.0
  0
LINE
  5
15D
330
1F
100
AcDbEntity
  8
0_Pen_No__1
  6
Continuous
100
AcDbLine
 10
143.9980164702339
 20
209.3552144467374
 30
0.0
 11
135.7032765319274
 21
214.1441848039047
 31
0.0
  0
LINE
  5
15E
330
1F
100
AcDbEntity
  8
0_Pen_No__1
  6
DASHED2
100
AcDbLine
 10
158.5739328743462
 20
200.9398051503617
 30
0.0
 11
143.9980164702339
 21
209.3552144467374
 31
0.0
  0
LINE
  5
15F
330
1F
100
AcDbEntity
  8
0_Pen_No__1
  6
Continuous
100
AcDbLine
 10
158.5739328743466
 20
1.61070907970795
 30
0.0
 11
158.5739328743462
 21
152.3131909675479
 31
0.0
  0
LINE
  5
160
330
1F
100
AcDbEntity
  8
0_Pen_No__1
  6
Continuous
100
AcDbLine
 10
135.7032765319278
 20
12.81508872669401
 30
0.0
 11
111.4545652524542
 21
-1.184911319189963
 31
0.0
  0
LINE
  5
161
330
1F
100
AcDbEntity
  8
0_Pen_No__1
  6
Continuous
100
AcDbLine
 10
156.84188206867
 20
0.6107090764306822
 30
0.0
 11
135.7032765319278
 21
12.81508872669357
 31
0.0
  0
LINE
  5
162
330
1F
100
AcDbEntity
  8
0_Pen_No__1
  6
Continuous
100
AcDbLine
 10
143.9980164702339
 20
207.5547567091014
 30
0.0
 11
135.7032765319274
 21
212.3437270662689
 31
0.0
  0
LINE
  5
163
330
1F
100
AcDbEntity
  8
0_Pen_No__1
  6
Continuous
100
AcDbLine
 10
111.4545652524542
 20
-1.184911319189963
 30
0.0
 11
111.4545652524538
 21
198.3437270203854
 31
0.0
  0
LINE
  5
164
330
1F
100
AcDbEntity
  8
0_Pen_No__1
  6
Continuous
100
AcDbLine
 10
135.7032765319274
 20
212.3437270662689
 30
0.0
 11
111.4545652524538
 21
198.3437270203854
 31
0.0
  0
LINE
  5
165
330
1F
100
AcDbEntity
  8
0_Pen_No__1
  6
Continuous
100
AcDbLine
 10
135.7032765319278
 20
12.81508872669401
 30
0.0
 11
135.7032765319274
 21
212.3437270662689
 31
0.0
  0
LINE
  5
166
330
1F
100
AcDbEntity
  8
0_Pen_No__1
  6
Continuous
100
AcDbLine
 10
336.2733806226232
 20
107.2876597617756
 30
0.0
 11
336.2733806226232
 21
57.28765976177574
 31
0.0
  0
LINE
  5
167
330
1F
100
AcDbEntity
  8
0_Pen_No__1
  6
Continuous
100
AcDbLine
 10
336.2733806226232
 20
57.28765976177574
 30
0.0
 11
333.8097706445128
 21
51.14073241714024
 31
0.0
  0
LINE
  5
168
330
1F
100
AcDbEntity
  8
0_Pen_No__1
  6
Continuous
100
AcDbLine
 10
143.9980164702339
 20
168.2978934988155
 30
0.0
 11
141.5344064921235
 21
162.1509661541805
 31
0.0
  0
LINE
  5
169
330
1F
100
AcDbEntity
  8
0_Pen_No__1
  6
Continuous
100
AcDbLine
 10
143.9980164702339
 20
218.2978934988156
 30
0.0
 11
143.9980164702339
 21
168.2978934988155
 31
0.0
  0
LINE
  5
16A
330
1F
100
AcDbEntity
  8
0_Pen_No__1
  6
Continuous
100
AcDbLine
 10
338.9253634887714
 20
105.3956291258873
 30
0.0
 11
336.2733806226232
 21
106.9267521542356
 31
0.0
  0
LINE
  5
16B
330
1F
100
AcDbEntity
  8
0_Pen_No__1
  6
Continuous
100
AcDbLine
 10
344.9875412887706
 20
108.8956291258867
 30
0.0
 11
341.2016286062013
 21
111.0814268418483
 31
0.0
  0
LINE
  5
16C
330
1F
100
AcDbEntity
  8
0_Pen_No__1
  6
Continuous
100
AcDbLine
 10
360.3888592933728
 20
117.9732090554728
 30
0.0
 11
354.7876218215895
 21
121.2070850317344
 31
0.0
  0
LINE
  5
16D
330
1F
100
AcDbEntity
  8
0_Pen_No__1
  6
Continuous
100
AcDbLine
 10
122.7137879075104
 20
-15.48772522791575
 30
0.0
 11
122.7137879075107
 21
5.315603939979097
 31
0.0
  0
LINE
  5
16E
330
1F
100
AcDbEntity
  8
0_Pen_No__1
  6
Continuous
100
AcDbLine
 10
109.7225144467776
 20
-0.1849113159124727
 30
0.0
 11
111.4545652524542
 21
-1.184911319189963
 31
0.0
  0
LINE
  5
16F
330
1F
100
AcDbEntity
  8
0_Pen_No__1
  6
Continuous
100
AcDbLine
 10
156.84188206867
 20
0.6107090764306822
 30
0.0
 11
156.8418820686696
 21
153.3131909708258
 31
0.0
  0
LINE
  5
170
330
1F
100
AcDbEntity
  8
0_Pen_No__1
  6
Continuous
100
AcDbLine
 10
488.8739539803665
 20
166.3083559266563
 30
0.0
 11
491.3375639584767
 21
160.1614285820208
 31
0.0
  0
LINE
  5
171
330
1F
100
AcDbEntity
  8
0_Pen_No__1
  6
Continuous
100
AcDbLine
 10
488.8739539803665
 20
219.6539104182105
 30
0.0
 11
488.8739539803665
 21
166.3083559266563
 31
0.0
  0
LINE
  5
172
330
1F
100
AcDbEntity
  8
0_Pen_No__1
  6
Continuous
100
AcDbLine
 10
486.1048463454318
 20
205.8597801121385
 30
0.0
 11
477.4477073749296
 21
210.8579816490124
 31
0.0
  0
LINE
  5
173
330
1F
100
AcDbEntity
  8
0_Pen_No__1
  6
Continuous
100
AcDbLine
 10
488.8739539803665
 20
219.6539104182105
 30
0.0
 11
336.2733806226232
 21
107.2876597617756
 31
0.0
  0
LINE
  5
174
330
1F
100
AcDbEntity
  8
0_Pen_No__1
  6
Continuous
100
AcDbLine
 10
480.0426685454322
 20
203.7267916269532
 30
0.0
 11
472.8687903885673
 21
207.8686321300529
 31
0.0
  0
LINE
  5
175
330
1F
100
AcDbEntity
  8
0_Pen_No__1
  6
Continuous
100
AcDbLine
 10
488.8739539803665
 20
219.6539104182105
 30
0.0
 11
292.9084678501056
 21
332.7946370818269
 31
0.0
  0
LINE
  5
176
330
1F
100
AcDbEntity
  8
0_Pen_No__1
  6
Continuous
100
AcDbLine
 10
292.9084678501056
 20
332.7946370818269
 30
0.0
 11
143.9980164702339
 21
218.2978934988156
 31
0.0
  0
LINE
  5
177
330
1F
100
AcDbEntity
  8
0_Pen_No__1
  6
DASHED2
100
AcDbLine
 10
284.8904468424187
 20
331.3447151634892
 30
0.0
 11
284.8904468424191
 21
268.5978042773376
 31
0.0
  0
LINE
  5
178
330
1F
100
AcDbEntity
  8
0_Pen_No__1
  6
Continuous
100
AcDbLine
 10
290.1583132207574
 20
328.3033110786093
 30
0.0
 11
284.8904468424187
 21
331.3447151634892
 31
0.0
  0
LINE
  5
179
330
1F
100
AcDbEntity
  8
0_Pen_No__1
  6
DASHED2
100
AcDbLine
 10
290.1583132207574
 20
328.3033110786093
 30
0.0
 11
371.492987126248
 21
281.3447149996107
 31
0.0
  0
LINE
  5
17A
330
1F
100
AcDbEntity
  8
0_Pen_No__1
  6
DASHED2
100
AcDbLine
 10
371.492987126248
 20
281.3447149996107
 30
0.0
 11
371.492987126248
 21
218.5978041134584
 31
0.0
  0
LINE
  5
17B
330
1F
100
AcDbEntity
  8
0_Pen_No__1
  6
DASHED2
100
AcDbLine
 10
371.492987126248
 20
218.5978041134584
 30
0.0
 11
284.8904468424191
 21
268.5978042773376
 31
0.0
  0
LINE
  5
17D
330
1F
100
AcDbEntity
  8
0_Pen_No__1
  6
HIDDEN
100
AcDbLine
 10
363.0423820236028
 20
286.2236741517597
 30
0.0
 11
363.0423820236028
 21
223.4767632656076
 31
0.0
  0
LINE
  5
17E
330
1F
100
AcDbEntity
  8
0_Pen_No__1
  6
HIDDEN
100
AcDbLine
 10
295.4541049020431
 20
325.2457843124852
 30
0.0
 11
295.4541049020431
 21
262.4988734263336
 31
0.0
  0
LINE
  5
17F
330
1F
100
AcDbEntity
  8
0_Pen_No__1
  6
Continuous
100
AcDbLine
 10
146.7045091701315
 20
224.9834813391016
 30
0.0
 11
146.7045091701315
 21
175.6325812011081
 31
0.0
  0
LINE
  5
180
330
1F
100
AcDbEntity
  8
0_Pen_No__1
  6
DASHED2
100
AcDbLine
 10
151.9723755484698
 20
221.942077254222
 30
0.0
 11
233.3070494539608
 21
174.9834811752233
 31
0.0
  0
LINE
  5
181
330
1F
100
AcDbEntity
  8
0_Pen_No__1
  6
DASHED2
100
AcDbLine
 10
233.3070494539608
 20
125.6325810372301
 30
0.0
 11
146.704509170132
 21
175.6325812011081
 31
0.0
  0
LINE
  5
182
330
1F
100
AcDbEntity
  8
0_Pen_No__1
  6
Continuous
100
AcDbLine
 10
284.8904468424187
 20
331.3447151634892
 30
0.0
 11
146.7045091701315
 21
224.9834813391016
 31
0.0
  0
LINE
  5
183
330
1F
100
AcDbEntity
  8
0_Pen_No__1
  6
Continuous
100
AcDbLine
 10
146.7045091701315
 20
224.9834813391016
 30
0.0
 11
151.9723755484698
 21
221.942077254222
 31
0.0
  0
LINE
  5
184
330
1F
100
AcDbEntity
  8
0_Pen_No__1
  6
DASHED2
100
AcDbLine
 10
233.3070494539608
 20
174.977961930386
 30
0.0
 11
361.7205251083388
 21
273.8307019302064
 31
0.0
  0
LINE
  5
185
330
1F
100
AcDbEntity
  8
0_Pen_No__1
  6
DASHED2
100
AcDbLine
 10
233.3070494539608
 20
125.6325810372301
 30
0.0
 11
233.3070494539608
 21
174.977961930386
 31
0.0
  0
LINE
  5
186
330
1F
100
AcDbEntity
  8
0_Pen_No__1
  6
HIDDEN
100
AcDbLine
 10
224.8564443513161
 20
179.8573294494528
 30
0.0
 11
363.0423820236028
 21
286.2236741517597
 31
0.0
  0
LINE
  5
187
330
1F
100
AcDbEntity
  8
0_Pen_No__1
  6
HIDDEN
100
AcDbLine
 10
224.8564443513156
 20
130.511540189379
 30
0.0
 11
224.8564443513161
 21
179.8573294494528
 31
0.0
  0
LINE
  5
188
330
1F
100
AcDbEntity
  8
0_Pen_No__1
  6
HIDDEN
100
AcDbLine
 10
156.1770466517229
 20
218.0394912486696
 30
0.0
 11
295.4541049020431
 21
325.2457843124852
 31
0.0
  0
LINE
  5
189
330
1F
100
AcDbEntity
  8
0_Pen_No__1
  6
HIDDEN
100
AcDbLine
 10
156.1770466517229
 20
170.1636091123031
 30
0.0
 11
156.1770466517229
 21
218.0394912486696
 31
0.0
  0
LINE
  5
18A
330
1F
100
AcDbEntity
  8
0_Pen_No__1
  6
Continuous
100
AcDbLine
 10
360.3888592933728
 20
97.9732090554728
 30
0.0
 11
358.4327381616127
 21
99.10257612239715
 31
0.0
  0
LINE
  5
18B
330
1F
100
AcDbEntity
  8
0_Pen_No__1
  6
Continuous
100
AcDbLine
 10
346.4482595503725
 20
106.0218181049317
 30
0.0
 11
344.9875412887706
 21
106.8651641901635
 31
0.0
  0
LINE
  5
18C
330
1F
100
AcDbEntity
  8
0_Pen_No__1
  6
Continuous
100
AcDbLine
 10
477.3556413039134
 20
202.8937213393494
 30
0.0
 11
471.0537338643987
 21
206.5321293118616
 31
0.0
  0
LINE
  5
18D
330
1F
100
AcDbEntity
  8
0_Pen_No__1
  6
Continuous
100
AcDbLine
 10
358.4327381616121
 20
115.4736060487906
 30
0.0
 11
352.243371255349
 21
119.0470387138516
 31
0.0
  0
LINE
  5
18E
330
1F
100
AcDbEntity
  8
0_Pen_No__1
  6
Continuous
100
AcDbLine
 10
346.4482595503725
 20
77.07436155275072
 30
0.0
 11
344.9875412887717
 21
77.917707637982
 31
0.0
  0
LINE
  5
18F
330
1F
100
AcDbEntity
  8
0_Pen_No__1
  6
Continuous
100
AcDbLine
 10
358.4327381616121
 20
115.4736060487906
 30
0.0
 11
346.7990083177087
 21
73.32539386067106
 31
0.0
  0
LINE
  5
190
330
1F
100
AcDbEntity
  8
0_Pen_No__1
  6
Continuous
100
AcDbLine
 10
346.4482595503725
 20
108.5543640662581
 30
0.0
 11
358.4327381616121
 21
80.04213094707934
 31
0.0
  0
LINE
  5
191
330
1F
100
AcDbEntity
  8
0_Pen_No__1
  6
Continuous
100
AcDbLine
 10
377.7093673501396
 20
64.55882771752353
 30
0.0
 11
446.9913995772059
 21
144.5588278486196
 31
0.0
  0
LINE
  5
192
330
1F
100
AcDbEntity
  8
0_Pen_No__1
  6
Continuous
100
AcDbLine
 10
377.7093673501396
 20
104.5588277175236
 30
0.0
 11
446.9913995772059
 21
104.5588278486196
 31
0.0
  0
LINE
  5
193
330
1F
100
AcDbEntity
  8
0_Pen_No__1
  6
Continuous
100
AcDbLine
 10
377.7093673501396
 20
106.1962726489076
 30
0.0
 11
377.7093673501396
 21
67.973209088247
 31
0.0
  0
LINE
  5
194
330
1F
100
AcDbEntity
  8
0_Pen_No__1
  6
DASHED2
100
AcDbLine
 10
377.7093673501396
 20
106.1962726489076
 30
0.0
 11
446.9913995772059
 21
146.1962727800039
 31
0.0
  0
LINE
  5
195
330
1F
100
AcDbEntity
  8
0_Pen_No__1
  6
Continuous
100
AcDbLine
 10
446.9913995772059
 20
146.1962727800039
 30
0.0
 11
446.9913995772059
 21
107.9732092193433
 31
0.0
  0
LINE
  5
196
330
1F
100
AcDbEntity
  8
0_Pen_No__1
  6
Continuous
100
AcDbLine
 10
465.3711626926737
 20
195.9744793568168
 30
0.0
 11
477.3556413039134
 21
167.8625555941589
 31
0.0
  0
LINE
  5
197
330
1F
100
AcDbEntity
  8
0_Pen_No__1
  6
Continuous
100
AcDbLine
 10
477.3556413039134
 20
202.8937213393494
 30
0.0
 11
465.3711626926746
 21
160.9433136116258
 31
0.0
  0
LINE
  5
198
330
1F
100
AcDbEntity
  8
0_Pen_No__1
  6
Continuous
100
AcDbLine
 10
357.9779222887682
 20
35.85480102147476
 30
0.0
 11
344.9875412887723
 21
43.35480102147238
 31
0.0
  0
LINE
  5
199
330
1F
100
AcDbEntity
  8
0_Pen_No__1
  6
Continuous
100
AcDbLine
 10
478.4961839246635
 20
65.19084995528934
 30
0.0
 11
446.9913995772059
 21
83.38014575853991
 31
0.0
  0
LINE
  5
19A
330
1F
100
AcDbEntity
  8
0_Pen_No__1
  6
Continuous
100
AcDbLine
 10
480.0426685454322
 20
2.673987077290052
 30
0.0
 11
448.0518365229249
 21
21.14390263779575
 31
0.0
  0
LINE
  5
19B
330
1F
100
AcDbEntity
  8
0_Pen_No__1
  6
Continuous
100
AcDbLine
 10
467.9183129454346
 20
-4.326012922707845
 30
0.0
 11
446.9913995772059
 21
7.756146196544522
 31
0.0
  0
LINE
  5
19C
330
1F
100
AcDbEntity
  8
0_Pen_No__1
  6
DASHED2
100
AcDbLine
 10
446.9913995772059
 20
107.9732092193433
 30
0.0
 11
446.991399577206
 21
-40.00296038449158
 31
0.0
  0
LINE
  5
19D
330
1F
100
AcDbEntity
  8
0_Pen_No__1
  6
DASHED2
100
AcDbLine
 10
377.7093673501396
 20
67.973209088247
 30
0.0
 11
377.7093673501398
 21
-80.00296034079254
 31
0.0
  0
LINE
  5
19E
330
1F
100
AcDbEntity
  8
0_Pen_No__1
  6
Continuous
100
AcDbLine
 10
467.9183129454346
 20
-17.12617248470516
 30
0.0
 11
456.8464685587036
 21
-10.73384011966705
 31
0.0
  0
LINE
  5
19F
330
1F
100
AcDbEntity
  8
0_Pen_No__1
  6
Continuous
100
AcDbLine
 10
480.0426685454331
 20
-24.32601292270742
 30
0.0
 11
472.2506407983539
 21
-19.82728358574004
 31
0.0
  0
LINE
  5
1A0
330
1F
100
AcDbEntity
  8
0_Pen_No__1
  6
Continuous
100
AcDbLine
 10
473.9804907454334
 20
-27.82601292270659
 30
0.0
 11
466.231586963391
 21
-23.35218121866922
 31
0.0
  0
LINE
  5
1A1
330
1F
100
AcDbEntity
  8
0_Pen_No__1
  6
Continuous
100
AcDbLine
 10
376.5798462204201
 20
103.1967650409718
 30
0.0
 11
359.2331737244107
 21
54.23749184590032
 31
0.0
  0
LINE
  5
1A2
330
1F
100
AcDbEntity
  8
0_Pen_No__1
  6
Continuous
100
AcDbLine
 10
359.2331737244103
 20
93.18165896209108
 30
0.0
 11
376.5798462204201
 21
64.25259792478077
 31
0.0
  0
LINE
  5
1A3
330
1F
100
AcDbEntity
  8
0_Pen_No__1
  6
Continuous
100
AcDbLine
 10
359.2331737244107
 20
54.23749184590032
 30
0.0
 11
344.9875412887717
 21
62.46221160333598
 31
0.0
  0
LINE
  5
1A4
330
1F
100
AcDbEntity
  8
0_Pen_No__1
  6
Continuous
100
AcDbLine
 10
448.5699712462365
 20
145.2929412213793
 30
0.0
 11
465.9166437422459
 21
115.6836788748727
 31
0.0
  0
LINE
  5
1A5
330
1F
100
AcDbEntity
  8
0_Pen_No__1
  6
Continuous
100
AcDbLine
 10
465.9166437422459
 20
155.3080473002597
 30
0.0
 11
448.5699712462369
 21
105.6685727959927
 31
0.0
  0
LINE
  5
1A6
330
1F
100
AcDbEntity
  8
0_Pen_No__1
  6
Continuous
100
AcDbLine
 10
480.0426685454322
 20
106.3289154392877
 30
0.0
 11
464.8781933976315
 21
115.084129286249
 31
0.0
  0
LINE
  5
1A7
330
1F
100
AcDbEntity
  8
0_Pen_No__1
  6
Continuous
100
AcDbLine
 10
467.0522875454341
 20
98.8289154392874
 30
0.0
 11
451.8878123976317
 21
107.5841292862496
 31
0.0
  0
LINE
  5
1A8
330
1F
100
AcDbEntity
  8
0_Pen_No__1
  6
Continuous
100
AcDbLine
 10
769.2
 20
559.5223426869337
 30
0.0
 11
769.2
 21
479.5223426869336
 31
0.0
  0
LINE
  5
1A9
330
1F
100
AcDbEntity
  8
0_Pen_No__1
  6
Continuous
100
AcDbLine
 10
725.8987298580871
 20
584.5223427688716
 30
0.0
 11
725.8987298580871
 21
684.5223429327473
 31
0.0
  0
LINE
  5
1AA
330
1F
100
AcDbEntity
  8
0_Pen_No__1
  6
Above
100
AcDbLine
 10
725.8987298580871
 20
554.5223429327474
 30
0.0
 11
725.8987298580871
 21
584.5223427688716
 31
0.0
  0
LINE
  5
1AB
330
1F
100
AcDbEntity
  8
0_Pen_No__1
  6
Above
100
AcDbLine
 10
725.8987298580871
 20
554.5223429327474
 30
0.0
 11
682.5974597161711
 21
529.5223428508122
 31
0.0
  0
LINE
  5
1AC
330
1F
100
AcDbEntity
  8
0_Pen_No__1
  6
Continuous
100
AcDbLine
 10
682.5974597161711
 20
609.5223428508117
 30
0.0
 11
769.2
 21
559.5223426869337
 31
0.0
  0
LINE
  5
1AD
330
1F
100
AcDbEntity
  8
0_Pen_No__1
  6
Continuous
100
AcDbLine
 10
767.4679491943234
 20
556.0223426836565
 30
0.0
 11
767.4679491943234
 21
478.5223426836563
 31
0.0
  0
LINE
  5
1AE
330
1F
100
AcDbEntity
  8
0_Pen_No__1
  6
Continuous
100
AcDbLine
 10
712.0423235579971
 20
510.5223427046356
 30
0.0
 11
767.4679491943234
 21
478.5223426836563
 31
0.0
  0
LINE
  5
1AF
330
1F
100
AcDbEntity
  8
0_Pen_No__1
  6
Continuous
100
AcDbLine
 10
769.2
 20
479.5223426869336
 30
0.0
 11
767.4679491943234
 21
478.5223426836563
 31
0.0
  0
LINE
  5
1B0
330
1F
100
AcDbEntity
  8
0_Pen_No__1
  6
Above
100
AcDbLine
 10
680.8654089104945
 20
528.5223428475344
 30
0.0
 11
712.0423235579971
 21
510.5223427046356
 31
0.0
  0
LINE
  5
1B1
330
1F
100
AcDbEntity
  8
0_Pen_No__1
  6
Above
100
AcDbLine
 10
680.8654089104945
 20
528.5223428475344
 30
0.0
 11
680.8654089104945
 21
608.0223428475348
 31
0.0
  0
LINE
  5
1B2
330
1F
100
AcDbEntity
  8
0_Pen_No__1
  6
HIDDEN
100
AcDbLine
 10
689.0766281131055
 20
605.7815932163696
 30
0.0
 11
689.0766281131055
 21
523.7815932098146
 31
0.0
  0
LINE
  5
1B3
330
1F
100
AcDbEntity
  8
0_Pen_No__1
  6
HIDDEN
100
AcDbLine
 10
758.5688013214188
 20
565.6602681326442
 30
0.0
 11
758.5688013214188
 21
483.6602681260892
 31
0.0
  0
LINE
  5
1B4
330
1F
100
AcDbEntity
  8
0_Pen_No__1
  6
Continuous
100
AcDbLine
 10
682.5974597161711
 20
609.5223428508117
 30
0.0
 11
577.8803429308973
 21
529.0638870218766
 31
0.0
  0
LINE
  5
1B5
330
1F
100
AcDbEntity
  8
0_Pen_No__1
  6
Continuous
100
AcDbLine
 10
577.8803429308973
 20
469.0638870218765
 30
0.0
 11
534.5790727889809
 21
444.0638869399417
 31
0.0
  0
LINE
  5
1B6
330
1F
100
AcDbEntity
  8
0_Pen_No__1
  6
Continuous
100
AcDbLine
 10
664.4828832147261
 20
479.0638868579985
 30
0.0
 11
577.8803429308973
 21
529.0638870218766
 31
0.0
  0
LINE
  5
1B7
330
1F
100
AcDbEntity
  8
0_Pen_No__1
  6
Continuous
100
AcDbLine
 10
577.8803429308973
 20
469.0638870218765
 30
0.0
 11
664.4828832147261
 21
419.0638868579985
 31
0.0
  0
LINE
  5
1B8
330
1F
100
AcDbEntity
  8
0_Pen_No__1
  6
Continuous
100
AcDbLine
 10
577.8803429308973
 20
469.0638870218765
 30
0.0
 11
577.8803429308973
 21
529.0638870218766
 31
0.0
  0
LINE
  5
1B9
330
1F
100
AcDbEntity
  8
0_Pen_No__1
  6
Continuous
100
AcDbLine
 10
769.2
 20
559.5223426869337
 30
0.0
 11
664.4828832147261
 21
479.0638868579985
 31
0.0
  0
LINE
  5
1BA
330
1F
100
AcDbEntity
  8
0_Pen_No__1
  6
Continuous
100
AcDbLine
 10
664.4828832147261
 20
479.0638868579985
 30
0.0
 11
664.4828832147261
 21
419.0638868579985
 31
0.0
  0
LINE
  5
1BB
330
1F
100
AcDbEntity
  8
0_Pen_No__1
  6
Continuous
100
AcDbLine
 10
534.5790727889809
 20
574.0638869399415
 30
0.0
 11
725.8987298580871
 21
684.5223429327473
 31
0.0
  0
LINE
  5
1BC
330
1F
100
AcDbEntity
  8
0_Pen_No__1
  6
Continuous
100
AcDbLine
 10
534.5790727889809
 20
444.0638869399417
 30
0.0
 11
534.5790727889809
 21
574.0638869399415
 31
0.0
  0
LINE
  5
1BD
330
1F
100
AcDbEntity
  8
0_Pen_No__1
  6
Continuous
100
AcDbLine
 10
532.8470219833042
 20
575.0638869432189
 30
0.0
 11
724.1666790524105
 21
685.522342936025
 31
0.0
  0
LINE
  5
1BE
330
1F
100
AcDbEntity
  8
0_Pen_No__1
  6
Continuous
100
AcDbLine
 10
532.8470219833042
 20
445.063886943219
 30
0.0
 11
532.8470219833042
 21
575.0638869432189
 31
0.0
  0
LINE
  5
1BF
330
1F
100
AcDbEntity
  8
0_Pen_No__1
  6
Continuous
100
AcDbLine
 10
767.4679491943234
 20
556.0223426836565
 30
0.0
 11
666.2149340204028
 21
478.5638868612757
 31
0.0
  0
LINE
  5
1C0
330
1F
100
AcDbEntity
  8
0_Pen_No__1
  6
Continuous
100
AcDbLine
 10
666.2149340204028
 20
478.5638868612757
 30
0.0
 11
666.2149340204028
 21
420.0638868612757
 31
0.0
  0
LINE
  5
1C1
330
1F
100
AcDbEntity
  8
0_Pen_No__1
  6
Continuous
100
AcDbLine
 10
666.2149340204028
 20
420.0638868612757
 30
0.0
 11
664.4828832147261
 21
419.0638868579985
 31
0.0
  0
LINE
  5
1C2
330
1F
100
AcDbEntity
  8
0_Pen_No__1
  6
HIDDEN
100
AcDbLine
 10
584.3595113278316
 20
525.3231373874344
 30
0.0
 11
689.0766281131055
 21
605.7815932163696
 31
0.0
  0
LINE
  5
1C3
330
1F
100
AcDbEntity
  8
0_Pen_No__1
  6
HIDDEN
100
AcDbLine
 10
584.3595113278316
 20
465.3231373874344
 30
0.0
 11
584.3595113278316
 21
525.3231373874344
 31
0.0
  0
LINE
  5
1C4
330
1F
100
AcDbEntity
  8
0_Pen_No__1
  6
HIDDEN
100
AcDbLine
 10
653.8516845361459
 20
485.2018123037091
 30
0.0
 11
758.5688013214188
 21
565.6602681326442
 31
0.0
  0
LINE
  5
1C5
330
1F
100
AcDbEntity
  8
0_Pen_No__1
  6
HIDDEN
100
AcDbLine
 10
653.8516845361459
 20
425.201812303709
 30
0.0
 11
653.8516845361459
 21
485.2018123037091
 31
0.0
  0
LINE
  5
1C6
330
1F
100
AcDbEntity
  8
0_Pen_No__1
  6
Continuous
100
AcDbLine
 10
649.3274385501014
 20
377.8138868055586
 30
0.0
 11
636.337057493335
 21
385.3138868055587
 31
0.0
  0
LINE
  5
1C7
330
1F
100
AcDbEntity
  8
0_Pen_No__1
  6
Continuous
100
AcDbLine
 10
534.5790727889809
 20
444.0638869399417
 30
0.0
 11
532.8470219833042
 21
445.063886943219
 31
0.0
  0
LINE
  5
1C8
330
1F
100
AcDbEntity
  8
0_Pen_No__1
  6
Continuous
100
AcDbLine
 10
534.5790727889809
 20
574.0638869399415
 30
0.0
 11
532.8470219833042
 21
575.0638869432189
 31
0.0
  0
LINE
  5
1C9
330
1F
100
AcDbEntity
  8
0_Pen_No__1
  6
Continuous
100
AcDbLine
 10
725.8987298580871
 20
684.5223429327473
 30
0.0
 11
724.1666790524105
 21
685.522342936025
 31
0.0
  0
LINE
  5
1CA
330
1F
100
AcDbEntity
  8
0_Pen_No__1
  6
Continuous
100
AcDbLine
 10
692.628708786628
 20
402.8138868328704
 30
0.0
 11
679.6383277298615
 21
410.3138868328704
 31
0.0
  0
LINE
  5
1CB
330
1F
100
AcDbEntity
  8
0_Pen_No__1
  6
Continuous
100
AcDbLine
 10
741.0541744243145
 20
693.2723429873706
 30
0.0
 11
754.0445554810809
 21
700.7723429873706
 31
0.0
  0
LINE
  5
1CC
330
1F
100
AcDbEntity
  8
0_Pen_No__1
  6
Continuous
100
AcDbLine
 10
741.0541744243145
 20
643.27234298737
 30
0.0
 11
754.0445554810809
 21
650.77234298737
 31
0.0
  0
LINE
  5
1CD
330
1F
100
AcDbEntity
  8
0_Pen_No__1
  6
Continuous
100
AcDbLine
 10
297.9898500114641
 20
1008.616478232777
 30
0.0
 11
334.053788938926
 21
987.7949532939764
 31
0.0
  0
LINE
  5
1CE
330
1F
100
AcDbEntity
  8
0_Pen_No__1
  6
Continuous
100
AcDbLine
 10
334.053788938926
 20
987.7949532939764
 30
0.0
 11
335.4944164120977
 21
986.9632066309041
 31
0.0
  0
LINE
  5
1CF
330
1F
100
AcDbEntity
  8
0_Pen_No__1
  6
Continuous
100
AcDbLine
 10
335.4944164120977
 20
986.9632066309041
 30
0.0
 11
350.6314168300121
 21
1000.149926217096
 31
0.0
  0
LINE
  5
1D0
330
1F
100
AcDbEntity
  8
0_Pen_No__1
  6
Continuous
100
AcDbLine
 10
350.6314168300121
 20
1000.149926217096
 30
0.0
 11
357.3346532256155
 21
1031.990299096213
 31
0.0
  0
LINE
  5
1D1
330
1F
100
AcDbEntity
  8
0_Pen_No__1
  6
Continuous
100
AcDbLine
 10
357.3346532256155
 20
1031.990299096213
 30
0.0
 11
366.5516032695705
 21
1078.912953865439
 31
0.0
  0
LINE
  5
1D2
330
1F
100
AcDbEntity
  8
0_Pen_No__1
  6
Continuous
100
AcDbLine
 10
366.5516032695705
 20
1078.912953865439
 30
0.0
 11
367.0901098755682
 21
1101.530231317343
 31
0.0
  0
LINE
  5
1D3
330
1F
100
AcDbEntity
  8
0_Pen_No__1
  6
Continuous
100
AcDbLine
 10
367.0901098755682
 20
1101.530231317343
 30
0.0
 11
354.9686638668449
 21
1117.203634423637
 31
0.0
  0
LINE
  5
1D4
330
1F
100
AcDbEntity
  8
0_Pen_No__1
  6
Continuous
100
AcDbLine
 10
354.9686638668449
 20
1117.203634423637
 30
0.0
 11
342.8975152561352
 21
1127.854647903675
 31
0.0
  0
LINE
  5
1D5
330
1F
100
AcDbEntity
  8
0_Pen_No__1
  6
Continuous
100
AcDbLine
 10
342.8975152561352
 20
1127.854647903675
 30
0.0
 11
313.784745077366
 21
1119.925796514384
 31
0.0
  0
LINE
  5
1D6
330
1F
100
AcDbEntity
  8
0_Pen_No__1
  6
Continuous
100
AcDbLine
 10
313.784745077366
 20
1119.925796514384
 30
0.0
 11
297.9898500114641
 21
1113.111033036707
 31
0.0
  0
LINE
  5
1D7
330
1F
100
AcDbEntity
  8
0_Pen_No__1
  6
Continuous
100
AcDbLine
 10
297.9898500114641
 20
1113.111033036707
 30
0.0
 11
297.9898500114641
 21
1008.616478232777
 31
0.0
  0
LINE
  5
1D8
330
1F
100
AcDbEntity
  8
0_Pen_No__1
  6
Continuous
100
AcDbLine
 10
446.991399577206
 20
822.590393039833
 30
0.0
 11
446.991399577206
 21
759.8592595210981
 31
0.0
  0
LINE
  5
1D9
330
1F
100
AcDbEntity
  8
0_Pen_No__1
  6
Continuous
100
AcDbLine
 10
446.991399577206
 20
759.8592595210981
 30
0.0
 11
429.3377426786677
 21
772.9305704925252
 31
0.0
  0
LINE
  5
1DA
330
1F
100
AcDbEntity
  8
0_Pen_No__1
  6
Continuous
100
AcDbLine
 10
429.3377426786677
 20
772.9305704925252
 30
0.0
 11
405.2060916544938
 21
781.9799396265904
 31
0.0
  0
LINE
  5
1DB
330
1F
100
AcDbEntity
  8
0_Pen_No__1
  6
Continuous
100
AcDbLine
 10
405.2060916544938
 20
781.9799396265904
 30
0.0
 11
390.2389689261313
 21
789.8243617830857
 31
0.0
  0
LINE
  5
1DC
330
1F
100
AcDbEntity
  8
0_Pen_No__1
  6
Continuous
100
AcDbLine
 10
390.2389689261313
 20
789.8243617830857
 30
0.0
 11
446.991399577206
 21
822.590393039833
 31
0.0
  0
LINE
  5
1DD
330
1F
100
AcDbEntity
  8
0_Pen_No__1
  6
Continuous
100
AcDbLine
 10
122.7137879075099
 20
796.2683242314147
 30
0.0
 11
147.1821355620356
 21
812.3687536992984
 31
0.0
  0
LINE
  5
1DE
330
1F
100
AcDbEntity
  8
0_Pen_No__1
  6
Continuous
100
AcDbLine
 10
147.2243184825123
 20
790.5858243951584
 30
0.0
 11
147.2243184825123
 21
869.4377824638119
 31
0.0
  0
LINE
  5
1DF
330
1F
100
AcDbEntity
  8
0_Pen_No__1
  6
Continuous
100
AcDbLine
 10
147.2243184825123
 20
869.4377824638119
 30
0.0
 11
147.0206113135516
 21
895.7786088219744
 31
0.0
  0
LINE
  5
1E0
330
1F
100
AcDbEntity
  8
0_Pen_No__1
  6
Continuous
100
AcDbLine
 10
147.0206113135516
 20
895.7786088219744
 30
0.0
 11
129.9038104257452
 21
905.6609984654015
 31
0.0
  0
LINE
  5
1E1
330
1F
100
AcDbEntity
  8
0_Pen_No__1
  6
Continuous
100
AcDbLine
 10
129.9038104257452
 20
905.6609984654015
 30
0.0
 11
122.7137879075099
 21
901.5098370108786
 31
0.0
  0
LINE
  5
1E2
330
1F
100
AcDbEntity
  8
0_Pen_No__1
  6
Continuous
100
AcDbLine
 10
122.7137879075099
 20
901.5098370108786
 30
0.0
 11
122.7137879075099
 21
786.2393595207706
 31
0.0
  0
LINE
  5
1E3
330
1F
100
AcDbEntity
  8
0_Pen_No__1
  6
Continuous
100
AcDbLine
 10
147.1821355620356
 20
812.3687536992984
 30
0.0
 11
174.6735271563294
 21
809.7771691812658
 31
0.0
  0
LINE
  5
1E4
330
1F
100
AcDbEntity
  8
0_Pen_No__1
  6
Continuous
100
AcDbLine
 10
174.6735271563294
 20
778.7327570132828
 30
0.0
 11
174.6735271563294
 21
879.813190346498
 31
0.0
  0
LINE
  5
1E5
330
1F
100
AcDbEntity
  8
0_Pen_No__1
  6
Continuous
100
AcDbLine
 10
174.6735271563294
 20
879.813190346498
 30
0.0
 11
147.0206113135516
 21
895.7786088219744
 31
0.0
  0
LINE
  5
1E6
330
1F
100
AcDbEntity
  8
0_Pen_No__1
  6
Continuous
100
AcDbLine
 10
122.7137879075099
 20
987.1100777415847
 30
0.0
 11
247.7603766468416
 21
1078.745276783646
 31
0.0
  0
LINE
  5
1E7
330
1F
100
AcDbEntity
  8
0_Pen_No__1
  6
Continuous
100
AcDbLine
 10
247.7603766468416
 20
1078.745276783646
 30
0.0
 11
247.7603766468416
 21
1103.705519061813
 31
0.0
  0
LINE
  5
1E8
330
1F
100
AcDbEntity
  8
0_Pen_No__1
  6
Continuous
100
AcDbLine
 10
247.7603766468416
 20
1103.705519061813
 30
0.0
 11
229.9967723677371
 21
1100.458701823825
 31
0.0
  0
LINE
  5
1E9
330
1F
100
AcDbEntity
  8
0_Pen_No__1
  6
Continuous
100
AcDbLine
 10
229.9967723677371
 20
1100.458701823825
 30
0.0
 11
189.7537433355246
 21
1090.189695162133
 31
0.0
  0
LINE
  5
1EA
330
1F
100
AcDbEntity
  8
0_Pen_No__1
  6
Continuous
100
AcDbLine
 10
189.7537433355246
 20
1090.189695162133
 30
0.0
 11
129.9038104257452
 21
1050.808181337962
 31
0.0
  0
LINE
  5
1EB
330
1F
100
AcDbEntity
  8
0_Pen_No__1
  6
Continuous
100
AcDbLine
 10
129.9038104257452
 20
1050.808181337962
 30
0.0
 11
84.17777010476735
 21
1029.02266305225
 31
0.0
  0
LINE
  5
1EC
330
1F
100
AcDbEntity
  8
0_Pen_No__1
  6
Continuous
100
AcDbLine
 10
84.17777010476735
 20
1029.02266305225
 30
0.0
 11
54.85111087400174
 21
1015.616190261043
 31
0.0
  0
LINE
  5
1ED
330
1F
100
AcDbEntity
  8
0_Pen_No__1
  6
Continuous
100
AcDbLine
 10
54.85111087400174
 20
1015.616190261043
 30
0.0
 11
12.95588340147935
 21
982.1000082830243
 31
0.0
  0
LINE
  5
1EE
330
1F
100
AcDbEntity
  8
0_Pen_No__1
  6
Continuous
100
AcDbLine
 10
12.95588340147935
 20
982.1000082830243
 30
0.0
 11
-17.32051032845749
 21
936.4691809743148
 31
0.0
  0
LINE
  5
1EF
330
1F
100
AcDbEntity
  8
0_Pen_No__1
  6
Continuous
100
AcDbLine
 10
-17.3205080567671
 20
936.4691804588615
 30
0.0
 11
-8.829634884232718
 21
880.329575645681
 31
0.0
  0
LINE
  5
1F0
330
1F
100
AcDbEntity
  8
0_Pen_No__1
  6
Continuous
100
AcDbLine
 10
-8.829634884232718
 20
880.329575645681
 30
0.0
 11
-2.126398488628833
 21
845.9754891182122
 31
0.0
  0
LINE
  5
1F1
330
1F
100
AcDbEntity
  8
0_Pen_No__1
  6
Continuous
100
AcDbLine
 10
-2.126398488628833
 20
845.9754891182122
 30
0.0
 11
17.98331069818193
 21
826.7036844808516
 31
0.0
  0
LINE
  5
1F2
330
1F
100
AcDbEntity
  8
0_Pen_No__1
  6
Continuous
100
AcDbLine
 10
17.98331069818193
 20
826.7036844808516
 30
0.0
 11
26.36235619268623
 21
800.7286434478876
 31
0.0
  0
LINE
  5
1F3
330
1F
100
AcDbEntity
  8
0_Pen_No__1
  6
Continuous
100
AcDbLine
 10
26.36235619268623
 20
800.7286434478876
 30
0.0
 11
43.95835173114592
 21
774.7536024149234
 31
0.0
  0
LINE
  5
1F4
330
1F
100
AcDbEntity
  8
0_Pen_No__1
  6
Continuous
100
AcDbLine
 10
43.95835173114592
 20
774.7536024149234
 30
0.0
 11
72.48431454288739
 21
764.9947204003803
 31
0.0
  0
LINE
  5
1F5
330
1F
100
AcDbEntity
  8
0_Pen_No__1
  6
Continuous
100
AcDbLine
 10
72.48431454288739
 20
764.9947204003803
 30
0.0
 11
72.48431454288739
 21
1003.411418415112
 31
0.0
  0
LINE
  5
1F6
330
1F
100
AcDbEntity
  8
0_Pen_No__1
  6
Continuous
100
AcDbLine
 10
72.48431454288739
 20
1003.411418415112
 30
0.0
 11
107.1253306564207
 21
1023.41141848066
 31
0.0
  0
LINE
  5
1F7
330
1F
100
AcDbEntity
  8
0_Pen_No__1
  6
Continuous
100
AcDbLine
 10
107.1253306564207
 20
1023.41141848066
 30
0.0
 11
122.7137879075099
 21
1014.411418451162
 31
0.0
  0
LINE
  5
1F8
330
1F
100
AcDbEntity
  8
0_Pen_No__1
  6
Continuous
100
AcDbLine
 10
122.7137879075099
 20
1014.411418451162
 30
0.0
 11
122.7137879075099
 21
987.1100777415847
 31
0.0
  0
LINE
  5
1F9
330
1F
100
AcDbEntity
  8
0_Pen_No__1
  6
Continuous
100
AcDbLine
 10
224.9030005209519
 20
800.5562446732227
 30
0.0
 11
249.2449663465072
 21
792.1301795797611
 31
0.0
  0
LINE
  5
1FA
330
1F
100
AcDbEntity
  8
0_Pen_No__1
  6
Continuous
100
AcDbLine
 10
249.2449663465072
 20
792.1301795797611
 30
0.0
 11
377.7093673501394
 21
731.3211951861377
 31
0.0
  0
LINE
  5
1FB
330
1F
100
AcDbEntity
  8
0_Pen_No__1
  6
Continuous
100
AcDbLine
 10
377.7093673501394
 20
731.3211951861377
 30
0.0
 11
377.7093673501394
 21
790.3464498563166
 31
0.0
  0
LINE
  5
1FC
330
1F
100
AcDbEntity
  8
0_Pen_No__1
  6
Continuous
100
AcDbLine
 10
377.7093673501394
 20
790.3464498563166
 30
0.0
 11
360.3888592933732
 21
780.3464498235425
 31
0.0
  0
LINE
  5
1FD
330
1F
100
AcDbEntity
  8
0_Pen_No__1
  6
Continuous
100
AcDbLine
 10
360.3888592933732
 20
780.3464498235425
 30
0.0
 11
224.9030005209519
 21
858.5692471990275
 31
0.0
  0
LINE
  5
1FE
330
1F
100
AcDbEntity
  8
0_Pen_No__1
  6
Continuous
100
AcDbLine
 10
224.9030005209519
 20
858.5692471990275
 30
0.0
 11
224.9030005209519
 21
800.5562446732227
 31
0.0
  0
LINE
  5
1FF
330
1F
100
AcDbEntity
  8
0_Pen_No__1
  6
Continuous
100
AcDbLine
 10
251.1473668231122
 20
1134.999999639471
 30
0.0
 11
285.7883829366451
 21
1154.999999705019
 31
0.0
  0
LINE
  5
200
330
1F
100
AcDbEntity
  8
0_Pen_No__1
  6
Continuous
100
AcDbLine
 10
207.8460966811994
 20
1199.99999985251
 30
0.0
 11
285.7883829366451
 21
1154.999999705019
 31
0.0
  0
LINE
  5
201
330
1F
100
AcDbEntity
  8
0_Pen_No__1
  6
Continuous
100
AcDbLine
 10
207.8460966811994
 20
1199.99999985251
 30
0.0
 11
173.205080567666
 21
1179.999999786962
 31
0.0
  0
LINE
  5
202
330
1F
100
AcDbEntity
  8
0_Pen_No__1
  6
Continuous
100
AcDbLine
 10
216.506350709574
 20
915.6609983670733
 30
0.0
 11
360.3888593614947
 21
832.5903929021829
 31
0.0
  0
LINE
  5
203
330
1F
100
AcDbEntity
  8
0_Pen_No__1
  6
Continuous
100
AcDbLine
 10
377.7093673501394
 20
782.5903929087365
 30
0.0
 11
446.991399577206
 21
862.590393039833
 31
0.0
  0
LINE
  5
204
330
1F
100
AcDbEntity
  8
0_Pen_No__1
  6
Continuous
100
AcDbLine
 10
377.7093673501394
 20
822.5903929087365
 30
0.0
 11
446.991399577206
 21
822.590393039833
 31
0.0
  0
LINE
  5
205
330
1F
100
AcDbEntity
  8
0_Pen_No__1
  6
Continuous
100
AcDbLine
 10
268.4678748798784
 20
779.6171840335137
 30
0.0
 11
268.4678748798784
 21
783.0309619297856
 31
0.0
  0
LINE
  5
206
330
1F
100
AcDbEntity
  8
0_Pen_No__1
  6
Continuous
100
AcDbLine
 10
69.28203222706608
 20
1119.999999590318
 30
0.0
 11
103.9230483405994
 21
1139.999999655866
 31
0.0
  0
LINE
  5
207
330
1F
100
AcDbEntity
  8
0_Pen_No__1
  6
Continuous
100
AcDbLine
 10
69.28203222706608
 20
1119.999999590318
 30
0.0
 11
147.2243184825123
 21
1074.999999442827
 31
0.0
  0
LINE
  5
208
330
1F
100
AcDbEntity
  8
0_Pen_No__1
  6
Continuous
100
AcDbLine
 10
181.8653345960452
 20
1094.999999508375
 30
0.0
 11
216.5063507095785
 21
1114.999999573923
 31
0.0
  0
LINE
  5
209
330
1F
100
AcDbEntity
  8
0_Pen_No__1
  6
Continuous
100
AcDbLine
 10
147.2243184825123
 20
1074.999999442827
 30
0.0
 11
181.8653345960452
 21
1094.999999508375
 31
0.0
  0
LINE
  5
20A
330
1F
100
AcDbEntity
  8
0_Pen_No__1
  6
Continuous
100
AcDbLine
 10
360.3888592933727
 20
812.5903928759625
 30
0.0
 11
464.3119076339722
 21
912.5903930726071
 31
0.0
  0
LINE
  5
20B
330
1F
100
AcDbEntity
  8
0_Pen_No__1
  6
Continuous
100
AcDbLine
 10
360.3888592933727
 20
832.5903928759625
 30
0.0
 11
464.3119076339722
 21
872.590393072607
 31
0.0
  0
LINE
  5
20C
330
1F
100
AcDbEntity
  8
0_Pen_No__1
  6
Continuous
100
AcDbLine
 10
129.9038104257452
 20
905.6609984654015
 30
0.0
 11
199.767696828307
 21
865.3250646679775
 31
0.0
  0
LINE
  5
20D
330
1F
100
AcDbEntity
  8
0_Pen_No__1
  6
Continuous
100
AcDbLine
 10
360.3888592933727
 20
832.5903928759625
 30
0.0
 11
129.9038103770868
 21
965.6609984934942
 31
0.0
  0
LINE
  5
20E
330
1F
100
AcDbEntity
  8
0_Pen_No__1
  6
Continuous
100
AcDbLine
 10
464.3119076339722
 20
912.5903930726071
 30
0.0
 11
464.3119076339722
 21
872.590393072607
 31
0.0
  0
LINE
  5
20F
330
1F
100
AcDbEntity
  8
0_Pen_No__1
  6
Continuous
100
AcDbLine
 10
360.3888592933727
 20
812.5903928759625
 30
0.0
 11
464.3119076339722
 21
872.590393072607
 31
0.0
  0
LINE
  5
210
330
1F
100
AcDbEntity
  8
0_Pen_No__1
  6
Continuous
100
AcDbLine
 10
103.9230483405994
 20
1139.999999655866
 30
0.0
 11
181.8653345960452
 21
1094.999999508375
 31
0.0
  0
LINE
  5
211
330
1F
100
AcDbEntity
  8
0_Pen_No__1
  6
Continuous
100
AcDbLine
 10
88.07277179397698
 20
994.4114183856142
 30
0.0
 11
72.48431454288739
 21
1003.411418415112
 31
0.0
  0
LINE
  5
212
330
1F
100
AcDbEntity
  8
0_Pen_No__1
  6
Continuous
100
AcDbLine
 10
377.7093673501394
 20
782.5903929087365
 30
0.0
 11
446.991399577206
 21
822.590393039833
 31
0.0
  0
LINE
  5
213
330
1F
100
AcDbEntity
  8
0_Pen_No__1
  6
Continuous
100
AcDbLine
 10
282.4013927603754
 20
1124.607100561089
 30
0.0
 11
247.7603766468416
 21
1104.607100495541
 31
0.0
  0
LINE
  5
214
330
1F
100
AcDbEntity
  8
0_Pen_No__1
  6
Continuous
100
AcDbLine
 10
263.3488338979307
 20
1095.607100466043
 30
0.0
 11
247.7603766468416
 21
1104.607100495541
 31
0.0
  0
LINE
  5
215
330
1F
100
AcDbEntity
  8
0_Pen_No__1
  6
Continuous
100
AcDbLine
 10
377.7093673501394
 20
822.5903929087365
 30
0.0
 11
377.7093673501394
 21
782.5903929087365
 31
0.0
  0
LINE
  5
216
330
1F
100
AcDbEntity
  8
0_Pen_No__1
  6
Continuous
100
AcDbLine
 10
446.991399577206
 20
862.590393039833
 30
0.0
 11
446.991399577206
 21
822.590393039833
 31
0.0
  0
LINE
  5
217
330
1F
100
AcDbEntity
  8
0_Pen_No__1
  6
Continuous
100
AcDbLine
 10
173.205080567666
 20
1179.999999786962
 30
0.0
 11
173.205080567666
 21
1139.999999655861
 31
0.0
  0
LINE
  5
218
330
1F
100
AcDbEntity
  8
0_Pen_No__1
  6
Continuous
100
AcDbLine
 10
69.28203222706608
 20
1079.999999459217
 30
0.0
 11
69.28203222706608
 21
1119.999999590317
 31
0.0
  0
LINE
  5
219
330
1F
100
AcDbEntity
  8
0_Pen_No__1
  6
Continuous
100
AcDbLine
 10
233.8268587663451
 20
1045.660998727596
 30
0.0
 11
129.9038104257452
 21
965.6609985309518
 31
0.0
  0
LINE
  5
21A
330
1F
100
AcDbEntity
  8
0_Pen_No__1
  6
Continuous
100
AcDbLine
 10
147.2243184825123
 20
764.653053476836
 30
0.0
 11
147.2243184825123
 21
790.5858243951584
 31
0.0
  0
LINE
  5
21B
330
1F
100
AcDbEntity
  8
0_Pen_No__1
  6
Continuous
100
AcDbLine
 10
34.64101611353287
 20
1099.999999524769
 30
0.0
 11
77.9422862554452
 21
1034.999999311731
 31
0.0
  0
LINE
  5
21C
330
1F
100
AcDbEntity
  8
0_Pen_No__1
  6
Continuous
100
AcDbLine
 10
-0.0000000000004441
 20
1079.999999459221
 30
0.0
 11
112.5833023689785
 21
1054.999999377279
 31
0.0
  0
LINE
  5
21D
330
1F
100
AcDbEntity
  8
0_Pen_No__1
  6
Continuous
100
AcDbLine
 10
138.5640644541327
 20
1159.999999721414
 30
0.0
 11
181.8653345960452
 21
1094.999999508375
 31
0.0
  0
LINE
  5
21E
330
1F
100
AcDbEntity
  8
0_Pen_No__1
  6
Continuous
100
AcDbLine
 10
103.9230483405994
 20
1139.999999655866
 30
0.0
 11
216.5063507095785
 21
1114.999999573923
 31
0.0
  0
LINE
  5
21F
330
1F
100
AcDbEntity
  8
0_Pen_No__1
  6
Continuous
100
AcDbLine
 10
103.9230483405994
 20
1139.999999655866
 30
0.0
 11
147.2243184825123
 21
1074.999999442827
 31
0.0
  0
LINE
  5
220
330
1F
100
AcDbEntity
  8
0_Pen_No__1
  6
Continuous
100
AcDbLine
 10
69.28203222706608
 20
1119.999999590318
 30
0.0
 11
181.8653345960452
 21
1094.999999508375
 31
0.0
  0
LINE
  5
221
330
1F
100
AcDbEntity
  8
0_Pen_No__1
  6
Continuous
100
AcDbLine
 10
207.8460966811989
 20
1199.99999985251
 30
0.0
 11
251.1473668231122
 21
1134.999999639471
 31
0.0
  0
LINE
  5
222
330
1F
100
AcDbEntity
  8
0_Pen_No__1
  6
Continuous
100
AcDbLine
 10
173.205080567666
 20
1179.999999786962
 30
0.0
 11
285.7883829366451
 21
1154.999999705019
 31
0.0
  0
LINE
  5
223
330
1F
100
AcDbEntity
  8
0_Pen_No__1
  6
Continuous
100
AcDbLine
 10
-0.0000000000004441
 20
769.6530534932299
 30
0.0
 11
77.9422862554452
 21
724.6530533457395
 31
0.0
  0
LINE
  5
224
330
1F
100
AcDbEntity
  8
0_Pen_No__1
  6
Continuous
100
AcDbLine
 10
112.5833023689785
 20
744.6530534112879
 30
0.0
 11
77.9422862554452
 21
724.6530533457395
 31
0.0
  0
LINE
  5
225
330
1F
100
AcDbEntity
  8
0_Pen_No__1
  6
Continuous
100
AcDbLine
 10
129.9038104257452
 20
905.6609984654015
 30
0.0
 11
129.9038104257452
 21
965.6609985309518
 31
0.0
  0
LINE
  5
226
330
1F
100
AcDbEntity
  8
0_Pen_No__1
  6
Continuous
100
AcDbLine
 10
-0.0000000000004441
 20
769.6530534932299
 30
0.0
 11
-0.0000000000004441
 21
843.93769056661
 31
0.0
  0
LINE
  5
227
330
1F
100
AcDbEntity
  8
0_Pen_No__1
  6
Continuous
100
AcDbLine
 10
-0.0000000000004441
 20
962.5736497832914
 30
0.0
 11
-0.0000000000004441
 21
1079.999999459221
 31
0.0
  0
LINE
  5
228
330
1F
100
AcDbEntity
  8
0_Pen_No__1
  6
Continuous
100
AcDbLine
 10
282.4013927603754
 20
1124.607100561089
 30
0.0
 11
263.3488338979307
 21
1095.607100466043
 31
0.0
  0
LINE
  5
229
330
1F
100
AcDbEntity
  8
0_Pen_No__1
  6
Continuous
100
AcDbLine
 10
247.7603766468416
 20
1104.607100495541
 30
0.0
 11
297.9898500114641
 21
1115.607100531591
 31
0.0
  0
LINE
  5
22A
330
1F
100
AcDbEntity
  8
0_Pen_No__1
  6
Continuous
100
AcDbLine
 10
107.1253306564207
 20
1023.41141848066
 30
0.0
 11
88.07277179397698
 21
994.4114183856142
 31
0.0
  0
LINE
  5
22B
330
1F
100
AcDbEntity
  8
0_Pen_No__1
  6
Continuous
100
AcDbLine
 10
72.48431454288739
 20
1003.411418415112
 30
0.0
 11
122.7137879075099
 21
1014.411418451162
 31
0.0
  0
LINE
  5
22C
330
1F
100
AcDbEntity
  8
0_Pen_No__1
  6
Continuous
100
AcDbLine
 10
216.5063507095785
 20
1097.016286250043
 30
0.0
 11
216.5063507095785
 21
1114.999999573923
 31
0.0
  0
LINE
  5
22D
330
1F
100
AcDbEntity
  8
0_Pen_No__1
  6
Continuous
100
AcDbLine
 10
251.1473668231118
 20
1106.562580194098
 30
0.0
 11
251.1473668231122
 21
1134.999999639471
 31
0.0
  0
LINE
  5
22E
330
1F
100
AcDbEntity
  8
0_Pen_No__1
  6
Continuous
100
AcDbLine
 10
285.7883829366451
 20
1122.651620862531
 30
0.0
 11
285.7883829366451
 21
1154.999999705019
 31
0.0
  0
LINE
  5
22F
330
1F
100
AcDbEntity
  8
0_Pen_No__1
  6
Continuous
100
AcDbLine
 10
247.7603766468416
 20
1037.616478327828
 30
0.0
 11
247.7603766468416
 21
1104.607100495541
 31
0.0
  0
LINE
  5
230
330
1F
100
AcDbEntity
  8
0_Pen_No__1
  6
Continuous
100
AcDbLine
 10
263.3488338979307
 20
1028.616478298329
 30
0.0
 11
263.3488338979307
 21
1095.607100466043
 31
0.0
  0
LINE
  5
231
330
1F
100
AcDbEntity
  8
0_Pen_No__1
  6
Continuous
100
AcDbLine
 10
297.9898500114641
 20
1008.616478232777
 30
0.0
 11
297.9898500114641
 21
1115.607100531591
 31
0.0
  0
LINE
  5
232
330
1F
100
AcDbEntity
  8
0_Pen_No__1
  6
Above
100
AcDbLine
 10
129.9038104257452
 20
905.6609984654015
 30
0.0
 11
108.253175354787
 21
893.1609984244336
 31
0.0
  0
LINE
  5
233
330
1F
100
AcDbEntity
  8
0_Pen_No__1
  6
Continuous
100
AcDbLine
 10
174.6735271563294
 20
765.4649919870683
 30
0.0
 11
209.3145432698637
 21
745.4649919215158
 31
0.0
  0
LINE
  5
234
330
1F
100
AcDbEntity
  8
0_Pen_No__1
  6
Continuous
100
AcDbLine
 10
209.3145432698637
 20
745.4649919215158
 30
0.0
 11
224.9030005209519
 21
754.4649919510122
 31
0.0
  0
LINE
  5
235
330
1F
100
AcDbEntity
  8
0_Pen_No__1
  6
Continuous
100
AcDbLine
 10
209.3145432698632
 20
745.4649919215158
 30
0.0
 11
209.3145432698637
 21
899.8131902809455
 31
0.0
  0
LINE
  5
236
330
1F
100
AcDbEntity
  8
0_Pen_No__1
  6
Continuous
100
AcDbLine
 10
174.6735271563294
 20
765.4649919870683
 30
0.0
 11
174.6735271563299
 21
879.813190346498
 31
0.0
  0
LINE
  5
237
330
1F
100
AcDbEntity
  8
0_Pen_No__1
  6
Above
100
AcDbLine
 10
108.253175354787
 20
977.0184287372302
 30
0.0
 11
122.7137879075099
 21
987.1100777415847
 31
0.0
  0
LINE
  5
238
330
1F
100
AcDbEntity
  8
0_Pen_No__1
  6
Above
100
AcDbLine
 10
108.253175354787
 20
977.0184287372302
 30
0.0
 11
108.253175354787
 21
893.1609984244336
 31
0.0
  0
LINE
  5
239
330
1F
100
AcDbEntity
  8
0_Pen_No__1
  6
Continuous
100
AcDbLine
 10
147.2243184825123
 20
764.653053476836
 30
0.0
 11
174.6735271563294
 21
780.5008615629597
 31
0.0
  0
LINE
  5
23A
330
1F
100
AcDbEntity
  8
0_Pen_No__1
  6
Continuous
100
AcDbLine
 10
224.9030005209519
 20
784.7693760162188
 30
0.0
 11
251.1473668231122
 21
769.6171840007396
 31
0.0
  0
LINE
  5
23B
330
1F
100
AcDbEntity
  8
0_Pen_No__1
  6
Continuous
100
AcDbLine
 10
251.1473668231122
 20
769.6171840007396
 30
0.0
 11
251.1473668231122
 21
791.2296729803571
 31
0.0
  0
LINE
  5
23C
330
1F
100
AcDbEntity
  8
0_Pen_No__1
  6
Continuous
100
AcDbLine
 10
271.7169163798831
 20
781.4930190263468
 30
0.0
 11
251.1473668231122
 21
769.6171840007396
 31
0.0
  0
LINE
  5
23D
330
1F
100
AcDbEntity
  8
0_Pen_No__1
  6
Continuous
100
AcDbLine
 10
77.9422862554452
 20
1026.172156149703
 30
0.0
 11
77.9422862554452
 21
1034.999999311731
 31
0.0
  0
LINE
  5
23E
330
1F
100
AcDbEntity
  8
0_Pen_No__1
  6
Continuous
100
AcDbLine
 10
112.5833023689785
 20
1042.556072860172
 30
0.0
 11
112.5833023689785
 21
1054.999999377279
 31
0.0
  0
LINE
  5
23F
330
1F
100
AcDbEntity
  8
0_Pen_No__1
  6
Continuous
100
AcDbLine
 10
147.2243184825123
 20
1062.205150295429
 30
0.0
 11
147.2243184825123
 21
1074.999999442827
 31
0.0
  0
LINE
  5
240
330
1F
100
AcDbEntity
  8
0_Pen_No__1
  6
Continuous
100
AcDbLine
 10
181.8653345960452
 20
1084.999088210362
 30
0.0
 11
181.8653345960452
 21
1094.999999508375
 31
0.0
  0
LINE
  5
241
330
1F
100
AcDbEntity
  8
0_Pen_No__1
  6
Continuous
100
AcDbLine
 10
112.5833023689785
 20
744.6530534112879
 30
0.0
 11
112.5833023689785
 21
748.316489687063
 31
0.0
  0
LINE
  5
242
330
1F
100
AcDbEntity
  8
0_Pen_No__1
  6
Continuous
100
AcDbLine
 10
72.48431454288739
 20
743.1653282292642
 30
0.0
 11
72.48431454288739
 21
1003.411418415112
 31
0.0
  0
LINE
  5
243
330
1F
100
AcDbEntity
  8
0_Pen_No__1
  6
Continuous
100
AcDbLine
 10
88.07277179397744
 20
734.1653281997661
 30
0.0
 11
88.07277179397698
 21
994.4114183856142
 31
0.0
  0
LINE
  5
244
330
1F
100
AcDbEntity
  8
0_Pen_No__1
  6
Continuous
100
AcDbLine
 10
122.7137879075103
 20
754.1653282653141
 30
0.0
 11
122.7137879075099
 21
1014.411418451162
 31
0.0
  0
LINE
  5
245
330
1F
100
AcDbEntity
  8
0_Pen_No__1
  6
Continuous
100
AcDbLine
 10
88.07277179397744
 20
734.1653281997661
 30
0.0
 11
72.48431454288739
 21
743.1653282292642
 31
0.0
  0
LINE
  5
246
330
1F
100
AcDbEntity
  8
0_Pen_No__1
  6
Continuous
100
AcDbLine
 10
88.07277179397744
 20
734.1653281997661
 30
0.0
 11
122.7137879075103
 21
754.1653282653141
 31
0.0
  0
LINE
  5
247
330
1F
100
AcDbEntity
  8
0_Pen_No__1
  6
Continuous
100
AcDbLine
 10
77.9422862554452
 20
724.6530533457395
 30
0.0
 11
77.9422862554452
 21
740.014166778019
 31
0.0
  0
LINE
  5
248
330
1F
100
AcDbEntity
  8
0_Pen_No__1
  6
Continuous
100
AcDbLine
 10
122.7137879075103
 20
778.8042149641351
 30
0.0
 11
147.2243184825123
 21
764.653053476836
 31
0.0
  0
LINE
  5
249
330
1F
100
AcDbEntity
  8
0_Pen_No__1
  6
Continuous
100
AcDbLine
 10
173.205080567666
 20
1179.999999786962
 30
0.0
 11
251.1473668231122
 21
1134.999999639471
 31
0.0
  0
LINE
  5
24A
330
1F
100
AcDbEntity
  8
0_Pen_No__1
  6
Continuous
100
AcDbLine
 10
34.64101611353287
 20
1099.999999524769
 30
0.0
 11
112.5833023689785
 21
1054.999999377279
 31
0.0
  0
LINE
  5
24B
330
1F
100
AcDbEntity
  8
0_Pen_No__1
  6
Continuous
100
AcDbLine
 10
-0.0000000000004441
 20
1079.999999459221
 30
0.0
 11
34.64101611353287
 21
1099.999999524769
 31
0.0
  0
LINE
  5
24C
330
1F
100
AcDbEntity
  8
0_Pen_No__1
  6
Continuous
100
AcDbLine
 10
-0.0000000000004441
 20
1079.999999459221
 30
0.0
 11
77.9422862554452
 21
1034.999999311731
 31
0.0
  0
LINE
  5
24D
330
1F
100
AcDbEntity
  8
0_Pen_No__1
  6
Continuous
100
AcDbLine
 10
77.9422862554452
 20
1034.999999311731
 30
0.0
 11
112.5833023689785
 21
1054.999999377279
 31
0.0
  0
LINE
  5
24E
330
1F
100
AcDbEntity
  8
0_Pen_No__1
  6
Continuous
100
AcDbLine
 10
107.1253306564207
 20
1023.41141848066
 30
0.0
 11
72.48431454288739
 21
1003.411418415112
 31
0.0
  0
LINE
  5
24F
330
1F
100
AcDbEntity
  8
0_Pen_No__1
  6
Continuous
100
AcDbLine
 10
88.07277179397698
 20
994.4114183856142
 30
0.0
 11
122.7137879075099
 21
1014.411418451162
 31
0.0
  0
LINE
  5
250
330
1F
100
AcDbEntity
  8
0_Pen_No__1
  6
Continuous
100
AcDbLine
 10
122.7137879075099
 20
1014.411418451162
 30
0.0
 11
107.1253306564207
 21
1023.41141848066
 31
0.0
  0
LINE
  5
251
330
1F
100
AcDbEntity
  8
0_Pen_No__1
  6
Continuous
100
AcDbLine
 10
233.8268587176863
 20
1045.660998690139
 30
0.0
 11
464.3119076339722
 21
912.5903930726071
 31
0.0
  0
LINE
  5
252
330
1F
100
AcDbEntity
  8
0_Pen_No__1
  6
Continuous
100
AcDbLine
 10
303.1088909934073
 20
1005.660998530944
 30
0.0
 11
199.1858426528074
 21
925.6609983342993
 31
0.0
  0
LINE
  5
253
330
1F
100
AcDbEntity
  8
0_Pen_No__1
  6
Continuous
100
AcDbLine
 10
199.1858426528074
 20
925.6609983342993
 30
0.0
 11
199.1858426528074
 21
865.6609983342992
 31
0.0
  0
LINE
  5
254
330
1F
100
AcDbEntity
  8
0_Pen_No__1
  6
Continuous
100
AcDbLine
 10
464.3119076339722
 20
912.5903930726071
 30
0.0
 11
360.3888592933727
 21
832.5903928759625
 31
0.0
  0
LINE
  5
255
330
1F
100
AcDbEntity
  8
0_Pen_No__1
  6
Continuous
100
AcDbLine
 10
297.9898500114641
 20
1115.607100531591
 30
0.0
 11
282.4013927603754
 21
1124.607100561089
 31
0.0
  0
LINE
  5
256
330
1F
100
AcDbEntity
  8
0_Pen_No__1
  6
Continuous
100
AcDbLine
 10
263.3488338979307
 20
1095.607100466043
 30
0.0
 11
297.9898500114641
 21
1115.607100531591
 31
0.0
  0
LINE
  5
257
330
1F
100
AcDbEntity
  8
0_Pen_No__1
  6
Continuous
100
AcDbLine
 10
138.5640644541327
 20
1159.999999721414
 30
0.0
 11
103.9230483405994
 21
1139.999999655866
 31
0.0
  0
LINE
  5
258
330
1F
100
AcDbEntity
  8
0_Pen_No__1
  6
Continuous
100
AcDbLine
 10
138.5640644541327
 20
1159.999999721414
 30
0.0
 11
216.5063507095785
 21
1114.999999573923
 31
0.0
  0
LINE
  5
259
330
1F
100
AcDbEntity
  8
0_Pen_No__1
  6
Above
100
AcDbLine
 10
199.1858426528074
 20
905.6609983342993
 30
0.0
 11
129.9038104257452
 21
945.6609984654013
 31
0.0
  0
LINE
  5
25A
330
1F
100
AcDbEntity
  8
0_Pen_No__1
  6
Above
100
AcDbLine
 10
174.6735271563294
 20
879.813190346498
 30
0.0
 11
174.6735271563294
 21
919.813190346498
 31
0.0
  0
LINE
  5
25B
330
1F
100
AcDbEntity
  8
0_Pen_No__1
  6
Above
100
AcDbLine
 10
233.8268587663451
 20
1045.660998727596
 30
0.0
 11
233.8268587663451
 21
994.4474829334931
 31
0.0
  0
LINE
  5
25C
330
1F
100
AcDbEntity
  8
0_Pen_No__1
  6
Above
100
AcDbLine
 10
233.8268587663451
 20
994.4474829334931
 30
0.0
 11
303.1088909934073
 21
954.4474828023913
 31
0.0
  0
LINE
  5
25D
330
1F
100
AcDbEntity
  8
0_Pen_No__1
  6
Above
100
AcDbLine
 10
303.1088909934073
 20
1005.660998530944
 30
0.0
 11
303.1088909934073
 21
954.4474828023913
 31
0.0
  0
LINE
  5
25E
330
1F
100
AcDbEntity
  8
0_Pen_No__1
  6
Above
100
AcDbLine
 10
233.8268587663451
 20
994.4474829334931
 30
0.0
 11
247.9501321134284
 21
1002.601558637903
 31
0.0
  0
LINE
  5
25F
330
1F
100
AcDbEntity
  8
0_Pen_No__1
  6
Above
100
AcDbLine
 10
247.9501321134284
 20
1002.601558637903
 30
0.0
 11
247.9501321134284
 21
1037.616478327828
 31
0.0
  0
LINE
  5
260
330
1F
100
AcDbEntity
  8
0_Pen_No__1
  6
Continuous
100
AcDbLine
 10
209.3145432698632
 20
867.5692472285258
 30
0.0
 11
360.3888592933727
 21
780.3464498235425
 31
0.0
  0
LINE
  5
261
330
1F
100
AcDbEntity
  8
0_Pen_No__1
  6
Continuous
100
AcDbLine
 10
360.3888592933727
 20
780.3464498235425
 30
0.0
 11
376.7789792772763
 21
789.8092900496508
 31
0.0
  0
LINE
  5
262
330
1F
100
AcDbEntity
  8
0_Pen_No__1
  6
Continuous
100
AcDbLine
 10
376.7789792772763
 20
789.8092900496508
 30
0.0
 11
376.7789792772763
 21
820.4132602612767
 31
0.0
  0
LINE
  5
263
330
1F
100
AcDbEntity
  8
0_Pen_No__1
  6
Continuous
100
AcDbLine
 10
376.7789792772763
 20
820.4132602612767
 30
0.0
 11
360.3888592933732
 21
810.9504200351683
 31
0.0
  0
LINE
  5
264
330
1F
100
AcDbEntity
  8
0_Pen_No__1
  6
Continuous
100
AcDbLine
 10
360.3888592933727
 20
780.3464498235425
 30
0.0
 11
376.7789792772763
 21
820.4132602612767
 31
0.0
  0
LINE
  5
265
330
1F
100
AcDbEntity
  8
0_Pen_No__1
  6
Continuous
100
AcDbLine
 10
360.3888592933732
 20
810.9504200351683
 30
0.0
 11
376.7789792772763
 21
789.8092900496508
 31
0.0
  0
LINE
  5
266
330
1F
100
AcDbEntity
  8
0_Pen_No__1
  6
Continuous
100
AcDbLine
 10
224.9030005209519
 20
754.4649919510122
 30
0.0
 11
224.9030005209519
 21
858.5692471990277
 31
0.0
  0
LINE
  5
267
330
1F
100
AcDbEntity
  8
0_Pen_No__1
  6
Continuous
100
AcDbLine
 10
360.3888592933727
 20
812.590392875962
 30
0.0
 11
199.1858426528074
 21
905.6609983342993
 31
0.0
  0
LINE
  5
268
330
1F
100
AcDbEntity
  8
0_Pen_No__1
  6
Continuous
100
AcDbLine
 10
360.3888592933727
 20
832.5903928759625
 30
0.0
 11
360.3888592933727
 21
812.590392875962
 31
0.0
  0
LINE
  5
269
330
1F
100
AcDbEntity
  8
0_Pen_No__1
  6
Continuous
100
AcDbLine
 10
360.3888592933732
 20
810.9504200351683
 30
0.0
 11
209.3145432698637
 21
898.1732174401519
 31
0.0
  0
LINE
  5
26A
330
1F
100
AcDbEntity
  8
0_Pen_No__1
  6
Continuous
100
AcDbLine
 10
360.3888592933727
 20
780.3464498235425
 30
0.0
 11
360.3888592933727
 21
810.9504200351688
 31
0.0
  0
LINE
  5
26B
330
1F
100
AcDbEntity
  8
0_Pen_No__1
  6
Continuous
100
AcDbLine
 10
447.9217876500691
 20
830.8836097940784
 30
0.0
 11
464.3119076339722
 21
840.346450020187
 31
0.0
  0
LINE
  5
26C
330
1F
100
AcDbEntity
  8
0_Pen_No__1
  6
Continuous
100
AcDbLine
 10
464.3119076339722
 20
870.9504202318129
 30
0.0
 11
447.9217876500691
 21
861.4875800057046
 31
0.0
  0
LINE
  5
26D
330
1F
100
AcDbEntity
  8
0_Pen_No__1
  6
Continuous
100
AcDbLine
 10
447.9217876500691
 20
830.8836097940784
 30
0.0
 11
464.3119076339722
 21
870.9504202318129
 31
0.0
  0
LINE
  5
26E
330
1F
100
AcDbEntity
  8
0_Pen_No__1
  6
Continuous
100
AcDbLine
 10
447.9217876500691
 20
861.4875800057046
 30
0.0
 11
464.3119076339722
 21
840.346450020187
 31
0.0
  0
LINE
  5
26F
330
1F
100
AcDbEntity
  8
0_Pen_No__1
  6
Continuous
100
AcDbLine
 10
447.9217876500691
 20
830.8836097940784
 30
0.0
 11
447.9217876500691
 21
861.487580005705
 31
0.0
  0
LINE
  5
270
330
1F
100
AcDbEntity
  8
0_Pen_No__1
  6
Continuous
100
AcDbLine
 10
464.3119076339722
 20
840.346450020187
 30
0.0
 11
464.3119076339722
 21
870.9504202318129
 31
0.0
  0
LWPOLYLINE
  5
271
330
1F
100
AcDbEntity
  8
0_Pen_No__1
  6
Continuous
100
AcDbPolyline
 90
       44
 70
   129
 43
0.0
 10
41.13183627910328
 20
94.53629611644044
 10
41.13183627910328
 20
97.79824842244112
 10
54.12221727910044
 20
90.2982484224415
 10
54.12221727910044
 20
189.6433200604397
 10
50.90327042732795
 20
193.8303674599409
 10
47.57682678454106
 20
199.3017433349373
 10
44.83490978274535
 20
205.0486878509403
 10
42.7608311823357
 20
210.8965830064386
 10
41.41761081335677
 20
216.6677434664366
 10
41.13183627910328
 20
219.4272794534338
 10
41.13183627910328
 20
245.406943976433
 10
46.05635909445688
 20
242.5637693909364
 10
46.05635909445688
 20
252.9837791715099
 10
42.85432300875941
 20
254.8324755756188
 10
42.85432300875941
 20
249.2278132790471
 10
35.06965847910365
 20
253.7222914604365
 10
35.06965847910365
 20
229.9272794534373
 10
34.81260267473058
 20
226.7319923309357
 10
35.31197725568441
 20
219.7547927759356
 10
36.80966478328379
 20
212.4029665899383
 10
39.2601587802876
 20
204.8998952909402
 10
42.58900222535583
 20
197.4735559034388
 10
46.69504989632806
 20
190.3495939919382
 10
48.0600394791017
 20
188.4883916984377
 10
48.06003947909904
 20
100.7982484224432
 10
35.06965847910365
 20
108.2982484224417
 10
34.52029048875133
 20
104.6607143739413
 10
34.62769542045135
 20
96.58913305244266
 10
35.9379778210393
 20
87.96628941943973
 10
38.41132542207898
 20
79.05418421394384
 10
41.97258681007593
 20
70.12360724394284
 10
46.51355485833303
 20
61.44590957044316
 10
48.06003947909815
 20
59.14332006044765
 10
48.06003947909593
 20
-5.697878109882685
 10
49.79209034380938
 20
-6.697878142875161
 10
50.65811574759383
 20
-9.19787814287515
 10
51.52414115137827
 20
-5.69787814287516
 10
52.39016655516271
 20
-8.197878142875147
 10
54.1222173494883
 20
-9.197878135229121
 10
54.12221727910044
 20
60.29824842244391
 10
50.4596933952412
 20
65.8924677729429
 10
46.83384276943364
 20
72.9989422309445
 10
44.01696393923022
 20
80.28922179694308
 10
42.09464634300225
 20
87.54179501444082
  0
ELLIPSE
  5
272
330
1F
100
AcDbEntity
  8
0_Pen_No__1
  6
Continuous
100
AcDbEllipse
 10
276.2783000446755
 20
301.6115085763762
 30
0.0
 11
-5.482931648390196
 21
-3.169819859225592
 31
0.0
210
0.0
220
0.0
230
1.0
 40
0.6666666666666672
 41
0.0
 42
6.283185307179586
  0
ELLIPSE
  5
273
330
1F
100
AcDbEntity
  8
0_Pen_No__1
  6
Continuous
100
AcDbEllipse
 10
230.9357396357052
 20
262.3436992608801
 30
0.0
 11
-5.482931648390196
 21
-3.169819859225592
 31
0.0
210
0.0
220
0.0
230
1.0
 40
0.6666666666666672
 41
0.0
 42
6.283185307179586
  0
ELLIPSE
  5
274
330
1F
100
AcDbEntity
  8
0_Pen_No__1
  6
Continuous
100
AcDbEllipse
 10
189.6231288651417
 20
226.5659287196551
 30
0.0
 11
-5.482931648390085
 21
-3.169819859225478
 31
0.0
210
0.0
220
0.0
230
1.0
 40
0.6666666666666679
 41
0.0
 42
6.283185307179586
  0
ELLIPSE
  5
275
330
1F
100
AcDbEntity
  8
0_Pen_No__1
  6
Continuous
100
AcDbEllipse
 10
276.2783000446755
 20
301.6115085763762
 30
0.0
 11
-3.197192412115467
 21
-1.848376863254233
 31
0.0
210
0.0
220
0.0
230
1.0
 40
0.6666666666666666
 41
0.0
 42
6.283185307179586
  0
ELLIPSE
  5
276
330
1F
100
AcDbEntity
  8
0_Pen_No__1
  6
Continuous
100
AcDbEllipse
 10
189.6231288651417
 20
226.5659287196551
 30
0.0
 11
-3.197192412115356
 21
-1.848376863254232
 31
0.0
210
0.0
220
0.0
230
1.0
 40
0.6666666666666674
 41
0.0
 42
6.283185307179586
  0
ELLIPSE
  5
277
330
1F
100
AcDbEntity
  8
0_Pen_No__1
  6
Continuous
100
AcDbEllipse
 10
230.9357396357052
 20
262.3436992608801
 30
0.0
 11
-3.197192412115467
 21
-1.848376863254233
 31
0.0
210
0.0
220
0.0
230
1.0
 40
0.6666666666666666
 41
0.0
 42
6.283185307179586
  0
DIMENSION
  5
282
330
1F
100
AcDbEntity
  8
0
  6
Continuous
100
AcDbDimension
  2
*D1
 10
686.1335182526237
 20
406.5638868426066
 30
0.0
 11
675.8034334922099
 21
381.8359257147563
 31
0.0
 70
   160
  1
50mm min
 71
     5
 42
-1.0
 53
30.00000010841584
  3
GENERATED_STYLE__1
100
AcDbAlignedDimension
 13
642.832248021718
 23
381.5638868055586
 33
0.0
 14
686.133518258245
 24
406.5638868328704
 34
0.0
 50
30.00000010841584
100
AcDbRotatedDimension
  0
DIMENSION
  5
292
330
1F
100
AcDbEntity
  8
0
  6
Continuous
100
AcDbDimension
  2
*D3
 10
747.5493649526979
 20
697.0223429873706
 30
0.0
 11
763.799364915445
 21
670.526222352347
 31
0.0
 70
   160
  1
50mm min
 71
     5
 42
-1.0
 53
90.0
  3
GENERATED_STYLE__1
100
AcDbAlignedDimension
 13
747.5493649526979
 23
647.02234298737
 33
0.0
 14
747.5493649526979
 24
697.0223429873706
 34
0.0
 50
90.0
100
AcDbRotatedDimension
  0
DIMENSION
  5
29C
330
1F
100
AcDbEntity
  8
0
  6
Continuous
100
AcDbDimension
  2
*D4
 10
599.5309780674653
 20
381.5638869350362
 30
0.0
 11
560.6047069469818
 21
414.1416099080821
 31
0.0
 70
   160
  1
100mm min
 71
     5
 42
-1.0
 53
329.9999998915791
  3
GENERATED_STYLE__2
100
AcDbAlignedDimension
 13
512.9284377486488
 23
431.563886911504
 33
0.0
 14
599.5309780728187
 24
381.5638869443088
 34
0.0
 50
329.9999998915791
100
AcDbRotatedDimension
  0
WIPEOUT
  5
29E
330
1F
100
AcDbEntity
  8
Key_ Sections_Pen_No__1
  6
Wipeout_Contour
 48
4055.917127195494
 92
      296
310
28010000060000000C0000000E000000120000000C00000016000000000000C20C00000014000000010000006C00000007000000040000009699999999E9894050DF9E864EFC80400000000000000000876CE7FBA9838C4050DF9E864EFC80400000000000000000876CE7FBA9838C401227CFFA19D87E4000000000000000
310
009699999999E989401227CFFA19D87E4000000000000000000C0000000E000000070000008400000006000000050000009699999999E9894050DF9E864EFC80400000000000000000876CE7FBA9838C4050DF9E864EFC80400000000000000000876CE7FBA9838C401227CFFA19D87E4000000000000000009699999999E9
310
89401227CFFA19D87E4000000000000000009699999999E9894050DF9E864EFC80400000000000000000
100
AcDbWipeout
 90
        0
 10
829.1999999999996
 20
493.5063427059077
 30
0.0
 11
83.25799999999992
 21
0.0
 31
0.0
 12
0.0
 22
50.03200000000004
 32
0.0
 13
1.0
 23
1.0
340
0
 70
    15
280
     1
281
    50
282
    50
283
     0
360
0
 71
     2
 91
        5
 14
-0.4999999999999993
 24
-0.5000000000000011
 14
0.5000000000000007
 24
-0.5000000000000011
 14
0.5000000000000007
 24
0.4999999999999989
 14
-0.4999999999999993
 24
0.4999999999999989
 14
-0.4999999999999993
 24
-0.5000000000000011
  0
MTEXT
  5
2A1
102
{ACAD_REACTORS
330
2A2
102
}
330
1F
100
AcDbEntity
  8
Key_ Sections_Pen_No__1
  6
Continuous
100
AcDbMText
 10
834.1999999999996
 20
519.324756945619
 30
0.0
 40
12.5
 41
73.25800000000001
 71
     4
 72
     1
  1
{2 lines of \Psealant}
  7
GENERATED_STYLE_1
 73
     1
 44
0.9509258056594946
  0
LEADER
  5
2A2
330
1F
100
AcDbEntity
  8
Key_ Sections_Pen_No__1
  6
Continuous
100
AcDbLeader
  3
GENERATED_STYLE__3
 72
     1
 73
     0
 74
     0
 40
32.71302601827544
 41
69.91249999999998
 76
     3
 10
758.5688013214188
 20
524.6602681293667
 30
0.0
 10
769.424855725899
 20
521.1098340478449
 30
0.0
 10
834.1099999999996
 20
519.324756945619
 30
0.0
340
2A1
  0
WIPEOUT
  5
2A9
330
1F
100
AcDbEntity
  8
Key_ Sections_Pen_No__1
  6
Wipeout_Contour
 48
4261.378474230512
 92
      296
310
28010000060000000C0000000E000000120000000C00000016000000000000C20C00000014000000010000006C00000007000000040000009699999999E989407E09A34226C383400000000000000000FCFFFFFFFFBF8C407E09A34226C383400000000000000000FCFFFFFFFFBF8C40B8BD6BB9E432824000000000000000
310
009699999999E98940B8BD6BB9E432824000000000000000000C0000000E000000070000008400000006000000050000009699999999E989407E09A34226C383400000000000000000FCFFFFFFFFBF8C407E09A34226C383400000000000000000FCFFFFFFFFBF8C40B8BD6BB9E432824000000000000000009699999999E9
310
8940B8BD6BB9E432824000000000000000009699999999E989407E09A34226C383400000000000000000
100
AcDbWipeout
 90
        0
 10
829.1999999999996
 20
582.3616817872307
 30
0.0
 11
90.79999999999995
 21
0.0
 31
0.0
 12
0.0
 22
50.03199999999993
 32
0.0
 13
1.0
 23
1.0
340
0
 70
    15
280
     1
281
    50
282
    50
283
     0
360
0
 71
     2
 91
        5
 14
-0.5
 24
-0.5
 14
0.5
 24
-0.5
 14
0.5
 24
0.5
 14
-0.5
 24
0.5
 14
-0.5
 24
-0.5
  0
MTEXT
  5
2AA
102
{ACAD_REACTORS
330
2AB
102
}
330
1F
100
AcDbEntity
  8
Key_ Sections_Pen_No__1
  6
Continuous
100
AcDbMText
 10
834.1999999999996
 20
606.5772388840847
 30
0.0
 40
12.5
 41
80.8
 71
     4
 72
     1
  1
{5 degrees \Pmin slope}
  7
GENERATED_STYLE_1
 73
     1
 44
0.9580130071785892
  0
LEADER
  5
2AB
330
1F
100
AcDbEntity
  8
Key_ Sections_Pen_No__1
  6
Continuous
100
AcDbLeader
  3
GENERATED_STYLE__3
 72
     1
 73
     0
 74
     0
 40
35.9211043162206
 41
76.18749999999999
 76
     3
 10
747.5493649290427
 20
572.022342727903
 30
0.0
 10
786.5595221249475
 20
598.9371398532486
 30
0.0
 10
834.1099999999996
 20
606.5772388840847
 30
0.0
340
2AA
  0
WIPEOUT
  5
2AC
330
1F
100
AcDbEntity
  8
Key_ Sections_Pen_No__1
  6
Wipeout_Contour
 48
3982.852555930798
 92
      296
310
28010000060000000C0000000E000000120000000C00000016000000000000C20C00000014000000010000006C00000007000000040000002238DEEB7D9E8040701D9054CE3C8940000000000000000003B3F299C50B8740701D9054CE3C8940000000000000000003B3F299C50B874041406B4E4D6C864000000000000000
310
002238DEEB7D9E804041406B4E4D6C864000000000000000000C0000000E000000070000008400000006000000050000002238DEEB7D9E8040701D9054CE3C8940000000000000000003B3F299C50B8740701D9054CE3C8940000000000000000003B3F299C50B874041406B4E4D6C864000000000000000002238DEEB7D9E
310
804041406B4E4D6C864000000000000000002238DEEB7D9E8040701D9054CE3C89400000000000000000
100
AcDbWipeout
 90
        0
 10
531.8114850388413
 20
717.5377472285255
 30
0.0
 11
205.66
 21
0.0
 31
0.0
 12
0.0
 22
90.06299999999999
 32
0.0
 13
1.0
 23
1.0
340
0
 70
    15
280
     1
281
    50
282
    50
283
     0
360
0
 71
     2
 91
        5
 14
-0.4999999999999997
 24
-0.5000000000000007
 14
0.5000000000000002
 24
-0.5000000000000007
 14
0.5000000000000002
 24
0.4999999999999994
 14
-0.4999999999999997
 24
0.4999999999999994
 14
-0.4999999999999997
 24
-0.5000000000000007
  0
MTEXT
  5
2AD
102
{ACAD_REACTORS
330
2AE
102
}
330
1F
100
AcDbEntity
  8
Key_ Sections_Pen_No__1
  6
Continuous
100
AcDbMText
 10
536.8114850388413
 20
761.6699899476595
 30
0.0
 40
12.49999999999999
 41
195.66
 71
     4
 72
     1
  1
{Cavity battens positioned \Pto form clear channel \Pbetween sloped timber \Pcapping and batten}
  7
GENERATED_STYLE_1
 73
     1
 44
0.9533197673736268
  0
LEADER
  5
2AE
330
1F
100
AcDbEntity
  8
Key_ Sections_Pen_No__1
  6
Continuous
100
AcDbLeader
  3
GENERATED_STYLE__3
 72
     1
 73
     0
 74
     0
 40
76.15014636198543
 41
192.7874999999999
 76
     3
 10
209.3145432698632
 20
827.5692472285256
 30
0.0
 10
325.9950972026634
 20
782.8977250642793
 30
0.0
 10
536.7214850388413
 20
761.6699899476595
 30
0.0
340
2AD
  0
WIPEOUT
  5
2AF
330
1F
100
AcDbEntity
  8
Key_ Sections_Pen_No__1
  6
Wipeout_Contour
 48
4941.571129436085
 92
      296
310
28010000060000000C0000000E000000120000000C00000016000000000000C20C00000014000000010000006C00000007000000040000002238DEEB7D9E8040633A93584FB09040000000000000000018613A7B403C8840633A93584FB09040000000000000000018613A7B403C8840FF28EF275DD08F4000000000000000
310
002238DEEB7D9E8040FF28EF275DD08F4000000000000000000C0000000E000000070000008400000006000000050000002238DEEB7D9E8040633A93584FB09040000000000000000018613A7B403C8840633A93584FB09040000000000000000018613A7B403C8840FF28EF275DD08F4000000000000000002238DEEB7D9E
310
8040FF28EF275DD08F4000000000000000002238DEEB7D9E8040633A93584FB090400000000000000000
100
AcDbWipeout
 90
        0
 10
531.8114850388413
 20
1018.045486324729
 30
0.0
 11
243.72
 21
0.0
 31
0.0
 12
0.0
 22
50.03200000000004
 32
0.0
 13
1.0
 23
1.0
340
0
 70
    15
280
     1
281
    50
282
    50
283
     0
360
0
 71
     2
 91
        5
 14
-0.5
 24
-0.5000000000000011
 14
0.5
 24
-0.5000000000000011
 14
0.5
 24
0.4999999999999989
 14
-0.5
 24
0.4999999999999989
 14
-0.5
 24
-0.5000000000000011
  0
MTEXT
  5
2B0
102
{ACAD_REACTORS
330
2B1
102
}
330
1F
100
AcDbEntity
  8
Key_ Sections_Pen_No__1
  6
Continuous
100
AcDbMText
 10
536.8114850388413
 20
1043.859614850154
 30
0.0
 40
12.49999999999999
 41
233.72
 71
     4
 72
     1
  1
{Flexible flashing tape dressed \P50mm min down face of batten}
  7
GENERATED_STYLE_1
 73
     1
 44
0.475592016261646
  0
LEADER
  5
2B1
330
1F
100
AcDbEntity
  8
Key_ Sections_Pen_No__1
  6
Continuous
100
AcDbLeader
  3
GENERATED_STYLE__3
 72
     1
 73
     0
 74
     0
 40
32.71846061781311
 41
228.0999999999999
 76
     3
 10
199.1858426528074
 20
885.6609983342993
 30
0.0
 10
477.3001597188327
 20
1031.46257729599
 30
0.0
 10
536.7214850388413
 20
1043.859614850154
 30
0.0
340
2B0
  0
WIPEOUT
  5
2B2
330
1F
100
AcDbEntity
  8
Key_ Sections_Pen_No__1
  6
Wipeout_Contour
 48
4275.592996537782
 92
      296
310
28010000060000000C0000000E000000120000000C00000016000000000000C20C00000014000000010000006C00000007000000040000002238DEEB7D9E80409B25569679468B4000000000000000005F42B58FEEA987409B25569679468B4000000000000000005F42B58FEEA98740D4D91E0D38B6894000000000000000
310
002238DEEB7D9E8040D4D91E0D38B6894000000000000000000C0000000E000000070000008400000006000000050000002238DEEB7D9E80409B25569679468B4000000000000000005F42B58FEEA987409B25569679468B4000000000000000005F42B58FEEA98740D4D91E0D38B6894000000000000000002238DEEB7D9E
310
8040D4D91E0D38B6894000000000000000002238DEEB7D9E80409B25569679468B400000000000000000
100
AcDbWipeout
 90
        0
 10
531.8114850388413
 20
822.7773687753893
 30
0.0
 11
225.4299999999999
 21
0.0
 31
0.0
 12
0.0
 22
50.03200000000004
 32
0.0
 13
1.0
 23
1.0
340
0
 70
    15
280
     1
281
    50
282
    50
283
     0
360
0
 71
     2
 91
        5
 14
-0.4999999999999997
 24
-0.4999999999999989
 14
0.5000000000000002
 24
-0.4999999999999989
 14
0.5000000000000002
 24
0.5000000000000011
 14
-0.4999999999999997
 24
0.5000000000000011
 14
-0.4999999999999997
 24
-0.4999999999999989
  0
MTEXT
  5
2B3
102
{ACAD_REACTORS
330
2B4
102
}
330
1F
100
AcDbEntity
  8
Key_ Sections_Pen_No__1
  6
Continuous
100
AcDbMText
 10
536.8114850388413
 20
846.894354443672
 30
0.0
 40
12.49999999999999
 41
215.43
 71
     4
 72
     1
  1
{Absorbent building underlay\Pbetween packer and framing}
  7
GENERATED_STYLE_1
 73
     1
 44
0.4772281251535572
  0
LEADER
  5
2B4
330
1F
100
AcDbEntity
  8
Key_ Sections_Pen_No__1
  6
Continuous
100
AcDbLeader
  3
GENERATED_STYLE__3
 72
     1
 73
     0
 74
     0
 40
36.25950521473152
 41
216.1374999999998
 76
     3
 10
446.991399577206
 20
791.2248262804654
 30
0.0
 10
507.9086553025239
 20
841.2728149201569
 30
0.0
 10
536.7214850388413
 20
846.894354443672
 30
0.0
340
2B3
  0
WIPEOUT
  5
2B5
330
1F
100
AcDbEntity
  8
Key_ Sections_Pen_No__1
  6
Wipeout_Contour
 48
4533.643335782308
 92
      296
310
28010000060000000C0000000E000000120000000C00000016000000000000C20C00000014000000010000006C00000007000000040000002238DEEB7D9E804080828FE4D9C48D400000000000000000E52D07480DA9874080828FE4D9C48D400000000000000000E52D07480DA98740BA36585B98348C4000000000000000
310
002238DEEB7D9E8040BA36585B98348C4000000000000000000C0000000E000000070000008400000006000000050000002238DEEB7D9E804080828FE4D9C48D400000000000000000E52D07480DA9874080828FE4D9C48D400000000000000000E52D07480DA98740BA36585B98348C4000000000000000002238DEEB7D9E
310
8040BA36585B98348C4000000000000000002238DEEB7D9E804080828FE4D9C48D400000000000000000
100
AcDbWipeout
 90
        0
 10
531.8114850388413
 20
902.5743929759694
 30
0.0
 11
225.3200000000001
 21
0.0
 31
0.0
 12
0.0
 22
50.03199999999993
 32
0.0
 13
1.0
 23
1.0
340
0
 70
    15
280
     1
281
    50
282
    50
283
     0
360
0
 71
     2
 91
        5
 14
-0.5000000000000002
 24
-0.5
 14
0.4999999999999997
 24
-0.5
 14
0.4999999999999997
 24
0.5
 14
-0.5000000000000002
 24
0.5
 14
-0.5000000000000002
 24
-0.5
  0
MTEXT
  5
2B6
102
{ACAD_REACTORS
330
2B7
102
}
330
1F
100
AcDbEntity
  8
Key_ Sections_Pen_No__1
  6
Continuous
100
AcDbMText
 10
536.8114850388413
 20
926.6913786442522
 30
0.0
 40
12.49999999999999
 41
215.32
 71
     4
 72
     1
  1
{Sloped packer to extend \Pacross cavity at wall junction}
  7
GENERATED_STYLE_1
 73
     1
 44
0.4772281251535569
  0
LEADER
  5
2B7
330
1F
100
AcDbEntity
  8
Key_ Sections_Pen_No__1
  6
Continuous
100
AcDbLeader
  3
GENERATED_STYLE__3
 72
     1
 73
     0
 74
     0
 40
36.14841619132666
 41
186.0874999999999
 76
     3
 10
317.0875892195805
 20
857.5903929841219
 30
0.0
 10
442.8213087837444
 20
913.816888853774
 30
0.0
 10
536.7214850388413
 20
926.6913786442522
 30
0.0
340
2B6
  0
WIPEOUT
  5
2B8
330
1F
100
AcDbEntity
  8
Key_ Sections_Pen_No__1
  6
Wipeout_Contour
 48
4674.813593771925
 92
      296
310
28010000060000000C0000000E000000120000000C00000016000000000000C20C00000014000000010000006C00000007000000040000002238DEEB7D9E8040F9C6AAE4D9908F40000000000000000036E625CDF85E8640F9C6AAE4D9908F40000000000000000036E625CDF85E8640337B735B98008E4000000000000000
310
002238DEEB7D9E8040337B735B98008E4000000000000000000C0000000E000000070000008400000006000000050000002238DEEB7D9E8040F9C6AAE4D9908F40000000000000000036E625CDF85E8640F9C6AAE4D9908F40000000000000000036E625CDF85E8640337B735B98008E4000000000000000002238DEEB7D9E
310
8040337B735B98008E4000000000000000002238DEEB7D9E8040F9C6AAE4D9908F400000000000000000
100
AcDbWipeout
 90
        0
 10
531.8114850388413
 20
960.0743931791279
 30
0.0
 11
184.0599999999999
 21
0.0
 31
0.0
 12
0.0
 22
50.03199999999993
 32
0.0
 13
1.0
 23
1.0
340
0
 70
    15
280
     1
281
    50
282
    50
283
     0
360
0
 71
     2
 91
        5
 14
-0.5
 24
-0.5
 14
0.5
 24
-0.5
 14
0.5
 24
0.5
 14
-0.5
 24
0.5
 14
-0.5
 24
-0.5
  0
MTEXT
  5
2B9
102
{ACAD_REACTORS
330
2BA
102
}
330
1F
100
AcDbEntity
  8
Key_ Sections_Pen_No__1
  6
Continuous
100
AcDbMText
 10
536.8114850388413
 20
984.1913788474106
 30
0.0
 40
12.49999999999999
 41
174.06
 71
     4
 72
     1
  1
{Sloped H3.1 packer at \P5 degree min slope}
  7
GENERATED_STYLE_1
 73
     1
 44
0.9482389079738854
  0
LEADER
  5
2BA
330
1F
100
AcDbEntity
  8
Key_ Sections_Pen_No__1
  6
Continuous
100
AcDbLeader
  3
GENERATED_STYLE__3
 72
     1
 73
     0
 74
     0
 40
36.11897801740039
 41
171.6999999999999
 76
     3
 10
408.0202564494834
 20
945.0903931791278
 30
0.0
 10
479.8789057331917
 20
977.1163286372174
 30
0.0
 10
536.7214850388413
 20
984.1913788474106
 30
0.0
340
2B9
  0
WIPEOUT
  5
2BB
330
1F
100
AcDbEntity
  8
Key_ Sections_Pen_No__1
  6
Wipeout_Contour
 48
5060.736491306662
 92
      296
310
28010000060000000C0000000E000000120000000C00000016000000000000C20C00000014000000010000006C0000000700000004000000B461DCEB7D9E8040F1042AC1CC8E914000000000000000002F768A335F458640F1042AC1CC8E914000000000000000002F768A335F4586400E5F8EFCABC6904000000000000000
310
00B461DCEB7D9E80400E5F8EFCABC6904000000000000000000C0000000E00000007000000840000000600000005000000B461DCEB7D9E8040F1042AC1CC8E914000000000000000002F768A335F458640F1042AC1CC8E914000000000000000002F768A335F4586400E5F8EFCABC690400000000000000000B461DCEB7D9E
310
80400E5F8EFCABC690400000000000000000B461DCEB7D9E8040F1042AC1CC8E91400000000000000000
100
AcDbWipeout
 90
        0
 10
531.81148502515
 20
1073.667955612709
 30
0.0
 11
180.86
 21
0.0
 31
0.0
 12
0.0
 22
50.03199999999993
 32
0.0
 13
1.0
 23
1.0
340
0
 70
    15
280
     1
281
    50
282
    50
283
     0
360
0
 71
     2
 91
        5
 14
-0.5000000000000003
 24
-0.4999999999999977
 14
0.4999999999999997
 24
-0.4999999999999977
 14
0.4999999999999997
 24
0.5000000000000022
 14
-0.5000000000000003
 24
0.5000000000000022
 14
-0.5000000000000003
 24
-0.4999999999999977
  0
MTEXT
  5
2BC
102
{ACAD_REACTORS
330
2BD
102
}
330
1F
100
AcDbEntity
  8
Key_ Sections_Pen_No__1
  6
Continuous
100
AcDbMText
 10
536.81148502515
 20
1097.784941280992
 30
0.0
 40
12.49999999999999
 41
170.86
 71
     4
 72
     1
  1
{Breather type building \Punderlay}
  7
GENERATED_STYLE_1
 73
     1
 44
0.9578820155126029
  0
LEADER
  5
2BD
330
1F
100
AcDbEntity
  8
Key_ Sections_Pen_No__1
  6
Continuous
100
AcDbLeader
  3
GENERATED_STYLE__3
 72
     1
 73
     0
 74
     0
 40
36.11837532317922
 41
167.2749999999999
 76
     3
 10
357.3346541618288
 20
1031.990298555848
 30
0.0
 10
475.6360914940977
 20
1088.678428169034
 30
0.0
 10
536.72148502515
 20
1097.784941280992
 30
0.0
340
2BC
  0
WIPEOUT
  5
2BE
330
1F
100
AcDbEntity
  8
Key_ Sections_Pen_No__1
  6
Wipeout_Contour
 48
5316.121771307324
 92
      296
310
28010000060000000C0000000E000000120000000C00000016000000000000C20C00000014000000010000006C0000000700000004000000975D753AD8A88040B6E88E1A68B992400000000000000000A13419AB15178740B6E88E1A68B992400000000000000000A13419AB15178740E16FA5F336A1914000000000000000
310
00975D753AD8A88040E16FA5F336A1914000000000000000000C0000000E00000007000000840000000600000005000000975D753AD8A88040B6E88E1A68B992400000000000000000A13419AB15178740B6E88E1A68B992400000000000000000A13419AB15178740E16FA5F336A191400000000000000000975D753AD8A8
310
8040E16FA5F336A191400000000000000000975D753AD8A88040B6E88E1A68B992400000000000000000
100
AcDbWipeout
 90
        0
 10
533.1055802506625
 20
1128.303663811639
 30
0.0
 11
205.78
 21
0.0
 31
0.0
 12
0.0
 22
70.048
 32
0.0
 13
1.0
 23
1.0
340
0
 70
    15
280
     1
281
    50
282
    50
283
     0
360
0
 71
     2
 91
        5
 14
-0.5
 24
-0.4999999999999984
 14
0.5
 24
-0.4999999999999984
 14
0.5
 24
0.5000000000000017
 14
-0.5
 24
0.5000000000000017
 14
-0.5
 24
-0.4999999999999984
  0
MTEXT
  5
2BF
102
{ACAD_REACTORS
330
2C0
102
}
330
1F
100
AcDbEntity
  8
Key_ Sections_Pen_No__1
  6
Continuous
100
AcDbMText
 10
538.1055802506625
 20
1162.428778005348
 30
0.0
 40
12.49999999999999
 41
195.78
 71
     4
 72
     1
  1
{Flexible flashing tape \Pdressed up and adherred \Pto building underlay}
  7
GENERATED_STYLE_1
 73
     1
 44
0.9544562503071139
  0
LEADER
  5
2C0
330
1F
100
AcDbEntity
  8
Key_ Sections_Pen_No__1
  6
Continuous
100
AcDbLeader
  3
GENERATED_STYLE__3
 72
     1
 73
     0
 74
     0
 40
56.13433238265332
 41
193.0874999999999
 76
     3
 10
185.2370822771759
 20
1032.927677262615
 30
0.0
 10
239.4545866278207
 20
1111.902521855832
 30
0.0
 10
538.0155802506624
 20
1162.428778005348
 30
0.0
340
2BF
  0
WIPEOUT
  5
2C1
330
1F
100
AcDbEntity
  8
Key_ Sections_Pen_No__1
  6
Wipeout_Contour
 48
3778.053777165866
 92
      296
310
28010000060000000C0000000E000000120000000C00000016000000000000C20C00000014000000010000006C00000007000000040000001E38DEEB7D9E8040D416A73C4D94864000000000000000005B42B58FEE3F8640D416A73C4D94864000000000000000005B42B58FEE3F8640F0700B782CA4854000000000000000
310
001E38DEEB7D9E8040F0700B782CA4854000000000000000000C0000000E000000070000008400000006000000050000001E38DEEB7D9E8040D416A73C4D94864000000000000000005B42B58FEE3F8640D416A73C4D94864000000000000000005B42B58FEE3F8640F0700B782CA4854000000000000000001E38DEEB7D9E
310
8040F0700B782CA4854000000000000000001E38DEEB7D9E8040D416A73C4D9486400000000000000000
100
AcDbWipeout
 90
        0
 10
531.8114850388408
 20
692.5217133420792
 30
0.0
 11
180.1799999999999
 21
0.0
 31
0.0
 12
0.0
 22
30.01600000000008
 32
0.0
 13
1.0
 23
1.0
340
0
 70
    15
280
     1
281
    50
282
    50
283
     0
360
0
 71
     2
 91
        5
 14
-0.4999999999999997
 24
-0.5
 14
0.5000000000000003
 24
-0.5
 14
0.5000000000000003
 24
0.5
 14
-0.4999999999999997
 24
0.5
 14
-0.4999999999999997
 24
-0.5
  0
MTEXT
  5
2C2
102
{ACAD_REACTORS
330
2C3
102
}
330
1F
100
AcDbEntity
  8
Key_ Sections_Pen_No__1
  6
Continuous
100
AcDbMText
 10
536.8114850388408
 20
708.331999056365
 30
0.0
 40
12.49999999999999
 41
170.18
 71
     4
 72
     1
  1
{Drain formed in corner}
  7
GENERATED_STYLE_1
 73
     1
 44
1.0
  0
LEADER
  5
2C3
330
1F
100
AcDbEntity
  8
Key_ Sections_Pen_No__1
  6
Continuous
100
AcDbLeader
  3
GENERATED_STYLE__3
 72
     1
 73
     0
 74
     0
 40
33.74583333333332
 41
116.7125
 76
     3
 10
134.9690531950108
 20
837.5297133420795
 30
0.0
 10
154.1985706387169
 20
766.2303938462611
 30
0.0
 10
536.7214850388408
 20
708.331999056365
 30
0.0
340
2C2
  0
WIPEOUT
  5
2C4
330
1F
100
AcDbEntity
  8
Key_ Sections_Pen_No__1
  6
Wipeout_Contour
 48
2458.20527701912
 92
      296
310
28010000060000000C0000000E000000120000000C00000016000000000000C20C00000014000000010000006C0000000700000004000000BB8E7C3C72918040582AD4CCD78417C00000000000000000552816D60BB18540582AD4CCD78417C00000000000000000552816D60BB18540F5CF64EB5FFB52C000000000000000
310
00BB8E7C3C72918040F5CF64EB5FFB52C000000000000000000C0000000E00000007000000840000000600000005000000BB8E7C3C72918040582AD4CCD78417C00000000000000000552816D60BB18540582AD4CCD78417C00000000000000000552816D60BB18540F5CF64EB5FFB52C00000000000000000BB8E7C3C7291
310
8040F5CF64EB5FFB52C00000000000000000BB8E7C3C72918040582AD4CCD78417C00000000000000000
100
AcDbWipeout
 90
        0
 10
530.180779431444
 20
-75.92772946209864
 30
0.0
 11
163.95
 21
0.0
 31
0.0
 12
0.0
 22
70.048
 32
0.0
 13
1.0
 23
1.0
340
0
 70
    15
280
     1
281
    50
282
    50
283
     0
360
0
 71
     2
 91
        5
 14
-0.5
 24
-0.4999999999999999
 14
0.5
 24
-0.4999999999999999
 14
0.5
 24
0.5
 14
-0.5
 24
0.5
 14
-0.5
 24
-0.4999999999999999
  0
MTEXT
  5
2C5
102
{ACAD_REACTORS
330
2C6
102
}
330
1F
100
AcDbEntity
  8
Key_ Sections_Pen_No__1
  6
Continuous
100
AcDbMText
 10
535.180779431444
 20
-40.1011866969617
 30
0.0
 40
12.49999999999999
 41
153.95
 71
     4
 72
     1
  1
{Palliside Rusticated \Pweatherboard fixed \Pwith Palliside nails}
  7
GENERATED_STYLE_1
 73
     1
 44
0.9558154610760363
  0
LEADER
  5
2C6
330
1F
100
AcDbEntity
  8
Key_ Sections_Pen_No__1
  6
Continuous
100
AcDbLeader
  3
GENERATED_STYLE__3
 72
     1
 73
     0
 74
     0
 40
52.72875499698015
 41
149.6249999999999
 76
     2
 10
344.9875412887759
 20
-40.90372946209865
 30
0.0
 10
535.0907794314439
 20
-40.1011866969617
 30
0.0
340
2C5
  0
WIPEOUT
  5
2C7
330
1F
100
AcDbEntity
  8
Key_ Sections_Pen_No__1
  6
Wipeout_Contour
 48
2554.258072571326
 92
      296
310
28010000060000000C0000000E000000120000000C00000016000000000000C20C00000014000000010000006C00000007000000040000002338DEEB7D9E80400AA107DED4EA524000000000000000009E4C8C335F2587400AA107DED4EA524000000000000000009E4C8C335F258740A03B01F7267C164000000000000000
310
002338DEEB7D9E8040A03B01F7267C164000000000000000000C0000000E000000070000008400000006000000050000002338DEEB7D9E80400AA107DED4EA524000000000000000009E4C8C335F2587400AA107DED4EA524000000000000000009E4C8C335F258740A03B01F7267C164000000000000000002338DEEB7D9E
310
8040A03B01F7267C164000000000000000002338DEEB7D9E80400AA107DED4EA52400000000000000000
100
AcDbWipeout
 90
        0
 10
531.8114850388414
 20
5.621242389154665
 30
0.0
 11
208.86
 21
0.0
 31
0.0
 12
0.0
 22
70.048
 32
0.0
 13
1.0
 23
1.0
340
0
 70
    15
280
     1
281
    50
282
    50
283
     0
360
0
 71
     2
 91
        5
 14
-0.4999999999999997
 24
-0.5
 14
0.5000000000000002
 24
-0.5
 14
0.5000000000000002
 24
0.4999999999999999
 14
-0.4999999999999997
 24
0.4999999999999999
 14
-0.4999999999999997
 24
-0.5
  0
MTEXT
  5
2C8
102
{ACAD_REACTORS
330
2C9
102
}
330
1F
100
AcDbEntity
  8
Key_ Sections_Pen_No__1
  6
Continuous
100
AcDbMText
 10
536.8114850388414
 20
39.84492801143448
 30
0.0
 40
12.49999999999999
 41
198.86
 71
     4
 72
     1
  1
{2 piece Palliside internal \Pcorner. Base fixed to stud \Pwith palliside nails}
  7
GENERATED_STYLE_1
 73
     1
 44
0.9533846363421641
  0
LEADER
  5
2C9
330
1F
100
AcDbEntity
  8
Key_ Sections_Pen_No__1
  6
Continuous
100
AcDbLeader
  3
GENERATED_STYLE__3
 72
     1
 73
     0
 74
     0
 40
55.93712331462997
 41
195.8874999999999
 76
     2
 10
158.5739328743463
 20
40.64524238915472
 30
0.0
 10
536.7214850388414
 20
39.84492801143448
 30
0.0
340
2C8
  0
WIPEOUT
  5
2CA
330
1F
100
AcDbEntity
  8
Key_ Sections_Pen_No__1
  6
Wipeout_Contour
 48
2762.531813429748
 92
      296
310
28010000060000000C0000000E000000120000000C00000016000000000000C20C00000014000000010000006C00000007000000040000002338DEEB7D9E80406E3653BE934F61400000000000000000C7A81BF654E689406E3653BE934F61400000000000000000C7A81BF654E68940A70EEC321B1D564000000000000000
310
002338DEEB7D9E8040A70EEC321B1D564000000000000000000C0000000E000000070000008400000006000000050000002338DEEB7D9E80406E3653BE934F61400000000000000000C7A81BF654E689406E3653BE934F61400000000000000000C7A81BF654E68940A70EEC321B1D564000000000000000002338DEEB7D9E
310
8040A70EEC321B1D564000000000000000002338DEEB7D9E80406E3653BE934F61400000000000000000
100
AcDbWipeout
 90
        0
 10
531.8114850388414
 20
88.45478508999314
 30
0.0
 11
296.98
 21
0.0
 31
0.0
 12
0.0
 22
50.032
 32
0.0
 13
1.0
 23
1.0
340
0
 70
    15
280
     1
281
    50
282
    50
283
     0
360
0
 71
     2
 91
        5
 14
-0.5
 24
-0.4999999999999998
 14
0.5
 24
-0.4999999999999998
 14
0.5
 24
0.5000000000000001
 14
-0.5
 24
0.5000000000000001
 14
-0.5
 24
-0.4999999999999998
  0
MTEXT
  5
2CB
102
{ACAD_REACTORS
330
2CC
102
}
330
1F
100
AcDbEntity
  8
Key_ Sections_Pen_No__1
  6
Continuous
100
AcDbMText
 10
536.8114850388414
 20
112.5717707582759
 30
0.0
 40
12.49999999999999
 41
286.98
 71
     4
 72
     1
  1
{Capping flashing. 5 degree min slope \Pover underlay isolation layer}
  7
GENERATED_STYLE_1
 73
     1
 44
0.9482389079738854
  0
LEADER
  5
2CC
330
1F
100
AcDbEntity
  8
Key_ Sections_Pen_No__1
  6
Continuous
100
AcDbLeader
  3
GENERATED_STYLE__3
 72
     1
 73
     0
 74
     0
 40
36.11897801740039
 41
286.4249999999999
 76
     3
 10
412.573667301495
 20
163.4707850899932
 30
0.0
 10
501.6163879194551
 20
119.2900204229073
 30
0.0
 10
536.7214850388414
 20
112.5717707582759
 30
0.0
340
2CB
  0
WIPEOUT
  5
2CD
330
1F
100
AcDbEntity
  8
Key_ Sections_Pen_No__1
  6
Wipeout_Contour
 48
2676.712006228826
 92
      296
310
28010000060000000C0000000E000000120000000C00000016000000000000C20C00000014000000010000006C00000007000000040000002338DEEB7D9E8040A059F5A453B86B400000000000000000C7A81BF654708740A059F5A453B86B400000000000000000C7A81BF654708740F892A96DCAF6624000000000000000
310
002338DEEB7D9E8040F892A96DCAF6624000000000000000000C0000000E000000070000008400000006000000050000002338DEEB7D9E8040A059F5A453B86B400000000000000000C7A81BF654708740A059F5A453B86B400000000000000000C7A81BF654708740F892A96DCAF6624000000000000000002338DEEB7D9E
310
8040F892A96DCAF6624000000000000000002338DEEB7D9E8040A059F5A453B86B400000000000000000
100
AcDbWipeout
 90
        0
 10
531.8114850388414
 20
151.7122104942316
 30
0.0
 11
218.23
 21
0.0
 31
0.0
 12
0.0
 22
70.048
 32
0.0
 13
1.0
 23
1.0
340
0
 70
    15
280
     1
281
    50
282
    50
283
     0
360
0
 71
     2
 91
        5
 14
-0.5
 24
-0.5
 14
0.5
 24
-0.5
 14
0.5
 24
0.5
 14
-0.5
 24
0.5
 14
-0.5
 24
-0.5
  0
MTEXT
  5
2CE
102
{ACAD_REACTORS
330
2CF
102
}
330
1F
100
AcDbEntity
  8
Key_ Sections_Pen_No__1
  6
Continuous
100
AcDbMText
 10
536.8114850388414
 20
185.83732468794
 30
0.0
 40
12.49999999999999
 41
208.23
 71
     4
 72
     1
  1
{Rivets through sealant and \P2 lines of sealant capping \Pto saddle flashing}
  7
GENERATED_STYLE_1
 73
     1
 44
0.9496448171979252
  0
LEADER
  5
2CF
330
1F
100
AcDbEntity
  8
Key_ Sections_Pen_No__1
  6
Continuous
100
AcDbLeader
  3
GENERATED_STYLE__3
 72
     1
 73
     0
 74
     0
 40
56.14533357356809
 41
204.8999999999999
 76
     3
 10
236.1682357207853
 20
261.7362104942317
 30
0.0
 10
371.0827150822415
 20
206.487815873603
 30
0.0
 10
536.7214850388414
 20
185.83732468794
 30
0.0
340
2CE
  0
WIPEOUT
  5
2D0
330
1F
100
AcDbEntity
  8
Key_ Sections_Pen_No__1
  6
Wipeout_Contour
 48
2729.030836345657
 92
      296
310
28010000060000000C0000000E000000120000000C00000016000000000000C20C00000014000000010000006C00000007000000040000002338DEEB7D9E8040F0A1452D2BA07240000000000000000075F0FC70699A8640F0A1452D2BA07240000000000000000075F0FC70699A8640397D3F23CD7E6C4000000000000000
310
002338DEEB7D9E8040397D3F23CD7E6C4000000000000000000C0000000E000000070000008400000006000000050000002338DEEB7D9E8040F0A1452D2BA07240000000000000000075F0FC70699A8640F0A1452D2BA07240000000000000000075F0FC70699A8640397D3F23CD7E6C4000000000000000002338DEEB7D9E
310
8040397D3F23CD7E6C4000000000000000002338DEEB7D9E8040F0A1452D2BA072400000000000000000
100
AcDbWipeout
 90
        0
 10
531.8114850388414
 20
227.9625412216208
 30
0.0
 11
191.49
 21
0.0
 31
0.0
 12
0.0
 22
70.04799999999997
 32
0.0
 13
1.0
 23
1.0
340
0
 70
    15
280
     1
281
    50
282
    50
283
     0
360
0
 71
     2
 91
        5
 14
-0.5
 24
-0.5000000000000002
 14
0.5
 24
-0.5000000000000002
 14
0.5
 24
0.4999999999999998
 14
-0.5
 24
0.4999999999999998
 14
-0.5
 24
-0.5000000000000002
  0
MTEXT
  5
2D1
102
{ACAD_REACTORS
330
2D2
102
}
330
1F
100
AcDbEntity
  8
Key_ Sections_Pen_No__1
  6
Continuous
100
AcDbMText
 10
536.8114850388414
 20
263.7890839867577
 30
0.0
 40
12.5
 41
181.49
 71
     4
 72
     1
  1
{Line of saddle flashing \Pbehind cladding in front \Pof battens}
  7
GENERATED_STYLE_1
 73
     1
 44
0.9462137085919519
  0
LEADER
  5
2D2
330
1F
100
AcDbEntity
  8
Key_ Sections_Pen_No__1
  6
Continuous
100
AcDbLeader
  3
GENERATED_STYLE__3
 72
     1
 73
     0
 74
     0
 40
52.7402120174829
 41
179.1249999999999
 76
     3
 10
318.4192549664271
 20
337.9865412216209
 30
0.0
 10
452.9126955384241
 20
276.0450929793749
 30
0.0
 10
536.7214850388414
 20
263.7890839867577
 30
0.0
340
2D1
  0
WIPEOUT
  5
2D3
330
1F
100
AcDbEntity
  8
Key_ Sections_Pen_No__1
  6
Wipeout_Contour
 48
2818.425085968106
 92
      296
310
28010000060000000C0000000E000000120000000C00000016000000000000C20C00000014000000010000006C00000007000000040000002338DEEB7D9E804027C320AFE800764000000000000000009E4C8C335F45864027C320AFE800764000000000000000009E4C8C335F458640992BB29C65E0724000000000000000
310
002338DEEB7D9E8040992BB29C65E0724000000000000000000C0000000E000000070000008400000006000000050000002338DEEB7D9E804027C320AFE800764000000000000000009E4C8C335F45864027C320AFE800764000000000000000009E4C8C335F458640992BB29C65E0724000000000000000002338DEEB7D9E
310
8040992BB29C65E0724000000000000000002338DEEB7D9E804027C320AFE80076400000000000000000
100
AcDbWipeout
 90
        0
 10
531.8114850388414
 20
302.0248076400545
 30
0.0
 11
180.86
 21
0.0
 31
0.0
 12
0.0
 22
50.03200000000004
 32
0.0
 13
1.0
 23
1.0
340
0
 70
    15
280
     1
281
    50
282
    50
283
     0
360
0
 71
     2
 91
        5
 14
-0.4999999999999997
 24
-0.5
 14
0.5000000000000003
 24
-0.5
 14
0.5000000000000003
 24
0.5
 14
-0.4999999999999997
 24
0.5
 14
-0.4999999999999997
 24
-0.5
  0
MTEXT
  5
2D4
102
{ACAD_REACTORS
330
2D5
102
}
330
1F
100
AcDbEntity
  8
Key_ Sections_Pen_No__1
  6
Continuous
100
AcDbMText
 10
536.8114850388414
 20
326.1417933083372
 30
0.0
 40
12.49999999999999
 41
170.86
 71
     4
 72
     1
  1
{Breather type building \Punderlay}
  7
GENERATED_STYLE_1
 73
     1
 44
0.9578820155126032
  0
LEADER
  5
2D5
330
1F
100
AcDbEntity
  8
Key_ Sections_Pen_No__1
  6
Continuous
100
AcDbLeader
  3
GENERATED_STYLE__3
 72
     1
 73
     0
 74
     0
 40
36.11837532317922
 41
167.2749999999999
 76
     3
 10
233.8745678002443
 20
427.0408076400546
 30
0.0
 10
413.3941354716519
 20
345.8539952926095
 30
0.0
 10
536.7214850388414
 20
326.1417933083372
 30
0.0
340
2D4
  0
MTEXT
  5
2D6
330
1F
100
AcDbEntity
  8
0_Pen_No__1
  6
Continuous
100
AcDbMText
 10
716.8414416073631
 20
446.4359376296089
 30
0.0
 40
12.50015
 41
0.0
 71
     1
 72
     1
  1
{B. Saddle flashing}
  7
GENERATED_STYLE_1
 73
     1
 44
1.0
  0
MTEXT
  5
2D7
330
1F
100
AcDbEntity
  8
0_Pen_No__1
  6
Continuous
100
AcDbMText
 10
-0.0000000000004441
 20
714.4940896594815
 30
0.0
 40
12.50015
 41
0.0
 71
     1
 72
     1
  1
{A. Flexible flashing tape installation}
  7
GENERATED_STYLE_1
 73
     1
 44
1.0
  0
MTEXT
  5
2D8
330
1F
100
AcDbEntity
  8
0_Pen_No__1
  6
Continuous
100
AcDbMText
 10
0.0
 20
-63.2170438015902
 30
0.0
 40
12.50015
 41
0.0
 71
     1
 72
     1
  1
{C. Saddle flashing installation}
  7
GENERATED_STYLE_1
 73
     1
 44
1.0
  0
ENDSEC
  0
SECTION
  2
OBJECTS
  0
DICTIONARY
  5
C
330
0
100
AcDbDictionary
281
     1
  3
ACAD_GROUP
350
D
  3
ACAD_LAYOUT
350
1A
  3
ACAD_MATERIAL
350
3B
  3
ACAD_MLEADERSTYLE
350
329
  3
ACAD_MLINESTYLE
350
17
  3
ACAD_PLOTSETTINGS
350
19
  3
ACAD_PLOTSTYLENAME
350
E
  3
ACAD_SCALELIST
350
2DC
  3
ACAD_TABLESTYLE
350
328
  3
ACAD_VISUALSTYLE
350
2A
  3
AcDbVariableDictionary
350
300
  3
WATERMARKS
350
2FE
  0
DICTIONARY
  5
D
102
{ACAD_REACTORS
330
C
102
}
330
C
100
AcDbDictionary
281
     1
  0
DICTIONARY
  5
1A
102
{ACAD_REACTORS
330
C
102
}
330
C
100
AcDbDictionary
281
     1
  3
Layout1
350
1E
  3
Layout2
350
26
  3
Model
350
22
  0
DICTIONARY
  5
3B
102
{ACAD_REACTORS
330
C
102
}
330
C
100
AcDbDictionary
281
     1
  3
ByBlock
350
3D
  3
ByLayer
350
3C
  3
Global
350
3E
  0
DICTIONARY
  5
329
102
{ACAD_REACTORS
330
C
102
}
330
C
100
AcDbDictionary
281
     1
  0
DICTIONARY
  5
17
102
{ACAD_REACTORS
330
C
102
}
330
C
100
AcDbDictionary
281
     1
  3
Standard
350
18
  0
DICTIONARY
  5
19
102
{ACAD_REACTORS
330
C
102
}
330
C
100
AcDbDictionary
281
     1
  0
ACDBDICTIONARYWDFLT
  5
E
102
{ACAD_REACTORS
330
C
102
}
330
C
100
AcDbDictionary
281
     1
  3
Normal
350
F
100
AcDbDictionaryWithDefault
340
F
  0
DICTIONARY
  5
2DC
102
{ACAD_REACTORS
330
C
102
}
330
C
100
AcDbDictionary
281
     1
  3
A0
350
2DD
  3
A1
350
2DE
  3
A2
350
2DF
  3
A3
350
2E0
  3
A4
350
2E1
  3
A5
350
2E2
  3
A6
350
2E3
  3
A7
350
2E4
  3
A8
350
2E5
  3
A9
350
2E6
  3
B0
350
2E7
  3
B1
350
2E8
  3
B2
350
2E9
  3
B3
350
2EA
  3
B4
350
2EB
  3
B5
350
2EC
  3
B6
350
2ED
  3
B7
350
2EE
  3
B8
350
2EF
  3
B9
350
2F0
  3
C0
350
2F1
  3
C1
350
2F2
  3
C2
350
2F3
  3
C3
350
2F4
  3
C4
350
2F5
  3
C5
350
2F6
  3
C6
350
2F7
  3
C7
350
2F8
  3
C8
350
2F9
  3
C9
350
2FA
  3
D0
350
2FB
  3
D1
350
2FC
  3
D2
350
2FD
  0
DICTIONARY
  5
328
102
{ACAD_REACTORS
330
C
102
}
330
C
100
AcDbDictionary
281
     1
  0
DICTIONARY
  5
2A
102
{ACAD_REACTORS
330
C
102
}
330
C
100
AcDbDictionary
281
     1
  3
2dWireframe
350
2F
  3
3D Hidden
350
31
  3
3dWireframe
350
30
  3
Basic
350
32
  3
Brighten
350
36
  3
ColorChange
350
3A
  3
Conceptual
350
34
  3
Dim
350
35
  3
Facepattern
350
39
  3
Flat
350
2B
  3
FlatWithEdges
350
2C
  3
Gouraud
350
2D
  3
GouraudWithEdges
350
2E
  3
Linepattern
350
38
  3
Realistic
350
33
  3
Thicken
350
37
  0
DICTIONARY
  5
300
102
{ACAD_REACTORS
330
C
102
}
330
C
100
AcDbDictionary
281
     1
  3
CANNOSCALE
350
301
  3
XCLIPFRAME
350
32A
  0
DICTIONARY
  5
2FE
102
{ACAD_REACTORS
330
C
102
}
330
C
100
AcDbDictionary
281
     1
  3
AC_WATERMARK
350
2FF
  0
LAYOUT
  5
1E
102
{ACAD_REACTORS
330
1A
102
}
330
1A
100
AcDbPlotSettings
  1

  2
none_device
  4

  6

 40
0.0
 41
0.0
 42
0.0
 43
0.0
 44
0.0
 45
0.0
 46
0.0
 47
0.0
 48
0.0
 49
0.0
140
0.0
141
0.0
142
1.0
143
1.0
 70
   688
 72
     0
 73
     0
 74
     5
  7

 75
    16
 76
     0
 77
     2
 78
   300
147
1.0
148
0.0
149
0.0
100
AcDbLayout
  1
Layout1
 70
     1
 71
     1
 10
0.0
 20
0.0
 11
12.0
 21
9.0
 12
0.0
 22
0.0
 32
0.0
 14
1.000000000000000E+20
 24
1.000000000000000E+20
 34
1.000000000000000E+20
 15
-1.000000000000000E+20
 25
-1.000000000000000E+20
 35
-1.000000000000000E+20
146
0.0
 13
0.0
 23
0.0
 33
0.0
 16
1.0
 26
0.0
 36
0.0
 17
0.0
 27
1.0
 37
0.0
 76
     0
330
1B
  0
LAYOUT
  5
26
102
{ACAD_REACTORS
330
1A
102
}
330
1A
100
AcDbPlotSettings
  1

  2
none_device
  4

  6

 40
0.0
 41
0.0
 42
0.0
 43
0.0
 44
0.0
 45
0.0
 46
0.0
 47
0.0
 48
0.0
 49
0.0
140
0.0
141
0.0
142
1.0
143
1.0
 70
   688
 72
     0
 73
     0
 74
     5
  7

 75
    16
 76
     0
 77
     2
 78
   300
147
1.0
148
0.0
149
0.0
100
AcDbLayout
  1
Layout2
 70
     1
 71
     2
 10
0.0
 20
0.0
 11
0.0
 21
0.0
 12
0.0
 22
0.0
 32
0.0
 14
0.0
 24
0.0
 34
0.0
 15
0.0
 25
0.0
 35
0.0
146
0.0
 13
0.0
 23
0.0
 33
0.0
 16
1.0
 26
0.0
 36
0.0
 17
0.0
 27
1.0
 37
0.0
 76
     0
330
23
  0
LAYOUT
  5
22
102
{ACAD_REACTORS
330
1A
102
}
330
1A
100
AcDbPlotSettings
  1

  2
none_device
  4

  6

 40
0.0
 41
0.0
 42
0.0
 43
0.0
 44
0.0
 45
0.0
 46
0.0
 47
0.0
 48
0.0
 49
0.0
140
0.0
141
0.0
142
1.0
143
1.0
 70
  1712
 72
     0
 73
     0
 74
     0
  7

 75
     0
 76
     0
 77
     2
 78
   300
147
1.0
148
0.0
149
0.0
100
AcDbLayout
  1
Model
 70
     1
 71
     0
 10
0.0
 20
0.0
 11
12.0
 21
9.0
 12
0.0
 22
0.0
 32
0.0
 14
1.000000000000000E+20
 24
1.000000000000000E+20
 34
1.000000000000000E+20
 15
-1.000000000000000E+20
 25
-1.000000000000000E+20
 35
-1.000000000000000E+20
146
0.0
 13
0.0
 23
0.0
 33
0.0
 16
1.0
 26
0.0
 36
0.0
 17
0.0
 27
1.0
 37
0.0
 76
     0
330
1F
331
29
  0
MATERIAL
  5
3D
102
{ACAD_REACTORS
330
3B
102
}
102
{ACAD_XDICTIONARY
360
324
102
}
330
3B
100
AcDbMaterial
  1
ByBlock
  0
MATERIAL
  5
3C
102
{ACAD_REACTORS
330
3B
102
}
102
{ACAD_XDICTIONARY
360
322
102
}
330
3B
100
AcDbMaterial
  1
ByLayer
  0
MATERIAL
  5
3E
102
{ACAD_REACTORS
330
3B
102
}
102
{ACAD_XDICTIONARY
360
326
102
}
330
3B
100
AcDbMaterial
  1
Global
  0
MLINESTYLE
  5
18
102
{ACAD_REACTORS
330
17
102
}
330
17
100
AcDbMlineStyle
  2
Standard
 70
     0
  3

 62
   256
 51
90.0
 52
90.0
 71
     2
 49
0.5
 62
   256
  6
BYLAYER
 49
-0.5
 62
   256
  6
BYLAYER
  0
ACDBPLACEHOLDER
  5
F
102
{ACAD_REACTORS
330
E
102
}
330
E
  0
SCALE
  5
2DD
102
{ACAD_REACTORS
330
2DC
102
}
330
2DC
100
AcDbScale
 70
     0
300
1:1
140
1.0
141
1.0
290
     1
  0
SCALE
  5
2DE
102
{ACAD_REACTORS
330
2DC
102
}
330
2DC
100
AcDbScale
 70
     0
300
1:2
140
1.0
141
2.0
290
     0
  0
SCALE
  5
2DF
102
{ACAD_REACTORS
330
2DC
102
}
330
2DC
100
AcDbScale
 70
     0
300
1:4
140
1.0
141
4.0
290
     0
  0
SCALE
  5
2E0
102
{ACAD_REACTORS
330
2DC
102
}
330
2DC
100
AcDbScale
 70
     0
300
1:5
140
1.0
141
5.0
290
     0
  0
SCALE
  5
2E1
102
{ACAD_REACTORS
330
2DC
102
}
330
2DC
100
AcDbScale
 70
     0
300
1:8
140
1.0
141
8.0
290
     0
  0
SCALE
  5
2E2
102
{ACAD_REACTORS
330
2DC
102
}
330
2DC
100
AcDbScale
 70
     0
300
1:10
140
1.0
141
10.0
290
     0
  0
SCALE
  5
2E3
102
{ACAD_REACTORS
330
2DC
102
}
330
2DC
100
AcDbScale
 70
     0
300
1:16
140
1.0
141
16.0
290
     0
  0
SCALE
  5
2E4
102
{ACAD_REACTORS
330
2DC
102
}
330
2DC
100
AcDbScale
 70
     0
300
1:20
140
1.0
141
20.0
290
     0
  0
SCALE
  5
2E5
102
{ACAD_REACTORS
330
2DC
102
}
330
2DC
100
AcDbScale
 70
     0
300
1:30
140
1.0
141
30.0
290
     0
  0
SCALE
  5
2E6
102
{ACAD_REACTORS
330
2DC
102
}
330
2DC
100
AcDbScale
 70
     0
300
1:40
140
1.0
141
40.0
290
     0
  0
SCALE
  5
2E7
102
{ACAD_REACTORS
330
2DC
102
}
330
2DC
100
AcDbScale
 70
     0
300
1:50
140
1.0
141
50.0
290
     0
  0
SCALE
  5
2E8
102
{ACAD_REACTORS
330
2DC
102
}
330
2DC
100
AcDbScale
 70
     0
300
1:100
140
1.0
141
100.0
290
     0
  0
SCALE
  5
2E9
102
{ACAD_REACTORS
330
2DC
102
}
330
2DC
100
AcDbScale
 70
     0
300
2:1
140
2.0
141
1.0
290
     0
  0
SCALE
  5
2EA
102
{ACAD_REACTORS
330
2DC
102
}
330
2DC
100
AcDbScale
 70
     0
300
4:1
140
4.0
141
1.0
290
     0
  0
SCALE
  5
2EB
102
{ACAD_REACTORS
330
2DC
102
}
330
2DC
100
AcDbScale
 70
     0
300
8:1
140
8.0
141
1.0
290
     0
  0
SCALE
  5
2EC
102
{ACAD_REACTORS
330
2DC
102
}
330
2DC
100
AcDbScale
 70
     0
300
10:1
140
10.0
141
1.0
290
     0
  0
SCALE
  5
2ED
102
{ACAD_REACTORS
330
2DC
102
}
330
2DC
100
AcDbScale
 70
     0
300
100:1
140
100.0
141
1.0
290
     0
  0
SCALE
  5
2EE
102
{ACAD_REACTORS
330
2DC
102
}
330
2DC
100
AcDbScale
 70
     0
300
1/128" = 1'-0"
140
0.0078125
141
12.0
290
     0
  0
SCALE
  5
2EF
102
{ACAD_REACTORS
330
2DC
102
}
330
2DC
100
AcDbScale
 70
     0
300
1/64" = 1'-0"
140
0.015625
141
12.0
290
     0
  0
SCALE
  5
2F0
102
{ACAD_REACTORS
330
2DC
102
}
330
2DC
100
AcDbScale
 70
     0
300
1/32" = 1'-0"
140
0.03125
141
12.0
290
     0
  0
SCALE
  5
2F1
102
{ACAD_REACTORS
330
2DC
102
}
330
2DC
100
AcDbScale
 70
     0
300
1/16" = 1'-0"
140
0.0625
141
12.0
290
     0
  0
SCALE
  5
2F2
102
{ACAD_REACTORS
330
2DC
102
}
330
2DC
100
AcDbScale
 70
     0
300
3/32" = 1'-0"
140
0.09375
141
12.0
290
     0
  0
SCALE
  5
2F3
102
{ACAD_REACTORS
330
2DC
102
}
330
2DC
100
AcDbScale
 70
     0
300
1/8" = 1'-0"
140
0.125
141
12.0
290
     0
  0
SCALE
  5
2F4
102
{ACAD_REACTORS
330
2DC
102
}
330
2DC
100
AcDbScale
 70
     0
300
3/16" = 1'-0"
140
0.1875
141
12.0
290
     0
  0
SCALE
  5
2F5
102
{ACAD_REACTORS
330
2DC
102
}
330
2DC
100
AcDbScale
 70
     0
300
1/4" = 1'-0"
140
0.25
141
12.0
290
     0
  0
SCALE
  5
2F6
102
{ACAD_REACTORS
330
2DC
102
}
330
2DC
100
AcDbScale
 70
     0
300
3/8" = 1'-0"
140
0.375
141
12.0
290
     0
  0
SCALE
  5
2F7
102
{ACAD_REACTORS
330
2DC
102
}
330
2DC
100
AcDbScale
 70
     0
300
1/2" = 1'-0"
140
0.5
141
12.0
290
     0
  0
SCALE
  5
2F8
102
{ACAD_REACTORS
330
2DC
102
}
330
2DC
100
AcDbScale
 70
     0
300
3/4" = 1'-0"
140
0.75
141
12.0
290
     0
  0
SCALE
  5
2F9
102
{ACAD_REACTORS
330
2DC
102
}
330
2DC
100
AcDbScale
 70
     0
300
1" = 1'-0"
140
1.0
141
12.0
290
     0
  0
SCALE
  5
2FA
102
{ACAD_REACTORS
330
2DC
102
}
330
2DC
100
AcDbScale
 70
     0
300
1-1/2" = 1'-0"
140
1.5
141
12.0
290
     0
  0
SCALE
  5
2FB
102
{ACAD_REACTORS
330
2DC
102
}
330
2DC
100
AcDbScale
 70
     0
300
3" = 1'-0"
140
3.0
141
12.0
290
     0
  0
SCALE
  5
2FC
102
{ACAD_REACTORS
330
2DC
102
}
330
2DC
100
AcDbScale
 70
     0
300
6" = 1'-0"
140
6.0
141
12.0
290
     0
  0
SCALE
  5
2FD
102
{ACAD_REACTORS
330
2DC
102
}
330
2DC
100
AcDbScale
 70
     0
300
1'-0" = 1'-0"
140
12.0
141
12.0
290
     0
  0
VISUALSTYLE
  5
2F
102
{ACAD_REACTORS
330
2A
102
}
102
{ACAD_XDICTIONARY
360
30A
102
}
330
2A
100
AcDbVisualStyle
  2
2dWireframe
 70
     4
 71
     0
 72
     2
 73
     0
 90
        0
 40
-0.6
 41
-30.0
 62
     5
 63
     7
421
 16777215
 74
     1
 91
        4
 64
     7
 65
   257
 75
     1
175
     1
 42
1.0
 92
        0
 66
   257
 43
1.0
 76
     1
 77
     6
 78
     2
 67
     7
 79
     5
170
     0
171
     0
290
     0
174
     0
 93
        1
 44
0.0
173
     0
291
     0
 45
0.0
1001
ACAD
1000
AcDbSavedByObjectVersion
1070
     0
  0
VISUALSTYLE
  5
31
102
{ACAD_REACTORS
330
2A
102
}
102
{ACAD_XDICTIONARY
360
30E
102
}
330
2A
100
AcDbVisualStyle
  2
3D Hidden
 70
     6
 71
     1
 72
     2
 73
     2
 90
        0
 40
-0.6
 41
-30.0
 62
     5
 63
     7
421
 16777215
 74
     2
 91
        2
 64
     7
 65
   257
 75
     2
175
     1
 42
40.0
 92
        0
 66
   257
 43
1.0
 76
     1
 77
     6
 78
     2
 67
     7
 79
     3
170
     0
171
     0
290
     0
174
     0
 93
        1
 44
0.0
173
     0
291
     0
 45
0.0
1001
ACAD
1000
AcDbSavedByObjectVersion
1070
     0
  0
VISUALSTYLE
  5
30
102
{ACAD_REACTORS
330
2A
102
}
102
{ACAD_XDICTIONARY
360
30C
102
}
330
2A
100
AcDbVisualStyle
  2
3dWireframe
 70
     5
 71
     0
 72
     2
 73
     0
 90
        0
 40
-0.6
 41
-30.0
 62
     5
 63
     7
421
 16777215
 74
     1
 91
        4
 64
     7
 65
   257
 75
     1
175
     1
 42
1.0
 92
        0
 66
   257
 43
1.0
 76
     1
 77
     6
 78
     2
 67
     7
 79
     5
170
     0
171
     0
290
     0
174
     0
 93
        1
 44
0.0
173
     0
291
     0
 45
0.0
1001
ACAD
1000
AcDbSavedByObjectVersion
1070
     0
  0
VISUALSTYLE
  5
32
102
{ACAD_REACTORS
330
2A
102
}
102
{ACAD_XDICTIONARY
360
310
102
}
330
2A
100
AcDbVisualStyle
  2
Basic
 70
     7
 71
     1
 72
     0
 73
     1
 90
        0
 40
-0.6
 41
-30.0
 62
     5
 63
     7
421
 16777215
 74
     0
 91
        4
 64
     7
 65
   257
 75
     1
175
     1
 42
1.0
 92
        8
 66
     7
 43
1.0
 76
     1
 77
     6
 78
     2
 67
     7
 79
     5
170
     0
171
     0
290
     0
174
     0
 93
        1
 44
0.0
173
     0
291
     1
 45
0.0
1001
ACAD
1000
AcDbSavedByObjectVersion
1070
     0
  0
VISUALSTYLE
  5
36
102
{ACAD_REACTORS
330
2A
102
}
102
{ACAD_XDICTIONARY
360
318
102
}
330
2A
100
AcDbVisualStyle
  2
Brighten
 70
    12
 71
     2
 72
     2
 73
     0
 90
        0
 40
-0.6
 41
-30.0
 62
     5
 63
     7
421
 16777215
 74
     1
 91
        4
 64
     7
 65
   257
 75
     1
175
     1
 42
1.0
 92
        8
 66
     7
 43
1.0
 76
     1
 77
     6
 78
     2
 67
     7
 79
     5
170
     0
171
     0
290
     0
174
     0
 93
        1
 44
50.0
173
     0
291
     1
 45
0.0
1001
ACAD
1000
AcDbSavedByObjectVersion
1070
     0
  0
VISUALSTYLE
  5
3A
102
{ACAD_REACTORS
330
2A
102
}
102
{ACAD_XDICTIONARY
360
320
102
}
330
2A
100
AcDbVisualStyle
  2
ColorChange
 70
    16
 71
     2
 72
     2
 73
     3
 90
        0
 40
-0.6
 41
-30.0
 62
     5
 63
     8
421
  8421504
 74
     1
 91
        4
 64
     7
 65
   257
 75
     1
175
     1
 42
1.0
 92
        8
 66
     8
424
  8421504
 43
1.0
 76
     1
 77
     6
 78
     2
 67
     7
 79
     5
170
     0
171
     0
290
     0
174
     0
 93
        1
 44
0.0
173
     0
291
     1
 45
0.0
1001
ACAD
1000
AcDbSavedByObjectVersion
1070
     0
  0
VISUALSTYLE
  5
34
102
{ACAD_REACTORS
330
2A
102
}
102
{ACAD_XDICTIONARY
360
314
102
}
330
2A
100
AcDbVisualStyle
  2
Conceptual
 70
     9
 71
     3
 72
     2
 73
     0
 90
        0
 40
-0.6
 41
-30.0
 62
     5
 63
     7
421
 16777215
 74
     2
 91
        2
 64
     7
 65
   257
 75
     1
175
     1
 42
40.0
 92
        8
 66
     7
 43
1.0
 76
     1
 77
     6
 78
     2
 67
     7
 79
     3
170
     0
171
     0
290
     0
174
     0
 93
        1
 44
0.0
173
     0
291
     0
 45
0.0
1001
ACAD
1000
AcDbSavedByObjectVersion
1070
     0
  0
VISUALSTYLE
  5
35
102
{ACAD_REACTORS
330
2A
102
}
102
{ACAD_XDICTIONARY
360
316
102
}
330
2A
100
AcDbVisualStyle
  2
Dim
 70
    11
 71
     2
 72
     2
 73
     0
 90
        0
 40
-0.6
 41
-30.0
 62
     5
 63
     7
421
 16777215
 74
     1
 91
        4
 64
     7
 65
   257
 75
     1
175
     1
 42
1.0
 92
        8
 66
     7
 43
1.0
 76
     1
 77
     6
 78
     2
 67
     7
 79
     5
170
     0
171
     0
290
     0
174
     0
 93
        1
 44
-50.0
173
     0
291
     1
 45
0.0
1001
ACAD
1000
AcDbSavedByObjectVersion
1070
     0
  0
VISUALSTYLE
  5
39
102
{ACAD_REACTORS
330
2A
102
}
102
{ACAD_XDICTIONARY
360
31E
102
}
330
2A
100
AcDbVisualStyle
  2
Facepattern
 70
    15
 71
     2
 72
     2
 73
     0
 90
        0
 40
-0.6
 41
-30.0
 62
     5
 63
     7
421
 16777215
 74
     1
 91
        4
 64
     7
 65
   257
 75
     1
175
     1
 42
1.0
 92
        8
 66
     7
 43
1.0
 76
     1
 77
     6
 78
     2
 67
     7
 79
     5
170
     0
171
     0
290
     0
174
     0
 93
        1
 44
0.0
173
     0
291
     1
 45
0.0
1001
ACAD
1000
AcDbSavedByObjectVersion
1070
     0
  0
VISUALSTYLE
  5
2B
102
{ACAD_REACTORS
330
2A
102
}
102
{ACAD_XDICTIONARY
360
302
102
}
330
2A
100
AcDbVisualStyle
  2
Flat
 70
     0
 71
     2
 72
     1
 73
     1
 90
        2
 40
-0.6
 41
30.0
 62
     5
 63
     7
421
 16777215
 74
     0
 91
        4
 64
     7
 65
   257
 75
     1
175
     1
 42
1.0
 92
        8
 66
     7
 43
1.0
 76
     1
 77
     6
 78
     2
 67
     7
 79
     5
170
     0
171
     0
290
     0
174
     0
 93
       13
 44
0.0
173
     0
291
     1
 45
0.0
1001
ACAD
1000
AcDbSavedByObjectVersion
1070
     0
  0
VISUALSTYLE
  5
2C
102
{ACAD_REACTORS
330
2A
102
}
102
{ACAD_XDICTIONARY
360
304
102
}
330
2A
100
AcDbVisualStyle
  2
FlatWithEdges
 70
     1
 71
     2
 72
     1
 73
     1
 90
        2
 40
-0.6
 41
30.0
 62
     5
 63
     7
421
 16777215
 74
     1
 91
        4
 64
     7
 65
   257
 75
     1
175
     1
 42
1.0
 92
        0
 66
   257
 43
1.0
 76
     1
 77
     6
 78
     2
 67
     7
 79
     5
170
     0
171
     0
290
     0
174
     0
 93
       13
 44
0.0
173
     0
291
     1
 45
0.0
1001
ACAD
1000
AcDbSavedByObjectVersion
1070
     0
  0
VISUALSTYLE
  5
2D
102
{ACAD_REACTORS
330
2A
102
}
102
{ACAD_XDICTIONARY
360
306
102
}
330
2A
100
AcDbVisualStyle
  2
Gouraud
 70
     2
 71
     2
 72
     2
 73
     1
 90
        2
 40
-0.6
 41
30.0
 62
     5
 63
     7
421
 16777215
 74
     0
 91
        4
 64
     7
 65
   257
 75
     1
175
     1
 42
1.0
 92
        0
 66
     7
 43
1.0
 76
     1
 77
     6
 78
     2
 67
     7
 79
     5
170
     0
171
     0
290
     0
174
     0
 93
       13
 44
0.0
173
     0
291
     1
 45
0.0
1001
ACAD
1000
AcDbSavedByObjectVersion
1070
     0
  0
VISUALSTYLE
  5
2E
102
{ACAD_REACTORS
330
2A
102
}
102
{ACAD_XDICTIONARY
360
308
102
}
330
2A
100
AcDbVisualStyle
  2
GouraudWithEdges
 70
     3
 71
     2
 72
     2
 73
     1
 90
        2
 40
-0.6
 41
30.0
 62
     5
 63
     7
421
 16777215
 74
     1
 91
        4
 64
     7
 65
   257
 75
     1
175
     1
 42
1.0
 92
        0
 66
   257
 43
1.0
 76
     1
 77
     6
 78
     2
 67
     7
 79
     5
170
     0
171
     0
290
     0
174
     0
 93
       13
 44
0.0
173
     0
291
     1
 45
0.0
1001
ACAD
1000
AcDbSavedByObjectVersion
1070
     0
  0
VISUALSTYLE
  5
38
102
{ACAD_REACTORS
330
2A
102
}
102
{ACAD_XDICTIONARY
360
31C
102
}
330
2A
100
AcDbVisualStyle
  2
Linepattern
 70
    14
 71
     2
 72
     2
 73
     0
 90
        0
 40
-0.6
 41
-30.0
 62
     5
 63
     7
421
 16777215
 74
     1
 91
        4
 64
     7
 65
   257
 75
     7
175
     7
 42
1.0
 92
        8
 66
     7
 43
1.0
 76
     1
 77
     6
 78
     2
 67
     7
 79
     5
170
     0
171
     0
290
     0
174
     0
 93
        1
 44
0.0
173
     0
291
     1
 45
0.0
1001
ACAD
1000
AcDbSavedByObjectVersion
1070
     0
  0
VISUALSTYLE
  5
33
102
{ACAD_REACTORS
330
2A
102
}
102
{ACAD_XDICTIONARY
360
312
102
}
330
2A
100
AcDbVisualStyle
  2
Realistic
 70
     8
 71
     2
 72
     2
 73
     0
 90
        0
 40
-0.6
 41
-30.0
 62
     5
 63
     7
421
 16777215
 74
     1
 91
        0
 64
     7
 65
   257
 75
     1
175
     1
 42
1.0
 92
        8
 66
     8
424
  7895160
 43
1.0
 76
     1
 77
     6
 78
     2
 67
     7
 79
     5
170
     0
171
     0
290
     0
174
     0
 93
       13
 44
0.0
173
     0
291
     0
 45
0.0
1001
ACAD
1000
AcDbSavedByObjectVersion
1070
     0
  0
VISUALSTYLE
  5
37
102
{ACAD_REACTORS
330
2A
102
}
102
{ACAD_XDICTIONARY
360
31A
102
}
330
2A
100
AcDbVisualStyle
  2
Thicken
 70
    13
 71
     2
 72
     2
 73
     0
 90
        0
 40
-0.6
 41
-30.0
 62
     5
 63
     7
421
 16777215
 74
     1
 91
        4
 64
     7
 65
   257
 75
     1
175
     1
 42
1.0
 92
       12
 66
     7
 43
1.0
 76
     1
 77
     6
 78
     2
 67
     7
 79
     5
170
     0
171
     0
290
     0
174
     0
 93
        1
 44
0.0
173
     0
291
     1
 45
0.0
1001
ACAD
1000
AcDbSavedByObjectVersion
1070
     0
  0
DICTIONARYVAR
  5
301
102
{ACAD_REACTORS
330
300
102
}
330
300
100
DictionaryVariables
280
     0
  1
1:1
  0
DICTIONARYVAR
  5
32A
102
{ACAD_REACTORS
330
300
102
}
330
300
100
DictionaryVariables
280
     0
  1
0
  0
XRECORD
  5
2FF
102
{ACAD_REACTORS
330
2FE
102
}
330
2FE
100
AcDbXrecord
280
     1
1000
This DWG file was created in ArchiCAD(TM)®
  0
DICTIONARY
  5
324
330
3D
100
AcDbDictionary
280
     1
281
     1
  3
ACAD_XREC_ROUNDTRIP
360
325
  0
DICTIONARY
  5
322
330
3C
100
AcDbDictionary
280
     1
281
     1
  3
ACAD_XREC_ROUNDTRIP
360
323
  0
DICTIONARY
  5
326
330
3E
100
AcDbDictionary
280
     1
281
     1
  3
ACAD_XREC_ROUNDTRIP
360
327
  0
DICTIONARY
  5
30A
330
2F
100
AcDbDictionary
280
     1
281
     1
  3
ACAD_XREC_ROUNDTRIP
360
30B
  0
DICTIONARY
  5
30E
330
31
100
AcDbDictionary
280
     1
281
     1
  3
ACAD_XREC_ROUNDTRIP
360
30F
  0
DICTIONARY
  5
30C
330
30
100
AcDbDictionary
280
     1
281
     1
  3
ACAD_XREC_ROUNDTRIP
360
30D
  0
DICTIONARY
  5
310
330
32
100
AcDbDictionary
280
     1
281
     1
  3
ACAD_XREC_ROUNDTRIP
360
311
  0
DICTIONARY
  5
318
330
36
100
AcDbDictionary
280
     1
281
     1
  3
ACAD_XREC_ROUNDTRIP
360
319
  0
DICTIONARY
  5
320
330
3A
100
AcDbDictionary
280
     1
281
     1
  3
ACAD_XREC_ROUNDTRIP
360
321
  0
DICTIONARY
  5
314
330
34
100
AcDbDictionary
280
     1
281
     1
  3
ACAD_XREC_ROUNDTRIP
360
315
  0
DICTIONARY
  5
316
330
35
100
AcDbDictionary
280
     1
281
     1
  3
ACAD_XREC_ROUNDTRIP
360
317
  0
DICTIONARY
  5
31E
330
39
100
AcDbDictionary
280
     1
281
     1
  3
ACAD_XREC_ROUNDTRIP
360
31F
  0
DICTIONARY
  5
302
330
2B
100
AcDbDictionary
280
     1
281
     1
  3
ACAD_XREC_ROUNDTRIP
360
303
  0
DICTIONARY
  5
304
330
2C
100
AcDbDictionary
280
     1
281
     1
  3
ACAD_XREC_ROUNDTRIP
360
305
  0
DICTIONARY
  5
306
330
2D
100
AcDbDictionary
280
     1
281
     1
  3
ACAD_XREC_ROUNDTRIP
360
307
  0
DICTIONARY
  5
308
330
2E
100
AcDbDictionary
280
     1
281
     1
  3
ACAD_XREC_ROUNDTRIP
360
309
  0
DICTIONARY
  5
31C
330
38
100
AcDbDictionary
280
     1
281
     1
  3
ACAD_XREC_ROUNDTRIP
360
31D
  0
DICTIONARY
  5
312
330
33
100
AcDbDictionary
280
     1
281
     1
  3
ACAD_XREC_ROUNDTRIP
360
313
  0
DICTIONARY
  5
31A
330
37
100
AcDbDictionary
280
     1
281
     1
  3
ACAD_XREC_ROUNDTRIP
360
31B
  0
XRECORD
  5
325
102
{ACAD_REACTORS
330
324
102
}
330
324
100
AcDbXrecord
280
     1
102
MATERIAL
148
0.0
149
0.0
149
0.0
 93
        0
 94
      127
282
     0
 72
     1
 77
     1
171
     1
175
     1
179
     1
273
     0
  0
XRECORD
  5
323
102
{ACAD_REACTORS
330
322
102
}
330
322
100
AcDbXrecord
280
     1
102
MATERIAL
148
0.0
149
0.0
149
0.0
 93
        0
 94
      127
282
     0
 72
     1
 77
     1
171
     1
175
     1
179
     1
273
     0
  0
XRECORD
  5
327
102
{ACAD_REACTORS
330
326
102
}
330
326
100
AcDbXrecord
280
     1
102
MATERIAL
148
0.0
149
0.0
149
0.0
 93
        0
 94
      127
282
     0
 72
     1
 77
     1
171
     1
175
     1
179
     1
273
     0
  0
XRECORD
  5
30B
102
{ACAD_REACTORS
330
30A
102
}
330
30A
100
AcDbXrecord
280
     1
102
RTVSPropertyOp0
 70
     1
102
RTVSPropertyOp1
 70
     1
102
RTVSPropertyOp2
 70
     1
102
RTVSPropertyOp3
 70
     1
102
RTVSPropertyOp4
 70
     1
102
RTVSPropertyOp5
 70
     1
102
RTVSPropertyOp6
 70
     1
102
RTVSPropertyOp7
 70
     1
102
RTVSPropertyOp8
 70
     1
102
RTVSPropertyOp9
 70
     1
102
RTVSPropertyOp10
 70
     1
102
RTVSPropertyOp11
 70
     1
102
RTVSPropertyOp12
 70
     1
102
RTVSPropertyOp13
 70
     1
102
RTVSPropertyOp14
 70
     1
102
RTVSPropertyOp15
 70
     1
102
RTVSPropertyOp16
 70
     1
102
RTVSPropertyOp17
 70
     1
102
RTVSPropertyOp18
 70
     1
102
RTVSPropertyOp19
 70
     1
102
RTVSPropertyOp20
 70
     1
102
RTVSPropertyOp21
 70
     1
102
RTVSPropertyOp22
 70
     1
102
RTVSPropertyOp23
 70
     1
102
RTVSPropertyOp24
 70
     1
102
RTVSPropertyOp25
 70
     1
102
RTVSPropertyOp26
 70
     1
102
RTVSPropertyOp27
 70
     1
102
RTVSPropertyOp28
 70
     1
102
RTVSPropertyOp29
 70
     1
102
RTVSPropertyOp30
 70
     1
102
RTVSPropertyOp31
 70
     1
102
RTVSPropertyOp32
 70
     1
  0
XRECORD
  5
30F
102
{ACAD_REACTORS
330
30E
102
}
330
30E
100
AcDbXrecord
280
     1
102
RTVSPropertyOp0
 70
     1
102
RTVSPropertyOp1
 70
     1
102
RTVSPropertyOp2
 70
     1
102
RTVSPropertyOp3
 70
     1
102
RTVSPropertyOp4
 70
     1
102
RTVSPropertyOp5
 70
     1
102
RTVSPropertyOp6
 70
     1
102
RTVSPropertyOp7
 70
     1
102
RTVSPropertyOp8
 70
     1
102
RTVSPropertyOp9
 70
     1
102
RTVSPropertyOp10
 70
     1
102
RTVSPropertyOp11
 70
     1
102
RTVSPropertyOp12
 70
     1
102
RTVSPropertyOp13
 70
     1
102
RTVSPropertyOp14
 70
     1
102
RTVSPropertyOp15
 70
     1
102
RTVSPropertyOp16
 70
     1
102
RTVSPropertyOp17
 70
     1
102
RTVSPropertyOp18
 70
     1
102
RTVSPropertyOp19
 70
     1
102
RTVSPropertyOp20
 70
     1
102
RTVSPropertyOp21
 70
     1
102
RTVSPropertyOp22
 70
     1
102
RTVSPropertyOp23
 70
     1
102
RTVSPropertyOp24
 70
     1
102
RTVSPropertyOp25
 70
     1
102
RTVSPropertyOp26
 70
     1
102
RTVSPropertyOp27
 70
     1
102
RTVSPropertyOp28
 70
     1
102
RTVSPropertyOp29
 70
     1
102
RTVSPropertyOp30
 70
     1
102
RTVSPropertyOp31
 70
     1
102
RTVSPropertyOp32
 70
     1
  0
XRECORD
  5
30D
102
{ACAD_REACTORS
330
30C
102
}
330
30C
100
AcDbXrecord
280
     1
102
RTVSPropertyOp0
 70
     1
102
RTVSPropertyOp1
 70
     1
102
RTVSPropertyOp2
 70
     1
102
RTVSPropertyOp3
 70
     1
102
RTVSPropertyOp4
 70
     1
102
RTVSPropertyOp5
 70
     1
102
RTVSPropertyOp6
 70
     1
102
RTVSPropertyOp7
 70
     1
102
RTVSPropertyOp8
 70
     1
102
RTVSPropertyOp9
 70
     1
102
RTVSPropertyOp10
 70
     1
102
RTVSPropertyOp11
 70
     1
102
RTVSPropertyOp12
 70
     1
102
RTVSPropertyOp13
 70
     1
102
RTVSPropertyOp14
 70
     1
102
RTVSPropertyOp15
 70
     1
102
RTVSPropertyOp16
 70
     1
102
RTVSPropertyOp17
 70
     1
102
RTVSPropertyOp18
 70
     1
102
RTVSPropertyOp19
 70
     1
102
RTVSPropertyOp20
 70
     1
102
RTVSPropertyOp21
 70
     1
102
RTVSPropertyOp22
 70
     1
102
RTVSPropertyOp23
 70
     1
102
RTVSPropertyOp24
 70
     1
102
RTVSPropertyOp25
 70
     1
102
RTVSPropertyOp26
 70
     1
102
RTVSPropertyOp27
 70
     1
102
RTVSPropertyOp28
 70
     1
102
RTVSPropertyOp29
 70
     1
102
RTVSPropertyOp30
 70
     1
102
RTVSPropertyOp31
 70
     1
102
RTVSPropertyOp32
 70
     1
  0
XRECORD
  5
311
102
{ACAD_REACTORS
330
310
102
}
330
310
100
AcDbXrecord
280
     1
102
RTVSPropertyOp0
 70
     1
102
RTVSPropertyOp1
 70
     1
102
RTVSPropertyOp2
 70
     1
102
RTVSPropertyOp3
 70
     1
102
RTVSPropertyOp4
 70
     1
102
RTVSPropertyOp5
 70
     1
102
RTVSPropertyOp6
 70
     1
102
RTVSPropertyOp7
 70
     1
102
RTVSPropertyOp8
 70
     1
102
RTVSPropertyOp9
 70
     1
102
RTVSPropertyOp10
 70
     1
102
RTVSPropertyOp11
 70
     1
102
RTVSPropertyOp12
 70
     1
102
RTVSPropertyOp13
 70
     1
102
RTVSPropertyOp14
 70
     1
102
RTVSPropertyOp15
 70
     1
102
RTVSPropertyOp16
 70
     1
102
RTVSPropertyOp17
 70
     1
102
RTVSPropertyOp18
 70
     1
102
RTVSPropertyOp19
 70
     1
102
RTVSPropertyOp20
 70
     1
102
RTVSPropertyOp21
 70
     1
102
RTVSPropertyOp22
 70
     1
102
RTVSPropertyOp23
 70
     1
102
RTVSPropertyOp24
 70
     1
102
RTVSPropertyOp25
 70
     1
102
RTVSPropertyOp26
 70
     1
102
RTVSPropertyOp27
 70
     1
102
RTVSPropertyOp28
 70
     1
102
RTVSPropertyOp29
 70
     1
102
RTVSPropertyOp30
 70
     1
102
RTVSPropertyOp31
 70
     1
102
RTVSPropertyOp32
 70
     1
  0
XRECORD
  5
319
102
{ACAD_REACTORS
330
318
102
}
330
318
100
AcDbXrecord
280
     1
102
RTVSPropertyOp0
 70
     1
102
RTVSPropertyOp1
 70
     1
102
RTVSPropertyOp2
 70
     1
102
RTVSPropertyOp3
 70
     1
102
RTVSPropertyOp4
 70
     1
102
RTVSPropertyOp5
 70
     1
102
RTVSPropertyOp6
 70
     1
102
RTVSPropertyOp7
 70
     1
102
RTVSPropertyOp8
 70
     1
102
RTVSPropertyOp9
 70
     1
102
RTVSPropertyOp10
 70
     1
102
RTVSPropertyOp11
 70
     1
102
RTVSPropertyOp12
 70
     1
102
RTVSPropertyOp13
 70
     1
102
RTVSPropertyOp14
 70
     1
102
RTVSPropertyOp15
 70
     1
102
RTVSPropertyOp16
 70
     1
102
RTVSPropertyOp17
 70
     1
102
RTVSPropertyOp18
 70
     1
102
RTVSPropertyOp19
 70
     1
102
RTVSPropertyOp20
 70
     1
102
RTVSPropertyOp21
 70
     1
102
RTVSPropertyOp22
 70
     1
102
RTVSPropertyOp23
 70
     1
102
RTVSPropertyOp24
 70
     1
102
RTVSPropertyOp25
 70
     1
102
RTVSPropertyOp26
 70
     1
102
RTVSPropertyOp27
 70
     1
102
RTVSPropertyOp28
 70
     1
102
RTVSPropertyOp29
 70
     1
102
RTVSPropertyOp30
 70
     1
102
RTVSPropertyOp31
 70
     1
102
RTVSPropertyOp32
 70
     1
  0
XRECORD
  5
321
102
{ACAD_REACTORS
330
320
102
}
330
320
100
AcDbXrecord
280
     1
102
RTVSPropertyOp0
 70
     1
102
RTVSPropertyOp1
 70
     1
102
RTVSPropertyOp2
 70
     1
102
RTVSPropertyOp3
 70
     1
102
RTVSPropertyOp4
 70
     1
102
RTVSPropertyOp5
 70
     1
102
RTVSPropertyOp6
 70
     1
102
RTVSPropertyOp7
 70
     1
102
RTVSPropertyOp8
 70
     1
102
RTVSPropertyOp9
 70
     1
102
RTVSPropertyOp10
 70
     1
102
RTVSPropertyOp11
 70
     1
102
RTVSPropertyOp12
 70
     1
102
RTVSPropertyOp13
 70
     1
102
RTVSPropertyOp14
 70
     1
102
RTVSPropertyOp15
 70
     1
102
RTVSPropertyOp16
 70
     1
102
RTVSPropertyOp17
 70
     1
102
RTVSPropertyOp18
 70
     1
102
RTVSPropertyOp19
 70
     1
102
RTVSPropertyOp20
 70
     1
102
RTVSPropertyOp21
 70
     1
102
RTVSPropertyOp22
 70
     1
102
RTVSPropertyOp23
 70
     1
102
RTVSPropertyOp24
 70
     1
102
RTVSPropertyOp25
 70
     1
102
RTVSPropertyOp26
 70
     1
102
RTVSPropertyOp27
 70
     1
102
RTVSPropertyOp28
 70
     1
102
RTVSPropertyOp29
 70
     1
102
RTVSPropertyOp30
 70
     1
102
RTVSPropertyOp31
 70
     1
102
RTVSPropertyOp32
 70
     1
  0
XRECORD
  5
315
102
{ACAD_REACTORS
330
314
102
}
330
314
100
AcDbXrecord
280
     1
102
RTVSPropertyOp0
 70
     1
102
RTVSPropertyOp1
 70
     1
102
RTVSPropertyOp2
 70
     1
102
RTVSPropertyOp3
 70
     1
102
RTVSPropertyOp4
 70
     1
102
RTVSPropertyOp5
 70
     1
102
RTVSPropertyOp6
 70
     1
102
RTVSPropertyOp7
 70
     1
102
RTVSPropertyOp8
 70
     1
102
RTVSPropertyOp9
 70
     1
102
RTVSPropertyOp10
 70
     1
102
RTVSPropertyOp11
 70
     1
102
RTVSPropertyOp12
 70
     1
102
RTVSPropertyOp13
 70
     1
102
RTVSPropertyOp14
 70
     1
102
RTVSPropertyOp15
 70
     1
102
RTVSPropertyOp16
 70
     1
102
RTVSPropertyOp17
 70
     1
102
RTVSPropertyOp18
 70
     1
102
RTVSPropertyOp19
 70
     1
102
RTVSPropertyOp20
 70
     1
102
RTVSPropertyOp21
 70
     1
102
RTVSPropertyOp22
 70
     1
102
RTVSPropertyOp23
 70
     1
102
RTVSPropertyOp24
 70
     1
102
RTVSPropertyOp25
 70
     1
102
RTVSPropertyOp26
 70
     1
102
RTVSPropertyOp27
 70
     1
102
RTVSPropertyOp28
 70
     1
102
RTVSPropertyOp29
 70
     1
102
RTVSPropertyOp30
 70
     1
102
RTVSPropertyOp31
 70
     1
102
RTVSPropertyOp32
 70
     1
  0
XRECORD
  5
317
102
{ACAD_REACTORS
330
316
102
}
330
316
100
AcDbXrecord
280
     1
102
RTVSPropertyOp0
 70
     1
102
RTVSPropertyOp1
 70
     1
102
RTVSPropertyOp2
 70
     1
102
RTVSPropertyOp3
 70
     1
102
RTVSPropertyOp4
 70
     1
102
RTVSPropertyOp5
 70
     1
102
RTVSPropertyOp6
 70
     1
102
RTVSPropertyOp7
 70
     1
102
RTVSPropertyOp8
 70
     1
102
RTVSPropertyOp9
 70
     1
102
RTVSPropertyOp10
 70
     1
102
RTVSPropertyOp11
 70
     1
102
RTVSPropertyOp12
 70
     1
102
RTVSPropertyOp13
 70
     1
102
RTVSPropertyOp14
 70
     1
102
RTVSPropertyOp15
 70
     1
102
RTVSPropertyOp16
 70
     1
102
RTVSPropertyOp17
 70
     1
102
RTVSPropertyOp18
 70
     1
102
RTVSPropertyOp19
 70
     1
102
RTVSPropertyOp20
 70
     1
102
RTVSPropertyOp21
 70
     1
102
RTVSPropertyOp22
 70
     1
102
RTVSPropertyOp23
 70
     1
102
RTVSPropertyOp24
 70
     1
102
RTVSPropertyOp25
 70
     1
102
RTVSPropertyOp26
 70
     1
102
RTVSPropertyOp27
 70
     1
102
RTVSPropertyOp28
 70
     1
102
RTVSPropertyOp29
 70
     1
102
RTVSPropertyOp30
 70
     1
102
RTVSPropertyOp31
 70
     1
102
RTVSPropertyOp32
 70
     1
  0
XRECORD
  5
31F
102
{ACAD_REACTORS
330
31E
102
}
330
31E
100
AcDbXrecord
280
     1
102
RTVSPropertyOp0
 70
     1
102
RTVSPropertyOp1
 70
     1
102
RTVSPropertyOp2
 70
     1
102
RTVSPropertyOp3
 70
     1
102
RTVSPropertyOp4
 70
     1
102
RTVSPropertyOp5
 70
     1
102
RTVSPropertyOp6
 70
     1
102
RTVSPropertyOp7
 70
     1
102
RTVSPropertyOp8
 70
     1
102
RTVSPropertyOp9
 70
     1
102
RTVSPropertyOp10
 70
     1
102
RTVSPropertyOp11
 70
     1
102
RTVSPropertyOp12
 70
     1
102
RTVSPropertyOp13
 70
     1
102
RTVSPropertyOp14
 70
     1
102
RTVSPropertyOp15
 70
     1
102
RTVSPropertyOp16
 70
     1
102
RTVSPropertyOp17
 70
     1
102
RTVSPropertyOp18
 70
     1
102
RTVSPropertyOp19
 70
     1
102
RTVSPropertyOp20
 70
     1
102
RTVSPropertyOp21
 70
     1
102
RTVSPropertyOp22
 70
     1
102
RTVSPropertyOp23
 70
     1
102
RTVSPropertyOp24
 70
     1
102
RTVSPropertyOp25
 70
     1
102
RTVSPropertyOp26
 70
     1
102
RTVSPropertyOp27
 70
     1
102
RTVSPropertyOp28
 70
     1
102
RTVSPropertyOp29
 70
     1
102
RTVSPropertyOp30
 70
     1
102
RTVSPropertyOp31
 70
     1
102
RTVSPropertyOp32
 70
     1
  0
XRECORD
  5
303
102
{ACAD_REACTORS
330
302
102
}
330
302
100
AcDbXrecord
280
     1
102
RTVSPropertyOp0
 70
     1
102
RTVSPropertyOp1
 70
     1
102
RTVSPropertyOp2
 70
     1
102
RTVSPropertyOp3
 70
     1
102
RTVSPropertyOp4
 70
     1
102
RTVSPropertyOp5
 70
     1
102
RTVSPropertyOp6
 70
     1
102
RTVSPropertyOp7
 70
     1
102
RTVSPropertyOp8
 70
     1
102
RTVSPropertyOp9
 70
     1
102
RTVSPropertyOp10
 70
     1
102
RTVSPropertyOp11
 70
     1
102
RTVSPropertyOp12
 70
     1
102
RTVSPropertyOp13
 70
     1
102
RTVSPropertyOp14
 70
     1
102
RTVSPropertyOp15
 70
     1
102
RTVSPropertyOp16
 70
     1
102
RTVSPropertyOp17
 70
     1
102
RTVSPropertyOp18
 70
     1
102
RTVSPropertyOp19
 70
     1
102
RTVSPropertyOp20
 70
     1
102
RTVSPropertyOp21
 70
     1
102
RTVSPropertyOp22
 70
     1
102
RTVSPropertyOp23
 70
     1
102
RTVSPropertyOp24
 70
     1
102
RTVSPropertyOp25
 70
     1
102
RTVSPropertyOp26
 70
     1
102
RTVSPropertyOp27
 70
     1
102
RTVSPropertyOp28
 70
     1
102
RTVSPropertyOp29
 70
     1
102
RTVSPropertyOp30
 70
     1
102
RTVSPropertyOp31
 70
     1
102
RTVSPropertyOp32
 70
     1
  0
XRECORD
  5
305
102
{ACAD_REACTORS
330
304
102
}
330
304
100
AcDbXrecord
280
     1
102
RTVSPropertyOp0
 70
     1
102
RTVSPropertyOp1
 70
     1
102
RTVSPropertyOp2
 70
     1
102
RTVSPropertyOp3
 70
     1
102
RTVSPropertyOp4
 70
     1
102
RTVSPropertyOp5
 70
     1
102
RTVSPropertyOp6
 70
     1
102
RTVSPropertyOp7
 70
     1
102
RTVSPropertyOp8
 70
     1
102
RTVSPropertyOp9
 70
     1
102
RTVSPropertyOp10
 70
     1
102
RTVSPropertyOp11
 70
     1
102
RTVSPropertyOp12
 70
     1
102
RTVSPropertyOp13
 70
     1
102
RTVSPropertyOp14
 70
     1
102
RTVSPropertyOp15
 70
     1
102
RTVSPropertyOp16
 70
     1
102
RTVSPropertyOp17
 70
     1
102
RTVSPropertyOp18
 70
     1
102
RTVSPropertyOp19
 70
     1
102
RTVSPropertyOp20
 70
     1
102
RTVSPropertyOp21
 70
     1
102
RTVSPropertyOp22
 70
     1
102
RTVSPropertyOp23
 70
     1
102
RTVSPropertyOp24
 70
     1
102
RTVSPropertyOp25
 70
     1
102
RTVSPropertyOp26
 70
     1
102
RTVSPropertyOp27
 70
     1
102
RTVSPropertyOp28
 70
     1
102
RTVSPropertyOp29
 70
     1
102
RTVSPropertyOp30
 70
     1
102
RTVSPropertyOp31
 70
     1
102
RTVSPropertyOp32
 70
     1
  0
XRECORD
  5
307
102
{ACAD_REACTORS
330
306
102
}
330
306
100
AcDbXrecord
280
     1
102
RTVSPropertyOp0
 70
     1
102
RTVSPropertyOp1
 70
     1
102
RTVSPropertyOp2
 70
     1
102
RTVSPropertyOp3
 70
     1
102
RTVSPropertyOp4
 70
     1
102
RTVSPropertyOp5
 70
     1
102
RTVSPropertyOp6
 70
     1
102
RTVSPropertyOp7
 70
     1
102
RTVSPropertyOp8
 70
     1
102
RTVSPropertyOp9
 70
     1
102
RTVSPropertyOp10
 70
     1
102
RTVSPropertyOp11
 70
     1
102
RTVSPropertyOp12
 70
     1
102
RTVSPropertyOp13
 70
     1
102
RTVSPropertyOp14
 70
     1
102
RTVSPropertyOp15
 70
     1
102
RTVSPropertyOp16
 70
     1
102
RTVSPropertyOp17
 70
     1
102
RTVSPropertyOp18
 70
     1
102
RTVSPropertyOp19
 70
     1
102
RTVSPropertyOp20
 70
     1
102
RTVSPropertyOp21
 70
     1
102
RTVSPropertyOp22
 70
     1
102
RTVSPropertyOp23
 70
     1
102
RTVSPropertyOp24
 70
     1
102
RTVSPropertyOp25
 70
     1
102
RTVSPropertyOp26
 70
     1
102
RTVSPropertyOp27
 70
     1
102
RTVSPropertyOp28
 70
     1
102
RTVSPropertyOp29
 70
     1
102
RTVSPropertyOp30
 70
     1
102
RTVSPropertyOp31
 70
     1
102
RTVSPropertyOp32
 70
     1
  0
XRECORD
  5
309
102
{ACAD_REACTORS
330
308
102
}
330
308
100
AcDbXrecord
280
     1
102
RTVSPropertyOp0
 70
     1
102
RTVSPropertyOp1
 70
     1
102
RTVSPropertyOp2
 70
     1
102
RTVSPropertyOp3
 70
     1
102
RTVSPropertyOp4
 70
     1
102
RTVSPropertyOp5
 70
     1
102
RTVSPropertyOp6
 70
     1
102
RTVSPropertyOp7
 70
     1
102
RTVSPropertyOp8
 70
     1
102
RTVSPropertyOp9
 70
     1
102
RTVSPropertyOp10
 70
     1
102
RTVSPropertyOp11
 70
     1
102
RTVSPropertyOp12
 70
     1
102
RTVSPropertyOp13
 70
     1
102
RTVSPropertyOp14
 70
     1
102
RTVSPropertyOp15
 70
     1
102
RTVSPropertyOp16
 70
     1
102
RTVSPropertyOp17
 70
     1
102
RTVSPropertyOp18
 70
     1
102
RTVSPropertyOp19
 70
     1
102
RTVSPropertyOp20
 70
     1
102
RTVSPropertyOp21
 70
     1
102
RTVSPropertyOp22
 70
     1
102
RTVSPropertyOp23
 70
     1
102
RTVSPropertyOp24
 70
     1
102
RTVSPropertyOp25
 70
     1
102
RTVSPropertyOp26
 70
     1
102
RTVSPropertyOp27
 70
     1
102
RTVSPropertyOp28
 70
     1
102
RTVSPropertyOp29
 70
     1
102
RTVSPropertyOp30
 70
     1
102
RTVSPropertyOp31
 70
     1
102
RTVSPropertyOp32
 70
     1
  0
XRECORD
  5
31D
102
{ACAD_REACTORS
330
31C
102
}
330
31C
100
AcDbXrecord
280
     1
102
RTVSPropertyOp0
 70
     1
102
RTVSPropertyOp1
 70
     1
102
RTVSPropertyOp2
 70
     1
102
RTVSPropertyOp3
 70
     1
102
RTVSPropertyOp4
 70
     1
102
RTVSPropertyOp5
 70
     1
102
RTVSPropertyOp6
 70
     1
102
RTVSPropertyOp7
 70
     1
102
RTVSPropertyOp8
 70
     1
102
RTVSPropertyOp9
 70
     1
102
RTVSPropertyOp10
 70
     1
102
RTVSPropertyOp11
 70
     1
102
RTVSPropertyOp12
 70
     1
102
RTVSPropertyOp13
 70
     1
102
RTVSPropertyOp14
 70
     1
102
RTVSPropertyOp15
 70
     1
102
RTVSPropertyOp16
 70
     1
102
RTVSPropertyOp17
 70
     1
102
RTVSPropertyOp18
 70
     1
102
RTVSPropertyOp19
 70
     1
102
RTVSPropertyOp20
 70
     1
102
RTVSPropertyOp21
 70
     1
102
RTVSPropertyOp22
 70
     1
102
RTVSPropertyOp23
 70
     1
102
RTVSPropertyOp24
 70
     1
102
RTVSPropertyOp25
 70
     1
102
RTVSPropertyOp26
 70
     1
102
RTVSPropertyOp27
 70
     1
102
RTVSPropertyOp28
 70
     1
102
RTVSPropertyOp29
 70
     1
102
RTVSPropertyOp30
 70
     1
102
RTVSPropertyOp31
 70
     1
102
RTVSPropertyOp32
 70
     1
  0
XRECORD
  5
313
102
{ACAD_REACTORS
330
312
102
}
330
312
100
AcDbXrecord
280
     1
102
RTVSPropertyOp0
 70
     1
102
RTVSPropertyOp1
 70
     1
102
RTVSPropertyOp2
 70
     1
102
RTVSPropertyOp3
 70
     1
102
RTVSPropertyOp4
 70
     1
102
RTVSPropertyOp5
 70
     1
102
RTVSPropertyOp6
 70
     1
102
RTVSPropertyOp7
 70
     1
102
RTVSPropertyOp8
 70
     1
102
RTVSPropertyOp9
 70
     1
102
RTVSPropertyOp10
 70
     1
102
RTVSPropertyOp11
 70
     1
102
RTVSPropertyOp12
 70
     1
102
RTVSPropertyOp13
 70
     1
102
RTVSPropertyOp14
 70
     1
102
RTVSPropertyOp15
 70
     1
102
RTVSPropertyOp16
 70
     1
102
RTVSPropertyOp17
 70
     1
102
RTVSPropertyOp18
 70
     1
102
RTVSPropertyOp19
 70
     1
102
RTVSPropertyOp20
 70
     1
102
RTVSPropertyOp21
 70
     1
102
RTVSPropertyOp22
 70
     1
102
RTVSPropertyOp23
 70
     1
102
RTVSPropertyOp24
 70
     1
102
RTVSPropertyOp25
 70
     1
102
RTVSPropertyOp26
 70
     1
102
RTVSPropertyOp27
 70
     1
102
RTVSPropertyOp28
 70
     1
102
RTVSPropertyOp29
 70
     1
102
RTVSPropertyOp30
 70
     1
102
RTVSPropertyOp31
 70
     1
102
RTVSPropertyOp32
 70
     1
  0
XRECORD
  5
31B
102
{ACAD_REACTORS
330
31A
102
}
330
31A
100
AcDbXrecord
280
     1
102
RTVSPropertyOp0
 70
     1
102
RTVSPropertyOp1
 70
     1
102
RTVSPropertyOp2
 70
     1
102
RTVSPropertyOp3
 70
     1
102
RTVSPropertyOp4
 70
     1
102
RTVSPropertyOp5
 70
     1
102
RTVSPropertyOp6
 70
     1
102
RTVSPropertyOp7
 70
     1
102
RTVSPropertyOp8
 70
     1
102
RTVSPropertyOp9
 70
     1
102
RTVSPropertyOp10
 70
     1
102
RTVSPropertyOp11
 70
     1
102
RTVSPropertyOp12
 70
     1
102
RTVSPropertyOp13
 70
     1
102
RTVSPropertyOp14
 70
     1
102
RTVSPropertyOp15
 70
     1
102
RTVSPropertyOp16
 70
     1
102
RTVSPropertyOp17
 70
     1
102
RTVSPropertyOp18
 70
     1
102
RTVSPropertyOp19
 70
     1
102
RTVSPropertyOp20
 70
     1
102
RTVSPropertyOp21
 70
     1
102
RTVSPropertyOp22
 70
     1
102
RTVSPropertyOp23
 70
     1
102
RTVSPropertyOp24
 70
     1
102
RTVSPropertyOp25
 70
     1
102
RTVSPropertyOp26
 70
     1
102
RTVSPropertyOp27
 70
     1
102
RTVSPropertyOp28
 70
     1
102
RTVSPropertyOp29
 70
     1
102
RTVSPropertyOp30
 70
     1
102
RTVSPropertyOp31
 70
     1
102
RTVSPropertyOp32
 70
     1
  0
ENDSEC
  0
EOF
