  0
SECTION
  2
HEADER
  9
$ACADVER
  1
AC1018
  9
$ACADMAINTVER
 70
     0
  9
$DWGCODEPAGE
  3
ANSI_1252
  9
$INSBASE
 10
0.0
 20
0.0
 30
0.0
  9
$EXTMIN
 10
1.000000000000000E+20
 20
1.000000000000000E+20
 30
1.000000000000000E+20
  9
$EXTMAX
 10
-1.000000000000000E+20
 20
-1.000000000000000E+20
 30
-1.000000000000000E+20
  9
$LIMMIN
 10
0.0
 20
0.0
  9
$LIMMAX
 10
12.0
 20
9.0
  9
$ORTHOMODE
 70
     0
  9
$REGENMODE
 70
     1
  9
$FILLMODE
 70
     1
  9
$QTEXTMODE
 70
     0
  9
$MIRRTEXT
 70
     1
  9
$LTSCALE
 40
1.0
  9
$ATTMODE
 70
     1
  9
$TEXTSIZE
 40
0.2
  9
$TRACEWID
 40
0.05
  9
$TEXTSTYLE
  7
Standard
  9
$CLAYER
  8
0
  9
$CELTYPE
  6
ByLayer
  9
$CECOLOR
 62
   256
  9
$CELTSCALE
 40
1.0
  9
$DISPSILH
 70
     0
  9
$DIMSCALE
 40
1.0
  9
$DIMASZ
 40
0.18
  9
$DIMEXO
 40
0.0625
  9
$DIMDLI
 40
0.38
  9
$DIMRND
 40
0.0
  9
$DIMDLE
 40
0.0
  9
$DIMEXE
 40
0.18
  9
$DIMTP
 40
0.0
  9
$DIMTM
 40
0.0
  9
$DIMTXT
 40
0.18
  9
$DIMCEN
 40
0.09
  9
$DIMTSZ
 40
0.0
  9
$DIMTOL
 70
     0
  9
$DIMLIM
 70
     0
  9
$DIMTIH
 70
     1
  9
$DIMTOH
 70
     1
  9
$DIMSE1
 70
     0
  9
$DIMSE2
 70
     0
  9
$DIMTAD
 70
     0
  9
$DIMZIN
 70
     0
  9
$DIMBLK
  1

  9
$DIMASO
 70
     1
  9
$DIMSHO
 70
     1
  9
$DIMPOST
  1

  9
$DIMAPOST
  1

  9
$DIMALT
 70
     0
  9
$DIMALTD
 70
     2
  9
$DIMALTF
 40
25.4
  9
$DIMLFAC
 40
1.0
  9
$DIMTOFL
 70
     0
  9
$DIMTVP
 40
0.0
  9
$DIMTIX
 70
     0
  9
$DIMSOXD
 70
     0
  9
$DIMSAH
 70
     0
  9
$DIMBLK1
  1

  9
$DIMBLK2
  1

  9
$DIMSTYLE
  2
Standard
  9
$DIMCLRD
 70
     0
  9
$DIMCLRE
 70
     0
  9
$DIMCLRT
 70
     0
  9
$DIMTFAC
 40
1.0
  9
$DIMGAP
 40
0.09
  9
$DIMJUST
 70
     0
  9
$DIMSD1
 70
     0
  9
$DIMSD2
 70
     0
  9
$DIMTOLJ
 70
     1
  9
$DIMTZIN
 70
     0
  9
$DIMALTZ
 70
     0
  9
$DIMALTTZ
 70
     0
  9
$DIMUPT
 70
     0
  9
$DIMDEC
 70
     4
  9
$DIMTDEC
 70
     4
  9
$DIMALTU
 70
     2
  9
$DIMALTTD
 70
     2
  9
$DIMTXSTY
  7
Standard
  9
$DIMAUNIT
 70
     0
  9
$DIMADEC
 70
     0
  9
$DIMALTRND
 40
0.0
  9
$DIMAZIN
 70
     0
  9
$DIMDSEP
 70
    46
  9
$DIMATFIT
 70
     3
  9
$DIMFRAC
 70
     0
  9
$DIMLDRBLK
  1

  9
$DIMLUNIT
 70
     2
  9
$DIMLWD
 70
    -2
  9
$DIMLWE
 70
    -2
  9
$DIMTMOVE
 70
     0
  9
$LUNITS
 70
     2
  9
$LUPREC
 70
     4
  9
$SKETCHINC
 40
0.1
  9
$FILLETRAD
 40
0.5
  9
$AUNITS
 70
     0
  9
$AUPREC
 70
     0
  9
$MENU
  1
.
  9
$ELEVATION
 40
0.0
  9
$PELEVATION
 40
0.0
  9
$THICKNESS
 40
0.0
  9
$LIMCHECK
 70
     0
  9
$CHAMFERA
 40
0.5
  9
$CHAMFERB
 40
0.5
  9
$CHAMFERC
 40
1.0
  9
$CHAMFERD
 40
0.0
  9
$SKPOLY
 70
     0
  9
$TDCREATE
 40
2457126.416819479
  9
$TDUCREATE
 40
2457125.916819479
  9
$TDUPDATE
 40
2457126.416821574
  9
$TDUUPDATE
 40
2457125.916821574
  9
$TDINDWG
 40
0.0000000116
  9
$TDUSRTIMER
 40
0.0000000116
  9
$USRTIMER
 70
     1
  9
$ANGBASE
 50
0.0
  9
$ANGDIR
 70
     0
  9
$PDMODE
 70
     0
  9
$PDSIZE
 40
0.0
  9
$PLINEWID
 40
0.0
  9
$SPLFRAME
 70
     0
  9
$SPLINETYPE
 70
     6
  9
$SPLINESEGS
 70
     8
  9
$HANDSEED
  5
1FF
  9
$SURFTAB1
 70
     6
  9
$SURFTAB2
 70
     6
  9
$SURFTYPE
 70
     6
  9
$SURFU
 70
     6
  9
$SURFV
 70
     6
  9
$UCSBASE
  2

  9
$UCSNAME
  2

  9
$UCSORG
 10
0.0
 20
0.0
 30
0.0
  9
$UCSXDIR
 10
1.0
 20
0.0
 30
0.0
  9
$UCSYDIR
 10
0.0
 20
1.0
 30
0.0
  9
$UCSORTHOREF
  2

  9
$UCSORTHOVIEW
 70
     0
  9
$UCSORGTOP
 10
0.0
 20
0.0
 30
0.0
  9
$UCSORGBOTTOM
 10
0.0
 20
0.0
 30
0.0
  9
$UCSORGLEFT
 10
0.0
 20
0.0
 30
0.0
  9
$UCSORGRIGHT
 10
0.0
 20
0.0
 30
0.0
  9
$UCSORGFRONT
 10
0.0
 20
0.0
 30
0.0
  9
$UCSORGBACK
 10
0.0
 20
0.0
 30
0.0
  9
$PUCSBASE
  2

  9
$PUCSNAME
  2

  9
$PUCSORG
 10
0.0
 20
0.0
 30
0.0
  9
$PUCSXDIR
 10
1.0
 20
0.0
 30
0.0
  9
$PUCSYDIR
 10
0.0
 20
1.0
 30
0.0
  9
$PUCSORTHOREF
  2

  9
$PUCSORTHOVIEW
 70
     0
  9
$PUCSORGTOP
 10
0.0
 20
0.0
 30
0.0
  9
$PUCSORGBOTTOM
 10
0.0
 20
0.0
 30
0.0
  9
$PUCSORGLEFT
 10
0.0
 20
0.0
 30
0.0
  9
$PUCSORGRIGHT
 10
0.0
 20
0.0
 30
0.0
  9
$PUCSORGFRONT
 10
0.0
 20
0.0
 30
0.0
  9
$PUCSORGBACK
 10
0.0
 20
0.0
 30
0.0
  9
$USERI1
 70
     0
  9
$USERI2
 70
     0
  9
$USERI3
 70
     0
  9
$USERI4
 70
     0
  9
$USERI5
 70
     0
  9
$USERR1
 40
0.0
  9
$USERR2
 40
0.0
  9
$USERR3
 40
0.0
  9
$USERR4
 40
0.0
  9
$USERR5
 40
0.0
  9
$WORLDVIEW
 70
     1
  9
$SHADEDGE
 70
     3
  9
$SHADEDIF
 70
    70
  9
$TILEMODE
 70
     1
  9
$MAXACTVP
 70
    64
  9
$PINSBASE
 10
0.0
 20
0.0
 30
0.0
  9
$PLIMCHECK
 70
     0
  9
$PEXTMIN
 10
1.000000000000000E+20
 20
1.000000000000000E+20
 30
1.000000000000000E+20
  9
$PEXTMAX
 10
-1.000000000000000E+20
 20
-1.000000000000000E+20
 30
-1.000000000000000E+20
  9
$PLIMMIN
 10
0.0
 20
0.0
  9
$PLIMMAX
 10
12.0
 20
9.0
  9
$UNITMODE
 70
     0
  9
$VISRETAIN
 70
     1
  9
$PLINEGEN
 70
     0
  9
$PSLTSCALE
 70
     1
  9
$TREEDEPTH
 70
  3020
  9
$CMLSTYLE
  2
Standard
  9
$CMLJUST
 70
     0
  9
$CMLSCALE
 40
1.0
  9
$PROXYGRAPHICS
 70
     1
  9
$MEASUREMENT
 70
     0
  9
$CELWEIGHT
370
    -1
  9
$ENDCAPS
280
     0
  9
$JOINSTYLE
280
     0
  9
$LWDISPLAY
290
     1
  9
$INSUNITS
 70
     4
  9
$HYPERLINKBASE
  1

  9
$STYLESHEET
  1

  9
$XEDIT
290
     1
  9
$CEPSNTYPE
380
     0
  9
$PSTYLEMODE
290
     1
  9
$FINGERPRINTGUID
  2
{6CF39617-B96C-40D8-BC92-278CDED8A261}
  9
$VERSIONGUID
  2
{FAEB1C32-E019-11D5-929B-00C0DF256EC4}
  9
$EXTNAMES
290
     1
  9
$PSVPSCALE
 40
0.0
  9
$OLESTARTUP
290
     0
  9
$SORTENTS
280
   127
  9
$INDEXCTL
280
     0
  9
$HIDETEXT
280
     1
  9
$XCLIPFRAME
290
     0
  9
$HALOGAP
280
     0
  9
$OBSCOLOR
 70
   257
  9
$OBSLTYPE
280
     0
  9
$INTERSECTIONDISPLAY
280
     0
  9
$INTERSECTIONCOLOR
 70
   257
  9
$DIMASSOC
280
     2
  9
$PROJECTNAME
  1

  0
ENDSEC
  0
SECTION
  2
CLASSES
  0
CLASS
  1
ACDBDICTIONARYWDFLT
  2
AcDbDictionaryWithDefault
  3
ObjectDBX Classes
 90
        0
 91
        4
280
     0
281
     0
  0
CLASS
  1
VISUALSTYLE
  2
AcDbVisualStyle
  3
ObjectDBX Classes
 90
     4095
 91
        4
280
     0
281
     0
  0
CLASS
  1
MATERIAL
  2
AcDbMaterial
  3
ObjectDBX Classes
 90
     1153
 91
        4
280
     0
281
     0
  0
CLASS
  1
WIPEOUT
  2
AcDbWipeout
  3
WipeOut|AutoCAD Express Tool|expresstools@autodesk.com
 90
      127
 91
        4
280
     0
281
     1
  0
CLASS
  1
SCALE
  2
AcDbScale
  3
ObjectDBX Classes
 90
     1153
 91
        4
280
     0
281
     0
  0
CLASS
  1
DICTIONARYVAR
  2
AcDbDictionaryVar
  3
ObjectDBX Classes
 90
        0
 91
        4
280
     0
281
     0
  0
ENDSEC
  0
SECTION
  2
TABLES
  0
TABLE
  2
VPORT
  5
8
330
0
100
AcDbSymbolTable
 70
     1
  0
VPORT
  5
29
330
8
100
AcDbSymbolTableRecord
100
AcDbViewportTableRecord
  2
*Active
 70
     0
 10
0.0
 20
0.0
 11
1.0
 21
1.0
 12
1592.797931699984
 22
1106.932272801778
 13
0.0
 23
0.0
 14
0.5
 24
0.5
 15
0.5
 25
0.5
 16
0.0
 26
0.0
 36
1.0
 17
0.0
 27
0.0
 37
0.0
 40
3808.929436515629
 41
1.004330042277179
 42
50.0
 43
0.0
 44
0.0
 50
0.0
 51
0.0
 71
     0
 72
   100
 73
     1
 74
     3
 75
     0
 76
     0
 77
     0
 78
     0
281
     0
 65
     1
110
0.0
120
0.0
130
0.0
111
1.0
121
0.0
131
0.0
112
0.0
122
1.0
132
0.0
 79
     0
146
0.0
  0
ENDTAB
  0
TABLE
  2
LTYPE
  5
5
330
0
100
AcDbSymbolTable
 70
     2
  0
LTYPE
  5
14
330
5
100
AcDbSymbolTableRecord
100
AcDbLinetypeTableRecord
  2
ByBlock
 70
     0
  3

 72
    65
 73
     0
 40
0.0
  0
LTYPE
  5
15
330
5
100
AcDbSymbolTableRecord
100
AcDbLinetypeTableRecord
  2
ByLayer
 70
     0
  3

 72
    65
 73
     0
 40
0.0
  0
LTYPE
  5
16
330
5
100
AcDbSymbolTableRecord
100
AcDbLinetypeTableRecord
  2
Continuous
 70
     0
  3
Solid line
 72
    65
 73
     0
 40
0.0
  0
LTYPE
  5
183
330
5
100
AcDbSymbolTableRecord
100
AcDbLinetypeTableRecord
  2
Wipeout_Contour
 70
     0
  3
- - - - - 
 72
    65
 73
     2
 40
1000.0
 49
0.0
 74
     0
 49
-1000.0
 74
     0
  0
ENDTAB
  0
TABLE
  2
LAYER
  5
2
330
0
100
AcDbSymbolTable
 70
     4
  0
LAYER
  5
10
330
2
100
AcDbSymbolTableRecord
100
AcDbLayerTableRecord
  2
0
 70
     0
 62
     7
  6
Continuous
370
    -3
390
F
  0
LAYER
  5
40
330
2
100
AcDbSymbolTableRecord
100
AcDbLayerTableRecord
  2
0_Pen_No__146
 70
     0
 62
     9
420
 13290186
  6
Continuous
370
     5
390
F
  0
LAYER
  5
52
330
2
100
AcDbSymbolTableRecord
100
AcDbLayerTableRecord
  2
0_Pen_No__1
 70
     0
 62
     7
  6
Continuous
370
    13
390
F
  0
LAYER
  5
184
330
2
100
AcDbSymbolTableRecord
100
AcDbLayerTableRecord
  2
Key_ Sections_Pen_No__1
 70
     0
 62
     7
  6
Continuous
370
    13
390
F
  0
ENDTAB
  0
TABLE
  2
STYLE
  5
3
330
0
100
AcDbSymbolTable
 70
     2
  0
STYLE
  5
11
330
3
100
AcDbSymbolTableRecord
100
AcDbTextStyleTableRecord
  2
Standard
 70
     0
 40
0.0
 41
1.0
 50
0.0
 71
     0
 42
0.2
  3
txt
  4

  0
STYLE
  5
116
330
3
100
AcDbSymbolTableRecord
100
AcDbTextStyleTableRecord
  2
GENERATED_STYLE_1
 70
     0
 40
0.0
 41
1.0
 50
0.0
 71
     0
 42
0.2
  3

  4

1001
ACAD
1000
Arial
1071
       34
  0
ENDTAB
  0
TABLE
  2
VIEW
  5
6
330
0
100
AcDbSymbolTable
 70
     0
  0
ENDTAB
  0
TABLE
  2
UCS
  5
7
330
0
100
AcDbSymbolTable
 70
     0
  0
ENDTAB
  0
TABLE
  2
APPID
  5
9
330
0
100
AcDbSymbolTable
 70
     1
  0
APPID
  5
12
330
9
100
AcDbSymbolTableRecord
100
AcDbRegAppTableRecord
  2
ACAD
 70
     0
  0
ENDTAB
  0
TABLE
  2
DIMSTYLE
  5
A
330
0
100
AcDbSymbolTable
 70
     6
100
AcDbDimStyleTable
  0
DIMSTYLE
105
27
330
A
100
AcDbSymbolTableRecord
100
AcDbDimStyleTableRecord
  2
Standard
 70
     0
178
     0
340
11
  0
DIMSTYLE
105
119
102
{ACAD_REACTORS
330
118
330
12A
330
136
330
142
102
}
330
A
100
AcDbSymbolTableRecord
100
AcDbDimStyleTableRecord
  2
GENERATED_STYLE__1
 70
     0
 41
38.00000000000001
 42
500.0
 77
     1
140
50.0
172
     1
176
     7
177
     7
271
     0
178
     7
271
     0
288
     1
340
116
342
11A
343
11A
344
11A
  0
DIMSTYLE
105
14F
102
{ACAD_REACTORS
330
14E
330
15B
330
167
102
}
330
A
100
AcDbSymbolTableRecord
100
AcDbDimStyleTableRecord
  2
GENERATED_STYLE__2
 70
     0
 41
38.00000000000001
 42
500.0
 73
     0
 74
     0
 77
     1
140
50.0
172
     1
176
     7
177
     7
271
     0
178
     7
271
     0
288
     1
340
116
342
11A
343
11A
344
11A
  0
DIMSTYLE
105
174
102
{ACAD_REACTORS
330
173
102
}
330
A
100
AcDbSymbolTableRecord
100
AcDbDimStyleTableRecord
  2
GENERATED_STYLE__3
 70
     0
 41
32.54010026106251
 42
100.0
 77
     1
140
50.0
172
     1
176
     7
177
     7
271
     0
178
     7
271
     0
279
     2
288
     1
340
116
342
11A
343
11A
344
11A
  0
DIMSTYLE
105
181
102
{ACAD_REACTORS
330
180
102
}
330
A
100
AcDbSymbolTableRecord
100
AcDbDimStyleTableRecord
  2
GENERATED_STYLE__4
 70
     0
 41
32.54010026106251
 42
100.0
 77
     1
140
50.0
172
     1
176
     7
177
     7
271
     0
178
     7
271
     0
288
     1
340
116
342
11A
343
11A
344
11A
  0
DIMSTYLE
105
187
330
A
100
AcDbSymbolTableRecord
100
AcDbDimStyleTableRecord
  2
GENERATED_STYLE__5
 70
     0
 41
36.48
172
     1
178
     0
340
0
341
188
  0
ENDTAB
  0
TABLE
  2
BLOCK_RECORD
  5
1
330
0
100
AcDbSymbolTable
 70
    13
  0
BLOCK_RECORD
  5
1F
330
1
100
AcDbSymbolTableRecord
100
AcDbBlockTableRecord
  2
*Model_Space
340
22
  0
BLOCK_RECORD
  5
1B
330
1
100
AcDbSymbolTableRecord
100
AcDbBlockTableRecord
  2
*Paper_Space
340
1E
  0
BLOCK_RECORD
  5
23
330
1
100
AcDbSymbolTableRecord
100
AcDbBlockTableRecord
  2
*Paper_Space0
340
26
  0
BLOCK_RECORD
  5
10C
330
1
100
AcDbSymbolTableRecord
100
AcDbBlockTableRecord
  2
*D1
340
0
  0
BLOCK_RECORD
  5
11A
330
1
100
AcDbSymbolTableRecord
100
AcDbBlockTableRecord
  2
ARROWHEAD_2
340
0
  0
BLOCK_RECORD
  5
11F
330
1
100
AcDbSymbolTableRecord
100
AcDbBlockTableRecord
  2
*D3
340
0
  0
BLOCK_RECORD
  5
12B
330
1
100
AcDbSymbolTableRecord
100
AcDbBlockTableRecord
  2
*D4
340
0
  0
BLOCK_RECORD
  5
137
330
1
100
AcDbSymbolTableRecord
100
AcDbBlockTableRecord
  2
*D5
340
0
  0
BLOCK_RECORD
  5
143
330
1
100
AcDbSymbolTableRecord
100
AcDbBlockTableRecord
  2
*D6
340
0
  0
BLOCK_RECORD
  5
150
330
1
100
AcDbSymbolTableRecord
100
AcDbBlockTableRecord
  2
*D7
340
0
  0
BLOCK_RECORD
  5
15C
330
1
100
AcDbSymbolTableRecord
100
AcDbBlockTableRecord
  2
*D8
340
0
  0
BLOCK_RECORD
  5
168
330
1
100
AcDbSymbolTableRecord
100
AcDbBlockTableRecord
  2
*D9
340
0
  0
BLOCK_RECORD
  5
175
330
1
100
AcDbSymbolTableRecord
100
AcDbBlockTableRecord
  2
*D10
340
0
  0
BLOCK_RECORD
  5
188
330
1
100
AcDbSymbolTableRecord
100
AcDbBlockTableRecord
  2
ARROWHEAD_5
340
0
  0
BLOCK_RECORD
  5
1AD
330
1
100
AcDbSymbolTableRecord
100
AcDbBlockTableRecord
  2
DC-39 Cavity Batten Layout at W_STORY_MARKER
340
0
  0
ENDTAB
  0
ENDSEC
  0
SECTION
  2
BLOCKS
  0
BLOCK
  5
20
330
1F
100
AcDbEntity
  8
0
100
AcDbBlockBegin
  2
*Model_Space
 70
     0
 10
0.0
 20
0.0
 30
0.0
  3
*Model_Space
  1

  0
ENDBLK
  5
21
330
1F
100
AcDbEntity
  8
0
100
AcDbBlockEnd
  0
BLOCK
  5
1C
330
1B
100
AcDbEntity
 67
     1
  8
0
100
AcDbBlockBegin
  2
*Paper_Space
 70
     0
 10
0.0
 20
0.0
 30
0.0
  3
*Paper_Space
  1

  0
ENDBLK
  5
1D
330
1B
100
AcDbEntity
 67
     1
  8
0
100
AcDbBlockEnd
  0
BLOCK
  5
24
330
23
100
AcDbEntity
  8
0
100
AcDbBlockBegin
  2
*Paper_Space0
 70
     0
 10
0.0
 20
0.0
 30
0.0
  3
*Paper_Space0
  1

  0
ENDBLK
  5
25
330
23
100
AcDbEntity
  8
0
100
AcDbBlockEnd
  0
BLOCK
  5
10D
330
10C
100
AcDbEntity
  8
0
100
AcDbBlockBegin
  2
*D1
 70
     1
 10
0.0
 20
0.0
 30
0.0
  3
*D1
  1

  0
LINE
  5
10F
330
10C
100
AcDbEntity
  8
0_Pen_No__1
  6
Continuous
100
AcDbLine
 10
-4.449999999999982
 20
2900.0
 30
0.0
 11
20.00000000000002
 21
2900.0
 31
0.0
  0
LINE
  5
110
330
10C
100
AcDbEntity
  8
0_Pen_No__1
  6
Continuous
100
AcDbLine
 10
20.00000000000002
 20
2900.0
 30
0.0
 11
620.0000000000001
 21
2900.0
 31
0.0
  0
LINE
  5
111
330
10C
100
AcDbEntity
  8
0_Pen_No__1
  6
Continuous
100
AcDbLine
 10
34.43375000000002
 20
2925.0
 30
0.0
 11
5.566250000000015
 21
2875.0
 31
0.0
  0
LINE
  5
112
330
10C
100
AcDbEntity
  8
0_Pen_No__1
  6
Continuous
100
AcDbLine
 10
605.5662500000001
 20
2875.0
 30
0.0
 11
634.4337500000001
 21
2925.0
 31
0.0
  0
LINE
  5
113
330
10C
100
AcDbEntity
  8
0_Pen_No__1
  6
Continuous
100
AcDbLine
 10
620.0000000000001
 20
2900.0
 30
0.0
 11
644.45
 21
2900.0
 31
0.0
  0
LINE
  5
114
330
10C
100
AcDbEntity
  8
0_Pen_No__1
  6
Continuous
100
AcDbLine
 10
20.00000000000002
 20
2862.5
 30
0.0
 11
20.00000000000002
 21
2937.5
 31
0.0
  0
LINE
  5
115
330
10C
100
AcDbEntity
  8
0_Pen_No__1
  6
Continuous
100
AcDbLine
 10
620.0000000000001
 20
2862.5
 30
0.0
 11
620.0000000000001
 21
2937.5
 31
0.0
  0
MTEXT
  5
117
330
10C
100
AcDbEntity
  8
0_Pen_No__1
100
AcDbMText
 10
263.0854991078377
 20
2910.000000149011
 30
0.0
 40
50.0
 41
0.0
 71
     7
 72
     1
  1
{600}
  7
GENERATED_STYLE_1
 73
     1
 44
1.0
  0
ENDBLK
  5
10E
330
10C
100
AcDbEntity
  8
0
100
AcDbBlockEnd
  0
BLOCK
  5
11B
330
11A
100
AcDbEntity
  8
0
100
AcDbBlockBegin
  2
ARROWHEAD_2
 70
     0
 10
0.0
 20
0.0
 30
0.0
  3
ARROWHEAD_2
  1

  0
LINE
  5
11D
330
11A
100
AcDbEntity
  8
0
  6
Continuous
 62
     0
370
     0
100
AcDbLine
 10
-0.3781315
 20
-0.655
 30
0.0
 11
0.3781315
 21
0.655
 31
0.0
  0
LINE
  5
11E
330
11A
100
AcDbEntity
  8
0
  6
Continuous
 62
     0
370
     0
100
AcDbLine
 10
0.0
 20
0.0
 30
0.0
 11
-1.0
 21
0.0
 31
0.0
  0
ENDBLK
  5
11C
330
11A
100
AcDbEntity
  8
0
100
AcDbBlockEnd
  0
BLOCK
  5
120
330
11F
100
AcDbEntity
  8
0
100
AcDbBlockBegin
  2
*D3
 70
     1
 10
0.0
 20
0.0
 30
0.0
  3
*D3
  1

  0
LINE
  5
122
330
11F
100
AcDbEntity
  8
0_Pen_No__1
  6
Continuous
100
AcDbLine
 10
595.5500000000002
 20
2900.0
 30
0.0
 11
620.0000000000001
 21
2900.0
 31
0.0
  0
LINE
  5
123
330
11F
100
AcDbEntity
  8
0_Pen_No__1
  6
Continuous
100
AcDbLine
 10
620.0000000000001
 20
2900.0
 30
0.0
 11
1220.0
 21
2900.0
 31
0.0
  0
LINE
  5
124
330
11F
100
AcDbEntity
  8
0_Pen_No__1
  6
Continuous
100
AcDbLine
 10
634.4337500000001
 20
2925.0
 30
0.0
 11
605.5662500000001
 21
2875.0
 31
0.0
  0
LINE
  5
125
330
11F
100
AcDbEntity
  8
0_Pen_No__1
  6
Continuous
100
AcDbLine
 10
1205.56625
 20
2875.0
 30
0.0
 11
1234.43375
 21
2925.0
 31
0.0
  0
LINE
  5
126
330
11F
100
AcDbEntity
  8
0_Pen_No__1
  6
Continuous
100
AcDbLine
 10
1220.0
 20
2900.0
 30
0.0
 11
1244.45
 21
2900.0
 31
0.0
  0
LINE
  5
127
330
11F
100
AcDbEntity
  8
0_Pen_No__1
  6
Continuous
100
AcDbLine
 10
620.0000000000001
 20
2862.5
 30
0.0
 11
620.0000000000001
 21
2937.5
 31
0.0
  0
LINE
  5
128
330
11F
100
AcDbEntity
  8
0_Pen_No__1
  6
Continuous
100
AcDbLine
 10
1220.0
 20
2862.5
 30
0.0
 11
1220.0
 21
2937.5
 31
0.0
  0
MTEXT
  5
129
330
11F
100
AcDbEntity
  8
0_Pen_No__1
100
AcDbMText
 10
863.0854991078378
 20
2910.000000149011
 30
0.0
 40
50.0
 41
0.0
 71
     7
 72
     1
  1
{600}
  7
GENERATED_STYLE_1
 73
     1
 44
1.0
  0
ENDBLK
  5
121
330
11F
100
AcDbEntity
  8
0
100
AcDbBlockEnd
  0
BLOCK
  5
12C
330
12B
100
AcDbEntity
  8
0
100
AcDbBlockBegin
  2
*D4
 70
     1
 10
0.0
 20
0.0
 30
0.0
  3
*D4
  1

  0
LINE
  5
12E
330
12B
100
AcDbEntity
  8
0_Pen_No__1
  6
Continuous
100
AcDbLine
 10
1195.55
 20
2900.0
 30
0.0
 11
1220.0
 21
2900.0
 31
0.0
  0
LINE
  5
12F
330
12B
100
AcDbEntity
  8
0_Pen_No__1
  6
Continuous
100
AcDbLine
 10
1220.0
 20
2900.0
 30
0.0
 11
1820.0
 21
2900.0
 31
0.0
  0
LINE
  5
130
330
12B
100
AcDbEntity
  8
0_Pen_No__1
  6
Continuous
100
AcDbLine
 10
1234.43375
 20
2925.0
 30
0.0
 11
1205.56625
 21
2875.0
 31
0.0
  0
LINE
  5
131
330
12B
100
AcDbEntity
  8
0_Pen_No__1
  6
Continuous
100
AcDbLine
 10
1805.56625
 20
2875.0
 30
0.0
 11
1834.43375
 21
2925.0
 31
0.0
  0
LINE
  5
132
330
12B
100
AcDbEntity
  8
0_Pen_No__1
  6
Continuous
100
AcDbLine
 10
1820.0
 20
2900.0
 30
0.0
 11
1844.45
 21
2900.0
 31
0.0
  0
LINE
  5
133
330
12B
100
AcDbEntity
  8
0_Pen_No__1
  6
Continuous
100
AcDbLine
 10
1220.0
 20
2862.5
 30
0.0
 11
1220.0
 21
2937.5
 31
0.0
  0
LINE
  5
134
330
12B
100
AcDbEntity
  8
0_Pen_No__1
  6
Continuous
100
AcDbLine
 10
1820.0
 20
2862.5
 30
0.0
 11
1820.0
 21
2937.5
 31
0.0
  0
MTEXT
  5
135
330
12B
100
AcDbEntity
  8
0_Pen_No__1
100
AcDbMText
 10
1463.085499107838
 20
2910.000000149011
 30
0.0
 40
50.0
 41
0.0
 71
     7
 72
     1
  1
{600}
  7
GENERATED_STYLE_1
 73
     1
 44
1.0
  0
ENDBLK
  5
12D
330
12B
100
AcDbEntity
  8
0
100
AcDbBlockEnd
  0
BLOCK
  5
138
330
137
100
AcDbEntity
  8
0
100
AcDbBlockBegin
  2
*D5
 70
     1
 10
0.0
 20
0.0
 30
0.0
  3
*D5
  1

  0
LINE
  5
13A
330
137
100
AcDbEntity
  8
0_Pen_No__1
  6
Continuous
100
AcDbLine
 10
1795.55
 20
2900.0
 30
0.0
 11
1820.0
 21
2900.0
 31
0.0
  0
LINE
  5
13B
330
137
100
AcDbEntity
  8
0_Pen_No__1
  6
Continuous
100
AcDbLine
 10
1820.0
 20
2900.0
 30
0.0
 11
2420.0
 21
2900.0
 31
0.0
  0
LINE
  5
13C
330
137
100
AcDbEntity
  8
0_Pen_No__1
  6
Continuous
100
AcDbLine
 10
1834.43375
 20
2925.0
 30
0.0
 11
1805.56625
 21
2875.0
 31
0.0
  0
LINE
  5
13D
330
137
100
AcDbEntity
  8
0_Pen_No__1
  6
Continuous
100
AcDbLine
 10
2405.566250000001
 20
2875.0
 30
0.0
 11
2434.43375
 21
2925.0
 31
0.0
  0
LINE
  5
13E
330
137
100
AcDbEntity
  8
0_Pen_No__1
  6
Continuous
100
AcDbLine
 10
2420.0
 20
2900.0
 30
0.0
 11
2444.45
 21
2900.0
 31
0.0
  0
LINE
  5
13F
330
137
100
AcDbEntity
  8
0_Pen_No__1
  6
Continuous
100
AcDbLine
 10
1820.0
 20
2862.5
 30
0.0
 11
1820.0
 21
2937.5
 31
0.0
  0
LINE
  5
140
330
137
100
AcDbEntity
  8
0_Pen_No__1
  6
Continuous
100
AcDbLine
 10
2420.0
 20
2862.5
 30
0.0
 11
2420.0
 21
2937.5
 31
0.0
  0
MTEXT
  5
141
330
137
100
AcDbEntity
  8
0_Pen_No__1
100
AcDbMText
 10
2063.085499107838
 20
2910.000000149011
 30
0.0
 40
50.0
 41
0.0
 71
     7
 72
     1
  1
{600}
  7
GENERATED_STYLE_1
 73
     1
 44
1.0
  0
ENDBLK
  5
139
330
137
100
AcDbEntity
  8
0
100
AcDbBlockEnd
  0
BLOCK
  5
144
330
143
100
AcDbEntity
  8
0
100
AcDbBlockBegin
  2
*D6
 70
     1
 10
0.0
 20
0.0
 30
0.0
  3
*D6
  1

  0
LINE
  5
146
330
143
100
AcDbEntity
  8
0_Pen_No__1
  6
Continuous
100
AcDbLine
 10
-208.3545138761315
 20
-24.45000000000022
 30
0.0
 11
-208.3545138761315
 21
-0.000000000000222
 31
0.0
  0
LINE
  5
147
330
143
100
AcDbEntity
  8
0_Pen_No__1
  6
Continuous
100
AcDbLine
 10
-208.3545138761315
 20
-0.000000000000222
 30
0.0
 11
-208.3545138761314
 21
799.9999999999995
 31
0.0
  0
LINE
  5
148
330
143
100
AcDbEntity
  8
0_Pen_No__1
  6
Continuous
100
AcDbLine
 10
-233.3545138761314
 20
14.43374999999978
 30
0.0
 11
-183.3545138761315
 21
-14.43375000000023
 31
0.0
  0
LINE
  5
149
330
143
100
AcDbEntity
  8
0_Pen_No__1
  6
Continuous
100
AcDbLine
 10
-183.3545138761314
 20
785.5662499999996
 30
0.0
 11
-233.3545138761314
 21
814.4337499999996
 31
0.0
  0
LINE
  5
14A
330
143
100
AcDbEntity
  8
0_Pen_No__1
  6
Continuous
100
AcDbLine
 10
-208.3545138761314
 20
799.9999999999995
 30
0.0
 11
-208.3545138761314
 21
824.4499999999996
 31
0.0
  0
LINE
  5
14B
330
143
100
AcDbEntity
  8
0_Pen_No__1
  6
Continuous
100
AcDbLine
 10
-170.8545138761314
 20
-0.0000000000002243
 30
0.0
 11
-245.8545138761315
 21
-0.0000000000002197
 31
0.0
  0
LINE
  5
14C
330
143
100
AcDbEntity
  8
0_Pen_No__1
  6
Continuous
100
AcDbLine
 10
-170.8545138761314
 20
799.9999999999995
 30
0.0
 11
-245.8545138761314
 21
799.9999999999995
 31
0.0
  0
MTEXT
  5
14D
330
143
100
AcDbEntity
  8
0_Pen_No__1
100
AcDbMText
 10
-218.3545140251431
 20
343.0854991078374
 30
0.0
 40
50.0
 41
0.0
 71
     7
 72
     1
  1
{800}
  7
GENERATED_STYLE_1
 11
6.123233995736766E-17
 21
1.0
 31
0.0
 73
     1
 44
1.0
  0
ENDBLK
  5
145
330
143
100
AcDbEntity
  8
0
100
AcDbBlockEnd
  0
BLOCK
  5
151
330
150
100
AcDbEntity
  8
0
100
AcDbBlockBegin
  2
*D7
 70
     1
 10
0.0
 20
0.0
 30
0.0
  3
*D7
  1

  0
LINE
  5
153
330
150
100
AcDbEntity
  8
0_Pen_No__1
  6
Continuous
100
AcDbLine
 10
-208.3545138761315
 20
775.5499999999996
 30
0.0
 11
-208.3545138761315
 21
799.9999999999995
 31
0.0
  0
LINE
  5
154
330
150
100
AcDbEntity
  8
0_Pen_No__1
  6
Continuous
100
AcDbLine
 10
-208.3545138761315
 20
799.9999999999995
 30
0.0
 11
-208.3545138761314
 21
1600.0
 31
0.0
  0
LINE
  5
155
330
150
100
AcDbEntity
  8
0_Pen_No__1
  6
Continuous
100
AcDbLine
 10
-233.3545138761314
 20
814.4337499999996
 30
0.0
 11
-183.3545138761315
 21
785.5662499999996
 31
0.0
  0
LINE
  5
156
330
150
100
AcDbEntity
  8
0_Pen_No__1
  6
Continuous
100
AcDbLine
 10
-183.3545138761314
 20
1585.56625
 30
0.0
 11
-233.3545138761314
 21
1614.43375
 31
0.0
  0
LINE
  5
157
330
150
100
AcDbEntity
  8
0_Pen_No__1
  6
Continuous
100
AcDbLine
 10
-208.3545138761314
 20
1600.0
 30
0.0
 11
-208.3545138761314
 21
1624.45
 31
0.0
  0
LINE
  5
158
330
150
100
AcDbEntity
  8
0_Pen_No__1
  6
Continuous
100
AcDbLine
 10
-170.8545138761314
 20
799.9999999999995
 30
0.0
 11
-245.8545138761315
 21
799.9999999999995
 31
0.0
  0
LINE
  5
159
330
150
100
AcDbEntity
  8
0_Pen_No__1
  6
Continuous
100
AcDbLine
 10
-170.8545138761314
 20
1600.0
 30
0.0
 11
-245.8545138761314
 21
1600.0
 31
0.0
  0
MTEXT
  5
15A
330
150
100
AcDbEntity
  8
0_Pen_No__1
100
AcDbMText
 10
-218.3545140251431
 20
1143.085499107837
 30
0.0
 40
50.0
 41
0.0
 71
     7
 72
     1
  1
{800}
  7
GENERATED_STYLE_1
 11
6.123233995736766E-17
 21
1.0
 31
0.0
 73
     1
 44
1.0
  0
ENDBLK
  5
152
330
150
100
AcDbEntity
  8
0
100
AcDbBlockEnd
  0
BLOCK
  5
15D
330
15C
100
AcDbEntity
  8
0
100
AcDbBlockBegin
  2
*D8
 70
     1
 10
0.0
 20
0.0
 30
0.0
  3
*D8
  1

  0
LINE
  5
15F
330
15C
100
AcDbEntity
  8
0_Pen_No__1
  6
Continuous
100
AcDbLine
 10
-208.3545138761315
 20
1575.55
 30
0.0
 11
-208.3545138761315
 21
1600.0
 31
0.0
  0
LINE
  5
160
330
15C
100
AcDbEntity
  8
0_Pen_No__1
  6
Continuous
100
AcDbLine
 10
-208.3545138761315
 20
1600.0
 30
0.0
 11
-208.3545138761314
 21
2400.0
 31
0.0
  0
LINE
  5
161
330
15C
100
AcDbEntity
  8
0_Pen_No__1
  6
Continuous
100
AcDbLine
 10
-233.3545138761314
 20
1614.43375
 30
0.0
 11
-183.3545138761315
 21
1585.56625
 31
0.0
  0
LINE
  5
162
330
15C
100
AcDbEntity
  8
0_Pen_No__1
  6
Continuous
100
AcDbLine
 10
-183.3545138761314
 20
2385.56625
 30
0.0
 11
-233.3545138761314
 21
2414.433749999999
 31
0.0
  0
LINE
  5
163
330
15C
100
AcDbEntity
  8
0_Pen_No__1
  6
Continuous
100
AcDbLine
 10
-208.3545138761314
 20
2400.0
 30
0.0
 11
-208.3545138761314
 21
2424.449999999999
 31
0.0
  0
LINE
  5
164
330
15C
100
AcDbEntity
  8
0_Pen_No__1
  6
Continuous
100
AcDbLine
 10
-170.8545138761314
 20
1600.0
 30
0.0
 11
-245.8545138761315
 21
1600.0
 31
0.0
  0
LINE
  5
165
330
15C
100
AcDbEntity
  8
0_Pen_No__1
  6
Continuous
100
AcDbLine
 10
-170.8545138761314
 20
2400.0
 30
0.0
 11
-245.8545138761314
 21
2400.0
 31
0.0
  0
MTEXT
  5
166
330
15C
100
AcDbEntity
  8
0_Pen_No__1
100
AcDbMText
 10
-218.3545140251431
 20
1943.085499107837
 30
0.0
 40
50.0
 41
0.0
 71
     7
 72
     1
  1
{800}
  7
GENERATED_STYLE_1
 11
6.123233995736766E-17
 21
1.0
 31
0.0
 73
     1
 44
1.0
  0
ENDBLK
  5
15E
330
15C
100
AcDbEntity
  8
0
100
AcDbBlockEnd
  0
BLOCK
  5
169
330
168
100
AcDbEntity
  8
0
100
AcDbBlockBegin
  2
*D9
 70
     1
 10
0.0
 20
0.0
 30
0.0
  3
*D9
  1

  0
LINE
  5
16B
330
168
100
AcDbEntity
  8
0_Pen_No__1
  6
Continuous
100
AcDbLine
 10
1739.06301443729
 20
1911.641138042544
 30
0.0
 11
1760.0
 21
1911.641138042544
 31
0.0
  0
LINE
  5
16C
330
168
100
AcDbEntity
  8
0_Pen_No__1
  6
Continuous
100
AcDbLine
 10
1760.0
 20
1911.641138042544
 30
0.0
 11
1859.772461439829
 21
1911.641138042544
 31
0.0
  0
LINE
  5
16D
330
168
100
AcDbEntity
  8
0_Pen_No__1
  6
Continuous
100
AcDbLine
 10
1772.35988610903
 20
1933.049098740611
 30
0.0
 11
1747.640113890971
 21
1890.233177344476
 31
0.0
  0
LINE
  5
16E
330
168
100
AcDbEntity
  8
0_Pen_No__1
  6
Continuous
100
AcDbLine
 10
1847.412575330799
 20
1890.233177344476
 30
0.0
 11
1872.132347548858
 21
1933.049098740611
 31
0.0
  0
LINE
  5
16F
330
168
100
AcDbEntity
  8
0_Pen_No__1
  6
Continuous
100
AcDbLine
 10
1859.772461439829
 20
1911.641138042544
 30
0.0
 11
1880.709447002539
 21
1911.641138042544
 31
0.0
  0
LINE
  5
170
330
168
100
AcDbEntity
  8
0_Pen_No__1
  6
Continuous
100
AcDbLine
 10
1760.0
 20
1879.529196995443
 30
0.0
 11
1760.0
 21
1943.753079089645
 31
0.0
  0
LINE
  5
171
330
168
100
AcDbEntity
  8
0_Pen_No__1
  6
Continuous
100
AcDbLine
 10
1859.772461439829
 20
1879.529196995443
 30
0.0
 11
1859.772461439829
 21
1943.753079089645
 31
0.0
  0
MTEXT
  5
172
330
168
100
AcDbEntity
  8
0_Pen_No__1
100
AcDbMText
 10
1895.89413326505
 20
1921.641137670015
 30
0.0
 40
50.0
 41
0.0
 71
     7
 72
     1
  1
{100}
  7
GENERATED_STYLE_1
 73
     1
 44
1.0
  0
ENDBLK
  5
16A
330
168
100
AcDbEntity
  8
0
100
AcDbBlockEnd
  0
BLOCK
  5
176
330
175
100
AcDbEntity
  8
0
100
AcDbBlockBegin
  2
*D10
 70
     1
 10
0.0
 20
0.0
 30
0.0
  3
*D10
  1

  0
LINE
  5
178
330
175
100
AcDbEntity
  8
0_Pen_No__1
  6
Continuous
100
AcDbLine
 10
558.8354758771186
 20
1906.094124834836
 30
0.0
 11
579.7724614398285
 21
1906.094124834836
 31
0.0
  0
LINE
  5
179
330
175
100
AcDbEntity
  8
0_Pen_No__1
  6
Continuous
100
AcDbLine
 10
579.7724614398285
 20
1906.094124834836
 30
0.0
 11
680.0000000000001
 21
1906.094124834836
 31
0.0
  0
LINE
  5
17A
330
175
100
AcDbEntity
  8
0_Pen_No__1
  6
Continuous
100
AcDbLine
 10
592.1323475488578
 20
1927.502085532903
 30
0.0
 11
567.4125753307992
 21
1884.686164136768
 31
0.0
  0
LINE
  5
17B
330
175
100
AcDbEntity
  8
0_Pen_No__1
  6
Continuous
100
AcDbLine
 10
667.6401138909708
 20
1884.686164136768
 30
0.0
 11
692.3598861090294
 21
1927.502085532903
 31
0.0
  0
LINE
  5
17C
330
175
100
AcDbEntity
  8
0_Pen_No__1
  6
Continuous
100
AcDbLine
 10
680.0000000000001
 20
1906.094124834836
 30
0.0
 11
700.9369855627101
 21
1906.094124834836
 31
0.0
  0
LINE
  5
17D
330
175
100
AcDbEntity
  8
0_Pen_No__1
  6
Continuous
100
AcDbLine
 10
579.7724614398285
 20
1873.982183787735
 30
0.0
 11
579.7724614398285
 21
1938.206065881937
 31
0.0
  0
LINE
  5
17E
330
175
100
AcDbEntity
  8
0_Pen_No__1
  6
Continuous
100
AcDbLine
 10
680.0000000000001
 20
1873.982183787735
 30
0.0
 11
680.0000000000001
 21
1938.206065881937
 31
0.0
  0
MTEXT
  5
17F
330
175
100
AcDbEntity
  8
0_Pen_No__1
100
AcDbMText
 10
453.5696580739976
 20
1916.094124983847
 30
0.0
 40
50.0
 41
0.0
 71
     7
 72
     1
  1
{100}
  7
GENERATED_STYLE_1
 73
     1
 44
1.0
  0
ENDBLK
  5
177
330
175
100
AcDbEntity
  8
0
100
AcDbBlockEnd
  0
BLOCK
  5
189
330
188
100
AcDbEntity
  8
0
100
AcDbBlockBegin
  2
ARROWHEAD_5
 70
     0
 10
0.0
 20
0.0
 30
0.0
  3
ARROWHEAD_5
  1

  0
SOLID
  5
18B
330
188
100
AcDbEntity
  8
0
  6
Continuous
 62
     0
370
     0
100
AcDbTrace
 10
-1.0
 20
0.2679
 30
0.0
 11
0.0
 21
0.0
 31
0.0
 12
-1.0
 22
-0.2679
 32
0.0
 13
-1.0
 23
0.2679
 33
0.0
  0
LINE
  5
18C
330
188
100
AcDbEntity
  8
0
  6
Continuous
 62
     0
370
     0
100
AcDbLine
 10
0.0
 20
0.0
 30
0.0
 11
-1.0
 21
0.0
 31
0.0
  0
ENDBLK
  5
18A
330
188
100
AcDbEntity
  8
0
100
AcDbBlockEnd
  0
BLOCK
  5
1AE
330
1AD
100
AcDbEntity
  8
0
100
AcDbBlockBegin
  2
DC-39 Cavity Batten Layout at W_STORY_MARKER
 70
     0
 10
0.0
 20
0.0
 30
0.0
  3
DC-39 Cavity Batten Layout at W_STORY_MARKER
  1

  0
ENDBLK
  5
1AF
330
1AD
100
AcDbEntity
  8
0
100
AcDbBlockEnd
  0
ENDSEC
  0
SECTION
  2
ENTITIES
  0
HATCH
  5
3F
330
1F
100
AcDbEntity
  8
0_Pen_No__146
  6
Continuous
 62
   250
420
  3289650
370
     0
100
AcDbHatch
 10
0.0
 20
0.0
 30
0.0
210
0.0
220
0.0
230
1.0
  2
SOLID
 70
     1
 71
     0
 91
        1
 92
        3
 72
     0
 73
     1
 93
        4
 10
1471.960503243384
 20
1015.869210518816
 10
1473.39124281281
 20
975.8948064046272
 10
1573.327253098282
 20
979.4716553281914
 10
1571.896513528856
 20
1019.44605944238
 97
        0
 75
     0
 76
     1
 98
        0
  0
HATCH
  5
41
330
1F
100
AcDbEntity
  8
0_Pen_No__146
  6
Continuous
 62
   250
420
  3289650
370
     0
100
AcDbHatch
 10
0.0
 20
0.0
 30
0.0
210
0.0
220
0.0
230
1.0
  2
SOLID
 70
     1
 71
     0
 91
        1
 92
        3
 72
     0
 73
     1
 93
        4
 10
911.9605032433844
 20
1015.869210518816
 10
913.3912428128106
 20
975.8948064046274
 10
1013.327253098282
 20
979.4716553281917
 10
1011.896513528856
 20
1019.446059442381
 97
        0
 75
     0
 76
     1
 98
        0
  0
HATCH
  5
42
330
1F
100
AcDbEntity
  8
0_Pen_No__146
  6
Continuous
 62
   250
420
  3289650
370
     0
100
AcDbHatch
 10
0.0
 20
0.0
 30
0.0
210
0.0
220
0.0
230
1.0
  2
SOLID
 70
     1
 71
     0
 91
        1
 92
        3
 72
     0
 73
     1
 93
        4
 10
269.8044562970927
 20
43.35587575590605
 10
271.2351958665184
 20
3.381471641717315
 10
371.1712061519901
 20
6.958320565281451
 10
369.7404665825643
 20
46.93272467947062
 97
        0
 75
     0
 76
     1
 98
        0
  0
HATCH
  5
43
330
1F
100
AcDbEntity
  8
0_Pen_No__146
  6
Continuous
 62
   250
420
  3289650
370
     0
100
AcDbHatch
 10
0.0
 20
0.0
 30
0.0
210
0.0
220
0.0
230
1.0
  2
SOLID
 70
     1
 71
     0
 91
        1
 92
        3
 72
     0
 73
     1
 93
        4
 10
875.8809063945976
 20
43.35587575590605
 10
877.3116459640238
 20
3.381471641717315
 10
977.2476562494954
 20
6.958320565281451
 10
975.816916680069
 20
46.93272467947062
 97
        0
 75
     0
 76
     1
 98
        0
  0
HATCH
  5
44
330
1F
100
AcDbEntity
  8
0_Pen_No__146
  6
Continuous
 62
   250
420
  3289650
370
     0
100
AcDbHatch
 10
0.0
 20
0.0
 30
0.0
210
0.0
220
0.0
230
1.0
  2
SOLID
 70
     1
 71
     0
 91
        1
 92
        3
 72
     0
 73
     1
 93
        4
 10
1471.960503243384
 20
43.35587575590605
 10
1473.39124281281
 20
3.381471641717315
 10
1573.327253098282
 20
6.958320565281451
 10
1571.896513528855
 20
46.93272467947062
 97
        0
 75
     0
 76
     1
 98
        0
  0
HATCH
  5
45
330
1F
100
AcDbEntity
  8
0_Pen_No__146
  6
Continuous
 62
   250
420
  3289650
370
     0
100
AcDbHatch
 10
0.0
 20
0.0
 30
0.0
210
0.0
220
0.0
230
1.0
  2
SOLID
 70
     1
 71
     0
 91
        1
 92
        3
 72
     0
 73
     1
 93
        4
 10
2070.031994857264
 20
43.35587575590605
 10
2071.462734426691
 20
3.381471641717315
 10
2171.398744712162
 20
6.958320565281451
 10
2169.968005142736
 20
46.93272467947062
 97
        0
 75
     0
 76
     1
 98
        0
  0
HATCH
  5
46
330
1F
100
AcDbEntity
  8
0_Pen_No__146
  6
Continuous
 62
   250
420
  3289650
370
     0
100
AcDbHatch
 10
0.0
 20
0.0
 30
0.0
210
0.0
220
0.0
230
1.0
  2
SOLID
 70
     1
 71
     0
 91
        1
 92
        3
 72
     0
 73
     1
 93
        4
 10
1498.276810670696
 20
2018.633250145102
 10
1538.251214784884
 20
2020.063989714529
 10
1534.67436586132
 20
2120.0
 10
1494.699961747131
 20
2118.569260430574
 97
        0
 75
     0
 76
     1
 98
        0
  0
HATCH
  5
47
330
1F
100
AcDbEntity
  8
0_Pen_No__146
  6
Continuous
 62
   250
420
  3289650
370
     0
100
AcDbHatch
 10
0.0
 20
0.0
 30
0.0
210
0.0
220
0.0
230
1.0
  2
SOLID
 70
     1
 71
     0
 91
        1
 92
        3
 72
     0
 73
     1
 93
        4
 10
962.9724631086183
 20
2020.432767288716
 10
964.2626228045947
 20
2120.424444382155
 10
924.2659519672185
 20
2120.940508260547
 10
922.9757922712425
 20
2020.948831167106
 97
        0
 75
     0
 76
     1
 98
        0
  0
HATCH
  5
48
330
1F
100
AcDbEntity
  8
0_Pen_No__146
  6
Continuous
 62
   250
420
  3289650
370
     0
100
AcDbHatch
 10
0.0
 20
0.0
 30
0.0
210
0.0
220
0.0
230
1.0
  2
SOLID
 70
     1
 71
     0
 91
        1
 92
        3
 72
     0
 73
     1
 93
        4
 10
2440.0
 20
2360.0
 10
2440.0
 20
2400.0
 10
0.0
 20
2400.0
 10
0.0
 20
2360.0
 97
        0
 75
     0
 76
     1
 98
        0
  0
HATCH
  5
49
330
1F
100
AcDbEntity
  8
0_Pen_No__146
  6
Continuous
 62
   250
420
  3289650
370
     0
100
AcDbHatch
 10
0.0
 20
0.0
 30
0.0
210
0.0
220
0.0
230
1.0
  2
SOLID
 70
     1
 71
     0
 91
        1
 92
        3
 72
     0
 73
     1
 93
        4
 10
1200.0
 20
0.0
 10
1240.0
 20
0.0
 10
1240.0
 20
1019.44605944238
 10
1200.0
 20
1019.44605944238
 97
        0
 75
     0
 76
     1
 98
        0
  0
HATCH
  5
4A
330
1F
100
AcDbEntity
  8
0_Pen_No__146
  6
Continuous
 62
   250
420
  3289650
370
     0
100
AcDbHatch
 10
0.0
 20
0.0
 30
0.0
210
0.0
220
0.0
230
1.0
  2
SOLID
 70
     1
 71
     0
 91
        1
 92
        3
 72
     0
 73
     1
 93
        4
 10
1240.0
 20
2026.752341190027
 10
1240.0
 20
2360.0
 10
1200.0
 20
2360.0
 10
1200.0
 20
2026.752341190027
 97
        0
 75
     0
 76
     1
 98
        0
  0
HATCH
  5
4B
330
1F
100
AcDbEntity
  8
0_Pen_No__146
  6
Continuous
 62
   250
420
  3289650
370
     0
100
AcDbHatch
 10
0.0
 20
0.0
 30
0.0
210
0.0
220
0.0
230
1.0
  2
SOLID
 70
     1
 71
     0
 91
        1
 92
        3
 72
     0
 73
     1
 93
        4
 10
0.0
 20
0.0
 10
40.00000000000004
 20
0.0
 10
40.00000000000004
 20
2360.0
 10
0.0
 20
2360.0
 97
        0
 75
     0
 76
     1
 98
        0
  0
HATCH
  5
4C
330
1F
100
AcDbEntity
  8
0_Pen_No__146
  6
Continuous
 62
   250
420
  3289650
370
     0
100
AcDbHatch
 10
0.0
 20
0.0
 30
0.0
210
0.0
220
0.0
230
1.0
  2
SOLID
 70
     1
 71
     0
 91
        1
 92
        3
 72
     0
 73
     1
 93
        4
 10
2400.0
 20
-0.000000000000222
 10
2440.0
 20
-0.000000000000222
 10
2440.0
 20
2360.0
 10
2400.0
 20
2360.0
 97
        0
 75
     0
 76
     1
 98
        0
  0
HATCH
  5
4D
330
1F
100
AcDbEntity
  8
0_Pen_No__146
  6
Continuous
 62
   250
420
  3289650
370
     0
100
AcDbHatch
 10
0.0
 20
0.0
 30
0.0
210
0.0
220
0.0
230
1.0
  2
SOLID
 70
     1
 71
     0
 91
        1
 92
        3
 72
     0
 73
     1
 93
        4
 10
1760.0
 20
-0.0000000000002122
 10
1800.0
 20
-0.0000000000002122
 10
1800.0
 20
1979.790992240276
 10
1760.0
 20
1979.790992240276
 97
        0
 75
     0
 76
     1
 98
        0
  0
HATCH
  5
4E
330
1F
100
AcDbEntity
  8
0_Pen_No__146
  6
Continuous
 62
   250
420
  3289650
370
     0
100
AcDbHatch
 10
0.0
 20
0.0
 30
0.0
210
0.0
220
0.0
230
1.0
  2
SOLID
 70
     1
 71
     0
 91
        1
 92
        3
 72
     0
 73
     1
 93
        4
 10
640.0000000000001
 20
0.0000000000000049
 10
680.0000000000001
 20
0.0
 10
680.0000000000001
 20
1980.879833972145
 10
640.0000000000001
 20
1980.879833972145
 97
        0
 75
     0
 76
     1
 98
        0
  0
HATCH
  5
4F
330
1F
100
AcDbEntity
  8
0_Pen_No__146
  6
Continuous
 62
   250
420
  3289650
370
     0
100
AcDbHatch
 10
0.0
 20
0.0
 30
0.0
210
0.0
220
0.0
230
1.0
  2
SOLID
 70
     1
 71
     1
 91
        1
 92
        3
 72
     0
 73
     1
 93
        4
 10
780.0000000000001
 20
1010.074469739988
 10
780.0000000000001
 20
1030.074469739988
 10
1659.544922879657
 20
1030.074469739989
 10
1659.544922879657
 20
1010.074469739988
 97
        1
330
50
 75
     0
 76
     1
 98
        0
  0
LWPOLYLINE
  5
50
102
{ACAD_REACTORS
330
4F
102
}
330
1F
100
AcDbEntity
  8
0_Pen_No__146
  6
Continuous
100
AcDbPolyline
 90
        4
 70
   129
 43
0.0
 10
780.0000000000001
 20
1010.074469739988
 10
780.0000000000001
 20
1030.074469739988
 10
1659.544922879657
 20
1030.074469739989
 10
1659.544922879657
 20
1010.074469739988
  0
HATCH
  5
51
330
1F
100
AcDbEntity
  8
0_Pen_No__146
  6
Continuous
 62
   250
420
  3289650
370
     0
100
AcDbHatch
 10
0.0
 20
0.0
 30
0.0
210
0.0
220
0.0
230
1.0
  2
SOLID
 70
     1
 71
     1
 91
        1
 92
        3
 72
     0
 73
     1
 93
        4
 10
680.0000000000001
 20
2026.752341190027
 10
680.0000000000001
 20
2360.0
 10
640.0000000000001
 20
2360.0
 10
640.0000000000001
 20
2026.752341190027
 97
        1
330
53
 75
     0
 76
     1
 98
        0
  0
LWPOLYLINE
  5
53
102
{ACAD_REACTORS
330
51
102
}
330
1F
100
AcDbEntity
  8
0_Pen_No__1
  6
Continuous
100
AcDbPolyline
 90
        4
 70
   129
 43
0.0
 10
680.0000000000001
 20
2026.752341190027
 10
680.0000000000001
 20
2360.0
 10
640.0000000000001
 20
2360.0
 10
640.0000000000001
 20
2026.752341190027
  0
HATCH
  5
54
330
1F
100
AcDbEntity
  8
0_Pen_No__146
  6
Continuous
 62
   250
420
  3289650
370
     0
100
AcDbHatch
 10
0.0
 20
0.0
 30
0.0
210
0.0
220
0.0
230
1.0
  2
SOLID
 70
     1
 71
     1
 91
        1
 92
        3
 72
     0
 73
     1
 93
        4
 10
1800.0
 20
2026.752341190027
 10
1800.0
 20
2360.0
 10
1760.0
 20
2360.0
 10
1760.0
 20
2026.752341190027
 97
        1
330
55
 75
     0
 76
     1
 98
        0
  0
LWPOLYLINE
  5
55
102
{ACAD_REACTORS
330
54
102
}
330
1F
100
AcDbEntity
  8
0_Pen_No__1
  6
Continuous
100
AcDbPolyline
 90
        4
 70
   129
 43
0.0
 10
1800.0
 20
2026.752341190027
 10
1800.0
 20
2360.0
 10
1760.0
 20
2360.0
 10
1760.0
 20
2026.752341190027
  0
LWPOLYLINE
  5
56
330
1F
100
AcDbEntity
  8
0_Pen_No__1
  6
Continuous
100
AcDbPolyline
 90
        2
 70
   128
 43
0.0
 10
269.8044562970927
 20
43.35587575590605
 10
369.7404665825643
 20
46.93272467947062
  0
LWPOLYLINE
  5
57
330
1F
100
AcDbEntity
  8
0_Pen_No__1
  6
Continuous
100
AcDbPolyline
 90
        2
 70
   128
 43
0.0
 10
369.7404665825643
 20
46.93272467947062
 10
371.1712061519901
 20
6.958320565281451
  0
LWPOLYLINE
  5
58
330
1F
100
AcDbEntity
  8
0_Pen_No__1
  6
Continuous
100
AcDbPolyline
 90
        2
 70
   128
 43
0.0
 10
371.1712061519901
 20
6.958320565281451
 10
271.2351958665184
 20
3.381471641717315
  0
LWPOLYLINE
  5
59
330
1F
100
AcDbEntity
  8
0_Pen_No__1
  6
Continuous
100
AcDbPolyline
 90
        2
 70
   128
 43
0.0
 10
271.2351958665184
 20
3.381471641717315
 10
269.8044562970927
 20
43.35587575590605
  0
LWPOLYLINE
  5
5A
330
1F
100
AcDbEntity
  8
0_Pen_No__1
  6
Continuous
100
AcDbPolyline
 90
        2
 70
   128
 43
0.0
 10
875.8809063945976
 20
43.35587575590605
 10
975.816916680069
 20
46.93272467947062
  0
LWPOLYLINE
  5
5B
330
1F
100
AcDbEntity
  8
0_Pen_No__1
  6
Continuous
100
AcDbPolyline
 90
        2
 70
   128
 43
0.0
 10
975.816916680069
 20
46.93272467947062
 10
977.2476562494954
 20
6.958320565281451
  0
LWPOLYLINE
  5
5C
330
1F
100
AcDbEntity
  8
0_Pen_No__1
  6
Continuous
100
AcDbPolyline
 90
        2
 70
   128
 43
0.0
 10
977.2476562494954
 20
6.958320565281451
 10
877.3116459640238
 20
3.381471641717315
  0
LWPOLYLINE
  5
5D
330
1F
100
AcDbEntity
  8
0_Pen_No__1
  6
Continuous
100
AcDbPolyline
 90
        2
 70
   128
 43
0.0
 10
877.3116459640238
 20
3.381471641717315
 10
875.8809063945976
 20
43.35587575590605
  0
LWPOLYLINE
  5
5E
330
1F
100
AcDbEntity
  8
0_Pen_No__1
  6
Continuous
100
AcDbPolyline
 90
        2
 70
   128
 43
0.0
 10
1471.960503243384
 20
1015.869210518816
 10
1571.896513528856
 20
1019.44605944238
  0
LWPOLYLINE
  5
5F
330
1F
100
AcDbEntity
  8
0_Pen_No__1
  6
Continuous
100
AcDbPolyline
 90
        2
 70
   128
 43
0.0
 10
1571.896513528856
 20
1019.44605944238
 10
1573.327253098282
 20
979.4716553281914
  0
LWPOLYLINE
  5
60
330
1F
100
AcDbEntity
  8
0_Pen_No__1
  6
Continuous
100
AcDbPolyline
 90
        2
 70
   128
 43
0.0
 10
1573.327253098282
 20
979.4716553281914
 10
1473.39124281281
 20
975.8948064046272
  0
LWPOLYLINE
  5
61
330
1F
100
AcDbEntity
  8
0_Pen_No__1
  6
Continuous
100
AcDbPolyline
 90
        2
 70
   128
 43
0.0
 10
1473.39124281281
 20
975.8948064046272
 10
1471.960503243384
 20
1015.869210518816
  0
LWPOLYLINE
  5
62
330
1F
100
AcDbEntity
  8
0_Pen_No__1
  6
Continuous
100
AcDbPolyline
 90
        2
 70
   128
 43
0.0
 10
911.9605032433844
 20
1015.869210518816
 10
1011.896513528856
 20
1019.446059442381
  0
LWPOLYLINE
  5
63
330
1F
100
AcDbEntity
  8
0_Pen_No__1
  6
Continuous
100
AcDbPolyline
 90
        2
 70
   128
 43
0.0
 10
1011.896513528856
 20
1019.446059442381
 10
1013.327253098282
 20
979.4716553281917
  0
LWPOLYLINE
  5
64
330
1F
100
AcDbEntity
  8
0_Pen_No__1
  6
Continuous
100
AcDbPolyline
 90
        2
 70
   128
 43
0.0
 10
1013.327253098282
 20
979.4716553281917
 10
913.3912428128106
 20
975.8948064046274
  0
LWPOLYLINE
  5
65
330
1F
100
AcDbEntity
  8
0_Pen_No__1
  6
Continuous
100
AcDbPolyline
 90
        2
 70
   128
 43
0.0
 10
913.3912428128106
 20
975.8948064046274
 10
911.9605032433844
 20
1015.869210518816
  0
LWPOLYLINE
  5
66
330
1F
100
AcDbEntity
  8
0_Pen_No__1
  6
Continuous
100
AcDbPolyline
 90
        2
 70
   128
 43
0.0
 10
1471.960503243384
 20
43.35587575590605
 10
1571.896513528855
 20
46.93272467947062
  0
LWPOLYLINE
  5
67
330
1F
100
AcDbEntity
  8
0_Pen_No__1
  6
Continuous
100
AcDbPolyline
 90
        2
 70
   128
 43
0.0
 10
1571.896513528855
 20
46.93272467947062
 10
1573.327253098282
 20
6.958320565281451
  0
LWPOLYLINE
  5
68
330
1F
100
AcDbEntity
  8
0_Pen_No__1
  6
Continuous
100
AcDbPolyline
 90
        2
 70
   128
 43
0.0
 10
1573.327253098282
 20
6.958320565281451
 10
1473.39124281281
 20
3.381471641717315
  0
LWPOLYLINE
  5
69
330
1F
100
AcDbEntity
  8
0_Pen_No__1
  6
Continuous
100
AcDbPolyline
 90
        2
 70
   128
 43
0.0
 10
1473.39124281281
 20
3.381471641717315
 10
1471.960503243384
 20
43.35587575590605
  0
LWPOLYLINE
  5
6A
330
1F
100
AcDbEntity
  8
0_Pen_No__1
  6
Continuous
100
AcDbPolyline
 90
        2
 70
   128
 43
0.0
 10
2070.031994857264
 20
43.35587575590605
 10
2169.968005142736
 20
46.93272467947062
  0
LWPOLYLINE
  5
6B
330
1F
100
AcDbEntity
  8
0_Pen_No__1
  6
Continuous
100
AcDbPolyline
 90
        2
 70
   128
 43
0.0
 10
2169.968005142736
 20
46.93272467947062
 10
2171.398744712162
 20
6.958320565281451
  0
LWPOLYLINE
  5
6C
330
1F
100
AcDbEntity
  8
0_Pen_No__1
  6
Continuous
100
AcDbPolyline
 90
        2
 70
   128
 43
0.0
 10
2171.398744712162
 20
6.958320565281451
 10
2071.462734426691
 20
3.381471641717315
  0
LWPOLYLINE
  5
6D
330
1F
100
AcDbEntity
  8
0_Pen_No__1
  6
Continuous
100
AcDbPolyline
 90
        2
 70
   128
 43
0.0
 10
2071.462734426691
 20
3.381471641717315
 10
2070.031994857264
 20
43.35587575590605
  0
LWPOLYLINE
  5
6E
330
1F
100
AcDbEntity
  8
0_Pen_No__1
  6
Continuous
100
AcDbPolyline
 90
        2
 70
   128
 43
0.0
 10
1498.276810670695
 20
2018.633250145102
 10
1494.699961747131
 20
2118.569260430574
  0
LWPOLYLINE
  5
6F
330
1F
100
AcDbEntity
  8
0_Pen_No__1
  6
Continuous
100
AcDbPolyline
 90
        2
 70
   128
 43
0.0
 10
962.9724631086183
 20
2020.432767288716
 10
964.2626228045947
 20
2120.424444382155
  0
LWPOLYLINE
  5
70
330
1F
100
AcDbEntity
  8
0_Pen_No__1
  6
Continuous
100
AcDbPolyline
 90
        2
 70
   128
 43
0.0
 10
1494.699961747131
 20
2118.569260430574
 10
1534.67436586132
 20
2120.0
  0
LWPOLYLINE
  5
71
330
1F
100
AcDbEntity
  8
0_Pen_No__1
  6
Continuous
100
AcDbPolyline
 90
        2
 70
   128
 43
0.0
 10
1534.67436586132
 20
2120.0
 10
1538.251214784884
 20
2020.063989714529
  0
LWPOLYLINE
  5
72
330
1F
100
AcDbEntity
  8
0_Pen_No__1
  6
Continuous
100
AcDbPolyline
 90
        2
 70
   128
 43
0.0
 10
1538.251214784884
 20
2020.063989714529
 10
1498.276810670695
 20
2018.633250145102
  0
LWPOLYLINE
  5
73
330
1F
100
AcDbEntity
  8
0_Pen_No__1
  6
Continuous
100
AcDbPolyline
 90
        2
 70
   128
 43
0.0
 10
964.2626228045947
 20
2120.424444382155
 10
924.2659519672185
 20
2120.940508260547
  0
LWPOLYLINE
  5
74
330
1F
100
AcDbEntity
  8
0_Pen_No__1
  6
Continuous
100
AcDbPolyline
 90
        2
 70
   128
 43
0.0
 10
924.2659519672185
 20
2120.940508260547
 10
922.9757922712425
 20
2020.948831167106
  0
LWPOLYLINE
  5
75
330
1F
100
AcDbEntity
  8
0_Pen_No__1
  6
Continuous
100
AcDbPolyline
 90
        2
 70
   128
 43
0.0
 10
922.9757922712425
 20
2020.948831167106
 10
962.9724631086183
 20
2020.432767288716
  0
LWPOLYLINE
  5
76
330
1F
100
AcDbEntity
  8
0_Pen_No__1
  6
Continuous
100
AcDbPolyline
 90
        4
 70
   129
 43
0.0
 10
2440.0
 20
2360.0
 10
2440.0
 20
2400.0
 10
0.0
 20
2400.0
 10
0.0
 20
2360.0
  0
LWPOLYLINE
  5
77
330
1F
100
AcDbEntity
  8
0_Pen_No__1
  6
Continuous
100
AcDbPolyline
 90
        4
 70
   129
 43
0.0
 10
1760.0
 20
-0.0000000000002122
 10
1800.0
 20
-0.0000000000002122
 10
1800.0
 20
1979.790992240276
 10
1760.0
 20
1979.790992240276
  0
LWPOLYLINE
  5
78
330
1F
100
AcDbEntity
  8
0_Pen_No__1
  6
Continuous
100
AcDbPolyline
 90
        4
 70
   129
 43
0.0
 10
640.0000000000001
 20
0.0
 10
680.0000000000001
 20
0.0
 10
680.0000000000001
 20
1980.879833972145
 10
640.0000000000001
 20
1980.879833972145
  0
LWPOLYLINE
  5
79
330
1F
100
AcDbEntity
  8
0_Pen_No__1
  6
Continuous
100
AcDbPolyline
 90
        4
 70
   129
 43
0.0
 10
640.0000000000001
 20
2026.752341190027
 10
640.0000000000001
 20
2360.0
 10
600.0000000000001
 20
2360.0
 10
600.0000000000001
 20
2026.752341190027
  0
LWPOLYLINE
  5
7A
330
1F
100
AcDbEntity
  8
0_Pen_No__1
  6
Continuous
100
AcDbPolyline
 90
        4
 70
   129
 43
0.0
 10
1840.0
 20
2026.752341190027
 10
1840.0
 20
2360.0
 10
1800.0
 20
2360.0
 10
1800.0
 20
2026.752341190027
  0
LWPOLYLINE
  5
7B
330
1F
100
AcDbEntity
  8
0_Pen_No__1
  6
Continuous
100
AcDbPolyline
 90
        2
 70
   128
 43
0.0
 10
1859.772461439829
 20
2066.587631962389
 10
1840.0
 20
2066.587631962389
  0
LWPOLYLINE
  5
7C
330
1F
100
AcDbEntity
  8
0_Pen_No__1
  6
Continuous
100
AcDbPolyline
 90
        2
 70
   128
 43
0.0
 10
1760.0
 20
2066.587631962389
 10
1536.586068865819
 20
2066.587631962389
  0
LWPOLYLINE
  5
7D
330
1F
100
AcDbEntity
  8
0_Pen_No__1
  6
Continuous
100
AcDbPolyline
 90
        2
 70
   128
 43
0.0
 10
923.5646546952992
 20
2066.587631962389
 10
680.0000000000001
 20
2066.587631962389
  0
LWPOLYLINE
  5
7E
330
1F
100
AcDbEntity
  8
0_Pen_No__1
  6
Continuous
100
AcDbPolyline
 90
        2
 70
   128
 43
0.0
 10
600.0000000000001
 20
2066.587631962389
 10
579.7724614398285
 20
2066.587631962389
  0
LWPOLYLINE
  5
7F
330
1F
100
AcDbEntity
  8
0_Pen_No__1
  6
Continuous
100
AcDbPolyline
 90
        2
 70
   128
 43
0.0
 10
1859.772461439829
 20
1980.0
 10
1859.772461439829
 20
1995.254002401742
  0
LWPOLYLINE
  5
80
330
1F
100
AcDbEntity
  8
0_Pen_No__1
  6
Continuous
100
AcDbPolyline
 90
        2
 70
   128
 43
0.0
 10
1859.772461439829
 20
1995.254002401742
 10
1859.772461439829
 20
2000.8681797283
  0
LWPOLYLINE
  5
81
330
1F
100
AcDbEntity
  8
0_Pen_No__1
  6
Continuous
100
AcDbPolyline
 90
        2
 70
   128
 43
0.0
 10
1859.772461439829
 20
2000.8681797283
 10
1859.772461439829
 20
2003.785319484428
  0
LWPOLYLINE
  5
82
330
1F
100
AcDbEntity
  8
0_Pen_No__1
  6
Continuous
100
AcDbPolyline
 90
        2
 70
   128
 43
0.0
 10
1859.772461439829
 20
2003.785319484428
 10
1859.772461439829
 20
2006.332094321754
  0
LWPOLYLINE
  5
83
330
1F
100
AcDbEntity
  8
0_Pen_No__1
  6
Continuous
100
AcDbPolyline
 90
        2
 70
   128
 43
0.0
 10
1859.772461439829
 20
2006.332094321754
 10
1859.772461439829
 20
2066.587631962389
  0
LWPOLYLINE
  5
84
330
1F
100
AcDbEntity
  8
0_Pen_No__1
  6
Continuous
100
AcDbPolyline
 90
        2
 70
   128
 43
0.0
 10
579.7724614398285
 20
1984.759413346754
 10
579.7724614398285
 20
1984.902972112047
  0
LWPOLYLINE
  5
85
330
1F
100
AcDbEntity
  8
0_Pen_No__1
  6
Continuous
100
AcDbPolyline
 90
        2
 70
   128
 43
0.0
 10
579.7724614398285
 20
1984.902972112047
 10
579.7724614398285
 20
1980.0
  0
LWPOLYLINE
  5
86
330
1F
100
AcDbEntity
  8
0_Pen_No__1
  6
Continuous
100
AcDbPolyline
 90
        2
 70
   128
 43
0.0
 10
579.7724614398285
 20
1980.0
 10
579.7724614398285
 20
1995.254002401743
  0
LWPOLYLINE
  5
87
330
1F
100
AcDbEntity
  8
0_Pen_No__1
  6
Continuous
100
AcDbPolyline
 90
        2
 70
   128
 43
0.0
 10
579.7724614398285
 20
1995.254002401743
 10
579.7724614398285
 20
2000.8681797283
  0
LWPOLYLINE
  5
88
330
1F
100
AcDbEntity
  8
0_Pen_No__1
  6
Continuous
100
AcDbPolyline
 90
        2
 70
   128
 43
0.0
 10
579.7724614398285
 20
2000.8681797283
 10
579.7724614398285
 20
1995.254002401743
  0
LWPOLYLINE
  5
89
330
1F
100
AcDbEntity
  8
0_Pen_No__1
  6
Continuous
100
AcDbPolyline
 90
        2
 70
   128
 43
0.0
 10
579.7724614398285
 20
1995.254002401743
 10
579.7724614398285
 20
1981.517185538889
  0
LWPOLYLINE
  5
8A
330
1F
100
AcDbEntity
  8
0_Pen_No__1
  6
Continuous
100
AcDbPolyline
 90
        2
 70
   128
 43
0.0
 10
579.7724614398285
 20
1981.517185538889
 10
579.7724614398285
 20
1985.859644195458
  0
LWPOLYLINE
  5
8B
330
1F
100
AcDbEntity
  8
0_Pen_No__1
  6
Continuous
100
AcDbPolyline
 90
        2
 70
   128
 43
0.0
 10
579.7724614398285
 20
1985.859644195458
 10
579.7724614398285
 20
2003.785319484428
  0
LWPOLYLINE
  5
8C
330
1F
100
AcDbEntity
  8
0_Pen_No__1
  6
Continuous
100
AcDbPolyline
 90
        2
 70
   128
 43
0.0
 10
579.7724614398285
 20
2003.785319484428
 10
579.7724614398285
 20
2006.332094321754
  0
LWPOLYLINE
  5
8D
330
1F
100
AcDbEntity
  8
0_Pen_No__1
  6
Continuous
100
AcDbPolyline
 90
        2
 70
   128
 43
0.0
 10
579.7724614398285
 20
2006.332094321754
 10
579.7724614398285
 20
2066.587631962389
  0
LWPOLYLINE
  5
8E
330
1F
100
AcDbEntity
  8
0_Pen_No__1
  6
Continuous
100
AcDbPolyline
 90
        2
 70
   128
 43
0.0
 10
579.7724614398285
 20
2066.587631962389
 10
579.7724614398285
 20
1984.759413346754
  0
LWPOLYLINE
  5
8F
330
1F
100
AcDbEntity
  8
0_Pen_No__1
  6
Continuous
100
AcDbPolyline
 90
        2
 70
   128
 43
0.0
 10
1859.772461439829
 20
1980.0
 10
579.7724614398285
 20
1980.0
  0
LWPOLYLINE
  5
90
330
1F
100
AcDbEntity
  8
0_Pen_No__1
  6
Continuous
100
AcDbPolyline
 90
        2
 70
   128
 43
0.0
 10
1859.772461439829
 20
2000.8681797283
 10
579.7724614398285
 20
2000.8681797283
  0
LWPOLYLINE
  5
91
330
1F
100
AcDbEntity
  8
0_Pen_No__1
  6
Continuous
100
AcDbPolyline
 90
        2
 70
   128
 43
0.0
 10
1859.772461439829
 20
2003.785319484428
 10
579.7724614398285
 20
2003.785319484428
  0
LWPOLYLINE
  5
92
330
1F
100
AcDbEntity
  8
0_Pen_No__1
  6
Continuous
100
AcDbPolyline
 90
        2
 70
   128
 43
0.0
 10
1859.772461439829
 20
2003.785319484428
 10
579.7724614398285
 20
2003.785319484428
  0
LWPOLYLINE
  5
93
330
1F
100
AcDbEntity
  8
0_Pen_No__1
  6
Continuous
100
AcDbPolyline
 90
        2
 70
   128
 43
0.0
 10
1859.772461439829
 20
2006.332094321754
 10
579.7724614398285
 20
2006.332094321754
  0
LWPOLYLINE
  5
94
330
1F
100
AcDbEntity
  8
0_Pen_No__1
  6
Continuous
100
AcDbPolyline
 90
        2
 70
   128
 43
0.0
 10
1200.000000000001
 20
2066.587631962389
 10
963.5679841350293
 20
2066.587631962389
  0
LWPOLYLINE
  5
95
330
1F
100
AcDbEntity
  8
0_Pen_No__1
  6
Continuous
100
AcDbPolyline
 90
        2
 70
   128
 43
0.0
 10
1496.560456590786
 20
2066.587631962389
 10
1240.000000000001
 20
2066.587631962389
  0
LWPOLYLINE
  5
96
330
1F
100
AcDbEntity
  8
0_Pen_No__1
  6
Continuous
100
AcDbPolyline
 90
        2
 70
   128
 43
0.0
 10
600.0000000000001
 20
2400.0
 10
640.0000000000001
 20
2400.0
  0
LWPOLYLINE
  5
97
330
1F
100
AcDbEntity
  8
0_Pen_No__1
  6
Continuous
100
AcDbPolyline
 90
        2
 70
   128
 43
0.0
 10
600.0000000000001
 20
0.0
 10
640.0000000000001
 20
0.0
  0
LWPOLYLINE
  5
98
330
1F
100
AcDbEntity
  8
0_Pen_No__1
  6
Continuous
100
AcDbPolyline
 90
        2
 70
   128
 43
0.0
 10
0.0
 20
0.0
 10
0.0
 20
2400.0
  0
LWPOLYLINE
  5
99
330
1F
100
AcDbEntity
  8
0_Pen_No__1
  6
Continuous
100
AcDbPolyline
 90
        2
 70
   128
 43
0.0
 10
0.0
 20
2400.0
 10
40.00000000000004
 20
2400.0
  0
LWPOLYLINE
  5
9A
330
1F
100
AcDbEntity
  8
0_Pen_No__1
  6
Continuous
100
AcDbPolyline
 90
        2
 70
   128
 43
0.0
 10
0.0
 20
0.0
 10
40.00000000000004
 20
0.0
  0
LWPOLYLINE
  5
9B
330
1F
100
AcDbEntity
  8
0_Pen_No__1
  6
Continuous
100
AcDbPolyline
 90
        2
 70
   128
 43
0.0
 10
299.9999999999998
 20
0.0
 10
339.9999999999994
 20
0.0
  0
LWPOLYLINE
  5
9C
330
1F
100
AcDbEntity
  8
0_Pen_No__1
  6
Continuous
100
AcDbPolyline
 90
        2
 70
   128
 43
0.0
 10
1200.0
 20
2400.0
 10
1240.0
 20
2400.0
  0
LWPOLYLINE
  5
9D
330
1F
100
AcDbEntity
  8
0_Pen_No__1
  6
Continuous
100
AcDbPolyline
 90
        2
 70
   128
 43
0.0
 10
1200.0
 20
0.0
 10
1240.0
 20
0.0
  0
LWPOLYLINE
  5
9E
330
1F
100
AcDbEntity
  8
0_Pen_No__1
  6
Continuous
100
AcDbPolyline
 90
        2
 70
   128
 43
0.0
 10
1800.0
 20
2400.0
 10
1840.0
 20
2400.0
  0
LWPOLYLINE
  5
9F
330
1F
100
AcDbEntity
  8
0_Pen_No__1
  6
Continuous
100
AcDbPolyline
 90
        2
 70
   128
 43
0.0
 10
1800.0
 20
-0.000000000000222
 10
1840.0
 20
-0.000000000000222
  0
LWPOLYLINE
  5
A0
330
1F
100
AcDbEntity
  8
0_Pen_No__1
  6
Continuous
100
AcDbPolyline
 90
        2
 70
   128
 43
0.0
 10
2440.0
 20
-0.000000000000222
 10
2440.0
 20
2400.0
  0
LWPOLYLINE
  5
A1
330
1F
100
AcDbEntity
  8
0_Pen_No__1
  6
Continuous
100
AcDbPolyline
 90
        2
 70
   128
 43
0.0
 10
2400.0
 20
2400.0
 10
2440.0
 20
2400.0
  0
LWPOLYLINE
  5
A2
330
1F
100
AcDbEntity
  8
0_Pen_No__1
  6
Continuous
100
AcDbPolyline
 90
        2
 70
   128
 43
0.0
 10
2400.0
 20
-0.000000000000222
 10
2440.0
 20
-0.000000000000222
  0
LWPOLYLINE
  5
A3
330
1F
100
AcDbEntity
  8
0_Pen_No__1
  6
Continuous
100
AcDbPolyline
 90
        2
 70
   128
 43
0.0
 10
1800.0
 20
2400.0
 10
1840.0
 20
2400.0
  0
LWPOLYLINE
  5
A4
330
1F
100
AcDbEntity
  8
0_Pen_No__1
  6
Continuous
100
AcDbPolyline
 90
        2
 70
   128
 43
0.0
 10
1800.0
 20
-0.000000000000222
 10
1840.0
 20
-0.000000000000222
  0
LWPOLYLINE
  5
A5
330
1F
100
AcDbEntity
  8
0_Pen_No__1
  6
Continuous
100
AcDbPolyline
 90
        2
 70
   128
 43
0.0
 10
1840.0
 20
2360.0
 10
2400.0
 20
2360.0
  0
LWPOLYLINE
  5
A6
330
1F
100
AcDbEntity
  8
0_Pen_No__1
  6
Continuous
100
AcDbPolyline
 90
        2
 70
   128
 43
0.0
 10
1840.0
 20
819.9999999999999
 10
2400.0
 20
819.9999999999997
  0
LWPOLYLINE
  5
A7
330
1F
100
AcDbEntity
  8
0_Pen_No__1
  6
Continuous
100
AcDbPolyline
 90
        2
 70
   128
 43
0.0
 10
1840.0
 20
779.9999999999998
 10
2400.0
 20
779.9999999999995
  0
LWPOLYLINE
  5
A8
330
1F
100
AcDbEntity
  8
0_Pen_No__1
  6
Continuous
100
AcDbPolyline
 90
        2
 70
   128
 43
0.0
 10
1840.0
 20
1620.0
 10
2400.0
 20
1620.0
  0
LWPOLYLINE
  5
A9
330
1F
100
AcDbEntity
  8
0_Pen_No__1
  6
Continuous
100
AcDbPolyline
 90
        2
 70
   128
 43
0.0
 10
369.9885984495088
 20
40.00000000000004
 10
640.0000000000001
 20
40.00000000000004
  0
LWPOLYLINE
  5
AA
330
1F
100
AcDbEntity
  8
0_Pen_No__1
  6
Continuous
100
AcDbPolyline
 90
        2
 70
   128
 43
0.0
 10
40.00000000000004
 20
40.00000000000004
 10
269.9245677619273
 20
40.00000000000004
  0
LWPOLYLINE
  5
AB
330
1F
100
AcDbEntity
  8
0_Pen_No__1
  6
Continuous
100
AcDbPolyline
 90
        2
 70
   128
 43
0.0
 10
899.9999999999999
 20
0.0
 10
798.4699730941895
 20
0.0
  0
LWPOLYLINE
  5
AC
330
1F
100
AcDbEntity
  8
0_Pen_No__1
  6
Continuous
100
AcDbPolyline
 90
        2
 70
   128
 43
0.0
 10
976.0650485470137
 20
40.00000000000004
 10
1200.0
 20
40.00000000000004
  0
LWPOLYLINE
  5
AD
330
1F
100
AcDbEntity
  8
0_Pen_No__1
  6
Continuous
100
AcDbPolyline
 90
        2
 70
   128
 43
0.0
 10
1840.0
 20
1580.0
 10
2400.0
 20
1579.999999999999
  0
LWPOLYLINE
  5
AE
330
1F
100
AcDbEntity
  8
0_Pen_No__1
  6
Continuous
100
AcDbPolyline
 90
        2
 70
   128
 43
0.0
 10
40.00000000000004
 20
819.9999999999999
 10
600.0000000000001
 20
819.9999999999999
  0
LWPOLYLINE
  5
AF
330
1F
100
AcDbEntity
  8
0_Pen_No__1
  6
Continuous
100
AcDbPolyline
 90
        2
 70
   128
 43
0.0
 10
40.00000000000004
 20
779.9999999999998
 10
600.0000000000001
 20
779.9999999999998
  0
LWPOLYLINE
  5
B0
330
1F
100
AcDbEntity
  8
0_Pen_No__1
  6
Continuous
100
AcDbPolyline
 90
        2
 70
   128
 43
0.0
 10
40.00000000000004
 20
1620.0
 10
600.0000000000001
 20
1620.0
  0
LWPOLYLINE
  5
B1
330
1F
100
AcDbEntity
  8
0_Pen_No__1
  6
Continuous
100
AcDbPolyline
 90
        2
 70
   128
 43
0.0
 10
40.00000000000004
 20
1580.0
 10
600.0000000000001
 20
1580.0
  0
LWPOLYLINE
  5
B2
330
1F
100
AcDbEntity
  8
0_Pen_No__1
  6
Continuous
100
AcDbPolyline
 90
        2
 70
   128
 43
0.0
 10
299.9999999999998
 20
2400.0
 10
40.00000000000004
 20
2400.0
  0
LWPOLYLINE
  5
B3
330
1F
100
AcDbEntity
  8
0_Pen_No__1
  6
Continuous
100
AcDbPolyline
 90
        2
 70
   128
 43
0.0
 10
40.00000000000004
 20
2360.0
 10
600.0000000000001
 20
2360.0
  0
LWPOLYLINE
  5
B4
330
1F
100
AcDbEntity
  8
0_Pen_No__1
  6
Continuous
100
AcDbPolyline
 90
        2
 70
   128
 43
0.0
 10
899.9999999999999
 20
2400.0
 10
640.0000000000001
 20
2400.0
  0
LWPOLYLINE
  5
B5
330
1F
100
AcDbEntity
  8
0_Pen_No__1
  6
Continuous
100
AcDbPolyline
 90
        2
 70
   128
 43
0.0
 10
640.0000000000001
 20
2360.0
 10
1200.0
 20
2360.0
  0
LWPOLYLINE
  5
B6
330
1F
100
AcDbEntity
  8
0_Pen_No__1
  6
Continuous
100
AcDbPolyline
 90
        2
 70
   128
 43
0.0
 10
1500.0
 20
2400.0
 10
1240.0
 20
2400.0
  0
LWPOLYLINE
  5
B7
330
1F
100
AcDbEntity
  8
0_Pen_No__1
  6
Continuous
100
AcDbPolyline
 90
        2
 70
   128
 43
0.0
 10
1240.0
 20
2360.0
 10
1800.0
 20
2360.0
  0
LWPOLYLINE
  5
B8
330
1F
100
AcDbEntity
  8
0_Pen_No__1
  6
Continuous
100
AcDbPolyline
 90
        2
 70
   128
 43
0.0
 10
0.0
 20
2400.0
 10
2440.0
 20
2400.0
  0
LWPOLYLINE
  5
B9
330
1F
100
AcDbEntity
  8
0_Pen_No__1
  6
Continuous
100
AcDbPolyline
 90
        2
 70
   128
 43
0.0
 10
1200.0
 20
0.0
 10
1200.0
 20
1019.44605944238
  0
LWPOLYLINE
  5
BA
330
1F
100
AcDbEntity
  8
0_Pen_No__1
  6
Continuous
100
AcDbPolyline
 90
        2
 70
   128
 43
0.0
 10
1240.0
 20
0.0
 10
1240.0
 20
1019.44605944238
  0
LWPOLYLINE
  5
BB
330
1F
100
AcDbEntity
  8
0_Pen_No__1
  6
Continuous
100
AcDbPolyline
 90
        2
 70
   128
 43
0.0
 10
1200.0
 20
1019.44605944238
 10
1240.0
 20
1019.44605944238
  0
LWPOLYLINE
  5
BC
330
1F
100
AcDbEntity
  8
0_Pen_No__1
  6
Continuous
100
AcDbPolyline
 90
        2
 70
   128
 43
0.0
 10
680.0000000000001
 20
2120.0
 10
1200.0
 20
2120.0
  0
LWPOLYLINE
  5
BD
330
1F
100
AcDbEntity
  8
0_Pen_No__1
  6
Continuous
100
AcDbPolyline
 90
        2
 70
   128
 43
0.0
 10
1240.0
 20
2120.0
 10
1760.0
 20
2120.0
  0
LWPOLYLINE
  5
BE
330
1F
100
AcDbEntity
  8
0_Pen_No__1
  6
Continuous
100
AcDbPolyline
 90
        2
 70
   128
 43
0.0
 10
1240.0
 20
985.6354031201942
 10
1473.042613297009
 20
985.6354031201946
  0
LWPOLYLINE
  5
BF
330
1F
100
AcDbEntity
  8
0_Pen_No__1
  6
Continuous
100
AcDbPolyline
 90
        2
 70
   128
 43
0.0
 10
1013.10664398459
 20
985.6354031201944
 10
1200.0
 20
985.6354031201946
  0
LWPOLYLINE
  5
C0
330
1F
100
AcDbEntity
  8
0_Pen_No__1
  6
Continuous
100
AcDbPolyline
 90
        2
 70
   128
 43
0.0
 10
1465.005484307748
 20
-0.000000000000222
 10
1505.005484307748
 20
-0.000000000000222
  0
LWPOLYLINE
  5
C1
330
1F
100
AcDbEntity
  8
0_Pen_No__1
  6
Continuous
100
AcDbPolyline
 90
        2
 70
   128
 43
0.0
 10
1240.0
 20
40.00000000000004
 10
1472.080614708219
 20
40.00000000000004
  0
LWPOLYLINE
  5
C2
330
1F
100
AcDbEntity
  8
0_Pen_No__1
  6
Continuous
100
AcDbPolyline
 90
        2
 70
   128
 43
0.0
 10
2170.216137009681
 20
39.99999999999982
 10
2400.0
 20
39.99999999999982
  0
LWPOLYLINE
  5
C3
330
1F
100
AcDbEntity
  8
0_Pen_No__1
  6
Continuous
100
AcDbPolyline
 90
        2
 70
   128
 43
0.0
 10
1800.0
 20
40.00000000000004
 10
2070.152106322099
 20
40.00000000000004
  0
LWPOLYLINE
  5
C4
330
1F
100
AcDbEntity
  8
0_Pen_No__1
  6
Continuous
100
AcDbPolyline
 90
        2
 70
   128
 43
0.0
 10
40.00000000000004
 20
0.0
 10
40.00000000000004
 20
2360.0
  0
LWPOLYLINE
  5
C5
330
1F
100
AcDbEntity
  8
0_Pen_No__1
  6
Continuous
100
AcDbPolyline
 90
        2
 70
   128
 43
0.0
 10
0.0
 20
0.0
 10
2440.0
 20
-0.000000000000222
  0
LWPOLYLINE
  5
C6
330
1F
100
AcDbEntity
  8
0_Pen_No__1
  6
Continuous
100
AcDbPolyline
 90
        2
 70
   128
 43
0.0
 10
720.0000000000002
 20
40.00000000000004
 10
720.0000000000002
 20
985.6354031201946
  0
LWPOLYLINE
  5
C7
330
1F
100
AcDbEntity
  8
0_Pen_No__1
  6
Continuous
100
AcDbPolyline
 90
        2
 70
   128
 43
0.0
 10
680.0000000000001
 20
39.99999999999982
 10
680.0000000000001
 20
1980.0
  0
LWPOLYLINE
  5
C8
330
1F
100
AcDbEntity
  8
0_Pen_No__1
  6
Continuous
100
AcDbPolyline
 90
        2
 70
   128
 43
0.0
 10
640.0000000000001
 20
985.6354031201944
 10
913.0426132970091
 20
985.6354031201946
  0
LWPOLYLINE
  5
C9
330
1F
100
AcDbEntity
  8
0_Pen_No__1
  6
Continuous
100
AcDbPolyline
 90
        2
 70
   128
 43
0.0
 10
720.0000000000002
 20
819.9999999999999
 10
1200.0
 20
819.9999999999999
  0
LWPOLYLINE
  5
CA
330
1F
100
AcDbEntity
  8
0_Pen_No__1
  6
Continuous
100
AcDbPolyline
 90
        2
 70
   128
 43
0.0
 10
720.0000000000002
 20
779.9999999999998
 10
1200.0
 20
779.9999999999998
  0
LWPOLYLINE
  5
CB
330
1F
100
AcDbEntity
  8
0_Pen_No__1
  6
Continuous
100
AcDbPolyline
 90
        2
 70
   128
 43
0.0
 10
2400.0
 20
-0.000000000000222
 10
2400.0
 20
2360.0
  0
LWPOLYLINE
  5
CC
330
1F
100
AcDbEntity
  8
0_Pen_No__1
  6
Continuous
100
AcDbPolyline
 90
        2
 70
   128
 43
0.0
 10
680.0000000000001
 20
1980.0
 10
1759.544922879657
 20
1980.0
  0
LWPOLYLINE
  5
CD
330
1F
100
AcDbEntity
  8
0_Pen_No__1
  6
Continuous
100
AcDbPolyline
 90
        2
 70
   128
 43
0.0
 10
1799.544922879657
 20
1980.0
 10
1800.0
 20
1980.0
  0
LWPOLYLINE
  5
CE
330
1F
100
AcDbEntity
  8
0_Pen_No__1
  6
Continuous
100
AcDbPolyline
 90
        2
 70
   128
 43
0.0
 10
680.0000000000001
 20
1025.635403120195
 10
1759.544922879657
 20
1025.635403120195
  0
LWPOLYLINE
  5
CF
330
1F
100
AcDbEntity
  8
0_Pen_No__1
  6
Continuous
100
AcDbPolyline
 90
        2
 70
   128
 43
0.0
 10
1799.544922879657
 20
1025.635403120195
 10
1800.000000000001
 20
1025.635403120195
  0
LWPOLYLINE
  5
D0
330
1F
100
AcDbEntity
  8
0_Pen_No__1
  6
Continuous
100
AcDbPolyline
 90
        2
 70
   128
 43
0.0
 10
1573.10664398459
 20
985.6354031201942
 10
1800.0
 20
985.6354031201946
  0
LWPOLYLINE
  5
D1
330
1F
100
AcDbEntity
  8
0_Pen_No__1
  6
Continuous
100
AcDbPolyline
 90
        2
 70
   128
 43
0.0
 10
1799.544922879657
 20
985.6354031201946
 10
1800.0
 20
985.6354031201946
  0
LWPOLYLINE
  5
D2
330
1F
100
AcDbEntity
  8
0_Pen_No__1
  6
Continuous
100
AcDbPolyline
 90
        2
 70
   128
 43
0.0
 10
1240.0
 20
819.9999999999999
 10
1719.544922879657
 20
819.9999999999999
  0
LWPOLYLINE
  5
D3
330
1F
100
AcDbEntity
  8
0_Pen_No__1
  6
Continuous
100
AcDbPolyline
 90
        2
 70
   128
 43
0.0
 10
1759.544922879657
 20
819.9999999999999
 10
1760.0
 20
819.9999999999999
  0
LWPOLYLINE
  5
D4
330
1F
100
AcDbEntity
  8
0_Pen_No__1
  6
Continuous
100
AcDbPolyline
 90
        2
 70
   128
 43
0.0
 10
1240.0
 20
779.9999999999998
 10
1719.544922879657
 20
779.9999999999998
  0
LWPOLYLINE
  5
D5
330
1F
100
AcDbEntity
  8
0_Pen_No__1
  6
Continuous
100
AcDbPolyline
 90
        2
 70
   128
 43
0.0
 10
1759.544922879657
 20
779.9999999999998
 10
1760.0
 20
779.9999999999998
  0
LWPOLYLINE
  5
D6
330
1F
100
AcDbEntity
  8
0_Pen_No__1
  6
Continuous
100
AcDbPolyline
 90
        2
 70
   128
 43
0.0
 10
1720.0
 20
40.00000000000004
 10
1720.0
 20
985.6354031201946
  0
LWPOLYLINE
  5
D7
330
1F
100
AcDbEntity
  8
0_Pen_No__1
  6
Continuous
100
AcDbPolyline
 90
        2
 70
   128
 43
0.0
 10
0.0
 20
2360.0
 10
2440.0
 20
2360.0
  0
LWPOLYLINE
  5
D8
330
1F
100
AcDbEntity
  8
0_Pen_No__1
  6
Continuous
100
AcDbPolyline
 90
        2
 70
   128
 43
0.0
 10
1760.0
 20
40.00000000000004
 10
1760.0
 20
985.6354031201946
  0
LWPOLYLINE
  5
D9
330
1F
100
AcDbEntity
  8
0_Pen_No__1
  6
Continuous
100
AcDbPolyline
 90
        2
 70
   128
 43
0.0
 10
680.0000000000001
 20
39.99999999999982
 10
876.0010178594322
 20
40.00000000000004
  0
LWPOLYLINE
  5
DA
330
1F
100
AcDbEntity
  8
0_Pen_No__1
  6
Continuous
100
AcDbPolyline
 90
        2
 70
   128
 43
0.0
 10
1572.1446453958
 20
40.00000000000004
 10
1760.0
 20
40.00000000000004
  0
LWPOLYLINE
  5
DB
330
1F
100
AcDbEntity
  8
0_Pen_No__1
  6
Continuous
100
AcDbPolyline
 90
        2
 70
   128
 43
0.0
 10
640.0000000000001
 20
0.0
 10
640.0000000000001
 20
1980.879833972145
  0
LWPOLYLINE
  5
DC
330
1F
100
AcDbEntity
  8
0_Pen_No__1
  6
Continuous
100
AcDbPolyline
 90
        2
 70
   128
 43
0.0
 10
600.0000000000001
 20
40.00000000000004
 10
600.0000000000001
 20
1980.879833972145
  0
LWPOLYLINE
  5
DD
330
1F
100
AcDbEntity
  8
0_Pen_No__1
  6
Continuous
100
AcDbPolyline
 90
        2
 70
   128
 43
0.0
 10
1840.0
 20
40.00000000000004
 10
1840.0
 20
1979.790992240276
  0
LWPOLYLINE
  5
DE
330
1F
100
AcDbEntity
  8
0_Pen_No__1
  6
Continuous
100
AcDbPolyline
 90
        2
 70
   128
 43
0.0
 10
1800.0
 20
40.00000000000004
 10
1800.0
 20
1980.0
  0
LWPOLYLINE
  5
DF
330
1F
100
AcDbEntity
  8
0_Pen_No__1
  6
Continuous
100
AcDbPolyline
 90
        2
 70
   128
 43
0.0
 10
1800.0
 20
2120.0
 10
1800.0
 20
2360.0
  0
LWPOLYLINE
  5
E0
330
1F
100
AcDbEntity
  8
0_Pen_No__1
  6
Continuous
100
AcDbPolyline
 90
        2
 70
   128
 43
0.0
 10
1800.0
 20
40.00000000000004
 10
1800.0
 20
1980.0
  0
LWPOLYLINE
  5
E1
330
1F
100
AcDbEntity
  8
0_Pen_No__1
  6
Continuous
100
AcDbPolyline
 90
        2
 70
   128
 43
0.0
 10
1800.0
 20
2120.0
 10
1800.0
 20
2360.0
  0
LWPOLYLINE
  5
E2
330
1F
100
AcDbEntity
  8
0_Pen_No__1
  6
Continuous
100
AcDbPolyline
 90
        2
 70
   128
 43
0.0
 10
1240.0
 20
2026.752341190027
 10
1240.0
 20
2360.0
  0
LWPOLYLINE
  5
E3
330
1F
100
AcDbEntity
  8
0_Pen_No__1
  6
Continuous
100
AcDbPolyline
 90
        2
 70
   128
 43
0.0
 10
1200.0
 20
2026.752341190027
 10
1200.0
 20
2360.0
  0
LWPOLYLINE
  5
E4
330
1F
100
AcDbEntity
  8
0_Pen_No__1
  6
Continuous
100
AcDbPolyline
 90
        2
 70
   128
 43
0.0
 10
1200.0
 20
2026.752341190027
 10
1240.0
 20
2026.752341190027
  0
LWPOLYLINE
  5
E5
330
1F
100
AcDbEntity
  8
0_Pen_No__1
  6
Continuous
100
AcDbPolyline
 90
        2
 70
   129
 43
0.0
 10
17.77246143982891
 20
22.23419048648556
 42
0.9999999999999999
 10
21.77246143982847
 20
22.23419048648556
 42
0.9999999999999999
  0
LWPOLYLINE
  5
E6
330
1F
100
AcDbEntity
  8
0_Pen_No__1
  6
Continuous
100
AcDbPolyline
 90
        2
 70
   129
 43
0.0
 10
317.7724614398288
 20
22.23419048648556
 42
0.9999999999999999
 10
321.7724614398283
 20
22.23419048648556
 42
0.9999999999999999
  0
LWPOLYLINE
  5
E7
330
1F
100
AcDbEntity
  8
0_Pen_No__1
  6
Continuous
100
AcDbPolyline
 90
        2
 70
   129
 43
0.0
 10
657.772461439829
 20
22.23419048648556
 42
0.9999999999999999
 10
661.7724614398286
 20
22.23419048648556
 42
0.9999999999999999
  0
LWPOLYLINE
  5
E8
330
1F
100
AcDbEntity
  8
0_Pen_No__1
  6
Continuous
100
AcDbPolyline
 90
        2
 70
   129
 43
0.0
 10
917.7724614398288
 20
22.23419048648556
 42
0.9999999999999999
 10
921.7724614398284
 20
22.23419048648556
 42
0.9999999999999999
  0
LWPOLYLINE
  5
E9
330
1F
100
AcDbEntity
  8
0_Pen_No__1
  6
Continuous
100
AcDbPolyline
 90
        2
 70
   129
 43
0.0
 10
1217.772461439829
 20
22.23419048648534
 42
0.9999999999999999
 10
1221.772461439829
 20
22.23419048648534
 42
0.9999999999999999
  0
LWPOLYLINE
  5
EA
330
1F
100
AcDbEntity
  8
0_Pen_No__1
  6
Continuous
100
AcDbPolyline
 90
        2
 70
   129
 43
0.0
 10
2417.772461439829
 20
22.23419048648534
 42
0.9999999999999999
 10
2421.772461439829
 20
22.23419048648534
 42
0.9999999999999999
  0
LWPOLYLINE
  5
EB
330
1F
100
AcDbEntity
  8
0_Pen_No__1
  6
Continuous
100
AcDbPolyline
 90
        2
 70
   129
 43
0.0
 10
17.77246143982891
 20
802.2341904864853
 42
0.9999999999999999
 10
21.77246143982847
 20
802.2341904864853
 42
0.9999999999999999
  0
LWPOLYLINE
  5
EC
330
1F
100
AcDbEntity
  8
0_Pen_No__1
  6
Continuous
100
AcDbPolyline
 90
        2
 70
   129
 43
0.0
 10
1217.772461439829
 20
802.2341904864853
 42
0.9999999999999999
 10
1221.772461439828
 20
802.2341904864853
 42
0.9999999999999999
  0
LWPOLYLINE
  5
ED
330
1F
100
AcDbEntity
  8
0_Pen_No__1
  6
Continuous
100
AcDbPolyline
 90
        2
 70
   129
 43
0.0
 10
2417.772461439829
 20
802.8749983757215
 42
0.9999999999999999
 10
2421.772461439829
 20
802.8749983757215
 42
0.9999999999999999
  0
LWPOLYLINE
  5
EE
330
1F
100
AcDbEntity
  8
0_Pen_No__1
  6
Continuous
100
AcDbPolyline
 90
        2
 70
   129
 43
0.0
 10
17.77246143982891
 20
1602.234190486485
 42
0.9999999999999999
 10
21.77246143982847
 20
1602.234190486485
 42
0.9999999999999999
  0
LWPOLYLINE
  5
EF
330
1F
100
AcDbEntity
  8
0_Pen_No__1
  6
Continuous
100
AcDbPolyline
 90
        2
 70
   129
 43
0.0
 10
1777.772461439828
 20
22.23419048648534
 42
0.9999999999999999
 10
1781.772461439828
 20
22.23419048648534
 42
0.9999999999999999
  0
LWPOLYLINE
  5
F0
330
1F
100
AcDbEntity
  8
0_Pen_No__1
  6
Continuous
100
AcDbPolyline
 90
        2
 70
   129
 43
0.0
 10
2417.772461439829
 20
1603.232607797559
 42
0.9999999999999999
 10
2421.772461439829
 20
1603.232607797559
 42
0.9999999999999999
  0
LWPOLYLINE
  5
F1
330
1F
100
AcDbEntity
  8
0_Pen_No__1
  6
Continuous
100
AcDbPolyline
 90
        2
 70
   129
 43
0.0
 10
2417.772461439829
 20
2381.093665165016
 42
0.9999999999999999
 10
2421.772461439829
 20
2381.093665165016
 42
0.9999999999999999
  0
LWPOLYLINE
  5
F2
330
1F
100
AcDbEntity
  8
0_Pen_No__1
  6
Continuous
100
AcDbPolyline
 90
        2
 70
   129
 43
0.0
 10
1777.772461439829
 20
2382.234190486486
 42
0.9999999999999999
 10
1781.772461439829
 20
2382.234190486486
 42
0.9999999999999999
  0
LWPOLYLINE
  5
F3
330
1F
100
AcDbEntity
  8
0_Pen_No__1
  6
Continuous
100
AcDbPolyline
 90
        2
 70
   129
 43
0.0
 10
1217.772461439829
 20
2382.234190486486
 42
0.9999999999999999
 10
1221.772461439829
 20
2382.234190486486
 42
0.9999999999999999
  0
LWPOLYLINE
  5
F4
330
1F
100
AcDbEntity
  8
0_Pen_No__1
  6
Continuous
100
AcDbPolyline
 90
        2
 70
   129
 43
0.0
 10
657.772461439829
 20
2382.234190486486
 42
0.9999999999999999
 10
661.7724614398286
 20
2382.234190486486
 42
0.9999999999999999
  0
LWPOLYLINE
  5
F5
330
1F
100
AcDbEntity
  8
0_Pen_No__1
  6
Continuous
100
AcDbPolyline
 90
        2
 70
   129
 43
0.0
 10
317.7724614398288
 20
2382.234190486486
 42
0.9999999999999999
 10
321.7724614398283
 20
2382.234190486486
 42
0.9999999999999999
  0
LWPOLYLINE
  5
F6
330
1F
100
AcDbEntity
  8
0_Pen_No__1
  6
Continuous
100
AcDbPolyline
 90
        2
 70
   129
 43
0.0
 10
17.77246143982891
 20
2382.234190486486
 42
0.9999999999999999
 10
21.77246143982847
 20
2382.234190486486
 42
0.9999999999999999
  0
LWPOLYLINE
  5
F7
330
1F
100
AcDbEntity
  8
0_Pen_No__1
  6
Continuous
100
AcDbPolyline
 90
        2
 70
   129
 43
0.0
 10
1518.0
 20
2382.234190486486
 42
0.9999999999999999
 10
1522.0
 20
2382.234190486486
 42
0.9999999999999999
  0
LWPOLYLINE
  5
F8
330
1F
100
AcDbEntity
  8
0_Pen_No__1
  6
Continuous
100
AcDbPolyline
 90
        2
 70
   129
 43
0.0
 10
2117.502231183307
 20
2382.234190486486
 42
0.9999999999999999
 10
2121.502231183306
 20
2382.234190486486
 42
0.9999999999999999
  0
LWPOLYLINE
  5
F9
330
1F
100
AcDbEntity
  8
0_Pen_No__1
  6
Continuous
100
AcDbPolyline
 90
        2
 70
   129
 43
0.0
 10
1817.772461439829
 20
2382.234190486486
 42
0.9999999999999999
 10
1821.772461439829
 20
2382.234190486486
 42
0.9999999999999999
  0
LWPOLYLINE
  5
FA
330
1F
100
AcDbEntity
  8
0_Pen_No__1
  6
Continuous
100
AcDbPolyline
 90
        2
 70
   129
 43
0.0
 10
1217.772461439829
 20
2048.574811843161
 42
0.9999999999999999
 10
1221.772461439828
 20
2048.574811843161
 42
0.9999999999999999
  0
LWPOLYLINE
  5
FB
330
1F
100
AcDbEntity
  8
0_Pen_No__1
  6
Continuous
100
AcDbPolyline
 90
        2
 70
   129
 43
0.0
 10
1519.430739569427
 20
997.8335831673763
 42
0.9999999999999999
 10
1523.430739569426
 20
997.8335831673763
 42
0.9999999999999999
  0
LWPOLYLINE
  5
FC
330
1F
100
AcDbEntity
  8
0_Pen_No__1
  6
Continuous
100
AcDbPolyline
 90
        2
 70
   129
 43
0.0
 10
959.4307395694266
 20
997.8335831673766
 42
0.9999999999999999
 10
963.4307395694264
 20
997.8335831673766
 42
0.9999999999999999
  0
LWPOLYLINE
  5
FD
330
1F
100
AcDbEntity
  8
0_Pen_No__1
  6
Continuous
100
AcDbPolyline
 90
        2
 70
   129
 43
0.0
 10
1518.0
 20
2071.553959108488
 42
0.9999999999999999
 10
1522.0
 20
2071.553959108488
 42
0.9999999999999999
  0
LWPOLYLINE
  5
FE
330
1F
100
AcDbEntity
  8
0_Pen_No__1
  6
Continuous
100
AcDbPolyline
 90
        2
 70
   129
 43
0.0
 10
1519.430739569426
 20
22.23419048648534
 42
0.9999999999999999
 10
1523.430739569426
 20
22.23419048648534
 42
0.9999999999999999
  0
LWPOLYLINE
  5
FF
330
1F
100
AcDbEntity
  8
0_Pen_No__1
  6
Continuous
100
AcDbPolyline
 90
        2
 70
   129
 43
0.0
 10
2117.502231183307
 20
22.23419048648534
 42
0.9999999999999999
 10
2121.502231183306
 20
22.23419048648534
 42
0.9999999999999999
  0
LWPOLYLINE
  5
100
330
1F
100
AcDbEntity
  8
0_Pen_No__1
  6
Continuous
100
AcDbPolyline
 90
        2
 70
   129
 43
0.0
 10
938.0000000000001
 20
2382.234190486486
 42
0.9999999999999999
 10
941.9999999999998
 20
2382.234190486486
 42
0.9999999999999999
  0
LWPOLYLINE
  5
101
330
1F
100
AcDbEntity
  8
0_Pen_No__1
  6
Continuous
100
AcDbPolyline
 90
        2
 70
   129
 43
0.0
 10
937.9999999999998
 20
2069.390380935761
 42
0.9999999999999999
 10
941.9999999999993
 20
2069.390380935761
 42
0.9999999999999999
  0
LWPOLYLINE
  5
102
330
1F
100
AcDbEntity
  8
0_Pen_No__1
  6
Continuous
100
AcDbPolyline
 90
        2
 70
   129
 43
0.0
 10
657.7724614398286
 20
2048.574811843161
 42
0.9999999999999999
 10
661.7724614398281
 20
2048.574811843161
 42
0.9999999999999999
  0
LWPOLYLINE
  5
103
330
1F
100
AcDbEntity
  8
0_Pen_No__1
  6
Continuous
100
AcDbPolyline
 90
        2
 70
   129
 43
0.0
 10
1217.772461439829
 20
997.8335831673763
 42
0.9999999999999999
 10
1221.772461439828
 20
997.8335831673763
 42
0.9999999999999999
  0
LWPOLYLINE
  5
104
330
1F
100
AcDbEntity
  8
0_Pen_No__1
  6
Continuous
100
AcDbPolyline
 90
        2
 70
   129
 43
0.0
 10
657.772461439829
 20
1602.234190486485
 42
0.9999999999999999
 10
661.7724614398286
 20
1602.234190486485
 42
0.9999999999999999
  0
LWPOLYLINE
  5
105
330
1F
100
AcDbEntity
  8
0_Pen_No__1
  6
Continuous
100
AcDbPolyline
 90
        2
 70
   129
 43
0.0
 10
657.772461439829
 20
1005.319348750915
 42
0.9999999999999999
 10
661.7724614398286
 20
1005.319348750915
 42
0.9999999999999999
  0
LWPOLYLINE
  5
106
330
1F
100
AcDbEntity
  8
0_Pen_No__1
  6
Continuous
100
AcDbPolyline
 90
        2
 70
   129
 43
0.0
 10
1777.772461439828
 20
1602.234190486485
 42
0.9999999999999999
 10
1781.772461439828
 20
1602.234190486485
 42
0.9999999999999999
  0
LWPOLYLINE
  5
107
330
1F
100
AcDbEntity
  8
0_Pen_No__1
  6
Continuous
100
AcDbPolyline
 90
        2
 70
   129
 43
0.0
 10
1777.772461439829
 20
2048.574811843161
 42
0.9999999999999999
 10
1781.772461439828
 20
2048.574811843161
 42
0.9999999999999999
  0
LWPOLYLINE
  5
108
330
1F
100
AcDbEntity
  8
0_Pen_No__1
  6
Continuous
100
AcDbPolyline
 90
        2
 70
   129
 43
0.0
 10
1777.772461439828
 20
1005.319348750915
 42
0.9999999999999999
 10
1781.772461439828
 20
1005.319348750915
 42
0.9999999999999999
  0
LWPOLYLINE
  5
109
330
1F
100
AcDbEntity
  8
0_Pen_No__1
  6
Continuous
100
AcDbPolyline
 90
        2
 70
   129
 43
0.0
 10
1777.772461439828
 20
1962.476455101373
 42
0.9999999999999999
 10
1781.772461439828
 20
1962.476455101373
 42
0.9999999999999999
  0
LWPOLYLINE
  5
10A
330
1F
100
AcDbEntity
  8
0_Pen_No__1
  6
Continuous
100
AcDbPolyline
 90
        2
 70
   129
 43
0.0
 10
657.772461439829
 20
1964.476455101373
 42
0.9999999999999999
 10
661.7724614398286
 20
1964.476455101373
 42
0.9999999999999999
  0
LWPOLYLINE
  5
10B
330
1F
100
AcDbEntity
  8
0_Pen_No__1
  6
Continuous
100
AcDbPolyline
 90
        2
 70
   129
 43
0.0
 10
1817.772461439828
 20
1602.234190486485
 42
0.9999999999999999
 10
1821.772461439828
 20
1602.234190486485
 42
0.9999999999999999
  0
DIMENSION
  5
118
330
1F
100
AcDbEntity
  8
0
  6
Continuous
100
AcDbDimension
  2
*D1
 10
620.0000000000001
 20
2900.0
 30
0.0
 11
319.9999991078377
 21
2935.000000149011
 31
0.0
 70
   160
  1
<>
 71
     5
 42
-1.0
  3
GENERATED_STYLE__1
100
AcDbAlignedDimension
 13
20.00000000000002
 23
2400.0
 33
0.0
 14
620.0000000000001
 24
2400.0
 34
0.0
100
AcDbRotatedDimension
  0
DIMENSION
  5
12A
330
1F
100
AcDbEntity
  8
0
  6
Continuous
100
AcDbDimension
  2
*D3
 10
1220.0
 20
2900.0
 30
0.0
 11
919.9999991078378
 21
2935.000000149011
 31
0.0
 70
   160
  1
<>
 71
     5
 42
-1.0
  3
GENERATED_STYLE__1
100
AcDbAlignedDimension
 13
620.0000000000001
 23
2400.0
 33
0.0
 14
1220.0
 24
2400.0
 34
0.0
100
AcDbRotatedDimension
  0
DIMENSION
  5
136
330
1F
100
AcDbEntity
  8
0
  6
Continuous
100
AcDbDimension
  2
*D4
 10
1820.0
 20
2900.0
 30
0.0
 11
1519.999999107838
 21
2935.000000149011
 31
0.0
 70
   160
  1
<>
 71
     5
 42
-1.0
  3
GENERATED_STYLE__1
100
AcDbAlignedDimension
 13
1220.0
 23
2400.0
 33
0.0
 14
1820.0
 24
2400.0
 34
0.0
100
AcDbRotatedDimension
  0
DIMENSION
  5
142
330
1F
100
AcDbEntity
  8
0
  6
Continuous
100
AcDbDimension
  2
*D5
 10
2420.0
 20
2900.0
 30
0.0
 11
2119.999999107838
 21
2935.000000149011
 31
0.0
 70
   160
  1
<>
 71
     5
 42
-1.0
  3
GENERATED_STYLE__1
100
AcDbAlignedDimension
 13
1820.0
 23
2400.0
 33
0.0
 14
2420.0
 24
2400.0
 34
0.0
100
AcDbRotatedDimension
  0
DIMENSION
  5
14E
330
1F
100
AcDbEntity
  8
0
  6
Continuous
100
AcDbDimension
  2
*D6
 10
-208.3545138761314
 20
799.9999999999995
 30
0.0
 11
-243.3545140251431
 21
399.9999991078374
 31
0.0
 70
   160
  1
<>
 71
     5
 42
-1.0
 53
90.0
  3
GENERATED_STYLE__2
100
AcDbAlignedDimension
 13
0.0
 23
-0.000000000000222
 33
0.0
 14
0.0
 24
799.9999999999995
 34
0.0
 50
90.0
100
AcDbRotatedDimension
  0
DIMENSION
  5
15B
330
1F
100
AcDbEntity
  8
0
  6
Continuous
100
AcDbDimension
  2
*D7
 10
-208.3545138761314
 20
1600.0
 30
0.0
 11
-243.3545140251431
 21
1199.999999107837
 31
0.0
 70
   160
  1
<>
 71
     5
 42
-1.0
 53
90.0
  3
GENERATED_STYLE__2
100
AcDbAlignedDimension
 13
0.0
 23
799.9999999999995
 33
0.0
 14
0.0
 24
1600.0
 34
0.0
 50
90.0
100
AcDbRotatedDimension
  0
DIMENSION
  5
167
330
1F
100
AcDbEntity
  8
0
  6
Continuous
100
AcDbDimension
  2
*D8
 10
-208.3545138761314
 20
2400.0
 30
0.0
 11
-243.3545140251431
 21
1999.999999107837
 31
0.0
 70
   160
  1
<>
 71
     5
 42
-1.0
 53
90.0
  3
GENERATED_STYLE__2
100
AcDbAlignedDimension
 13
0.0
 23
1600.0
 33
0.0
 14
0.0
 24
2400.0
 34
0.0
 50
90.0
100
AcDbRotatedDimension
  0
DIMENSION
  5
173
330
1F
100
AcDbEntity
  8
0
  6
Continuous
100
AcDbDimension
  2
*D9
 10
1859.772461439829
 20
1911.641138042544
 30
0.0
 11
1952.808633265051
 21
1946.641137670015
 31
0.0
 70
   160
  1
<>
 71
     5
 42
-1.0
  3
GENERATED_STYLE__3
100
AcDbAlignedDimension
 13
1760.0
 23
1979.790992240276
 33
0.0
 14
1859.772461439829
 24
1980.0
 34
0.0
100
AcDbRotatedDimension
  0
DIMENSION
  5
180
330
1F
100
AcDbEntity
  8
0
  6
Continuous
100
AcDbDimension
  2
*D10
 10
680.0000000000001
 20
1906.094124834836
 30
0.0
 11
510.4841580739976
 21
1941.094124983847
 31
0.0
 70
   160
  1
<>
 71
     5
 42
-1.0
  3
GENERATED_STYLE__4
100
AcDbAlignedDimension
 13
579.7724614398285
 23
1980.0
 33
0.0
 14
680.0000000000001
 24
1980.879833972145
 34
0.0
100
AcDbRotatedDimension
  0
WIPEOUT
  5
182
330
1F
100
AcDbEntity
  8
Key_ Sections_Pen_No__1
  6
Wipeout_Contour
 48
11296.52888785449
 92
      296
310
28010000060000000C0000000E000000120000000C00000016000000000000C20C00000014000000010000006C0000000700000004000000F2B52100171FA2403E0AD7A3707D71C0000000000000000025E95433CA27A9403E0AD7A3707D71C0000000000000000025E95433CA27A940E27A14AE478186C000000000000000
310
00F2B52100171FA240E27A14AE478186C000000000000000000C0000000E00000007000000840000000600000005000000F2B52100171FA2403E0AD7A3707D71C0000000000000000025E95433CA27A9403E0AD7A3707D71C0000000000000000025E95433CA27A940E27A14AE478186C00000000000000000F2B52100171F
310
A240E27A14AE478186C00000000000000000F2B52100171FA2403E0AD7A3707D71C00000000000000000
100
AcDbWipeout
 90
        0
 10
2319.544922879658
 20
-720.1600000000001
 30
0.0
 11
900.3499999999999
 21
0.0
 31
0.0
 12
0.0
 22
440.32
 32
0.0
 13
1.0
 23
1.0
340
0
 70
    15
280
     1
281
    50
282
    50
283
     0
360
0
 71
     2
 91
        5
 14
-0.5000000000000002
 24
-0.5000000000000001
 14
0.4999999999999997
 24
-0.5000000000000001
 14
0.4999999999999997
 24
0.4999999999999999
 14
-0.5000000000000002
 24
0.4999999999999999
 14
-0.5000000000000002
 24
-0.5000000000000001
  0
MTEXT
  5
185
102
{ACAD_REACTORS
330
186
102
}
330
1F
100
AcDbEntity
  8
Key_ Sections_Pen_No__1
  6
Continuous
100
AcDbMText
 10
2339.544922879658
 20
-503.6116578789046
 30
0.0
 40
50.00000000000001
 41
860.3499999999999
 71
     4
 72
     1
  1
{100mm max long cavity \Ppackers at 300crs 5° slope,\PVertical packers at the same\Pcentres if fixing allows \P(eg. over timber subfloor)}
  7
GENERATED_STYLE_1
 73
     1
 44
0.7630815629182144
  0
LEADER
  5
186
330
1F
100
AcDbEntity
  8
Key_ Sections_Pen_No__1
  6
Continuous
100
AcDbLeader
  3
GENERATED_STYLE__5
 72
     1
 73
     0
 74
     0
 40
384.9505061854673
 41
831.7000000000002
 76
     3
 10
2119.544922879657
 20
5.169896103499383
 30
0.0
 10
2205.994632409672
 20
-465.7740058555261
 30
0.0
 10
2339.454922879658
 20
-503.6116578789046
 30
0.0
340
185
  0
WIPEOUT
  5
18D
330
1F
100
AcDbEntity
  8
Key_ Sections_Pen_No__1
  6
Wipeout_Contour
 48
5307.662189811718
 92
      296
310
28010000060000000C0000000E000000120000000C00000016000000000000C20C00000014000000010000006C00000007000000040000003807692CBC56764054B81E85EBF96DC00000000000000000DA7BDCFB114F9E4054B81E85EBF96DC00000000000000000DA7BDCFB114F9E40EB51B81E85C187C000000000000000
310
003807692CBC567640EB51B81E85C187C000000000000000000C0000000E000000070000008400000006000000050000003807692CBC56764054B81E85EBF96DC00000000000000000DA7BDCFB114F9E4054B81E85EBF96DC00000000000000000DA7BDCFB114F9E40EB51B81E85C187C000000000000000003807692CBC56
310
7640EB51B81E85C187C000000000000000003807692CBC56764054B81E85EBF96DC00000000000000000
100
AcDbWipeout
 90
        0
 10
357.4209407904305
 20
-760.1899999999999
 30
0.0
 11
1582.346621546548
 21
0.0
 31
0.0
 12
0.0
 22
520.3799999999999
 32
0.0
 13
1.0
 23
1.0
340
0
 70
    15
280
     1
281
    50
282
    50
283
     0
360
0
 71
     2
 91
        5
 14
-0.5
 24
-0.5
 14
0.5
 24
-0.5
 14
0.5
 24
0.5
 14
-0.5
 24
0.5
 14
-0.5
 24
-0.5
  0
MTEXT
  5
18E
102
{ACAD_REACTORS
330
18F
102
}
330
1F
100
AcDbEntity
  8
Key_ Sections_Pen_No__1
  6
Continuous
100
AcDbMText
 10
377.4209407904306
 20
-503.5960009200592
 30
0.0
 40
50.0
 41
1542.346621546548
 71
     4
 72
     1
  3
{Where cavity battens are installed at greater than 450 centres polypropylene tape installed at 300mm horizontal intervals or 75mm galv mesh must be used to provide intermediate support to insulation between studs. Alternatively, an additional cavit
  1
y batten can be installed}
  7
GENERATED_STYLE_1
 73
     1
 44
0.9592592171803398
  0
LEADER
  5
18F
330
1F
100
AcDbEntity
  8
Key_ Sections_Pen_No__1
  6
Continuous
100
AcDbLeader
  3
GENERATED_STYLE__5
 72
     1
 73
     0
 74
     0
 40
464.7250441786804
 41
1514.95
 76
     3
 10
157.4209407904302
 20
0.0000000000000022
 30
0.0
 10
243.6278373421547
 20
-465.5172413793103
 30
0.0
 10
377.3309407904306
 20
-503.5960009200592
 30
0.0
340
18E
  0
WIPEOUT
  5
190
330
1F
100
AcDbEntity
  8
Key_ Sections_Pen_No__1
  6
Wipeout_Contour
 48
12400.90570180804
 92
      296
310
28010000060000000C0000000E000000120000000C00000016000000000000C20C00000014000000010000006C0000000700000004000000F0B521001767A540BCE8F32488F16F4000000000000000007F78172973F3AA40BCE8F32488F16F4000000000000000007F78172973F3AA408065C5BC7CB54B4000000000000000
310
00F0B521001767A5408065C5BC7CB54B4000000000000000000C0000000E00000007000000840000000600000005000000F0B521001767A540BCE8F32488F16F4000000000000000007F78172973F3AA40BCE8F32488F16F4000000000000000007F78172973F3AA408065C5BC7CB54B400000000000000000F0B521001767
310
A5408065C5BC7CB54B400000000000000000F0B521001767A540BCE8F32488F16F400000000000000000
100
AcDbWipeout
 90
        0
 10
2739.544922879657
 20
55.41786918295383
 30
0.0
 11
710.1799999999998
 21
0.0
 31
0.0
 12
0.0
 22
200.13
 32
0.0
 13
1.0
 23
1.0
340
0
 70
    15
280
     1
281
    50
282
    50
283
     0
360
0
 71
     2
 91
        5
 14
-0.5000000000000003
 24
-0.5000000000000001
 14
0.4999999999999997
 24
-0.5000000000000001
 14
0.4999999999999997
 24
0.4999999999999999
 14
-0.5000000000000003
 24
0.4999999999999999
 14
-0.5000000000000003
 24
-0.5000000000000001
  0
MTEXT
  5
191
102
{ACAD_REACTORS
330
192
102
}
330
1F
100
AcDbEntity
  8
Key_ Sections_Pen_No__1
  6
Continuous
100
AcDbMText
 10
2759.544922879657
 20
151.8878118560848
 30
0.0
 40
50.00000000000001
 41
670.18
 71
     4
 72
     1
  1
{Refer to NZS3604 for \PWall framing layout. }
  7
GENERATED_STYLE_1
 73
     1
 44
0.9387880218479001
  0
LEADER
  5
192
330
1F
100
AcDbEntity
  8
Key_ Sections_Pen_No__1
  6
Continuous
100
AcDbLeader
  3
GENERATED_STYLE__5
 72
     1
 73
     0
 74
     0
 40
144.5303049725624
 41
658.7500000000002
 76
     2
 10
1840.0
 20
155.4828691829539
 30
0.0
 10
2759.454922879657
 20
151.8878118560848
 30
0.0
340
191
  0
WIPEOUT
  5
193
330
1F
100
AcDbEntity
  8
Key_ Sections_Pen_No__1
  6
Wipeout_Contour
 48
12469.79819427405
 92
      296
310
28010000060000000C0000000E000000120000000C00000016000000000000C20C00000014000000010000006C0000000700000004000000F0B521001767A5402526997789988B4000000000000000008A4FBB9930F6A9402526997789988B4000000000000000008A4FBB9930F6A94077DEB7FC7456804000000000000000
310
00F0B521001767A54077DEB7FC7456804000000000000000000C0000000E00000007000000840000000600000005000000F0B521001767A5402526997789988B4000000000000000008A4FBB9930F6A9402526997789988B4000000000000000008A4FBB9930F6A94077DEB7FC745680400000000000000000F0B521001767
310
A54077DEB7FC745680400000000000000000F0B521001767A5402526997789988B400000000000000000
100
AcDbWipeout
 90
        0
 10
2739.544922879657
 20
522.8071226467863
 30
0.0
 11
583.5500000000002
 21
0.0
 31
0.0
 12
0.0
 22
360.26
 32
0.0
 13
1.0
 23
1.0
340
0
 70
    15
280
     1
281
    50
282
    50
283
     0
360
0
 71
     2
 91
        5
 14
-0.5
 24
-0.5
 14
0.5
 24
-0.5
 14
0.5
 24
0.5
 14
-0.5
 24
0.5
 14
-0.5
 24
-0.5
  0
MTEXT
  5
194
102
{ACAD_REACTORS
330
195
102
}
330
1F
100
AcDbEntity
  8
Key_ Sections_Pen_No__1
  6
Continuous
100
AcDbMText
 10
2759.544922879657
 20
706.1155220947508
 30
0.0
 40
50.0
 41
543.55
 71
     4
 72
     1
  1
{100mm max long \Ppackers required \Pto maintain fixing \Pat 300crs.  }
  7
GENERATED_STYLE_1
 73
     1
 44
0.9560029611238396
  0
LEADER
  5
195
330
1F
100
AcDbEntity
  8
Key_ Sections_Pen_No__1
  6
Continuous
100
AcDbLeader
  3
GENERATED_STYLE__5
 72
     1
 73
     0
 74
     0
 40
291.05454339014
 41
523.0000000000001
 76
     3
 10
1523.359247955546
 20
977.6832308664093
 30
0.0
 10
1552.886040543296
 20
833.6398372525592
 30
0.0
 10
2759.454922879657
 20
706.1155220947508
 30
0.0
340
194
  0
WIPEOUT
  5
196
330
1F
100
AcDbEntity
  8
Key_ Sections_Pen_No__1
  6
Wipeout_Contour
 48
13293.69567750395
 92
      296
310
28010000060000000C0000000E000000120000000C00000016000000000000C20C00000014000000010000006C0000000700000004000000F0B521001767A54002BD79364D1F96400000000000000000436E40850218AB4002BD79364D1F96400000000000000000436E40850218AB402CD6822F90FB8B4000000000000000
310
00F0B521001767A5402CD6822F90FB8B4000000000000000000C0000000E00000007000000840000000600000005000000F0B521001767A54002BD79364D1F96400000000000000000436E40850218AB4002BD79364D1F96400000000000000000436E40850218AB402CD6822F90FB8B400000000000000000F0B521001767
310
A5402CD6822F90FB8B400000000000000000F0B521001767A54002BD79364D1F96400000000000000000
100
AcDbWipeout
 90
        0
 10
2739.544922879657
 20
895.4454031201944
 30
0.0
 11
728.4600000000005
 21
0.0
 31
0.0
 12
0.0
 22
520.3800000000001
 32
0.0
 13
1.0
 23
1.0
340
0
 70
    15
280
     1
281
    50
282
    50
283
     0
360
0
 71
     2
 91
        5
 14
-0.5000000000000003
 24
-0.5
 14
0.4999999999999997
 24
-0.5
 14
0.4999999999999997
 24
0.5
 14
-0.5000000000000003
 24
0.5
 14
-0.5000000000000003
 24
-0.5
  0
MTEXT
  5
197
102
{ACAD_REACTORS
330
198
102
}
330
1F
100
AcDbEntity
  8
Key_ Sections_Pen_No__1
  6
Continuous
100
AcDbMText
 10
2759.544922879657
 20
1158.84511648585
 30
0.0
 40
50.0
 41
688.4599999999999
 71
     4
 72
     1
  1
{No horizontal packers\Por vertical battens to \Pbe located closer than \P100mm to edge of \Popening under the \Pwindow}
  7
GENERATED_STYLE_1
 73
     1
 44
0.9587734659022071
  0
LEADER
  5
198
330
1F
100
AcDbEntity
  8
Key_ Sections_Pen_No__1
  6
Continuous
100
AcDbLeader
  3
GENERATED_STYLE__5
 72
     1
 73
     0
 74
     0
 40
451.1039015719365
 41
673.4000000000001
 76
     3
 10
1709.544922879657
 20
1005.635403120195
 30
0.0
 10
1977.350203478002
 20
1100.718141474177
 30
0.0
 10
2759.454922879657
 20
1158.84511648585
 30
0.0
340
197
  0
WIPEOUT
  5
199
330
1F
100
AcDbEntity
  8
Key_ Sections_Pen_No__1
  6
Wipeout_Contour
 48
14091.24265893077
 92
      296
310
28010000060000000C0000000E000000120000000C00000016000000000000C20C00000014000000010000006C0000000700000004000000F1B521001767A54073D5E49F96399C400000000000000000103B0D524FAAAA4073D5E49F96399C400000000000000000103B0D524FAAAA4088832C811119994000000000000000
310
00F1B521001767A54088832C811119994000000000000000000C0000000E00000007000000840000000600000005000000F1B521001767A54073D5E49F96399C400000000000000000103B0D524FAAAA4073D5E49F96399C400000000000000000103B0D524FAAAA4088832C81111999400000000000000000F1B521001767
310
A54088832C81111999400000000000000000F1B521001767A54073D5E49F96399C400000000000000000
100
AcDbWipeout
 90
        0
 10
2739.544922879657
 20
1606.267094321754
 30
0.0
 11
673.6100000000001
 21
0.0
 31
0.0
 12
0.0
 22
200.1299999999999
 32
0.0
 13
1.0
 23
1.0
340
0
 70
    15
280
     1
281
    50
282
    50
283
     0
360
0
 71
     2
 91
        5
 14
-0.4999999999999997
 24
-0.4999999999999994
 14
0.5000000000000003
 24
-0.4999999999999994
 14
0.5000000000000003
 24
0.5000000000000006
 14
-0.4999999999999997
 24
0.5000000000000006
 14
-0.4999999999999997
 24
-0.4999999999999994
  0
MTEXT
  5
19A
102
{ACAD_REACTORS
330
19B
102
}
330
1F
100
AcDbEntity
  8
Key_ Sections_Pen_No__1
  6
Continuous
100
AcDbMText
 10
2759.544922879657
 20
1702.737036994885
 30
0.0
 40
50.00000000000001
 41
633.61
 71
     4
 72
     1
  1
{Window head closer \Pwith flashing tape}
  7
GENERATED_STYLE_1
 73
     1
 44
0.948238907973886
  0
LEADER
  5
19B
330
1F
100
AcDbEntity
  8
Key_ Sections_Pen_No__1
  6
Continuous
100
AcDbLeader
  3
GENERATED_STYLE__5
 72
     1
 73
     0
 74
     0
 40
144.5199089978238
 41
628.4500000000002
 76
     3
 10
1219.772461439829
 20
2006.332094321754
 30
0.0
 10
1248.271658521457
 20
1850.706410647773
 30
0.0
 10
2759.454922879657
 20
1702.737036994885
 30
0.0
340
19A
  0
WIPEOUT
  5
19C
330
1F
100
AcDbEntity
  8
Key_ Sections_Pen_No__1
  6
Wipeout_Contour
 48
15223.1824395004
 92
      296
310
28010000060000000C0000000E000000120000000C00000016000000000000C20C00000014000000010000006C0000000700000004000000F1B521001767A5407B14AE472148A2400000000000000000D23036AEDE8EAA407B14AE472148A2400000000000000000D23036AEDE8EAA4085EB51B8DEB7A04000000000000000
310
00F1B521001767A54085EB51B8DEB7A04000000000000000000C0000000E00000007000000840000000600000005000000F1B521001767A5407B14AE472148A2400000000000000000D23036AEDE8EAA407B14AE472148A2400000000000000000D23036AEDE8EAA4085EB51B8DEB7A0400000000000000000F1B521001767
310
A54085EB51B8DEB7A0400000000000000000F1B521001767A5407B14AE472148A2400000000000000000
100
AcDbWipeout
 90
        0
 10
2739.544922879657
 20
2139.935
 30
0.0
 11
659.8899999999999
 21
0.0
 31
0.0
 12
0.0
 22
200.1300000000001
 32
0.0
 13
1.0
 23
1.0
340
0
 70
    15
280
     1
281
    50
282
    50
283
     0
360
0
 71
     2
 91
        5
 14
-0.5000000000000003
 24
-0.5
 14
0.4999999999999997
 24
-0.5
 14
0.4999999999999997
 24
0.5
 14
-0.5000000000000003
 24
0.5
 14
-0.5000000000000003
 24
-0.5
  0
MTEXT
  5
19D
102
{ACAD_REACTORS
330
19E
102
}
330
1F
100
AcDbEntity
  8
Key_ Sections_Pen_No__1
  6
Continuous
100
AcDbMText
 10
2759.544922879657
 20
2243.193514101702
 30
0.0
 40
50.00000000000001
 41
619.8900000000001
 71
     4
 72
     1
  1
{Cavity battens at \P600mm centres max}
  7
GENERATED_STYLE_1
 73
     1
 44
0.4774354642186573
  0
LEADER
  5
19E
330
1F
100
AcDbEntity
  8
Key_ Sections_Pen_No__1
  6
Continuous
100
AcDbLeader
  3
GENERATED_STYLE__5
 72
     1
 73
     0
 74
     0
 40
130.8738846072058
 41
515.8000000000001
 76
     2
 10
1839.544922879657
 20
2240.0
 30
0.0
 10
2759.454922879657
 20
2243.193514101702
 30
0.0
340
19D
  0
WIPEOUT
  5
19F
330
1F
100
AcDbEntity
  8
Key_ Sections_Pen_No__1
  6
Wipeout_Contour
 48
13165.68959683293
 92
      296
310
28010000060000000C0000000E000000120000000C00000016000000000000C20C00000014000000010000006C00000007000000040000003D52B04A664F9840A79BC4201090A54000000000000000007BB81A1B5CFBA040A79BC4201090A54000000000000000007BB81A1B5CFBA0405B643BDFEF9FA44000000000000000
310
003D52B04A664F98405B643BDFEF9FA44000000000000000000C0000000E000000070000008400000006000000050000003D52B04A664F9840A79BC4201090A54000000000000000007BB81A1B5CFBA040A79BC4201090A54000000000000000007BB81A1B5CFBA0405B643BDFEF9FA44000000000000000003D52B04A664F
310
98405B643BDFEF9FA44000000000000000003D52B04A664F9840A79BC4201090A5400000000000000000
100
AcDbWipeout
 90
        0
 10
1555.849894289989
 20
2639.9685
 30
0.0
 11
617.8300000000002
 21
0.0
 31
0.0
 12
0.0
 22
120.0630000000001
 32
0.0
 13
1.0
 23
1.0
340
0
 70
    15
280
     1
281
    50
282
    50
283
     0
360
0
 71
     2
 91
        5
 14
-0.5000000000000002
 24
-0.5
 14
0.4999999999999998
 24
-0.5
 14
0.4999999999999998
 24
0.5
 14
-0.5000000000000002
 24
0.5
 14
-0.5000000000000002
 24
-0.5
  0
MTEXT
  5
1A0
102
{ACAD_REACTORS
330
1A1
102
}
330
1F
100
AcDbEntity
  8
Key_ Sections_Pen_No__1
  6
Continuous
100
AcDbMText
 10
1575.849894289989
 20
2696.402928571429
 30
0.0
 40
50.0
 41
577.8299999999999
 71
     4
 72
     1
  1
{Batten fixing points}
  7
GENERATED_STYLE_1
 73
     1
 44
1.0
  0
LEADER
  5
1A1
330
1F
100
AcDbEntity
  8
Key_ Sections_Pen_No__1
  6
Continuous
100
AcDbLeader
  3
GENERATED_STYLE__5
 72
     1
 73
     0
 74
     0
 40
148.0333333333333
 41
374.3
 76
     3
 10
1270.0
 20
2379.603832733561
 30
0.0
 10
1411.529841879634
 20
2650.323665640682
 30
0.0
 10
1575.759894289989
 20
2696.402928571429
 30
0.0
340
1A0
  0
WIPEOUT
  5
1A2
330
1F
100
AcDbEntity
  8
Key_ Sections_Pen_No__1
  6
Wipeout_Contour
 48
11539.97596765282
 92
      296
310
28010000060000000C0000000E000000120000000C00000016000000000000C20C00000014000000010000006C0000000700000004000000157DBE6E57508040A49BC4201090A5400000000000000000FC7B698ECF219540A49BC4201090A5400000000000000000FC7B698ECF21954059643BDFEF9FA44000000000000000
310
00157DBE6E5750804059643BDFEF9FA44000000000000000000C0000000E00000007000000840000000600000005000000157DBE6E57508040A49BC4201090A5400000000000000000FC7B698ECF219540A49BC4201090A5400000000000000000FC7B698ECF21954059643BDFEF9FA4400000000000000000157DBE6E5750
310
804059643BDFEF9FA4400000000000000000157DBE6E57508040A49BC4201090A5400000000000000000
100
AcDbWipeout
 90
        0
 10
522.0426916963503
 20
2639.968499999999
 30
0.0
 11
830.4100000000002
 21
0.0
 31
0.0
 12
0.0
 22
120.0629999999996
 32
0.0
 13
1.0
 23
1.0
340
0
 70
    15
280
     1
281
    50
282
    50
283
     0
360
0
 71
     2
 91
        5
 14
-0.4999999999999999
 24
-0.5000000000000019
 14
0.5000000000000001
 24
-0.5000000000000019
 14
0.5000000000000001
 24
0.4999999999999981
 14
-0.4999999999999999
 24
0.4999999999999981
 14
-0.4999999999999999
 24
-0.5000000000000019
  0
MTEXT
  5
1A3
102
{ACAD_REACTORS
330
1A4
102
}
330
1F
100
AcDbEntity
  8
Key_ Sections_Pen_No__1
  6
Continuous
100
AcDbMText
 10
542.0426916963503
 20
2703.208642857142
 30
0.0
 40
50.0
 41
790.41
 71
     4
 72
     1
  1
{Horizontal battens at soffit}
  7
GENERATED_STYLE_1
 73
     1
 44
1.0
  0
LEADER
  5
1A4
330
1F
100
AcDbEntity
  8
Key_ Sections_Pen_No__1
  6
Continuous
100
AcDbLeader
  3
GENERATED_STYLE__5
 72
     1
 73
     0
 74
     0
 40
134.9833333333333
 41
633.95
 76
     3
 10
322.0426916963501
 20
2400.0
 30
0.0
 10
391.2734609271193
 20
2653.846153846153
 30
0.0
 10
541.9526916963503
 20
2703.208642857142
 30
0.0
340
1A3
  0
WIPEOUT
  5
1A5
330
1F
100
AcDbEntity
  8
Key_ Sections_Pen_No__1
  6
Wipeout_Contour
 48
12130.63832472693
 92
      296
310
28010000060000000C0000000E000000120000000C00000016000000000000C20C00000014000000010000006C0000000700000004000000F0B521001767A540027AF36C9ABD804000000000000000008A4FBB993076A940027AF36C9ABD804000000000000000008A4FBB993076A94056AC055F20F9744000000000000000
310
00F0B521001767A54056AC055F20F9744000000000000000000C0000000E00000007000000840000000600000005000000F0B521001767A540027AF36C9ABD804000000000000000008A4FBB993076A940027AF36C9ABD804000000000000000008A4FBB993076A94056AC055F20F974400000000000000000F0B521001767
310
A54056AC055F20F974400000000000000000F0B521001767A540027AF36C9ABD80400000000000000000
100
AcDbWipeout
 90
        0
 10
2739.544922879657
 20
335.5704031201943
 30
0.0
 11
519.5500000000002
 21
0.0
 31
0.0
 12
0.0
 22
200.13
 32
0.0
 13
1.0
 23
1.0
340
0
 70
    15
280
     1
281
    50
282
    50
283
     0
360
0
 71
     2
 91
        5
 14
-0.5
 24
-0.5
 14
0.5
 24
-0.5
 14
0.5
 24
0.5
 14
-0.5
 24
0.5
 14
-0.5
 24
-0.5
  0
MTEXT
  5
1A6
102
{ACAD_REACTORS
330
1A7
102
}
330
1F
100
AcDbEntity
  8
Key_ Sections_Pen_No__1
  6
Continuous
100
AcDbMText
 10
2759.544922879657
 20
432.434631507611
 30
0.0
 40
50.00000000000001
 41
479.55
 71
     4
 72
     1
  1
{WANZ Window \Psupport bar}
  7
GENERATED_STYLE_1
 73
     1
 44
0.9580130071785901
  0
LEADER
  5
1A7
330
1F
100
AcDbEntity
  8
Key_ Sections_Pen_No__1
  6
Continuous
100
AcDbLeader
  3
GENERATED_STYLE__5
 72
     1
 73
     0
 74
     0
 40
143.6844172648825
 41
471.7000000000001
 76
     3
 10
1356.521306648504
 20
1010.074469739988
 30
0.0
 10
1458.265506299446
 20
680.5954678313308
 30
0.0
 10
2759.454922879657
 20
432.434631507611
 30
0.0
340
1A6
  0
MTEXT
  5
1A8
330
1F
100
AcDbEntity
  8
0_Pen_No__1
  6
Continuous
100
AcDbMText
 10
-133.026518687066
 20
58.05617629593536
 30
0.0
 40
50.0
 41
0.0
 71
     4
 72
     1
  1
{maximum nog spacing}
  7
GENERATED_STYLE_1
 11
6.123233995736766E-17
 21
1.0
 31
0.0
 73
     1
 44
1.0
  0
MTEXT
  5
1A9
330
1F
100
AcDbEntity
  8
0_Pen_No__1
  6
Continuous
100
AcDbMText
 10
133.4853761730016
 20
2843.177142857142
 30
0.0
 40
50.0
 41
0.0
 71
     4
 72
     1
  1
{stud centres}
  7
GENERATED_STYLE_1
 73
     1
 44
1.0
  0
MTEXT
  5
1AA
330
1F
100
AcDbEntity
  8
0_Pen_No__1
  6
Continuous
100
AcDbMText
 10
1449.828566072551
 20
2161.748755286801
 30
0.0
 40
50.0
 41
0.0
 71
     4
 72
     1
  1
{lintel}
  7
GENERATED_STYLE_1
 73
     1
 44
1.0
  0
LWPOLYLINE
  5
1AB
330
1F
100
AcDbEntity
  8
0_Pen_No__1
  6
Continuous
100
AcDbPolyline
 90
        4
 70
   129
 43
0.0
 10
2578.630360743224
 20
2899.999723701425
 10
3453.374545049023
 20
2899.999723701425
 10
3453.374545049023
 20
2624.28522690635
 10
2578.630360743224
 20
2624.28522690635
  0
MTEXT
  5
1AC
330
1F
100
AcDbEntity
  8
0_Pen_No__1
  6
Continuous
100
AcDbMText
 10
2598.630360743224
 20
2764.605437987138
 30
0.0
 40
49.99999999999999
 41
0.0
 71
     4
 72
     1
  1
{For wind zones above very \Phigh a rigid sheathing \Pmust be installed}
  7
GENERATED_STYLE_1
 73
     1
 44
0.9427924942289672
  0
ENDSEC
  0
SECTION
  2
OBJECTS
  0
DICTIONARY
  5
C
330
0
100
AcDbDictionary
281
     1
  3
ACAD_GROUP
350
D
  3
ACAD_LAYOUT
350
1A
  3
ACAD_MATERIAL
350
3B
  3
ACAD_MLEADERSTYLE
350
1FD
  3
ACAD_MLINESTYLE
350
17
  3
ACAD_PLOTSETTINGS
350
19
  3
ACAD_PLOTSTYLENAME
350
E
  3
ACAD_SCALELIST
350
1B0
  3
ACAD_TABLESTYLE
350
1FC
  3
ACAD_VISUALSTYLE
350
2A
  3
AcDbVariableDictionary
350
1D4
  3
WATERMARKS
350
1D2
  0
DICTIONARY
  5
D
102
{ACAD_REACTORS
330
C
102
}
330
C
100
AcDbDictionary
281
     1
  0
DICTIONARY
  5
1A
102
{ACAD_REACTORS
330
C
102
}
330
C
100
AcDbDictionary
281
     1
  3
Layout1
350
1E
  3
Layout2
350
26
  3
Model
350
22
  0
DICTIONARY
  5
3B
102
{ACAD_REACTORS
330
C
102
}
330
C
100
AcDbDictionary
281
     1
  3
ByBlock
350
3D
  3
ByLayer
350
3C
  3
Global
350
3E
  0
DICTIONARY
  5
1FD
102
{ACAD_REACTORS
330
C
102
}
330
C
100
AcDbDictionary
281
     1
  0
DICTIONARY
  5
17
102
{ACAD_REACTORS
330
C
102
}
330
C
100
AcDbDictionary
281
     1
  3
Standard
350
18
  0
DICTIONARY
  5
19
102
{ACAD_REACTORS
330
C
102
}
330
C
100
AcDbDictionary
281
     1
  0
ACDBDICTIONARYWDFLT
  5
E
102
{ACAD_REACTORS
330
C
102
}
330
C
100
AcDbDictionary
281
     1
  3
Normal
350
F
100
AcDbDictionaryWithDefault
340
F
  0
DICTIONARY
  5
1B0
102
{ACAD_REACTORS
330
C
102
}
330
C
100
AcDbDictionary
281
     1
  3
A0
350
1B1
  3
A1
350
1B2
  3
A2
350
1B3
  3
A3
350
1B4
  3
A4
350
1B5
  3
A5
350
1B6
  3
A6
350
1B7
  3
A7
350
1B8
  3
A8
350
1B9
  3
A9
350
1BA
  3
B0
350
1BB
  3
B1
350
1BC
  3
B2
350
1BD
  3
B3
350
1BE
  3
B4
350
1BF
  3
B5
350
1C0
  3
B6
350
1C1
  3
B7
350
1C2
  3
B8
350
1C3
  3
B9
350
1C4
  3
C0
350
1C5
  3
C1
350
1C6
  3
C2
350
1C7
  3
C3
350
1C8
  3
C4
350
1C9
  3
C5
350
1CA
  3
C6
350
1CB
  3
C7
350
1CC
  3
C8
350
1CD
  3
C9
350
1CE
  3
D0
350
1CF
  3
D1
350
1D0
  3
D2
350
1D1
  0
DICTIONARY
  5
1FC
102
{ACAD_REACTORS
330
C
102
}
330
C
100
AcDbDictionary
281
     1
  0
DICTIONARY
  5
2A
102
{ACAD_REACTORS
330
C
102
}
330
C
100
AcDbDictionary
281
     1
  3
2dWireframe
350
2F
  3
3D Hidden
350
31
  3
3dWireframe
350
30
  3
Basic
350
32
  3
Brighten
350
36
  3
ColorChange
350
3A
  3
Conceptual
350
34
  3
Dim
350
35
  3
Facepattern
350
39
  3
Flat
350
2B
  3
FlatWithEdges
350
2C
  3
Gouraud
350
2D
  3
GouraudWithEdges
350
2E
  3
Linepattern
350
38
  3
Realistic
350
33
  3
Thicken
350
37
  0
DICTIONARY
  5
1D4
102
{ACAD_REACTORS
330
C
102
}
330
C
100
AcDbDictionary
281
     1
  3
CANNOSCALE
350
1D5
  3
XCLIPFRAME
350
1FE
  0
DICTIONARY
  5
1D2
102
{ACAD_REACTORS
330
C
102
}
330
C
100
AcDbDictionary
281
     1
  3
AC_WATERMARK
350
1D3
  0
LAYOUT
  5
1E
102
{ACAD_REACTORS
330
1A
102
}
330
1A
100
AcDbPlotSettings
  1

  2
none_device
  4

  6

 40
0.0
 41
0.0
 42
0.0
 43
0.0
 44
0.0
 45
0.0
 46
0.0
 47
0.0
 48
0.0
 49
0.0
140
0.0
141
0.0
142
1.0
143
1.0
 70
   688
 72
     0
 73
     0
 74
     5
  7

 75
    16
 76
     0
 77
     2
 78
   300
147
1.0
148
0.0
149
0.0
100
AcDbLayout
  1
Layout1
 70
     1
 71
     1
 10
0.0
 20
0.0
 11
12.0
 21
9.0
 12
0.0
 22
0.0
 32
0.0
 14
1.000000000000000E+20
 24
1.000000000000000E+20
 34
1.000000000000000E+20
 15
-1.000000000000000E+20
 25
-1.000000000000000E+20
 35
-1.000000000000000E+20
146
0.0
 13
0.0
 23
0.0
 33
0.0
 16
1.0
 26
0.0
 36
0.0
 17
0.0
 27
1.0
 37
0.0
 76
     0
330
1B
  0
LAYOUT
  5
26
102
{ACAD_REACTORS
330
1A
102
}
330
1A
100
AcDbPlotSettings
  1

  2
none_device
  4

  6

 40
0.0
 41
0.0
 42
0.0
 43
0.0
 44
0.0
 45
0.0
 46
0.0
 47
0.0
 48
0.0
 49
0.0
140
0.0
141
0.0
142
1.0
143
1.0
 70
   688
 72
     0
 73
     0
 74
     5
  7

 75
    16
 76
     0
 77
     2
 78
   300
147
1.0
148
0.0
149
0.0
100
AcDbLayout
  1
Layout2
 70
     1
 71
     2
 10
0.0
 20
0.0
 11
0.0
 21
0.0
 12
0.0
 22
0.0
 32
0.0
 14
0.0
 24
0.0
 34
0.0
 15
0.0
 25
0.0
 35
0.0
146
0.0
 13
0.0
 23
0.0
 33
0.0
 16
1.0
 26
0.0
 36
0.0
 17
0.0
 27
1.0
 37
0.0
 76
     0
330
23
  0
LAYOUT
  5
22
102
{ACAD_REACTORS
330
1A
102
}
330
1A
100
AcDbPlotSettings
  1

  2
none_device
  4

  6

 40
0.0
 41
0.0
 42
0.0
 43
0.0
 44
0.0
 45
0.0
 46
0.0
 47
0.0
 48
0.0
 49
0.0
140
0.0
141
0.0
142
1.0
143
1.0
 70
  1712
 72
     0
 73
     0
 74
     0
  7

 75
     0
 76
     0
 77
     2
 78
   300
147
1.0
148
0.0
149
0.0
100
AcDbLayout
  1
Model
 70
     1
 71
     0
 10
0.0
 20
0.0
 11
12.0
 21
9.0
 12
0.0
 22
0.0
 32
0.0
 14
1.000000000000000E+20
 24
1.000000000000000E+20
 34
1.000000000000000E+20
 15
-1.000000000000000E+20
 25
-1.000000000000000E+20
 35
-1.000000000000000E+20
146
0.0
 13
0.0
 23
0.0
 33
0.0
 16
1.0
 26
0.0
 36
0.0
 17
0.0
 27
1.0
 37
0.0
 76
     0
330
1F
331
29
  0
MATERIAL
  5
3D
102
{ACAD_REACTORS
330
3B
102
}
102
{ACAD_XDICTIONARY
360
1F8
102
}
330
3B
100
AcDbMaterial
  1
ByBlock
  0
MATERIAL
  5
3C
102
{ACAD_REACTORS
330
3B
102
}
102
{ACAD_XDICTIONARY
360
1F6
102
}
330
3B
100
AcDbMaterial
  1
ByLayer
  0
MATERIAL
  5
3E
102
{ACAD_REACTORS
330
3B
102
}
102
{ACAD_XDICTIONARY
360
1FA
102
}
330
3B
100
AcDbMaterial
  1
Global
  0
MLINESTYLE
  5
18
102
{ACAD_REACTORS
330
17
102
}
330
17
100
AcDbMlineStyle
  2
Standard
 70
     0
  3

 62
   256
 51
90.0
 52
90.0
 71
     2
 49
0.5
 62
   256
  6
BYLAYER
 49
-0.5
 62
   256
  6
BYLAYER
  0
ACDBPLACEHOLDER
  5
F
102
{ACAD_REACTORS
330
E
102
}
330
E
  0
SCALE
  5
1B1
102
{ACAD_REACTORS
330
1B0
102
}
330
1B0
100
AcDbScale
 70
     0
300
1:1
140
1.0
141
1.0
290
     1
  0
SCALE
  5
1B2
102
{ACAD_REACTORS
330
1B0
102
}
330
1B0
100
AcDbScale
 70
     0
300
1:2
140
1.0
141
2.0
290
     0
  0
SCALE
  5
1B3
102
{ACAD_REACTORS
330
1B0
102
}
330
1B0
100
AcDbScale
 70
     0
300
1:4
140
1.0
141
4.0
290
     0
  0
SCALE
  5
1B4
102
{ACAD_REACTORS
330
1B0
102
}
330
1B0
100
AcDbScale
 70
     0
300
1:5
140
1.0
141
5.0
290
     0
  0
SCALE
  5
1B5
102
{ACAD_REACTORS
330
1B0
102
}
330
1B0
100
AcDbScale
 70
     0
300
1:8
140
1.0
141
8.0
290
     0
  0
SCALE
  5
1B6
102
{ACAD_REACTORS
330
1B0
102
}
330
1B0
100
AcDbScale
 70
     0
300
1:10
140
1.0
141
10.0
290
     0
  0
SCALE
  5
1B7
102
{ACAD_REACTORS
330
1B0
102
}
330
1B0
100
AcDbScale
 70
     0
300
1:16
140
1.0
141
16.0
290
     0
  0
SCALE
  5
1B8
102
{ACAD_REACTORS
330
1B0
102
}
330
1B0
100
AcDbScale
 70
     0
300
1:20
140
1.0
141
20.0
290
     0
  0
SCALE
  5
1B9
102
{ACAD_REACTORS
330
1B0
102
}
330
1B0
100
AcDbScale
 70
     0
300
1:30
140
1.0
141
30.0
290
     0
  0
SCALE
  5
1BA
102
{ACAD_REACTORS
330
1B0
102
}
330
1B0
100
AcDbScale
 70
     0
300
1:40
140
1.0
141
40.0
290
     0
  0
SCALE
  5
1BB
102
{ACAD_REACTORS
330
1B0
102
}
330
1B0
100
AcDbScale
 70
     0
300
1:50
140
1.0
141
50.0
290
     0
  0
SCALE
  5
1BC
102
{ACAD_REACTORS
330
1B0
102
}
330
1B0
100
AcDbScale
 70
     0
300
1:100
140
1.0
141
100.0
290
     0
  0
SCALE
  5
1BD
102
{ACAD_REACTORS
330
1B0
102
}
330
1B0
100
AcDbScale
 70
     0
300
2:1
140
2.0
141
1.0
290
     0
  0
SCALE
  5
1BE
102
{ACAD_REACTORS
330
1B0
102
}
330
1B0
100
AcDbScale
 70
     0
300
4:1
140
4.0
141
1.0
290
     0
  0
SCALE
  5
1BF
102
{ACAD_REACTORS
330
1B0
102
}
330
1B0
100
AcDbScale
 70
     0
300
8:1
140
8.0
141
1.0
290
     0
  0
SCALE
  5
1C0
102
{ACAD_REACTORS
330
1B0
102
}
330
1B0
100
AcDbScale
 70
     0
300
10:1
140
10.0
141
1.0
290
     0
  0
SCALE
  5
1C1
102
{ACAD_REACTORS
330
1B0
102
}
330
1B0
100
AcDbScale
 70
     0
300
100:1
140
100.0
141
1.0
290
     0
  0
SCALE
  5
1C2
102
{ACAD_REACTORS
330
1B0
102
}
330
1B0
100
AcDbScale
 70
     0
300
1/128" = 1'-0"
140
0.0078125
141
12.0
290
     0
  0
SCALE
  5
1C3
102
{ACAD_REACTORS
330
1B0
102
}
330
1B0
100
AcDbScale
 70
     0
300
1/64" = 1'-0"
140
0.015625
141
12.0
290
     0
  0
SCALE
  5
1C4
102
{ACAD_REACTORS
330
1B0
102
}
330
1B0
100
AcDbScale
 70
     0
300
1/32" = 1'-0"
140
0.03125
141
12.0
290
     0
  0
SCALE
  5
1C5
102
{ACAD_REACTORS
330
1B0
102
}
330
1B0
100
AcDbScale
 70
     0
300
1/16" = 1'-0"
140
0.0625
141
12.0
290
     0
  0
SCALE
  5
1C6
102
{ACAD_REACTORS
330
1B0
102
}
330
1B0
100
AcDbScale
 70
     0
300
3/32" = 1'-0"
140
0.09375
141
12.0
290
     0
  0
SCALE
  5
1C7
102
{ACAD_REACTORS
330
1B0
102
}
330
1B0
100
AcDbScale
 70
     0
300
1/8" = 1'-0"
140
0.125
141
12.0
290
     0
  0
SCALE
  5
1C8
102
{ACAD_REACTORS
330
1B0
102
}
330
1B0
100
AcDbScale
 70
     0
300
3/16" = 1'-0"
140
0.1875
141
12.0
290
     0
  0
SCALE
  5
1C9
102
{ACAD_REACTORS
330
1B0
102
}
330
1B0
100
AcDbScale
 70
     0
300
1/4" = 1'-0"
140
0.25
141
12.0
290
     0
  0
SCALE
  5
1CA
102
{ACAD_REACTORS
330
1B0
102
}
330
1B0
100
AcDbScale
 70
     0
300
3/8" = 1'-0"
140
0.375
141
12.0
290
     0
  0
SCALE
  5
1CB
102
{ACAD_REACTORS
330
1B0
102
}
330
1B0
100
AcDbScale
 70
     0
300
1/2" = 1'-0"
140
0.5
141
12.0
290
     0
  0
SCALE
  5
1CC
102
{ACAD_REACTORS
330
1B0
102
}
330
1B0
100
AcDbScale
 70
     0
300
3/4" = 1'-0"
140
0.75
141
12.0
290
     0
  0
SCALE
  5
1CD
102
{ACAD_REACTORS
330
1B0
102
}
330
1B0
100
AcDbScale
 70
     0
300
1" = 1'-0"
140
1.0
141
12.0
290
     0
  0
SCALE
  5
1CE
102
{ACAD_REACTORS
330
1B0
102
}
330
1B0
100
AcDbScale
 70
     0
300
1-1/2" = 1'-0"
140
1.5
141
12.0
290
     0
  0
SCALE
  5
1CF
102
{ACAD_REACTORS
330
1B0
102
}
330
1B0
100
AcDbScale
 70
     0
300
3" = 1'-0"
140
3.0
141
12.0
290
     0
  0
SCALE
  5
1D0
102
{ACAD_REACTORS
330
1B0
102
}
330
1B0
100
AcDbScale
 70
     0
300
6" = 1'-0"
140
6.0
141
12.0
290
     0
  0
SCALE
  5
1D1
102
{ACAD_REACTORS
330
1B0
102
}
330
1B0
100
AcDbScale
 70
     0
300
1'-0" = 1'-0"
140
12.0
141
12.0
290
     0
  0
VISUALSTYLE
  5
2F
102
{ACAD_REACTORS
330
2A
102
}
102
{ACAD_XDICTIONARY
360
1DE
102
}
330
2A
100
AcDbVisualStyle
  2
2dWireframe
 70
     4
 71
     0
 72
     2
 73
     0
 90
        0
 40
-0.6
 41
-30.0
 62
     5
 63
     7
421
 16777215
 74
     1
 91
        4
 64
     7
 65
   257
 75
     1
175
     1
 42
1.0
 92
        0
 66
   257
 43
1.0
 76
     1
 77
     6
 78
     2
 67
     7
 79
     5
170
     0
171
     0
290
     0
174
     0
 93
        1
 44
0.0
173
     0
291
     0
 45
0.0
1001
ACAD
1000
AcDbSavedByObjectVersion
1070
     0
  0
VISUALSTYLE
  5
31
102
{ACAD_REACTORS
330
2A
102
}
102
{ACAD_XDICTIONARY
360
1E2
102
}
330
2A
100
AcDbVisualStyle
  2
3D Hidden
 70
     6
 71
     1
 72
     2
 73
     2
 90
        0
 40
-0.6
 41
-30.0
 62
     5
 63
     7
421
 16777215
 74
     2
 91
        2
 64
     7
 65
   257
 75
     2
175
     1
 42
40.0
 92
        0
 66
   257
 43
1.0
 76
     1
 77
     6
 78
     2
 67
     7
 79
     3
170
     0
171
     0
290
     0
174
     0
 93
        1
 44
0.0
173
     0
291
     0
 45
0.0
1001
ACAD
1000
AcDbSavedByObjectVersion
1070
     0
  0
VISUALSTYLE
  5
30
102
{ACAD_REACTORS
330
2A
102
}
102
{ACAD_XDICTIONARY
360
1E0
102
}
330
2A
100
AcDbVisualStyle
  2
3dWireframe
 70
     5
 71
     0
 72
     2
 73
     0
 90
        0
 40
-0.6
 41
-30.0
 62
     5
 63
     7
421
 16777215
 74
     1
 91
        4
 64
     7
 65
   257
 75
     1
175
     1
 42
1.0
 92
        0
 66
   257
 43
1.0
 76
     1
 77
     6
 78
     2
 67
     7
 79
     5
170
     0
171
     0
290
     0
174
     0
 93
        1
 44
0.0
173
     0
291
     0
 45
0.0
1001
ACAD
1000
AcDbSavedByObjectVersion
1070
     0
  0
VISUALSTYLE
  5
32
102
{ACAD_REACTORS
330
2A
102
}
102
{ACAD_XDICTIONARY
360
1E4
102
}
330
2A
100
AcDbVisualStyle
  2
Basic
 70
     7
 71
     1
 72
     0
 73
     1
 90
        0
 40
-0.6
 41
-30.0
 62
     5
 63
     7
421
 16777215
 74
     0
 91
        4
 64
     7
 65
   257
 75
     1
175
     1
 42
1.0
 92
        8
 66
     7
 43
1.0
 76
     1
 77
     6
 78
     2
 67
     7
 79
     5
170
     0
171
     0
290
     0
174
     0
 93
        1
 44
0.0
173
     0
291
     1
 45
0.0
1001
ACAD
1000
AcDbSavedByObjectVersion
1070
     0
  0
VISUALSTYLE
  5
36
102
{ACAD_REACTORS
330
2A
102
}
102
{ACAD_XDICTIONARY
360
1EC
102
}
330
2A
100
AcDbVisualStyle
  2
Brighten
 70
    12
 71
     2
 72
     2
 73
     0
 90
        0
 40
-0.6
 41
-30.0
 62
     5
 63
     7
421
 16777215
 74
     1
 91
        4
 64
     7
 65
   257
 75
     1
175
     1
 42
1.0
 92
        8
 66
     7
 43
1.0
 76
     1
 77
     6
 78
     2
 67
     7
 79
     5
170
     0
171
     0
290
     0
174
     0
 93
        1
 44
50.0
173
     0
291
     1
 45
0.0
1001
ACAD
1000
AcDbSavedByObjectVersion
1070
     0
  0
VISUALSTYLE
  5
3A
102
{ACAD_REACTORS
330
2A
102
}
102
{ACAD_XDICTIONARY
360
1F4
102
}
330
2A
100
AcDbVisualStyle
  2
ColorChange
 70
    16
 71
     2
 72
     2
 73
     3
 90
        0
 40
-0.6
 41
-30.0
 62
     5
 63
     8
421
  8421504
 74
     1
 91
        4
 64
     7
 65
   257
 75
     1
175
     1
 42
1.0
 92
        8
 66
     8
424
  8421504
 43
1.0
 76
     1
 77
     6
 78
     2
 67
     7
 79
     5
170
     0
171
     0
290
     0
174
     0
 93
        1
 44
0.0
173
     0
291
     1
 45
0.0
1001
ACAD
1000
AcDbSavedByObjectVersion
1070
     0
  0
VISUALSTYLE
  5
34
102
{ACAD_REACTORS
330
2A
102
}
102
{ACAD_XDICTIONARY
360
1E8
102
}
330
2A
100
AcDbVisualStyle
  2
Conceptual
 70
     9
 71
     3
 72
     2
 73
     0
 90
        0
 40
-0.6
 41
-30.0
 62
     5
 63
     7
421
 16777215
 74
     2
 91
        2
 64
     7
 65
   257
 75
     1
175
     1
 42
40.0
 92
        8
 66
     7
 43
1.0
 76
     1
 77
     6
 78
     2
 67
     7
 79
     3
170
     0
171
     0
290
     0
174
     0
 93
        1
 44
0.0
173
     0
291
     0
 45
0.0
1001
ACAD
1000
AcDbSavedByObjectVersion
1070
     0
  0
VISUALSTYLE
  5
35
102
{ACAD_REACTORS
330
2A
102
}
102
{ACAD_XDICTIONARY
360
1EA
102
}
330
2A
100
AcDbVisualStyle
  2
Dim
 70
    11
 71
     2
 72
     2
 73
     0
 90
        0
 40
-0.6
 41
-30.0
 62
     5
 63
     7
421
 16777215
 74
     1
 91
        4
 64
     7
 65
   257
 75
     1
175
     1
 42
1.0
 92
        8
 66
     7
 43
1.0
 76
     1
 77
     6
 78
     2
 67
     7
 79
     5
170
     0
171
     0
290
     0
174
     0
 93
        1
 44
-50.0
173
     0
291
     1
 45
0.0
1001
ACAD
1000
AcDbSavedByObjectVersion
1070
     0
  0
VISUALSTYLE
  5
39
102
{ACAD_REACTORS
330
2A
102
}
102
{ACAD_XDICTIONARY
360
1F2
102
}
330
2A
100
AcDbVisualStyle
  2
Facepattern
 70
    15
 71
     2
 72
     2
 73
     0
 90
        0
 40
-0.6
 41
-30.0
 62
     5
 63
     7
421
 16777215
 74
     1
 91
        4
 64
     7
 65
   257
 75
     1
175
     1
 42
1.0
 92
        8
 66
     7
 43
1.0
 76
     1
 77
     6
 78
     2
 67
     7
 79
     5
170
     0
171
     0
290
     0
174
     0
 93
        1
 44
0.0
173
     0
291
     1
 45
0.0
1001
ACAD
1000
AcDbSavedByObjectVersion
1070
     0
  0
VISUALSTYLE
  5
2B
102
{ACAD_REACTORS
330
2A
102
}
102
{ACAD_XDICTIONARY
360
1D6
102
}
330
2A
100
AcDbVisualStyle
  2
Flat
 70
     0
 71
     2
 72
     1
 73
     1
 90
        2
 40
-0.6
 41
30.0
 62
     5
 63
     7
421
 16777215
 74
     0
 91
        4
 64
     7
 65
   257
 75
     1
175
     1
 42
1.0
 92
        8
 66
     7
 43
1.0
 76
     1
 77
     6
 78
     2
 67
     7
 79
     5
170
     0
171
     0
290
     0
174
     0
 93
       13
 44
0.0
173
     0
291
     1
 45
0.0
1001
ACAD
1000
AcDbSavedByObjectVersion
1070
     0
  0
VISUALSTYLE
  5
2C
102
{ACAD_REACTORS
330
2A
102
}
102
{ACAD_XDICTIONARY
360
1D8
102
}
330
2A
100
AcDbVisualStyle
  2
FlatWithEdges
 70
     1
 71
     2
 72
     1
 73
     1
 90
        2
 40
-0.6
 41
30.0
 62
     5
 63
     7
421
 16777215
 74
     1
 91
        4
 64
     7
 65
   257
 75
     1
175
     1
 42
1.0
 92
        0
 66
   257
 43
1.0
 76
     1
 77
     6
 78
     2
 67
     7
 79
     5
170
     0
171
     0
290
     0
174
     0
 93
       13
 44
0.0
173
     0
291
     1
 45
0.0
1001
ACAD
1000
AcDbSavedByObjectVersion
1070
     0
  0
VISUALSTYLE
  5
2D
102
{ACAD_REACTORS
330
2A
102
}
102
{ACAD_XDICTIONARY
360
1DA
102
}
330
2A
100
AcDbVisualStyle
  2
Gouraud
 70
     2
 71
     2
 72
     2
 73
     1
 90
        2
 40
-0.6
 41
30.0
 62
     5
 63
     7
421
 16777215
 74
     0
 91
        4
 64
     7
 65
   257
 75
     1
175
     1
 42
1.0
 92
        0
 66
     7
 43
1.0
 76
     1
 77
     6
 78
     2
 67
     7
 79
     5
170
     0
171
     0
290
     0
174
     0
 93
       13
 44
0.0
173
     0
291
     1
 45
0.0
1001
ACAD
1000
AcDbSavedByObjectVersion
1070
     0
  0
VISUALSTYLE
  5
2E
102
{ACAD_REACTORS
330
2A
102
}
102
{ACAD_XDICTIONARY
360
1DC
102
}
330
2A
100
AcDbVisualStyle
  2
GouraudWithEdges
 70
     3
 71
     2
 72
     2
 73
     1
 90
        2
 40
-0.6
 41
30.0
 62
     5
 63
     7
421
 16777215
 74
     1
 91
        4
 64
     7
 65
   257
 75
     1
175
     1
 42
1.0
 92
        0
 66
   257
 43
1.0
 76
     1
 77
     6
 78
     2
 67
     7
 79
     5
170
     0
171
     0
290
     0
174
     0
 93
       13
 44
0.0
173
     0
291
     1
 45
0.0
1001
ACAD
1000
AcDbSavedByObjectVersion
1070
     0
  0
VISUALSTYLE
  5
38
102
{ACAD_REACTORS
330
2A
102
}
102
{ACAD_XDICTIONARY
360
1F0
102
}
330
2A
100
AcDbVisualStyle
  2
Linepattern
 70
    14
 71
     2
 72
     2
 73
     0
 90
        0
 40
-0.6
 41
-30.0
 62
     5
 63
     7
421
 16777215
 74
     1
 91
        4
 64
     7
 65
   257
 75
     7
175
     7
 42
1.0
 92
        8
 66
     7
 43
1.0
 76
     1
 77
     6
 78
     2
 67
     7
 79
     5
170
     0
171
     0
290
     0
174
     0
 93
        1
 44
0.0
173
     0
291
     1
 45
0.0
1001
ACAD
1000
AcDbSavedByObjectVersion
1070
     0
  0
VISUALSTYLE
  5
33
102
{ACAD_REACTORS
330
2A
102
}
102
{ACAD_XDICTIONARY
360
1E6
102
}
330
2A
100
AcDbVisualStyle
  2
Realistic
 70
     8
 71
     2
 72
     2
 73
     0
 90
        0
 40
-0.6
 41
-30.0
 62
     5
 63
     7
421
 16777215
 74
     1
 91
        0
 64
     7
 65
   257
 75
     1
175
     1
 42
1.0
 92
        8
 66
     8
424
  7895160
 43
1.0
 76
     1
 77
     6
 78
     2
 67
     7
 79
     5
170
     0
171
     0
290
     0
174
     0
 93
       13
 44
0.0
173
     0
291
     0
 45
0.0
1001
ACAD
1000
AcDbSavedByObjectVersion
1070
     0
  0
VISUALSTYLE
  5
37
102
{ACAD_REACTORS
330
2A
102
}
102
{ACAD_XDICTIONARY
360
1EE
102
}
330
2A
100
AcDbVisualStyle
  2
Thicken
 70
    13
 71
     2
 72
     2
 73
     0
 90
        0
 40
-0.6
 41
-30.0
 62
     5
 63
     7
421
 16777215
 74
     1
 91
        4
 64
     7
 65
   257
 75
     1
175
     1
 42
1.0
 92
       12
 66
     7
 43
1.0
 76
     1
 77
     6
 78
     2
 67
     7
 79
     5
170
     0
171
     0
290
     0
174
     0
 93
        1
 44
0.0
173
     0
291
     1
 45
0.0
1001
ACAD
1000
AcDbSavedByObjectVersion
1070
     0
  0
DICTIONARYVAR
  5
1D5
102
{ACAD_REACTORS
330
1D4
102
}
330
1D4
100
DictionaryVariables
280
     0
  1
1:1
  0
DICTIONARYVAR
  5
1FE
102
{ACAD_REACTORS
330
1D4
102
}
330
1D4
100
DictionaryVariables
280
     0
  1
0
  0
XRECORD
  5
1D3
102
{ACAD_REACTORS
330
1D2
102
}
330
1D2
100
AcDbXrecord
280
     1
1000
This DWG file was created in ArchiCAD(TM)®
  0
DICTIONARY
  5
1F8
330
3D
100
AcDbDictionary
280
     1
281
     1
  3
ACAD_XREC_ROUNDTRIP
360
1F9
  0
DICTIONARY
  5
1F6
330
3C
100
AcDbDictionary
280
     1
281
     1
  3
ACAD_XREC_ROUNDTRIP
360
1F7
  0
DICTIONARY
  5
1FA
330
3E
100
AcDbDictionary
280
     1
281
     1
  3
ACAD_XREC_ROUNDTRIP
360
1FB
  0
DICTIONARY
  5
1DE
330
2F
100
AcDbDictionary
280
     1
281
     1
  3
ACAD_XREC_ROUNDTRIP
360
1DF
  0
DICTIONARY
  5
1E2
330
31
100
AcDbDictionary
280
     1
281
     1
  3
ACAD_XREC_ROUNDTRIP
360
1E3
  0
DICTIONARY
  5
1E0
330
30
100
AcDbDictionary
280
     1
281
     1
  3
ACAD_XREC_ROUNDTRIP
360
1E1
  0
DICTIONARY
  5
1E4
330
32
100
AcDbDictionary
280
     1
281
     1
  3
ACAD_XREC_ROUNDTRIP
360
1E5
  0
DICTIONARY
  5
1EC
330
36
100
AcDbDictionary
280
     1
281
     1
  3
ACAD_XREC_ROUNDTRIP
360
1ED
  0
DICTIONARY
  5
1F4
330
3A
100
AcDbDictionary
280
     1
281
     1
  3
ACAD_XREC_ROUNDTRIP
360
1F5
  0
DICTIONARY
  5
1E8
330
34
100
AcDbDictionary
280
     1
281
     1
  3
ACAD_XREC_ROUNDTRIP
360
1E9
  0
DICTIONARY
  5
1EA
330
35
100
AcDbDictionary
280
     1
281
     1
  3
ACAD_XREC_ROUNDTRIP
360
1EB
  0
DICTIONARY
  5
1F2
330
39
100
AcDbDictionary
280
     1
281
     1
  3
ACAD_XREC_ROUNDTRIP
360
1F3
  0
DICTIONARY
  5
1D6
330
2B
100
AcDbDictionary
280
     1
281
     1
  3
ACAD_XREC_ROUNDTRIP
360
1D7
  0
DICTIONARY
  5
1D8
330
2C
100
AcDbDictionary
280
     1
281
     1
  3
ACAD_XREC_ROUNDTRIP
360
1D9
  0
DICTIONARY
  5
1DA
330
2D
100
AcDbDictionary
280
     1
281
     1
  3
ACAD_XREC_ROUNDTRIP
360
1DB
  0
DICTIONARY
  5
1DC
330
2E
100
AcDbDictionary
280
     1
281
     1
  3
ACAD_XREC_ROUNDTRIP
360
1DD
  0
DICTIONARY
  5
1F0
330
38
100
AcDbDictionary
280
     1
281
     1
  3
ACAD_XREC_ROUNDTRIP
360
1F1
  0
DICTIONARY
  5
1E6
330
33
100
AcDbDictionary
280
     1
281
     1
  3
ACAD_XREC_ROUNDTRIP
360
1E7
  0
DICTIONARY
  5
1EE
330
37
100
AcDbDictionary
280
     1
281
     1
  3
ACAD_XREC_ROUNDTRIP
360
1EF
  0
XRECORD
  5
1F9
102
{ACAD_REACTORS
330
1F8
102
}
330
1F8
100
AcDbXrecord
280
     1
102
MATERIAL
148
0.0
149
0.0
149
0.0
 93
        0
 94
      127
282
     0
 72
     1
 77
     1
171
     1
175
     1
179
     1
273
     0
  0
XRECORD
  5
1F7
102
{ACAD_REACTORS
330
1F6
102
}
330
1F6
100
AcDbXrecord
280
     1
102
MATERIAL
148
0.0
149
0.0
149
0.0
 93
        0
 94
      127
282
     0
 72
     1
 77
     1
171
     1
175
     1
179
     1
273
     0
  0
XRECORD
  5
1FB
102
{ACAD_REACTORS
330
1FA
102
}
330
1FA
100
AcDbXrecord
280
     1
102
MATERIAL
148
0.0
149
0.0
149
0.0
 93
        0
 94
      127
282
     0
 72
     1
 77
     1
171
     1
175
     1
179
     1
273
     0
  0
XRECORD
  5
1DF
102
{ACAD_REACTORS
330
1DE
102
}
330
1DE
100
AcDbXrecord
280
     1
102
RTVSPropertyOp0
 70
     1
102
RTVSPropertyOp1
 70
     1
102
RTVSPropertyOp2
 70
     1
102
RTVSPropertyOp3
 70
     1
102
RTVSPropertyOp4
 70
     1
102
RTVSPropertyOp5
 70
     1
102
RTVSPropertyOp6
 70
     1
102
RTVSPropertyOp7
 70
     1
102
RTVSPropertyOp8
 70
     1
102
RTVSPropertyOp9
 70
     1
102
RTVSPropertyOp10
 70
     1
102
RTVSPropertyOp11
 70
     1
102
RTVSPropertyOp12
 70
     1
102
RTVSPropertyOp13
 70
     1
102
RTVSPropertyOp14
 70
     1
102
RTVSPropertyOp15
 70
     1
102
RTVSPropertyOp16
 70
     1
102
RTVSPropertyOp17
 70
     1
102
RTVSPropertyOp18
 70
     1
102
RTVSPropertyOp19
 70
     1
102
RTVSPropertyOp20
 70
     1
102
RTVSPropertyOp21
 70
     1
102
RTVSPropertyOp22
 70
     1
102
RTVSPropertyOp23
 70
     1
102
RTVSPropertyOp24
 70
     1
102
RTVSPropertyOp25
 70
     1
102
RTVSPropertyOp26
 70
     1
102
RTVSPropertyOp27
 70
     1
102
RTVSPropertyOp28
 70
     1
102
RTVSPropertyOp29
 70
     1
102
RTVSPropertyOp30
 70
     1
102
RTVSPropertyOp31
 70
     1
102
RTVSPropertyOp32
 70
     1
  0
XRECORD
  5
1E3
102
{ACAD_REACTORS
330
1E2
102
}
330
1E2
100
AcDbXrecord
280
     1
102
RTVSPropertyOp0
 70
     1
102
RTVSPropertyOp1
 70
     1
102
RTVSPropertyOp2
 70
     1
102
RTVSPropertyOp3
 70
     1
102
RTVSPropertyOp4
 70
     1
102
RTVSPropertyOp5
 70
     1
102
RTVSPropertyOp6
 70
     1
102
RTVSPropertyOp7
 70
     1
102
RTVSPropertyOp8
 70
     1
102
RTVSPropertyOp9
 70
     1
102
RTVSPropertyOp10
 70
     1
102
RTVSPropertyOp11
 70
     1
102
RTVSPropertyOp12
 70
     1
102
RTVSPropertyOp13
 70
     1
102
RTVSPropertyOp14
 70
     1
102
RTVSPropertyOp15
 70
     1
102
RTVSPropertyOp16
 70
     1
102
RTVSPropertyOp17
 70
     1
102
RTVSPropertyOp18
 70
     1
102
RTVSPropertyOp19
 70
     1
102
RTVSPropertyOp20
 70
     1
102
RTVSPropertyOp21
 70
     1
102
RTVSPropertyOp22
 70
     1
102
RTVSPropertyOp23
 70
     1
102
RTVSPropertyOp24
 70
     1
102
RTVSPropertyOp25
 70
     1
102
RTVSPropertyOp26
 70
     1
102
RTVSPropertyOp27
 70
     1
102
RTVSPropertyOp28
 70
     1
102
RTVSPropertyOp29
 70
     1
102
RTVSPropertyOp30
 70
     1
102
RTVSPropertyOp31
 70
     1
102
RTVSPropertyOp32
 70
     1
  0
XRECORD
  5
1E1
102
{ACAD_REACTORS
330
1E0
102
}
330
1E0
100
AcDbXrecord
280
     1
102
RTVSPropertyOp0
 70
     1
102
RTVSPropertyOp1
 70
     1
102
RTVSPropertyOp2
 70
     1
102
RTVSPropertyOp3
 70
     1
102
RTVSPropertyOp4
 70
     1
102
RTVSPropertyOp5
 70
     1
102
RTVSPropertyOp6
 70
     1
102
RTVSPropertyOp7
 70
     1
102
RTVSPropertyOp8
 70
     1
102
RTVSPropertyOp9
 70
     1
102
RTVSPropertyOp10
 70
     1
102
RTVSPropertyOp11
 70
     1
102
RTVSPropertyOp12
 70
     1
102
RTVSPropertyOp13
 70
     1
102
RTVSPropertyOp14
 70
     1
102
RTVSPropertyOp15
 70
     1
102
RTVSPropertyOp16
 70
     1
102
RTVSPropertyOp17
 70
     1
102
RTVSPropertyOp18
 70
     1
102
RTVSPropertyOp19
 70
     1
102
RTVSPropertyOp20
 70
     1
102
RTVSPropertyOp21
 70
     1
102
RTVSPropertyOp22
 70
     1
102
RTVSPropertyOp23
 70
     1
102
RTVSPropertyOp24
 70
     1
102
RTVSPropertyOp25
 70
     1
102
RTVSPropertyOp26
 70
     1
102
RTVSPropertyOp27
 70
     1
102
RTVSPropertyOp28
 70
     1
102
RTVSPropertyOp29
 70
     1
102
RTVSPropertyOp30
 70
     1
102
RTVSPropertyOp31
 70
     1
102
RTVSPropertyOp32
 70
     1
  0
XRECORD
  5
1E5
102
{ACAD_REACTORS
330
1E4
102
}
330
1E4
100
AcDbXrecord
280
     1
102
RTVSPropertyOp0
 70
     1
102
RTVSPropertyOp1
 70
     1
102
RTVSPropertyOp2
 70
     1
102
RTVSPropertyOp3
 70
     1
102
RTVSPropertyOp4
 70
     1
102
RTVSPropertyOp5
 70
     1
102
RTVSPropertyOp6
 70
     1
102
RTVSPropertyOp7
 70
     1
102
RTVSPropertyOp8
 70
     1
102
RTVSPropertyOp9
 70
     1
102
RTVSPropertyOp10
 70
     1
102
RTVSPropertyOp11
 70
     1
102
RTVSPropertyOp12
 70
     1
102
RTVSPropertyOp13
 70
     1
102
RTVSPropertyOp14
 70
     1
102
RTVSPropertyOp15
 70
     1
102
RTVSPropertyOp16
 70
     1
102
RTVSPropertyOp17
 70
     1
102
RTVSPropertyOp18
 70
     1
102
RTVSPropertyOp19
 70
     1
102
RTVSPropertyOp20
 70
     1
102
RTVSPropertyOp21
 70
     1
102
RTVSPropertyOp22
 70
     1
102
RTVSPropertyOp23
 70
     1
102
RTVSPropertyOp24
 70
     1
102
RTVSPropertyOp25
 70
     1
102
RTVSPropertyOp26
 70
     1
102
RTVSPropertyOp27
 70
     1
102
RTVSPropertyOp28
 70
     1
102
RTVSPropertyOp29
 70
     1
102
RTVSPropertyOp30
 70
     1
102
RTVSPropertyOp31
 70
     1
102
RTVSPropertyOp32
 70
     1
  0
XRECORD
  5
1ED
102
{ACAD_REACTORS
330
1EC
102
}
330
1EC
100
AcDbXrecord
280
     1
102
RTVSPropertyOp0
 70
     1
102
RTVSPropertyOp1
 70
     1
102
RTVSPropertyOp2
 70
     1
102
RTVSPropertyOp3
 70
     1
102
RTVSPropertyOp4
 70
     1
102
RTVSPropertyOp5
 70
     1
102
RTVSPropertyOp6
 70
     1
102
RTVSPropertyOp7
 70
     1
102
RTVSPropertyOp8
 70
     1
102
RTVSPropertyOp9
 70
     1
102
RTVSPropertyOp10
 70
     1
102
RTVSPropertyOp11
 70
     1
102
RTVSPropertyOp12
 70
     1
102
RTVSPropertyOp13
 70
     1
102
RTVSPropertyOp14
 70
     1
102
RTVSPropertyOp15
 70
     1
102
RTVSPropertyOp16
 70
     1
102
RTVSPropertyOp17
 70
     1
102
RTVSPropertyOp18
 70
     1
102
RTVSPropertyOp19
 70
     1
102
RTVSPropertyOp20
 70
     1
102
RTVSPropertyOp21
 70
     1
102
RTVSPropertyOp22
 70
     1
102
RTVSPropertyOp23
 70
     1
102
RTVSPropertyOp24
 70
     1
102
RTVSPropertyOp25
 70
     1
102
RTVSPropertyOp26
 70
     1
102
RTVSPropertyOp27
 70
     1
102
RTVSPropertyOp28
 70
     1
102
RTVSPropertyOp29
 70
     1
102
RTVSPropertyOp30
 70
     1
102
RTVSPropertyOp31
 70
     1
102
RTVSPropertyOp32
 70
     1
  0
XRECORD
  5
1F5
102
{ACAD_REACTORS
330
1F4
102
}
330
1F4
100
AcDbXrecord
280
     1
102
RTVSPropertyOp0
 70
     1
102
RTVSPropertyOp1
 70
     1
102
RTVSPropertyOp2
 70
     1
102
RTVSPropertyOp3
 70
     1
102
RTVSPropertyOp4
 70
     1
102
RTVSPropertyOp5
 70
     1
102
RTVSPropertyOp6
 70
     1
102
RTVSPropertyOp7
 70
     1
102
RTVSPropertyOp8
 70
     1
102
RTVSPropertyOp9
 70
     1
102
RTVSPropertyOp10
 70
     1
102
RTVSPropertyOp11
 70
     1
102
RTVSPropertyOp12
 70
     1
102
RTVSPropertyOp13
 70
     1
102
RTVSPropertyOp14
 70
     1
102
RTVSPropertyOp15
 70
     1
102
RTVSPropertyOp16
 70
     1
102
RTVSPropertyOp17
 70
     1
102
RTVSPropertyOp18
 70
     1
102
RTVSPropertyOp19
 70
     1
102
RTVSPropertyOp20
 70
     1
102
RTVSPropertyOp21
 70
     1
102
RTVSPropertyOp22
 70
     1
102
RTVSPropertyOp23
 70
     1
102
RTVSPropertyOp24
 70
     1
102
RTVSPropertyOp25
 70
     1
102
RTVSPropertyOp26
 70
     1
102
RTVSPropertyOp27
 70
     1
102
RTVSPropertyOp28
 70
     1
102
RTVSPropertyOp29
 70
     1
102
RTVSPropertyOp30
 70
     1
102
RTVSPropertyOp31
 70
     1
102
RTVSPropertyOp32
 70
     1
  0
XRECORD
  5
1E9
102
{ACAD_REACTORS
330
1E8
102
}
330
1E8
100
AcDbXrecord
280
     1
102
RTVSPropertyOp0
 70
     1
102
RTVSPropertyOp1
 70
     1
102
RTVSPropertyOp2
 70
     1
102
RTVSPropertyOp3
 70
     1
102
RTVSPropertyOp4
 70
     1
102
RTVSPropertyOp5
 70
     1
102
RTVSPropertyOp6
 70
     1
102
RTVSPropertyOp7
 70
     1
102
RTVSPropertyOp8
 70
     1
102
RTVSPropertyOp9
 70
     1
102
RTVSPropertyOp10
 70
     1
102
RTVSPropertyOp11
 70
     1
102
RTVSPropertyOp12
 70
     1
102
RTVSPropertyOp13
 70
     1
102
RTVSPropertyOp14
 70
     1
102
RTVSPropertyOp15
 70
     1
102
RTVSPropertyOp16
 70
     1
102
RTVSPropertyOp17
 70
     1
102
RTVSPropertyOp18
 70
     1
102
RTVSPropertyOp19
 70
     1
102
RTVSPropertyOp20
 70
     1
102
RTVSPropertyOp21
 70
     1
102
RTVSPropertyOp22
 70
     1
102
RTVSPropertyOp23
 70
     1
102
RTVSPropertyOp24
 70
     1
102
RTVSPropertyOp25
 70
     1
102
RTVSPropertyOp26
 70
     1
102
RTVSPropertyOp27
 70
     1
102
RTVSPropertyOp28
 70
     1
102
RTVSPropertyOp29
 70
     1
102
RTVSPropertyOp30
 70
     1
102
RTVSPropertyOp31
 70
     1
102
RTVSPropertyOp32
 70
     1
  0
XRECORD
  5
1EB
102
{ACAD_REACTORS
330
1EA
102
}
330
1EA
100
AcDbXrecord
280
     1
102
RTVSPropertyOp0
 70
     1
102
RTVSPropertyOp1
 70
     1
102
RTVSPropertyOp2
 70
     1
102
RTVSPropertyOp3
 70
     1
102
RTVSPropertyOp4
 70
     1
102
RTVSPropertyOp5
 70
     1
102
RTVSPropertyOp6
 70
     1
102
RTVSPropertyOp7
 70
     1
102
RTVSPropertyOp8
 70
     1
102
RTVSPropertyOp9
 70
     1
102
RTVSPropertyOp10
 70
     1
102
RTVSPropertyOp11
 70
     1
102
RTVSPropertyOp12
 70
     1
102
RTVSPropertyOp13
 70
     1
102
RTVSPropertyOp14
 70
     1
102
RTVSPropertyOp15
 70
     1
102
RTVSPropertyOp16
 70
     1
102
RTVSPropertyOp17
 70
     1
102
RTVSPropertyOp18
 70
     1
102
RTVSPropertyOp19
 70
     1
102
RTVSPropertyOp20
 70
     1
102
RTVSPropertyOp21
 70
     1
102
RTVSPropertyOp22
 70
     1
102
RTVSPropertyOp23
 70
     1
102
RTVSPropertyOp24
 70
     1
102
RTVSPropertyOp25
 70
     1
102
RTVSPropertyOp26
 70
     1
102
RTVSPropertyOp27
 70
     1
102
RTVSPropertyOp28
 70
     1
102
RTVSPropertyOp29
 70
     1
102
RTVSPropertyOp30
 70
     1
102
RTVSPropertyOp31
 70
     1
102
RTVSPropertyOp32
 70
     1
  0
XRECORD
  5
1F3
102
{ACAD_REACTORS
330
1F2
102
}
330
1F2
100
AcDbXrecord
280
     1
102
RTVSPropertyOp0
 70
     1
102
RTVSPropertyOp1
 70
     1
102
RTVSPropertyOp2
 70
     1
102
RTVSPropertyOp3
 70
     1
102
RTVSPropertyOp4
 70
     1
102
RTVSPropertyOp5
 70
     1
102
RTVSPropertyOp6
 70
     1
102
RTVSPropertyOp7
 70
     1
102
RTVSPropertyOp8
 70
     1
102
RTVSPropertyOp9
 70
     1
102
RTVSPropertyOp10
 70
     1
102
RTVSPropertyOp11
 70
     1
102
RTVSPropertyOp12
 70
     1
102
RTVSPropertyOp13
 70
     1
102
RTVSPropertyOp14
 70
     1
102
RTVSPropertyOp15
 70
     1
102
RTVSPropertyOp16
 70
     1
102
RTVSPropertyOp17
 70
     1
102
RTVSPropertyOp18
 70
     1
102
RTVSPropertyOp19
 70
     1
102
RTVSPropertyOp20
 70
     1
102
RTVSPropertyOp21
 70
     1
102
RTVSPropertyOp22
 70
     1
102
RTVSPropertyOp23
 70
     1
102
RTVSPropertyOp24
 70
     1
102
RTVSPropertyOp25
 70
     1
102
RTVSPropertyOp26
 70
     1
102
RTVSPropertyOp27
 70
     1
102
RTVSPropertyOp28
 70
     1
102
RTVSPropertyOp29
 70
     1
102
RTVSPropertyOp30
 70
     1
102
RTVSPropertyOp31
 70
     1
102
RTVSPropertyOp32
 70
     1
  0
XRECORD
  5
1D7
102
{ACAD_REACTORS
330
1D6
102
}
330
1D6
100
AcDbXrecord
280
     1
102
RTVSPropertyOp0
 70
     1
102
RTVSPropertyOp1
 70
     1
102
RTVSPropertyOp2
 70
     1
102
RTVSPropertyOp3
 70
     1
102
RTVSPropertyOp4
 70
     1
102
RTVSPropertyOp5
 70
     1
102
RTVSPropertyOp6
 70
     1
102
RTVSPropertyOp7
 70
     1
102
RTVSPropertyOp8
 70
     1
102
RTVSPropertyOp9
 70
     1
102
RTVSPropertyOp10
 70
     1
102
RTVSPropertyOp11
 70
     1
102
RTVSPropertyOp12
 70
     1
102
RTVSPropertyOp13
 70
     1
102
RTVSPropertyOp14
 70
     1
102
RTVSPropertyOp15
 70
     1
102
RTVSPropertyOp16
 70
     1
102
RTVSPropertyOp17
 70
     1
102
RTVSPropertyOp18
 70
     1
102
RTVSPropertyOp19
 70
     1
102
RTVSPropertyOp20
 70
     1
102
RTVSPropertyOp21
 70
     1
102
RTVSPropertyOp22
 70
     1
102
RTVSPropertyOp23
 70
     1
102
RTVSPropertyOp24
 70
     1
102
RTVSPropertyOp25
 70
     1
102
RTVSPropertyOp26
 70
     1
102
RTVSPropertyOp27
 70
     1
102
RTVSPropertyOp28
 70
     1
102
RTVSPropertyOp29
 70
     1
102
RTVSPropertyOp30
 70
     1
102
RTVSPropertyOp31
 70
     1
102
RTVSPropertyOp32
 70
     1
  0
XRECORD
  5
1D9
102
{ACAD_REACTORS
330
1D8
102
}
330
1D8
100
AcDbXrecord
280
     1
102
RTVSPropertyOp0
 70
     1
102
RTVSPropertyOp1
 70
     1
102
RTVSPropertyOp2
 70
     1
102
RTVSPropertyOp3
 70
     1
102
RTVSPropertyOp4
 70
     1
102
RTVSPropertyOp5
 70
     1
102
RTVSPropertyOp6
 70
     1
102
RTVSPropertyOp7
 70
     1
102
RTVSPropertyOp8
 70
     1
102
RTVSPropertyOp9
 70
     1
102
RTVSPropertyOp10
 70
     1
102
RTVSPropertyOp11
 70
     1
102
RTVSPropertyOp12
 70
     1
102
RTVSPropertyOp13
 70
     1
102
RTVSPropertyOp14
 70
     1
102
RTVSPropertyOp15
 70
     1
102
RTVSPropertyOp16
 70
     1
102
RTVSPropertyOp17
 70
     1
102
RTVSPropertyOp18
 70
     1
102
RTVSPropertyOp19
 70
     1
102
RTVSPropertyOp20
 70
     1
102
RTVSPropertyOp21
 70
     1
102
RTVSPropertyOp22
 70
     1
102
RTVSPropertyOp23
 70
     1
102
RTVSPropertyOp24
 70
     1
102
RTVSPropertyOp25
 70
     1
102
RTVSPropertyOp26
 70
     1
102
RTVSPropertyOp27
 70
     1
102
RTVSPropertyOp28
 70
     1
102
RTVSPropertyOp29
 70
     1
102
RTVSPropertyOp30
 70
     1
102
RTVSPropertyOp31
 70
     1
102
RTVSPropertyOp32
 70
     1
  0
XRECORD
  5
1DB
102
{ACAD_REACTORS
330
1DA
102
}
330
1DA
100
AcDbXrecord
280
     1
102
RTVSPropertyOp0
 70
     1
102
RTVSPropertyOp1
 70
     1
102
RTVSPropertyOp2
 70
     1
102
RTVSPropertyOp3
 70
     1
102
RTVSPropertyOp4
 70
     1
102
RTVSPropertyOp5
 70
     1
102
RTVSPropertyOp6
 70
     1
102
RTVSPropertyOp7
 70
     1
102
RTVSPropertyOp8
 70
     1
102
RTVSPropertyOp9
 70
     1
102
RTVSPropertyOp10
 70
     1
102
RTVSPropertyOp11
 70
     1
102
RTVSPropertyOp12
 70
     1
102
RTVSPropertyOp13
 70
     1
102
RTVSPropertyOp14
 70
     1
102
RTVSPropertyOp15
 70
     1
102
RTVSPropertyOp16
 70
     1
102
RTVSPropertyOp17
 70
     1
102
RTVSPropertyOp18
 70
     1
102
RTVSPropertyOp19
 70
     1
102
RTVSPropertyOp20
 70
     1
102
RTVSPropertyOp21
 70
     1
102
RTVSPropertyOp22
 70
     1
102
RTVSPropertyOp23
 70
     1
102
RTVSPropertyOp24
 70
     1
102
RTVSPropertyOp25
 70
     1
102
RTVSPropertyOp26
 70
     1
102
RTVSPropertyOp27
 70
     1
102
RTVSPropertyOp28
 70
     1
102
RTVSPropertyOp29
 70
     1
102
RTVSPropertyOp30
 70
     1
102
RTVSPropertyOp31
 70
     1
102
RTVSPropertyOp32
 70
     1
  0
XRECORD
  5
1DD
102
{ACAD_REACTORS
330
1DC
102
}
330
1DC
100
AcDbXrecord
280
     1
102
RTVSPropertyOp0
 70
     1
102
RTVSPropertyOp1
 70
     1
102
RTVSPropertyOp2
 70
     1
102
RTVSPropertyOp3
 70
     1
102
RTVSPropertyOp4
 70
     1
102
RTVSPropertyOp5
 70
     1
102
RTVSPropertyOp6
 70
     1
102
RTVSPropertyOp7
 70
     1
102
RTVSPropertyOp8
 70
     1
102
RTVSPropertyOp9
 70
     1
102
RTVSPropertyOp10
 70
     1
102
RTVSPropertyOp11
 70
     1
102
RTVSPropertyOp12
 70
     1
102
RTVSPropertyOp13
 70
     1
102
RTVSPropertyOp14
 70
     1
102
RTVSPropertyOp15
 70
     1
102
RTVSPropertyOp16
 70
     1
102
RTVSPropertyOp17
 70
     1
102
RTVSPropertyOp18
 70
     1
102
RTVSPropertyOp19
 70
     1
102
RTVSPropertyOp20
 70
     1
102
RTVSPropertyOp21
 70
     1
102
RTVSPropertyOp22
 70
     1
102
RTVSPropertyOp23
 70
     1
102
RTVSPropertyOp24
 70
     1
102
RTVSPropertyOp25
 70
     1
102
RTVSPropertyOp26
 70
     1
102
RTVSPropertyOp27
 70
     1
102
RTVSPropertyOp28
 70
     1
102
RTVSPropertyOp29
 70
     1
102
RTVSPropertyOp30
 70
     1
102
RTVSPropertyOp31
 70
     1
102
RTVSPropertyOp32
 70
     1
  0
XRECORD
  5
1F1
102
{ACAD_REACTORS
330
1F0
102
}
330
1F0
100
AcDbXrecord
280
     1
102
RTVSPropertyOp0
 70
     1
102
RTVSPropertyOp1
 70
     1
102
RTVSPropertyOp2
 70
     1
102
RTVSPropertyOp3
 70
     1
102
RTVSPropertyOp4
 70
     1
102
RTVSPropertyOp5
 70
     1
102
RTVSPropertyOp6
 70
     1
102
RTVSPropertyOp7
 70
     1
102
RTVSPropertyOp8
 70
     1
102
RTVSPropertyOp9
 70
     1
102
RTVSPropertyOp10
 70
     1
102
RTVSPropertyOp11
 70
     1
102
RTVSPropertyOp12
 70
     1
102
RTVSPropertyOp13
 70
     1
102
RTVSPropertyOp14
 70
     1
102
RTVSPropertyOp15
 70
     1
102
RTVSPropertyOp16
 70
     1
102
RTVSPropertyOp17
 70
     1
102
RTVSPropertyOp18
 70
     1
102
RTVSPropertyOp19
 70
     1
102
RTVSPropertyOp20
 70
     1
102
RTVSPropertyOp21
 70
     1
102
RTVSPropertyOp22
 70
     1
102
RTVSPropertyOp23
 70
     1
102
RTVSPropertyOp24
 70
     1
102
RTVSPropertyOp25
 70
     1
102
RTVSPropertyOp26
 70
     1
102
RTVSPropertyOp27
 70
     1
102
RTVSPropertyOp28
 70
     1
102
RTVSPropertyOp29
 70
     1
102
RTVSPropertyOp30
 70
     1
102
RTVSPropertyOp31
 70
     1
102
RTVSPropertyOp32
 70
     1
  0
XRECORD
  5
1E7
102
{ACAD_REACTORS
330
1E6
102
}
330
1E6
100
AcDbXrecord
280
     1
102
RTVSPropertyOp0
 70
     1
102
RTVSPropertyOp1
 70
     1
102
RTVSPropertyOp2
 70
     1
102
RTVSPropertyOp3
 70
     1
102
RTVSPropertyOp4
 70
     1
102
RTVSPropertyOp5
 70
     1
102
RTVSPropertyOp6
 70
     1
102
RTVSPropertyOp7
 70
     1
102
RTVSPropertyOp8
 70
     1
102
RTVSPropertyOp9
 70
     1
102
RTVSPropertyOp10
 70
     1
102
RTVSPropertyOp11
 70
     1
102
RTVSPropertyOp12
 70
     1
102
RTVSPropertyOp13
 70
     1
102
RTVSPropertyOp14
 70
     1
102
RTVSPropertyOp15
 70
     1
102
RTVSPropertyOp16
 70
     1
102
RTVSPropertyOp17
 70
     1
102
RTVSPropertyOp18
 70
     1
102
RTVSPropertyOp19
 70
     1
102
RTVSPropertyOp20
 70
     1
102
RTVSPropertyOp21
 70
     1
102
RTVSPropertyOp22
 70
     1
102
RTVSPropertyOp23
 70
     1
102
RTVSPropertyOp24
 70
     1
102
RTVSPropertyOp25
 70
     1
102
RTVSPropertyOp26
 70
     1
102
RTVSPropertyOp27
 70
     1
102
RTVSPropertyOp28
 70
     1
102
RTVSPropertyOp29
 70
     1
102
RTVSPropertyOp30
 70
     1
102
RTVSPropertyOp31
 70
     1
102
RTVSPropertyOp32
 70
     1
  0
XRECORD
  5
1EF
102
{ACAD_REACTORS
330
1EE
102
}
330
1EE
100
AcDbXrecord
280
     1
102
RTVSPropertyOp0
 70
     1
102
RTVSPropertyOp1
 70
     1
102
RTVSPropertyOp2
 70
     1
102
RTVSPropertyOp3
 70
     1
102
RTVSPropertyOp4
 70
     1
102
RTVSPropertyOp5
 70
     1
102
RTVSPropertyOp6
 70
     1
102
RTVSPropertyOp7
 70
     1
102
RTVSPropertyOp8
 70
     1
102
RTVSPropertyOp9
 70
     1
102
RTVSPropertyOp10
 70
     1
102
RTVSPropertyOp11
 70
     1
102
RTVSPropertyOp12
 70
     1
102
RTVSPropertyOp13
 70
     1
102
RTVSPropertyOp14
 70
     1
102
RTVSPropertyOp15
 70
     1
102
RTVSPropertyOp16
 70
     1
102
RTVSPropertyOp17
 70
     1
102
RTVSPropertyOp18
 70
     1
102
RTVSPropertyOp19
 70
     1
102
RTVSPropertyOp20
 70
     1
102
RTVSPropertyOp21
 70
     1
102
RTVSPropertyOp22
 70
     1
102
RTVSPropertyOp23
 70
     1
102
RTVSPropertyOp24
 70
     1
102
RTVSPropertyOp25
 70
     1
102
RTVSPropertyOp26
 70
     1
102
RTVSPropertyOp27
 70
     1
102
RTVSPropertyOp28
 70
     1
102
RTVSPropertyOp29
 70
     1
102
RTVSPropertyOp30
 70
     1
102
RTVSPropertyOp31
 70
     1
102
RTVSPropertyOp32
 70
     1
  0
ENDSEC
  0
EOF
