  0
SECTION
  2
HEADER
  9
$ACADVER
  1
AC1009
  9
$INSBASE
 10
0.0
 20
0.0
 30
0.0
  9
$EXTMIN
 10
-118.86545813236511
 20
-211.2745617799076
 30
-0.0015258207003583
  9
$EXTMAX
 10
163.89543064633881
 20
252.30552912492271
 30
0.0000000349246037
  9
$LIMMIN
 10
0.0
 20
0.0
  9
$LIMMAX
 10
420.0
 20
297.0
  9
$ORTHOMODE
 70
     0
  9
$REGENMODE
 70
     1
  9
$FILLMODE
 70
     1
  9
$QTEXTMODE
 70
     0
  9
$MIRRTEXT
 70
     0
  9
$DRAGMODE
 70
     2
  9
$LTSCALE
 40
1.0
  9
$OSMODE
 70
     0
  9
$ATTMODE
 70
     1
  9
$TEXTSIZE
 40
35.0
  9
$TRACEWID
 40
1.0
  9
$TEXTSTYLE
  7
ARIAL
  9
$CLAYER
  8
0
  9
$CELTYPE
  6
CONTINUOUS
  9
$CECOLOR
 62
   256
  9
$DIMSCALE
 40
2.0
  9
$DIMASZ
 40
1.8
  9
$DIMEXO
 40
1.8
  9
$DIMDLI
 40
5.0
  9
$DIMRND
 40
0.0
  9
$DIMDLE
 40
1.8
  9
$DIMEXE
 40
1.8
  9
$DIMTP
 40
0.0
  9
$DIMTM
 40
0.0
  9
$DIMTXT
 40
2.0
  9
$DIMCEN
 40
1.8
  9
$DIMTSZ
 40
0.0
  9
$DIMTOL
 70
     0
  9
$DIMLIM
 70
     0
  9
$DIMTIH
 70
     0
  9
$DIMTOH
 70
     0
  9
$DIMSE1
 70
     0
  9
$DIMSE2
 70
     0
  9
$DIMTAD
 70
     1
  9
$DIMZIN
 70
     0
  9
$DIMBLK
  1

  9
$DIMASO
 70
     1
  9
$DIMSHO
 70
     1
  9
$DIMPOST
  1
mm
  9
$DIMAPOST
  1
mm
  9
$DIMALT
 70
     0
  9
$DIMALTD
 70
     2
  9
$DIMALTF
 40
0.0394
  9
$DIMLFAC
 40
1.0
  9
$DIMTOFL
 70
     0
  9
$DIMTVP
 40
0.0
  9
$DIMTIX
 70
     0
  9
$DIMSOXD
 70
     0
  9
$DIMSAH
 70
     0
  9
$DIMBLK1
  1

  9
$DIMBLK2
  1

  9
$DIMSTYLE
  2
1_TO_2
  9
$DIMCLRD
 70
   256
  9
$DIMCLRE
 70
   256
  9
$DIMCLRT
 70
   256
  9
$DIMTFAC
 40
1.0
  9
$DIMGAP
 40
1.0
  9
$LUNITS
 70
     2
  9
$LUPREC
 70
     1
  9
$SKETCHINC
 40
1.0
  9
$FILLETRAD
 40
0.0
  9
$AUNITS
 70
     1
  9
$AUPREC
 70
     4
  9
$MENU
  1
acad
  9
$ELEVATION
 40
0.0
  9
$PELEVATION
 40
0.0
  9
$THICKNESS
 40
0.0
  9
$LIMCHECK
 70
     0
  9
$BLIPMODE
 70
     0
  9
$CHAMFERA
 40
10.0
  9
$CHAMFERB
 40
10.0
  9
$SKPOLY
 70
     0
  9
$TDCREATE
 40
2450935.42424213
  9
$TDUPDATE
 40
2457100.7041841792
  9
$TDINDWG
 40
8.3664034722
  9
$TDUSRTIMER
 40
8.3664034722
  9
$USRTIMER
 70
     1
  9
$ANGBASE
 50
0.0
  9
$ANGDIR
 70
     0
  9
$PDMODE
 70
     0
  9
$PDSIZE
 40
-1.0
  9
$PLINEWID
 40
0.0
  9
$COORDS
 70
     2
  9
$SPLFRAME
 70
     0
  9
$SPLINETYPE
 70
     6
  9
$SPLINESEGS
 70
     8
  9
$ATTDIA
 70
     0
  9
$ATTREQ
 70
     1
  9
$HANDLING
 70
     1
  9
$HANDSEED
  5
80000513
  9
$SURFTAB1
 70
     6
  9
$SURFTAB2
 70
     6
  9
$SURFTYPE
 70
     6
  9
$SURFU
 70
     6
  9
$SURFV
 70
     6
  9
$UCSNAME
  2

  9
$UCSORG
 10
0.0
 20
0.0
 30
0.0
  9
$UCSXDIR
 10
1.0
 20
0.0
 30
0.0
  9
$UCSYDIR
 10
0.0
 20
1.0
 30
0.0
  9
$PUCSNAME
  2

  9
$PUCSORG
 10
0.0
 20
0.0
 30
0.0
  9
$PUCSXDIR
 10
1.0
 20
0.0
 30
0.0
  9
$PUCSYDIR
 10
0.0
 20
1.0
 30
0.0
  9
$USERI1
 70
    50
  9
$USERI2
 70
     1
  9
$USERI3
 70
     0
  9
$USERI4
 70
     2
  9
$USERI5
 70
     0
  9
$USERR1
 40
50.0
  9
$USERR2
 40
0.0
  9
$USERR3
 40
50.0
  9
$USERR4
 40
100.0
  9
$USERR5
 40
100.0
  9
$WORLDVIEW
 70
     1
  9
$SHADEDGE
 70
     3
  9
$SHADEDIF
 70
    70
  9
$TILEMODE
 70
     1
  9
$MAXACTVP
 70
    16
  9
$PLIMCHECK
 70
     0
  9
$PEXTMIN
 10
0.0
 20
0.0
 30
0.0
  9
$PEXTMAX
 10
0.0
 20
0.0
 30
0.0
  9
$PLIMMIN
 10
0.0
 20
0.0
  9
$PLIMMAX
 10
12.0
 20
9.0
  9
$UNITMODE
 70
     0
  9
$VISRETAIN
 70
     0
  9
$PLINEGEN
 70
     0
  9
$PSLTSCALE
 70
     1
  0
ENDSEC
  0
SECTION
  2
TABLES
  0
TABLE
  2
VPORT
 70
     1
  0
VPORT
  2
*ACTIVE
 70
     0
 10
0.0
 20
0.0
 11
1.0
 21
1.0
 12
22.514986256986859
 22
20.515483672507571
 13
0.0
 23
0.0
 14
1.0
 24
1.0
 15
10.0
 25
10.0
 16
0.0
 26
0.0
 36
1.0
 17
0.0
 27
0.0
 37
0.0
 40
466.73012549761501
 41
1.0918367346938771
 42
50.0
 43
0.0
 44
0.0
 50
0.0
 51
0.0
 71
     0
 72
   100
 73
     1
 74
     1
 75
     0
 76
     0
 77
     0
 78
     0
  0
ENDTAB
  0
TABLE
  2
LTYPE
 70
     5
  0
LTYPE
  2
CONTINUOUS
 70
     0
  3
Solid line
 72
    65
 73
     0
 40
0.0
  0
LTYPE
  2
PHANTOM
 70
     0
  3
Phantom ______  __  __  ______  __  __  ______
 72
    65
 73
     6
 40
63.5
 49
31.75
 49
-6.3499999999999988
 49
6.3499999999999988
 49
-6.3499999999999988
 49
6.3499999999999988
 49
-6.3499999999999988
  0
LTYPE
  2
DIVIDE2
 70
     0
  3
Divide (.5x) __..__..__..__..__..__..__..__.._
 72
    65
 73
     6
 40
15.875
 49
6.3499999999999988
 49
-3.1749999999999989
 49
0.0
 49
-3.1749999999999989
 49
0.0
 49
-3.1749999999999989
  0
LTYPE
  2
HIDDEN
 70
     0
  3
Hidden __ __ __ __ __ __ __ __ __ __ __ __ __ _
 72
    65
 73
     2
 40
9.5249999999999986
 49
6.3499999999999988
 49
-3.1749999999999989
  0
LTYPE
  2
CENTER
 70
     0
  3
Center ____ _ ____ _ ____ _ ____ _ ____ _ ____
 72
    65
 73
     4
 40
50.799999999999997
 49
31.75
 49
-6.3499999999999988
 49
6.3499999999999988
 49
-6.3499999999999988
  0
ENDTAB
  0
TABLE
  2
LAYER
 70
    17
  0
LAYER
  2
0
 70
     0
 62
     7
  6
CONTINUOUS
  0
LAYER
  2
DEFPOINTS
 70
     0
 62
     7
  6
CONTINUOUS
  0
ENDTAB
  0
TABLE
  2
STYLE
 70
     6
  0
STYLE
  2
STANDARD
 70
     0
 40
0.0
 41
1.0
 50
0.0
 71
     0
 42
3.5
  3
txt
  4

  0
STYLE
  2
2_5
 70
     0
 40
2.5
 41
1.0
 50
0.0
 71
     0
 42
2.5
  3
txt
  4

  0
STYLE
  2
ARIAL
 70
     0
 40
0.0
 41
1.0
 50
0.0
 71
     0
 42
35.0
  3
txt
  4

  0
STYLE
  2
DIMS
 70
     0
 40
0.0
 41
1.0
 50
0.0
 71
     0
 42
5.0
  3
txt
  4

  0
ENDTAB
  0
TABLE
  2
VIEW
 70
     7
  0
VIEW
  2
A
 70
     1
 40
27750.0
 10
17125.0
 20
13875.0
 41
34250.0
 11
0.0
 21
0.0
 31
1.0
 12
0.0
 22
0.0
 32
0.0
 42
50.0
 43
0.0
 44
0.0
 50
0.0
 71
     0
  0
VIEW
  2
MS-A
 70
     1
 40
27750.0
 10
17125.0
 20
13875.0
 41
34250.0
 11
0.0
 21
0.0
 31
1.0
 12
0.0
 22
0.0
 32
0.0
 42
50.0
 43
0.0
 44
0.0
 50
0.0
 71
     0
  0
VIEW
  2
PS-A
 70
     1
 40
560.0
 10
394.84013230429991
 20
280.0
 41
789.68026460859983
 11
0.0
 21
0.0
 31
1.0
 12
0.0
 22
0.0
 32
0.0
 42
50.0
 43
0.0
 44
0.0
 50
0.0
 71
     0
  0
VIEW
  2
VA
 70
     1
 40
560.0
 10
392.50000000000011
 20
280.0
 41
785.00000000000023
 11
0.0
 21
0.0
 31
1.0
 12
0.0
 22
0.0
 32
0.0
 42
50.0
 43
0.0
 44
0.0
 50
0.0
 71
     0
  0
VIEW
  2
OLE1
 70
     0
 40
345.8601932024103
 10
2600.9821360915112
 20
806.56956852478379
 41
556.93663464211659
 11
0.0
 21
0.0
 31
1.0
 12
0.0
 22
0.0
 32
0.0
 42
50.0
 43
0.0
 44
0.0
 50
0.0
 71
     0
  0
VIEW
  2
OLE2
 70
     0
 40
505.2618324112359
 10
3471.533163803088
 20
817.9724497586036
 41
844.67436105389822
 11
0.0
 21
0.0
 31
1.0
 12
0.0
 22
0.0
 32
0.0
 42
50.0
 43
0.0
 44
0.0
 50
0.0
 71
     0
  0
ENDTAB
  0
TABLE
  2
UCS
 70
     0
  0
ENDTAB
  0
TABLE
  2
APPID
 70
    15
  0
APPID
  2
ACAD
 70
     0
  0
APPID
  2
CONTENTTABDATA
 70
     0
  0
APPID
  2
CONTENTCURRENTTAB
 70
     0
  0
APPID
  2
CONTENTBLOCKICON
 70
     0
  0
APPID
  2
CONTENTBLOCKDESCRIPTION
 70
     0
  0
APPID
  2
ACAD_MLEADERVER
 70
     0
  0
APPID
  2
ACAD_EXEMPT_FROM_CAD_STANDARDS
 70
     0
  0
APPID
  2
ACAD_PSEXT
 70
     0
  0
APPID
  2
ACAD_DSTYLE_DIMJAG
 70
     0
  0
APPID
  2
ACAD_DSTYLE_DIMTALN
 70
     0
  0
APPID
  2
ACAD_DSTYLE_DIMBREAK
 70
     0
  0
APPID
  2
ACADANNOPO
 70
     0
  0
APPID
  2
ACAD_DSTYLE_DIMEXT_ENABLED
 70
     0
  0
APPID
  2
ACAD_DSTYLE_DIMEXT_LENGTH
 70
     0
  0
APPID
  2
ACAD_NAV_VCDISPLAY
 70
     0
  0
ENDTAB
  0
TABLE
  2
DIMSTYLE
 70
     3
  0
DIMSTYLE
  2
1_TO_2_LEADER
 70
     0
  3

  4

  5
ARCHTICK
  6

  7

 40
2.0
 41
1.8
 42
1.8
 43
5.0
 44
1.8
 45
0.0
 46
1.8
 47
0.0
 48
0.0
140
2.0
141
1.8
142
0.0
143
0.0394
144
1.0
145
0.0
146
1.0
147
1.0
 71
     0
 72
     0
 73
     0
 74
     0
 75
     0
 76
     0
 77
     0
 78
     0
170
     0
171
     2
172
     1
173
     0
174
     1
175
     0
176
     0
177
     0
178
     0
  0
DIMSTYLE
  2
1_TO_2_ANGLE
 70
     0
  3

  4

  5

  6

  7

 40
2.0
 41
1.8
 42
1.8
 43
5.0
 44
1.8
 45
0.0
 46
1.8
 47
0.0
 48
0.0
140
2.0
141
1.8
142
0.0
143
0.0394
144
1.0
145
0.0
146
1.0
147
1.0
 71
     0
 72
     0
 73
     0
 74
     0
 75
     0
 76
     0
 77
     1
 78
     0
170
     0
171
     2
172
     0
173
     0
174
     0
175
     0
176
   256
177
   256
178
   256
  0
DIMSTYLE
  2
1_TO_2
 70
     0
  3
mm
  4
mm
  5

  6

  7

 40
2.0
 41
1.8
 42
1.8
 43
5.0
 44
1.8
 45
0.0
 46
1.8
 47
0.0
 48
0.0
140
2.0
141
1.8
142
0.0
143
0.0394
144
1.0
145
0.0
146
1.0
147
1.0
 71
     0
 72
     0
 73
     0
 74
     0
 75
     0
 76
     0
 77
     1
 78
     0
170
     0
171
     2
172
     0
173
     0
174
     0
175
     0
176
   256
177
   256
178
   256
  0
ENDTAB
  0
ENDSEC
  0
SECTION
  2
BLOCKS
  0
BLOCK
  8
0
  2
$MODEL_SPACE
 70
     2
 10
0.0
 20
0.0
 30
0.0
  3
$MODEL_SPACE
  1

  0
ENDBLK
  5
FFBBDAE469BA29CD
  8
0
  0
BLOCK
 67
     1
  8
0
  2
$PAPER_SPACE
 70
     0
 10
0.0
 20
0.0
 30
0.0
  3
$PAPER_SPACE
  1

  0
ENDBLK
  5
FFBBDAE469BC3584
 67
     1
  8
0
  0
BLOCK
  8
0
  2
*D2
 70
     1
 10
0.0
 20
0.0
 30
0.0
  3
*D2
  1

  0
LINE
  5
FFBBDAE469BC36E1
  8
0
  6
CONTINUOUS
 10
-37.74105849609132
 20
20.432801703669501
 30
0.0
 11
-46.144843718984333
 21
20.432801703669501
 31
0.0
  0
LINE
  5
FFBBDAE469BC36E2
  8
0
  6
CONTINUOUS
 10
-39.241058496092229
 20
35.432809882806062
 30
0.0
 11
-46.144843718984333
 21
35.432809882806062
 31
0.0
  0
LINE
  5
FFBBDAE469BC36E3
  8
0
  6
CONTINUOUS
 10
-42.544843718984339
 20
24.032801703669499
 30
0.0
 11
-42.544843718984339
 21
31.83280988280606
 31
0.0
  0
INSERT
  5
FFBBDAE469BC36E4
  8
0
  6
CONTINUOUS
  2
*U53
 10
0.0
 20
0.0
 30
0.0
  0
SOLID
  5
FFBBDAE469BC36E5
  8
0
  6
CONTINUOUS
 10
-43.14484371898434
 20
24.032801703669499
 30
0.0
 11
-41.94484371898433
 21
24.032801703669499
 31
0.0
 12
-42.544843718984339
 22
20.432801703669501
 32
0.0
 13
-42.544843718984339
 23
20.432801703669501
 33
0.0
  0
SOLID
  5
FFBBDAE469BC36E6
  8
0
  6
CONTINUOUS
 10
-43.14484371898434
 20
31.83280988280606
 30
0.0
 11
-41.94484371898433
 21
31.83280988280606
 31
0.0
 12
-42.544843718984339
 22
35.432809882806062
 32
0.0
 13
-42.544843718984339
 23
35.432809882806062
 33
0.0
  0
POINT
  5
FFBBDAE469BC36E7
  8
DEFPOINTS
  6
CONTINUOUS
 62
     0
 10
-34.141058496091318
 20
20.432801703669501
 30
0.0
  0
POINT
  5
FFBBDAE469BC36E8
  8
DEFPOINTS
  6
CONTINUOUS
 62
     0
 10
-35.641058496092228
 20
35.432809882806062
 30
0.0
  0
POINT
  5
FFBBDAE469BC36E9
  8
DEFPOINTS
  6
CONTINUOUS
 62
     0
 10
-42.544843718984339
 20
35.432809882806062
 30
0.0
  0
ENDBLK
  5
FFBBDAE469BC0DC7
  8
0
  0
BLOCK
  8
0
  2
*D3
 70
     1
 10
0.0
 20
0.0
 30
0.0
  3
*D3
  1

  0
LINE
  5
FFBBDAE469BC36D8
  8
0
  6
CONTINUOUS
 10
-40.078451362284881
 20
-12.767200000000109
 30
0.0
 11
-46.14484371898434
 21
-12.767200000000109
 31
0.0
  0
LINE
  5
FFBBDAE469BC36D9
  8
0
  6
CONTINUOUS
 10
-40.078451362284881
 20
17.232809882806009
 30
0.0
 11
-46.144843718984333
 21
17.232809882806009
 31
0.0
  0
LINE
  5
FFBBDAE469BC36DA
  8
0
  6
CONTINUOUS
 10
-42.544843718984339
 20
-9.1672000000001166
 30
0.0
 11
-42.544843718984339
 21
13.63280988280601
 31
0.0
  0
INSERT
  5
FFBBDAE469BC36DB
  8
0
  6
CONTINUOUS
  2
*U52
 10
0.0
 20
0.0
 30
0.0
  0
SOLID
  5
FFBBDAE469BC36DC
  8
0
  6
CONTINUOUS
 10
-43.14484371898434
 20
-9.1672000000001166
 30
0.0
 11
-41.944843718984337
 21
-9.1672000000001166
 31
0.0
 12
-42.544843718984339
 22
-12.767200000000109
 32
0.0
 13
-42.544843718984339
 23
-12.767200000000109
 33
0.0
  0
SOLID
  5
FFBBDAE469BC36DD
  8
0
  6
CONTINUOUS
 10
-43.14484371898434
 20
13.63280988280601
 30
0.0
 11
-41.944843718984337
 21
13.63280988280601
 31
0.0
 12
-42.544843718984339
 22
17.232809882806009
 32
0.0
 13
-42.544843718984339
 23
17.232809882806009
 33
0.0
  0
POINT
  5
FFBBDAE469BC36DE
  8
DEFPOINTS
  6
CONTINUOUS
 62
     0
 10
-36.478451362284893
 20
-12.767200000000109
 30
0.0
  0
POINT
  5
FFBBDAE469BC36DF
  8
DEFPOINTS
  6
CONTINUOUS
 62
     0
 10
-36.478451362284893
 20
17.232809882806009
 30
0.0
  0
POINT
  5
FFBBDAE469BC36E0
  8
DEFPOINTS
  6
CONTINUOUS
 62
     0
 10
-42.544843718984339
 20
17.232809882806009
 30
0.0
  0
ENDBLK
  5
FFBBDAE469BC0FE7
  8
0
  0
BLOCK
  8
0
  2
*D4
 70
     1
 10
0.0
 20
0.0
 30
0.0
  3
*D4
  1

  0
LINE
  5
FFBBDAE469BC36CF
  8
0
  6
CONTINUOUS
 10
-39.241058496092229
 20
35.432799999999929
 30
0.0
 11
-46.144845366118822
 21
35.432799999999929
 31
0.0
  0
LINE
  5
FFBBDAE469BC36D0
  8
0
  6
CONTINUOUS
 10
-38.109479789020142
 20
110.432809882806
 30
0.0
 11
-46.144845366118808
 21
110.432809882806
 31
0.0
  0
LINE
  5
FFBBDAE469BC36D1
  8
0
  6
CONTINUOUS
 10
-42.544845366118821
 20
39.032799999999931
 30
0.0
 11
-42.5448453661188
 21
106.832809882806
 31
0.0
  0
SOLID
  5
FFBBDAE469BC36D2
  8
0
  6
CONTINUOUS
 10
-43.144845366118822
 20
39.032799999999931
 30
0.0
 11
-41.94484536611882
 21
39.032799999999931
 31
0.0
 12
-42.544845366118821
 22
35.432799999999929
 32
0.0
 13
-42.544845366118821
 23
35.432799999999929
 33
0.0
  0
SOLID
  5
FFBBDAE469BC36D3
  8
0
  6
CONTINUOUS
 10
-43.144845366118808
 20
106.832809882806
 30
0.0
 11
-41.944845366118798
 21
106.832809882806
 31
0.0
 12
-42.5448453661188
 22
110.432809882806
 32
0.0
 13
-42.5448453661188
 23
110.432809882806
 33
0.0
  0
INSERT
  5
FFBBDAE469BC36D4
  8
0
  6
CONTINUOUS
  2
*U51
 10
0.0
 20
0.0
 30
0.0
  0
POINT
  5
FFBBDAE469BC36D5
  8
DEFPOINTS
  6
CONTINUOUS
 62
     0
 10
-35.641058496092228
 20
35.432799999999929
 30
0.0
  0
POINT
  5
FFBBDAE469BC36D6
  8
DEFPOINTS
  6
CONTINUOUS
 62
     0
 10
-34.509479789020133
 20
110.432809882806
 30
0.0
  0
POINT
  5
FFBBDAE469BC36D7
  8
DEFPOINTS
  6
CONTINUOUS
 62
     0
 10
-42.5448453661188
 20
110.432809882806
 30
0.0
  0
ENDBLK
  5
FFBBDAE469BC1022
  8
0
  0
BLOCK
  8
0
  2
*D5
 70
     1
 10
0.0
 20
0.0
 30
0.0
  3
*D5
  1

  0
LINE
  5
FFBBDAE469BC36C6
  8
0
  6
CONTINUOUS
 10
-93.531602583251228
 20
-131.81080429532739
 30
0.0
 11
-107.13160258325119
 21
-131.81080429532739
 31
0.0
  0
LINE
  5
FFBBDAE469BC36C7
  8
0
  6
CONTINUOUS
 10
-93.531602583251228
 20
-96.810804295327443
 30
0.0
 11
-107.13160258325119
 21
-96.810804295327429
 31
0.0
  0
LINE
  5
FFBBDAE469BC36C8
  8
0
  6
CONTINUOUS
 10
-103.5316025832512
 20
-128.21080429532739
 30
0.0
 11
-103.5316025832512
 21
-100.4108042953274
 31
0.0
  0
INSERT
  5
FFBBDAE469BC36C9
  8
0
  6
CONTINUOUS
  2
*U50
 10
0.0
 20
0.0
 30
0.0
  0
SOLID
  5
FFBBDAE469BC36CA
  8
0
  6
CONTINUOUS
 10
-104.13160258325119
 20
-128.21080429532739
 30
0.0
 11
-102.93160258325121
 21
-128.21080429532739
 31
0.0
 12
-103.5316025832512
 22
-131.81080429532739
 32
0.0
 13
-103.5316025832512
 23
-131.81080429532739
 33
0.0
  0
SOLID
  5
FFBBDAE469BC36CB
  8
0
  6
CONTINUOUS
 10
-104.13160258325119
 20
-100.4108042953274
 30
0.0
 11
-102.93160258325121
 21
-100.4108042953274
 31
0.0
 12
-103.5316025832512
 22
-96.810804295327429
 32
0.0
 13
-103.5316025832512
 23
-96.810804295327429
 33
0.0
  0
POINT
  5
FFBBDAE469BC36CC
  8
DEFPOINTS
  6
CONTINUOUS
 62
     0
 10
-85.825789146912939
 20
-131.81080429532739
 30
0.0
  0
POINT
  5
FFBBDAE469BC36CD
  8
DEFPOINTS
  6
CONTINUOUS
 62
     0
 10
-85.825789146912939
 20
-96.810804295327443
 30
0.0
  0
POINT
  5
FFBBDAE469BC36CE
  8
DEFPOINTS
  6
CONTINUOUS
 62
     0
 10
-103.5316025832512
 20
-96.810804295327429
 30
0.0
  0
ENDBLK
  5
FFBBDAE469BC186C
  8
0
  0
BLOCK
  8
0
  2
*D6
 70
     1
 10
0.0
 20
0.0
 30
0.0
  3
*D6
  1

  0
LINE
  5
FFBBDAE469BC36BD
  8
0
  6
CONTINUOUS
 10
-96.065411581446014
 20
-146.81080429532739
 30
0.0
 11
-107.13160258325119
 21
-146.81080429532739
 31
0.0
  0
LINE
  5
FFBBDAE469BC36BE
  8
0
  6
CONTINUOUS
 10
-94.478704900863775
 20
-181.8385369060577
 30
0.0
 11
-107.13160258325119
 21
-181.8385369060577
 31
0.0
  0
LINE
  5
FFBBDAE469BC36BF
  8
0
  6
CONTINUOUS
 10
-103.5316025832512
 20
-150.41080429532741
 30
0.0
 11
-103.5316025832512
 21
-178.2385369060577
 31
0.0
  0
INSERT
  5
FFBBDAE469BC36C0
  8
0
  6
CONTINUOUS
  2
*U49
 10
0.0
 20
0.0
 30
0.0
  0
SOLID
  5
FFBBDAE469BC36C1
  8
0
  6
CONTINUOUS
 10
-104.13160258325119
 20
-150.41080429532741
 30
0.0
 11
-102.93160258325121
 21
-150.41080429532741
 31
0.0
 12
-103.5316025832512
 22
-146.81080429532739
 32
0.0
 13
-103.5316025832512
 23
-146.81080429532739
 33
0.0
  0
SOLID
  5
FFBBDAE469BC36C2
  8
0
  6
CONTINUOUS
 10
-104.13160258325119
 20
-178.2385369060577
 30
0.0
 11
-102.93160258325121
 21
-178.2385369060577
 31
0.0
 12
-103.5316025832512
 22
-181.8385369060577
 32
0.0
 13
-103.5316025832512
 23
-181.8385369060577
 33
0.0
  0
POINT
  5
FFBBDAE469BC36C3
  8
DEFPOINTS
  6
CONTINUOUS
 62
     0
 10
-92.465411581446006
 20
-146.81080429532739
 30
0.0
  0
POINT
  5
FFBBDAE469BC36C4
  8
DEFPOINTS
  6
CONTINUOUS
 62
     0
 10
-90.878704900863795
 20
-181.8385369060577
 30
0.0
  0
POINT
  5
FFBBDAE469BC36C5
  8
DEFPOINTS
  6
CONTINUOUS
 62
     0
 10
-103.5316025832512
 20
-181.8385369060577
 30
0.0
  0
ENDBLK
  5
FFBBDAE469BC1878
  8
0
  0
BLOCK
  8
0
  2
*D7
 70
     1
 10
0.0
 20
0.0
 30
0.0
  3
*D7
  1

  0
ARC
  5
FFBBDAE469BC36B3
  8
0
  6
CONTINUOUS
 10
-68.151298290551395
 20
-140.3038829300996
 30
0.0
 40
18.917341921188239
 50
158.1600053148818
 51
169.0800026574409
  0
ARC
  5
FFBBDAE469BC36B4
  8
0
  6
CONTINUOUS
 10
-68.151298290551395
 20
-140.3038829300996
 30
0.0
 40
18.917341921188239
 50
205.91999734255961
 51
216.8399946851188
  0
SOLID
  5
FFBBDAE469BC36B5
  8
0
  6
CONTINUOUS
 10
-86.128819650590714
 20
-136.7773070677593
 30
0.0
 11
-87.323375095736196
 21
-136.66312612156719
 31
0.0
 12
-87.068640211739634
 22
-140.3038829300996
 32
0.0
 13
-87.068640211739634
 23
-140.3038829300996
 33
0.0
  0
SOLID
  5
FFBBDAE469BC36B6
  8
0
  6
CONTINUOUS
 10
-85.727805219642065
 20
-148.78268257004919
 30
0.0
 11
-84.603505467704153
 21
-148.36321854561751
 31
0.0
 12
-86.424047416967923
 22
-145.2000513020196
 32
0.0
 13
-86.424047416967923
 23
-145.2000513020196
 33
0.0
  0
INSERT
  5
FFBBDAE469BC36B7
  8
0
  6
CONTINUOUS
  2
*U48
 10
0.0
 20
0.0
 30
0.0
  0
POINT
  5
FFBBDAE469BC36B8
  8
DEFPOINTS
  6
CONTINUOUS
 62
     0
 10
-86.996654014427847
 20
-141.95263791605231
 30
0.0
  0
POINT
  5
FFBBDAE469BC36B9
  8
DEFPOINTS
  6
CONTINUOUS
 62
     0
 10
-75.36106681065894
 20
-142.23573458267791
 30
0.0
  0
POINT
  5
FFBBDAE469BC36BA
  8
DEFPOINTS
  6
CONTINUOUS
 62
     0
 10
-75.878704900863795
 20
-140.3038829300996
 30
0.0
  0
POINT
  5
FFBBDAE469BC36BB
  8
DEFPOINTS
  6
CONTINUOUS
 62
     0
 10
-91.738241097808427
 20
-140.30388293009969
 30
0.0
  0
POINT
  5
FFBBDAE469BC36BC
  8
DEFPOINTS
  6
CONTINUOUS
 62
     0
 10
-89.39634299106865
 20
-145.99647550076651
 30
0.0
  0
ENDBLK
  5
FFBBDAE469BC1887
  8
0
  0
BLOCK
  8
0
  2
*D8
 70
     1
 10
0.0
 20
0.0
 30
0.0
  3
*D8
  1

  0
LINE
  5
FFBBDAE469BC36AA
  8
0
  6
CONTINUOUS
 10
0.1965520911921877
 20
20.432437117796781
 30
0.0
 11
13.79655209119219
 21
20.432437117796781
 31
0.0
  0
LINE
  5
FFBBDAE469BC36AB
  8
0
  6
CONTINUOUS
 10
0.1965520911921911
 20
35.432437117796781
 30
0.0
 11
13.79655209119219
 21
35.432437117796781
 31
0.0
  0
LINE
  5
FFBBDAE469BC36AC
  8
0
  6
CONTINUOUS
 10
10.19655209119219
 20
24.032437117796778
 30
0.0
 11
10.19655209119219
 21
31.832437117796779
 31
0.0
  0
INSERT
  5
FFBBDAE469BC36AD
  8
0
  6
CONTINUOUS
  2
*U47
 10
0.0
 20
0.0
 30
0.0
  0
SOLID
  5
FFBBDAE469BC36AE
  8
0
  6
CONTINUOUS
 10
9.5965520911921871
 20
24.032437117796778
 30
0.0
 11
10.796552091192179
 21
24.032437117796778
 31
0.0
 12
10.19655209119219
 22
20.432437117796781
 32
0.0
 13
10.19655209119219
 23
20.432437117796781
 33
0.0
  0
SOLID
  5
FFBBDAE469BC36AF
  8
0
  6
CONTINUOUS
 10
9.5965520911921889
 20
31.832437117796779
 30
0.0
 11
10.79655209119219
 21
31.832437117796779
 31
0.0
 12
10.19655209119219
 22
35.432437117796781
 32
0.0
 13
10.19655209119219
 23
35.432437117796781
 33
0.0
  0
POINT
  5
FFBBDAE469BC36B0
  8
DEFPOINTS
  6
CONTINUOUS
 62
     0
 10
-3.5000000000004539
 20
20.432437117796781
 30
0.0
  0
POINT
  5
FFBBDAE469BC36B1
  8
DEFPOINTS
  6
CONTINUOUS
 62
     0
 10
-3.5000000000004539
 20
35.432437117796781
 30
0.0
  0
POINT
  5
FFBBDAE469BC36B2
  8
DEFPOINTS
  6
CONTINUOUS
 62
     0
 10
10.19655209119219
 20
35.432437117796781
 30
0.0
  0
ENDBLK
  5
FFBBDAE469BC1A6E
  8
0
  0
BLOCK
  8
0
  2
*D11
 70
     1
 10
0.0
 20
0.0
 30
0.0
  3
*D11
  1

  0
LINE
  5
FFBBDAE469BC369F
  8
0
  6
CONTINUOUS
 10
-71.175060522832155
 20
-146.81080429532739
 30
0.0
 11
-57.57506052283216
 21
-146.81080429532739
 31
0.0
  0
LINE
  5
FFBBDAE469BC36A0
  8
0
  6
CONTINUOUS
 10
-71.175060522832155
 20
-131.81080429532739
 30
0.0
 11
-57.575060522832153
 21
-131.81080429532739
 31
0.0
  0
LINE
  5
FFBBDAE469BC36A1
  8
0
  6
CONTINUOUS
 10
-61.175060522832148
 20
-143.21080429532751
 30
0.0
 11
-61.175060522832148
 21
-135.41080429532741
 31
0.0
  0
LINE
  5
FFBBDAE469BC36A2
  8
0
  6
CONTINUOUS
 10
-61.175060522832148
 20
-139.31080429532739
 30
0.0
 11
-48.448184670171848
 21
-135.49274153952939
 31
0.0
  0
LINE
  5
FFBBDAE469BC36A3
  8
0
  6
CONTINUOUS
 10
-48.448184670171848
 20
-135.49274153952939
 30
0.0
 11
-48.448184670171841
 21
-106.4040648683152
 31
0.0
  0
INSERT
  5
FFBBDAE469BC36A4
  8
0
  6
CONTINUOUS
  2
*U46
 10
0.0
 20
0.0
 30
0.0
  0
SOLID
  5
FFBBDAE469BC36A5
  8
0
  6
CONTINUOUS
 10
-61.775060522832163
 20
-143.21080429532751
 30
0.0
 11
-60.57506052283216
 21
-143.21080429532751
 31
0.0
 12
-61.175060522832162
 22
-146.81080429532739
 32
0.0
 13
-61.175060522832162
 23
-146.81080429532739
 33
0.0
  0
SOLID
  5
FFBBDAE469BC36A6
  8
0
  6
CONTINUOUS
 10
-61.775060522832163
 20
-135.41080429532741
 30
0.0
 11
-60.57506052283216
 21
-135.41080429532741
 31
0.0
 12
-61.175060522832148
 22
-131.81080429532739
 32
0.0
 13
-61.175060522832148
 23
-131.81080429532739
 33
0.0
  0
POINT
  5
FFBBDAE469BC36A7
  8
DEFPOINTS
  6
CONTINUOUS
 62
     0
 10
-76.731260268401911
 20
-146.81080429532739
 30
0.0
  0
POINT
  5
FFBBDAE469BC36A8
  8
DEFPOINTS
  6
CONTINUOUS
 62
     0
 10
-76.825789146912939
 20
-131.81080429532739
 30
0.0
  0
POINT
  5
FFBBDAE469BC36A9
  8
DEFPOINTS
  6
CONTINUOUS
 62
     0
 10
-61.175060522832148
 20
-131.81080429532739
 30
0.0
  0
ENDBLK
  5
FFBBDAE469BC2845
  8
0
  0
BLOCK
  8
0
  2
_ARCHTICK
 70
     0
 10
0.0
 20
0.0
 30
0.0
  3
_ARCHTICK
  1

  0
POLYLINE
  5
FFBBDAE469BC2C68
  8
0
  6
BYBLOCK
 62
     0
 66
     1
 10
0.0
 20
0.0
 30
0.0
 40
0.15
 41
0.15
  0
VERTEX
  5
FFBBDAE469BC392D
  8
0
  6
BYBLOCK
 62
     0
 10
-0.5
 20
-0.5
 30
0.0
  0
VERTEX
  5
FFBBDAE469BC392E
  8
0
  6
BYBLOCK
 62
     0
 10
0.5
 20
0.5
 30
0.0
  0
SEQEND
  5
FFBBDAE469BC392F
  8
0
  6
BYBLOCK
 62
     0
  0
ENDBLK
  5
FFBBDAE469BC2C6A
  8
0
  0
BLOCK
  8
0
  2
*U14
 70
     1
 10
0.0
 20
0.0
 30
0.0
  3
*U14
  1

  0
SOLID
  5
FFBBDAE469BC3749
  8
0
  6
CONTINUOUS
 10
-21.759626477335129
 20
93.037641125535075
 30
0.0
 11
-21.936403172633138
 21
92.964417820831684
 31
0.0
 12
-21.0828497820394
 22
92.964417820831684
 32
0.0
 13
-21.0828497820394
 23
92.964417820831684
 33
0.0
  0
SOLID
  5
FFBBDAE469BC374A
  8
0
  6
CONTINUOUS
 10
21.759626477335129
 20
93.037641125535075
 30
0.0
 11
21.259626477336042
 21
93.037641125535075
 31
0.0
 12
21.0828497820394
 22
92.964417820831684
 32
0.0
 13
21.0828497820394
 23
92.964417820831684
 33
0.0
210
0.0
220
0.0
230
-1.0
  0
SOLID
  5
FFBBDAE469BC374B
  8
0
  6
CONTINUOUS
 10
-21.936403172632492
 20
92.964417820831684
 30
0.0
 11
-22.009626477336042
 21
92.78764112553506
 31
0.0
 12
-21.009626477336042
 22
92.78764112553506
 32
0.0
 13
-21.009626477336042
 23
92.78764112553506
 33
0.0
  0
SOLID
  5
FFBBDAE469BC374C
  8
0
  6
CONTINUOUS
 10
21.936403172632492
 20
92.964417820831684
 30
0.0
 11
21.0828497820394
 21
92.964417820831684
 31
0.0
 12
21.009626477336042
 22
92.78764112553506
 32
0.0
 13
21.009626477336042
 23
92.78764112553506
 33
0.0
210
0.0
220
0.0
230
-1.0
  0
SOLID
  5
FFBBDAE469BC374D
  8
0
  6
CONTINUOUS
 10
-22.009626477336042
 20
92.78764112553506
 30
0.0
 11
-22.009626477336042
 21
41.755163069374589
 31
0.0
 12
-21.009626477336042
 22
41.755163069374589
 32
0.0
 13
-21.009626477336042
 23
41.755163069374589
 33
0.0
210
0.0
220
0.0
230
1.0
  0
SOLID
  5
FFBBDAE469BC374E
  8
0
  6
CONTINUOUS
 10
22.009626477336042
 20
92.78764112553506
 30
0.0
 11
21.009626477336042
 21
92.78764112553506
 31
0.0
 12
21.009626477336042
 22
41.755163069374589
 32
0.0
 13
21.009626477336042
 23
41.755163069374589
 33
0.0
210
0.0
220
0.0
230
-1.0
  0
SOLID
  5
FFBBDAE469BC374F
  8
0
  6
CONTINUOUS
 10
-22.009626477336042
 20
41.755163069374589
 30
0.0
 11
-22.009626477336042
 21
23.309272786015189
 31
0.0
 12
-21.009626477336042
 22
23.309272786015189
 32
0.0
 13
-21.009626477336042
 23
23.309272786015189
 33
0.0
210
0.0
220
0.0
230
1.0
  0
SOLID
  5
FFBBDAE469BC3750
  8
0
  6
CONTINUOUS
 10
22.009626477336042
 20
41.755163069374589
 30
0.0
 11
21.009626477336042
 21
41.755163069374589
 31
0.0
 12
21.009626477336042
 22
23.309272786015189
 32
0.0
 13
21.009626477336042
 23
23.309272786015189
 33
0.0
210
0.0
220
0.0
230
-1.0
  0
SOLID
  5
FFBBDAE469BC3751
  8
0
  6
CONTINUOUS
 10
-22.009626477336042
 20
23.309272786015189
 30
0.0
 11
-22.009626477335988
 21
23.182329314029971
 31
0.0
 12
-21.009626477336042
 22
23.182329314029971
 32
0.0
 13
-21.009626477336042
 23
23.182329314029971
 33
0.0
210
0.0
220
0.0
230
1.0
  0
SOLID
  5
FFBBDAE469BC3752
  8
0
  6
CONTINUOUS
 10
22.009626477336042
 20
23.309272786015189
 30
0.0
 11
21.009626477336042
 21
23.309272786015189
 31
0.0
 12
21.009626477336042
 22
23.182329314029971
 32
0.0
 13
21.009626477336042
 23
23.182329314029971
 33
0.0
210
0.0
220
0.0
230
-1.0
  0
SOLID
  5
FFBBDAE469BC3753
  8
0
  6
CONTINUOUS
 10
-22.009626477335988
 20
23.182329314029971
 30
0.0
 11
-22.009626477335129
 21
21.10079654383696
 31
0.0
 12
-21.009626477336042
 22
21.10079654383696
 32
0.0
 13
-21.009626477336042
 23
21.10079654383696
 33
0.0
210
0.0
220
0.0
230
1.0
  0
SOLID
  5
FFBBDAE469BC3754
  8
0
  6
CONTINUOUS
 10
22.009626477335988
 20
23.182329314029971
 30
0.0
 11
21.009626477336042
 21
23.182329314029971
 31
0.0
 12
21.009626477336042
 22
21.10079654383696
 32
0.0
 13
21.009626477336042
 23
21.10079654383696
 33
0.0
210
0.0
220
0.0
230
-1.0
  0
SOLID
  5
FFBBDAE469BC3755
  8
0
  6
CONTINUOUS
 10
-22.009626477335129
 20
21.10079654383696
 30
0.0
 11
-22.112949807191651
 21
20.796415829329721
 31
0.0
 12
-21.009626477336042
 22
20.796415829329721
 32
0.0
 13
-21.009626477336042
 23
20.796415829329721
 33
0.0
210
0.0
220
0.0
230
1.0
  0
SOLID
  5
FFBBDAE469BC3756
  8
0
  6
CONTINUOUS
 10
22.009626477335129
 20
21.10079654383696
 30
0.0
 11
21.009626477336042
 21
21.10079654383696
 31
0.0
 12
21.009626477336042
 22
20.796415829329721
 32
0.0
 13
21.009626477336042
 23
20.796415829329721
 33
0.0
210
0.0
220
0.0
230
-1.0
  0
SOLID
  5
FFBBDAE469BC3757
  8
0
  6
CONTINUOUS
 10
-22.112949807191651
 20
20.796415829329721
 30
0.0
 11
-22.38021695479074
 21
20.61783363069048
 31
0.0
 12
-21.009626477336042
 22
20.61783363069048
 32
0.0
 13
-21.009626477336042
 23
20.61783363069048
 33
0.0
  0
SOLID
  5
FFBBDAE469BC3758
  8
0
  6
CONTINUOUS
 10
22.112949807191651
 20
20.796415829329721
 30
0.0
 11
21.009626477336042
 21
20.796415829329721
 31
0.0
 12
21.009626477336042
 22
20.61783363069048
 32
0.0
 13
21.009626477336042
 23
20.61783363069048
 33
0.0
210
0.0
220
0.0
230
-1.0
  0
SOLID
  5
FFBBDAE469BC3759
  8
0
  6
CONTINUOUS
 10
-22.38021695479074
 20
20.61783363069048
 30
0.0
 11
-30.335113094865299
 21
19.513207096161182
 31
0.0
 12
-21.009626477336042
 22
19.513207096161182
 32
0.0
 13
-21.009626477336042
 23
19.513207096161182
 33
0.0
210
0.0
220
0.0
230
1.0
  0
SOLID
  5
FFBBDAE469BC375A
  8
0
  6
CONTINUOUS
 10
22.38021695479074
 20
20.61783363069048
 30
0.0
 11
21.009626477336042
 21
20.61783363069048
 31
0.0
 12
21.009626477336042
 22
19.513207096161182
 32
0.0
 13
21.009626477336042
 23
19.513207096161182
 33
0.0
210
0.0
220
0.0
230
-1.0
  0
SOLID
  5
FFBBDAE469BC375B
  8
0
  6
CONTINUOUS
 10
-22.63903599988635
 20
19.513207096161182
 30
0.0
 11
-22.205245762830391
 21
19.42692085316196
 31
0.0
 12
-21.009626477336042
 22
19.42692085316196
 32
0.0
 13
-21.009626477336042
 23
19.42692085316196
 33
0.0
210
0.0
220
0.0
230
1.0
  0
SOLID
  5
FFBBDAE469BC375C
  8
0
  6
CONTINUOUS
 10
22.63903599988635
 20
19.513207096161182
 30
0.0
 11
21.009626477336042
 21
19.513207096161182
 31
0.0
 12
21.009626477336042
 22
19.42692085316196
 32
0.0
 13
21.009626477336042
 23
19.42692085316196
 33
0.0
210
0.0
220
0.0
230
-1.0
  0
SOLID
  5
FFBBDAE469BC375D
  8
0
  6
CONTINUOUS
 10
-30.335113094865299
 20
19.513207096161182
 30
0.0
 11
-33.319506585873121
 21
19.098790593218268
 31
0.0
 12
-25.767900698885722
 22
19.098790593218268
 32
0.0
 13
-25.767900698885722
 23
19.098790593218268
 33
0.0
210
0.0
220
0.0
230
1.0
  0
SOLID
  5
FFBBDAE469BC375E
  8
0
  6
CONTINUOUS
 10
30.335113094865299
 20
19.513207096161182
 30
0.0
 11
22.63903599988635
 21
19.513207096161182
 31
0.0
 12
25.767900698885722
 22
19.098790593218268
 32
0.0
 13
25.767900698885722
 23
19.098790593218268
 33
0.0
210
0.0
220
0.0
230
-1.0
  0
SOLID
  5
FFBBDAE469BC375F
  8
0
  6
CONTINUOUS
 10
-22.205245762830391
 20
19.42692085316196
 30
0.0
 11
-22.009626477335129
 21
19.030244183015721
 31
0.0
 12
-21.009626477336042
 22
19.030244183015721
 32
0.0
 13
-21.009626477336042
 23
19.030244183015721
 33
0.0
  0
SOLID
  5
FFBBDAE469BC3760
  8
0
  6
CONTINUOUS
 10
22.205245762830391
 20
19.42692085316196
 30
0.0
 11
21.009626477336042
 21
19.42692085316196
 31
0.0
 12
21.009626477336042
 22
19.030244183015721
 32
0.0
 13
21.009626477336042
 23
19.030244183015721
 33
0.0
210
0.0
220
0.0
230
-1.0
  0
SOLID
  5
FFBBDAE469BC3761
  8
0
  6
CONTINUOUS
 10
-33.319506585873121
 20
19.098790593218268
 30
0.0
 11
-34.712360344409973
 21
18.132864766930989
 31
0.0
 12
-33.060687540770687
 22
18.132864766930989
 32
0.0
 13
-33.060687540770687
 23
18.132864766930989
 33
0.0
210
0.0
220
0.0
230
1.0
  0
SOLID
  5
FFBBDAE469BC3762
  8
0
  6
CONTINUOUS
 10
33.319506585873121
 20
19.098790593218268
 30
0.0
 11
25.767900698885722
 21
19.098790593218268
 31
0.0
 12
33.060687540770687
 22
18.132864766930989
 32
0.0
 13
33.060687540770687
 23
18.132864766930989
 33
0.0
210
0.0
220
0.0
230
-1.0
  0
SOLID
  5
FFBBDAE469BC3763
  8
0
  6
CONTINUOUS
 10
-34.712360344409973
 20
18.132864766930989
 30
0.0
 11
-35.539946450520638
 21
17.55894464899373
 31
0.0
 12
-33.888273646880428
 22
17.55894464899373
 32
0.0
 13
-33.888273646880428
 23
17.55894464899373
 33
0.0
210
0.0
220
0.0
230
1.0
  0
SOLID
  5
FFBBDAE469BC3764
  8
0
  6
CONTINUOUS
 10
34.712360344409973
 20
18.132864766930989
 30
0.0
 11
33.060687540770687
 21
18.132864766930989
 31
0.0
 12
33.888273646880428
 22
17.55894464899373
 32
0.0
 13
33.888273646880428
 23
17.55894464899373
 33
0.0
210
0.0
220
0.0
230
-1.0
  0
SOLID
  5
FFBBDAE469BC3765
  8
0
  6
CONTINUOUS
 10
-35.539946450520638
 20
17.55894464899373
 30
0.0
 11
-35.704097462151744
 21
16.977980308760849
 31
0.0
 12
-34.72601743925695
 22
16.977980308760849
 32
0.0
 13
-34.72601743925695
 23
16.977980308760849
 33
0.0
210
0.0
220
0.0
230
1.0
  0
SOLID
  5
FFBBDAE469BC3766
  8
0
  6
CONTINUOUS
 10
35.539946450520638
 20
17.55894464899373
 30
0.0
 11
33.888273646880428
 21
17.55894464899373
 31
0.0
 12
34.72601743925695
 22
16.977980308760849
 32
0.0
 13
34.72601743925695
 23
16.977980308760849
 33
0.0
210
0.0
220
0.0
230
-1.0
  0
SOLID
  5
FFBBDAE469BC3767
  8
0
  6
CONTINUOUS
 10
-35.704097462151744
 20
16.977980308760849
 30
0.0
 11
-36.255136355831532
 21
15.02773983123768
 31
0.0
 12
-35.277056332934542
 22
15.02773983123768
 32
0.0
 13
-35.277056332934542
 23
15.02773983123768
 33
0.0
210
0.0
220
0.0
230
1.0
  0
SOLID
  5
FFBBDAE469BC3768
  8
0
  6
CONTINUOUS
 10
35.704097462151744
 20
16.977980308760849
 30
0.0
 11
34.72601743925695
 21
16.977980308760849
 31
0.0
 12
35.277056332934542
 22
15.02773983123768
 32
0.0
 13
35.277056332934542
 23
15.02773983123768
 33
0.0
210
0.0
220
0.0
230
-1.0
  0
SOLID
  5
FFBBDAE469BC3769
  8
0
  6
CONTINUOUS
 10
-36.255136355831532
 20
15.02773983123768
 30
0.0
 11
-36.274664975426283
 21
14.95862401229885
 31
0.0
 12
-35.268222985486297
 22
14.95862401229885
 32
0.0
 13
-35.268222985486297
 23
14.95862401229885
 33
0.0
210
0.0
220
0.0
230
1.0
  0
SOLID
  5
FFBBDAE469BC376A
  8
0
  6
CONTINUOUS
 10
36.255136355831532
 20
15.02773983123768
 30
0.0
 11
35.277056332934542
 21
15.02773983123768
 31
0.0
 12
35.268222985486297
 22
14.95862401229885
 32
0.0
 13
35.268222985486297
 23
14.95862401229885
 33
0.0
210
0.0
220
0.0
230
-1.0
  0
SOLID
  5
FFBBDAE469BC376B
  8
0
  6
CONTINUOUS
 10
-36.274664975426283
 20
14.95862401229885
 30
0.0
 11
-34.832092575402839
 21
3.70553503717781
 31
0.0
 12
-33.830021915032468
 22
3.70553503717781
 32
0.0
 13
-33.830021915032468
 23
3.70553503717781
 33
0.0
  0
SOLID
  5
FFBBDAE469BC376C
  8
0
  6
CONTINUOUS
 10
36.274664975426283
 20
14.95862401229885
 30
0.0
 11
35.268222985486297
 21
14.95862401229885
 31
0.0
 12
33.830021915032468
 22
3.70553503717781
 32
0.0
 13
33.830021915032468
 23
3.70553503717781
 33
0.0
210
0.0
220
0.0
230
-1.0
  0
SOLID
  5
FFBBDAE469BC376D
  8
0
  6
CONTINUOUS
 10
-34.832092575402839
 20
3.70553503717781
 30
0.0
 11
-34.830468981271068
 21
3.6999572881271661
 31
0.0
 12
-33.829309050798201
 22
3.6999572881271661
 32
0.0
 13
-33.829309050798201
 23
3.6999572881271661
 33
0.0
  0
SOLID
  5
FFBBDAE469BC376E
  8
0
  6
CONTINUOUS
 10
34.832092575402839
 20
3.70553503717781
 30
0.0
 11
33.830021915032468
 21
3.70553503717781
 31
0.0
 12
33.829309050798201
 22
3.6999572881271661
 32
0.0
 13
33.829309050798201
 23
3.6999572881271661
 33
0.0
210
0.0
220
0.0
230
-1.0
  0
SOLID
  5
FFBBDAE469BC376F
  8
0
  6
CONTINUOUS
 10
-34.830468981271068
 20
3.6999572881271661
 30
0.0
 11
-34.791989358827941
 21
3.5677631188141952
 31
0.0
 12
-33.80187904389485
 22
3.5677631188141952
 32
0.0
 13
-33.80187904389485
 23
3.5677631188141952
 33
0.0
210
0.0
220
0.0
230
1.0
  0
SOLID
  5
FFBBDAE469BC3770
  8
0
  6
CONTINUOUS
 10
34.830468981271068
 20
3.6999572881271661
 30
0.0
 11
33.829309050798201
 21
3.6999572881271661
 31
0.0
 12
33.80187904389485
 22
3.5677631188141952
 32
0.0
 13
33.80187904389485
 23
3.5677631188141952
 33
0.0
210
0.0
220
0.0
230
-1.0
  0
SOLID
  5
FFBBDAE469BC3771
  8
0
  6
CONTINUOUS
 10
-34.791989358827941
 20
3.5677631188141952
 30
0.0
 11
-34.757048745732916
 21
3.4477269794209628
 31
0.0
 12
-33.740080751696503
 22
3.4477269794209628
 32
0.0
 13
-33.740080751696503
 23
3.4477269794209628
 33
0.0
210
0.0
220
0.0
230
1.0
  0
SOLID
  5
FFBBDAE469BC3772
  8
0
  6
CONTINUOUS
 10
34.791989358827941
 20
3.5677631188141952
 30
0.0
 11
33.80187904389485
 21
3.5677631188141952
 31
0.0
 12
33.740080751696503
 22
3.4477269794209628
 32
0.0
 13
33.740080751696503
 23
3.4477269794209628
 33
0.0
210
0.0
220
0.0
230
-1.0
  0
SOLID
  5
FFBBDAE469BC3773
  8
0
  6
CONTINUOUS
 10
-34.757048745732916
 20
3.4477269794209628
 30
0.0
 11
-34.653959326348406
 21
3.093570173942096
 31
0.0
 12
-33.492097486791728
 22
3.093570173942096
 32
0.0
 13
-33.492097486791728
 23
3.093570173942096
 33
0.0
210
0.0
220
0.0
230
1.0
  0
SOLID
  5
FFBBDAE469BC3774
  8
0
  6
CONTINUOUS
 10
34.757048745732916
 20
3.4477269794209628
 30
0.0
 11
33.740080751696503
 21
3.4477269794209628
 31
0.0
 12
33.492097486791728
 22
3.093570173942096
 32
0.0
 13
33.492097486791728
 23
3.093570173942096
 33
0.0
210
0.0
220
0.0
230
-1.0
  0
SOLID
  5
FFBBDAE469BC3775
  8
0
  6
CONTINUOUS
 10
-34.653959326348406
 20
3.093570173942096
 30
0.0
 11
-34.381672557009558
 21
2.7776985990384442
 31
0.0
 12
-33.270921828937837
 22
2.7776985990384442
 32
0.0
 13
-33.270921828937837
 23
2.7776985990384442
 33
0.0
210
0.0
220
0.0
230
1.0
  0
SOLID
  5
FFBBDAE469BC3776
  8
0
  6
CONTINUOUS
 10
34.653959326348406
 20
3.093570173942096
 30
0.0
 11
33.492097486791728
 21
3.093570173942096
 31
0.0
 12
33.270921828937837
 22
2.7776985990384442
 32
0.0
 13
33.270921828937837
 23
2.7776985990384442
 33
0.0
210
0.0
220
0.0
230
-1.0
  0
SOLID
  5
FFBBDAE469BC3777
  8
0
  6
CONTINUOUS
 10
-34.381672557009558
 20
2.7776985990384442
 30
0.0
 11
-34.23781363463695
 21
2.610812251662423
 31
0.0
 12
-33.233924016456442
 22
2.610812251662423
 32
0.0
 13
-33.233924016456442
 23
2.610812251662423
 33
0.0
  0
SOLID
  5
FFBBDAE469BC3778
  8
0
  6
CONTINUOUS
 10
34.381672557009558
 20
2.7776985990384442
 30
0.0
 11
33.270921828937837
 21
2.7776985990384442
 31
0.0
 12
33.233924016456442
 22
2.610812251662423
 32
0.0
 13
33.233924016456442
 23
2.610812251662423
 33
0.0
210
0.0
220
0.0
230
-1.0
  0
SOLID
  5
FFBBDAE469BC3779
  8
0
  6
CONTINUOUS
 10
-34.23781363463695
 20
2.610812251662423
 30
0.0
 11
-34.211352127128642
 21
2.5908924455341089
 31
0.0
 12
-33.22950790175689
 22
2.5908924455341089
 32
0.0
 13
-33.22950790175689
 23
2.5908924455341089
 33
0.0
210
0.0
220
0.0
230
1.0
  0
SOLID
  5
FFBBDAE469BC377A
  8
0
  6
CONTINUOUS
 10
34.23781363463695
 20
2.610812251662423
 30
0.0
 11
33.233924016456442
 21
2.610812251662423
 31
0.0
 12
33.22950790175689
 22
2.5908924455341089
 32
0.0
 13
33.22950790175689
 23
2.5908924455341089
 33
0.0
210
0.0
220
0.0
230
-1.0
  0
SOLID
  5
FFBBDAE469BC377B
  8
0
  6
CONTINUOUS
 10
-34.211352127128642
 20
2.5908924455341089
 30
0.0
 11
-33.99697999289149
 21
2.4295164788785542
 31
0.0
 12
-33.332315730921891
 22
2.4295164788785542
 32
0.0
 13
-33.332315730921891
 23
2.4295164788785542
 33
0.0
210
0.0
220
0.0
230
1.0
  0
SOLID
  5
FFBBDAE469BC377C
  8
0
  6
CONTINUOUS
 10
34.211352127128642
 20
2.5908924455341089
 30
0.0
 11
33.22950790175689
 21
2.5908924455341089
 31
0.0
 12
33.332315730921891
 22
2.4295164788785542
 32
0.0
 13
33.332315730921891
 23
2.4295164788785542
 33
0.0
210
0.0
220
0.0
230
-1.0
  0
SOLID
  5
FFBBDAE469BC377D
  8
0
  6
CONTINUOUS
 10
-33.99697999289149
 20
2.4295164788785542
 30
0.0
 11
-33.821712754894641
 21
2.2975780622767839
 31
0.0
 12
-33.520743317603383
 22
2.2975780622767839
 32
0.0
 13
-33.520743317603383
 23
2.2975780622767839
 33
0.0
210
0.0
220
0.0
230
1.0
  0
SOLID
  5
FFBBDAE469BC377E
  8
0
  6
CONTINUOUS
 10
33.99697999289149
 20
2.4295164788785542
 30
0.0
 11
33.332315730921891
 21
2.4295164788785542
 31
0.0
 12
33.520743317603383
 22
2.2975780622767839
 32
0.0
 13
33.520743317603383
 23
2.2975780622767839
 33
0.0
210
0.0
220
0.0
230
-1.0
  0
SOLID
  5
FFBBDAE469BC377F
  8
0
  6
CONTINUOUS
 10
33.807013629272838
 20
2.2925228035263672
 30
0.0
 11
33.527962975311311
 21
2.2925228035263672
 31
0.0
 12
33.675658798542031
 22
2.247347826827284
 32
0.0
 13
33.675658798542031
 23
2.247347826827284
 33
0.0
210
0.0
220
0.0
230
-1.0
  0
SOLID
  5
FFBBDAE469BC3780
  8
0
  6
CONTINUOUS
 10
-33.821712754894641
 20
2.2975780622767839
 30
0.0
 11
-33.807013629272838
 21
2.2925228035263672
 31
0.0
 12
-33.527962975311311
 22
2.2925228035263672
 32
0.0
 13
-33.527962975311311
 23
2.2925228035263672
 33
0.0
210
0.0
220
0.0
230
1.0
  0
SOLID
  5
FFBBDAE469BC3781
  8
0
  6
CONTINUOUS
 10
33.821712754894641
 20
2.2975780622767839
 30
0.0
 11
33.520743317603383
 21
2.2975780622767839
 31
0.0
 12
33.527962975311311
 22
2.2925228035263672
 32
0.0
 13
33.527962975311311
 23
2.2925228035263672
 33
0.0
210
0.0
220
0.0
230
-1.0
  0
SOLID
  5
FFBBDAE469BC3782
  8
0
  6
CONTINUOUS
 10
-22.009626477335129
 20
19.030244183015721
 30
0.0
 11
-22.009626477335129
 21
-3.2448369306254099
 31
0.0
 12
-21.009626477336042
 22
-3.2448369306254099
 32
0.0
 13
-21.009626477336042
 23
-3.2448369306254099
 33
0.0
210
0.0
220
0.0
230
1.0
  0
SOLID
  5
FFBBDAE469BC3783
  8
0
  6
CONTINUOUS
 10
22.009626477335129
 20
19.030244183015721
 30
0.0
 11
21.009626477336042
 21
19.030244183015721
 31
0.0
 12
21.009626477336042
 22
-3.2448369306254099
 32
0.0
 13
21.009626477336042
 23
-3.2448369306254099
 33
0.0
210
0.0
220
0.0
230
-1.0
  0
SOLID
  5
FFBBDAE469BC3784
  8
0
  6
CONTINUOUS
 10
-22.009626477335129
 20
-3.2448369306254099
 30
0.0
 11
-22.009626477336042
 21
-7.7123588744649387
 31
0.0
 12
-21.009626477336042
 22
-7.7123588744649387
 32
0.0
 13
-21.009626477336042
 23
-7.7123588744649387
 33
0.0
210
0.0
220
0.0
230
1.0
  0
SOLID
  5
FFBBDAE469BC3785
  8
0
  6
CONTINUOUS
 10
22.009626477335129
 20
-3.2448369306254099
 30
0.0
 11
21.009626477336042
 21
-3.2448369306254099
 31
0.0
 12
21.009626477336042
 22
-7.7123588744649387
 32
0.0
 13
21.009626477336042
 23
-7.7123588744649387
 33
0.0
210
0.0
220
0.0
230
-1.0
  0
SOLID
  5
FFBBDAE469BC3786
  8
0
  6
CONTINUOUS
 10
-22.009626477336042
 20
-7.7123588744649387
 30
0.0
 11
-21.93640317263268
 21
-7.8891355697615761
 31
0.0
 12
-21.0828497820394
 22
-7.8891355697615761
 32
0.0
 13
-21.0828497820394
 23
-7.8891355697615761
 33
0.0
210
0.0
220
0.0
230
1.0
  0
SOLID
  5
FFBBDAE469BC3787
  8
0
  6
CONTINUOUS
 10
22.009626477336042
 20
-7.7123588744649387
 30
0.0
 11
21.009626477336042
 21
-7.7123588744649387
 31
0.0
 12
21.0828497820394
 22
-7.8891355697615761
 32
0.0
 13
21.0828497820394
 23
-7.8891355697615761
 33
0.0
210
0.0
220
0.0
230
-1.0
  0
SOLID
  5
FFBBDAE469BC3788
  8
0
  6
CONTINUOUS
 10
-21.93640317263268
 20
-7.8891355697615761
 30
0.0
 11
-21.759626477336042
 21
-7.9623588744649387
 31
0.0
 12
-21.259626477336042
 22
-7.9623588744649387
 32
0.0
 13
-21.259626477336042
 23
-7.9623588744649387
 33
0.0
210
0.0
220
0.0
230
1.0
  0
SOLID
  5
FFBBDAE469BC3789
  8
0
  6
CONTINUOUS
 10
21.93640317263268
 20
-7.8891355697615761
 30
0.0
 11
21.0828497820394
 21
-7.8891355697615761
 31
0.0
 12
21.259626477336042
 22
-7.9623588744649387
 32
0.0
 13
21.259626477336042
 23
-7.9623588744649387
 33
0.0
210
0.0
220
0.0
230
-1.0
  0
LINE
  5
FFBBDAE469BC378A
  8
0
  6
CONTINUOUS
 10
-21.759626477335129
 20
93.037641125535075
 30
0.0
 11
-21.936403172633138
 21
92.964417820831684
 31
0.0
  0
LINE
  5
FFBBDAE469BC378B
  8
0
  6
CONTINUOUS
 10
-21.259626477336042
 20
93.037641125535075
 30
0.0
 11
-21.0828497820394
 21
92.964417820831684
 31
0.0
  0
LINE
  5
FFBBDAE469BC378C
  8
0
  6
CONTINUOUS
 10
-21.936403172632492
 20
92.964417820831684
 30
0.0
 11
-22.009626477336042
 21
92.78764112553506
 31
0.0
  0
LINE
  5
FFBBDAE469BC378D
  8
0
  6
CONTINUOUS
 10
-21.0828497820394
 20
92.964417820831684
 30
0.0
 11
-21.009626477336042
 21
92.78764112553506
 31
0.0
  0
LINE
  5
FFBBDAE469BC378E
  8
0
  6
CONTINUOUS
 10
-22.009626477336042
 20
92.78764112553506
 30
0.0
 11
-22.009626477336042
 21
41.755163069374589
 31
0.0
  0
LINE
  5
FFBBDAE469BC378F
  8
0
  6
CONTINUOUS
 10
-21.009626477336042
 20
92.78764112553506
 30
0.0
 11
-21.009626477336042
 21
41.755163069374589
 31
0.0
  0
LINE
  5
FFBBDAE469BC3790
  8
0
  6
CONTINUOUS
 10
-22.009626477336042
 20
41.755163069374589
 30
0.0
 11
-22.009626477336042
 21
23.309272786015189
 31
0.0
  0
LINE
  5
FFBBDAE469BC3791
  8
0
  6
CONTINUOUS
 10
-21.009626477336042
 20
41.755163069374589
 30
0.0
 11
-21.009626477336042
 21
23.309272786015189
 31
0.0
  0
LINE
  5
FFBBDAE469BC3792
  8
0
  6
CONTINUOUS
 10
-22.009626477336042
 20
23.309272786015189
 30
0.0
 11
-22.009626477335988
 21
23.182329314029971
 31
0.0
  0
LINE
  5
FFBBDAE469BC3793
  8
0
  6
CONTINUOUS
 10
-21.009626477336042
 20
23.309272786015189
 30
0.0
 11
-21.009626477336042
 21
23.182329314029971
 31
0.0
  0
LINE
  5
FFBBDAE469BC3794
  8
0
  6
CONTINUOUS
 10
-22.009626477335988
 20
23.182329314029971
 30
0.0
 11
-22.009626477335129
 21
21.10079654383696
 31
0.0
  0
LINE
  5
FFBBDAE469BC3795
  8
0
  6
CONTINUOUS
 10
-21.009626477336042
 20
23.182329314029971
 30
0.0
 11
-21.009626477336042
 21
21.10079654383696
 31
0.0
  0
LINE
  5
FFBBDAE469BC3796
  8
0
  6
CONTINUOUS
 10
-22.009626477335129
 20
21.10079654383696
 30
0.0
 11
-22.112949807191651
 21
20.796415829329721
 31
0.0
  0
LINE
  5
FFBBDAE469BC3797
  8
0
  6
CONTINUOUS
 10
-21.009626477336042
 20
21.10079654383696
 30
0.0
 11
-21.009626477336042
 21
20.796415829329721
 31
0.0
  0
LINE
  5
FFBBDAE469BC3798
  8
0
  6
CONTINUOUS
 10
-22.112949807191651
 20
20.796415829329721
 30
0.0
 11
-22.38021695479074
 21
20.61783363069048
 31
0.0
  0
LINE
  5
FFBBDAE469BC3799
  8
0
  6
CONTINUOUS
 10
-21.009626477336042
 20
20.796415829329721
 30
0.0
 11
-21.009626477336042
 21
20.61783363069048
 31
0.0
  0
LINE
  5
FFBBDAE469BC379A
  8
0
  6
CONTINUOUS
 10
-22.38021695479074
 20
20.61783363069048
 30
0.0
 11
-30.335113094865299
 21
19.513207096161182
 31
0.0
  0
LINE
  5
FFBBDAE469BC379B
  8
0
  6
CONTINUOUS
 10
-21.009626477336042
 20
20.61783363069048
 30
0.0
 11
-21.009626477336042
 21
19.513207096161182
 31
0.0
  0
LINE
  5
FFBBDAE469BC379C
  8
0
  6
CONTINUOUS
 10
-22.63903599988635
 20
19.513207096161182
 30
0.0
 11
-22.205245762830391
 21
19.42692085316196
 31
0.0
  0
LINE
  5
FFBBDAE469BC379D
  8
0
  6
CONTINUOUS
 10
-21.009626477336042
 20
19.513207096161182
 30
0.0
 11
-21.009626477336042
 21
19.42692085316196
 31
0.0
  0
LINE
  5
FFBBDAE469BC379E
  8
0
  6
CONTINUOUS
 10
-30.335113094865299
 20
19.513207096161182
 30
0.0
 11
-33.319506585873121
 21
19.098790593218268
 31
0.0
  0
LINE
  5
FFBBDAE469BC379F
  8
0
  6
CONTINUOUS
 10
-22.63903599988635
 20
19.513207096161182
 30
0.0
 11
-25.767900698885722
 21
19.098790593218268
 31
0.0
  0
LINE
  5
FFBBDAE469BC37A0
  8
0
  6
CONTINUOUS
 10
-22.205245762830391
 20
19.42692085316196
 30
0.0
 11
-22.009626477335129
 21
19.030244183015721
 31
0.0
  0
LINE
  5
FFBBDAE469BC37A1
  8
0
  6
CONTINUOUS
 10
-21.009626477336042
 20
19.42692085316196
 30
0.0
 11
-21.009626477336042
 21
19.030244183015721
 31
0.0
  0
LINE
  5
FFBBDAE469BC37A2
  8
0
  6
CONTINUOUS
 10
-33.319506585873121
 20
19.098790593218268
 30
0.0
 11
-34.712360344409973
 21
18.132864766930989
 31
0.0
  0
LINE
  5
FFBBDAE469BC37A3
  8
0
  6
CONTINUOUS
 10
-25.767900698885722
 20
19.098790593218268
 30
0.0
 11
-33.060687540770687
 21
18.132864766930989
 31
0.0
  0
LINE
  5
FFBBDAE469BC37A4
  8
0
  6
CONTINUOUS
 10
-34.712360344409973
 20
18.132864766930989
 30
0.0
 11
-35.539946450520638
 21
17.55894464899373
 31
0.0
  0
LINE
  5
FFBBDAE469BC37A5
  8
0
  6
CONTINUOUS
 10
-33.060687540770687
 20
18.132864766930989
 30
0.0
 11
-33.888273646880428
 21
17.55894464899373
 31
0.0
  0
LINE
  5
FFBBDAE469BC37A6
  8
0
  6
CONTINUOUS
 10
-35.539946450520638
 20
17.55894464899373
 30
0.0
 11
-35.704097462151744
 21
16.977980308760849
 31
0.0
  0
LINE
  5
FFBBDAE469BC37A7
  8
0
  6
CONTINUOUS
 10
-33.888273646880428
 20
17.55894464899373
 30
0.0
 11
-34.72601743925695
 21
16.977980308760849
 31
0.0
  0
LINE
  5
FFBBDAE469BC37A8
  8
0
  6
CONTINUOUS
 10
-35.704097462151744
 20
16.977980308760849
 30
0.0
 11
-36.255136355831532
 21
15.02773983123768
 31
0.0
  0
LINE
  5
FFBBDAE469BC37A9
  8
0
  6
CONTINUOUS
 10
-34.72601743925695
 20
16.977980308760849
 30
0.0
 11
-35.277056332934542
 21
15.02773983123768
 31
0.0
  0
LINE
  5
FFBBDAE469BC37AA
  8
0
  6
CONTINUOUS
 10
-36.255136355831532
 20
15.02773983123768
 30
0.0
 11
-36.274664975426283
 21
14.95862401229885
 31
0.0
  0
LINE
  5
FFBBDAE469BC37AB
  8
0
  6
CONTINUOUS
 10
-35.277056332934542
 20
15.02773983123768
 30
0.0
 11
-35.268222985486297
 21
14.95862401229885
 31
0.0
  0
LINE
  5
FFBBDAE469BC37AC
  8
0
  6
CONTINUOUS
 10
-36.274664975426283
 20
14.95862401229885
 30
0.0
 11
-34.832092575402839
 21
3.70553503717781
 31
0.0
  0
LINE
  5
FFBBDAE469BC37AD
  8
0
  6
CONTINUOUS
 10
-35.268222985486297
 20
14.95862401229885
 30
0.0
 11
-33.830021915032468
 21
3.70553503717781
 31
0.0
  0
LINE
  5
FFBBDAE469BC37AE
  8
0
  6
CONTINUOUS
 10
-34.832092575402839
 20
3.70553503717781
 30
0.0
 11
-34.830468981271068
 21
3.6999572881271661
 31
0.0
  0
LINE
  5
FFBBDAE469BC37AF
  8
0
  6
CONTINUOUS
 10
-33.830021915032468
 20
3.70553503717781
 30
0.0
 11
-33.829309050798201
 21
3.6999572881271661
 31
0.0
  0
LINE
  5
FFBBDAE469BC37B0
  8
0
  6
CONTINUOUS
 10
-34.830468981271068
 20
3.6999572881271661
 30
0.0
 11
-34.791989358827941
 21
3.5677631188141952
 31
0.0
  0
LINE
  5
FFBBDAE469BC37B1
  8
0
  6
CONTINUOUS
 10
-33.829309050798201
 20
3.6999572881271661
 30
0.0
 11
-33.80187904389485
 21
3.5677631188141952
 31
0.0
  0
LINE
  5
FFBBDAE469BC37B2
  8
0
  6
CONTINUOUS
 10
-34.791989358827941
 20
3.5677631188141952
 30
0.0
 11
-34.757048745732916
 21
3.4477269794209628
 31
0.0
  0
LINE
  5
FFBBDAE469BC37B3
  8
0
  6
CONTINUOUS
 10
-33.80187904389485
 20
3.5677631188141952
 30
0.0
 11
-33.740080751696503
 21
3.4477269794209628
 31
0.0
  0
LINE
  5
FFBBDAE469BC37B4
  8
0
  6
CONTINUOUS
 10
-34.757048745732916
 20
3.4477269794209628
 30
0.0
 11
-34.653959326348406
 21
3.093570173942096
 31
0.0
  0
LINE
  5
FFBBDAE469BC37B5
  8
0
  6
CONTINUOUS
 10
-33.740080751696503
 20
3.4477269794209628
 30
0.0
 11
-33.492097486791728
 21
3.093570173942096
 31
0.0
  0
LINE
  5
FFBBDAE469BC37B6
  8
0
  6
CONTINUOUS
 10
-34.653959326348406
 20
3.093570173942096
 30
0.0
 11
-34.381672557009558
 21
2.7776985990384442
 31
0.0
  0
LINE
  5
FFBBDAE469BC37B7
  8
0
  6
CONTINUOUS
 10
-33.492097486791728
 20
3.093570173942096
 30
0.0
 11
-33.270921828937837
 21
2.7776985990384442
 31
0.0
  0
LINE
  5
FFBBDAE469BC37B8
  8
0
  6
CONTINUOUS
 10
-34.381672557009558
 20
2.7776985990384442
 30
0.0
 11
-34.23781363463695
 21
2.610812251662423
 31
0.0
  0
LINE
  5
FFBBDAE469BC37B9
  8
0
  6
CONTINUOUS
 10
-33.270921828937837
 20
2.7776985990384442
 30
0.0
 11
-33.233924016456442
 21
2.610812251662423
 31
0.0
  0
LINE
  5
FFBBDAE469BC37BA
  8
0
  6
CONTINUOUS
 10
-34.23781363463695
 20
2.610812251662423
 30
0.0
 11
-34.211352127128642
 21
2.5908924455341089
 31
0.0
  0
LINE
  5
FFBBDAE469BC37BB
  8
0
  6
CONTINUOUS
 10
-33.233924016456442
 20
2.610812251662423
 30
0.0
 11
-33.22950790175689
 21
2.5908924455341089
 31
0.0
  0
LINE
  5
FFBBDAE469BC37BC
  8
0
  6
CONTINUOUS
 10
-34.211352127128642
 20
2.5908924455341089
 30
0.0
 11
-33.99697999289149
 21
2.4295164788785542
 31
0.0
  0
LINE
  5
FFBBDAE469BC37BD
  8
0
  6
CONTINUOUS
 10
-33.22950790175689
 20
2.5908924455341089
 30
0.0
 11
-33.332315730921891
 21
2.4295164788785542
 31
0.0
  0
LINE
  5
FFBBDAE469BC37BE
  8
0
  6
CONTINUOUS
 10
-33.99697999289149
 20
2.4295164788785542
 30
0.0
 11
-33.821712754894641
 21
2.2975780622767839
 31
0.0
  0
LINE
  5
FFBBDAE469BC37BF
  8
0
  6
CONTINUOUS
 10
-33.332315730921891
 20
2.4295164788785542
 30
0.0
 11
-33.520743317603383
 21
2.2975780622767839
 31
0.0
  0
LINE
  5
FFBBDAE469BC37C0
  8
0
  6
CONTINUOUS
 10
-33.527962975311311
 20
2.2925228035263672
 30
0.0
 11
-33.675658798542031
 21
2.247347826827284
 31
0.0
  0
LINE
  5
FFBBDAE469BC37C1
  8
0
  6
CONTINUOUS
 10
-33.675658798542031
 20
2.247347826827284
 30
0.0
 11
-33.807013629272838
 21
2.2925228035263672
 31
0.0
  0
LINE
  5
FFBBDAE469BC37C2
  8
0
  6
CONTINUOUS
 10
-33.821712754894641
 20
2.2975780622767839
 30
0.0
 11
-33.807013629272838
 21
2.2925228035263672
 31
0.0
  0
LINE
  5
FFBBDAE469BC37C3
  8
0
  6
CONTINUOUS
 10
-33.520743317603383
 20
2.2975780622767839
 30
0.0
 11
-33.527962975311311
 21
2.2925228035263672
 31
0.0
  0
LINE
  5
FFBBDAE469BC37C4
  8
0
  6
CONTINUOUS
 10
-22.009626477335129
 20
19.030244183015721
 30
0.0
 11
-22.009626477335129
 21
-3.2448369306254099
 31
0.0
  0
LINE
  5
FFBBDAE469BC37C5
  8
0
  6
CONTINUOUS
 10
-21.009626477336042
 20
19.030244183015721
 30
0.0
 11
-21.009626477336042
 21
-3.2448369306254099
 31
0.0
  0
LINE
  5
FFBBDAE469BC37C6
  8
0
  6
CONTINUOUS
 10
-22.009626477335129
 20
-3.2448369306254099
 30
0.0
 11
-22.009626477336042
 21
-7.7123588744649387
 31
0.0
  0
LINE
  5
FFBBDAE469BC37C7
  8
0
  6
CONTINUOUS
 10
-21.009626477336042
 20
-3.2448369306254099
 30
0.0
 11
-21.009626477336042
 21
-7.7123588744649387
 31
0.0
  0
LINE
  5
FFBBDAE469BC37C8
  8
0
  6
CONTINUOUS
 10
-22.009626477336042
 20
-7.7123588744649387
 30
0.0
 11
-21.93640317263268
 21
-7.8891355697615761
 31
0.0
  0
LINE
  5
FFBBDAE469BC37C9
  8
0
  6
CONTINUOUS
 10
-21.009626477336042
 20
-7.7123588744649387
 30
0.0
 11
-21.0828497820394
 21
-7.8891355697615761
 31
0.0
  0
LINE
  5
FFBBDAE469BC37CA
  8
0
  6
CONTINUOUS
 10
-21.93640317263268
 20
-7.8891355697615761
 30
0.0
 11
-21.759626477336042
 21
-7.9623588744649387
 31
0.0
  0
LINE
  5
FFBBDAE469BC37CB
  8
0
  6
CONTINUOUS
 10
-21.0828497820394
 20
-7.8891355697615761
 30
0.0
 11
-21.259626477336042
 21
-7.9623588744649387
 31
0.0
  0
ENDBLK
  5
FFBBDAE469BC37CD
  8
0
  0
BLOCK
  8
0
  2
*U15
 70
     1
 10
0.0
 20
0.0
 30
0.0
  3
*U15
  1

  0
TEXT
  5
FFBBDAE469BC37F3
  8
DEFPOINTS
  6
CONTINUOUS
 10
-13.19629072556682
 20
-123.8149180719583
 30
0.0
 40
8.0
  1
Horizontal Joint at Floor Joist
  7
2_5
  0
ENDBLK
  5
FFBBDAE469BC37F5
  8
0
  0
BLOCK
  8
0
  2
*U16
 70
     1
 10
0.0
 20
0.0
 30
0.0
  3
*U16
  1

  0
TEXT
  5
FFBBDAE469BC37F7
  8
0
  6
CONTINUOUS
 10
25.407284608517038
 20
162.3399443435718
 30
0.0
 40
4.0
  1
~Bottom plate~
  7
2_5
  0
ENDBLK
  5
FFBBDAE469BC37F9
  8
0
  0
BLOCK
  8
0
  2
*U17
 70
     1
 10
0.0
 20
0.0
 30
0.0
  3
*U17
  1

  0
TEXT
  5
FFBBDAE469BC37FB
  8
0
  6
CONTINUOUS
 10
96.155748939038332
 20
-19.16346355319957
 30
0.0
 40
4.0
  1
~Ceiling batten~
  7
2_5
  0
ENDBLK
  5
FFBBDAE469BC37FD
  8
0
  0
BLOCK
  8
0
  2
*U18
 70
     1
 10
0.0
 20
0.0
 30
0.0
  3
*U18
  1

  0
TEXT
  5
FFBBDAE469BC37FF
  8
0
  6
CONTINUOUS
 10
99.858887015767394
 20
86.243832710674454
 30
0.0
 40
4.0
  1
~Floor joist~
  7
2_5
  0
ENDBLK
  5
FFBBDAE469BC3801
  8
0
  0
BLOCK
  8
0
  2
*U19
 70
     1
 10
0.0
 20
0.0
 30
0.0
  3
*U19
  1

  0
TEXT
  5
FFBBDAE469BC3803
  8
0
  6
CONTINUOUS
 10
52.418365784103642
 20
127.3772694441945
 30
0.0
 40
4.0
  1
~Solid timber
  7
2_5
  0
TEXT
  5
FFBBDAE469BC3804
  8
0
  6
CONTINUOUS
 10
48.31741080456748
 20
120.7106027775278
 30
0.0
 40
4.0
  1
perimeter joists~
  7
2_5
  0
ENDBLK
  5
FFBBDAE469BC3806
  8
0
  0
BLOCK
  8
0
  2
*U20
 70
     1
 10
0.0
 20
0.0
 30
0.0
  3
*U20
  1

  0
TEXT
  5
FFBBDAE469BC3808
  8
0
  6
CONTINUOUS
 10
33.044558967376297
 20
-8.3460806406024997
 30
0.0
 40
4.0
  1
~Top plate~
  7
2_5
  0
ENDBLK
  5
FFBBDAE469BC380A
  8
0
  0
BLOCK
  8
0
  2
*U21
 70
     1
 10
0.0
 20
0.0
 30
0.0
  3
*U21
  1

  0
TEXT
  5
FFBBDAE469BC380C
  8
0
  6
CONTINUOUS
 10
-37.193261531378987
 20
22.885806303518919
 30
0.0
 40
4.0
  1
gap
 50
90.0
  7
2_5
  0
ENDBLK
  5
FFBBDAE469BC380E
  8
0
  0
BLOCK
  8
0
  2
*U22
 70
     1
 10
0.0
 20
0.0
 30
0.0
  3
*U22
  1

  0
TEXT
  5
FFBBDAE469BC3810
  8
0
  6
CONTINUOUS
 10
-102.3612058406339
 20
-197.3959325281231
 30
0.0
 40
7.0
  1
Alternative
  7
2_5
  0
TEXT
  5
FFBBDAE469BC3811
  8
0
  6
CONTINUOUS
 10
-113.7732112976598
 20
-209.1867465344896
 30
0.0
 40
7.0
  1
Flashing Option
  7
2_5
  0
ENDBLK
  5
FFBBDAE469BC3813
  8
0
  0
BLOCK
  8
0
  2
*U23
 70
     1
 10
0.0
 20
0.0
 30
0.0
  3
*U23
  1

  0
TEXT
  5
FFBBDAE469BC381A
  8
0
  6
CONTINUOUS
 10
-27.22169410143097
 20
-152.38814313697031
 30
0.0
 40
4.0
  1
Note:
  7
2_5
  0
TEXT
  5
FFBBDAE469BC381B
  8
0
  6
CONTINUOUS
 10
-27.415418521621969
 20
-159.12302262764791
 30
0.0
 40
4.0
  1
1. When 50 year durability is required refer Table 20
  7
2_5
  0
TEXT
  5
FFBBDAE469BC381C
  8
0
  6
CONTINUOUS
 10
-26.992499012754301
 20
-165.85790211832551
 30
0.0
 40
4.0
  1
of NZBC E2/AS1 document.
  7
2_5
  0
ENDBLK
  5
FFBBDAE469BC381E
  8
0
  0
BLOCK
  8
0
  2
*U24
 70
     1
 10
0.0
 20
0.0
 30
0.0
  3
*U24
  1

  0
TEXT
  5
FFBBDAE469BC3820
  8
0
  6
CONTINUOUS
 10
15.055531047633851
 20
23.002462028720931
 30
0.0
 40
4.0
  1
gap
 50
90.0
  7
2_5
  0
ENDBLK
  5
FFBBDAE469BC3822
  8
0
  0
BLOCK
  8
0
  2
*U25
 70
     1
 10
0.0
 20
0.0
 30
0.0
  3
*U25
  1

  0
SOLID
  5
FFBBDAE469BC3827
  8
0
  6
CONTINUOUS
 10
-22.150590795544769
 20
200.9623100689204
 30
0.0
 11
-20.792123031847041
 21
197.57489728997041
 31
0.0
 12
-23.175780466355722
 22
200.33862253588609
 32
0.0
 13
-23.175780466355722
 23
200.33862253588609
 33
0.0
  0
POLYLINE
  8
0
  5
7FFFFFFF
  66
     1
 10
0.000000
 20
0.000000
 30
0.000000
  70
     8
  0
VERTEX
  8
0
  5
80000000
 10
-22.6632
 20
200.650
 30
0.000000
  70
    32
  0
VERTEX
  8
0
  5
80000001
 10
-22.8437
 20
200.952
 30
0.000000
  70
    32
  0
VERTEX
  8
0
  5
80000002
 10
-23.0217
 20
201.258
 30
0.000000
  70
    32
  0
VERTEX
  8
0
  5
80000003
 10
-23.1972
 20
201.568
 30
0.000000
  70
    32
  0
VERTEX
  8
0
  5
80000004
 10
-23.3701
 20
201.883
 30
0.000000
  70
    32
  0
VERTEX
  8
0
  5
80000005
 10
-23.5407
 20
202.202
 30
0.000000
  70
    32
  0
VERTEX
  8
0
  5
80000006
 10
-23.7090
 20
202.525
 30
0.000000
  70
    32
  0
VERTEX
  8
0
  5
80000007
 10
-23.8750
 20
202.852
 30
0.000000
  70
    32
  0
VERTEX
  8
0
  5
80000008
 10
-24.0388
 20
203.183
 30
0.000000
  70
    32
  0
VERTEX
  8
0
  5
80000009
 10
-24.2004
 20
203.518
 30
0.000000
  70
    32
  0
VERTEX
  8
0
  5
8000000A
 10
-24.3600
 20
203.857
 30
0.000000
  70
    32
  0
VERTEX
  8
0
  5
8000000B
 10
-24.5175
 20
204.199
 30
0.000000
  70
    32
  0
VERTEX
  8
0
  5
8000000C
 10
-24.6731
 20
204.545
 30
0.000000
  70
    32
  0
VERTEX
  8
0
  5
8000000D
 10
-24.8267
 20
204.894
 30
0.000000
  70
    32
  0
VERTEX
  8
0
  5
8000000E
 10
-24.9786
 20
205.246
 30
0.000000
  70
    32
  0
VERTEX
  8
0
  5
8000000F
 10
-25.1286
 20
205.602
 30
0.000000
  70
    32
  0
VERTEX
  8
0
  5
80000010
 10
-25.2770
 20
205.960
 30
0.000000
  70
    32
  0
VERTEX
  8
0
  5
80000011
 10
-25.4237
 20
206.322
 30
0.000000
  70
    32
  0
VERTEX
  8
0
  5
80000012
 10
-25.5688
 20
206.686
 30
0.000000
  70
    32
  0
VERTEX
  8
0
  5
80000013
 10
-25.7124
 20
207.053
 30
0.000000
  70
    32
  0
VERTEX
  8
0
  5
80000014
 10
-25.8546
 20
207.423
 30
0.000000
  70
    32
  0
VERTEX
  8
0
  5
80000015
 10
-25.9953
 20
207.795
 30
0.000000
  70
    32
  0
VERTEX
  8
0
  5
80000016
 10
-26.1348
 20
208.169
 30
0.000000
  70
    32
  0
VERTEX
  8
0
  5
80000017
 10
-26.2729
 20
208.546
 30
0.000000
  70
    32
  0
VERTEX
  8
0
  5
80000018
 10
-26.4098
 20
208.925
 30
0.000000
  70
    32
  0
VERTEX
  8
0
  5
80000019
 10
-26.5456
 20
209.306
 30
0.000000
  70
    32
  0
VERTEX
  8
0
  5
8000001A
 10
-26.6803
 20
209.689
 30
0.000000
  70
    32
  0
VERTEX
  8
0
  5
8000001B
 10
-26.8140
 20
210.073
 30
0.000000
  70
    32
  0
VERTEX
  8
0
  5
8000001C
 10
-26.9468
 20
210.460
 30
0.000000
  70
    32
  0
VERTEX
  8
0
  5
8000001D
 10
-27.0786
 20
210.847
 30
0.000000
  70
    32
  0
VERTEX
  8
0
  5
8000001E
 10
-27.2096
 20
211.237
 30
0.000000
  70
    32
  0
VERTEX
  8
0
  5
8000001F
 10
-27.3398
 20
211.628
 30
0.000000
  70
    32
  0
VERTEX
  8
0
  5
80000020
 10
-27.4694
 20
212.020
 30
0.000000
  70
    32
  0
VERTEX
  8
0
  5
80000021
 10
-27.5982
 20
212.413
 30
0.000000
  70
    32
  0
VERTEX
  8
0
  5
80000022
 10
-27.7265
 20
212.807
 30
0.000000
  70
    32
  0
VERTEX
  8
0
  5
80000023
 10
-27.8543
 20
213.202
 30
0.000000
  70
    32
  0
VERTEX
  8
0
  5
80000024
 10
-27.9816
 20
213.598
 30
0.000000
  70
    32
  0
VERTEX
  8
0
  5
80000025
 10
-28.1085
 20
213.995
 30
0.000000
  70
    32
  0
VERTEX
  8
0
  5
80000026
 10
-28.2351
 20
214.392
 30
0.000000
  70
    32
  0
VERTEX
  8
0
  5
80000027
 10
-28.3614
 20
214.790
 30
0.000000
  70
    32
  0
VERTEX
  8
0
  5
80000028
 10
-28.4875
 20
215.188
 30
0.000000
  70
    32
  0
VERTEX
  8
0
  5
80000029
 10
-28.6135
 20
215.587
 30
0.000000
  70
    32
  0
VERTEX
  8
0
  5
8000002A
 10
-28.7393
 20
215.985
 30
0.000000
  70
    32
  0
VERTEX
  8
0
  5
8000002B
 10
-28.8652
 20
216.384
 30
0.000000
  70
    32
  0
VERTEX
  8
0
  5
8000002C
 10
-28.9911
 20
216.782
 30
0.000000
  70
    32
  0
VERTEX
  8
0
  5
8000002D
 10
-29.1171
 20
217.181
 30
0.000000
  70
    32
  0
VERTEX
  8
0
  5
8000002E
 10
-29.2433
 20
217.579
 30
0.000000
  70
    32
  0
VERTEX
  8
0
  5
8000002F
 10
-29.3697
 20
217.976
 30
0.000000
  70
    32
  0
VERTEX
  8
0
  5
80000030
 10
-29.4963
 20
218.373
 30
0.000000
  70
    32
  0
VERTEX
  8
0
  5
80000031
 10
-29.6234
 20
218.770
 30
0.000000
  70
    32
  0
VERTEX
  8
0
  5
80000032
 10
-29.7508
 20
219.166
 30
0.000000
  70
    32
  0
VERTEX
  8
0
  5
80000033
 10
-29.8788
 20
219.561
 30
0.000000
  70
    32
  0
VERTEX
  8
0
  5
80000034
 10
-30.0073
 20
219.954
 30
0.000000
  70
    32
  0
VERTEX
  8
0
  5
80000035
 10
-30.1363
 20
220.347
 30
0.000000
  70
    32
  0
VERTEX
  8
0
  5
80000036
 10
-30.2661
 20
220.739
 30
0.000000
  70
    32
  0
VERTEX
  8
0
  5
80000037
 10
-30.3966
 20
221.129
 30
0.000000
  70
    32
  0
VERTEX
  8
0
  5
80000038
 10
-30.5278
 20
221.518
 30
0.000000
  70
    32
  0
VERTEX
  8
0
  5
80000039
 10
-30.6600
 20
221.906
 30
0.000000
  70
    32
  0
VERTEX
  8
0
  5
8000003A
 10
-30.7930
 20
222.291
 30
0.000000
  70
    32
  0
VERTEX
  8
0
  5
8000003B
 10
-30.9270
 20
222.676
 30
0.000000
  70
    32
  0
VERTEX
  8
0
  5
8000003C
 10
-31.0621
 20
223.058
 30
0.000000
  70
    32
  0
VERTEX
  8
0
  5
8000003D
 10
-31.1983
 20
223.438
 30
0.000000
  70
    32
  0
VERTEX
  8
0
  5
8000003E
 10
-31.3356
 20
223.816
 30
0.000000
  70
    32
  0
VERTEX
  8
0
  5
8000003F
 10
-31.4742
 20
224.192
 30
0.000000
  70
    32
  0
VERTEX
  8
0
  5
80000040
 10
-31.6140
 20
224.566
 30
0.000000
  70
    32
  0
VERTEX
  8
0
  5
80000041
 10
-31.7552
 20
224.937
 30
0.000000
  70
    32
  0
VERTEX
  8
0
  5
80000042
 10
-31.8979
 20
225.306
 30
0.000000
  70
    32
  0
VERTEX
  8
0
  5
80000043
 10
-32.0420
 20
225.672
 30
0.000000
  70
    32
  0
VERTEX
  8
0
  5
80000044
 10
-32.1876
 20
226.035
 30
0.000000
  70
    32
  0
VERTEX
  8
0
  5
80000045
 10
-32.3349
 20
226.396
 30
0.000000
  70
    32
  0
VERTEX
  8
0
  5
80000046
 10
-32.4838
 20
226.753
 30
0.000000
  70
    32
  0
VERTEX
  8
0
  5
80000047
 10
-32.6344
 20
227.108
 30
0.000000
  70
    32
  0
VERTEX
  8
0
  5
80000048
 10
-32.7869
 20
227.459
 30
0.000000
  70
    32
  0
VERTEX
  8
0
  5
80000049
 10
-32.9412
 20
227.807
 30
0.000000
  70
    32
  0
VERTEX
  8
0
  5
8000004A
 10
-33.0974
 20
228.152
 30
0.000000
  70
    32
  0
VERTEX
  8
0
  5
8000004B
 10
-33.2556
 20
228.493
 30
0.000000
  70
    32
  0
VERTEX
  8
0
  5
8000004C
 10
-33.4158
 20
228.830
 30
0.000000
  70
    32
  0
VERTEX
  8
0
  5
8000004D
 10
-33.5782
 20
229.164
 30
0.000000
  70
    32
  0
VERTEX
  8
0
  5
8000004E
 10
-33.7427
 20
229.494
 30
0.000000
  70
    32
  0
VERTEX
  8
0
  5
8000004F
 10
-33.9094
 20
229.820
 30
0.000000
  70
    32
  0
VERTEX
  8
0
  5
80000050
 10
-34.0784
 20
230.141
 30
0.000000
  70
    32
  0
VERTEX
  8
0
  5
80000051
 10
-34.2498
 20
230.459
 30
0.000000
  70
    32
  0
VERTEX
  8
0
  5
80000052
 10
-34.4236
 20
230.772
 30
0.000000
  70
    32
  0
VERTEX
  8
0
  5
80000053
 10
-34.5999
 20
231.081
 30
0.000000
  70
    32
  0
VERTEX
  8
0
  5
80000054
 10
-34.7787
 20
231.385
 30
0.000000
  70
    32
  0
VERTEX
  8
0
  5
80000055
 10
-34.9602
 20
231.685
 30
0.000000
  70
    32
  0
VERTEX
  8
0
  5
80000056
 10
-35.1443
 20
231.980
 30
0.000000
  70
    32
  0
VERTEX
  8
0
  5
80000057
 10
-35.3311
 20
232.270
 30
0.000000
  70
    32
  0
VERTEX
  8
0
  5
80000058
 10
-35.5207
 20
232.555
 30
0.000000
  70
    32
  0
VERTEX
  8
0
  5
80000059
 10
-35.7132
 20
232.836
 30
0.000000
  70
    32
  0
VERTEX
  8
0
  5
8000005A
 10
-35.9086
 20
233.110
 30
0.000000
  70
    32
  0
VERTEX
  8
0
  5
8000005B
 10
-36.1070
 20
233.380
 30
0.000000
  70
    32
  0
VERTEX
  8
0
  5
8000005C
 10
-36.3084
 20
233.644
 30
0.000000
  70
    32
  0
VERTEX
  8
0
  5
8000005D
 10
-36.5129
 20
233.903
 30
0.000000
  70
    32
  0
VERTEX
  8
0
  5
8000005E
 10
-36.7206
 20
234.156
 30
0.000000
  70
    32
  0
VERTEX
  8
0
  5
8000005F
 10
-36.9315
 20
234.403
 30
0.000000
  70
    32
  0
VERTEX
  8
0
  5
80000060
 10
-37.1457
 20
234.645
 30
0.000000
  70
    32
  0
VERTEX
  8
0
  5
80000061
 10
-37.3633
 20
234.880
 30
0.000000
  70
    32
  0
VERTEX
  8
0
  5
80000062
 10
-37.5842
 20
235.109
 30
0.000000
  70
    32
  0
VERTEX
  8
0
  5
80000063
 10
-37.8087
 20
235.332
 30
0.000000
  70
    32
  0
VERTEX
  8
0
  5
80000064
 10
-38.0367
 20
235.549
 30
0.000000
  70
    32
  0
VERTEX
  8
0
  5
80000065
 10
-38.2683
 20
235.760
 30
0.000000
  70
    32
  0
VERTEX
  8
0
  5
80000066
 10
-38.5036
 20
235.964
 30
0.000000
  70
    32
  0
VERTEX
  8
0
  5
80000067
 10
-38.7426
 20
236.161
 30
0.000000
  70
    32
  0
VERTEX
  8
0
  5
80000068
 10
-38.9854
 20
236.352
 30
0.000000
  70
    32
  0
VERTEX
  8
0
  5
80000069
 10
-39.2321
 20
236.535
 30
0.000000
  70
    32
  0
VERTEX
  8
0
  5
8000006A
 10
-39.4826
 20
236.712
 30
0.000000
  70
    32
  0
VERTEX
  8
0
  5
8000006B
 10
-39.7372
 20
236.882
 30
0.000000
  70
    32
  0
VERTEX
  8
0
  5
8000006C
 10
-39.9958
 20
237.044
 30
0.000000
  70
    32
  0
VERTEX
  8
0
  5
8000006D
 10
-40.2585
 20
237.199
 30
0.000000
  70
    32
  0
VERTEX
  8
0
  5
8000006E
 10
-40.5253
 20
237.347
 30
0.000000
  70
    32
  0
VERTEX
  8
0
  5
8000006F
 10
-40.7964
 20
237.487
 30
0.000000
  70
    32
  0
VERTEX
  8
0
  5
80000070
 10
-41.0718
 20
237.620
 30
0.000000
  70
    32
  0
VERTEX
  8
0
  5
80000071
 10
-41.3516
 20
237.745
 30
0.000000
  70
    32
  0
VERTEX
  8
0
  5
80000072
 10
-41.6357
 20
237.862
 30
0.000000
  70
    32
  0
VERTEX
  8
0
  5
80000073
 10
-41.9244
 20
237.971
 30
0.000000
  70
    32
  0
VERTEX
  8
0
  5
80000074
 10
-42.2176
 20
238.072
 30
0.000000
  70
    32
  0
VERTEX
  8
0
  5
80000075
 10
-42.5154
 20
238.164
 30
0.000000
  70
    32
  0
VERTEX
  8
0
  5
80000076
 10
-42.8178
 20
238.249
 30
0.000000
  70
    32
  0
VERTEX
  8
0
  5
80000077
 10
-43.1250
 20
238.325
 30
0.000000
  70
    32
  0
VERTEX
  8
0
  5
80000078
 10
-43.4370
 20
238.392
 30
0.000000
  70
    32
  0
VERTEX
  8
0
  5
80000079
 10
-43.7538
 20
238.451
 30
0.000000
  70
    32
  0
VERTEX
  8
0
  5
8000007A
 10
-44.0756
 20
238.501
 30
0.000000
  70
    32
  0
VERTEX
  8
0
  5
8000007B
 10
-44.4023
 20
238.542
 30
0.000000
  70
    32
  0
VERTEX
  8
0
  5
8000007C
 10
-44.7341
 20
238.575
 30
0.000000
  70
    32
  0
VERTEX
  8
0
  5
8000007D
 10
-45.0710
 20
238.598
 30
0.000000
  70
    32
  0
VERTEX
  8
0
  5
8000007E
 10
-45.4131
 20
238.612
 30
0.000000
  70
    32
  0
VERTEX
  8
0
  5
8000007F
 10
-45.7603
 20
238.617
 30
0.000000
  70
    32
  0
SEQEND
  8
0
  5
80000080
  0
ENDBLK
  5
FFBBDAE469BC382A
  8
0
  0
BLOCK
  8
0
  2
*U26
 70
     1
 10
0.0
 20
0.0
 30
0.0
  3
*U26
  1

  0
TEXT
  5
FFBBDAE469BC382C
  8
0
  6
CONTINUOUS
 10
-109.8340081987558
 20
247.23863381687119
 30
0.0
 40
4.0
  1
Seal n Flex -1 or Sikaflex
  7
ARIAL
  0
TEXT
  5
FFBBDAE469BC382D
  8
0
  6
CONTINUOUS
 10
-104.8763001496425
 20
240.50375432619359
 30
0.0
 40
4.0
  1
11FC adhesive sealant
  7
ARIAL
  0
TEXT
  5
FFBBDAE469BC382E
  8
0
  6
CONTINUOUS
 10
-111.69212552481309
 20
233.8370876595269
 30
0.0
 40
4.0
  1
between panel and batten
  7
ARIAL
  0
TEXT
  5
FFBBDAE469BC382F
  8
0
  6
CONTINUOUS
 10
-90.254199194663016
 20
227.10220816884939
 30
0.0
 40
4.0
  1
omitted for clarity
  7
ARIAL
  0
ENDBLK
  5
FFBBDAE469BC3831
  8
0
  0
BLOCK
  8
0
  2
*U27
 70
     1
 10
0.0
 20
0.0
 30
0.0
  3
*U27
  1

  0
SOLID
  5
FFBBDAE469BC3833
  8
0
  6
CONTINUOUS
 10
-14.412500641523151
 20
163.26098044891251
 30
0.0
 11
-11.729926519615219
 21
160.7863499551882
 31
0.0
 12
-15.070079497763009
 22
162.2571925989032
 32
0.0
 13
-15.070079497763009
 23
162.2571925989032
 33
0.0
  0
POLYLINE
  8
0
  5
80000081
  66
     1
 10
0.000000
 20
0.000000
 30
0.000000
  70
     8
  0
VERTEX
  8
0
  5
80000082
 10
-14.7413
 20
162.759
 30
0.000000
  70
    32
  0
VERTEX
  8
0
  5
80000083
 10
-14.9852
 20
162.920
 30
0.000000
  70
    32
  0
VERTEX
  8
0
  5
80000084
 10
-15.2283
 20
163.084
 30
0.000000
  70
    32
  0
VERTEX
  8
0
  5
80000085
 10
-15.4707
 20
163.250
 30
0.000000
  70
    32
  0
VERTEX
  8
0
  5
80000086
 10
-15.7124
 20
163.419
 30
0.000000
  70
    32
  0
VERTEX
  8
0
  5
80000087
 10
-15.9535
 20
163.589
 30
0.000000
  70
    32
  0
VERTEX
  8
0
  5
80000088
 10
-16.1939
 20
163.762
 30
0.000000
  70
    32
  0
VERTEX
  8
0
  5
80000089
 10
-16.4336
 20
163.937
 30
0.000000
  70
    32
  0
VERTEX
  8
0
  5
8000008A
 10
-16.6727
 20
164.115
 30
0.000000
  70
    32
  0
VERTEX
  8
0
  5
8000008B
 10
-16.9112
 20
164.294
 30
0.000000
  70
    32
  0
VERTEX
  8
0
  5
8000008C
 10
-17.1491
 20
164.475
 30
0.000000
  70
    32
  0
VERTEX
  8
0
  5
8000008D
 10
-17.3864
 20
164.658
 30
0.000000
  70
    32
  0
VERTEX
  8
0
  5
8000008E
 10
-17.6232
 20
164.843
 30
0.000000
  70
    32
  0
VERTEX
  8
0
  5
8000008F
 10
-17.8594
 20
165.030
 30
0.000000
  70
    32
  0
VERTEX
  8
0
  5
80000090
 10
-18.0952
 20
165.219
 30
0.000000
  70
    32
  0
VERTEX
  8
0
  5
80000091
 10
-18.3304
 20
165.409
 30
0.000000
  70
    32
  0
VERTEX
  8
0
  5
80000092
 10
-18.5651
 20
165.601
 30
0.000000
  70
    32
  0
VERTEX
  8
0
  5
80000093
 10
-18.7993
 20
165.795
 30
0.000000
  70
    32
  0
VERTEX
  8
0
  5
80000094
 10
-19.0332
 20
165.990
 30
0.000000
  70
    32
  0
VERTEX
  8
0
  5
80000095
 10
-19.2665
 20
166.186
 30
0.000000
  70
    32
  0
VERTEX
  8
0
  5
80000096
 10
-19.4995
 20
166.384
 30
0.000000
  70
    32
  0
VERTEX
  8
0
  5
80000097
 10
-19.7321
 20
166.583
 30
0.000000
  70
    32
  0
VERTEX
  8
0
  5
80000098
 10
-19.9642
 20
166.783
 30
0.000000
  70
    32
  0
VERTEX
  8
0
  5
80000099
 10
-20.1961
 20
166.985
 30
0.000000
  70
    32
  0
VERTEX
  8
0
  5
8000009A
 10
-20.4275
 20
167.188
 30
0.000000
  70
    32
  0
VERTEX
  8
0
  5
8000009B
 10
-20.6587
 20
167.392
 30
0.000000
  70
    32
  0
VERTEX
  8
0
  5
8000009C
 10
-20.8895
 20
167.597
 30
0.000000
  70
    32
  0
VERTEX
  8
0
  5
8000009D
 10
-21.1201
 20
167.802
 30
0.000000
  70
    32
  0
VERTEX
  8
0
  5
8000009E
 10
-21.3504
 20
168.009
 30
0.000000
  70
    32
  0
VERTEX
  8
0
  5
8000009F
 10
-21.5804
 20
168.217
 30
0.000000
  70
    32
  0
VERTEX
  8
0
  5
800000A0
 10
-21.8102
 20
168.425
 30
0.000000
  70
    32
  0
VERTEX
  8
0
  5
800000A1
 10
-22.0398
 20
168.634
 30
0.000000
  70
    32
  0
VERTEX
  8
0
  5
800000A2
 10
-22.2692
 20
168.844
 30
0.000000
  70
    32
  0
VERTEX
  8
0
  5
800000A3
 10
-22.4983
 20
169.055
 30
0.000000
  70
    32
  0
VERTEX
  8
0
  5
800000A4
 10
-22.7274
 20
169.266
 30
0.000000
  70
    32
  0
VERTEX
  8
0
  5
800000A5
 10
-22.9562
 20
169.477
 30
0.000000
  70
    32
  0
VERTEX
  8
0
  5
800000A6
 10
-23.1850
 20
169.689
 30
0.000000
  70
    32
  0
VERTEX
  8
0
  5
800000A7
 10
-23.4136
 20
169.902
 30
0.000000
  70
    32
  0
VERTEX
  8
0
  5
800000A8
 10
-23.6422
 20
170.114
 30
0.000000
  70
    32
  0
VERTEX
  8
0
  5
800000A9
 10
-23.8706
 20
170.327
 30
0.000000
  70
    32
  0
VERTEX
  8
0
  5
800000AA
 10
-24.0990
 20
170.540
 30
0.000000
  70
    32
  0
VERTEX
  8
0
  5
800000AB
 10
-24.3274
 20
170.753
 30
0.000000
  70
    32
  0
VERTEX
  8
0
  5
800000AC
 10
-24.5557
 20
170.967
 30
0.000000
  70
    32
  0
VERTEX
  8
0
  5
800000AD
 10
-24.7841
 20
171.180
 30
0.000000
  70
    32
  0
VERTEX
  8
0
  5
800000AE
 10
-25.0124
 20
171.393
 30
0.000000
  70
    32
  0
VERTEX
  8
0
  5
800000AF
 10
-25.2408
 20
171.607
 30
0.000000
  70
    32
  0
VERTEX
  8
0
  5
800000B0
 10
-25.4692
 20
171.820
 30
0.000000
  70
    32
  0
VERTEX
  8
0
  5
800000B1
 10
-25.6977
 20
172.032
 30
0.000000
  70
    32
  0
VERTEX
  8
0
  5
800000B2
 10
-25.9262
 20
172.245
 30
0.000000
  70
    32
  0
VERTEX
  8
0
  5
800000B3
 10
-26.1549
 20
172.457
 30
0.000000
  70
    32
  0
VERTEX
  8
0
  5
800000B4
 10
-26.3837
 20
172.669
 30
0.000000
  70
    32
  0
VERTEX
  8
0
  5
800000B5
 10
-26.6126
 20
172.880
 30
0.000000
  70
    32
  0
VERTEX
  8
0
  5
800000B6
 10
-26.8417
 20
173.091
 30
0.000000
  70
    32
  0
VERTEX
  8
0
  5
800000B7
 10
-27.0710
 20
173.301
 30
0.000000
  70
    32
  0
VERTEX
  8
0
  5
800000B8
 10
-27.3004
 20
173.511
 30
0.000000
  70
    32
  0
VERTEX
  8
0
  5
800000B9
 10
-27.5300
 20
173.720
 30
0.000000
  70
    32
  0
VERTEX
  8
0
  5
800000BA
 10
-27.7599
 20
173.928
 30
0.000000
  70
    32
  0
VERTEX
  8
0
  5
800000BB
 10
-27.9900
 20
174.135
 30
0.000000
  70
    32
  0
VERTEX
  8
0
  5
800000BC
 10
-28.2204
 20
174.342
 30
0.000000
  70
    32
  0
VERTEX
  8
0
  5
800000BD
 10
-28.4510
 20
174.548
 30
0.000000
  70
    32
  0
VERTEX
  8
0
  5
800000BE
 10
-28.6820
 20
174.752
 30
0.000000
  70
    32
  0
VERTEX
  8
0
  5
800000BF
 10
-28.9133
 20
174.956
 30
0.000000
  70
    32
  0
VERTEX
  8
0
  5
800000C0
 10
-29.1448
 20
175.158
 30
0.000000
  70
    32
  0
VERTEX
  8
0
  5
800000C1
 10
-29.3768
 20
175.359
 30
0.000000
  70
    32
  0
VERTEX
  8
0
  5
800000C2
 10
-29.6091
 20
175.559
 30
0.000000
  70
    32
  0
VERTEX
  8
0
  5
800000C3
 10
-29.8418
 20
175.758
 30
0.000000
  70
    32
  0
VERTEX
  8
0
  5
800000C4
 10
-30.0749
 20
175.955
 30
0.000000
  70
    32
  0
VERTEX
  8
0
  5
800000C5
 10
-30.3084
 20
176.151
 30
0.000000
  70
    32
  0
VERTEX
  8
0
  5
800000C6
 10
-30.5424
 20
176.346
 30
0.000000
  70
    32
  0
VERTEX
  8
0
  5
800000C7
 10
-30.7768
 20
176.539
 30
0.000000
  70
    32
  0
VERTEX
  8
0
  5
800000C8
 10
-31.0117
 20
176.730
 30
0.000000
  70
    32
  0
VERTEX
  8
0
  5
800000C9
 10
-31.2470
 20
176.920
 30
0.000000
  70
    32
  0
VERTEX
  8
0
  5
800000CA
 10
-31.4829
 20
177.108
 30
0.000000
  70
    32
  0
VERTEX
  8
0
  5
800000CB
 10
-31.7193
 20
177.294
 30
0.000000
  70
    32
  0
VERTEX
  8
0
  5
800000CC
 10
-31.9563
 20
177.479
 30
0.000000
  70
    32
  0
VERTEX
  8
0
  5
800000CD
 10
-32.1938
 20
177.661
 30
0.000000
  70
    32
  0
VERTEX
  8
0
  5
800000CE
 10
-32.4319
 20
177.842
 30
0.000000
  70
    32
  0
VERTEX
  8
0
  5
800000CF
 10
-32.6706
 20
178.020
 30
0.000000
  70
    32
  0
VERTEX
  8
0
  5
800000D0
 10
-32.9099
 20
178.197
 30
0.000000
  70
    32
  0
VERTEX
  8
0
  5
800000D1
 10
-33.1499
 20
178.371
 30
0.000000
  70
    32
  0
VERTEX
  8
0
  5
800000D2
 10
-33.3905
 20
178.543
 30
0.000000
  70
    32
  0
VERTEX
  8
0
  5
800000D3
 10
-33.6317
 20
178.713
 30
0.000000
  70
    32
  0
VERTEX
  8
0
  5
800000D4
 10
-33.8737
 20
178.881
 30
0.000000
  70
    32
  0
VERTEX
  8
0
  5
800000D5
 10
-34.1163
 20
179.046
 30
0.000000
  70
    32
  0
VERTEX
  8
0
  5
800000D6
 10
-34.3597
 20
179.209
 30
0.000000
  70
    32
  0
VERTEX
  8
0
  5
800000D7
 10
-34.6038
 20
179.370
 30
0.000000
  70
    32
  0
VERTEX
  8
0
  5
800000D8
 10
-34.8487
 20
179.528
 30
0.000000
  70
    32
  0
VERTEX
  8
0
  5
800000D9
 10
-35.0944
 20
179.683
 30
0.000000
  70
    32
  0
VERTEX
  8
0
  5
800000DA
 10
-35.3408
 20
179.836
 30
0.000000
  70
    32
  0
VERTEX
  8
0
  5
800000DB
 10
-35.5881
 20
179.985
 30
0.000000
  70
    32
  0
VERTEX
  8
0
  5
800000DC
 10
-35.8362
 20
180.133
 30
0.000000
  70
    32
  0
VERTEX
  8
0
  5
800000DD
 10
-36.0851
 20
180.277
 30
0.000000
  70
    32
  0
VERTEX
  8
0
  5
800000DE
 10
-36.3349
 20
180.418
 30
0.000000
  70
    32
  0
VERTEX
  8
0
  5
800000DF
 10
-36.5856
 20
180.557
 30
0.000000
  70
    32
  0
VERTEX
  8
0
  5
800000E0
 10
-36.8372
 20
180.692
 30
0.000000
  70
    32
  0
VERTEX
  8
0
  5
800000E1
 10
-37.0896
 20
180.824
 30
0.000000
  70
    32
  0
VERTEX
  8
0
  5
800000E2
 10
-37.3431
 20
180.954
 30
0.000000
  70
    32
  0
VERTEX
  8
0
  5
800000E3
 10
-37.5975
 20
181.080
 30
0.000000
  70
    32
  0
VERTEX
  8
0
  5
800000E4
 10
-37.8528
 20
181.202
 30
0.000000
  70
    32
  0
VERTEX
  8
0
  5
800000E5
 10
-38.1092
 20
181.322
 30
0.000000
  70
    32
  0
VERTEX
  8
0
  5
800000E6
 10
-38.3665
 20
181.438
 30
0.000000
  70
    32
  0
VERTEX
  8
0
  5
800000E7
 10
-38.6249
 20
181.551
 30
0.000000
  70
    32
  0
VERTEX
  8
0
  5
800000E8
 10
-38.8843
 20
181.660
 30
0.000000
  70
    32
  0
VERTEX
  8
0
  5
800000E9
 10
-39.1448
 20
181.765
 30
0.000000
  70
    32
  0
VERTEX
  8
0
  5
800000EA
 10
-39.4063
 20
181.867
 30
0.000000
  70
    32
  0
VERTEX
  8
0
  5
800000EB
 10
-39.6690
 20
181.966
 30
0.000000
  70
    32
  0
VERTEX
  8
0
  5
800000EC
 10
-39.9328
 20
182.060
 30
0.000000
  70
    32
  0
VERTEX
  8
0
  5
800000ED
 10
-40.1977
 20
182.151
 30
0.000000
  70
    32
  0
VERTEX
  8
0
  5
800000EE
 10
-40.4637
 20
182.238
 30
0.000000
  70
    32
  0
VERTEX
  8
0
  5
800000EF
 10
-40.7309
 20
182.321
 30
0.000000
  70
    32
  0
VERTEX
  8
0
  5
800000F0
 10
-40.9993
 20
182.400
 30
0.000000
  70
    32
  0
VERTEX
  8
0
  5
800000F1
 10
-41.2689
 20
182.475
 30
0.000000
  70
    32
  0
VERTEX
  8
0
  5
800000F2
 10
-41.5397
 20
182.546
 30
0.000000
  70
    32
  0
VERTEX
  8
0
  5
800000F3
 10
-41.8118
 20
182.613
 30
0.000000
  70
    32
  0
VERTEX
  8
0
  5
800000F4
 10
-42.0851
 20
182.676
 30
0.000000
  70
    32
  0
VERTEX
  8
0
  5
800000F5
 10
-42.3596
 20
182.734
 30
0.000000
  70
    32
  0
VERTEX
  8
0
  5
800000F6
 10
-42.6355
 20
182.788
 30
0.000000
  70
    32
  0
VERTEX
  8
0
  5
800000F7
 10
-42.9127
 20
182.838
 30
0.000000
  70
    32
  0
VERTEX
  8
0
  5
800000F8
 10
-43.1912
 20
182.883
 30
0.000000
  70
    32
  0
VERTEX
  8
0
  5
800000F9
 10
-43.4710
 20
182.923
 30
0.000000
  70
    32
  0
VERTEX
  8
0
  5
800000FA
 10
-43.7523
 20
182.960
 30
0.000000
  70
    32
  0
VERTEX
  8
0
  5
800000FB
 10
-44.0348
 20
182.991
 30
0.000000
  70
    32
  0
VERTEX
  8
0
  5
800000FC
 10
-44.3188
 20
183.018
 30
0.000000
  70
    32
  0
VERTEX
  8
0
  5
800000FD
 10
-44.6042
 20
183.040
 30
0.000000
  70
    32
  0
VERTEX
  8
0
  5
800000FE
 10
-44.8911
 20
183.057
 30
0.000000
  70
    32
  0
VERTEX
  8
0
  5
800000FF
 10
-45.1793
 20
183.070
 30
0.000000
  70
    32
  0
VERTEX
  8
0
  5
80000100
 10
-45.4691
 20
183.077
 30
0.000000
  70
    32
  0
VERTEX
  8
0
  5
80000101
 10
-45.7603
 20
183.080
 30
0.000000
  70
    32
  0
SEQEND
  8
0
  5
80000102
  0
ENDBLK
  5
FFBBDAE469BC3836
  8
0
  0
BLOCK
  8
0
  2
*U28
 70
     1
 10
0.0
 20
0.0
 30
0.0
  3
*U28
  1

  0
TEXT
  5
FFBBDAE469BC3838
  8
0
  6
CONTINUOUS
 10
-117.27311095346251
 20
185.00305406787211
 30
0.0
 40
4.0
  1
70 x 19mm CLD
  7
ARIAL
  0
TEXT
  5
FFBBDAE469BC3839
  8
0
  6
CONTINUOUS
 10
-76.908238647869027
 20
187.50845406787209
 30
0.0
 40
3.0323999999999991
  1
®
  7
ARIAL
  0
TEXT
  5
FFBBDAE469BC383A
  8
0
  6
CONTINUOUS
 10
-76.902033190843099
 20
186.49765406787211
 30
0.0
 40
3.0323999999999991
  1

  7
ARIAL
  0
TEXT
  5
FFBBDAE469BC383B
  8
0
  6
CONTINUOUS
 10
-73.577976710624824
 20
185.58692326787209
 30
0.0
 40
2.8322615999999998
  1
 
  7
ARIAL
  0
TEXT
  5
FFBBDAE469BC383C
  8
0
  6
CONTINUOUS
 10
-71.015454310624818
 20
185.00305406787211
 30
0.0
 40
4.0
  1
Structural
  7
ARIAL
  0
TEXT
  5
FFBBDAE469BC383D
  8
0
  6
CONTINUOUS
 10
-80.608905879519796
 20
178.30014060720819
 30
0.0
 40
4.0
  1
Cavity Batten
  7
ARIAL
  0
ENDBLK
  5
FFBBDAE469BC383F
  8
0
  0
BLOCK
  8
0
  2
*U29
 70
     1
 10
0.0
 20
0.0
 30
0.0
  3
*U29
  1

  0
SOLID
  5
FFBBDAE469BC3841
  8
0
  6
CONTINUOUS
 10
-25.38979836212842
 20
141.11018582982771
 30
0.0
 11
-22.02973923971194
 21
139.68540419958899
 31
0.0
 12
-25.670264884237401
 22
139.94342170200409
 32
0.0
 13
-25.670264884237401
 23
139.94342170200409
 33
0.0
  0
POLYLINE
  8
0
  5
80000103
  66
     1
 10
0.000000
 20
0.000000
 30
0.000000
  70
     8
  0
VERTEX
  8
0
  5
80000104
 10
-25.5300
 20
140.527
 30
0.000000
  70
    32
  0
VERTEX
  8
0
  5
80000105
 10
-25.9255
 20
140.623
 30
0.000000
  70
    32
  0
VERTEX
  8
0
  5
80000106
 10
-26.3207
 20
140.720
 30
0.000000
  70
    32
  0
VERTEX
  8
0
  5
80000107
 10
-26.7158
 20
140.819
 30
0.000000
  70
    32
  0
VERTEX
  8
0
  5
80000108
 10
-27.1107
 20
140.919
 30
0.000000
  70
    32
  0
VERTEX
  8
0
  5
80000109
 10
-27.5055
 20
141.020
 30
0.000000
  70
    32
  0
VERTEX
  8
0
  5
8000010A
 10
-27.9001
 20
141.123
 30
0.000000
  70
    32
  0
VERTEX
  8
0
  5
8000010B
 10
-28.2945
 20
141.227
 30
0.000000
  70
    32
  0
VERTEX
  8
0
  5
8000010C
 10
-28.6888
 20
141.332
 30
0.000000
  70
    32
  0
VERTEX
  8
0
  5
8000010D
 10
-29.0830
 20
141.439
 30
0.000000
  70
    32
  0
VERTEX
  8
0
  5
8000010E
 10
-29.4770
 20
141.547
 30
0.000000
  70
    32
  0
VERTEX
  8
0
  5
8000010F
 10
-29.8709
 20
141.655
 30
0.000000
  70
    32
  0
VERTEX
  8
0
  5
80000110
 10
-30.2646
 20
141.765
 30
0.000000
  70
    32
  0
VERTEX
  8
0
  5
80000111
 10
-30.6583
 20
141.876
 30
0.000000
  70
    32
  0
VERTEX
  8
0
  5
80000112
 10
-31.0518
 20
141.988
 30
0.000000
  70
    32
  0
VERTEX
  8
0
  5
80000113
 10
-31.4451
 20
142.101
 30
0.000000
  70
    32
  0
VERTEX
  8
0
  5
80000114
 10
-31.8384
 20
142.215
 30
0.000000
  70
    32
  0
VERTEX
  8
0
  5
80000115
 10
-32.2316
 20
142.330
 30
0.000000
  70
    32
  0
VERTEX
  8
0
  5
80000116
 10
-32.6246
 20
142.446
 30
0.000000
  70
    32
  0
VERTEX
  8
0
  5
80000117
 10
-33.0176
 20
142.563
 30
0.000000
  70
    32
  0
VERTEX
  8
0
  5
80000118
 10
-33.4104
 20
142.681
 30
0.000000
  70
    32
  0
VERTEX
  8
0
  5
80000119
 10
-33.8032
 20
142.799
 30
0.000000
  70
    32
  0
VERTEX
  8
0
  5
8000011A
 10
-34.1958
 20
142.918
 30
0.000000
  70
    32
  0
VERTEX
  8
0
  5
8000011B
 10
-34.5884
 20
143.038
 30
0.000000
  70
    32
  0
VERTEX
  8
0
  5
8000011C
 10
-34.9809
 20
143.158
 30
0.000000
  70
    32
  0
VERTEX
  8
0
  5
8000011D
 10
-35.3734
 20
143.279
 30
0.000000
  70
    32
  0
VERTEX
  8
0
  5
8000011E
 10
-35.7657
 20
143.401
 30
0.000000
  70
    32
  0
VERTEX
  8
0
  5
8000011F
 10
-36.1580
 20
143.524
 30
0.000000
  70
    32
  0
VERTEX
  8
0
  5
80000120
 10
-36.5502
 20
143.646
 30
0.000000
  70
    32
  0
VERTEX
  8
0
  5
80000121
 10
-36.9424
 20
143.770
 30
0.000000
  70
    32
  0
VERTEX
  8
0
  5
80000122
 10
-37.3345
 20
143.894
 30
0.000000
  70
    32
  0
VERTEX
  8
0
  5
80000123
 10
-37.7265
 20
144.018
 30
0.000000
  70
    32
  0
VERTEX
  8
0
  5
80000124
 10
-38.1185
 20
144.143
 30
0.000000
  70
    32
  0
VERTEX
  8
0
  5
80000125
 10
-38.5105
 20
144.268
 30
0.000000
  70
    32
  0
VERTEX
  8
0
  5
80000126
 10
-38.9024
 20
144.393
 30
0.000000
  70
    32
  0
VERTEX
  8
0
  5
80000127
 10
-39.2943
 20
144.519
 30
0.000000
  70
    32
  0
VERTEX
  8
0
  5
80000128
 10
-39.6862
 20
144.645
 30
0.000000
  70
    32
  0
VERTEX
  8
0
  5
80000129
 10
-40.0780
 20
144.771
 30
0.000000
  70
    32
  0
VERTEX
  8
0
  5
8000012A
 10
-40.4698
 20
144.897
 30
0.000000
  70
    32
  0
VERTEX
  8
0
  5
8000012B
 10
-40.8616
 20
145.024
 30
0.000000
  70
    32
  0
VERTEX
  8
0
  5
8000012C
 10
-41.2534
 20
145.150
 30
0.000000
  70
    32
  0
VERTEX
  8
0
  5
8000012D
 10
-41.6451
 20
145.277
 30
0.000000
  70
    32
  0
VERTEX
  8
0
  5
8000012E
 10
-42.0369
 20
145.404
 30
0.000000
  70
    32
  0
VERTEX
  8
0
  5
8000012F
 10
-42.4287
 20
145.530
 30
0.000000
  70
    32
  0
VERTEX
  8
0
  5
80000130
 10
-42.8204
 20
145.657
 30
0.000000
  70
    32
  0
VERTEX
  8
0
  5
80000131
 10
-43.2122
 20
145.784
 30
0.000000
  70
    32
  0
VERTEX
  8
0
  5
80000132
 10
-43.6040
 20
145.910
 30
0.000000
  70
    32
  0
VERTEX
  8
0
  5
80000133
 10
-43.9958
 20
146.037
 30
0.000000
  70
    32
  0
VERTEX
  8
0
  5
80000134
 10
-44.3876
 20
146.163
 30
0.000000
  70
    32
  0
VERTEX
  8
0
  5
80000135
 10
-44.7794
 20
146.289
 30
0.000000
  70
    32
  0
VERTEX
  8
0
  5
80000136
 10
-45.1713
 20
146.415
 30
0.000000
  70
    32
  0
VERTEX
  8
0
  5
80000137
 10
-45.5632
 20
146.541
 30
0.000000
  70
    32
  0
VERTEX
  8
0
  5
80000138
 10
-45.9551
 20
146.666
 30
0.000000
  70
    32
  0
VERTEX
  8
0
  5
80000139
 10
-46.3471
 20
146.791
 30
0.000000
  70
    32
  0
VERTEX
  8
0
  5
8000013A
 10
-46.7391
 20
146.916
 30
0.000000
  70
    32
  0
VERTEX
  8
0
  5
8000013B
 10
-47.1312
 20
147.040
 30
0.000000
  70
    32
  0
VERTEX
  8
0
  5
8000013C
 10
-47.5233
 20
147.163
 30
0.000000
  70
    32
  0
VERTEX
  8
0
  5
8000013D
 10
-47.9155
 20
147.287
 30
0.000000
  70
    32
  0
VERTEX
  8
0
  5
8000013E
 10
-48.3077
 20
147.409
 30
0.000000
  70
    32
  0
VERTEX
  8
0
  5
8000013F
 10
-48.7000
 20
147.531
 30
0.000000
  70
    32
  0
VERTEX
  8
0
  5
80000140
 10
-49.0924
 20
147.653
 30
0.000000
  70
    32
  0
VERTEX
  8
0
  5
80000141
 10
-49.4849
 20
147.774
 30
0.000000
  70
    32
  0
VERTEX
  8
0
  5
80000142
 10
-49.8774
 20
147.894
 30
0.000000
  70
    32
  0
VERTEX
  8
0
  5
80000143
 10
-50.2700
 20
148.014
 30
0.000000
  70
    32
  0
VERTEX
  8
0
  5
80000144
 10
-50.6627
 20
148.133
 30
0.000000
  70
    32
  0
VERTEX
  8
0
  5
80000145
 10
-51.0555
 20
148.251
 30
0.000000
  70
    32
  0
VERTEX
  8
0
  5
80000146
 10
-51.4484
 20
148.368
 30
0.000000
  70
    32
  0
VERTEX
  8
0
  5
80000147
 10
-51.8413
 20
148.484
 30
0.000000
  70
    32
  0
VERTEX
  8
0
  5
80000148
 10
-52.2344
 20
148.600
 30
0.000000
  70
    32
  0
VERTEX
  8
0
  5
80000149
 10
-52.6276
 20
148.715
 30
0.000000
  70
    32
  0
VERTEX
  8
0
  5
8000014A
 10
-53.0209
 20
148.828
 30
0.000000
  70
    32
  0
VERTEX
  8
0
  5
8000014B
 10
-53.4144
 20
148.941
 30
0.000000
  70
    32
  0
VERTEX
  8
0
  5
8000014C
 10
-53.8079
 20
149.053
 30
0.000000
  70
    32
  0
VERTEX
  8
0
  5
8000014D
 10
-54.2016
 20
149.163
 30
0.000000
  70
    32
  0
VERTEX
  8
0
  5
8000014E
 10
-54.5954
 20
149.273
 30
0.000000
  70
    32
  0
VERTEX
  8
0
  5
8000014F
 10
-54.9893
 20
149.381
 30
0.000000
  70
    32
  0
VERTEX
  8
0
  5
80000150
 10
-55.3833
 20
149.489
 30
0.000000
  70
    32
  0
VERTEX
  8
0
  5
80000151
 10
-55.7776
 20
149.595
 30
0.000000
  70
    32
  0
VERTEX
  8
0
  5
80000152
 10
-56.1719
 20
149.700
 30
0.000000
  70
    32
  0
VERTEX
  8
0
  5
80000153
 10
-56.5664
 20
149.803
 30
0.000000
  70
    32
  0
VERTEX
  8
0
  5
80000154
 10
-56.9611
 20
149.906
 30
0.000000
  70
    32
  0
VERTEX
  8
0
  5
80000155
 10
-57.3559
 20
150.007
 30
0.000000
  70
    32
  0
VERTEX
  8
0
  5
80000156
 10
-57.7508
 20
150.106
 30
0.000000
  70
    32
  0
VERTEX
  8
0
  5
80000157
 10
-58.1460
 20
150.205
 30
0.000000
  70
    32
  0
VERTEX
  8
0
  5
80000158
 10
-58.5413
 20
150.301
 30
0.000000
  70
    32
  0
VERTEX
  8
0
  5
80000159
 10
-58.9368
 20
150.397
 30
0.000000
  70
    32
  0
VERTEX
  8
0
  5
8000015A
 10
-59.3324
 20
150.491
 30
0.000000
  70
    32
  0
VERTEX
  8
0
  5
8000015B
 10
-59.7283
 20
150.583
 30
0.000000
  70
    32
  0
VERTEX
  8
0
  5
8000015C
 10
-60.1243
 20
150.674
 30
0.000000
  70
    32
  0
VERTEX
  8
0
  5
8000015D
 10
-60.5205
 20
150.763
 30
0.000000
  70
    32
  0
VERTEX
  8
0
  5
8000015E
 10
-60.9170
 20
150.850
 30
0.000000
  70
    32
  0
VERTEX
  8
0
  5
8000015F
 10
-61.3136
 20
150.936
 30
0.000000
  70
    32
  0
VERTEX
  8
0
  5
80000160
 10
-61.7104
 20
151.020
 30
0.000000
  70
    32
  0
VERTEX
  8
0
  5
80000161
 10
-62.1074
 20
151.102
 30
0.000000
  70
    32
  0
VERTEX
  8
0
  5
80000162
 10
-62.5047
 20
151.183
 30
0.000000
  70
    32
  0
VERTEX
  8
0
  5
80000163
 10
-62.9022
 20
151.261
 30
0.000000
  70
    32
  0
VERTEX
  8
0
  5
80000164
 10
-63.2998
 20
151.338
 30
0.000000
  70
    32
  0
VERTEX
  8
0
  5
80000165
 10
-63.6977
 20
151.413
 30
0.000000
  70
    32
  0
VERTEX
  8
0
  5
80000166
 10
-64.0959
 20
151.486
 30
0.000000
  70
    32
  0
VERTEX
  8
0
  5
80000167
 10
-64.4942
 20
151.557
 30
0.000000
  70
    32
  0
VERTEX
  8
0
  5
80000168
 10
-64.8929
 20
151.626
 30
0.000000
  70
    32
  0
VERTEX
  8
0
  5
80000169
 10
-65.2917
 20
151.693
 30
0.000000
  70
    32
  0
VERTEX
  8
0
  5
8000016A
 10
-65.6908
 20
151.757
 30
0.000000
  70
    32
  0
VERTEX
  8
0
  5
8000016B
 10
-66.0901
 20
151.820
 30
0.000000
  70
    32
  0
VERTEX
  8
0
  5
8000016C
 10
-66.4897
 20
151.881
 30
0.000000
  70
    32
  0
VERTEX
  8
0
  5
8000016D
 10
-66.8896
 20
151.939
 30
0.000000
  70
    32
  0
VERTEX
  8
0
  5
8000016E
 10
-67.2897
 20
151.995
 30
0.000000
  70
    32
  0
VERTEX
  8
0
  5
8000016F
 10
-67.6901
 20
152.049
 30
0.000000
  70
    32
  0
VERTEX
  8
0
  5
80000170
 10
-68.0908
 20
152.101
 30
0.000000
  70
    32
  0
VERTEX
  8
0
  5
80000171
 10
-68.4917
 20
152.150
 30
0.000000
  70
    32
  0
VERTEX
  8
0
  5
80000172
 10
-68.8929
 20
152.197
 30
0.000000
  70
    32
  0
VERTEX
  8
0
  5
80000173
 10
-69.2944
 20
152.242
 30
0.000000
  70
    32
  0
VERTEX
  8
0
  5
80000174
 10
-69.6962
 20
152.284
 30
0.000000
  70
    32
  0
VERTEX
  8
0
  5
80000175
 10
-70.0983
 20
152.324
 30
0.000000
  70
    32
  0
VERTEX
  8
0
  5
80000176
 10
-70.5006
 20
152.361
 30
0.000000
  70
    32
  0
VERTEX
  8
0
  5
80000177
 10
-70.9033
 20
152.396
 30
0.000000
  70
    32
  0
VERTEX
  8
0
  5
80000178
 10
-71.3063
 20
152.428
 30
0.000000
  70
    32
  0
VERTEX
  8
0
  5
80000179
 10
-71.7096
 20
152.457
 30
0.000000
  70
    32
  0
VERTEX
  8
0
  5
8000017A
 10
-72.1132
 20
152.484
 30
0.000000
  70
    32
  0
VERTEX
  8
0
  5
8000017B
 10
-72.5171
 20
152.508
 30
0.000000
  70
    32
  0
VERTEX
  8
0
  5
8000017C
 10
-72.9213
 20
152.530
 30
0.000000
  70
    32
  0
VERTEX
  8
0
  5
8000017D
 10
-73.3259
 20
152.549
 30
0.000000
  70
    32
  0
VERTEX
  8
0
  5
8000017E
 10
-73.7308
 20
152.564
 30
0.000000
  70
    32
  0
VERTEX
  8
0
  5
8000017F
 10
-74.1360
 20
152.578
 30
0.000000
  70
    32
  0
VERTEX
  8
0
  5
80000180
 10
-74.5416
 20
152.588
 30
0.000000
  70
    32
  0
VERTEX
  8
0
  5
80000181
 10
-74.9475
 20
152.595
 30
0.000000
  70
    32
  0
VERTEX
  8
0
  5
80000182
 10
-75.3537
 20
152.600
 30
0.000000
  70
    32
  0
VERTEX
  8
0
  5
80000183
 10
-75.7603
 20
152.601
 30
0.000000
  70
    32
  0
SEQEND
  8
0
  5
80000184
  0
ENDBLK
  5
FFBBDAE469BC3844
  8
0
  0
BLOCK
  8
0
  2
*U30
 70
     1
 10
0.0
 20
0.0
 30
0.0
  3
*U30
  1

  0
TEXT
  5
FFBBDAE469BC3846
  8
0
  6
CONTINUOUS
 10
-118.84901502003819
 20
151.18914915312249
 30
0.0
 40
4.0
  1
EasyLap
  7
ARIAL
  0
TEXT
  5
FFBBDAE469BC3847
  8
0
  6
CONTINUOUS
 10
-97.168251036409274
 20
153.52248248645591
 30
0.0
 40
2.0
  1
TM
  7
ARIAL
  0
TEXT
  5
FFBBDAE469BC3848
  8
0
  6
CONTINUOUS
 10
-97.102766725358791
 20
152.8558158197892
 30
0.0
 40
2.0
  1

  7
ARIAL
  0
TEXT
  5
FFBBDAE469BC3849
  8
0
  6
CONTINUOUS
 10
-93.211907243776253
 20
151.18914915312249
 30
0.0
 40
4.0
  1
 Panel
  7
ARIAL
  0
ENDBLK
  5
FFBBDAE469BC384B
  8
0
  0
BLOCK
  8
0
  2
*U31
 70
     1
 10
0.0
 20
0.0
 30
0.0
  3
*U31
  1

  0
SOLID
  5
FFBBDAE469BC384D
  8
0
  6
CONTINUOUS
 10
-22.895726303739881
 20
83.804747543608158
 30
0.0
 11
-21.551520180664738
 21
80.411650153510536
 31
0.0
 12
-23.923530531713421
 22
83.185378131254197
 32
0.0
 13
-23.923530531713421
 23
83.185378131254197
 33
0.0
  0
POLYLINE
  8
0
  5
80000185
  66
     1
 10
0.000000
 20
0.000000
 30
0.000000
  70
     8
  0
VERTEX
  8
0
  5
80000186
 10
-23.4096
 20
83.4951
 30
0.000000
  70
    32
  0
VERTEX
  8
0
  5
80000187
 10
-23.5843
 20
83.7894
 30
0.000000
  70
    32
  0
VERTEX
  8
0
  5
80000188
 10
-23.7565
 20
84.0882
 30
0.000000
  70
    32
  0
VERTEX
  8
0
  5
80000189
 10
-23.9262
 20
84.3914
 30
0.000000
  70
    32
  0
VERTEX
  8
0
  5
8000018A
 10
-24.0935
 20
84.6989
 30
0.000000
  70
    32
  0
VERTEX
  8
0
  5
8000018B
 10
-24.2584
 20
85.0105
 30
0.000000
  70
    32
  0
VERTEX
  8
0
  5
8000018C
 10
-24.4210
 20
85.3262
 30
0.000000
  70
    32
  0
VERTEX
  8
0
  5
8000018D
 10
-24.5814
 20
85.6459
 30
0.000000
  70
    32
  0
VERTEX
  8
0
  5
8000018E
 10
-24.7397
 20
85.9693
 30
0.000000
  70
    32
  0
VERTEX
  8
0
  5
8000018F
 10
-24.8958
 20
86.2966
 30
0.000000
  70
    32
  0
VERTEX
  8
0
  5
80000190
 10
-25.0499
 20
86.6274
 30
0.000000
  70
    32
  0
VERTEX
  8
0
  5
80000191
 10
-25.2020
 20
86.9617
 30
0.000000
  70
    32
  0
VERTEX
  8
0
  5
80000192
 10
-25.3521
 20
87.2995
 30
0.000000
  70
    32
  0
VERTEX
  8
0
  5
80000193
 10
-25.5004
 20
87.6405
 30
0.000000
  70
    32
  0
VERTEX
  8
0
  5
80000194
 10
-25.6470
 20
87.9848
 30
0.000000
  70
    32
  0
VERTEX
  8
0
  5
80000195
 10
-25.7917
 20
88.3321
 30
0.000000
  70
    32
  0
VERTEX
  8
0
  5
80000196
 10
-25.9348
 20
88.6823
 30
0.000000
  70
    32
  0
VERTEX
  8
0
  5
80000197
 10
-26.0763
 20
89.0355
 30
0.000000
  70
    32
  0
VERTEX
  8
0
  5
80000198
 10
-26.2162
 20
89.3914
 30
0.000000
  70
    32
  0
VERTEX
  8
0
  5
80000199
 10
-26.3547
 20
89.7499
 30
0.000000
  70
    32
  0
VERTEX
  8
0
  5
8000019A
 10
-26.4917
 20
90.1110
 30
0.000000
  70
    32
  0
VERTEX
  8
0
  5
8000019B
 10
-26.6273
 20
90.4745
 30
0.000000
  70
    32
  0
VERTEX
  8
0
  5
8000019C
 10
-26.7616
 20
90.8403
 30
0.000000
  70
    32
  0
VERTEX
  8
0
  5
8000019D
 10
-26.8947
 20
91.2083
 30
0.000000
  70
    32
  0
VERTEX
  8
0
  5
8000019E
 10
-27.0266
 20
91.5784
 30
0.000000
  70
    32
  0
VERTEX
  8
0
  5
8000019F
 10
-27.1573
 20
91.9506
 30
0.000000
  70
    32
  0
VERTEX
  8
0
  5
800001A0
 10
-27.2870
 20
92.3246
 30
0.000000
  70
    32
  0
VERTEX
  8
0
  5
800001A1
 10
-27.4157
 20
92.7003
 30
0.000000
  70
    32
  0
VERTEX
  8
0
  5
800001A2
 10
-27.5435
 20
93.0778
 30
0.000000
  70
    32
  0
VERTEX
  8
0
  5
800001A3
 10
-27.6703
 20
93.4568
 30
0.000000
  70
    32
  0
VERTEX
  8
0
  5
800001A4
 10
-27.7964
 20
93.8372
 30
0.000000
  70
    32
  0
VERTEX
  8
0
  5
800001A5
 10
-27.9217
 20
94.2190
 30
0.000000
  70
    32
  0
VERTEX
  8
0
  5
800001A6
 10
-28.0463
 20
94.6020
 30
0.000000
  70
    32
  0
VERTEX
  8
0
  5
800001A7
 10
-28.1703
 20
94.9862
 30
0.000000
  70
    32
  0
VERTEX
  8
0
  5
800001A8
 10
-28.2936
 20
95.3713
 30
0.000000
  70
    32
  0
VERTEX
  8
0
  5
800001A9
 10
-28.4165
 20
95.7574
 30
0.000000
  70
    32
  0
VERTEX
  8
0
  5
800001AA
 10
-28.5390
 20
96.1442
 30
0.000000
  70
    32
  0
VERTEX
  8
0
  5
800001AB
 10
-28.6610
 20
96.5318
 30
0.000000
  70
    32
  0
VERTEX
  8
0
  5
800001AC
 10
-28.7827
 20
96.9199
 30
0.000000
  70
    32
  0
VERTEX
  8
0
  5
800001AD
 10
-28.9042
 20
97.3085
 30
0.000000
  70
    32
  0
VERTEX
  8
0
  5
800001AE
 10
-29.0254
 20
97.6974
 30
0.000000
  70
    32
  0
VERTEX
  8
0
  5
800001AF
 10
-29.1465
 20
98.0866
 30
0.000000
  70
    32
  0
VERTEX
  8
0
  5
800001B0
 10
-29.2675
 20
98.4760
 30
0.000000
  70
    32
  0
VERTEX
  8
0
  5
800001B1
 10
-29.3885
 20
98.8654
 30
0.000000
  70
    32
  0
VERTEX
  8
0
  5
800001B2
 10
-29.5096
 20
99.2547
 30
0.000000
  70
    32
  0
VERTEX
  8
0
  5
800001B3
 10
-29.6307
 20
99.6438
 30
0.000000
  70
    32
  0
VERTEX
  8
0
  5
800001B4
 10
-29.7520
 20
100.033
 30
0.000000
  70
    32
  0
VERTEX
  8
0
  5
800001B5
 10
-29.8736
 20
100.421
 30
0.000000
  70
    32
  0
VERTEX
  8
0
  5
800001B6
 10
-29.9954
 20
100.809
 30
0.000000
  70
    32
  0
VERTEX
  8
0
  5
800001B7
 10
-30.1176
 20
101.196
 30
0.000000
  70
    32
  0
VERTEX
  8
0
  5
800001B8
 10
-30.2401
 20
101.583
 30
0.000000
  70
    32
  0
VERTEX
  8
0
  5
800001B9
 10
-30.3632
 20
101.969
 30
0.000000
  70
    32
  0
VERTEX
  8
0
  5
800001BA
 10
-30.4868
 20
102.354
 30
0.000000
  70
    32
  0
VERTEX
  8
0
  5
800001BB
 10
-30.6109
 20
102.737
 30
0.000000
  70
    32
  0
VERTEX
  8
0
  5
800001BC
 10
-30.7357
 20
103.120
 30
0.000000
  70
    32
  0
VERTEX
  8
0
  5
800001BD
 10
-30.8613
 20
103.501
 30
0.000000
  70
    32
  0
VERTEX
  8
0
  5
800001BE
 10
-30.9876
 20
103.881
 30
0.000000
  70
    32
  0
VERTEX
  8
0
  5
800001BF
 10
-31.1148
 20
104.260
 30
0.000000
  70
    32
  0
VERTEX
  8
0
  5
800001C0
 10
-31.2428
 20
104.637
 30
0.000000
  70
    32
  0
VERTEX
  8
0
  5
800001C1
 10
-31.3718
 20
105.012
 30
0.000000
  70
    32
  0
VERTEX
  8
0
  5
800001C2
 10
-31.5019
 20
105.385
 30
0.000000
  70
    32
  0
VERTEX
  8
0
  5
800001C3
 10
-31.6330
 20
105.757
 30
0.000000
  70
    32
  0
VERTEX
  8
0
  5
800001C4
 10
-31.7653
 20
106.126
 30
0.000000
  70
    32
  0
VERTEX
  8
0
  5
800001C5
 10
-31.8988
 20
106.493
 30
0.000000
  70
    32
  0
VERTEX
  8
0
  5
800001C6
 10
-32.0335
 20
106.859
 30
0.000000
  70
    32
  0
VERTEX
  8
0
  5
800001C7
 10
-32.1696
 20
107.221
 30
0.000000
  70
    32
  0
VERTEX
  8
0
  5
800001C8
 10
-32.3071
 20
107.581
 30
0.000000
  70
    32
  0
VERTEX
  8
0
  5
800001C9
 10
-32.4460
 20
107.939
 30
0.000000
  70
    32
  0
VERTEX
  8
0
  5
800001CA
 10
-32.5864
 20
108.294
 30
0.000000
  70
    32
  0
VERTEX
  8
0
  5
800001CB
 10
-32.7284
 20
108.646
 30
0.000000
  70
    32
  0
VERTEX
  8
0
  5
800001CC
 10
-32.8721
 20
108.996
 30
0.000000
  70
    32
  0
VERTEX
  8
0
  5
800001CD
 10
-33.0174
 20
109.342
 30
0.000000
  70
    32
  0
VERTEX
  8
0
  5
800001CE
 10
-33.1645
 20
109.685
 30
0.000000
  70
    32
  0
VERTEX
  8
0
  5
800001CF
 10
-33.3135
 20
110.025
 30
0.000000
  70
    32
  0
VERTEX
  8
0
  5
800001D0
 10
-33.4643
 20
110.362
 30
0.000000
  70
    32
  0
VERTEX
  8
0
  5
800001D1
 10
-33.6170
 20
110.695
 30
0.000000
  70
    32
  0
VERTEX
  8
0
  5
800001D2
 10
-33.7718
 20
111.025
 30
0.000000
  70
    32
  0
VERTEX
  8
0
  5
800001D3
 10
-33.9286
 20
111.351
 30
0.000000
  70
    32
  0
VERTEX
  8
0
  5
800001D4
 10
-34.0875
 20
111.673
 30
0.000000
  70
    32
  0
VERTEX
  8
0
  5
800001D5
 10
-34.2487
 20
111.991
 30
0.000000
  70
    32
  0
VERTEX
  8
0
  5
800001D6
 10
-34.4121
 20
112.305
 30
0.000000
  70
    32
  0
VERTEX
  8
0
  5
800001D7
 10
-34.5778
 20
112.616
 30
0.000000
  70
    32
  0
VERTEX
  8
0
  5
800001D8
 10
-34.7458
 20
112.922
 30
0.000000
  70
    32
  0
VERTEX
  8
0
  5
800001D9
 10
-34.9164
 20
113.223
 30
0.000000
  70
    32
  0
VERTEX
  8
0
  5
800001DA
 10
-35.0894
 20
113.521
 30
0.000000
  70
    32
  0
VERTEX
  8
0
  5
800001DB
 10
-35.2649
 20
113.814
 30
0.000000
  70
    32
  0
VERTEX
  8
0
  5
800001DC
 10
-35.4431
 20
114.102
 30
0.000000
  70
    32
  0
VERTEX
  8
0
  5
800001DD
 10
-35.6240
 20
114.385
 30
0.000000
  70
    32
  0
VERTEX
  8
0
  5
800001DE
 10
-35.8076
 20
114.664
 30
0.000000
  70
    32
  0
VERTEX
  8
0
  5
800001DF
 10
-35.9940
 20
114.937
 30
0.000000
  70
    32
  0
VERTEX
  8
0
  5
800001E0
 10
-36.1832
 20
115.206
 30
0.000000
  70
    32
  0
VERTEX
  8
0
  5
800001E1
 10
-36.3754
 20
115.469
 30
0.000000
  70
    32
  0
VERTEX
  8
0
  5
800001E2
 10
-36.5706
 20
115.727
 30
0.000000
  70
    32
  0
VERTEX
  8
0
  5
800001E3
 10
-36.7688
 20
115.980
 30
0.000000
  70
    32
  0
VERTEX
  8
0
  5
800001E4
 10
-36.9702
 20
116.227
 30
0.000000
  70
    32
  0
VERTEX
  8
0
  5
800001E5
 10
-37.1747
 20
116.469
 30
0.000000
  70
    32
  0
VERTEX
  8
0
  5
800001E6
 10
-37.3824
 20
116.705
 30
0.000000
  70
    32
  0
VERTEX
  8
0
  5
800001E7
 10
-37.5935
 20
116.935
 30
0.000000
  70
    32
  0
VERTEX
  8
0
  5
800001E8
 10
-37.8079
 20
117.159
 30
0.000000
  70
    32
  0
VERTEX
  8
0
  5
800001E9
 10
-38.0257
 20
117.377
 30
0.000000
  70
    32
  0
VERTEX
  8
0
  5
800001EA
 10
-38.2470
 20
117.589
 30
0.000000
  70
    32
  0
VERTEX
  8
0
  5
800001EB
 10
-38.4718
 20
117.794
 30
0.000000
  70
    32
  0
VERTEX
  8
0
  5
800001EC
 10
-38.7002
 20
117.993
 30
0.000000
  70
    32
  0
VERTEX
  8
0
  5
800001ED
 10
-38.9323
 20
118.186
 30
0.000000
  70
    32
  0
VERTEX
  8
0
  5
800001EE
 10
-39.1681
 20
118.372
 30
0.000000
  70
    32
  0
VERTEX
  8
0
  5
800001EF
 10
-39.4077
 20
118.552
 30
0.000000
  70
    32
  0
VERTEX
  8
0
  5
800001F0
 10
-39.6512
 20
118.725
 30
0.000000
  70
    32
  0
VERTEX
  8
0
  5
800001F1
 10
-39.8985
 20
118.890
 30
0.000000
  70
    32
  0
VERTEX
  8
0
  5
800001F2
 10
-40.1498
 20
119.049
 30
0.000000
  70
    32
  0
VERTEX
  8
0
  5
800001F3
 10
-40.4052
 20
119.201
 30
0.000000
  70
    32
  0
VERTEX
  8
0
  5
800001F4
 10
-40.6646
 20
119.345
 30
0.000000
  70
    32
  0
VERTEX
  8
0
  5
800001F5
 10
-40.9282
 20
119.482
 30
0.000000
  70
    32
  0
VERTEX
  8
0
  5
800001F6
 10
-41.1960
 20
119.611
 30
0.000000
  70
    32
  0
VERTEX
  8
0
  5
800001F7
 10
-41.4681
 20
119.733
 30
0.000000
  70
    32
  0
VERTEX
  8
0
  5
800001F8
 10
-41.7445
 20
119.848
 30
0.000000
  70
    32
  0
VERTEX
  8
0
  5
800001F9
 10
-42.0253
 20
119.954
 30
0.000000
  70
    32
  0
VERTEX
  8
0
  5
800001FA
 10
-42.3106
 20
120.053
 30
0.000000
  70
    32
  0
VERTEX
  8
0
  5
800001FB
 10
-42.6004
 20
120.143
 30
0.000000
  70
    32
  0
VERTEX
  8
0
  5
800001FC
 10
-42.8948
 20
120.226
 30
0.000000
  70
    32
  0
VERTEX
  8
0
  5
800001FD
 10
-43.1938
 20
120.300
 30
0.000000
  70
    32
  0
VERTEX
  8
0
  5
800001FE
 10
-43.4976
 20
120.366
 30
0.000000
  70
    32
  0
VERTEX
  8
0
  5
800001FF
 10
-43.8061
 20
120.423
 30
0.000000
  70
    32
  0
VERTEX
  8
0
  5
80000200
 10
-44.1194
 20
120.472
 30
0.000000
  70
    32
  0
VERTEX
  8
0
  5
80000201
 10
-44.4376
 20
120.513
 30
0.000000
  70
    32
  0
VERTEX
  8
0
  5
80000202
 10
-44.7608
 20
120.544
 30
0.000000
  70
    32
  0
VERTEX
  8
0
  5
80000203
 10
-45.0889
 20
120.567
 30
0.000000
  70
    32
  0
VERTEX
  8
0
  5
80000204
 10
-45.4222
 20
120.580
 30
0.000000
  70
    32
  0
VERTEX
  8
0
  5
80000205
 10
-45.7606
 20
120.585
 30
0.000000
  70
    32
  0
SEQEND
  8
0
  5
80000206
  0
ENDBLK
  5
FFBBDAE469BC3850
  8
0
  0
BLOCK
  8
0
  2
*U32
 70
     1
 10
0.0
 20
0.0
 30
0.0
  3
*U32
  1

  0
TEXT
  5
FFBBDAE469BC3852
  8
0
  6
CONTINUOUS
 10
-110.4427123096078
 20
121.9429450600842
 30
0.0
 40
4.0
  1
JH 9mm panel aluminium
  7
ARIAL
  0
TEXT
  5
FFBBDAE469BC3853
  8
0
  6
CONTINUOUS
 10
-96.622794164996634
 20
115.2762783934175
 30
0.0
 40
4.0
  1
horizontal 'h' mould.
  7
ARIAL
  0
ENDBLK
  5
FFBBDAE469BC3855
  8
0
  0
BLOCK
  8
0
  2
*U33
 70
     1
 10
0.0
 20
0.0
 30
0.0
  3
*U33
  1

  0
SOLID
  5
FFBBDAE469BC3857
  8
0
  6
CONTINUOUS
 10
-36.657832168735347
 20
-12.66960433708563
 30
0.0
 11
-33.009479789019217
 21
-12.767200000000109
 31
0.0
 12
-36.492276579425663
 22
-13.858129198772721
 32
0.0
 13
-36.492276579425663
 23
-13.858129198772721
 33
0.0
  0
POLYLINE
  8
0
  5
80000207
  66
     1
 10
0.000000
 20
0.000000
 30
0.000000
  70
     8
  0
VERTEX
  8
0
  5
80000208
 10
-36.5751
 20
-13.2639
 30
0.000000
  70
    32
  0
VERTEX
  8
0
  5
80000209
 10
-36.7463
 20
-13.2879
 30
0.000000
  70
    32
  0
VERTEX
  8
0
  5
8000020A
 10
-36.9176
 20
-13.3123
 30
0.000000
  70
    32
  0
VERTEX
  8
0
  5
8000020B
 10
-37.0888
 20
-13.3371
 30
0.000000
  70
    32
  0
VERTEX
  8
0
  5
8000020C
 10
-37.2600
 20
-13.3622
 30
0.000000
  70
    32
  0
VERTEX
  8
0
  5
8000020D
 10
-37.4312
 20
-13.3877
 30
0.000000
  70
    32
  0
VERTEX
  8
0
  5
8000020E
 10
-37.6023
 20
-13.4135
 30
0.000000
  70
    32
  0
VERTEX
  8
0
  5
8000020F
 10
-37.7734
 20
-13.4396
 30
0.000000
  70
    32
  0
VERTEX
  8
0
  5
80000210
 10
-37.9445
 20
-13.4660
 30
0.000000
  70
    32
  0
VERTEX
  8
0
  5
80000211
 10
-38.1156
 20
-13.4927
 30
0.000000
  70
    32
  0
VERTEX
  8
0
  5
80000212
 10
-38.2867
 20
-13.5198
 30
0.000000
  70
    32
  0
VERTEX
  8
0
  5
80000213
 10
-38.4577
 20
-13.5471
 30
0.000000
  70
    32
  0
VERTEX
  8
0
  5
80000214
 10
-38.6288
 20
-13.5747
 30
0.000000
  70
    32
  0
VERTEX
  8
0
  5
80000215
 10
-38.7998
 20
-13.6025
 30
0.000000
  70
    32
  0
VERTEX
  8
0
  5
80000216
 10
-38.9708
 20
-13.6307
 30
0.000000
  70
    32
  0
VERTEX
  8
0
  5
80000217
 10
-39.1417
 20
-13.6590
 30
0.000000
  70
    32
  0
VERTEX
  8
0
  5
80000218
 10
-39.3127
 20
-13.6876
 30
0.000000
  70
    32
  0
VERTEX
  8
0
  5
80000219
 10
-39.4836
 20
-13.7165
 30
0.000000
  70
    32
  0
VERTEX
  8
0
  5
8000021A
 10
-39.6545
 20
-13.7456
 30
0.000000
  70
    32
  0
VERTEX
  8
0
  5
8000021B
 10
-39.8254
 20
-13.7749
 30
0.000000
  70
    32
  0
VERTEX
  8
0
  5
8000021C
 10
-39.9963
 20
-13.8044
 30
0.000000
  70
    32
  0
VERTEX
  8
0
  5
8000021D
 10
-40.1672
 20
-13.8341
 30
0.000000
  70
    32
  0
VERTEX
  8
0
  5
8000021E
 10
-40.3381
 20
-13.8639
 30
0.000000
  70
    32
  0
VERTEX
  8
0
  5
8000021F
 10
-40.5089
 20
-13.8940
 30
0.000000
  70
    32
  0
VERTEX
  8
0
  5
80000220
 10
-40.6798
 20
-13.9242
 30
0.000000
  70
    32
  0
VERTEX
  8
0
  5
80000221
 10
-40.8506
 20
-13.9546
 30
0.000000
  70
    32
  0
VERTEX
  8
0
  5
80000222
 10
-41.0214
 20
-13.9852
 30
0.000000
  70
    32
  0
VERTEX
  8
0
  5
80000223
 10
-41.1922
 20
-14.0159
 30
0.000000
  70
    32
  0
VERTEX
  8
0
  5
80000224
 10
-41.3630
 20
-14.0467
 30
0.000000
  70
    32
  0
VERTEX
  8
0
  5
80000225
 10
-41.5338
 20
-14.0777
 30
0.000000
  70
    32
  0
VERTEX
  8
0
  5
80000226
 10
-41.7046
 20
-14.1088
 30
0.000000
  70
    32
  0
VERTEX
  8
0
  5
80000227
 10
-41.8754
 20
-14.1400
 30
0.000000
  70
    32
  0
VERTEX
  8
0
  5
80000228
 10
-42.0462
 20
-14.1713
 30
0.000000
  70
    32
  0
VERTEX
  8
0
  5
80000229
 10
-42.2169
 20
-14.2026
 30
0.000000
  70
    32
  0
VERTEX
  8
0
  5
8000022A
 10
-42.3877
 20
-14.2341
 30
0.000000
  70
    32
  0
VERTEX
  8
0
  5
8000022B
 10
-42.5584
 20
-14.2656
 30
0.000000
  70
    32
  0
VERTEX
  8
0
  5
8000022C
 10
-42.7292
 20
-14.2972
 30
0.000000
  70
    32
  0
VERTEX
  8
0
  5
8000022D
 10
-42.8999
 20
-14.3289
 30
0.000000
  70
    32
  0
VERTEX
  8
0
  5
8000022E
 10
-43.0707
 20
-14.3606
 30
0.000000
  70
    32
  0
VERTEX
  8
0
  5
8000022F
 10
-43.2414
 20
-14.3924
 30
0.000000
  70
    32
  0
VERTEX
  8
0
  5
80000230
 10
-43.4121
 20
-14.4241
 30
0.000000
  70
    32
  0
VERTEX
  8
0
  5
80000231
 10
-43.5829
 20
-14.4559
 30
0.000000
  70
    32
  0
VERTEX
  8
0
  5
80000232
 10
-43.7536
 20
-14.4877
 30
0.000000
  70
    32
  0
VERTEX
  8
0
  5
80000233
 10
-43.9243
 20
-14.5196
 30
0.000000
  70
    32
  0
VERTEX
  8
0
  5
80000234
 10
-44.0951
 20
-14.5514
 30
0.000000
  70
    32
  0
VERTEX
  8
0
  5
80000235
 10
-44.2658
 20
-14.5831
 30
0.000000
  70
    32
  0
VERTEX
  8
0
  5
80000236
 10
-44.4365
 20
-14.6149
 30
0.000000
  70
    32
  0
VERTEX
  8
0
  5
80000237
 10
-44.6073
 20
-14.6467
 30
0.000000
  70
    32
  0
VERTEX
  8
0
  5
80000238
 10
-44.7780
 20
-14.6783
 30
0.000000
  70
    32
  0
VERTEX
  8
0
  5
80000239
 10
-44.9487
 20
-14.7100
 30
0.000000
  70
    32
  0
VERTEX
  8
0
  5
8000023A
 10
-45.1195
 20
-14.7416
 30
0.000000
  70
    32
  0
VERTEX
  8
0
  5
8000023B
 10
-45.2902
 20
-14.7731
 30
0.000000
  70
    32
  0
VERTEX
  8
0
  5
8000023C
 10
-45.4610
 20
-14.8045
 30
0.000000
  70
    32
  0
VERTEX
  8
0
  5
8000023D
 10
-45.6318
 20
-14.8359
 30
0.000000
  70
    32
  0
VERTEX
  8
0
  5
8000023E
 10
-45.8025
 20
-14.8671
 30
0.000000
  70
    32
  0
VERTEX
  8
0
  5
8000023F
 10
-45.9733
 20
-14.8983
 30
0.000000
  70
    32
  0
VERTEX
  8
0
  5
80000240
 10
-46.1441
 20
-14.9293
 30
0.000000
  70
    32
  0
VERTEX
  8
0
  5
80000241
 10
-46.3149
 20
-14.9603
 30
0.000000
  70
    32
  0
VERTEX
  8
0
  5
80000242
 10
-46.4857
 20
-14.9910
 30
0.000000
  70
    32
  0
VERTEX
  8
0
  5
80000243
 10
-46.6565
 20
-15.0217
 30
0.000000
  70
    32
  0
VERTEX
  8
0
  5
80000244
 10
-46.8273
 20
-15.0522
 30
0.000000
  70
    32
  0
VERTEX
  8
0
  5
80000245
 10
-46.9982
 20
-15.0825
 30
0.000000
  70
    32
  0
VERTEX
  8
0
  5
80000246
 10
-47.1690
 20
-15.1127
 30
0.000000
  70
    32
  0
VERTEX
  8
0
  5
80000247
 10
-47.3399
 20
-15.1427
 30
0.000000
  70
    32
  0
VERTEX
  8
0
  5
80000248
 10
-47.5107
 20
-15.1726
 30
0.000000
  70
    32
  0
VERTEX
  8
0
  5
80000249
 10
-47.6816
 20
-15.2022
 30
0.000000
  70
    32
  0
VERTEX
  8
0
  5
8000024A
 10
-47.8525
 20
-15.2316
 30
0.000000
  70
    32
  0
VERTEX
  8
0
  5
8000024B
 10
-48.0234
 20
-15.2608
 30
0.000000
  70
    32
  0
VERTEX
  8
0
  5
8000024C
 10
-48.1944
 20
-15.2898
 30
0.000000
  70
    32
  0
VERTEX
  8
0
  5
8000024D
 10
-48.3653
 20
-15.3186
 30
0.000000
  70
    32
  0
VERTEX
  8
0
  5
8000024E
 10
-48.5363
 20
-15.3471
 30
0.000000
  70
    32
  0
VERTEX
  8
0
  5
8000024F
 10
-48.7072
 20
-15.3754
 30
0.000000
  70
    32
  0
VERTEX
  8
0
  5
80000250
 10
-48.8782
 20
-15.4035
 30
0.000000
  70
    32
  0
VERTEX
  8
0
  5
80000251
 10
-49.0492
 20
-15.4312
 30
0.000000
  70
    32
  0
VERTEX
  8
0
  5
80000252
 10
-49.2203
 20
-15.4588
 30
0.000000
  70
    32
  0
VERTEX
  8
0
  5
80000253
 10
-49.3913
 20
-15.4860
 30
0.000000
  70
    32
  0
VERTEX
  8
0
  5
80000254
 10
-49.5624
 20
-15.5129
 30
0.000000
  70
    32
  0
VERTEX
  8
0
  5
80000255
 10
-49.7335
 20
-15.5395
 30
0.000000
  70
    32
  0
VERTEX
  8
0
  5
80000256
 10
-49.9046
 20
-15.5659
 30
0.000000
  70
    32
  0
VERTEX
  8
0
  5
80000257
 10
-50.0757
 20
-15.5919
 30
0.000000
  70
    32
  0
VERTEX
  8
0
  5
80000258
 10
-50.2469
 20
-15.6175
 30
0.000000
  70
    32
  0
VERTEX
  8
0
  5
80000259
 10
-50.4181
 20
-15.6429
 30
0.000000
  70
    32
  0
VERTEX
  8
0
  5
8000025A
 10
-50.5893
 20
-15.6679
 30
0.000000
  70
    32
  0
VERTEX
  8
0
  5
8000025B
 10
-50.7605
 20
-15.6925
 30
0.000000
  70
    32
  0
VERTEX
  8
0
  5
8000025C
 10
-50.9318
 20
-15.7168
 30
0.000000
  70
    32
  0
VERTEX
  8
0
  5
8000025D
 10
-51.1030
 20
-15.7408
 30
0.000000
  70
    32
  0
VERTEX
  8
0
  5
8000025E
 10
-51.2743
 20
-15.7643
 30
0.000000
  70
    32
  0
VERTEX
  8
0
  5
8000025F
 10
-51.4457
 20
-15.7875
 30
0.000000
  70
    32
  0
VERTEX
  8
0
  5
80000260
 10
-51.6170
 20
-15.8102
 30
0.000000
  70
    32
  0
VERTEX
  8
0
  5
80000261
 10
-51.7884
 20
-15.8326
 30
0.000000
  70
    32
  0
VERTEX
  8
0
  5
80000262
 10
-51.9598
 20
-15.8545
 30
0.000000
  70
    32
  0
VERTEX
  8
0
  5
80000263
 10
-52.1313
 20
-15.8760
 30
0.000000
  70
    32
  0
VERTEX
  8
0
  5
80000264
 10
-52.3028
 20
-15.8971
 30
0.000000
  70
    32
  0
VERTEX
  8
0
  5
80000265
 10
-52.4743
 20
-15.9177
 30
0.000000
  70
    32
  0
VERTEX
  8
0
  5
80000266
 10
-52.6458
 20
-15.9379
 30
0.000000
  70
    32
  0
VERTEX
  8
0
  5
80000267
 10
-52.8174
 20
-15.9577
 30
0.000000
  70
    32
  0
VERTEX
  8
0
  5
80000268
 10
-52.9890
 20
-15.9769
 30
0.000000
  70
    32
  0
VERTEX
  8
0
  5
80000269
 10
-53.1606
 20
-15.9957
 30
0.000000
  70
    32
  0
VERTEX
  8
0
  5
8000026A
 10
-53.3323
 20
-16.0140
 30
0.000000
  70
    32
  0
VERTEX
  8
0
  5
8000026B
 10
-53.5040
 20
-16.0319
 30
0.000000
  70
    32
  0
VERTEX
  8
0
  5
8000026C
 10
-53.6757
 20
-16.0492
 30
0.000000
  70
    32
  0
VERTEX
  8
0
  5
8000026D
 10
-53.8475
 20
-16.0660
 30
0.000000
  70
    32
  0
VERTEX
  8
0
  5
8000026E
 10
-54.0193
 20
-16.0822
 30
0.000000
  70
    32
  0
VERTEX
  8
0
  5
8000026F
 10
-54.1912
 20
-16.0980
 30
0.000000
  70
    32
  0
VERTEX
  8
0
  5
80000270
 10
-54.3630
 20
-16.1132
 30
0.000000
  70
    32
  0
VERTEX
  8
0
  5
80000271
 10
-54.5350
 20
-16.1278
 30
0.000000
  70
    32
  0
VERTEX
  8
0
  5
80000272
 10
-54.7069
 20
-16.1420
 30
0.000000
  70
    32
  0
VERTEX
  8
0
  5
80000273
 10
-54.8789
 20
-16.1555
 30
0.000000
  70
    32
  0
VERTEX
  8
0
  5
80000274
 10
-55.0510
 20
-16.1685
 30
0.000000
  70
    32
  0
VERTEX
  8
0
  5
80000275
 10
-55.2230
 20
-16.1808
 30
0.000000
  70
    32
  0
VERTEX
  8
0
  5
80000276
 10
-55.3952
 20
-16.1926
 30
0.000000
  70
    32
  0
VERTEX
  8
0
  5
80000277
 10
-55.5673
 20
-16.2038
 30
0.000000
  70
    32
  0
VERTEX
  8
0
  5
80000278
 10
-55.7395
 20
-16.2144
 30
0.000000
  70
    32
  0
VERTEX
  8
0
  5
80000279
 10
-55.9118
 20
-16.2244
 30
0.000000
  70
    32
  0
VERTEX
  8
0
  5
8000027A
 10
-56.0841
 20
-16.2337
 30
0.000000
  70
    32
  0
VERTEX
  8
0
  5
8000027B
 10
-56.2564
 20
-16.2424
 30
0.000000
  70
    32
  0
VERTEX
  8
0
  5
8000027C
 10
-56.4288
 20
-16.2505
 30
0.000000
  70
    32
  0
VERTEX
  8
0
  5
8000027D
 10
-56.6012
 20
-16.2579
 30
0.000000
  70
    32
  0
VERTEX
  8
0
  5
8000027E
 10
-56.7737
 20
-16.2646
 30
0.000000
  70
    32
  0
VERTEX
  8
0
  5
8000027F
 10
-56.9462
 20
-16.2707
 30
0.000000
  70
    32
  0
VERTEX
  8
0
  5
80000280
 10
-57.1187
 20
-16.2760
 30
0.000000
  70
    32
  0
VERTEX
  8
0
  5
80000281
 10
-57.2914
 20
-16.2807
 30
0.000000
  70
    32
  0
VERTEX
  8
0
  5
80000282
 10
-57.4640
 20
-16.2847
 30
0.000000
  70
    32
  0
VERTEX
  8
0
  5
80000283
 10
-57.6367
 20
-16.2880
 30
0.000000
  70
    32
  0
VERTEX
  8
0
  5
80000284
 10
-57.8095
 20
-16.2906
 30
0.000000
  70
    32
  0
VERTEX
  8
0
  5
80000285
 10
-57.9823
 20
-16.2925
 30
0.000000
  70
    32
  0
VERTEX
  8
0
  5
80000286
 10
-58.1552
 20
-16.2936
 30
0.000000
  70
    32
  0
VERTEX
  8
0
  5
80000287
 10
-58.3281
 20
-16.2940
 30
0.000000
  70
    32
  0
SEQEND
  8
0
  5
80000288
  0
ENDBLK
  5
FFBBDAE469BC385A
  8
0
  0
BLOCK
  8
0
  2
*U34
 70
     1
 10
0.0
 20
0.0
 30
0.0
  3
*U34
  1

  0
TEXT
  5
FFBBDAE469BC385C
  8
0
  6
CONTINUOUS
 10
-105.53406670472491
 20
-14.96198350588025
 30
0.0
 40
4.0
  1
C - 25mm 'T' head
  7
ARIAL
  0
TEXT
  5
FFBBDAE469BC385D
  8
0
  6
CONTINUOUS
 10
-118.0197420116826
 20
-21.628650172546919
 30
0.0
 40
4.0
  1
stainless steel brad nail
  7
ARIAL
  0
ENDBLK
  5
FFBBDAE469BC385F
  8
0
  0
BLOCK
  8
0
  2
*U35
 70
     1
 10
0.0
 20
0.0
 30
0.0
  3
*U35
  1

  0
SOLID
  5
FFBBDAE469BC3861
  8
0
  6
CONTINUOUS
 10
-16.35806838502333
 20
-20.545036592864619
 30
0.0
 11
-13.376382662007931
 21
-18.440386919126471
 31
0.0
 12
-15.514307100404711
 22
-21.398304953099991
 32
0.0
 13
-15.514307100404711
 23
-21.398304953099991
 33
0.0
  0
POLYLINE
  8
0
  5
80000289
  66
     1
 10
0.000000
 20
0.000000
 30
0.000000
  70
     8
  0
VERTEX
  8
0
  5
8000028A
 10
-15.9362
 20
-20.9717
 30
0.000000
  70
    32
  0
VERTEX
  8
0
  5
8000028B
 10
-16.1703
 20
-21.2057
 30
0.000000
  70
    32
  0
VERTEX
  8
0
  5
8000028C
 10
-16.4029
 20
-21.4433
 30
0.000000
  70
    32
  0
VERTEX
  8
0
  5
8000028D
 10
-16.6341
 20
-21.6844
 30
0.000000
  70
    32
  0
VERTEX
  8
0
  5
8000028E
 10
-16.8639
 20
-21.9289
 30
0.000000
  70
    32
  0
VERTEX
  8
0
  5
8000028F
 10
-17.0923
 20
-22.1767
 30
0.000000
  70
    32
  0
VERTEX
  8
0
  5
80000290
 10
-17.3194
 20
-22.4277
 30
0.000000
  70
    32
  0
VERTEX
  8
0
  5
80000291
 10
-17.5452
 20
-22.6819
 30
0.000000
  70
    32
  0
VERTEX
  8
0
  5
80000292
 10
-17.7698
 20
-22.9391
 30
0.000000
  70
    32
  0
VERTEX
  8
0
  5
80000293
 10
-17.9932
 20
-23.1993
 30
0.000000
  70
    32
  0
VERTEX
  8
0
  5
80000294
 10
-18.2153
 20
-23.4623
 30
0.000000
  70
    32
  0
VERTEX
  8
0
  5
80000295
 10
-18.4363
 20
-23.7282
 30
0.000000
  70
    32
  0
VERTEX
  8
0
  5
80000296
 10
-18.6562
 20
-23.9967
 30
0.000000
  70
    32
  0
VERTEX
  8
0
  5
80000297
 10
-18.8751
 20
-24.2679
 30
0.000000
  70
    32
  0
VERTEX
  8
0
  5
80000298
 10
-19.0929
 20
-24.5416
 30
0.000000
  70
    32
  0
VERTEX
  8
0
  5
80000299
 10
-19.3096
 20
-24.8178
 30
0.000000
  70
    32
  0
VERTEX
  8
0
  5
8000029A
 10
-19.5254
 20
-25.0963
 30
0.000000
  70
    32
  0
VERTEX
  8
0
  5
8000029B
 10
-19.7403
 20
-25.3771
 30
0.000000
  70
    32
  0
VERTEX
  8
0
  5
8000029C
 10
-19.9543
 20
-25.6601
 30
0.000000
  70
    32
  0
VERTEX
  8
0
  5
8000029D
 10
-20.1674
 20
-25.9452
 30
0.000000
  70
    32
  0
VERTEX
  8
0
  5
8000029E
 10
-20.3797
 20
-26.2323
 30
0.000000
  70
    32
  0
VERTEX
  8
0
  5
8000029F
 10
-20.5912
 20
-26.5213
 30
0.000000
  70
    32
  0
VERTEX
  8
0
  5
800002A0
 10
-20.8019
 20
-26.8122
 30
0.000000
  70
    32
  0
VERTEX
  8
0
  5
800002A1
 10
-21.0119
 20
-27.1048
 30
0.000000
  70
    32
  0
VERTEX
  8
0
  5
800002A2
 10
-21.2212
 20
-27.3991
 30
0.000000
  70
    32
  0
VERTEX
  8
0
  5
800002A3
 10
-21.4299
 20
-27.6950
 30
0.000000
  70
    32
  0
VERTEX
  8
0
  5
800002A4
 10
-21.6380
 20
-27.9924
 30
0.000000
  70
    32
  0
VERTEX
  8
0
  5
800002A5
 10
-21.8454
 20
-28.2912
 30
0.000000
  70
    32
  0
VERTEX
  8
0
  5
800002A6
 10
-22.0524
 20
-28.5913
 30
0.000000
  70
    32
  0
VERTEX
  8
0
  5
800002A7
 10
-22.2588
 20
-28.8927
 30
0.000000
  70
    32
  0
VERTEX
  8
0
  5
800002A8
 10
-22.4648
 20
-29.1952
 30
0.000000
  70
    32
  0
VERTEX
  8
0
  5
800002A9
 10
-22.6703
 20
-29.4987
 30
0.000000
  70
    32
  0
VERTEX
  8
0
  5
800002AA
 10
-22.8754
 20
-29.8033
 30
0.000000
  70
    32
  0
VERTEX
  8
0
  5
800002AB
 10
-23.0801
 20
-30.1087
 30
0.000000
  70
    32
  0
VERTEX
  8
0
  5
800002AC
 10
-23.2845
 20
-30.4150
 30
0.000000
  70
    32
  0
VERTEX
  8
0
  5
800002AD
 10
-23.4887
 20
-30.7220
 30
0.000000
  70
    32
  0
VERTEX
  8
0
  5
800002AE
 10
-23.6925
 20
-31.0296
 30
0.000000
  70
    32
  0
VERTEX
  8
0
  5
800002AF
 10
-23.8961
 20
-31.3377
 30
0.000000
  70
    32
  0
VERTEX
  8
0
  5
800002B0
 10
-24.0996
 20
-31.6463
 30
0.000000
  70
    32
  0
VERTEX
  8
0
  5
800002B1
 10
-24.3029
 20
-31.9553
 30
0.000000
  70
    32
  0
VERTEX
  8
0
  5
800002B2
 10
-24.5060
 20
-32.2646
 30
0.000000
  70
    32
  0
VERTEX
  8
0
  5
800002B3
 10
-24.7091
 20
-32.5741
 30
0.000000
  70
    32
  0
VERTEX
  8
0
  5
800002B4
 10
-24.9122
 20
-32.8837
 30
0.000000
  70
    32
  0
VERTEX
  8
0
  5
800002B5
 10
-25.1152
 20
-33.1933
 30
0.000000
  70
    32
  0
VERTEX
  8
0
  5
800002B6
 10
-25.3183
 20
-33.5028
 30
0.000000
  70
    32
  0
VERTEX
  8
0
  5
800002B7
 10
-25.5214
 20
-33.8123
 30
0.000000
  70
    32
  0
VERTEX
  8
0
  5
800002B8
 10
-25.7246
 20
-34.1215
 30
0.000000
  70
    32
  0
VERTEX
  8
0
  5
800002B9
 10
-25.9279
 20
-34.4303
 30
0.000000
  70
    32
  0
VERTEX
  8
0
  5
800002BA
 10
-26.1314
 20
-34.7388
 30
0.000000
  70
    32
  0
VERTEX
  8
0
  5
800002BB
 10
-26.3351
 20
-35.0468
 30
0.000000
  70
    32
  0
VERTEX
  8
0
  5
800002BC
 10
-26.5391
 20
-35.3542
 30
0.000000
  70
    32
  0
VERTEX
  8
0
  5
800002BD
 10
-26.7433
 20
-35.6609
 30
0.000000
  70
    32
  0
VERTEX
  8
0
  5
800002BE
 10
-26.9478
 20
-35.9669
 30
0.000000
  70
    32
  0
VERTEX
  8
0
  5
800002BF
 10
-27.1526
 20
-36.2721
 30
0.000000
  70
    32
  0
VERTEX
  8
0
  5
800002C0
 10
-27.3579
 20
-36.5763
 30
0.000000
  70
    32
  0
VERTEX
  8
0
  5
800002C1
 10
-27.5635
 20
-36.8795
 30
0.000000
  70
    32
  0
VERTEX
  8
0
  5
800002C2
 10
-27.7697
 20
-37.1817
 30
0.000000
  70
    32
  0
VERTEX
  8
0
  5
800002C3
 10
-27.9762
 20
-37.4826
 30
0.000000
  70
    32
  0
VERTEX
  8
0
  5
800002C4
 10
-28.1834
 20
-37.7823
 30
0.000000
  70
    32
  0
VERTEX
  8
0
  5
800002C5
 10
-28.3910
 20
-38.0806
 30
0.000000
  70
    32
  0
VERTEX
  8
0
  5
800002C6
 10
-28.5993
 20
-38.3775
 30
0.000000
  70
    32
  0
VERTEX
  8
0
  5
800002C7
 10
-28.8082
 20
-38.6729
 30
0.000000
  70
    32
  0
VERTEX
  8
0
  5
800002C8
 10
-29.0177
 20
-38.9667
 30
0.000000
  70
    32
  0
VERTEX
  8
0
  5
800002C9
 10
-29.2280
 20
-39.2587
 30
0.000000
  70
    32
  0
VERTEX
  8
0
  5
800002CA
 10
-29.4389
 20
-39.5490
 30
0.000000
  70
    32
  0
VERTEX
  8
0
  5
800002CB
 10
-29.6507
 20
-39.8374
 30
0.000000
  70
    32
  0
VERTEX
  8
0
  5
800002CC
 10
-29.8632
 20
-40.1238
 30
0.000000
  70
    32
  0
VERTEX
  8
0
  5
800002CD
 10
-30.0766
 20
-40.4082
 30
0.000000
  70
    32
  0
VERTEX
  8
0
  5
800002CE
 10
-30.2909
 20
-40.6905
 30
0.000000
  70
    32
  0
VERTEX
  8
0
  5
800002CF
 10
-30.5061
 20
-40.9705
 30
0.000000
  70
    32
  0
VERTEX
  8
0
  5
800002D0
 10
-30.7222
 20
-41.2483
 30
0.000000
  70
    32
  0
VERTEX
  8
0
  5
800002D1
 10
-30.9393
 20
-41.5236
 30
0.000000
  70
    32
  0
VERTEX
  8
0
  5
800002D2
 10
-31.1575
 20
-41.7965
 30
0.000000
  70
    32
  0
VERTEX
  8
0
  5
800002D3
 10
-31.3766
 20
-42.0668
 30
0.000000
  70
    32
  0
VERTEX
  8
0
  5
800002D4
 10
-31.5969
 20
-42.3345
 30
0.000000
  70
    32
  0
VERTEX
  8
0
  5
800002D5
 10
-31.8183
 20
-42.5994
 30
0.000000
  70
    32
  0
VERTEX
  8
0
  5
800002D6
 10
-32.0409
 20
-42.8615
 30
0.000000
  70
    32
  0
VERTEX
  8
0
  5
800002D7
 10
-32.2646
 20
-43.1207
 30
0.000000
  70
    32
  0
VERTEX
  8
0
  5
800002D8
 10
-32.4896
 20
-43.3769
 30
0.000000
  70
    32
  0
VERTEX
  8
0
  5
800002D9
 10
-32.7158
 20
-43.6301
 30
0.000000
  70
    32
  0
VERTEX
  8
0
  5
800002DA
 10
-32.9434
 20
-43.8800
 30
0.000000
  70
    32
  0
VERTEX
  8
0
  5
800002DB
 10
-33.1723
 20
-44.1267
 30
0.000000
  70
    32
  0
VERTEX
  8
0
  5
800002DC
 10
-33.4025
 20
-44.3701
 30
0.000000
  70
    32
  0
VERTEX
  8
0
  5
800002DD
 10
-33.6342
 20
-44.6100
 30
0.000000
  70
    32
  0
VERTEX
  8
0
  5
800002DE
 10
-33.8673
 20
-44.8464
 30
0.000000
  70
    32
  0
VERTEX
  8
0
  5
800002DF
 10
-34.1019
 20
-45.0793
 30
0.000000
  70
    32
  0
VERTEX
  8
0
  5
800002E0
 10
-34.3380
 20
-45.3084
 30
0.000000
  70
    32
  0
VERTEX
  8
0
  5
800002E1
 10
-34.5756
 20
-45.5338
 30
0.000000
  70
    32
  0
VERTEX
  8
0
  5
800002E2
 10
-34.8149
 20
-45.7553
 30
0.000000
  70
    32
  0
VERTEX
  8
0
  5
800002E3
 10
-35.0557
 20
-45.9728
 30
0.000000
  70
    32
  0
VERTEX
  8
0
  5
800002E4
 10
-35.2982
 20
-46.1864
 30
0.000000
  70
    32
  0
VERTEX
  8
0
  5
800002E5
 10
-35.5424
 20
-46.3958
 30
0.000000
  70
    32
  0
VERTEX
  8
0
  5
800002E6
 10
-35.7884
 20
-46.6010
 30
0.000000
  70
    32
  0
VERTEX
  8
0
  5
800002E7
 10
-36.0361
 20
-46.8019
 30
0.000000
  70
    32
  0
VERTEX
  8
0
  5
800002E8
 10
-36.2856
 20
-46.9985
 30
0.000000
  70
    32
  0
VERTEX
  8
0
  5
800002E9
 10
-36.5369
 20
-47.1905
 30
0.000000
  70
    32
  0
VERTEX
  8
0
  5
800002EA
 10
-36.7901
 20
-47.3781
 30
0.000000
  70
    32
  0
VERTEX
  8
0
  5
800002EB
 10
-37.0452
 20
-47.5610
 30
0.000000
  70
    32
  0
VERTEX
  8
0
  5
800002EC
 10
-37.3023
 20
-47.7391
 30
0.000000
  70
    32
  0
VERTEX
  8
0
  5
800002ED
 10
-37.5613
 20
-47.9125
 30
0.000000
  70
    32
  0
VERTEX
  8
0
  5
800002EE
 10
-37.8223
 20
-48.0810
 30
0.000000
  70
    32
  0
VERTEX
  8
0
  5
800002EF
 10
-38.0854
 20
-48.2444
 30
0.000000
  70
    32
  0
VERTEX
  8
0
  5
800002F0
 10
-38.3506
 20
-48.4029
 30
0.000000
  70
    32
  0
VERTEX
  8
0
  5
800002F1
 10
-38.6178
 20
-48.5561
 30
0.000000
  70
    32
  0
VERTEX
  8
0
  5
800002F2
 10
-38.8873
 20
-48.7041
 30
0.000000
  70
    32
  0
VERTEX
  8
0
  5
800002F3
 10
-39.1589
 20
-48.8468
 30
0.000000
  70
    32
  0
VERTEX
  8
0
  5
800002F4
 10
-39.4328
 20
-48.9841
 30
0.000000
  70
    32
  0
VERTEX
  8
0
  5
800002F5
 10
-39.7089
 20
-49.1159
 30
0.000000
  70
    32
  0
VERTEX
  8
0
  5
800002F6
 10
-39.9873
 20
-49.2421
 30
0.000000
  70
    32
  0
VERTEX
  8
0
  5
800002F7
 10
-40.2680
 20
-49.3626
 30
0.000000
  70
    32
  0
VERTEX
  8
0
  5
800002F8
 10
-40.5511
 20
-49.4774
 30
0.000000
  70
    32
  0
VERTEX
  8
0
  5
800002F9
 10
-40.8366
 20
-49.5863
 30
0.000000
  70
    32
  0
VERTEX
  8
0
  5
800002FA
 10
-41.1246
 20
-49.6893
 30
0.000000
  70
    32
  0
VERTEX
  8
0
  5
800002FB
 10
-41.4150
 20
-49.7863
 30
0.000000
  70
    32
  0
VERTEX
  8
0
  5
800002FC
 10
-41.7079
 20
-49.8771
 30
0.000000
  70
    32
  0
VERTEX
  8
0
  5
800002FD
 10
-42.0034
 20
-49.9618
 30
0.000000
  70
    32
  0
VERTEX
  8
0
  5
800002FE
 10
-42.3014
 20
-50.0402
 30
0.000000
  70
    32
  0
VERTEX
  8
0
  5
800002FF
 10
-42.6021
 20
-50.1122
 30
0.000000
  70
    32
  0
VERTEX
  8
0
  5
80000300
 10
-42.9054
 20
-50.1778
 30
0.000000
  70
    32
  0
VERTEX
  8
0
  5
80000301
 10
-43.2114
 20
-50.2368
 30
0.000000
  70
    32
  0
VERTEX
  8
0
  5
80000302
 10
-43.5201
 20
-50.2893
 30
0.000000
  70
    32
  0
VERTEX
  8
0
  5
80000303
 10
-43.8316
 20
-50.3350
 30
0.000000
  70
    32
  0
VERTEX
  8
0
  5
80000304
 10
-44.1459
 20
-50.3739
 30
0.000000
  70
    32
  0
VERTEX
  8
0
  5
80000305
 10
-44.4630
 20
-50.4059
 30
0.000000
  70
    32
  0
VERTEX
  8
0
  5
80000306
 10
-44.7829
 20
-50.4310
 30
0.000000
  70
    32
  0
VERTEX
  8
0
  5
80000307
 10
-45.1058
 20
-50.4490
 30
0.000000
  70
    32
  0
VERTEX
  8
0
  5
80000308
 10
-45.4316
 20
-50.4599
 30
0.000000
  70
    32
  0
VERTEX
  8
0
  5
80000309
 10
-45.7603
 20
-50.4635
 30
0.000000
  70
    32
  0
SEQEND
  8
0
  5
8000030A
  0
ENDBLK
  5
FFBBDAE469BC3864
  8
0
  0
BLOCK
  8
0
  2
*U36
 70
     1
 10
0.0
 20
0.0
 30
0.0
  3
*U36
  1

  0
TEXT
  5
FFBBDAE469BC3866
  8
0
  6
CONTINUOUS
 10
-103.89949250980619
 20
-32.097519826749341
 30
0.0
 40
4.0
  1
150mm long horizontal
  7
ARIAL
  0
TEXT
  5
FFBBDAE469BC3867
  8
0
  6
CONTINUOUS
 10
-103.96635751537239
 20
-38.938415352297319
 30
0.0
 40
4.0
  1
CLD
  7
ARIAL
  0
TEXT
  5
FFBBDAE469BC3868
  8
0
  6
CONTINUOUS
 10
-92.793845373489773
 20
-36.433015352297318
 30
0.0
 40
3.0323999999999991
  1
®
  7
ARIAL
  0
TEXT
  5
FFBBDAE469BC3869
  8
0
  6
CONTINUOUS
 10
-92.787639916463846
 20
-37.443815352297321
 30
0.0
 40
3.0323999999999991
  1

  7
ARIAL
  0
TEXT
  5
FFBBDAE469BC386A
  8
0
  6
CONTINUOUS
 10
-89.463583436245585
 20
-39.104458672297319
 30
0.0
 40
4.3320866399999991
  1
 
  7
ARIAL
  0
TEXT
  5
FFBBDAE469BC386B
  8
0
  6
CONTINUOUS
 10
-87.782166452507511
 20
-38.938415352297319
 30
0.0
 40
4.0
  1
packers optional
  7
ARIAL
  0
TEXT
  5
FFBBDAE469BC386C
  8
0
  6
CONTINUOUS
 10
-107.8067230691514
 20
-45.881820885630653
 30
0.0
 40
4.0
  1
between vertical battens
  7
ARIAL
  0
TEXT
  5
FFBBDAE469BC386D
  8
0
  6
CONTINUOUS
 10
-116.48612279630009
 20
-52.582593964302767
 30
0.0
 40
4.0
  1
when battens are fixed over
  7
ARIAL
  0
TEXT
  5
FFBBDAE469BC386E
  8
0
  6
CONTINUOUS
 10
-102.8708431237217
 20
-59.291552581856209
 30
0.0
 40
4.0
  1
studs at 600mm apart.
  7
ARIAL
  0
TEXT
  5
FFBBDAE469BC386F
  8
0
  6
CONTINUOUS
 10
-117.5584283897517
 20
-66.00051119940963
 30
0.0
 40
4.0
  1
Packers must be set to a fall
  7
ARIAL
  0
TEXT
  5
FFBBDAE469BC3870
  8
0
  6
CONTINUOUS
 10
-69.487487052780352
 20
-72.735390690087215
 30
0.0
 40
4.0
  1
of 5° min
  7
ARIAL
  0
ENDBLK
  5
FFBBDAE469BC3872
  8
0
  0
BLOCK
  8
0
  2
*U37
 70
     1
 10
0.0
 20
0.0
 30
0.0
  3
*U37
  1

  0
SOLID
  5
FFBBDAE469BC3874
  8
0
  6
CONTINUOUS
 10
-31.209517678495889
 20
-53.77075267286893
 30
0.0
 11
-34.009479789019693
 21
-51.429767371840512
 31
0.0
 12
-30.601628505758232
 22
-52.736117107238051
 32
0.0
 13
-30.601628505758232
 23
-52.736117107238051
 33
0.0
  0
POLYLINE
  8
0
  5
8000030B
  66
     1
 10
0.000000
 20
0.000000
 30
0.000000
  70
     8
  0
VERTEX
  8
0
  5
8000030C
 10
-30.9056
 20
-53.2534
 30
0.000000
  70
    32
  0
VERTEX
  8
0
  5
8000030D
 10
-30.5056
 20
-53.4905
 30
0.000000
  70
    32
  0
VERTEX
  8
0
  5
8000030E
 10
-30.1067
 20
-53.7313
 30
0.000000
  70
    32
  0
VERTEX
  8
0
  5
8000030F
 10
-29.7087
 20
-53.9755
 30
0.000000
  70
    32
  0
VERTEX
  8
0
  5
80000310
 10
-29.3116
 20
-54.2232
 30
0.000000
  70
    32
  0
VERTEX
  8
0
  5
80000311
 10
-28.9155
 20
-54.4743
 30
0.000000
  70
    32
  0
VERTEX
  8
0
  5
80000312
 10
-28.5202
 20
-54.7286
 30
0.000000
  70
    32
  0
VERTEX
  8
0
  5
80000313
 10
-28.1258
 20
-54.9861
 30
0.000000
  70
    32
  0
VERTEX
  8
0
  5
80000314
 10
-27.7323
 20
-55.2467
 30
0.000000
  70
    32
  0
VERTEX
  8
0
  5
80000315
 10
-27.3395
 20
-55.5103
 30
0.000000
  70
    32
  0
VERTEX
  8
0
  5
80000316
 10
-26.9476
 20
-55.7769
 30
0.000000
  70
    32
  0
VERTEX
  8
0
  5
80000317
 10
-26.5564
 20
-56.0462
 30
0.000000
  70
    32
  0
VERTEX
  8
0
  5
80000318
 10
-26.1660
 20
-56.3183
 30
0.000000
  70
    32
  0
VERTEX
  8
0
  5
80000319
 10
-25.7763
 20
-56.5930
 30
0.000000
  70
    32
  0
VERTEX
  8
0
  5
8000031A
 10
-25.3873
 20
-56.8704
 30
0.000000
  70
    32
  0
VERTEX
  8
0
  5
8000031B
 10
-24.9990
 20
-57.1502
 30
0.000000
  70
    32
  0
VERTEX
  8
0
  5
8000031C
 10
-24.6113
 20
-57.4323
 30
0.000000
  70
    32
  0
VERTEX
  8
0
  5
8000031D
 10
-24.2242
 20
-57.7168
 30
0.000000
  70
    32
  0
VERTEX
  8
0
  5
8000031E
 10
-23.8378
 20
-58.0035
 30
0.000000
  70
    32
  0
VERTEX
  8
0
  5
8000031F
 10
-23.4519
 20
-58.2924
 30
0.000000
  70
    32
  0
VERTEX
  8
0
  5
80000320
 10
-23.0666
 20
-58.5833
 30
0.000000
  70
    32
  0
VERTEX
  8
0
  5
80000321
 10
-22.6818
 20
-58.8761
 30
0.000000
  70
    32
  0
VERTEX
  8
0
  5
80000322
 10
-22.2975
 20
-59.1708
 30
0.000000
  70
    32
  0
VERTEX
  8
0
  5
80000323
 10
-21.9137
 20
-59.4673
 30
0.000000
  70
    32
  0
VERTEX
  8
0
  5
80000324
 10
-21.5304
 20
-59.7655
 30
0.000000
  70
    32
  0
VERTEX
  8
0
  5
80000325
 10
-21.1475
 20
-60.0652
 30
0.000000
  70
    32
  0
VERTEX
  8
0
  5
80000326
 10
-20.7650
 20
-60.3665
 30
0.000000
  70
    32
  0
VERTEX
  8
0
  5
80000327
 10
-20.3829
 20
-60.6693
 30
0.000000
  70
    32
  0
VERTEX
  8
0
  5
80000328
 10
-20.0012
 20
-60.9733
 30
0.000000
  70
    32
  0
VERTEX
  8
0
  5
80000329
 10
-19.6198
 20
-61.2786
 30
0.000000
  70
    32
  0
VERTEX
  8
0
  5
8000032A
 10
-19.2388
 20
-61.5851
 30
0.000000
  70
    32
  0
VERTEX
  8
0
  5
8000032B
 10
-18.8580
 20
-61.8927
 30
0.000000
  70
    32
  0
VERTEX
  8
0
  5
8000032C
 10
-18.4775
 20
-62.2013
 30
0.000000
  70
    32
  0
VERTEX
  8
0
  5
8000032D
 10
-18.0972
 20
-62.5107
 30
0.000000
  70
    32
  0
VERTEX
  8
0
  5
8000032E
 10
-17.7172
 20
-62.8210
 30
0.000000
  70
    32
  0
VERTEX
  8
0
  5
8000032F
 10
-17.3373
 20
-63.1320
 30
0.000000
  70
    32
  0
VERTEX
  8
0
  5
80000330
 10
-16.9577
 20
-63.4437
 30
0.000000
  70
    32
  0
VERTEX
  8
0
  5
80000331
 10
-16.5782
 20
-63.7559
 30
0.000000
  70
    32
  0
VERTEX
  8
0
  5
80000332
 10
-16.1988
 20
-64.0686
 30
0.000000
  70
    32
  0
VERTEX
  8
0
  5
80000333
 10
-15.8195
 20
-64.3816
 30
0.000000
  70
    32
  0
VERTEX
  8
0
  5
80000334
 10
-15.4403
 20
-64.6950
 30
0.000000
  70
    32
  0
VERTEX
  8
0
  5
80000335
 10
-15.0611
 20
-65.0085
 30
0.000000
  70
    32
  0
VERTEX
  8
0
  5
80000336
 10
-14.6820
 20
-65.3222
 30
0.000000
  70
    32
  0
VERTEX
  8
0
  5
80000337
 10
-14.3029
 20
-65.6359
 30
0.000000
  70
    32
  0
VERTEX
  8
0
  5
80000338
 10
-13.9238
 20
-65.9495
 30
0.000000
  70
    32
  0
VERTEX
  8
0
  5
80000339
 10
-13.5446
 20
-66.2630
 30
0.000000
  70
    32
  0
VERTEX
  8
0
  5
8000033A
 10
-13.1654
 20
-66.5763
 30
0.000000
  70
    32
  0
VERTEX
  8
0
  5
8000033B
 10
-12.7861
 20
-66.8892
 30
0.000000
  70
    32
  0
VERTEX
  8
0
  5
8000033C
 10
-12.4067
 20
-67.2017
 30
0.000000
  70
    32
  0
VERTEX
  8
0
  5
8000033D
 10
-12.0271
 20
-67.5137
 30
0.000000
  70
    32
  0
VERTEX
  8
0
  5
8000033E
 10
-11.6474
 20
-67.8252
 30
0.000000
  70
    32
  0
VERTEX
  8
0
  5
8000033F
 10
-11.2675
 20
-68.1360
 30
0.000000
  70
    32
  0
VERTEX
  8
0
  5
80000340
 10
-10.8874
 20
-68.4460
 30
0.000000
  70
    32
  0
VERTEX
  8
0
  5
80000341
 10
-10.5070
 20
-68.7552
 30
0.000000
  70
    32
  0
VERTEX
  8
0
  5
80000342
 10
-10.1264
 20
-69.0634
 30
0.000000
  70
    32
  0
VERTEX
  8
0
  5
80000343
 10
-9.74556
 20
-69.3706
 30
0.000000
  70
    32
  0
VERTEX
  8
0
  5
80000344
 10
-9.36439
 20
-69.6767
 30
0.000000
  70
    32
  0
VERTEX
  8
0
  5
80000345
 10
-8.98289
 20
-69.9817
 30
0.000000
  70
    32
  0
VERTEX
  8
0
  5
80000346
 10
-8.60105
 20
-70.2853
 30
0.000000
  70
    32
  0
VERTEX
  8
0
  5
80000347
 10
-8.21883
 20
-70.5875
 30
0.000000
  70
    32
  0
VERTEX
  8
0
  5
80000348
 10
-7.83621
 20
-70.8883
 30
0.000000
  70
    32
  0
VERTEX
  8
0
  5
80000349
 10
-7.45317
 20
-71.1876
 30
0.000000
  70
    32
  0
VERTEX
  8
0
  5
8000034A
 10
-7.06969
 20
-71.4852
 30
0.000000
  70
    32
  0
VERTEX
  8
0
  5
8000034B
 10
-6.68574
 20
-71.7811
 30
0.000000
  70
    32
  0
VERTEX
  8
0
  5
8000034C
 10
-6.30130
 20
-72.0752
 30
0.000000
  70
    32
  0
VERTEX
  8
0
  5
8000034D
 10
-5.91634
 20
-72.3674
 30
0.000000
  70
    32
  0
VERTEX
  8
0
  5
8000034E
 10
-5.53085
 20
-72.6576
 30
0.000000
  70
    32
  0
VERTEX
  8
0
  5
8000034F
 10
-5.14479
 20
-72.9457
 30
0.000000
  70
    32
  0
VERTEX
  8
0
  5
80000350
 10
-4.75814
 20
-73.2317
 30
0.000000
  70
    32
  0
VERTEX
  8
0
  5
80000351
 10
-4.37088
 20
-73.5155
 30
0.000000
  70
    32
  0
VERTEX
  8
0
  5
80000352
 10
-3.98298
 20
-73.7969
 30
0.000000
  70
    32
  0
VERTEX
  8
0
  5
80000353
 10
-3.59443
 20
-74.0758
 30
0.000000
  70
    32
  0
VERTEX
  8
0
  5
80000354
 10
-3.20520
 20
-74.3523
 30
0.000000
  70
    32
  0
VERTEX
  8
0
  5
80000355
 10
-2.81526
 20
-74.6262
 30
0.000000
  70
    32
  0
VERTEX
  8
0
  5
80000356
 10
-2.42458
 20
-74.8974
 30
0.000000
  70
    32
  0
VERTEX
  8
0
  5
80000357
 10
-2.03316
 20
-75.1658
 30
0.000000
  70
    32
  0
VERTEX
  8
0
  5
80000358
 10
-1.64095
 20
-75.4313
 30
0.000000
  70
    32
  0
VERTEX
  8
0
  5
80000359
 10
-1.24795
 20
-75.6940
 30
0.000000
  70
    32
  0
VERTEX
  8
0
  5
8000035A
 10
-0.854119
 20
-75.9535
 30
0.000000
  70
    32
  0
VERTEX
  8
0
  5
8000035B
 10
-0.459440
 20
-76.2100
 30
0.000000
  70
    32
  0
VERTEX
  8
0
  5
8000035C
 10
-0.0638870
 20
-76.4632
 30
0.000000
  70
    32
  0
VERTEX
  8
0
  5
8000035D
 10
0.332562
 20
-76.7132
 30
0.000000
  70
    32
  0
VERTEX
  8
0
  5
8000035E
 10
0.729932
 20
-76.9597
 30
0.000000
  70
    32
  0
VERTEX
  8
0
  5
8000035F
 10
1.12825
 20
-77.2028
 30
0.000000
  70
    32
  0
VERTEX
  8
0
  5
80000360
 10
1.52753
 20
-77.4424
 30
0.000000
  70
    32
  0
VERTEX
  8
0
  5
80000361
 10
1.92780
 20
-77.6783
 30
0.000000
  70
    32
  0
VERTEX
  8
0
  5
80000362
 10
2.32909
 20
-77.9104
 30
0.000000
  70
    32
  0
VERTEX
  8
0
  5
80000363
 10
2.73142
 20
-78.1387
 30
0.000000
  70
    32
  0
VERTEX
  8
0
  5
80000364
 10
3.13482
 20
-78.3632
 30
0.000000
  70
    32
  0
VERTEX
  8
0
  5
80000365
 10
3.53930
 20
-78.5836
 30
0.000000
  70
    32
  0
VERTEX
  8
0
  5
80000366
 10
3.94489
 20
-78.7999
 30
0.000000
  70
    32
  0
VERTEX
  8
0
  5
80000367
 10
4.35162
 20
-79.0121
 30
0.000000
  70
    32
  0
VERTEX
  8
0
  5
80000368
 10
4.75950
 20
-79.2200
 30
0.000000
  70
    32
  0
VERTEX
  8
0
  5
80000369
 10
5.16857
 20
-79.4236
 30
0.000000
  70
    32
  0
VERTEX
  8
0
  5
8000036A
 10
5.57884
 20
-79.6227
 30
0.000000
  70
    32
  0
VERTEX
  8
0
  5
8000036B
 10
5.99035
 20
-79.8173
 30
0.000000
  70
    32
  0
VERTEX
  8
0
  5
8000036C
 10
6.40311
 20
-80.0073
 30
0.000000
  70
    32
  0
VERTEX
  8
0
  5
8000036D
 10
6.81714
 20
-80.1926
 30
0.000000
  70
    32
  0
VERTEX
  8
0
  5
8000036E
 10
7.23248
 20
-80.3731
 30
0.000000
  70
    32
  0
VERTEX
  8
0
  5
8000036F
 10
7.64914
 20
-80.5488
 30
0.000000
  70
    32
  0
VERTEX
  8
0
  5
80000370
 10
8.06716
 20
-80.7194
 30
0.000000
  70
    32
  0
VERTEX
  8
0
  5
80000371
 10
8.48654
 20
-80.8851
 30
0.000000
  70
    32
  0
VERTEX
  8
0
  5
80000372
 10
8.90732
 20
-81.0456
 30
0.000000
  70
    32
  0
VERTEX
  8
0
  5
80000373
 10
9.32953
 20
-81.2009
 30
0.000000
  70
    32
  0
VERTEX
  8
0
  5
80000374
 10
9.75317
 20
-81.3508
 30
0.000000
  70
    32
  0
VERTEX
  8
0
  5
80000375
 10
10.1783
 20
-81.4954
 30
0.000000
  70
    32
  0
VERTEX
  8
0
  5
80000376
 10
10.6049
 20
-81.6345
 30
0.000000
  70
    32
  0
VERTEX
  8
0
  5
80000377
 10
11.0330
 20
-81.7680
 30
0.000000
  70
    32
  0
VERTEX
  8
0
  5
80000378
 10
11.4627
 20
-81.8959
 30
0.000000
  70
    32
  0
VERTEX
  8
0
  5
80000379
 10
11.8939
 20
-82.0180
 30
0.000000
  70
    32
  0
VERTEX
  8
0
  5
8000037A
 10
12.3267
 20
-82.1342
 30
0.000000
  70
    32
  0
VERTEX
  8
0
  5
8000037B
 10
12.7611
 20
-82.2446
 30
0.000000
  70
    32
  0
VERTEX
  8
0
  5
8000037C
 10
13.1972
 20
-82.3489
 30
0.000000
  70
    32
  0
VERTEX
  8
0
  5
8000037D
 10
13.6349
 20
-82.4472
 30
0.000000
  70
    32
  0
VERTEX
  8
0
  5
8000037E
 10
14.0743
 20
-82.5392
 30
0.000000
  70
    32
  0
VERTEX
  8
0
  5
8000037F
 10
14.5154
 20
-82.6250
 30
0.000000
  70
    32
  0
VERTEX
  8
0
  5
80000380
 10
14.9583
 20
-82.7045
 30
0.000000
  70
    32
  0
VERTEX
  8
0
  5
80000381
 10
15.4029
 20
-82.7774
 30
0.000000
  70
    32
  0
VERTEX
  8
0
  5
80000382
 10
15.8492
 20
-82.8439
 30
0.000000
  70
    32
  0
VERTEX
  8
0
  5
80000383
 10
16.2974
 20
-82.9037
 30
0.000000
  70
    32
  0
VERTEX
  8
0
  5
80000384
 10
16.7474
 20
-82.9568
 30
0.000000
  70
    32
  0
VERTEX
  8
0
  5
80000385
 10
17.1992
 20
-83.0031
 30
0.000000
  70
    32
  0
VERTEX
  8
0
  5
80000386
 10
17.6530
 20
-83.0426
 30
0.000000
  70
    32
  0
VERTEX
  8
0
  5
80000387
 10
18.1086
 20
-83.0750
 30
0.000000
  70
    32
  0
VERTEX
  8
0
  5
80000388
 10
18.5661
 20
-83.1004
 30
0.000000
  70
    32
  0
VERTEX
  8
0
  5
80000389
 10
19.0256
 20
-83.1187
 30
0.000000
  70
    32
  0
VERTEX
  8
0
  5
8000038A
 10
19.4870
 20
-83.1297
 30
0.000000
  70
    32
  0
VERTEX
  8
0
  5
8000038B
 10
19.9505
 20
-83.1334
 30
0.000000
  70
    32
  0
SEQEND
  8
0
  5
8000038C
  0
ENDBLK
  5
FFBBDAE469BC3877
  8
0
  0
BLOCK
  8
0
  2
*U38
 70
     1
 10
0.0
 20
0.0
 30
0.0
  3
*U38
  1

  0
TEXT
  5
FFBBDAE469BC3879
  8
0
  6
CONTINUOUS
 10
21.699442609452081
 20
-84.579473990370857
 30
0.0
 40
4.0
  1
Selected coating
  7
ARIAL
  0
ENDBLK
  5
FFBBDAE469BC387B
  8
0
  0
BLOCK
  8
0
  2
*U39
 70
     1
 10
0.0
 20
0.0
 30
0.0
  3
*U39
  1

  0
SOLID
  5
FFBBDAE469BC387D
  8
0
  6
CONTINUOUS
 10
7.6957379791684097
 20
-27.40755331528818
 30
0.0
 11
7.3061798039834676
 21
-23.77874573866654
 31
0.0
 12
8.8515913459005642
 22
-27.085058362437842
 32
0.0
 13
8.8515913459005642
 23
-27.085058362437842
 33
0.0
  0
POLYLINE
  8
0
  5
8000038D
  66
     1
 10
0.000000
 20
0.000000
 30
0.000000
  70
     8
  0
VERTEX
  8
0
  5
8000038E
 10
8.27366
 20
-27.2463
 30
0.000000
  70
    32
  0
VERTEX
  8
0
  5
8000038F
 10
8.36365
 20
-27.5784
 30
0.000000
  70
    32
  0
VERTEX
  8
0
  5
80000390
 10
8.44980
 20
-27.9156
 30
0.000000
  70
    32
  0
VERTEX
  8
0
  5
80000391
 10
8.53218
 20
-28.2577
 30
0.000000
  70
    32
  0
VERTEX
  8
0
  5
80000392
 10
8.61091
 20
-28.6046
 30
0.000000
  70
    32
  0
VERTEX
  8
0
  5
80000393
 10
8.68607
 20
-28.9563
 30
0.000000
  70
    32
  0
VERTEX
  8
0
  5
80000394
 10
8.75776
 20
-29.3125
 30
0.000000
  70
    32
  0
VERTEX
  8
0
  5
80000395
 10
8.82606
 20
-29.6732
 30
0.000000
  70
    32
  0
VERTEX
  8
0
  5
80000396
 10
8.89108
 20
-30.0382
 30
0.000000
  70
    32
  0
VERTEX
  8
0
  5
80000397
 10
8.95290
 20
-30.4074
 30
0.000000
  70
    32
  0
VERTEX
  8
0
  5
80000398
 10
9.01162
 20
-30.7807
 30
0.000000
  70
    32
  0
VERTEX
  8
0
  5
80000399
 10
9.06733
 20
-31.1579
 30
0.000000
  70
    32
  0
VERTEX
  8
0
  5
8000039A
 10
9.12012
 20
-31.5391
 30
0.000000
  70
    32
  0
VERTEX
  8
0
  5
8000039B
 10
9.17009
 20
-31.9239
 30
0.000000
  70
    32
  0
VERTEX
  8
0
  5
8000039C
 10
9.21733
 20
-32.3123
 30
0.000000
  70
    32
  0
VERTEX
  8
0
  5
8000039D
 10
9.26194
 20
-32.7042
 30
0.000000
  70
    32
  0
VERTEX
  8
0
  5
8000039E
 10
9.30400
 20
-33.0994
 30
0.000000
  70
    32
  0
VERTEX
  8
0
  5
8000039F
 10
9.34361
 20
-33.4979
 30
0.000000
  70
    32
  0
VERTEX
  8
0
  5
800003A0
 10
9.38086
 20
-33.8995
 30
0.000000
  70
    32
  0
VERTEX
  8
0
  5
800003A1
 10
9.41585
 20
-34.3040
 30
0.000000
  70
    32
  0
VERTEX
  8
0
  5
800003A2
 10
9.44866
 20
-34.7114
 30
0.000000
  70
    32
  0
VERTEX
  8
0
  5
800003A3
 10
9.47940
 20
-35.1216
 30
0.000000
  70
    32
  0
VERTEX
  8
0
  5
800003A4
 10
9.50815
 20
-35.5344
 30
0.000000
  70
    32
  0
VERTEX
  8
0
  5
800003A5
 10
9.53501
 20
-35.9496
 30
0.000000
  70
    32
  0
VERTEX
  8
0
  5
800003A6
 10
9.56007
 20
-36.3673
 30
0.000000
  70
    32
  0
VERTEX
  8
0
  5
800003A7
 10
9.58342
 20
-36.7871
 30
0.000000
  70
    32
  0
VERTEX
  8
0
  5
800003A8
 10
9.60516
 20
-37.2091
 30
0.000000
  70
    32
  0
VERTEX
  8
0
  5
800003A9
 10
9.62538
 20
-37.6331
 30
0.000000
  70
    32
  0
VERTEX
  8
0
  5
800003AA
 10
9.64418
 20
-38.0590
 30
0.000000
  70
    32
  0
VERTEX
  8
0
  5
800003AB
 10
9.66164
 20
-38.4867
 30
0.000000
  70
    32
  0
VERTEX
  8
0
  5
800003AC
 10
9.67786
 20
-38.9160
 30
0.000000
  70
    32
  0
VERTEX
  8
0
  5
800003AD
 10
9.69293
 20
-39.3467
 30
0.000000
  70
    32
  0
VERTEX
  8
0
  5
800003AE
 10
9.70694
 20
-39.7789
 30
0.000000
  70
    32
  0
VERTEX
  8
0
  5
800003AF
 10
9.72000
 20
-40.2124
 30
0.000000
  70
    32
  0
VERTEX
  8
0
  5
800003B0
 10
9.73218
 20
-40.6470
 30
0.000000
  70
    32
  0
VERTEX
  8
0
  5
800003B1
 10
9.74359
 20
-41.0826
 30
0.000000
  70
    32
  0
VERTEX
  8
0
  5
800003B2
 10
9.75432
 20
-41.5191
 30
0.000000
  70
    32
  0
VERTEX
  8
0
  5
800003B3
 10
9.76446
 20
-41.9564
 30
0.000000
  70
    32
  0
VERTEX
  8
0
  5
800003B4
 10
9.77410
 20
-42.3943
 30
0.000000
  70
    32
  0
VERTEX
  8
0
  5
800003B5
 10
9.78334
 20
-42.8328
 30
0.000000
  70
    32
  0
VERTEX
  8
0
  5
800003B6
 10
9.79227
 20
-43.2717
 30
0.000000
  70
    32
  0
VERTEX
  8
0
  5
800003B7
 10
9.80098
 20
-43.7108
 30
0.000000
  70
    32
  0
VERTEX
  8
0
  5
800003B8
 10
9.80957
 20
-44.1502
 30
0.000000
  70
    32
  0
VERTEX
  8
0
  5
800003B9
 10
9.81812
 20
-44.5895
 30
0.000000
  70
    32
  0
VERTEX
  8
0
  5
800003BA
 10
9.82674
 20
-45.0288
 30
0.000000
  70
    32
  0
VERTEX
  8
0
  5
800003BB
 10
9.83551
 20
-45.4679
 30
0.000000
  70
    32
  0
VERTEX
  8
0
  5
800003BC
 10
9.84454
 20
-45.9067
 30
0.000000
  70
    32
  0
VERTEX
  8
0
  5
800003BD
 10
9.85390
 20
-46.3450
 30
0.000000
  70
    32
  0
VERTEX
  8
0
  5
800003BE
 10
9.86370
 20
-46.7827
 30
0.000000
  70
    32
  0
VERTEX
  8
0
  5
800003BF
 10
9.87402
 20
-47.2198
 30
0.000000
  70
    32
  0
VERTEX
  8
0
  5
800003C0
 10
9.88497
 20
-47.6560
 30
0.000000
  70
    32
  0
VERTEX
  8
0
  5
800003C1
 10
9.89662
 20
-48.0913
 30
0.000000
  70
    32
  0
VERTEX
  8
0
  5
800003C2
 10
9.90909
 20
-48.5255
 30
0.000000
  70
    32
  0
VERTEX
  8
0
  5
800003C3
 10
9.92245
 20
-48.9585
 30
0.000000
  70
    32
  0
VERTEX
  8
0
  5
800003C4
 10
9.93681
 20
-49.3903
 30
0.000000
  70
    32
  0
VERTEX
  8
0
  5
800003C5
 10
9.95225
 20
-49.8206
 30
0.000000
  70
    32
  0
VERTEX
  8
0
  5
800003C6
 10
9.96888
 20
-50.2493
 30
0.000000
  70
    32
  0
VERTEX
  8
0
  5
800003C7
 10
9.98677
 20
-50.6764
 30
0.000000
  70
    32
  0
VERTEX
  8
0
  5
800003C8
 10
10.0060
 20
-51.1017
 30
0.000000
  70
    32
  0
VERTEX
  8
0
  5
800003C9
 10
10.0267
 20
-51.5250
 30
0.000000
  70
    32
  0
VERTEX
  8
0
  5
800003CA
 10
10.0490
 20
-51.9463
 30
0.000000
  70
    32
  0
VERTEX
  8
0
  5
800003CB
 10
10.0729
 20
-52.3655
 30
0.000000
  70
    32
  0
VERTEX
  8
0
  5
800003CC
 10
10.0986
 20
-52.7823
 30
0.000000
  70
    32
  0
VERTEX
  8
0
  5
800003CD
 10
10.1261
 20
-53.1968
 30
0.000000
  70
    32
  0
VERTEX
  8
0
  5
800003CE
 10
10.1555
 20
-53.6087
 30
0.000000
  70
    32
  0
VERTEX
  8
0
  5
800003CF
 10
10.1869
 20
-54.0179
 30
0.000000
  70
    32
  0
VERTEX
  8
0
  5
800003D0
 10
10.2204
 20
-54.4244
 30
0.000000
  70
    32
  0
VERTEX
  8
0
  5
800003D1
 10
10.2561
 20
-54.8280
 30
0.000000
  70
    32
  0
VERTEX
  8
0
  5
800003D2
 10
10.2942
 20
-55.2285
 30
0.000000
  70
    32
  0
VERTEX
  8
0
  5
800003D3
 10
10.3346
 20
-55.6260
 30
0.000000
  70
    32
  0
VERTEX
  8
0
  5
800003D4
 10
10.3775
 20
-56.0201
 30
0.000000
  70
    32
  0
VERTEX
  8
0
  5
800003D5
 10
10.4230
 20
-56.4108
 30
0.000000
  70
    32
  0
VERTEX
  8
0
  5
800003D6
 10
10.4711
 20
-56.7981
 30
0.000000
  70
    32
  0
VERTEX
  8
0
  5
800003D7
 10
10.5220
 20
-57.1817
 30
0.000000
  70
    32
  0
VERTEX
  8
0
  5
800003D8
 10
10.5757
 20
-57.5615
 30
0.000000
  70
    32
  0
VERTEX
  8
0
  5
800003D9
 10
10.6324
 20
-57.9374
 30
0.000000
  70
    32
  0
VERTEX
  8
0
  5
800003DA
 10
10.6922
 20
-58.3094
 30
0.000000
  70
    32
  0
VERTEX
  8
0
  5
800003DB
 10
10.7551
 20
-58.6772
 30
0.000000
  70
    32
  0
VERTEX
  8
0
  5
800003DC
 10
10.8212
 20
-59.0408
 30
0.000000
  70
    32
  0
VERTEX
  8
0
  5
800003DD
 10
10.8906
 20
-59.4000
 30
0.000000
  70
    32
  0
VERTEX
  8
0
  5
800003DE
 10
10.9634
 20
-59.7547
 30
0.000000
  70
    32
  0
VERTEX
  8
0
  5
800003DF
 10
11.0398
 20
-60.1048
 30
0.000000
  70
    32
  0
VERTEX
  8
0
  5
800003E0
 10
11.1197
 20
-60.4501
 30
0.000000
  70
    32
  0
VERTEX
  8
0
  5
800003E1
 10
11.2033
 20
-60.7906
 30
0.000000
  70
    32
  0
VERTEX
  8
0
  5
800003E2
 10
11.2907
 20
-61.1261
 30
0.000000
  70
    32
  0
VERTEX
  8
0
  5
800003E3
 10
11.3820
 20
-61.4565
 30
0.000000
  70
    32
  0
VERTEX
  8
0
  5
800003E4
 10
11.4773
 20
-61.7817
 30
0.000000
  70
    32
  0
VERTEX
  8
0
  5
800003E5
 10
11.5766
 20
-62.1015
 30
0.000000
  70
    32
  0
VERTEX
  8
0
  5
800003E6
 10
11.6801
 20
-62.4158
 30
0.000000
  70
    32
  0
VERTEX
  8
0
  5
800003E7
 10
11.7878
 20
-62.7245
 30
0.000000
  70
    32
  0
VERTEX
  8
0
  5
800003E8
 10
11.8999
 20
-63.0276
 30
0.000000
  70
    32
  0
VERTEX
  8
0
  5
800003E9
 10
12.0164
 20
-63.3247
 30
0.000000
  70
    32
  0
VERTEX
  8
0
  5
800003EA
 10
12.1375
 20
-63.6159
 30
0.000000
  70
    32
  0
VERTEX
  8
0
  5
800003EB
 10
12.2631
 20
-63.9011
 30
0.000000
  70
    32
  0
VERTEX
  8
0
  5
800003EC
 10
12.3935
 20
-64.1800
 30
0.000000
  70
    32
  0
VERTEX
  8
0
  5
800003ED
 10
12.5287
 20
-64.4525
 30
0.000000
  70
    32
  0
VERTEX
  8
0
  5
800003EE
 10
12.6688
 20
-64.7186
 30
0.000000
  70
    32
  0
VERTEX
  8
0
  5
800003EF
 10
12.8139
 20
-64.9782
 30
0.000000
  70
    32
  0
VERTEX
  8
0
  5
800003F0
 10
12.9641
 20
-65.2310
 30
0.000000
  70
    32
  0
VERTEX
  8
0
  5
800003F1
 10
13.1194
 20
-65.4770
 30
0.000000
  70
    32
  0
VERTEX
  8
0
  5
800003F2
 10
13.2800
 20
-65.7161
 30
0.000000
  70
    32
  0
VERTEX
  8
0
  5
800003F3
 10
13.4460
 20
-65.9481
 30
0.000000
  70
    32
  0
VERTEX
  8
0
  5
800003F4
 10
13.6175
 20
-66.1729
 30
0.000000
  70
    32
  0
VERTEX
  8
0
  5
800003F5
 10
13.7945
 20
-66.3904
 30
0.000000
  70
    32
  0
VERTEX
  8
0
  5
800003F6
 10
13.9771
 20
-66.6004
 30
0.000000
  70
    32
  0
VERTEX
  8
0
  5
800003F7
 10
14.1655
 20
-66.8029
 30
0.000000
  70
    32
  0
VERTEX
  8
0
  5
800003F8
 10
14.3597
 20
-66.9977
 30
0.000000
  70
    32
  0
VERTEX
  8
0
  5
800003F9
 10
14.5599
 20
-67.1847
 30
0.000000
  70
    32
  0
VERTEX
  8
0
  5
800003FA
 10
14.7661
 20
-67.3638
 30
0.000000
  70
    32
  0
VERTEX
  8
0
  5
800003FB
 10
14.9783
 20
-67.5349
 30
0.000000
  70
    32
  0
VERTEX
  8
0
  5
800003FC
 10
15.1968
 20
-67.6977
 30
0.000000
  70
    32
  0
VERTEX
  8
0
  5
800003FD
 10
15.4216
 20
-67.8523
 30
0.000000
  70
    32
  0
VERTEX
  8
0
  5
800003FE
 10
15.6528
 20
-67.9984
 30
0.000000
  70
    32
  0
VERTEX
  8
0
  5
800003FF
 10
15.8904
 20
-68.1360
 30
0.000000
  70
    32
  0
VERTEX
  8
0
  5
80000400
 10
16.1347
 20
-68.2650
 30
0.000000
  70
    32
  0
VERTEX
  8
0
  5
80000401
 10
16.3856
 20
-68.3851
 30
0.000000
  70
    32
  0
VERTEX
  8
0
  5
80000402
 10
16.6432
 20
-68.4964
 30
0.000000
  70
    32
  0
VERTEX
  8
0
  5
80000403
 10
16.9077
 20
-68.5986
 30
0.000000
  70
    32
  0
VERTEX
  8
0
  5
80000404
 10
17.1792
 20
-68.6916
 30
0.000000
  70
    32
  0
VERTEX
  8
0
  5
80000405
 10
17.4577
 20
-68.7754
 30
0.000000
  70
    32
  0
VERTEX
  8
0
  5
80000406
 10
17.7434
 20
-68.8498
 30
0.000000
  70
    32
  0
VERTEX
  8
0
  5
80000407
 10
18.0362
 20
-68.9147
 30
0.000000
  70
    32
  0
VERTEX
  8
0
  5
80000408
 10
18.3364
 20
-68.9699
 30
0.000000
  70
    32
  0
VERTEX
  8
0
  5
80000409
 10
18.6440
 20
-69.0154
 30
0.000000
  70
    32
  0
VERTEX
  8
0
  5
8000040A
 10
18.9591
 20
-69.0509
 30
0.000000
  70
    32
  0
VERTEX
  8
0
  5
8000040B
 10
19.2819
 20
-69.0765
 30
0.000000
  70
    32
  0
VERTEX
  8
0
  5
8000040C
 10
19.6123
 20
-69.0919
 30
0.000000
  70
    32
  0
VERTEX
  8
0
  5
8000040D
 10
19.9505
 20
-69.0971
 30
0.000000
  70
    32
  0
SEQEND
  8
0
  5
8000040E
  0
ENDBLK
  5
FFBBDAE469BC3880
  8
0
  0
BLOCK
  8
0
  2
*U40
 70
     1
 10
0.0
 20
0.0
 30
0.0
  3
*U40
  1

  0
TEXT
  5
FFBBDAE469BC3882
  8
0
  6
CONTINUOUS
 10
21.740370303858619
 20
-67.149851311812512
 30
0.0
 40
4.0
  1
65 x 2.8mm RounDrive
  7
ARIAL
  0
TEXT
  5
FFBBDAE469BC3883
  8
0
  6
CONTINUOUS
 10
21.587573578074181
 20
-73.884730802490097
 30
0.0
 40
4.0
  1
ring shank nails for batten fixing
  7
ARIAL
  0
ENDBLK
  5
FFBBDAE469BC3885
  8
0
  0
BLOCK
  8
0
  2
*X41
 70
     1
 10
0.0
 20
0.0
 30
0.0
  3
*X41
  1

  0
LINE
  5
FFBBDAE469BC389C
  8
0
  6
CONTINUOUS
 62
     0
 10
157.7857638795758
 20
142.07265673192501
 30
0.0
 11
161.14672796332979
 21
142.07265673192501
 31
0.0
  0
LINE
  5
FFBBDAE469BC389D
  8
0
  6
CONTINUOUS
 62
     0
 10
155.9107638795758
 20
142.07265673192501
 30
0.0
 11
155.9107638795758
 21
142.07265673192501
 31
0.0
  0
LINE
  5
FFBBDAE469BC389E
  8
0
  6
CONTINUOUS
 62
     0
 10
144.6607638795758
 20
142.07265673192501
 30
0.0
 11
154.0357638795758
 21
142.07265673192501
 31
0.0
  0
LINE
  5
FFBBDAE469BC389F
  8
0
  6
CONTINUOUS
 62
     0
 10
142.7857638795758
 20
142.07265673192501
 30
0.0
 11
142.7857638795758
 21
142.07265673192501
 31
0.0
  0
LINE
  5
FFBBDAE469BC38A0
  8
0
  6
CONTINUOUS
 62
     0
 10
131.5357638795758
 20
142.07265673192501
 30
0.0
 11
140.9107638795758
 21
142.07265673192501
 31
0.0
  0
LINE
  5
FFBBDAE469BC38A1
  8
0
  6
CONTINUOUS
 62
     0
 10
129.6607638795758
 20
142.07265673192501
 30
0.0
 11
129.6607638795758
 21
142.07265673192501
 31
0.0
  0
LINE
  5
FFBBDAE469BC38A2
  8
0
  6
CONTINUOUS
 62
     0
 10
118.4107638795758
 20
142.07265673192501
 30
0.0
 11
127.7857638795758
 21
142.07265673192501
 31
0.0
  0
LINE
  5
FFBBDAE469BC38A3
  8
0
  6
CONTINUOUS
 62
     0
 10
116.5357638795758
 20
142.07265673192501
 30
0.0
 11
116.5357638795758
 21
142.07265673192501
 31
0.0
  0
LINE
  5
FFBBDAE469BC38A4
  8
0
  6
CONTINUOUS
 62
     0
 10
105.2857638795758
 20
142.07265673192501
 30
0.0
 11
114.6607638795758
 21
142.07265673192501
 31
0.0
  0
LINE
  5
FFBBDAE469BC38A5
  8
0
  6
CONTINUOUS
 62
     0
 10
103.4107638795758
 20
142.07265673192501
 30
0.0
 11
103.4107638795758
 21
142.07265673192501
 31
0.0
  0
LINE
  5
FFBBDAE469BC38A6
  8
0
  6
CONTINUOUS
 62
     0
 10
92.160763879575825
 20
142.07265673192501
 30
0.0
 11
101.5357638795758
 21
142.07265673192501
 31
0.0
  0
LINE
  5
FFBBDAE469BC38A7
  8
0
  6
CONTINUOUS
 62
     0
 10
90.285763879575825
 20
142.07265673192501
 30
0.0
 11
90.285763879575825
 21
142.07265673192501
 31
0.0
  0
LINE
  5
FFBBDAE469BC38A8
  8
0
  6
CONTINUOUS
 62
     0
 10
79.035763879575825
 20
142.07265673192501
 30
0.0
 11
88.410763879575825
 21
142.07265673192501
 31
0.0
  0
LINE
  5
FFBBDAE469BC38A9
  8
0
  6
CONTINUOUS
 62
     0
 10
77.160763879575825
 20
142.07265673192501
 30
0.0
 11
77.160763879575825
 21
142.07265673192501
 31
0.0
  0
LINE
  5
FFBBDAE469BC38AA
  8
0
  6
CONTINUOUS
 62
     0
 10
65.910763879575825
 20
142.07265673192501
 30
0.0
 11
75.285763879575825
 21
142.07265673192501
 31
0.0
  0
LINE
  5
FFBBDAE469BC38AB
  8
0
  6
CONTINUOUS
 62
     0
 10
64.035763879575825
 20
142.07265673192501
 30
0.0
 11
64.035763879575825
 21
142.07265673192501
 31
0.0
  0
LINE
  5
FFBBDAE469BC38AC
  8
0
  6
CONTINUOUS
 62
     0
 10
52.785763879575818
 20
142.07265673192501
 30
0.0
 11
62.160763879575818
 21
142.07265673192501
 31
0.0
  0
LINE
  5
FFBBDAE469BC38AD
  8
0
  6
CONTINUOUS
 62
     0
 10
50.910763879575818
 20
142.07265673192501
 30
0.0
 11
50.910763879575818
 21
142.07265673192501
 31
0.0
  0
LINE
  5
FFBBDAE469BC38AE
  8
0
  6
CONTINUOUS
 62
     0
 10
39.660763879575832
 20
142.07265673192501
 30
0.0
 11
49.035763879575818
 21
142.07265673192501
 31
0.0
  0
LINE
  5
FFBBDAE469BC38AF
  8
0
  6
CONTINUOUS
 62
     0
 10
37.785763879575832
 20
142.07265673192501
 30
0.0
 11
37.785763879575832
 21
142.07265673192501
 31
0.0
  0
LINE
  5
FFBBDAE469BC38B0
  8
0
  6
CONTINUOUS
 62
     0
 10
26.535763879575828
 20
142.07265673192501
 30
0.0
 11
35.910763879575832
 21
142.07265673192501
 31
0.0
  0
LINE
  5
FFBBDAE469BC38B1
  8
0
  6
CONTINUOUS
 62
     0
 10
24.660763879575828
 20
142.07265673192501
 30
0.0
 11
24.660763879575828
 21
142.07265673192501
 31
0.0
  0
LINE
  5
FFBBDAE469BC38B2
  8
0
  6
CONTINUOUS
 62
     0
 10
13.41076387957582
 20
142.07265673192501
 30
0.0
 11
22.785763879575828
 21
142.07265673192501
 31
0.0
  0
LINE
  5
FFBBDAE469BC38B3
  8
0
  6
CONTINUOUS
 62
     0
 10
11.53576387957582
 20
142.07265673192501
 30
0.0
 11
11.53576387957582
 21
142.07265673192501
 31
0.0
  0
LINE
  5
FFBBDAE469BC38B4
  8
0
  6
CONTINUOUS
 62
     0
 10
151.2232638795758
 20
145.82265673192501
 30
0.0
 11
160.5982638795758
 21
145.82265673192501
 31
0.0
  0
LINE
  5
FFBBDAE469BC38B5
  8
0
  6
CONTINUOUS
 62
     0
 10
149.3482638795758
 20
145.82265673192501
 30
0.0
 11
149.3482638795758
 21
145.82265673192501
 31
0.0
  0
LINE
  5
FFBBDAE469BC38B6
  8
0
  6
CONTINUOUS
 62
     0
 10
138.0982638795758
 20
145.82265673192501
 30
0.0
 11
147.4732638795758
 21
145.82265673192501
 31
0.0
  0
LINE
  5
FFBBDAE469BC38B7
  8
0
  6
CONTINUOUS
 62
     0
 10
136.2232638795758
 20
145.82265673192501
 30
0.0
 11
136.2232638795758
 21
145.82265673192501
 31
0.0
  0
LINE
  5
FFBBDAE469BC38B8
  8
0
  6
CONTINUOUS
 62
     0
 10
124.9732638795758
 20
145.82265673192501
 30
0.0
 11
134.3482638795758
 21
145.82265673192501
 31
0.0
  0
LINE
  5
FFBBDAE469BC38B9
  8
0
  6
CONTINUOUS
 62
     0
 10
123.0982638795758
 20
145.82265673192501
 30
0.0
 11
123.0982638795758
 21
145.82265673192501
 31
0.0
  0
LINE
  5
FFBBDAE469BC38BA
  8
0
  6
CONTINUOUS
 62
     0
 10
111.8482638795758
 20
145.82265673192501
 30
0.0
 11
121.2232638795758
 21
145.82265673192501
 31
0.0
  0
LINE
  5
FFBBDAE469BC38BB
  8
0
  6
CONTINUOUS
 62
     0
 10
109.9732638795758
 20
145.82265673192501
 30
0.0
 11
109.9732638795758
 21
145.82265673192501
 31
0.0
  0
LINE
  5
FFBBDAE469BC38BC
  8
0
  6
CONTINUOUS
 62
     0
 10
98.723263879575825
 20
145.82265673192501
 30
0.0
 11
108.0982638795758
 21
145.82265673192501
 31
0.0
  0
LINE
  5
FFBBDAE469BC38BD
  8
0
  6
CONTINUOUS
 62
     0
 10
96.848263879575825
 20
145.82265673192501
 30
0.0
 11
96.848263879575825
 21
145.82265673192501
 31
0.0
  0
LINE
  5
FFBBDAE469BC38BE
  8
0
  6
CONTINUOUS
 62
     0
 10
85.598263879575825
 20
145.82265673192501
 30
0.0
 11
94.973263879575825
 21
145.82265673192501
 31
0.0
  0
LINE
  5
FFBBDAE469BC38BF
  8
0
  6
CONTINUOUS
 62
     0
 10
83.723263879575825
 20
145.82265673192501
 30
0.0
 11
83.723263879575825
 21
145.82265673192501
 31
0.0
  0
LINE
  5
FFBBDAE469BC38C0
  8
0
  6
CONTINUOUS
 62
     0
 10
72.473263879575825
 20
145.82265673192501
 30
0.0
 11
81.848263879575825
 21
145.82265673192501
 31
0.0
  0
LINE
  5
FFBBDAE469BC38C1
  8
0
  6
CONTINUOUS
 62
     0
 10
70.598263879575825
 20
145.82265673192501
 30
0.0
 11
70.598263879575825
 21
145.82265673192501
 31
0.0
  0
LINE
  5
FFBBDAE469BC38C2
  8
0
  6
CONTINUOUS
 62
     0
 10
59.348263879575818
 20
145.82265673192501
 30
0.0
 11
68.723263879575825
 21
145.82265673192501
 31
0.0
  0
LINE
  5
FFBBDAE469BC38C3
  8
0
  6
CONTINUOUS
 62
     0
 10
57.473263879575818
 20
145.82265673192501
 30
0.0
 11
57.473263879575818
 21
145.82265673192501
 31
0.0
  0
LINE
  5
FFBBDAE469BC38C4
  8
0
  6
CONTINUOUS
 62
     0
 10
46.223263879575818
 20
145.82265673192501
 30
0.0
 11
55.598263879575818
 21
145.82265673192501
 31
0.0
  0
LINE
  5
FFBBDAE469BC38C5
  8
0
  6
CONTINUOUS
 62
     0
 10
44.348263879575818
 20
145.82265673192501
 30
0.0
 11
44.348263879575818
 21
145.82265673192501
 31
0.0
  0
LINE
  5
FFBBDAE469BC38C6
  8
0
  6
CONTINUOUS
 62
     0
 10
33.098263879575832
 20
145.82265673192501
 30
0.0
 11
42.473263879575818
 21
145.82265673192501
 31
0.0
  0
LINE
  5
FFBBDAE469BC38C7
  8
0
  6
CONTINUOUS
 62
     0
 10
31.223263879575828
 20
145.82265673192501
 30
0.0
 11
31.223263879575828
 21
145.82265673192501
 31
0.0
  0
LINE
  5
FFBBDAE469BC38C8
  8
0
  6
CONTINUOUS
 62
     0
 10
19.973263879575821
 20
145.82265673192501
 30
0.0
 11
29.348263879575828
 21
145.82265673192501
 31
0.0
  0
LINE
  5
FFBBDAE469BC38C9
  8
0
  6
CONTINUOUS
 62
     0
 10
18.098263879575821
 20
145.82265673192501
 30
0.0
 11
18.098263879575821
 21
145.82265673192501
 31
0.0
  0
LINE
  5
FFBBDAE469BC38CA
  8
0
  6
CONTINUOUS
 62
     0
 10
9.9999999999995453
 20
145.82265673192501
 30
0.0
 11
16.223263879575821
 21
145.82265673192501
 31
0.0
  0
LINE
  5
FFBBDAE469BC38CB
  8
0
  6
CONTINUOUS
 62
     0
 10
157.7857638795758
 20
149.57265673192501
 30
0.0
 11
161.14672796332979
 21
149.57265673192501
 31
0.0
  0
LINE
  5
FFBBDAE469BC38CC
  8
0
  6
CONTINUOUS
 62
     0
 10
155.9107638795758
 20
149.57265673192501
 30
0.0
 11
155.9107638795758
 21
149.57265673192501
 31
0.0
  0
LINE
  5
FFBBDAE469BC38CD
  8
0
  6
CONTINUOUS
 62
     0
 10
144.6607638795758
 20
149.57265673192501
 30
0.0
 11
154.0357638795758
 21
149.57265673192501
 31
0.0
  0
LINE
  5
FFBBDAE469BC38CE
  8
0
  6
CONTINUOUS
 62
     0
 10
142.7857638795758
 20
149.57265673192501
 30
0.0
 11
142.7857638795758
 21
149.57265673192501
 31
0.0
  0
LINE
  5
FFBBDAE469BC38CF
  8
0
  6
CONTINUOUS
 62
     0
 10
131.5357638795758
 20
149.57265673192501
 30
0.0
 11
140.9107638795758
 21
149.57265673192501
 31
0.0
  0
LINE
  5
FFBBDAE469BC38D0
  8
0
  6
CONTINUOUS
 62
     0
 10
129.6607638795758
 20
149.57265673192501
 30
0.0
 11
129.6607638795758
 21
149.57265673192501
 31
0.0
  0
LINE
  5
FFBBDAE469BC38D1
  8
0
  6
CONTINUOUS
 62
     0
 10
118.4107638795758
 20
149.57265673192501
 30
0.0
 11
127.7857638795758
 21
149.57265673192501
 31
0.0
  0
LINE
  5
FFBBDAE469BC38D2
  8
0
  6
CONTINUOUS
 62
     0
 10
116.5357638795758
 20
149.57265673192501
 30
0.0
 11
116.5357638795758
 21
149.57265673192501
 31
0.0
  0
LINE
  5
FFBBDAE469BC38D3
  8
0
  6
CONTINUOUS
 62
     0
 10
105.2857638795758
 20
149.57265673192501
 30
0.0
 11
114.6607638795758
 21
149.57265673192501
 31
0.0
  0
LINE
  5
FFBBDAE469BC38D4
  8
0
  6
CONTINUOUS
 62
     0
 10
103.4107638795758
 20
149.57265673192501
 30
0.0
 11
103.4107638795758
 21
149.57265673192501
 31
0.0
  0
LINE
  5
FFBBDAE469BC38D5
  8
0
  6
CONTINUOUS
 62
     0
 10
92.160763879575825
 20
149.57265673192501
 30
0.0
 11
101.5357638795758
 21
149.57265673192501
 31
0.0
  0
LINE
  5
FFBBDAE469BC38D6
  8
0
  6
CONTINUOUS
 62
     0
 10
90.285763879575825
 20
149.57265673192501
 30
0.0
 11
90.285763879575825
 21
149.57265673192501
 31
0.0
  0
LINE
  5
FFBBDAE469BC38D7
  8
0
  6
CONTINUOUS
 62
     0
 10
79.035763879575825
 20
149.57265673192501
 30
0.0
 11
88.410763879575825
 21
149.57265673192501
 31
0.0
  0
LINE
  5
FFBBDAE469BC38D8
  8
0
  6
CONTINUOUS
 62
     0
 10
77.160763879575825
 20
149.57265673192501
 30
0.0
 11
77.160763879575825
 21
149.57265673192501
 31
0.0
  0
LINE
  5
FFBBDAE469BC38D9
  8
0
  6
CONTINUOUS
 62
     0
 10
65.910763879575825
 20
149.57265673192501
 30
0.0
 11
75.285763879575825
 21
149.57265673192501
 31
0.0
  0
LINE
  5
FFBBDAE469BC38DA
  8
0
  6
CONTINUOUS
 62
     0
 10
64.035763879575825
 20
149.57265673192501
 30
0.0
 11
64.035763879575825
 21
149.57265673192501
 31
0.0
  0
LINE
  5
FFBBDAE469BC38DB
  8
0
  6
CONTINUOUS
 62
     0
 10
52.785763879575818
 20
149.57265673192501
 30
0.0
 11
62.160763879575818
 21
149.57265673192501
 31
0.0
  0
LINE
  5
FFBBDAE469BC38DC
  8
0
  6
CONTINUOUS
 62
     0
 10
50.910763879575818
 20
149.57265673192501
 30
0.0
 11
50.910763879575818
 21
149.57265673192501
 31
0.0
  0
LINE
  5
FFBBDAE469BC38DD
  8
0
  6
CONTINUOUS
 62
     0
 10
39.660763879575832
 20
149.57265673192501
 30
0.0
 11
49.035763879575818
 21
149.57265673192501
 31
0.0
  0
LINE
  5
FFBBDAE469BC38DE
  8
0
  6
CONTINUOUS
 62
     0
 10
37.785763879575832
 20
149.57265673192501
 30
0.0
 11
37.785763879575832
 21
149.57265673192501
 31
0.0
  0
LINE
  5
FFBBDAE469BC38DF
  8
0
  6
CONTINUOUS
 62
     0
 10
26.535763879575828
 20
149.57265673192501
 30
0.0
 11
35.910763879575832
 21
149.57265673192501
 31
0.0
  0
LINE
  5
FFBBDAE469BC38E0
  8
0
  6
CONTINUOUS
 62
     0
 10
24.660763879575828
 20
149.57265673192501
 30
0.0
 11
24.660763879575828
 21
149.57265673192501
 31
0.0
  0
LINE
  5
FFBBDAE469BC38E1
  8
0
  6
CONTINUOUS
 62
     0
 10
13.41076387957582
 20
149.57265673192501
 30
0.0
 11
22.785763879575828
 21
149.57265673192501
 31
0.0
  0
LINE
  5
FFBBDAE469BC38E2
  8
0
  6
CONTINUOUS
 62
     0
 10
11.53576387957582
 20
149.57265673192501
 30
0.0
 11
11.53576387957582
 21
149.57265673192501
 31
0.0
  0
LINE
  5
FFBBDAE469BC38E3
  8
0
  6
CONTINUOUS
 62
     0
 10
151.2232638795758
 20
153.32265673192501
 30
0.0
 11
160.5982638795758
 21
153.32265673192501
 31
0.0
  0
LINE
  5
FFBBDAE469BC38E4
  8
0
  6
CONTINUOUS
 62
     0
 10
149.3482638795758
 20
153.32265673192501
 30
0.0
 11
149.3482638795758
 21
153.32265673192501
 31
0.0
  0
LINE
  5
FFBBDAE469BC38E5
  8
0
  6
CONTINUOUS
 62
     0
 10
138.0982638795758
 20
153.32265673192501
 30
0.0
 11
147.4732638795758
 21
153.32265673192501
 31
0.0
  0
LINE
  5
FFBBDAE469BC38E6
  8
0
  6
CONTINUOUS
 62
     0
 10
136.2232638795758
 20
153.32265673192501
 30
0.0
 11
136.2232638795758
 21
153.32265673192501
 31
0.0
  0
LINE
  5
FFBBDAE469BC38E7
  8
0
  6
CONTINUOUS
 62
     0
 10
124.9732638795758
 20
153.32265673192501
 30
0.0
 11
134.3482638795758
 21
153.32265673192501
 31
0.0
  0
LINE
  5
FFBBDAE469BC38E8
  8
0
  6
CONTINUOUS
 62
     0
 10
123.0982638795758
 20
153.32265673192501
 30
0.0
 11
123.0982638795758
 21
153.32265673192501
 31
0.0
  0
LINE
  5
FFBBDAE469BC38E9
  8
0
  6
CONTINUOUS
 62
     0
 10
111.8482638795758
 20
153.32265673192501
 30
0.0
 11
121.2232638795758
 21
153.32265673192501
 31
0.0
  0
LINE
  5
FFBBDAE469BC38EA
  8
0
  6
CONTINUOUS
 62
     0
 10
109.9732638795758
 20
153.32265673192501
 30
0.0
 11
109.9732638795758
 21
153.32265673192501
 31
0.0
  0
LINE
  5
FFBBDAE469BC38EB
  8
0
  6
CONTINUOUS
 62
     0
 10
98.723263879575825
 20
153.32265673192501
 30
0.0
 11
108.0982638795758
 21
153.32265673192501
 31
0.0
  0
LINE
  5
FFBBDAE469BC38EC
  8
0
  6
CONTINUOUS
 62
     0
 10
96.848263879575825
 20
153.32265673192501
 30
0.0
 11
96.848263879575825
 21
153.32265673192501
 31
0.0
  0
LINE
  5
FFBBDAE469BC38ED
  8
0
  6
CONTINUOUS
 62
     0
 10
85.598263879575825
 20
153.32265673192501
 30
0.0
 11
94.973263879575825
 21
153.32265673192501
 31
0.0
  0
LINE
  5
FFBBDAE469BC38EE
  8
0
  6
CONTINUOUS
 62
     0
 10
83.723263879575825
 20
153.32265673192501
 30
0.0
 11
83.723263879575825
 21
153.32265673192501
 31
0.0
  0
LINE
  5
FFBBDAE469BC38EF
  8
0
  6
CONTINUOUS
 62
     0
 10
72.473263879575825
 20
153.32265673192501
 30
0.0
 11
81.848263879575825
 21
153.32265673192501
 31
0.0
  0
LINE
  5
FFBBDAE469BC38F0
  8
0
  6
CONTINUOUS
 62
     0
 10
70.598263879575825
 20
153.32265673192501
 30
0.0
 11
70.598263879575825
 21
153.32265673192501
 31
0.0
  0
LINE
  5
FFBBDAE469BC38F1
  8
0
  6
CONTINUOUS
 62
     0
 10
59.348263879575818
 20
153.32265673192501
 30
0.0
 11
68.723263879575825
 21
153.32265673192501
 31
0.0
  0
LINE
  5
FFBBDAE469BC38F2
  8
0
  6
CONTINUOUS
 62
     0
 10
57.473263879575818
 20
153.32265673192501
 30
0.0
 11
57.473263879575818
 21
153.32265673192501
 31
0.0
  0
LINE
  5
FFBBDAE469BC38F3
  8
0
  6
CONTINUOUS
 62
     0
 10
46.223263879575818
 20
153.32265673192501
 30
0.0
 11
55.598263879575818
 21
153.32265673192501
 31
0.0
  0
LINE
  5
FFBBDAE469BC38F4
  8
0
  6
CONTINUOUS
 62
     0
 10
44.348263879575818
 20
153.32265673192501
 30
0.0
 11
44.348263879575818
 21
153.32265673192501
 31
0.0
  0
LINE
  5
FFBBDAE469BC38F5
  8
0
  6
CONTINUOUS
 62
     0
 10
33.098263879575832
 20
153.32265673192501
 30
0.0
 11
42.473263879575818
 21
153.32265673192501
 31
0.0
  0
LINE
  5
FFBBDAE469BC38F6
  8
0
  6
CONTINUOUS
 62
     0
 10
31.223263879575828
 20
153.32265673192501
 30
0.0
 11
31.223263879575828
 21
153.32265673192501
 31
0.0
  0
LINE
  5
FFBBDAE469BC38F7
  8
0
  6
CONTINUOUS
 62
     0
 10
19.973263879575821
 20
153.32265673192501
 30
0.0
 11
29.348263879575828
 21
153.32265673192501
 31
0.0
  0
LINE
  5
FFBBDAE469BC38F8
  8
0
  6
CONTINUOUS
 62
     0
 10
18.098263879575821
 20
153.32265673192501
 30
0.0
 11
18.098263879575821
 21
153.32265673192501
 31
0.0
  0
LINE
  5
FFBBDAE469BC38F9
  8
0
  6
CONTINUOUS
 62
     0
 10
10.0
 20
153.32265673192501
 30
0.0
 11
16.223263879575821
 21
153.32265673192501
 31
0.0
  0
LINE
  5
FFBBDAE469BC38FA
  8
0
  6
CONTINUOUS
 62
     0
 10
157.7857638795758
 20
157.07265673192501
 30
0.0
 11
161.14672796332979
 21
157.07265673192501
 31
0.0
  0
LINE
  5
FFBBDAE469BC38FB
  8
0
  6
CONTINUOUS
 62
     0
 10
155.9107638795758
 20
157.07265673192501
 30
0.0
 11
155.9107638795758
 21
157.07265673192501
 31
0.0
  0
LINE
  5
FFBBDAE469BC38FC
  8
0
  6
CONTINUOUS
 62
     0
 10
144.6607638795758
 20
157.07265673192501
 30
0.0
 11
154.0357638795758
 21
157.07265673192501
 31
0.0
  0
LINE
  5
FFBBDAE469BC38FD
  8
0
  6
CONTINUOUS
 62
     0
 10
142.7857638795758
 20
157.07265673192501
 30
0.0
 11
142.7857638795758
 21
157.07265673192501
 31
0.0
  0
LINE
  5
FFBBDAE469BC38FE
  8
0
  6
CONTINUOUS
 62
     0
 10
131.5357638795758
 20
157.07265673192501
 30
0.0
 11
140.9107638795758
 21
157.07265673192501
 31
0.0
  0
LINE
  5
FFBBDAE469BC38FF
  8
0
  6
CONTINUOUS
 62
     0
 10
129.6607638795758
 20
157.07265673192501
 30
0.0
 11
129.6607638795758
 21
157.07265673192501
 31
0.0
  0
LINE
  5
FFBBDAE469BC3900
  8
0
  6
CONTINUOUS
 62
     0
 10
118.4107638795758
 20
157.07265673192501
 30
0.0
 11
127.7857638795758
 21
157.07265673192501
 31
0.0
  0
LINE
  5
FFBBDAE469BC3901
  8
0
  6
CONTINUOUS
 62
     0
 10
116.5357638795758
 20
157.07265673192501
 30
0.0
 11
116.5357638795758
 21
157.07265673192501
 31
0.0
  0
LINE
  5
FFBBDAE469BC3902
  8
0
  6
CONTINUOUS
 62
     0
 10
105.2857638795758
 20
157.07265673192501
 30
0.0
 11
114.6607638795758
 21
157.07265673192501
 31
0.0
  0
LINE
  5
FFBBDAE469BC3903
  8
0
  6
CONTINUOUS
 62
     0
 10
103.4107638795758
 20
157.07265673192501
 30
0.0
 11
103.4107638795758
 21
157.07265673192501
 31
0.0
  0
LINE
  5
FFBBDAE469BC3904
  8
0
  6
CONTINUOUS
 62
     0
 10
92.160763879575825
 20
157.07265673192501
 30
0.0
 11
101.5357638795758
 21
157.07265673192501
 31
0.0
  0
LINE
  5
FFBBDAE469BC3905
  8
0
  6
CONTINUOUS
 62
     0
 10
90.285763879575825
 20
157.07265673192501
 30
0.0
 11
90.285763879575825
 21
157.07265673192501
 31
0.0
  0
LINE
  5
FFBBDAE469BC3906
  8
0
  6
CONTINUOUS
 62
     0
 10
79.035763879575825
 20
157.07265673192501
 30
0.0
 11
88.410763879575825
 21
157.07265673192501
 31
0.0
  0
LINE
  5
FFBBDAE469BC3907
  8
0
  6
CONTINUOUS
 62
     0
 10
77.160763879575825
 20
157.07265673192501
 30
0.0
 11
77.160763879575825
 21
157.07265673192501
 31
0.0
  0
LINE
  5
FFBBDAE469BC3908
  8
0
  6
CONTINUOUS
 62
     0
 10
65.910763879575825
 20
157.07265673192501
 30
0.0
 11
75.285763879575825
 21
157.07265673192501
 31
0.0
  0
LINE
  5
FFBBDAE469BC3909
  8
0
  6
CONTINUOUS
 62
     0
 10
64.035763879575825
 20
157.07265673192501
 30
0.0
 11
64.035763879575825
 21
157.07265673192501
 31
0.0
  0
LINE
  5
FFBBDAE469BC390A
  8
0
  6
CONTINUOUS
 62
     0
 10
52.785763879575818
 20
157.07265673192501
 30
0.0
 11
62.160763879575818
 21
157.07265673192501
 31
0.0
  0
LINE
  5
FFBBDAE469BC390B
  8
0
  6
CONTINUOUS
 62
     0
 10
50.910763879575818
 20
157.07265673192501
 30
0.0
 11
50.910763879575818
 21
157.07265673192501
 31
0.0
  0
LINE
  5
FFBBDAE469BC390C
  8
0
  6
CONTINUOUS
 62
     0
 10
39.660763879575832
 20
157.07265673192501
 30
0.0
 11
49.035763879575818
 21
157.07265673192501
 31
0.0
  0
LINE
  5
FFBBDAE469BC390D
  8
0
  6
CONTINUOUS
 62
     0
 10
37.785763879575832
 20
157.07265673192501
 30
0.0
 11
37.785763879575832
 21
157.07265673192501
 31
0.0
  0
LINE
  5
FFBBDAE469BC390E
  8
0
  6
CONTINUOUS
 62
     0
 10
26.535763879575828
 20
157.07265673192501
 30
0.0
 11
35.910763879575832
 21
157.07265673192501
 31
0.0
  0
LINE
  5
FFBBDAE469BC390F
  8
0
  6
CONTINUOUS
 62
     0
 10
24.660763879575828
 20
157.07265673192501
 30
0.0
 11
24.660763879575828
 21
157.07265673192501
 31
0.0
  0
LINE
  5
FFBBDAE469BC3910
  8
0
  6
CONTINUOUS
 62
     0
 10
13.41076387957582
 20
157.07265673192501
 30
0.0
 11
22.785763879575828
 21
157.07265673192501
 31
0.0
  0
LINE
  5
FFBBDAE469BC3911
  8
0
  6
CONTINUOUS
 62
     0
 10
11.53576387957582
 20
157.07265673192501
 30
0.0
 11
11.53576387957582
 21
157.07265673192501
 31
0.0
  0
ENDBLK
  5
FFBBDAE469BC3913
  8
0
  0
BLOCK
  8
0
  2
*U42
 70
     1
 10
0.0
 20
0.0
 30
0.0
  3
*U42
  1

  0
SOLID
  5
FFBBDAE469BC3931
  8
0
  6
CONTINUOUS
 10
-30.474676177016399
 20
23.71707602082607
 30
0.0
 11
-29.532907032471481
 21
20.19102002603768
 31
0.0
 12
-31.567355464810198
 22
23.221039758012129
 32
0.0
 13
-31.567355464810198
 23
23.221039758012129
 33
0.0
  0
POLYLINE
  8
0
  5
8000040F
  66
     1
 10
0.000000
 20
0.000000
 30
0.000000
  70
     8
  0
VERTEX
  8
0
  5
80000410
 10
-31.0210
 20
23.4691
 30
0.000000
  70
    32
  0
VERTEX
  8
0
  5
80000411
 10
-31.1358
 20
23.7267
 30
0.000000
  70
    32
  0
VERTEX
  8
0
  5
80000412
 10
-31.2480
 20
23.9883
 30
0.000000
  70
    32
  0
VERTEX
  8
0
  5
80000413
 10
-31.3578
 20
24.2537
 30
0.000000
  70
    32
  0
VERTEX
  8
0
  5
80000414
 10
-31.4651
 20
24.5229
 30
0.000000
  70
    32
  0
VERTEX
  8
0
  5
80000415
 10
-31.5702
 20
24.7957
 30
0.000000
  70
    32
  0
VERTEX
  8
0
  5
80000416
 10
-31.6729
 20
25.0720
 30
0.000000
  70
    32
  0
VERTEX
  8
0
  5
80000417
 10
-31.7734
 20
25.3518
 30
0.000000
  70
    32
  0
VERTEX
  8
0
  5
80000418
 10
-31.8717
 20
25.6350
 30
0.000000
  70
    32
  0
VERTEX
  8
0
  5
80000419
 10
-31.9679
 20
25.9214
 30
0.000000
  70
    32
  0
VERTEX
  8
0
  5
8000041A
 10
-32.0621
 20
26.2111
 30
0.000000
  70
    32
  0
VERTEX
  8
0
  5
8000041B
 10
-32.1543
 20
26.5037
 30
0.000000
  70
    32
  0
VERTEX
  8
0
  5
8000041C
 10
-32.2446
 20
26.7994
 30
0.000000
  70
    32
  0
VERTEX
  8
0
  5
8000041D
 10
-32.3330
 20
27.0979
 30
0.000000
  70
    32
  0
VERTEX
  8
0
  5
8000041E
 10
-32.4197
 20
27.3993
 30
0.000000
  70
    32
  0
VERTEX
  8
0
  5
8000041F
 10
-32.5045
 20
27.7033
 30
0.000000
  70
    32
  0
VERTEX
  8
0
  5
80000420
 10
-32.5878
 20
28.0099
 30
0.000000
  70
    32
  0
VERTEX
  8
0
  5
80000421
 10
-32.6694
 20
28.3191
 30
0.000000
  70
    32
  0
VERTEX
  8
0
  5
80000422
 10
-32.7494
 20
28.6306
 30
0.000000
  70
    32
  0
VERTEX
  8
0
  5
80000423
 10
-32.8280
 20
28.9445
 30
0.000000
  70
    32
  0
VERTEX
  8
0
  5
80000424
 10
-32.9051
 20
29.2605
 30
0.000000
  70
    32
  0
VERTEX
  8
0
  5
80000425
 10
-32.9809
 20
29.5788
 30
0.000000
  70
    32
  0
VERTEX
  8
0
  5
80000426
 10
-33.0553
 20
29.8990
 30
0.000000
  70
    32
  0
VERTEX
  8
0
  5
80000427
 10
-33.1285
 20
30.2211
 30
0.000000
  70
    32
  0
VERTEX
  8
0
  5
80000428
 10
-33.2006
 20
30.5451
 30
0.000000
  70
    32
  0
VERTEX
  8
0
  5
80000429
 10
-33.2715
 20
30.8709
 30
0.000000
  70
    32
  0
VERTEX
  8
0
  5
8000042A
 10
-33.3413
 20
31.1983
 30
0.000000
  70
    32
  0
VERTEX
  8
0
  5
8000042B
 10
-33.4101
 20
31.5272
 30
0.000000
  70
    32
  0
VERTEX
  8
0
  5
8000042C
 10
-33.4780
 20
31.8576
 30
0.000000
  70
    32
  0
VERTEX
  8
0
  5
8000042D
 10
-33.5450
 20
32.1894
 30
0.000000
  70
    32
  0
VERTEX
  8
0
  5
8000042E
 10
-33.6113
 20
32.5224
 30
0.000000
  70
    32
  0
VERTEX
  8
0
  5
8000042F
 10
-33.6767
 20
32.8567
 30
0.000000
  70
    32
  0
VERTEX
  8
0
  5
80000430
 10
-33.7415
 20
33.1919
 30
0.000000
  70
    32
  0
VERTEX
  8
0
  5
80000431
 10
-33.8056
 20
33.5282
 30
0.000000
  70
    32
  0
VERTEX
  8
0
  5
80000432
 10
-33.8691
 20
33.8654
 30
0.000000
  70
    32
  0
VERTEX
  8
0
  5
80000433
 10
-33.9322
 20
34.2033
 30
0.000000
  70
    32
  0
VERTEX
  8
0
  5
80000434
 10
-33.9948
 20
34.5420
 30
0.000000
  70
    32
  0
VERTEX
  8
0
  5
80000435
 10
-34.0570
 20
34.8812
 30
0.000000
  70
    32
  0
VERTEX
  8
0
  5
80000436
 10
-34.1188
 20
35.2210
 30
0.000000
  70
    32
  0
VERTEX
  8
0
  5
80000437
 10
-34.1804
 20
35.5611
 30
0.000000
  70
    32
  0
VERTEX
  8
0
  5
80000438
 10
-34.2418
 20
35.9016
 30
0.000000
  70
    32
  0
VERTEX
  8
0
  5
80000439
 10
-34.3031
 20
36.2423
 30
0.000000
  70
    32
  0
VERTEX
  8
0
  5
8000043A
 10
-34.3643
 20
36.5832
 30
0.000000
  70
    32
  0
VERTEX
  8
0
  5
8000043B
 10
-34.4254
 20
36.9240
 30
0.000000
  70
    32
  0
VERTEX
  8
0
  5
8000043C
 10
-34.4866
 20
37.2648
 30
0.000000
  70
    32
  0
VERTEX
  8
0
  5
8000043D
 10
-34.5479
 20
37.6055
 30
0.000000
  70
    32
  0
VERTEX
  8
0
  5
8000043E
 10
-34.6094
 20
37.9459
 30
0.000000
  70
    32
  0
VERTEX
  8
0
  5
8000043F
 10
-34.6711
 20
38.2859
 30
0.000000
  70
    32
  0
VERTEX
  8
0
  5
80000440
 10
-34.7331
 20
38.6255
 30
0.000000
  70
    32
  0
VERTEX
  8
0
  5
80000441
 10
-34.7954
 20
38.9646
 30
0.000000
  70
    32
  0
VERTEX
  8
0
  5
80000442
 10
-34.8581
 20
39.3030
 30
0.000000
  70
    32
  0
VERTEX
  8
0
  5
80000443
 10
-34.9213
 20
39.6407
 30
0.000000
  70
    32
  0
VERTEX
  8
0
  5
80000444
 10
-34.9851
 20
39.9776
 30
0.000000
  70
    32
  0
VERTEX
  8
0
  5
80000445
 10
-35.0494
 20
40.3135
 30
0.000000
  70
    32
  0
VERTEX
  8
0
  5
80000446
 10
-35.1144
 20
40.6485
 30
0.000000
  70
    32
  0
VERTEX
  8
0
  5
80000447
 10
-35.1801
 20
40.9823
 30
0.000000
  70
    32
  0
VERTEX
  8
0
  5
80000448
 10
-35.2465
 20
41.3149
 30
0.000000
  70
    32
  0
VERTEX
  8
0
  5
80000449
 10
-35.3138
 20
41.6463
 30
0.000000
  70
    32
  0
VERTEX
  8
0
  5
8000044A
 10
-35.3820
 20
41.9762
 30
0.000000
  70
    32
  0
VERTEX
  8
0
  5
8000044B
 10
-35.4512
 20
42.3046
 30
0.000000
  70
    32
  0
VERTEX
  8
0
  5
8000044C
 10
-35.5214
 20
42.6315
 30
0.000000
  70
    32
  0
VERTEX
  8
0
  5
8000044D
 10
-35.5927
 20
42.9567
 30
0.000000
  70
    32
  0
VERTEX
  8
0
  5
8000044E
 10
-35.6651
 20
43.2801
 30
0.000000
  70
    32
  0
VERTEX
  8
0
  5
8000044F
 10
-35.7387
 20
43.6016
 30
0.000000
  70
    32
  0
VERTEX
  8
0
  5
80000450
 10
-35.8136
 20
43.9211
 30
0.000000
  70
    32
  0
VERTEX
  8
0
  5
80000451
 10
-35.8898
 20
44.2387
 30
0.000000
  70
    32
  0
VERTEX
  8
0
  5
80000452
 10
-35.9674
 20
44.5540
 30
0.000000
  70
    32
  0
VERTEX
  8
0
  5
80000453
 10
-36.0464
 20
44.8671
 30
0.000000
  70
    32
  0
VERTEX
  8
0
  5
80000454
 10
-36.1270
 20
45.1778
 30
0.000000
  70
    32
  0
VERTEX
  8
0
  5
80000455
 10
-36.2091
 20
45.4862
 30
0.000000
  70
    32
  0
VERTEX
  8
0
  5
80000456
 10
-36.2929
 20
45.7919
 30
0.000000
  70
    32
  0
VERTEX
  8
0
  5
80000457
 10
-36.3784
 20
46.0951
 30
0.000000
  70
    32
  0
VERTEX
  8
0
  5
80000458
 10
-36.4656
 20
46.3955
 30
0.000000
  70
    32
  0
VERTEX
  8
0
  5
80000459
 10
-36.5546
 20
46.6931
 30
0.000000
  70
    32
  0
VERTEX
  8
0
  5
8000045A
 10
-36.6455
 20
46.9878
 30
0.000000
  70
    32
  0
VERTEX
  8
0
  5
8000045B
 10
-36.7384
 20
47.2794
 30
0.000000
  70
    32
  0
VERTEX
  8
0
  5
8000045C
 10
-36.8332
 20
47.5680
 30
0.000000
  70
    32
  0
VERTEX
  8
0
  5
8000045D
 10
-36.9302
 20
47.8533
 30
0.000000
  70
    32
  0
VERTEX
  8
0
  5
8000045E
 10
-37.0292
 20
48.1354
 30
0.000000
  70
    32
  0
VERTEX
  8
0
  5
8000045F
 10
-37.1304
 20
48.4141
 30
0.000000
  70
    32
  0
VERTEX
  8
0
  5
80000460
 10
-37.2339
 20
48.6893
 30
0.000000
  70
    32
  0
VERTEX
  8
0
  5
80000461
 10
-37.3397
 20
48.9609
 30
0.000000
  70
    32
  0
VERTEX
  8
0
  5
80000462
 10
-37.4479
 20
49.2288
 30
0.000000
  70
    32
  0
VERTEX
  8
0
  5
80000463
 10
-37.5584
 20
49.4929
 30
0.000000
  70
    32
  0
VERTEX
  8
0
  5
80000464
 10
-37.6715
 20
49.7532
 30
0.000000
  70
    32
  0
VERTEX
  8
0
  5
80000465
 10
-37.7871
 20
50.0095
 30
0.000000
  70
    32
  0
VERTEX
  8
0
  5
80000466
 10
-37.9054
 20
50.2618
 30
0.000000
  70
    32
  0
VERTEX
  8
0
  5
80000467
 10
-38.0263
 20
50.5099
 30
0.000000
  70
    32
  0
VERTEX
  8
0
  5
80000468
 10
-38.1500
 20
50.7538
 30
0.000000
  70
    32
  0
VERTEX
  8
0
  5
80000469
 10
-38.2764
 20
50.9933
 30
0.000000
  70
    32
  0
VERTEX
  8
0
  5
8000046A
 10
-38.4057
 20
51.2284
 30
0.000000
  70
    32
  0
VERTEX
  8
0
  5
8000046B
 10
-38.5380
 20
51.4589
 30
0.000000
  70
    32
  0
VERTEX
  8
0
  5
8000046C
 10
-38.6732
 20
51.6848
 30
0.000000
  70
    32
  0
VERTEX
  8
0
  5
8000046D
 10
-38.8114
 20
51.9060
 30
0.000000
  70
    32
  0
VERTEX
  8
0
  5
8000046E
 10
-38.9528
 20
52.1224
 30
0.000000
  70
    32
  0
VERTEX
  8
0
  5
8000046F
 10
-39.0973
 20
52.3339
 30
0.000000
  70
    32
  0
VERTEX
  8
0
  5
80000470
 10
-39.2451
 20
52.5403
 30
0.000000
  70
    32
  0
VERTEX
  8
0
  5
80000471
 10
-39.3961
 20
52.7417
 30
0.000000
  70
    32
  0
VERTEX
  8
0
  5
80000472
 10
-39.5505
 20
52.9378
 30
0.000000
  70
    32
  0
VERTEX
  8
0
  5
80000473
 10
-39.7083
 20
53.1287
 30
0.000000
  70
    32
  0
VERTEX
  8
0
  5
80000474
 10
-39.8696
 20
53.3141
 30
0.000000
  70
    32
  0
VERTEX
  8
0
  5
80000475
 10
-40.0344
 20
53.4941
 30
0.000000
  70
    32
  0
VERTEX
  8
0
  5
80000476
 10
-40.2028
 20
53.6685
 30
0.000000
  70
    32
  0
VERTEX
  8
0
  5
80000477
 10
-40.3749
 20
53.8373
 30
0.000000
  70
    32
  0
VERTEX
  8
0
  5
80000478
 10
-40.5506
 20
54.0002
 30
0.000000
  70
    32
  0
VERTEX
  8
0
  5
80000479
 10
-40.7302
 20
54.1573
 30
0.000000
  70
    32
  0
VERTEX
  8
0
  5
8000047A
 10
-40.9136
 20
54.3085
 30
0.000000
  70
    32
  0
VERTEX
  8
0
  5
8000047B
 10
-41.1009
 20
54.4535
 30
0.000000
  70
    32
  0
VERTEX
  8
0
  5
8000047C
 10
-41.2921
 20
54.5925
 30
0.000000
  70
    32
  0
VERTEX
  8
0
  5
8000047D
 10
-41.4874
 20
54.7252
 30
0.000000
  70
    32
  0
VERTEX
  8
0
  5
8000047E
 10
-41.6868
 20
54.8515
 30
0.000000
  70
    32
  0
VERTEX
  8
0
  5
8000047F
 10
-41.8903
 20
54.9714
 30
0.000000
  70
    32
  0
VERTEX
  8
0
  5
80000480
 10
-42.0980
 20
55.0848
 30
0.000000
  70
    32
  0
VERTEX
  8
0
  5
80000481
 10
-42.3100
 20
55.1915
 30
0.000000
  70
    32
  0
VERTEX
  8
0
  5
80000482
 10
-42.5263
 20
55.2916
 30
0.000000
  70
    32
  0
VERTEX
  8
0
  5
80000483
 10
-42.7470
 20
55.3848
 30
0.000000
  70
    32
  0
VERTEX
  8
0
  5
80000484
 10
-42.9722
 20
55.4711
 30
0.000000
  70
    32
  0
VERTEX
  8
0
  5
80000485
 10
-43.2019
 20
55.5504
 30
0.000000
  70
    32
  0
VERTEX
  8
0
  5
80000486
 10
-43.4361
 20
55.6226
 30
0.000000
  70
    32
  0
VERTEX
  8
0
  5
80000487
 10
-43.6750
 20
55.6876
 30
0.000000
  70
    32
  0
VERTEX
  8
0
  5
80000488
 10
-43.9186
 20
55.7453
 30
0.000000
  70
    32
  0
VERTEX
  8
0
  5
80000489
 10
-44.1669
 20
55.7956
 30
0.000000
  70
    32
  0
VERTEX
  8
0
  5
8000048A
 10
-44.4201
 20
55.8385
 30
0.000000
  70
    32
  0
VERTEX
  8
0
  5
8000048B
 10
-44.6781
 20
55.8738
 30
0.000000
  70
    32
  0
VERTEX
  8
0
  5
8000048C
 10
-44.9411
 20
55.9013
 30
0.000000
  70
    32
  0
VERTEX
  8
0
  5
8000048D
 10
-45.2091
 20
55.9212
 30
0.000000
  70
    32
  0
VERTEX
  8
0
  5
8000048E
 10
-45.4822
 20
55.9331
 30
0.000000
  70
    32
  0
VERTEX
  8
0
  5
8000048F
 10
-45.7603
 20
55.9372
 30
0.000000
  70
    32
  0
SEQEND
  8
0
  5
80000490
  0
ENDBLK
  5
FFBBDAE469BC3934
  8
0
  0
BLOCK
  8
0
  2
*U43
 70
     1
 10
0.0
 20
0.0
 30
0.0
  3
*U43
  1

  0
TEXT
  5
FFBBDAE469BC3936
  8
0
  6
CONTINUOUS
 10
-114.01681856710501
 20
61.225920385817943
 30
0.0
 40
4.0
  1
Seal sheet and sheet edge
  7
ARIAL
  0
TEXT
  5
FFBBDAE469BC3937
  8
0
  6
CONTINUOUS
 10
-112.2896698631487
 20
54.491040895140372
 30
0.0
 40
4.0
  1
before installing horizontal
  7
ARIAL
  0
TEXT
  5
FFBBDAE469BC3938
  8
0
  6
CONTINUOUS
 10
-66.647105060965885
 20
47.75616140446278
 30
0.0
 40
4.0
  1
flashing
  7
ARIAL
  0
ENDBLK
  5
FFBBDAE469BC393A
  8
0
  0
BLOCK
  8
0
  2
*U44
 70
     1
 10
0.0
 20
0.0
 30
0.0
  3
*U44
  1

  0
SOLID
  5
FFBBDAE469BC393E
  8
0
  6
CONTINUOUS
 10
-4.0386749746900739
 20
187.9428471713907
 30
0.0
 11
-0.8094797890171319
 21
186.24217129021099
 31
0.0
 12
-4.415694439630931
 22
186.80361219867629
 32
0.0
 13
-4.415694439630931
 23
186.80361219867629
 33
0.0
  0
POLYLINE
  8
0
  5
80000491
  66
     1
 10
0.000000
 20
0.000000
 30
0.000000
  70
     8
  0
VERTEX
  8
0
  5
80000492
 10
-4.22718
 20
187.373
 30
0.000000
  70
    32
  0
VERTEX
  8
0
  5
80000493
 10
-4.64945
 20
187.514
 30
0.000000
  70
    32
  0
VERTEX
  8
0
  5
80000494
 10
-5.07137
 20
187.657
 30
0.000000
  70
    32
  0
VERTEX
  8
0
  5
80000495
 10
-5.49295
 20
187.802
 30
0.000000
  70
    32
  0
VERTEX
  8
0
  5
80000496
 10
-5.91420
 20
187.950
 30
0.000000
  70
    32
  0
VERTEX
  8
0
  5
80000497
 10
-6.33514
 20
188.099
 30
0.000000
  70
    32
  0
VERTEX
  8
0
  5
80000498
 10
-6.75575
 20
188.250
 30
0.000000
  70
    32
  0
VERTEX
  8
0
  5
80000499
 10
-7.17607
 20
188.403
 30
0.000000
  70
    32
  0
VERTEX
  8
0
  5
8000049A
 10
-7.59608
 20
188.558
 30
0.000000
  70
    32
  0
VERTEX
  8
0
  5
8000049B
 10
-8.01581
 20
188.714
 30
0.000000
  70
    32
  0
VERTEX
  8
0
  5
8000049C
 10
-8.43526
 20
188.873
 30
0.000000
  70
    32
  0
VERTEX
  8
0
  5
8000049D
 10
-8.85444
 20
189.033
 30
0.000000
  70
    32
  0
VERTEX
  8
0
  5
8000049E
 10
-9.27336
 20
189.194
 30
0.000000
  70
    32
  0
VERTEX
  8
0
  5
8000049F
 10
-9.69202
 20
189.358
 30
0.000000
  70
    32
  0
VERTEX
  8
0
  5
800004A0
 10
-10.1104
 20
189.522
 30
0.000000
  70
    32
  0
VERTEX
  8
0
  5
800004A1
 10
-10.5286
 20
189.689
 30
0.000000
  70
    32
  0
VERTEX
  8
0
  5
800004A2
 10
-10.9466
 20
189.856
 30
0.000000
  70
    32
  0
VERTEX
  8
0
  5
800004A3
 10
-11.3643
 20
190.025
 30
0.000000
  70
    32
  0
VERTEX
  8
0
  5
800004A4
 10
-11.7818
 20
190.196
 30
0.000000
  70
    32
  0
VERTEX
  8
0
  5
800004A5
 10
-12.1991
 20
190.367
 30
0.000000
  70
    32
  0
VERTEX
  8
0
  5
800004A6
 10
-12.6162
 20
190.540
 30
0.000000
  70
    32
  0
VERTEX
  8
0
  5
800004A7
 10
-13.0332
 20
190.714
 30
0.000000
  70
    32
  0
VERTEX
  8
0
  5
800004A8
 10
-13.4499
 20
190.889
 30
0.000000
  70
    32
  0
VERTEX
  8
0
  5
800004A9
 10
-13.8665
 20
191.066
 30
0.000000
  70
    32
  0
VERTEX
  8
0
  5
800004AA
 10
-14.2829
 20
191.243
 30
0.000000
  70
    32
  0
VERTEX
  8
0
  5
800004AB
 10
-14.6992
 20
191.421
 30
0.000000
  70
    32
  0
VERTEX
  8
0
  5
800004AC
 10
-15.1153
 20
191.600
 30
0.000000
  70
    32
  0
VERTEX
  8
0
  5
800004AD
 10
-15.5313
 20
191.780
 30
0.000000
  70
    32
  0
VERTEX
  8
0
  5
800004AE
 10
-15.9471
 20
191.960
 30
0.000000
  70
    32
  0
VERTEX
  8
0
  5
800004AF
 10
-16.3629
 20
192.142
 30
0.000000
  70
    32
  0
VERTEX
  8
0
  5
800004B0
 10
-16.7785
 20
192.324
 30
0.000000
  70
    32
  0
VERTEX
  8
0
  5
800004B1
 10
-17.1940
 20
192.507
 30
0.000000
  70
    32
  0
VERTEX
  8
0
  5
800004B2
 10
-17.6094
 20
192.690
 30
0.000000
  70
    32
  0
VERTEX
  8
0
  5
800004B3
 10
-18.0248
 20
192.874
 30
0.000000
  70
    32
  0
VERTEX
  8
0
  5
800004B4
 10
-18.4400
 20
193.058
 30
0.000000
  70
    32
  0
VERTEX
  8
0
  5
800004B5
 10
-18.8552
 20
193.243
 30
0.000000
  70
    32
  0
VERTEX
  8
0
  5
800004B6
 10
-19.2704
 20
193.428
 30
0.000000
  70
    32
  0
VERTEX
  8
0
  5
800004B7
 10
-19.6854
 20
193.614
 30
0.000000
  70
    32
  0
VERTEX
  8
0
  5
800004B8
 10
-20.1005
 20
193.800
 30
0.000000
  70
    32
  0
VERTEX
  8
0
  5
800004B9
 10
-20.5155
 20
193.986
 30
0.000000
  70
    32
  0
VERTEX
  8
0
  5
800004BA
 10
-20.9304
 20
194.172
 30
0.000000
  70
    32
  0
VERTEX
  8
0
  5
800004BB
 10
-21.3454
 20
194.358
 30
0.000000
  70
    32
  0
VERTEX
  8
0
  5
800004BC
 10
-21.7603
 20
194.545
 30
0.000000
  70
    32
  0
VERTEX
  8
0
  5
800004BD
 10
-22.1752
 20
194.731
 30
0.000000
  70
    32
  0
VERTEX
  8
0
  5
800004BE
 10
-22.5902
 20
194.917
 30
0.000000
  70
    32
  0
VERTEX
  8
0
  5
800004BF
 10
-23.0051
 20
195.104
 30
0.000000
  70
    32
  0
VERTEX
  8
0
  5
800004C0
 10
-23.4201
 20
195.290
 30
0.000000
  70
    32
  0
VERTEX
  8
0
  5
800004C1
 10
-23.8351
 20
195.476
 30
0.000000
  70
    32
  0
VERTEX
  8
0
  5
800004C2
 10
-24.2501
 20
195.661
 30
0.000000
  70
    32
  0
VERTEX
  8
0
  5
800004C3
 10
-24.6652
 20
195.847
 30
0.000000
  70
    32
  0
VERTEX
  8
0
  5
800004C4
 10
-25.0804
 20
196.032
 30
0.000000
  70
    32
  0
VERTEX
  8
0
  5
800004C5
 10
-25.4956
 20
196.217
 30
0.000000
  70
    32
  0
VERTEX
  8
0
  5
800004C6
 10
-25.9109
 20
196.401
 30
0.000000
  70
    32
  0
VERTEX
  8
0
  5
800004C7
 10
-26.3262
 20
196.585
 30
0.000000
  70
    32
  0
VERTEX
  8
0
  5
800004C8
 10
-26.7417
 20
196.768
 30
0.000000
  70
    32
  0
VERTEX
  8
0
  5
800004C9
 10
-27.1572
 20
196.950
 30
0.000000
  70
    32
  0
VERTEX
  8
0
  5
800004CA
 10
-27.5729
 20
197.132
 30
0.000000
  70
    32
  0
VERTEX
  8
0
  5
800004CB
 10
-27.9887
 20
197.313
 30
0.000000
  70
    32
  0
VERTEX
  8
0
  5
800004CC
 10
-28.4046
 20
197.494
 30
0.000000
  70
    32
  0
VERTEX
  8
0
  5
800004CD
 10
-28.8206
 20
197.673
 30
0.000000
  70
    32
  0
VERTEX
  8
0
  5
800004CE
 10
-29.2368
 20
197.852
 30
0.000000
  70
    32
  0
VERTEX
  8
0
  5
800004CF
 10
-29.6531
 20
198.030
 30
0.000000
  70
    32
  0
VERTEX
  8
0
  5
800004D0
 10
-30.0696
 20
198.207
 30
0.000000
  70
    32
  0
VERTEX
  8
0
  5
800004D1
 10
-30.4862
 20
198.383
 30
0.000000
  70
    32
  0
VERTEX
  8
0
  5
800004D2
 10
-30.9030
 20
198.557
 30
0.000000
  70
    32
  0
VERTEX
  8
0
  5
800004D3
 10
-31.3200
 20
198.731
 30
0.000000
  70
    32
  0
VERTEX
  8
0
  5
800004D4
 10
-31.7372
 20
198.903
 30
0.000000
  70
    32
  0
VERTEX
  8
0
  5
800004D5
 10
-32.1546
 20
199.075
 30
0.000000
  70
    32
  0
VERTEX
  8
0
  5
800004D6
 10
-32.5721
 20
199.245
 30
0.000000
  70
    32
  0
VERTEX
  8
0
  5
800004D7
 10
-32.9899
 20
199.413
 30
0.000000
  70
    32
  0
VERTEX
  8
0
  5
800004D8
 10
-33.4080
 20
199.580
 30
0.000000
  70
    32
  0
VERTEX
  8
0
  5
800004D9
 10
-33.8262
 20
199.746
 30
0.000000
  70
    32
  0
VERTEX
  8
0
  5
800004DA
 10
-34.2447
 20
199.910
 30
0.000000
  70
    32
  0
VERTEX
  8
0
  5
800004DB
 10
-34.6635
 20
200.073
 30
0.000000
  70
    32
  0
VERTEX
  8
0
  5
800004DC
 10
-35.0825
 20
200.234
 30
0.000000
  70
    32
  0
VERTEX
  8
0
  5
800004DD
 10
-35.5017
 20
200.394
 30
0.000000
  70
    32
  0
VERTEX
  8
0
  5
800004DE
 10
-35.9213
 20
200.552
 30
0.000000
  70
    32
  0
VERTEX
  8
0
  5
800004DF
 10
-36.3411
 20
200.708
 30
0.000000
  70
    32
  0
VERTEX
  8
0
  5
800004E0
 10
-36.7612
 20
200.862
 30
0.000000
  70
    32
  0
VERTEX
  8
0
  5
800004E1
 10
-37.1816
 20
201.014
 30
0.000000
  70
    32
  0
VERTEX
  8
0
  5
800004E2
 10
-37.6024
 20
201.165
 30
0.000000
  70
    32
  0
VERTEX
  8
0
  5
800004E3
 10
-38.0234
 20
201.313
 30
0.000000
  70
    32
  0
VERTEX
  8
0
  5
800004E4
 10
-38.4448
 20
201.460
 30
0.000000
  70
    32
  0
VERTEX
  8
0
  5
800004E5
 10
-38.8664
 20
201.604
 30
0.000000
  70
    32
  0
VERTEX
  8
0
  5
800004E6
 10
-39.2885
 20
201.747
 30
0.000000
  70
    32
  0
VERTEX
  8
0
  5
800004E7
 10
-39.7109
 20
201.887
 30
0.000000
  70
    32
  0
VERTEX
  8
0
  5
800004E8
 10
-40.1336
 20
202.025
 30
0.000000
  70
    32
  0
VERTEX
  8
0
  5
800004E9
 10
-40.5567
 20
202.160
 30
0.000000
  70
    32
  0
VERTEX
  8
0
  5
800004EA
 10
-40.9802
 20
202.294
 30
0.000000
  70
    32
  0
VERTEX
  8
0
  5
800004EB
 10
-41.4041
 20
202.425
 30
0.000000
  70
    32
  0
VERTEX
  8
0
  5
800004EC
 10
-41.8283
 20
202.553
 30
0.000000
  70
    32
  0
VERTEX
  8
0
  5
800004ED
 10
-42.2530
 20
202.679
 30
0.000000
  70
    32
  0
VERTEX
  8
0
  5
800004EE
 10
-42.6780
 20
202.803
 30
0.000000
  70
    32
  0
VERTEX
  8
0
  5
800004EF
 10
-43.1035
 20
202.924
 30
0.000000
  70
    32
  0
VERTEX
  8
0
  5
800004F0
 10
-43.5294
 20
203.042
 30
0.000000
  70
    32
  0
VERTEX
  8
0
  5
800004F1
 10
-43.9558
 20
203.158
 30
0.000000
  70
    32
  0
VERTEX
  8
0
  5
800004F2
 10
-44.3825
 20
203.271
 30
0.000000
  70
    32
  0
VERTEX
  8
0
  5
800004F3
 10
-44.8098
 20
203.381
 30
0.000000
  70
    32
  0
VERTEX
  8
0
  5
800004F4
 10
-45.2374
 20
203.488
 30
0.000000
  70
    32
  0
VERTEX
  8
0
  5
800004F5
 10
-45.6656
 20
203.592
 30
0.000000
  70
    32
  0
VERTEX
  8
0
  5
800004F6
 10
-46.0942
 20
203.694
 30
0.000000
  70
    32
  0
VERTEX
  8
0
  5
800004F7
 10
-46.5233
 20
203.792
 30
0.000000
  70
    32
  0
VERTEX
  8
0
  5
800004F8
 10
-46.9529
 20
203.888
 30
0.000000
  70
    32
  0
VERTEX
  8
0
  5
800004F9
 10
-47.3830
 20
203.980
 30
0.000000
  70
    32
  0
VERTEX
  8
0
  5
800004FA
 10
-47.8137
 20
204.069
 30
0.000000
  70
    32
  0
VERTEX
  8
0
  5
800004FB
 10
-48.2448
 20
204.155
 30
0.000000
  70
    32
  0
VERTEX
  8
0
  5
800004FC
 10
-48.6764
 20
204.238
 30
0.000000
  70
    32
  0
VERTEX
  8
0
  5
800004FD
 10
-49.1086
 20
204.317
 30
0.000000
  70
    32
  0
VERTEX
  8
0
  5
800004FE
 10
-49.5414
 20
204.393
 30
0.000000
  70
    32
  0
VERTEX
  8
0
  5
800004FF
 10
-49.9746
 20
204.465
 30
0.000000
  70
    32
  0
VERTEX
  8
0
  5
80000500
 10
-50.4085
 20
204.535
 30
0.000000
  70
    32
  0
VERTEX
  8
0
  5
80000501
 10
-50.8429
 20
204.600
 30
0.000000
  70
    32
  0
VERTEX
  8
0
  5
80000502
 10
-51.2779
 20
204.662
 30
0.000000
  70
    32
  0
VERTEX
  8
0
  5
80000503
 10
-51.7134
 20
204.721
 30
0.000000
  70
    32
  0
VERTEX
  8
0
  5
80000504
 10
-52.1496
 20
204.775
 30
0.000000
  70
    32
  0
VERTEX
  8
0
  5
80000505
 10
-52.5864
 20
204.826
 30
0.000000
  70
    32
  0
VERTEX
  8
0
  5
80000506
 10
-53.0237
 20
204.873
 30
0.000000
  70
    32
  0
VERTEX
  8
0
  5
80000507
 10
-53.4617
 20
204.917
 30
0.000000
  70
    32
  0
VERTEX
  8
0
  5
80000508
 10
-53.9003
 20
204.956
 30
0.000000
  70
    32
  0
VERTEX
  8
0
  5
80000509
 10
-54.3396
 20
204.992
 30
0.000000
  70
    32
  0
VERTEX
  8
0
  5
8000050A
 10
-54.7795
 20
205.023
 30
0.000000
  70
    32
  0
VERTEX
  8
0
  5
8000050B
 10
-55.2200
 20
205.051
 30
0.000000
  70
    32
  0
VERTEX
  8
0
  5
8000050C
 10
-55.6612
 20
205.074
 30
0.000000
  70
    32
  0
VERTEX
  8
0
  5
8000050D
 10
-56.1031
 20
205.094
 30
0.000000
  70
    32
  0
VERTEX
  8
0
  5
8000050E
 10
-56.5456
 20
205.109
 30
0.000000
  70
    32
  0
VERTEX
  8
0
  5
8000050F
 10
-56.9888
 20
205.120
 30
0.000000
  70
    32
  0
VERTEX
  8
0
  5
80000510
 10
-57.4327
 20
205.126
 30
0.000000
  70
    32
  0
VERTEX
  8
0
  5
80000511
 10
-57.8774
 20
205.128
 30
0.000000
  70
    32
  0
SEQEND
  8
0
  5
80000512
  0
ENDBLK
  5
FFBBDAE469BC3941
  8
0
  0
BLOCK
  8
0
  2
*U45
 70
     1
 10
0.0
 20
0.0
 30
0.0
  3
*U45
  1

  0
TEXT
  5
FFBBDAE469BC3943
  8
0
  6
CONTINUOUS
 10
-116.7851589027659
 20
203.5082840257453
 30
0.0
 40
4.0
  1
James Hardie rigid air
  7
DIMS
  0
TEXT
  5
FFBBDAE469BC3944
  8
0
  6
CONTINUOUS
 10
-117.00071142664039
 20
196.7734045350677
 30
0.0
 40
4.0
  1
barrier/Building underlay
  7
DIMS
  0
ENDBLK
  5
FFBBDAE469BC3946
  8
0
  0
BLOCK
  8
0
  2
*U46
 70
     1
 10
0.0
 20
0.0
 30
0.0
  3
*U46
  1

  0
TEXT
  5
FFBBDAE469BC394E
  8
0
  6
CONTINUOUS
 10
-50.524583033064047
 20
-134.1011999297067
 30
0.0
 40
4.0
  1
15mm min
 50
90.0
  7
ARIAL
  0
ENDBLK
  5
FFBBDAE469BC3950
  8
0
  0
BLOCK
  8
0
  2
*U47
 70
     1
 10
0.0
 20
0.0
 30
0.0
  3
*U47
  1

  0
TEXT
  5
FFBBDAE469BC3952
  8
0
  6
CONTINUOUS
 10
8.1201537282999627
 20
20.045670405655471
 30
0.0
 40
4.0
  1
15mm
 50
90.0
  7
ARIAL
  0
ENDBLK
  5
FFBBDAE469BC3954
  8
0
  0
BLOCK
  8
0
  2
*U48
 70
     1
 10
0.0
 20
0.0
 30
0.0
  3
*U48
  1

  0
TEXT
  5
FFBBDAE469BC3956
  8
0
  6
CONTINUOUS
 10
-79.425103749218323
 20
-159.8720703345102
 30
0.0
 40
4.0
  1
15°
  7
ARIAL
  0
ENDBLK
  5
FFBBDAE469BC3958
  8
0
  0
BLOCK
  8
0
  2
*U49
 70
     1
 10
0.0
 20
0.0
 30
0.0
  3
*U49
  1

  0
TEXT
  5
FFBBDAE469BC395A
  8
0
  6
CONTINUOUS
 10
-112.66252862799939
 20
-172.62537797373031
 30
0.0
 40
4.0
  1
35mm
 50
90.0
  7
ARIAL
  0
TEXT
  5
FFBBDAE469BC395B
  8
0
  6
CONTINUOUS
 10
-105.9876764224514
 20
-169.41937524521731
 30
0.0
 40
4.0
  1
min
 50
90.0
  7
ARIAL
  0
ENDBLK
  5
FFBBDAE469BC395D
  8
0
  0
BLOCK
  8
0
  2
*U50
 70
     1
 10
0.0
 20
0.0
 30
0.0
  3
*U50
  1

  0
TEXT
  5
FFBBDAE469BC395F
  8
0
  6
CONTINUOUS
 10
-112.20645478879921
 20
-122.01066786967939
 30
0.0
 40
4.0
  1
35mm
 50
90.0
  7
ARIAL
  0
TEXT
  5
FFBBDAE469BC3960
  8
0
  6
CONTINUOUS
 10
-105.5316025832512
 20
-118.8046651411664
 30
0.0
 40
4.0
  1
min
 50
90.0
  7
ARIAL
  0
ENDBLK
  5
FFBBDAE469BC3962
  8
0
  0
BLOCK
  8
0
  2
*U51
 70
     1
 10
0.0
 20
0.0
 30
0.0
  3
*U51
  1

  0
TEXT
  5
FFBBDAE469BC3964
  8
0
  6
CONTINUOUS
 10
-44.613058190129728
 20
65.217934545768614
 30
0.0
 40
4.0
  1
75mm
 50
90.0
  7
ARIAL
  0
ENDBLK
  5
FFBBDAE469BC3966
  8
0
  0
BLOCK
  8
0
  2
*U52
 70
     1
 10
0.0
 20
0.0
 30
0.0
  3
*U52
  1

  0
TEXT
  5
FFBBDAE469BC3968
  8
0
  6
CONTINUOUS
 10
-51.285180235582793
 20
-5.4670586329484614
 30
0.0
 40
4.0
  1
30mm
 50
90.0
  7
ARIAL
  0
TEXT
  5
FFBBDAE469BC3969
  8
0
  6
CONTINUOUS
 10
-44.610328030034822
 20
-9.1028021527301792
 30
0.0
 40
4.0
  1
minimum
 50
90.0
  7
ARIAL
  0
ENDBLK
  5
FFBBDAE469BC396B
  8
0
  0
BLOCK
  8
0
  2
*U53
 70
     1
 10
0.0
 20
0.0
 30
0.0
  3
*U53
  1

  0
TEXT
  5
FFBBDAE469BC396D
  8
0
  6
CONTINUOUS
 10
-44.621242081876552
 20
20.04603908109646
 30
0.0
 40
4.0
  1
15mm
 50
90.0
  7
ARIAL
  0
ENDBLK
  5
FFBBDAE469BC396F
  8
0
  0
ENDSEC
  0
SECTION
  2
ENTITIES
  0
POLYLINE
  5
FFBBDAE469BC0CE9
  8
0
  6
CONTINUOUS
 66
     1
 10
0.0
 20
0.0
 30
0.0
  0
VERTEX
  5
FFBBDAE469BC36FF
  8
0
  6
CONTINUOUS
 10
134.93977998801341
 20
0.0
 30
0.0
  0
VERTEX
  5
FFBBDAE469BC3700
  8
0
  6
CONTINUOUS
 10
90.0
 20
0.0
 30
0.0
  0
VERTEX
  5
FFBBDAE469BC3701
  8
0
  6
CONTINUOUS
 10
90.0
 20
-35.0
 30
0.0
  0
VERTEX
  5
FFBBDAE469BC3702
  8
0
  6
CONTINUOUS
 10
161.14672796332979
 20
-35.0
 30
0.0
  0
SEQEND
  5
FFBBDAE469BC3703
  8
0
  6
CONTINUOUS
  0
LINE
  5
FFBBDAE469BC0CEA
  8
0
  6
CONTINUOUS
 10
0.0
 20
204.0000000000002
 30
0.0
 11
42.20000000000072
 21
182.89999999999981
 31
0.0
  0
POLYLINE
  5
FFBBDAE469BC0CEB
  8
0
  6
CONTINUOUS
 66
     1
 10
0.0
 20
0.0
 30
0.0
  0
VERTEX
  5
FFBBDAE469BC3704
  8
0
  6
CONTINUOUS
 10
0.0
 20
204.0000000000002
 30
0.0
  0
VERTEX
  5
FFBBDAE469BC3705
  8
0
  6
CONTINUOUS
 10
0.0
 20
182.89999999999981
 30
0.0
  0
SEQEND
  5
FFBBDAE469BC3706
  8
0
  6
CONTINUOUS
  0
LINE
  5
FFBBDAE469BC0CEC
  8
0
  6
CONTINUOUS
 10
0.0
 20
159.0
 30
0.0
 11
42.199999999999811
 21
180.10000000000011
 31
0.0
  0
POLYLINE
  5
FFBBDAE469BC0CED
  8
0
  6
CONTINUOUS
 66
     1
 10
0.0
 20
0.0
 30
0.0
  0
VERTEX
  5
FFBBDAE469BC3707
  8
0
  6
CONTINUOUS
 10
45.0
 20
140.0
 30
0.0
  0
VERTEX
  5
FFBBDAE469BC3708
  8
0
  6
CONTINUOUS
 10
0.0
 20
140.0
 30
0.0
  0
VERTEX
  5
FFBBDAE469BC3709
  8
0
  6
CONTINUOUS
 10
0.0
 20
129.3995303733536
 30
0.0
  0
SEQEND
  5
FFBBDAE469BC370A
  8
0
  6
CONTINUOUS
  0
LINE
  5
FFBBDAE469BC0CEE
  8
0
  6
CONTINUOUS
 10
11.35099999999875
 20
159.0
 30
0.0
 11
161.14672796332979
 21
159.0
 31
0.0
  0
LINE
  5
FFBBDAE469BC0CEF
  8
0
  6
CONTINUOUS
 10
10.0
 20
140.0
 30
0.0
 11
161.14672796332979
 21
140.0
 31
0.0
  0
LINE
  5
FFBBDAE469BC0CF0
  8
0
  6
CONTINUOUS
 10
10.0
 20
159.0
 30
0.0
 11
10.0
 21
140.0
 31
0.0
  0
LINE
  5
FFBBDAE469BC0CF1
  8
0
  6
CONTINUOUS
 10
0.0
 20
0.0
 30
0.0
 11
42.200000000000273
 21
-21.10000000000025
 31
0.0
  0
POLYLINE
  5
FFBBDAE469BC0CF4
  8
0
  6
CONTINUOUS
 66
     1
 10
0.0
 20
0.0
 30
0.0
  0
VERTEX
  5
FFBBDAE469BC370B
  8
0
  6
CONTINUOUS
 10
0.0
 20
180.10000000000011
 30
0.0
  0
VERTEX
  5
FFBBDAE469BC370C
  8
0
  6
CONTINUOUS
 10
0.0
 20
159.0
 30
0.0
  0
VERTEX
  5
FFBBDAE469BC370D
  8
0
  6
CONTINUOUS
 10
90.0
 20
159.0
 30
0.0
  0
VERTEX
  5
FFBBDAE469BC370E
  8
0
  6
CONTINUOUS
 10
90.0
 20
204.0000000000002
 30
0.0
  0
VERTEX
  5
FFBBDAE469BC370F
  8
0
  6
CONTINUOUS
 10
0.0
 20
204.0000000000002
 30
0.0
  0
SEQEND
  5
FFBBDAE469BC3710
  8
0
  6
CONTINUOUS
  0
POLYLINE
  5
FFBBDAE469BC0CF5
  8
0
  6
CONTINUOUS
 66
     1
 10
0.0
 20
0.0
 30
0.0
  0
VERTEX
  5
FFBBDAE469BC3711
  8
0
  6
CONTINUOUS
 10
0.0
 20
0.0
 30
0.0
  0
VERTEX
  5
FFBBDAE469BC3712
  8
0
  6
CONTINUOUS
 10
0.0
 20
-21.10000000000036
 30
0.0
  0
SEQEND
  5
FFBBDAE469BC3713
  8
0
  6
CONTINUOUS
  0
LINE
  5
FFBBDAE469BC0CF6
  8
0
  6
CONTINUOUS
 10
90.0
 20
-45.0
 30
0.0
 11
90.0
 21
-55.752937845849367
 31
0.0
  0
LINE
  5
FFBBDAE469BC0CF7
  8
0
  6
CONTINUOUS
 10
90.0
 20
204.0000000000002
 30
0.0
 11
90.0
 21
214.1041698057152
 31
0.0
  0
LINE
  5
FFBBDAE469BC0CF8
  8
0
  6
CONTINUOUS
 10
0.0
 20
204.0000000000002
 30
0.0
 11
0.0
 21
214.1041698057152
 31
0.0
  0
LINE
  5
FFBBDAE469BC0CFB
  8
0
  6
CONTINUOUS
 10
90.0
 20
0.0
 30
0.0
 11
161.14672796332979
 21
0.0
 31
0.0
  0
POLYLINE
  5
FFBBDAE469BC0CFD
  8
0
  6
CONTINUOUS
 66
     1
 10
0.0
 20
0.0
 30
0.0
  0
VERTEX
  5
FFBBDAE469BC3714
  8
0
  6
CONTINUOUS
 10
0.0
 20
129.3995303733536
 30
0.0
  0
VERTEX
  5
FFBBDAE469BC3715
  8
0
  6
CONTINUOUS
 10
0.0
 20
61.955313890543941
 30
0.0
  0
SEQEND
  5
FFBBDAE469BC3716
  8
0
  6
CONTINUOUS
  0
LINE
  5
FFBBDAE469BC0CFE
  8
0
  6
CONTINUOUS
 10
90.0
 20
140.0
 30
0.0
 11
45.0
 21
0.0
 31
0.0
  0
LINE
  5
FFBBDAE469BC0CFF
  8
0
  6
CONTINUOUS
 10
45.0
 20
140.0
 30
0.0
 11
90.0
 21
0.0
 31
0.0
  0
POLYLINE
  5
FFBBDAE469BC0D00
  8
0
  6
CONTINUOUS
 66
     1
 10
0.0
 20
0.0
 30
0.0
  0
VERTEX
  5
FFBBDAE469BC3717
  8
0
  6
CONTINUOUS
 10
45.0
 20
127.3588023032831
 30
0.0
  0
VERTEX
  5
FFBBDAE469BC3718
  8
0
  6
CONTINUOUS
 10
45.0
 20
0.0
 30
0.0
  0
VERTEX
  5
FFBBDAE469BC3719
  8
0
  6
CONTINUOUS
 10
90.0
 20
0.0
 30
0.0
  0
VERTEX
  5
FFBBDAE469BC371A
  8
0
  6
CONTINUOUS
 10
90.0
 20
140.0
 30
0.0
  0
SEQEND
  5
FFBBDAE469BC371B
  8
0
  6
CONTINUOUS
  0
LINE
  5
FFBBDAE469BC0D01
  8
0
  6
CONTINUOUS
 10
-18.809479789018489
 20
20.432437117796891
 30
0.0
 11
-3.5000000000009091
 21
20.432437117796781
 31
0.0
  0
LINE
  5
FFBBDAE469BC0D03
  8
0
  6
PHANTOM
 10
-1.0000000000004541
 20
214.1041698057152
 30
0.0
 11
-1.0000000000004541
 21
182.89999999999969
 31
0.0
  0
LINE
  5
FFBBDAE469BC0D04
  8
0
  6
CONTINUOUS
 10
161.14672796332979
 20
-14.248871010695551
 30
0.0
 11
90.0
 21
-35.0
 31
0.0
  0
LINE
  5
FFBBDAE469BC0D05
  8
0
  6
CONTINUOUS
 10
90.0
 20
0.0
 30
0.0
 11
161.14672796332979
 21
-20.751128989304451
 31
0.0
  0
POLYLINE
  5
FFBBDAE469BC0D06
  8
0
  6
CONTINUOUS
 66
     1
 10
0.0
 20
0.0
 30
0.0
  0
VERTEX
  5
FFBBDAE469BC371C
  8
0
  6
CONTINUOUS
 10
0.0
 20
61.955313890543941
 30
0.0
  0
VERTEX
  5
FFBBDAE469BC371D
  8
0
  6
CONTINUOUS
 10
0.0
 20
0.0
 30
0.0
  0
VERTEX
  5
FFBBDAE469BC371E
  8
0
  6
CONTINUOUS
 10
45.0
 20
0.0
 30
0.0
  0
VERTEX
  5
FFBBDAE469BC371F
  8
0
  6
CONTINUOUS
 10
45.0
 20
128.8942584434235
 30
0.0
  0
SEQEND
  5
FFBBDAE469BC3720
  8
0
  6
CONTINUOUS
  0
LINE
  5
FFBBDAE469BC0D07
  8
0
  6
PHANTOM
 10
-1.0000000000009091
 20
61.955313890543941
 30
0.0
 11
-0.9999999999995453
 21
-21.10000000000036
 31
0.0
  0
LINE
  5
FFBBDAE469BC0D0A
  8
0
  6
CONTINUOUS
 10
0.0
 20
-45.0
 30
0.0
 11
42.199999999999811
 21
-23.900000000000201
 31
0.0
  0
LINE
  5
FFBBDAE469BC0D0C
  8
0
  6
CONTINUOUS
 10
0.0
 20
140.0
 30
0.0
 11
45.0
 21
0.0
 31
0.0
  0
LINE
  5
FFBBDAE469BC0D10
  8
0
  6
CONTINUOUS
 10
-3.5000000000018181
 20
214.1041698057152
 30
0.0
 11
-3.5000000000013638
 21
182.89999999999961
 31
0.0
  0
LINE
  5
FFBBDAE469BC0D11
  8
0
  6
CONTINUOUS
 10
-18.809479789015771
 20
214.1041698057152
 30
0.0
 11
-18.809479789018489
 21
111.4327999999999
 31
0.0
  0
LINE
  5
FFBBDAE469BC0D12
  8
0
  6
CONTINUOUS
 10
-3.5000000000004539
 20
20.432437117796891
 30
0.0
 11
-3.5000000000018181
 21
-21.10000000000036
 31
0.0
  0
LINE
  5
FFBBDAE469BC0D29
  8
0
  6
PHANTOM
 10
-1.0000000000009091
 20
180.10000000000019
 30
0.0
 11
-1.0000000000009091
 21
61.955313890543941
 31
0.0
  0
LINE
  5
FFBBDAE469BC0D2B
  8
0
  6
CONTINUOUS
 10
0.0
 20
-45.0
 30
0.0
 11
0.0
 21
-55.752937845849367
 31
0.0
  0
LINE
  5
FFBBDAE469BC0D2C
  8
0
  6
CONTINUOUS
 10
-18.80947978901758
 20
-20.924999999999159
 30
0.0
 11
-18.80947978901758
 21
-13.767200000000109
 31
0.0
  0
LINE
  5
FFBBDAE469BC0D39
  8
0
  6
CONTINUOUS
 10
45.0
 20
140.0
 30
0.0
 11
12.31978503861091
 21
38.328220120120712
 31
0.0
  0
POLYLINE
  5
FFBBDAE469BC0D3C
  8
0
  6
CONTINUOUS
 66
     1
 10
0.0
 20
0.0
 30
0.0
  0
VERTEX
  5
FFBBDAE469BC3721
  8
0
  6
CONTINUOUS
 10
45.0
 20
128.8942584434235
 30
0.0
  0
VERTEX
  5
FFBBDAE469BC3722
  8
0
  6
CONTINUOUS
 10
45.0
 20
140.0
 30
0.0
  0
SEQEND
  5
FFBBDAE469BC3723
  8
0
  6
CONTINUOUS
  0
LINE
  5
FFBBDAE469BC0D46
  8
0
  6
CONTINUOUS
 10
-33.009479789018769
 20
-55.752937845849367
 30
0.0
 11
-33.009479789020133
 21
17.232809882806009
 31
0.0
  0
LINE
  5
FFBBDAE469BC0D47
  8
0
  6
CONTINUOUS
 10
-33.009479789020133
 20
17.232809882806009
 30
0.0
 11
-24.009479789018311
 21
17.232809882806009
 31
0.0
  0
LINE
  5
FFBBDAE469BC0D48
  8
0
  6
CONTINUOUS
 10
-24.009479789018311
 20
17.232809882806009
 30
0.0
 11
-24.00947978901786
 21
-11.767200000000109
 31
0.0
  0
LINE
  5
FFBBDAE469BC0D56
  8
0
  6
CONTINUOUS
 10
-18.809479789018489
 20
-25.042694078876369
 30
0.0
 11
-18.809479789018042
 21
-23.5
 31
0.0
  0
LINE
  5
FFBBDAE469BC0D58
  8
0
  6
CONTINUOUS
 10
-18.809479789018489
 20
-55.752937845849367
 30
0.0
 11
-18.809479789018489
 21
-13.767190117193991
 31
0.0
  0
LINE
  5
FFBBDAE469BC0DB4
  8
0
  6
CONTINUOUS
 10
-33.009479789019679
 20
35.432809882806062
 30
0.0
 11
-24.009479789016041
 21
35.432809882806062
 31
0.0
  0
LINE
  5
FFBBDAE469BC0DB5
  8
0
  6
CONTINUOUS
 10
-33.009479789019217
 20
35.432809882806062
 30
0.0
 11
-33.009479789020588
 21
214.1041698057152
 31
0.0
  0
LINE
  5
FFBBDAE469BC0DB6
  8
0
  6
CONTINUOUS
 10
-24.00947978901559
 20
214.1041698057152
 30
0.0
 11
-24.00947978901468
 21
111.4327999999999
 31
0.0
  0
DIMENSION
  5
FFBBDAE469BC0DBA
  8
0
  6
CONTINUOUS
  2
*D2
 10
-42.544843718984339
 20
35.432809882806062
 30
0.0
 11
-42.544843718984339
 21
27.932805793238341
 31
0.0
 70
   128
 13
-34.141058496091318
 23
20.432801703669501
 33
0.0
 14
-35.641058496092228
 24
35.432809882806062
 34
0.0
 50
90.0
  0
LINE
  5
FFBBDAE469BC0FCC
  8
0
  6
CONTINUOUS
 10
-3.5000000000013638
 20
180.10000000000011
 30
0.0
 11
-3.5
 21
35.432437117796781
 31
0.0
  0
LINE
  5
FFBBDAE469BC0FCE
  8
0
  6
CONTINUOUS
 10
-3.5000000000022728
 20
-23.900000000000201
 30
0.0
 11
-3.5
 21
-55.752937845849367
 31
0.0
  0
LINE
  5
FFBBDAE469BC0FCF
  8
0
  6
PHANTOM
 10
-1.0
 20
-23.900000000000091
 30
0.0
 11
-0.9999999999995453
 21
-55.752937845849367
 31
0.0
  0
POLYLINE
  5
FFBBDAE469BC0FD0
  8
0
  6
CONTINUOUS
 66
     1
 10
0.0
 20
0.0
 30
0.0
  0
VERTEX
  5
FFBBDAE469BC3724
  8
0
  6
CONTINUOUS
 10
0.0
 20
-23.900000000000091
 30
0.0
  0
VERTEX
  5
FFBBDAE469BC3725
  8
0
  6
CONTINUOUS
 10
0.0
 20
-45.0
 30
0.0
  0
VERTEX
  5
FFBBDAE469BC3726
  8
0
  6
CONTINUOUS
 10
90.0
 20
-45.0
 30
0.0
  0
VERTEX
  5
FFBBDAE469BC3727
  8
0
  6
CONTINUOUS
 10
90.0
 20
0.0
 30
0.0
  0
VERTEX
  5
FFBBDAE469BC3728
  8
0
  6
CONTINUOUS
 10
0.0
 20
0.0
 30
0.0
  0
SEQEND
  5
FFBBDAE469BC3729
  8
0
  6
CONTINUOUS
  0
POLYLINE
  5
FFBBDAE469BC0FD3
  8
0
  6
CONTINUOUS
 66
     1
 10
0.0
 20
0.0
 30
0.0
  0
VERTEX
  5
FFBBDAE469BC372A
  8
0
  6
CONTINUOUS
 10
-6.0094797890192231
 20
-11.767200000000109
 30
0.0
  0
VERTEX
  5
FFBBDAE469BC372B
  8
0
  6
CONTINUOUS
 10
-6.0094797890192231
 20
-13.767200000000109
 30
0.0
  0
VERTEX
  5
FFBBDAE469BC372C
  8
0
  6
CONTINUOUS
 10
-33.009479789019217
 20
-13.767200000000109
 30
0.0
  0
VERTEX
  5
FFBBDAE469BC372D
  8
0
  6
CONTINUOUS
 10
-33.009479789019217
 20
-11.767200000000109
 30
0.0
  0
VERTEX
  5
FFBBDAE469BC372E
  8
0
  6
CONTINUOUS
 10
-6.0094797890192231
 20
-11.767200000000109
 30
0.0
  0
SEQEND
  5
FFBBDAE469BC372F
  8
0
  6
CONTINUOUS
  0
LINE
  5
FFBBDAE469BC0FD4
  8
0
  6
CENTER
 10
-33.009479789019217
 20
-12.767200000000109
 30
0.0
 11
-6.0094797890192231
 21
-12.767200000000109
 31
0.0
  0
LINE
  5
FFBBDAE469BC0FD5
  8
0
  6
CONTINUOUS
 10
-31.009479789019231
 20
-11.767200000000109
 30
0.0
 11
-31.009479789019231
 21
-13.767200000000109
 31
0.0
  0
LINE
  5
FFBBDAE469BC0FD6
  8
0
  6
CONTINUOUS
 10
-10.00947978901922
 20
-11.767200000000109
 30
0.0
 11
-10.00947978901922
 21
-13.767200000000109
 31
0.0
  0
DIMENSION
  5
FFBBDAE469BC0FDB
  8
0
  6
CONTINUOUS
  2
*D3
 10
-42.544843718984339
 20
17.232809882806009
 30
0.0
 11
-42.544843718984339
 21
2.232804941403514
 31
0.0
 70
   128
  1
30mm\Pminimum
 13
-36.478451362284893
 23
-12.767200000000109
 33
0.0
 14
-36.478451362284893
 24
17.232809882806009
 34
0.0
 50
90.0
  0
POLYLINE
  5
FFBBDAE469BC0FF2
  8
0
  6
CONTINUOUS
 66
     1
 10
0.0
 20
0.0
 30
0.0
  0
VERTEX
  5
FFBBDAE469BC3730
  8
0
  6
CONTINUOUS
 10
-6.0094797890192231
 20
111.4327999999999
 30
0.0
  0
VERTEX
  5
FFBBDAE469BC3731
  8
0
  6
CONTINUOUS
 10
-6.0094797890192231
 20
109.4327999999999
 30
0.0
  0
VERTEX
  5
FFBBDAE469BC3732
  8
0
  6
CONTINUOUS
 10
-33.009479789019217
 20
109.4327999999999
 30
0.0
  0
VERTEX
  5
FFBBDAE469BC3733
  8
0
  6
CONTINUOUS
 10
-33.009479789019217
 20
111.4327999999999
 30
0.0
  0
VERTEX
  5
FFBBDAE469BC3734
  8
0
  6
CONTINUOUS
 10
-6.0094797890192231
 20
111.4327999999999
 30
0.0
  0
SEQEND
  5
FFBBDAE469BC3735
  8
0
  6
CONTINUOUS
  0
LINE
  5
FFBBDAE469BC0FF3
  8
0
  6
CENTER
 10
-33.009479789019217
 20
110.4327999999999
 30
0.0
 11
-6.0094797890192231
 21
110.4327999999999
 31
0.0
  0
LINE
  5
FFBBDAE469BC0FF4
  8
0
  6
CONTINUOUS
 10
-31.009479789019231
 20
111.4327999999999
 30
0.0
 11
-31.009479789019231
 21
109.4327999999999
 31
0.0
  0
LINE
  5
FFBBDAE469BC0FF5
  8
0
  6
CONTINUOUS
 10
-10.00947978901922
 20
111.4327999999999
 30
0.0
 11
-10.00947978901922
 21
109.4327999999999
 31
0.0
  0
DIMENSION
  5
FFBBDAE469BC1016
  8
0
  6
CONTINUOUS
  2
*D4
 10
-42.5448453661188
 20
110.432809882806
 30
0.0
 11
-46.578951778124271
 21
72.932804941402992
 31
0.0
 70
     0
 13
-35.641058496092228
 23
35.432799999999929
 33
0.0
 14
-34.509479789020133
 24
110.432809882806
 34
0.0
 50
90.0
  0
LINE
  5
FFBBDAE469BC106B
  8
0
  6
CONTINUOUS
 10
-24.00947978901786
 20
-13.76720988280624
 30
0.0
 11
-24.009479789016499
 21
-55.752937845849033
 31
0.0
  0
LINE
  5
FFBBDAE469BC106D
  8
0
  6
CONTINUOUS
 10
-18.80947978901758
 20
-11.767200000000109
 30
0.0
 11
-18.809479789018489
 21
20.432437117796891
 31
0.0
  0
LINE
  5
FFBBDAE469BC1134
  8
0
  6
DIVIDE2
 10
-34.009479789018769
 20
-55.752937845849367
 30
0.0
 11
-34.009479789020141
 21
2.2306343076893418
 31
0.0
  0
LINE
  5
FFBBDAE469BC1135
  8
0
  6
DIVIDE2
 10
-34.009479789018307
 20
34.432809882806048
 30
0.0
 11
-34.009479789020588
 21
214.1041698057152
 31
0.0
  0
LINE
  5
FFBBDAE469BC1140
  8
0
  6
DIVIDE2
 10
-34.009479789018769
 20
34.432809882805941
 30
0.0
 11
-24.009479789016041
 21
34.432809882805941
 31
0.0
  0
LINE
  5
FFBBDAE469BC13FA
  8
0
  6
CONTINUOUS
 10
56.833336861266623
 20
-28.416668430633312
 30
0.0
 11
90.0
 21
-45.0
 31
0.0
  0
LINE
  5
FFBBDAE469BC14A1
  8
0
  6
CONTINUOUS
 10
-24.00947978901559
 20
109.4327999999999
 30
0.0
 11
-24.00947978901559
 21
35.432809882806168
 31
0.0
  0
LINE
  5
FFBBDAE469BC14A2
  8
0
  6
CONTINUOUS
 10
-18.809479789018042
 20
109.4327999999999
 30
0.0
 11
-18.80947978902168
 21
35.432437117796781
 31
0.0
  0
LINE
  5
FFBBDAE469BC14F0
  8
0
  6
CENTER
 10
-21.331274554387619
 20
181.5000000000002
 30
0.0
 11
49.263938756065727
 21
181.5000000000002
 31
0.0
  0
LINE
  5
FFBBDAE469BC14F1
  8
0
  6
CONTINUOUS
 10
-18.809479789017129
 20
185.0000000000002
 30
0.0
 11
-18.809479789017129
 21
178.0000000000002
 31
0.0
  0
LINE
  5
FFBBDAE469BC14F2
  8
0
  6
CONTINUOUS
 10
42.54339552041165
 20
182.89999999999981
 30
0.0
 11
46.190520210982861
 21
181.5000000000002
 31
0.0
  0
LINE
  5
FFBBDAE469BC14F3
  8
0
  6
CONTINUOUS
 10
-17.746786484911809
 20
182.89999999999981
 30
0.0
 11
42.543395520412098
 21
182.89999999999981
 31
0.0
  0
LINE
  5
FFBBDAE469BC14F4
  8
0
  6
CONTINUOUS
 10
-17.746786484911809
 20
180.10000000000011
 30
0.0
 11
42.54339552041165
 21
180.10000000000011
 31
0.0
  0
LINE
  5
FFBBDAE469BC14F5
  8
0
  6
CONTINUOUS
 10
42.54339552041165
 20
180.10000000000011
 30
0.0
 11
46.190520210982861
 21
181.5000000000002
 31
0.0
  0
LINE
  5
FFBBDAE469BC14F6
  8
0
  6
CONTINUOUS
 10
-18.309479789017129
 20
185.0000000000002
 30
0.0
 11
-18.309479789017129
 21
178.0000000000002
 31
0.0
  0
LINE
  5
FFBBDAE469BC14F7
  8
0
  6
CONTINUOUS
 10
-18.809479789017129
 20
185.0000000000002
 30
0.0
 11
-18.309479789017129
 21
185.0000000000002
 31
0.0
  0
LINE
  5
FFBBDAE469BC14F8
  8
0
  6
CONTINUOUS
 10
-18.809479789017129
 20
178.0000000000002
 30
0.0
 11
-18.309479789017129
 21
178.0000000000002
 31
0.0
  0
LINE
  5
FFBBDAE469BC14F9
  8
0
  6
CONTINUOUS
 10
-17.746786484911809
 20
180.10000000000011
 30
0.0
 11
-18.309479789017129
 21
178.0000000000002
 31
0.0
  0
LINE
  5
FFBBDAE469BC14FA
  8
0
  6
CONTINUOUS
 10
-17.746786484911809
 20
182.89999999999981
 30
0.0
 11
-18.309479789017129
 21
185.0000000000002
 31
0.0
  0
LINE
  5
FFBBDAE469BC14FB
  8
0
  6
CONTINUOUS
 10
-17.746786484911809
 20
182.89999999999981
 30
0.0
 11
-17.746786484911809
 21
180.10000000000011
 31
0.0
  0
LINE
  5
FFBBDAE469BC14FC
  8
0
  6
CONTINUOUS
 10
-13.80947978901713
 20
182.37828892789841
 30
0.0
 11
-13.80947978901713
 21
180.62171107210199
 31
0.0
  0
LINE
  5
FFBBDAE469BC14FD
  8
0
  6
CONTINUOUS
 10
-5.8094797890171321
 20
182.37828892789841
 30
0.0
 11
-5.8094797890171321
 21
180.62171107210199
 31
0.0
  0
LINE
  5
FFBBDAE469BC14FE
  8
0
  6
CONTINUOUS
 10
-12.50947978901695
 20
182.37828892789841
 30
0.0
 11
-12.50947978901695
 21
180.62171107210199
 31
0.0
  0
LINE
  5
FFBBDAE469BC14FF
  8
0
  6
CONTINUOUS
 10
-11.20947978901722
 20
182.37828892789841
 30
0.0
 11
-11.20947978901722
 21
180.62171107210199
 31
0.0
  0
LINE
  5
FFBBDAE469BC1500
  8
0
  6
CONTINUOUS
 10
-9.9094797890170412
 20
182.37828892789841
 30
0.0
 11
-9.9094797890170412
 21
180.62171107210199
 31
0.0
  0
LINE
  5
FFBBDAE469BC1501
  8
0
  6
CONTINUOUS
 10
-8.609479789017314
 20
182.37828892789841
 30
0.0
 11
-8.609479789017314
 21
180.62171107210199
 31
0.0
  0
LINE
  5
FFBBDAE469BC1502
  8
0
  6
CONTINUOUS
 10
-7.3094797890171321
 20
182.37828892789841
 30
0.0
 11
-7.3094797890171321
 21
180.62171107210199
 31
0.0
  0
LINE
  5
FFBBDAE469BC1503
  8
0
  6
CONTINUOUS
 10
11.19052021098287
 20
183.2500000000002
 30
0.0
 11
11.19052021098287
 21
179.7500000000002
 31
0.0
  0
LINE
  5
FFBBDAE469BC1504
  8
0
  6
CONTINUOUS
 10
12.69052021098287
 20
183.2500000000002
 30
0.0
 11
12.69052021098287
 21
179.7500000000002
 31
0.0
  0
LINE
  5
FFBBDAE469BC1505
  8
0
  6
CONTINUOUS
 10
14.19052021098287
 20
183.2500000000002
 30
0.0
 11
14.19052021098287
 21
179.7500000000002
 31
0.0
  0
LINE
  5
FFBBDAE469BC1506
  8
0
  6
CONTINUOUS
 10
15.690520210982861
 20
183.2500000000002
 30
0.0
 11
15.690520210982861
 21
179.7500000000002
 31
0.0
  0
LINE
  5
FFBBDAE469BC1507
  8
0
  6
CONTINUOUS
 10
17.190520210982871
 20
183.2500000000002
 30
0.0
 11
17.190520210982871
 21
179.7500000000002
 31
0.0
  0
LINE
  5
FFBBDAE469BC1508
  8
0
  6
CONTINUOUS
 10
18.690520210982871
 20
183.2500000000002
 30
0.0
 11
18.690520210982871
 21
179.7500000000002
 31
0.0
  0
LINE
  5
FFBBDAE469BC1509
  8
0
  6
CONTINUOUS
 10
20.190520210982871
 20
183.2500000000002
 30
0.0
 11
20.190520210982871
 21
179.7500000000002
 31
0.0
  0
LINE
  5
FFBBDAE469BC150A
  8
0
  6
CONTINUOUS
 10
21.690520210982871
 20
183.2500000000002
 30
0.0
 11
21.690520210982871
 21
179.7500000000002
 31
0.0
  0
LINE
  5
FFBBDAE469BC150B
  8
0
  6
CONTINUOUS
 10
23.190520210982871
 20
183.2500000000002
 30
0.0
 11
23.190520210982871
 21
179.7500000000002
 31
0.0
  0
LINE
  5
FFBBDAE469BC150C
  8
0
  6
CONTINUOUS
 10
24.690520210982871
 20
183.2500000000002
 30
0.0
 11
24.690520210982871
 21
179.7500000000002
 31
0.0
  0
LINE
  5
FFBBDAE469BC150D
  8
0
  6
CONTINUOUS
 10
26.190520210982871
 20
183.2500000000002
 30
0.0
 11
26.190520210982871
 21
179.7500000000002
 31
0.0
  0
LINE
  5
FFBBDAE469BC150E
  8
0
  6
CONTINUOUS
 10
27.690520210982871
 20
183.2500000000002
 30
0.0
 11
27.690520210982871
 21
179.7500000000002
 31
0.0
  0
LINE
  5
FFBBDAE469BC150F
  8
0
  6
CONTINUOUS
 10
29.190520210982871
 20
183.2500000000002
 30
0.0
 11
29.190520210982871
 21
179.7500000000002
 31
0.0
  0
LINE
  5
FFBBDAE469BC1510
  8
0
  6
CONTINUOUS
 10
30.690520210982871
 20
183.2500000000002
 30
0.0
 11
30.690520210982871
 21
179.7500000000002
 31
0.0
  0
LINE
  5
FFBBDAE469BC1511
  8
0
  6
CONTINUOUS
 10
32.190520210982868
 20
183.2500000000002
 30
0.0
 11
32.190520210982868
 21
179.7500000000002
 31
0.0
  0
LINE
  5
FFBBDAE469BC1512
  8
0
  6
CONTINUOUS
 10
33.690520210982868
 20
183.2500000000002
 30
0.0
 11
33.690520210982868
 21
179.7500000000002
 31
0.0
  0
LINE
  5
FFBBDAE469BC1513
  8
0
  6
CONTINUOUS
 10
35.190520210982868
 20
183.2500000000002
 30
0.0
 11
35.190520210982868
 21
179.7500000000002
 31
0.0
  0
LINE
  5
FFBBDAE469BC1514
  8
0
  6
CONTINUOUS
 10
36.690520210982868
 20
183.2500000000002
 30
0.0
 11
36.690520210982868
 21
179.7500000000002
 31
0.0
  0
LINE
  5
FFBBDAE469BC1515
  8
0
  6
CONTINUOUS
 10
38.190520210982868
 20
183.2500000000002
 30
0.0
 11
38.190520210982868
 21
179.7500000000002
 31
0.0
  0
LINE
  5
FFBBDAE469BC1516
  8
0
  6
CONTINUOUS
 10
39.690520210982868
 20
183.2500000000002
 30
0.0
 11
39.690520210982868
 21
179.7500000000002
 31
0.0
  0
LINE
  5
FFBBDAE469BC1517
  8
0
  6
CONTINUOUS
 10
41.190520210982861
 20
183.2500000000002
 30
0.0
 11
41.190520210982861
 21
179.7500000000002
 31
0.0
  0
LINE
  5
FFBBDAE469BC1518
  8
0
  6
CONTINUOUS
 10
-2.3094797890171321
 20
183.2500000000002
 30
0.0
 11
-2.3094797890171321
 21
179.7500000000002
 31
0.0
  0
LINE
  5
FFBBDAE469BC1519
  8
0
  6
CONTINUOUS
 10
-0.8094797890171321
 20
183.2500000000002
 30
0.0
 11
-0.8094797890171321
 21
179.7500000000002
 31
0.0
  0
LINE
  5
FFBBDAE469BC151A
  8
0
  6
CONTINUOUS
 10
0.6905202109828679
 20
183.2500000000002
 30
0.0
 11
0.6905202109828679
 21
179.7500000000002
 31
0.0
  0
LINE
  5
FFBBDAE469BC151B
  8
0
  6
CONTINUOUS
 10
2.190520210982867
 20
183.2500000000002
 30
0.0
 11
2.190520210982867
 21
179.7500000000002
 31
0.0
  0
LINE
  5
FFBBDAE469BC151C
  8
0
  6
CONTINUOUS
 10
3.690520210982867
 20
183.2500000000002
 30
0.0
 11
3.690520210982867
 21
179.7500000000002
 31
0.0
  0
LINE
  5
FFBBDAE469BC151D
  8
0
  6
CONTINUOUS
 10
5.190520210982867
 20
183.2500000000002
 30
0.0
 11
5.190520210982867
 21
179.7500000000002
 31
0.0
  0
LINE
  5
FFBBDAE469BC151E
  8
0
  6
CONTINUOUS
 10
6.690520210982867
 20
183.2500000000002
 30
0.0
 11
6.690520210982867
 21
179.7500000000002
 31
0.0
  0
LINE
  5
FFBBDAE469BC151F
  8
0
  6
CONTINUOUS
 10
8.1905202109828679
 20
183.2500000000002
 30
0.0
 11
8.1905202109828679
 21
179.7500000000002
 31
0.0
  0
LINE
  5
FFBBDAE469BC1520
  8
0
  6
CONTINUOUS
 10
9.6905202109828679
 20
183.2500000000002
 30
0.0
 11
9.6905202109828679
 21
179.7500000000002
 31
0.0
  0
LINE
  5
FFBBDAE469BC1524
  8
0
  6
CENTER
 10
-21.33127455438899
 20
-22.5
 30
0.0
 11
49.263938756064363
 21
-22.5
 31
0.0
  0
LINE
  5
FFBBDAE469BC1525
  8
0
  6
CONTINUOUS
 10
-18.809479789018489
 20
-19.0
 30
0.0
 11
-18.809479789018489
 21
-26.0
 31
0.0
  0
LINE
  5
FFBBDAE469BC1526
  8
0
  6
CONTINUOUS
 10
42.543395520410279
 20
-21.10000000000036
 30
0.0
 11
46.190520210981497
 21
-22.5
 31
0.0
  0
LINE
  5
FFBBDAE469BC1527
  8
0
  6
CONTINUOUS
 10
-17.746786484913169
 20
-21.10000000000036
 30
0.0
 11
42.543395520410741
 21
-21.10000000000036
 31
0.0
  0
LINE
  5
FFBBDAE469BC1528
  8
0
  6
CONTINUOUS
 10
-17.746786484913169
 20
-23.900000000000091
 30
0.0
 11
42.543395520410279
 21
-23.900000000000091
 31
0.0
  0
LINE
  5
FFBBDAE469BC1529
  8
0
  6
CONTINUOUS
 10
42.543395520410279
 20
-23.900000000000091
 30
0.0
 11
46.190520210981497
 21
-22.5
 31
0.0
  0
LINE
  5
FFBBDAE469BC152A
  8
0
  6
CONTINUOUS
 10
-18.309479789018489
 20
-19.0
 30
0.0
 11
-18.309479789018489
 21
-26.0
 31
0.0
  0
LINE
  5
FFBBDAE469BC152B
  8
0
  6
CONTINUOUS
 10
-18.809479789018489
 20
-19.0
 30
0.0
 11
-18.309479789018489
 21
-19.0
 31
0.0
  0
LINE
  5
FFBBDAE469BC152C
  8
0
  6
CONTINUOUS
 10
-18.809479789018489
 20
-26.0
 30
0.0
 11
-18.309479789018489
 21
-26.0
 31
0.0
  0
LINE
  5
FFBBDAE469BC152D
  8
0
  6
CONTINUOUS
 10
-17.746786484913169
 20
-23.900000000000091
 30
0.0
 11
-18.309479789018489
 21
-26.0
 31
0.0
  0
LINE
  5
FFBBDAE469BC152E
  8
0
  6
CONTINUOUS
 10
-17.746786484913169
 20
-21.10000000000036
 30
0.0
 11
-18.309479789018489
 21
-19.0
 31
0.0
  0
LINE
  5
FFBBDAE469BC152F
  8
0
  6
CONTINUOUS
 10
-17.746786484913169
 20
-21.10000000000036
 30
0.0
 11
-17.746786484913169
 21
-23.900000000000091
 31
0.0
  0
LINE
  5
FFBBDAE469BC1530
  8
0
  6
CONTINUOUS
 10
-13.809479789018489
 20
-21.621711072101789
 30
0.0
 11
-13.809479789018489
 21
-23.378288927898211
 31
0.0
  0
LINE
  5
FFBBDAE469BC1531
  8
0
  6
CONTINUOUS
 10
-5.8094797890184964
 20
-21.621711072101789
 30
0.0
 11
-5.8094797890184964
 21
-23.378288927898211
 31
0.0
  0
LINE
  5
FFBBDAE469BC1532
  8
0
  6
CONTINUOUS
 10
-12.509479789018309
 20
-21.621711072101789
 30
0.0
 11
-12.509479789018309
 21
-23.378288927898211
 31
0.0
  0
LINE
  5
FFBBDAE469BC1533
  8
0
  6
CONTINUOUS
 10
-11.209479789018591
 20
-21.621711072101789
 30
0.0
 11
-11.209479789018591
 21
-23.378288927898211
 31
0.0
  0
LINE
  5
FFBBDAE469BC1534
  8
0
  6
CONTINUOUS
 10
-9.9094797890184054
 20
-21.621711072101789
 30
0.0
 11
-9.9094797890184054
 21
-23.378288927898211
 31
0.0
  0
LINE
  5
FFBBDAE469BC1535
  8
0
  6
CONTINUOUS
 10
-8.6094797890186783
 20
-21.621711072101789
 30
0.0
 11
-8.6094797890186783
 21
-23.378288927898211
 31
0.0
  0
LINE
  5
FFBBDAE469BC1536
  8
0
  6
CONTINUOUS
 10
-7.3094797890184964
 20
-21.621711072101789
 30
0.0
 11
-7.3094797890184964
 21
-23.378288927898211
 31
0.0
  0
LINE
  5
FFBBDAE469BC1537
  8
0
  6
CONTINUOUS
 10
11.1905202109815
 20
-20.75
 30
0.0
 11
11.1905202109815
 21
-24.25
 31
0.0
  0
LINE
  5
FFBBDAE469BC1538
  8
0
  6
CONTINUOUS
 10
12.6905202109815
 20
-20.75
 30
0.0
 11
12.6905202109815
 21
-24.25
 31
0.0
  0
LINE
  5
FFBBDAE469BC1539
  8
0
  6
CONTINUOUS
 10
14.1905202109815
 20
-20.75
 30
0.0
 11
14.1905202109815
 21
-24.25
 31
0.0
  0
LINE
  5
FFBBDAE469BC153A
  8
0
  6
CONTINUOUS
 10
15.6905202109815
 20
-20.75
 30
0.0
 11
15.6905202109815
 21
-24.25
 31
0.0
  0
LINE
  5
FFBBDAE469BC153B
  8
0
  6
CONTINUOUS
 10
17.1905202109815
 20
-20.75
 30
0.0
 11
17.1905202109815
 21
-24.25
 31
0.0
  0
LINE
  5
FFBBDAE469BC153C
  8
0
  6
CONTINUOUS
 10
18.6905202109815
 20
-20.75
 30
0.0
 11
18.6905202109815
 21
-24.25
 31
0.0
  0
LINE
  5
FFBBDAE469BC153D
  8
0
  6
CONTINUOUS
 10
20.190520210981511
 20
-20.75
 30
0.0
 11
20.190520210981511
 21
-24.25
 31
0.0
  0
LINE
  5
FFBBDAE469BC153E
  8
0
  6
CONTINUOUS
 10
21.6905202109815
 20
-20.75
 30
0.0
 11
21.6905202109815
 21
-24.25
 31
0.0
  0
LINE
  5
FFBBDAE469BC153F
  8
0
  6
CONTINUOUS
 10
23.1905202109815
 20
-20.75
 30
0.0
 11
23.1905202109815
 21
-24.25
 31
0.0
  0
LINE
  5
FFBBDAE469BC1540
  8
0
  6
CONTINUOUS
 10
24.6905202109815
 20
-20.75
 30
0.0
 11
24.6905202109815
 21
-24.25
 31
0.0
  0
LINE
  5
FFBBDAE469BC1541
  8
0
  6
CONTINUOUS
 10
26.190520210981511
 20
-20.75
 30
0.0
 11
26.190520210981511
 21
-24.25
 31
0.0
  0
LINE
  5
FFBBDAE469BC1542
  8
0
  6
CONTINUOUS
 10
27.690520210981511
 20
-20.75
 30
0.0
 11
27.690520210981511
 21
-24.25
 31
0.0
  0
LINE
  5
FFBBDAE469BC1543
  8
0
  6
CONTINUOUS
 10
29.190520210981511
 20
-20.75
 30
0.0
 11
29.190520210981511
 21
-24.25
 31
0.0
  0
LINE
  5
FFBBDAE469BC1544
  8
0
  6
CONTINUOUS
 10
30.6905202109815
 20
-20.75
 30
0.0
 11
30.6905202109815
 21
-24.25
 31
0.0
  0
LINE
  5
FFBBDAE469BC1545
  8
0
  6
CONTINUOUS
 10
32.190520210981497
 20
-20.75
 30
0.0
 11
32.190520210981497
 21
-24.25
 31
0.0
  0
LINE
  5
FFBBDAE469BC1546
  8
0
  6
CONTINUOUS
 10
33.690520210981511
 20
-20.75
 30
0.0
 11
33.690520210981511
 21
-24.25
 31
0.0
  0
LINE
  5
FFBBDAE469BC1547
  8
0
  6
CONTINUOUS
 10
35.190520210981511
 20
-20.75
 30
0.0
 11
35.190520210981511
 21
-24.25
 31
0.0
  0
LINE
  5
FFBBDAE469BC1548
  8
0
  6
CONTINUOUS
 10
36.690520210981497
 20
-20.75
 30
0.0
 11
36.690520210981497
 21
-24.25
 31
0.0
  0
LINE
  5
FFBBDAE469BC1549
  8
0
  6
CONTINUOUS
 10
38.190520210981497
 20
-20.75
 30
0.0
 11
38.190520210981497
 21
-24.25
 31
0.0
  0
LINE
  5
FFBBDAE469BC154A
  8
0
  6
CONTINUOUS
 10
39.690520210981497
 20
-20.75
 30
0.0
 11
39.690520210981497
 21
-24.25
 31
0.0
  0
LINE
  5
FFBBDAE469BC154B
  8
0
  6
CONTINUOUS
 10
41.190520210981497
 20
-20.75
 30
0.0
 11
41.190520210981497
 21
-24.25
 31
0.0
  0
LINE
  5
FFBBDAE469BC154C
  8
0
  6
CONTINUOUS
 10
-2.3094797890184959
 20
-20.75
 30
0.0
 11
-2.3094797890184959
 21
-24.25
 31
0.0
  0
LINE
  5
FFBBDAE469BC154D
  8
0
  6
CONTINUOUS
 10
-0.8094797890184963
 20
-20.75
 30
0.0
 11
-0.8094797890184963
 21
-24.25
 31
0.0
  0
LINE
  5
FFBBDAE469BC154E
  8
0
  6
CONTINUOUS
 10
0.6905202109815037
 20
-20.75
 30
0.0
 11
0.6905202109815037
 21
-24.25
 31
0.0
  0
LINE
  5
FFBBDAE469BC154F
  8
0
  6
CONTINUOUS
 10
2.1905202109815032
 20
-20.75
 30
0.0
 11
2.1905202109815032
 21
-24.25
 31
0.0
  0
LINE
  5
FFBBDAE469BC1550
  8
0
  6
CONTINUOUS
 10
3.6905202109815032
 20
-20.75
 30
0.0
 11
3.6905202109815032
 21
-24.25
 31
0.0
  0
LINE
  5
FFBBDAE469BC1551
  8
0
  6
CONTINUOUS
 10
5.1905202109815027
 20
-20.75
 30
0.0
 11
5.1905202109815027
 21
-24.25
 31
0.0
  0
LINE
  5
FFBBDAE469BC1552
  8
0
  6
CONTINUOUS
 10
6.6905202109815027
 20
-20.75
 30
0.0
 11
6.6905202109815027
 21
-24.25
 31
0.0
  0
LINE
  5
FFBBDAE469BC1553
  8
0
  6
CONTINUOUS
 10
8.1905202109815036
 20
-20.75
 30
0.0
 11
8.1905202109815036
 21
-24.25
 31
0.0
  0
LINE
  5
FFBBDAE469BC1554
  8
0
  6
CONTINUOUS
 10
9.6905202109815036
 20
-20.75
 30
0.0
 11
9.6905202109815036
 21
-24.25
 31
0.0
  0
DIMENSION
  5
FFBBDAE469BC1838
  8
0
  6
CONTINUOUS
  2
*D5
 10
-103.5316025832512
 20
-96.810804295327429
 30
0.0
 11
-103.5316025832512
 21
-114.3108042953274
 31
0.0
 70
   128
  1
35mm\Pmin
 13
-85.825789146912939
 23
-131.81080429532739
 33
0.0
 14
-85.825789146912939
 24
-96.810804295327443
 34
0.0
 50
90.0
  0
DIMENSION
  5
FFBBDAE469BC1839
  8
0
  6
CONTINUOUS
  2
*D6
 10
-103.5316025832512
 20
-181.8385369060577
 30
0.0
 11
-103.9876764224514
 21
-164.9255143993783
 31
0.0
 70
   128
  1
35mm\Pmin
 13
-92.465411581446006
 23
-146.81080429532739
 33
0.0
 14
-90.878704900863795
 24
-181.8385369060577
 34
0.0
 50
90.0
  0
LINE
  5
FFBBDAE469BC183A
  8
0
  6
CONTINUOUS
 10
-75.878704900863795
 20
-140.30388293009969
 30
0.0
 11
-86.715141591428164
 21
-140.30388293009969
 31
0.0
  0
DIMENSION
  5
FFBBDAE469BC183B
  8
0
  6
CONTINUOUS
  2
*D7
 10
-89.39634299106865
 20
-145.99647550076651
 30
0.0
 11
-75.081311116203324
 21
-157.90617674651571
 31
0.0
 70
   130
 13
-75.878704900863795
 23
-140.30388293009969
 33
0.0
 14
-91.738241097808427
 24
-140.30388293009969
 34
0.0
 15
-75.36106681065894
 25
-142.23573458267791
 35
0.0
 16
-86.996654014427847
 26
-141.95263791605231
 36
0.0
  0
LINE
  5
FFBBDAE469BC183C
  8
0
  6
CONTINUOUS
 10
-73.878704900863795
 20
-97.810804295327443
 30
0.0
 11
-73.878704900863795
 21
-140.30388293009969
 31
0.0
  0
ARC
  5
FFBBDAE469BC183D
  8
0
  6
CONTINUOUS
 10
-75.878704900863795
 20
-140.30388293009969
 30
0.0
 40
2.0
 50
284.99999999999437
 51
0.0
  0
LINE
  5
FFBBDAE469BC183E
  8
0
  6
CONTINUOUS
 10
-75.36106681065894
 20
-142.23573458267791
 30
0.0
 11
-89.39634299106865
 21
-145.99647550076651
 31
0.0
  0
ARC
  5
FFBBDAE469BC183F
  8
0
  6
CONTINUOUS
 10
-88.878704900863795
 20
-147.9283271533447
 30
0.0
 40
2.0000000000000022
 50
104.9999999999944
 51
180.0
  0
LINE
  5
FFBBDAE469BC1840
  8
0
  6
CONTINUOUS
 10
-90.878704900863795
 20
-147.9283271533447
 30
0.0
 11
-90.878704900863795
 21
-181.30263852119529
 31
0.0
  0
ARC
  5
FFBBDAE469BC1841
  8
0
  6
CONTINUOUS
 10
-92.878704900863795
 20
-181.30263852119489
 30
0.0
 40
2.0000000000004539
 50
329.99999999996709
 51
359.99999999998698
  0
LINE
  5
FFBBDAE469BC1842
  8
0
  6
CONTINUOUS
 10
-91.146654093295638
 20
-182.30263852119529
 30
0.0
 11
-93.378704900863795
 21
-186.16866392497991
 31
0.0
  0
LINE
  5
FFBBDAE469BC1843
  8
0
  6
CONTINUOUS
 10
-75.878704900864705
 20
-97.810804295327443
 30
0.0
 11
-75.878704900863795
 21
-101.8108042953274
 31
0.0
  0
ARC
  5
FFBBDAE469BC1845
  8
0
  6
CONTINUOUS
 10
-74.878704900863795
 20
-97.810804295327443
 30
0.0
 40
1.0
 50
0.0
 51
90.0
  0
ARC
  5
FFBBDAE469BC1846
  8
0
  6
CONTINUOUS
 10
-74.878704900864705
 20
-97.810804295327443
 30
0.0
 40
1.0
 50
90.0
 51
180.0
  0
POLYLINE
  5
FFBBDAE469BC19A8
  8
0
  6
HIDDEN
 66
     1
 10
0.0
 20
0.0
 30
0.0
  0
VERTEX
  5
FFBBDAE469BC3736
  8
0
  6
HIDDEN
 10
-31.00947978902013
 20
-55.752937845849367
 30
0.0
  0
VERTEX
  5
FFBBDAE469BC3737
  8
0
  6
HIDDEN
 10
-31.00947978902013
 20
17.232809882805888
 30
0.0
  0
SEQEND
  5
FFBBDAE469BC3738
  8
0
  6
HIDDEN
  0
POLYLINE
  5
FFBBDAE469BC19AA
  8
0
  6
HIDDEN
 66
     1
 10
0.0
 20
0.0
 30
0.0
  0
VERTEX
  5
FFBBDAE469BC3739
  8
0
  6
HIDDEN
 10
-31.009479789019231
 20
214.1041698057152
 30
0.0
  0
VERTEX
  5
FFBBDAE469BC373A
  8
0
  6
HIDDEN
 10
-31.009479789019231
 20
35.432809882806062
 30
0.0
  0
SEQEND
  5
FFBBDAE469BC373B
  8
0
  6
HIDDEN
  0
LINE
  5
FFBBDAE469BC19AF
  8
0
  6
CONTINUOUS
 10
-22.009626477336042
 20
-7.7123588744649387
 30
0.0
 11
-22.009626477335129
 21
-3.2448369306254099
 31
0.0
  0
LINE
  5
FFBBDAE469BC19B0
  8
0
  6
CONTINUOUS
 10
-21.759626477335129
 20
93.037641125535075
 30
0.0
 11
-21.259626477336042
 21
93.037641125535075
 31
0.0
  0
ARC
  5
FFBBDAE469BC19B1
  8
0
  6
CONTINUOUS
 10
-21.259626477335129
 20
92.78764112553506
 30
0.0
 40
0.25
 50
0.0
 51
90.0
  0
LINE
  5
FFBBDAE469BC19B2
  8
0
  6
CONTINUOUS
 10
-21.009626477336042
 20
92.78764112553506
 30
0.0
 11
-21.009626477336042
 21
41.755163069374589
 31
0.0
  0
LINE
  5
FFBBDAE469BC19B3
  8
0
  6
CONTINUOUS
 10
-22.63903599988635
 20
19.513207096161182
 30
0.0
 11
-33.060687540770687
 21
18.132864766930989
 31
0.0
  0
LINE
  5
FFBBDAE469BC19B4
  8
0
  6
CONTINUOUS
 10
-22.380216954783918
 20
20.617833630691511
 30
0.0
 11
-33.319506585873121
 21
19.098790593218268
 31
0.0
  0
LINE
  5
FFBBDAE469BC19B5
  8
0
  6
CONTINUOUS
 10
-21.759626477336042
 20
-7.9623588744649387
 30
0.0
 11
-21.259626477336042
 21
-7.9623588744649387
 31
0.0
  0
ARC
  5
FFBBDAE469BC19B6
  8
0
  6
CONTINUOUS
 10
-21.259626477335129
 20
-7.7123588744649387
 30
0.0
 40
0.25
 50
270.0
 51
0.0
  0
ARC
  5
FFBBDAE469BC19B7
  8
0
  6
CONTINUOUS
 10
-21.759626477335129
 20
-7.7123588744649387
 30
0.0
 40
0.25
 50
180.0
 51
270.0
  0
LINE
  5
FFBBDAE469BC19B8
  8
0
  6
CONTINUOUS
 10
-33.270921828936928
 20
2.7776985990370799
 30
0.0
 11
-33.740080751696503
 21
3.4477269794209628
 31
0.0
  0
LINE
  5
FFBBDAE469BC19B9
  8
0
  6
CONTINUOUS
 10
-36.274664975425821
 20
14.958624012295671
 30
0.0
 11
-34.832092575402839
 21
3.70553503717781
 31
0.0
  0
LINE
  5
FFBBDAE469BC19BA
  8
0
  6
CONTINUOUS
 10
-33.527962975311773
 20
2.292522803525912
 30
0.0
 11
-33.332315730921891
 21
2.4295164788785542
 31
0.0
  0
LINE
  5
FFBBDAE469BC19BB
  8
0
  6
CONTINUOUS
 10
-34.237813634636503
 20
2.6108122516619678
 30
0.0
 11
-33.821712754894641
 21
2.2975780622767839
 31
0.0
  0
ARC
  5
FFBBDAE469BC19BC
  8
0
  6
CONTINUOUS
 10
-33.47570984001004
 20
2.63430448994984
 30
0.0
 40
0.25
 50
305.00000000004428
 51
35.000000000015511
  0
LINE
  5
FFBBDAE469BC19BD
  8
0
  6
CONTINUOUS
 10
-21.009626477336042
 20
23.182329314029971
 30
0.0
 11
-21.009626477336042
 21
-3.2448369306254099
 31
0.0
  0
LINE
  5
FFBBDAE469BC19BE
  8
0
  6
CONTINUOUS
 10
-22.009626477336042
 20
23.309272786015189
 30
0.0
 11
-22.009626477336042
 21
41.755163069374589
 31
0.0
  0
ARC
  5
FFBBDAE469BC19BF
  8
0
  6
CONTINUOUS
 10
-33.671357084399922
 20
2.4973108145971992
 30
0.0
 40
0.25
 50
233.02814216819721
 51
305.00000000004428
  0
LINE
  5
FFBBDAE469BC19C0
  8
0
  6
CONTINUOUS
 10
-35.277056332934542
 20
15.02773983123768
 30
0.0
 11
-33.829309050798201
 21
3.6999572881271661
 31
0.0
  0
ARC
  5
FFBBDAE469BC19C2
  8
0
  6
CONTINUOUS
 10
-33.330504729552111
 20
3.7345151975972608
 30
0.0
 40
0.5
 50
183.96320437307639
 51
215.00000000001549
  0
ARC
  5
FFBBDAE469BC19C3
  8
0
  6
CONTINUOUS
 10
-33.335679611666357
 20
3.809208765591733
 30
0.0
 40
1.5
 50
183.96320437307639
 51
233.02814216819721
  0
LINE
  5
FFBBDAE469BC19C5
  8
0
  6
CONTINUOUS
 10
-22.009626477335129
 20
21.10079654383696
 30
0.0
 11
-22.009626477335129
 21
23.309272786015189
 31
0.0
  0
ARC
  5
FFBBDAE469BC19C6
  8
0
  6
CONTINUOUS
 10
-32.284230405463411
 20
15.23508728806371
 30
0.0
 40
3.0
 50
104.9999999999944
 51
183.96320437307639
  0
ARC
  5
FFBBDAE469BC19C7
  8
0
  6
CONTINUOUS
 10
-32.284230405463411
 20
15.235087288061891
 30
0.0
 40
4.0
 50
104.9999999999944
 51
183.96320437307639
  0
ARC
  5
FFBBDAE469BC19C8
  8
0
  6
CONTINUOUS
 10
-22.509626477335129
 20
21.10079654383696
 30
0.0
 40
0.5
 50
284.99999999999437
 51
0.0
  0
ARC
  5
FFBBDAE469BC19C9
  8
0
  6
CONTINUOUS
 10
-22.509626477335129
 20
19.030244183015721
 30
0.0
 40
0.5
 50
0.0
 51
104.9999999999944
  0
LINE
  5
FFBBDAE469BC19CA
  8
0
  6
CONTINUOUS
 10
-22.009626477335129
 20
-3.2448369306254099
 30
0.0
 11
-22.009626477335129
 21
19.030244183015721
 31
0.0
  0
LINE
  5
FFBBDAE469BC19CB
  8
0
  6
CONTINUOUS
 10
-21.009626477336042
 20
-3.2448369306254099
 30
0.0
 11
-21.009626477336042
 21
-7.7123588744649387
 31
0.0
  0
LINE
  5
FFBBDAE469BC19CC
  8
0
  6
CONTINUOUS
 10
-22.009626477336042
 20
41.755163069374589
 30
0.0
 11
-22.009626477336042
 21
92.78764112553506
 31
0.0
  0
LINE
  5
FFBBDAE469BC19CD
  8
0
  6
CONTINUOUS
 10
-21.009626477336042
 20
41.755163069374589
 30
0.0
 11
-21.009626477336042
 21
23.182329314029971
 31
0.0
  0
ARC
  5
FFBBDAE469BC19CE
  8
0
  6
CONTINUOUS
 10
-21.759626477335129
 20
92.78764112553506
 30
0.0
 40
0.25
 50
90.0
 51
180.0
  0
LINE
  5
FFBBDAE469BC19D5
  8
0
  6
CONTINUOUS
 10
-3.5
 20
35.432437117796901
 30
0.0
 11
-18.80947978902168
 21
35.432437117796781
 31
0.0
  0
POLYLINE
  5
FFBBDAE469BC19D6
  8
0
  6
HIDDEN
 66
     1
 10
0.0
 20
0.0
 30
0.0
  0
VERTEX
  5
FFBBDAE469BC373C
  8
0
  6
HIDDEN
 10
-3.5
 20
78.432437117796894
 30
0.0
  0
VERTEX
  5
FFBBDAE469BC373D
  8
0
  6
HIDDEN
 10
-18.80947978902168
 20
78.432437117796781
 30
0.0
  0
VERTEX
  5
FFBBDAE469BC373E
  8
0
  6
HIDDEN
 10
-18.80947978902168
 20
35.432437117796781
 30
0.0
  0
VERTEX
  5
FFBBDAE469BC373F
  8
0
  6
HIDDEN
 10
-3.5
 20
35.432437117796901
 30
0.0
  0
VERTEX
  5
FFBBDAE469BC3740
  8
0
  6
HIDDEN
 10
-3.5
 20
78.432437117796894
 30
0.0
  0
SEQEND
  5
FFBBDAE469BC3741
  8
0
  6
HIDDEN
  0
LINE
  5
FFBBDAE469BC19D7
  8
0
  6
CONTINUOUS
 10
-3.5000000000009091
 20
78.432437117796894
 30
0.0
 11
-18.80947978902168
 21
35.432437117796781
 31
0.0
  0
LINE
  5
FFBBDAE469BC19D8
  8
0
  6
CONTINUOUS
 10
45.51704546611699
 20
181.24147726694159
 30
0.0
 11
90.0
 21
159.0
 31
0.0
  0
LINE
  5
FFBBDAE469BC19D9
  8
0
  6
CONTINUOUS
 10
45.51704546611699
 20
181.7585227330589
 30
0.0
 11
90.0
 21
204.0000000000002
 31
0.0
  0
LINE
  5
FFBBDAE469BC19DA
  8
0
  6
CONTINUOUS
 10
45.517045466116087
 20
-22.758522733058609
 30
0.0
 11
56.833336861266623
 21
-28.416668430633312
 31
0.0
  0
LINE
  5
FFBBDAE469BC19DB
  8
0
  6
CONTINUOUS
 10
45.517045466116087
 20
-22.241477266941729
 30
0.0
 11
90.0
 21
0.0
 31
0.0
  0
POLYLINE
  5
FFBBDAE469BC1A2B
  8
0
  6
HIDDEN
 66
     1
 10
0.0
 20
0.0
 30
0.0
  0
VERTEX
  5
FFBBDAE469BC3742
  8
0
  6
HIDDEN
 10
-3.5000000000009091
 20
20.432437117796781
 30
0.0
  0
VERTEX
  5
FFBBDAE469BC3743
  8
0
  6
HIDDEN
 10
-18.809479789022589
 20
20.43243711779667
 30
0.0
  0
VERTEX
  5
FFBBDAE469BC3744
  8
0
  6
HIDDEN
 10
-18.809479789022589
 20
-22.56756288220334
 30
0.0
  0
VERTEX
  5
FFBBDAE469BC3745
  8
0
  6
HIDDEN
 10
-3.5000000000009091
 20
-22.567562882203219
 30
0.0
  0
VERTEX
  5
FFBBDAE469BC3746
  8
0
  6
HIDDEN
 10
-3.5000000000009091
 20
20.432437117796781
 30
0.0
  0
SEQEND
  5
FFBBDAE469BC3747
  8
0
  6
HIDDEN
  0
LINE
  5
FFBBDAE469BC1A2C
  8
0
  6
CONTINUOUS
 10
-3.5000000000018181
 20
20.432437117796781
 30
0.0
 11
-18.809479789022589
 21
-22.56756288220334
 31
0.0
  0
INSERT
  5
FFBBDAE469BC1A52
  8
0
  6
CONTINUOUS
  2
*U14
 10
0.0
 20
0.0
 30
0.0
1001
ACAD
1002
{
1000
R14_HATCH_DATA
1000
FFBBDAE469BC1A52
1011
1.0
1021
0.0
1031
0.0
1021
0.0
1031
0.0
1011
0.0
1021
0.0
1031
0.0
1021
1.0
1031
0.0
1011
0.0
1021
0.0
1031
0.0
1021
0.0
1031
1.0
1040
0.0
1010
0.0
1020
0.0
1030
1.0
1000
SOLID
1070
     1
1070
     0
1071
        1
1071
        7
1070
     1
1070
     1
1071
       30
1040
-21.009626477336042
1040
92.78764112553506
1040
0.4142135623730951
1040
-21.259626477336042
1040
93.037641125535075
1040
0.0
1040
-21.759626477335129
1040
93.037641125535075
1040
0.4142135623741606
1040
-22.009626477336042
1040
92.78764112553506
1040
0.0
1040
-22.009626477336042
1040
41.755163069374589
1040
0.0
1040
-22.009626477336042
1040
23.309272786015189
1040
0.0
1040
-22.009626477335129
1040
21.10079654383696
1040
-0.3394542588673992
1040
-22.38021695479074
1040
20.61783363069048
1040
0.0
1040
-33.319506585873121
1040
19.098790593218268
1040
0.3588554495824105
1040
-36.274664975426283
1040
14.95862401229885
1040
0.0
1040
-34.832092575402839
1040
3.70553503717781
1040
0.2174180037231727
1040
-34.23781363463695
1040
2.610812251662423
1040
0.0
1040
-33.821712754894641
1040
2.2975780622767839
1040
0.3247839446344953
1040
-33.527962975311311
1040
2.2925228035263672
1040
0.0
1040
-33.332315730921891
1040
2.4295164788785542
1040
0.4142135623728171
1040
-33.270921828937837
1040
2.7776985990384442
1040
0.0
1040
-33.740080751696503
1040
3.4477269794209628
1040
-0.1362575555304437
1040
-33.829309050798201
1040
3.6999572881271661
1040
0.0
1040
-35.277056332934542
1040
15.02773983123768
1040
-0.3588554495827025
1040
-33.060687540770687
1040
18.132864766930989
1040
0.0
1040
-22.63903599988635
1040
19.513207096161182
1040
-0.4931454260318393
1040
-22.009626477335129
1040
19.030244183015721
1040
0.0
1040
-22.009626477335129
1040
-3.2448369306254099
1040
0.0
1040
-22.009626477336042
1040
-7.7123588744649387
1040
0.4142135623730951
1040
-21.759626477336042
1040
-7.9623588744649387
1040
0.0
1040
-21.259626477336042
1040
-7.9623588744649387
1040
0.4142135623730951
1040
-21.009626477336042
1040
-7.7123588744649387
1040
0.0
1040
-21.009626477336042
1040
-3.2448369306254099
1040
0.0
1040
-21.009626477336042
1040
23.182329314029971
1040
0.0
1040
-21.009626477336042
1040
41.755163069374589
1040
0.0
1071
        0
1070
     0
1070
     1
1040
0.1512994669721781
1071
        1
1040
-21.53479798166882
1040
66.832096110273824
1040
0.0
1002
}
  0
DIMENSION
  5
FFBBDAE469BC1A62
  8
0
  6
CONTINUOUS
  2
*D8
 10
10.19655209119219
 20
35.432437117796781
 30
0.0
 11
10.19655209119219
 21
27.932437117797349
 31
0.0
 70
   128
 13
-3.5000000000004539
 23
20.432437117796781
 33
0.0
 14
-3.5000000000004539
 24
35.432437117796781
 34
0.0
 50
90.0
  0
LINE
  5
FFBBDAE469BC1B4A
  8
0
  6
CONTINUOUS
 10
5.3373233422025796
 20
16.60500595351925
 30
0.0
 11
0.0
 21
0.0
 31
0.0
  0
INSERT
  5
FFBBDAE469BC1EB6
  8
0
  6
CONTINUOUS
  2
*U15
 10
0.0
 20
0.0
 30
0.0
  0
INSERT
  5
FFBBDAE469BC1EBA
  8
0
  6
CONTINUOUS
  2
*U16
 10
0.0
 20
0.0
 30
0.0
  0
INSERT
  5
FFBBDAE469BC1EBB
  8
0
  6
CONTINUOUS
  2
*U17
 10
0.0
 20
0.0
 30
0.0
  0
INSERT
  5
FFBBDAE469BC1EBC
  8
0
  6
CONTINUOUS
  2
*U18
 10
0.0
 20
0.0
 30
0.0
  0
INSERT
  5
FFBBDAE469BC1EBD
  8
0
  6
CONTINUOUS
  2
*U19
 10
0.0
 20
0.0
 30
0.0
  0
INSERT
  5
FFBBDAE469BC1EBE
  8
0
  6
CONTINUOUS
  2
*U20
 10
0.0
 20
0.0
 30
0.0
  0
INSERT
  5
FFBBDAE469BC1EC5
  8
0
  6
CONTINUOUS
  2
*U21
 10
0.0
 20
0.0
 30
0.0
  0
INSERT
  5
FFBBDAE469BC1ECF
  8
0
  6
CONTINUOUS
  2
*U22
 10
0.0
 20
0.0
 30
0.0
  0
POLYLINE
  5
FFBBDAE469BC1ED0
  8
0
  6
PHANTOM
 66
     1
 10
0.0
 20
0.0
 30
0.0
 70
     1
  0
VERTEX
  5
FFBBDAE469BC3814
  8
0
  6
PHANTOM
 10
-30.854617020950631
 20
-175.5046129664521
 30
0.0
  0
VERTEX
  5
FFBBDAE469BC3815
  8
0
  6
PHANTOM
 10
108.40847973950569
 20
-175.5046129664521
 30
0.0
  0
VERTEX
  5
FFBBDAE469BC3816
  8
0
  6
PHANTOM
 10
108.40847973950569
 20
-145.03655842669829
 30
0.0
  0
VERTEX
  5
FFBBDAE469BC3817
  8
0
  6
PHANTOM
 10
-30.854617020950631
 20
-145.03655842669829
 30
0.0
  0
SEQEND
  5
FFBBDAE469BC3818
  8
0
  6
PHANTOM
  0
INSERT
  5
FFBBDAE469BC1ED1
  8
0
  6
CONTINUOUS
  2
*U23
 10
0.0
 20
0.0
 30
0.0
  0
INSERT
  5
FFBBDAE469BC1ED8
  8
0
  6
CONTINUOUS
  2
*U24
 10
0.0
 20
0.0
 30
0.0
  0
INSERT
  5
FFBBDAE469BC23A5
  8
0
  6
CONTINUOUS
  2
*U25
 10
0.0
 20
0.0
 30
0.0
1001
ACAD
1000
DSTYLE
1002
{
1070
    40
1040
2.0
1070
    77
1070
     0
1002
}
  0
INSERT
  5
FFBBDAE469BC23A6
  8
0
  6
CONTINUOUS
  2
*U26
 10
0.0
 20
0.0
 30
0.0
  0
INSERT
  5
FFBBDAE469BC23A9
  8
0
  6
CONTINUOUS
  2
*U27
 10
0.0
 20
0.0
 30
0.0
1001
ACAD
1000
DSTYLE
1002
{
1070
    40
1040
2.0
1070
    77
1070
     0
1002
}
  0
INSERT
  5
FFBBDAE469BC23AA
  8
0
  6
CONTINUOUS
  2
*U28
 10
0.0
 20
0.0
 30
0.0
  0
INSERT
  5
FFBBDAE469BC23AB
  8
0
  6
CONTINUOUS
  2
*U29
 10
0.0
 20
0.0
 30
0.0
1001
ACAD
1000
DSTYLE
1002
{
1070
    40
1040
2.0
1070
    77
1070
     0
1002
}
  0
INSERT
  5
FFBBDAE469BC23AC
  8
0
  6
CONTINUOUS
  2
*U30
 10
0.0
 20
0.0
 30
0.0
  0
INSERT
  5
FFBBDAE469BC23AD
  8
0
  6
CONTINUOUS
  2
*U31
 10
0.0
 20
0.0
 30
0.0
1001
ACAD
1000
DSTYLE
1002
{
1070
    40
1040
2.0
1070
    77
1070
     0
1002
}
  0
INSERT
  5
FFBBDAE469BC23AE
  8
0
  6
CONTINUOUS
  2
*U32
 10
0.0
 20
0.0
 30
0.0
  0
INSERT
  5
FFBBDAE469BC23AF
  8
0
  6
CONTINUOUS
  2
*U33
 10
0.0
 20
0.0
 30
0.0
1001
ACAD
1000
DSTYLE
1002
{
1070
    40
1040
2.0
1070
    77
1070
     0
1002
}
  0
INSERT
  5
FFBBDAE469BC23B0
  8
0
  6
CONTINUOUS
  2
*U34
 10
0.0
 20
0.0
 30
0.0
  0
INSERT
  5
FFBBDAE469BC23B1
  8
0
  6
CONTINUOUS
  2
*U35
 10
0.0
 20
0.0
 30
0.0
1001
ACAD
1000
DSTYLE
1002
{
1070
    40
1040
2.0
1070
    77
1070
     0
1002
}
  0
INSERT
  5
FFBBDAE469BC23B2
  8
0
  6
CONTINUOUS
  2
*U36
 10
0.0
 20
0.0
 30
0.0
  0
INSERT
  5
FFBBDAE469BC23B3
  8
0
  6
CONTINUOUS
  2
*U37
 10
0.0
 20
0.0
 30
0.0
1001
ACAD
1000
DSTYLE
1002
{
1070
    40
1040
2.0
1070
    77
1070
     0
1002
}
  0
INSERT
  5
FFBBDAE469BC23B4
  8
0
  6
CONTINUOUS
  2
*U38
 10
0.0
 20
0.0
 30
0.0
  0
INSERT
  5
FFBBDAE469BC23C7
  8
0
  6
CONTINUOUS
  2
*U39
 10
0.0
 20
0.0
 30
0.0
1001
ACAD
1000
DSTYLE
1002
{
1070
    40
1040
2.0
1070
    77
1070
     0
1002
}
  0
INSERT
  5
FFBBDAE469BC23C8
  8
0
  6
CONTINUOUS
  2
*U40
 10
0.0
 20
0.0
 30
0.0
  0
POLYLINE
  5
FFBBDAE469BC2452
  8
0
  6
CONTINUOUS
 66
     1
 10
0.0
 20
0.0
 30
0.0
  0
VERTEX
  5
FFBBDAE469BC3886
  8
0
  6
CONTINUOUS
 10
-43.156218998451088
 20
-55.752937845849367
 30
0.0
  0
VERTEX
  5
FFBBDAE469BC3887
  8
0
  6
CONTINUOUS
 10
34.476767280011252
 20
-55.752937845849367
 30
0.0
  0
VERTEX
  5
FFBBDAE469BC3888
  8
0
  6
CONTINUOUS
 10
35.4767672800117
 20
-58.500415265303673
 30
0.0
  0
VERTEX
  5
FFBBDAE469BC3889
  8
0
  6
CONTINUOUS
 10
37.4767672800117
 20
-53.00546042639462
 30
0.0
  0
VERTEX
  5
FFBBDAE469BC388A
  8
0
  6
CONTINUOUS
 10
38.476767280011252
 20
-55.752937845849367
 30
0.0
  0
VERTEX
  5
FFBBDAE469BC388B
  8
0
  6
CONTINUOUS
 10
106.9630143490412
 20
-55.752937845849367
 30
0.0
  0
SEQEND
  5
FFBBDAE469BC388C
  8
0
  6
CONTINUOUS
  0
POLYLINE
  5
FFBBDAE469BC2454
  8
0
  6
CONTINUOUS
 66
     1
 10
0.0
 20
0.0
 30
0.0
  0
VERTEX
  5
FFBBDAE469BC388D
  8
0
  6
CONTINUOUS
 10
-43.156218998451088
 20
214.1041698057152
 30
0.0
  0
VERTEX
  5
FFBBDAE469BC388E
  8
0
  6
CONTINUOUS
 10
34.476767280011252
 20
214.1041698057152
 30
0.0
  0
VERTEX
  5
FFBBDAE469BC388F
  8
0
  6
CONTINUOUS
 10
35.4767672800117
 20
211.3566923862609
 30
0.0
  0
VERTEX
  5
FFBBDAE469BC3890
  8
0
  6
CONTINUOUS
 10
37.4767672800117
 20
216.8516472251699
 30
0.0
  0
VERTEX
  5
FFBBDAE469BC3891
  8
0
  6
CONTINUOUS
 10
38.476767280011252
 20
214.1041698057152
 30
0.0
  0
VERTEX
  5
FFBBDAE469BC3892
  8
0
  6
CONTINUOUS
 10
106.9630143490412
 20
214.1041698057152
 30
0.0
  0
SEQEND
  5
FFBBDAE469BC3893
  8
0
  6
CONTINUOUS
  0
POLYLINE
  5
FFBBDAE469BC245D
  8
0
  6
CONTINUOUS
 66
     1
 10
0.0
 20
0.0
 30
0.0
  0
VERTEX
  5
FFBBDAE469BC3894
  8
0
  6
CONTINUOUS
 10
161.14672796332979
 20
169.17322311777991
 30
0.0
  0
VERTEX
  5
FFBBDAE469BC3895
  8
0
  6
CONTINUOUS
 10
161.14672796332979
 20
64.129983639533862
 30
0.0
  0
VERTEX
  5
FFBBDAE469BC3896
  8
0
  6
CONTINUOUS
 10
158.39925054387271
 20
63.1299836395333
 30
0.0
  0
VERTEX
  5
FFBBDAE469BC3897
  8
0
  6
CONTINUOUS
 10
163.89420538278131
 20
61.129983639533293
 30
0.0
  0
VERTEX
  5
FFBBDAE469BC3898
  8
0
  6
CONTINUOUS
 10
161.14672796332979
 20
60.129983639533862
 30
0.0
  0
VERTEX
  5
FFBBDAE469BC3899
  8
0
  6
CONTINUOUS
 10
161.14672796332979
 20
-44.913255838712182
 30
0.0
  0
SEQEND
  5
FFBBDAE469BC389A
  8
0
  6
CONTINUOUS
  0
INSERT
  5
FFBBDAE469BC2468
  8
0
  6
CONTINUOUS
  2
*X41
 10
0.0
 20
0.0
 30
0.0
1001
ACAD
1000
HATCH
1002
{
1070
    19
1000
ANSI36
1040
30.0
1040
5.4977871437821371
1000
R14_HATCH_DATA
1000
FFBBDAE469BC2468
1011
1.0
1021
0.0
1031
0.0
1021
0.0
1031
0.0
1011
0.0
1021
0.0
1031
0.0
1021
1.0
1031
0.0
1011
0.0
1021
0.0
1031
0.0
1021
0.0
1031
1.0
1040
0.0
1010
0.0
1020
0.0
1030
1.0
1000
ANSI36
1070
     0
1070
     0
1071
        1
1071
        7
1070
     0
1070
     1
1071
        5
1040
161.14672796332979
1040
159.00000000000011
1040
11.35099999999875
1040
159.0
1040
10.0
1040
159.0
1040
9.9999999999995453
1040
140.0
1040
161.14672796332979
1040
140.00000000000011
1071
        0
1070
     0
1070
     1
1040
5.4977871437821371
1040
30.0
1070
     0
1070
     1
1040
0.0
1040
-3550.0267361204242
1040
-731.67734326807431
1040
6.5625
1040
3.749999999999996
1070
     4
1040
9.375
1040
-1.875
1040
0.0
1040
-1.875
1040
0.5560440809551981
1071
        1
1040
101.7375375421106
1040
153.65304519484161
1040
0.0
1002
}
  0
POLYLINE
  5
FFBBDAE469BC2809
  8
0
  6
CONTINUOUS
 66
     1
 10
0.0
 20
0.0
 30
0.0
 70
     1
  0
VERTEX
  5
FFBBDAE469BC3914
  8
0
  6
CONTINUOUS
 10
-85.825789146912939
 20
-131.81080429532739
 30
0.0
  0
VERTEX
  5
FFBBDAE469BC3915
  8
0
  6
CONTINUOUS
 10
-76.825789146912939
 20
-131.81080429532739
 30
0.0
  0
VERTEX
  5
FFBBDAE469BC3916
  8
0
  6
CONTINUOUS
 10
-76.825789146912939
 20
-71.810804295327443
 30
0.0
  0
VERTEX
  5
FFBBDAE469BC3917
  8
0
  6
CONTINUOUS
 10
-85.825789146912939
 20
-71.810804295327443
 30
0.0
  0
SEQEND
  5
FFBBDAE469BC3918
  8
0
  6
CONTINUOUS
  0
DIMENSION
  5
FFBBDAE469BC2842
  8
0
  6
CONTINUOUS
  2
*D11
 10
-61.175060522832148
 20
-131.81080429532739
 30
0.0
 11
-52.49047662105859
 21
-133.49274153952939
 31
0.0
 70
     0
  1
<> min
 13
-76.731260268401911
 23
-146.81080429532739
 33
0.0
 14
-76.825789146912939
 24
-131.81080429532739
 34
0.0
 50
90.0
  0
INSERT
  5
FFBBDAE469BC2E0F
  8
0
  6
CONTINUOUS
  2
*U42
 10
0.0
 20
0.0
 30
0.0
1001
ACAD
1000
DSTYLE
1002
{
1070
    40
1040
2.0
1070
    77
1070
     0
1002
}
  0
INSERT
  5
FFBBDAE469BC2E10
  8
0
  6
CONTINUOUS
  2
*U43
 10
0.0
 20
0.0
 30
0.0
  0
INSERT
  5
FFBBDAE469BC31A0
  8
0
  6
CONTINUOUS
  2
*U44
 10
0.0
 20
0.0
 30
0.0
1001
ACAD
1000
DSTYLE
1002
{
1070
    40
1040
2.0
1070
    77
1070
     0
1002
}
  0
INSERT
  5
FFBBDAE469BC31A1
  8
0
  6
CONTINUOUS
  2
*U45
 10
0.0
 20
0.0
 30
0.0
  0
ENDSEC
  0
EOF
