  0
SECTION
  2
HEADER
  9
$ACADVER
  1
AC1024
  9
$ACADMAINTVER
 70
   155
  9
$DWGCODEPAGE
  3
ANSI_1252
  9
$LASTSAVEDBY
  1
Jason
  9
$INSBASE
 10
0.0
 20
0.0
 30
0.0
  9
$EXTMIN
 10
6268.696095612422
 20
3672.324035644397
 30
0.0
  9
$EXTMAX
 10
7306.859270870951
 20
4212.373651283193
 30
0.0
  9
$LIMMIN
 10
0.0
 20
0.0
  9
$LIMMAX
 10
12.0
 20
9.0
  9
$ORTHOMODE
 70
     1
  9
$REGENMODE
 70
     1
  9
$FILLMODE
 70
     1
  9
$QTEXTMODE
 70
     0
  9
$MIRRTEXT
 70
     1
  9
$LTSCALE
 40
5.0
  9
$ATTMODE
 70
     1
  9
$TEXTSIZE
 40
0.2
  9
$TRACEWID
 40
0.05
  9
$TEXTSTYLE
  7
Standard
  9
$CLAYER
  8
0
  9
$CELTYPE
  6
ByLayer
  9
$CECOLOR
 62
     7
  9
$CELTSCALE
 40
1.0
  9
$DISPSILH
 70
     0
  9
$DIMSCALE
 40
1.0
  9
$DIMASZ
 40
0.18
  9
$DIMEXO
 40
0.0625
  9
$DIMDLI
 40
0.38
  9
$DIMRND
 40
0.0
  9
$DIMDLE
 40
0.0
  9
$DIMEXE
 40
0.18
  9
$DIMTP
 40
0.0
  9
$DIMTM
 40
0.0
  9
$DIMTXT
 40
0.18
  9
$DIMCEN
 40
0.09
  9
$DIMTSZ
 40
0.0
  9
$DIMTOL
 70
     0
  9
$DIMLIM
 70
     0
  9
$DIMTIH
 70
     1
  9
$DIMTOH
 70
     1
  9
$DIMSE1
 70
     0
  9
$DIMSE2
 70
     0
  9
$DIMTAD
 70
     0
  9
$DIMZIN
 70
     0
  9
$DIMBLK
  1

  9
$DIMASO
 70
     1
  9
$DIMSHO
 70
     1
  9
$DIMPOST
  1

  9
$DIMAPOST
  1

  9
$DIMALT
 70
     0
  9
$DIMALTD
 70
     2
  9
$DIMALTF
 40
25.4
  9
$DIMLFAC
 40
1.0
  9
$DIMTOFL
 70
     0
  9
$DIMTVP
 40
0.0
  9
$DIMTIX
 70
     0
  9
$DIMSOXD
 70
     0
  9
$DIMSAH
 70
     0
  9
$DIMBLK1
  1

  9
$DIMBLK2
  1

  9
$DIMSTYLE
  2
Standard
  9
$DIMCLRD
 70
     0
  9
$DIMCLRE
 70
     0
  9
$DIMCLRT
 70
     0
  9
$DIMTFAC
 40
1.0
  9
$DIMGAP
 40
0.09
  9
$DIMJUST
 70
     0
  9
$DIMSD1
 70
     0
  9
$DIMSD2
 70
     0
  9
$DIMTOLJ
 70
     1
  9
$DIMTZIN
 70
     0
  9
$DIMALTZ
 70
     0
  9
$DIMALTTZ
 70
     0
  9
$DIMUPT
 70
     0
  9
$DIMDEC
 70
     4
  9
$DIMTDEC
 70
     4
  9
$DIMALTU
 70
     2
  9
$DIMALTTD
 70
     2
  9
$DIMTXSTY
  7
Standard
  9
$DIMAUNIT
 70
     0
  9
$DIMADEC
 70
     0
  9
$DIMALTRND
 40
0.0
  9
$DIMAZIN
 70
     0
  9
$DIMDSEP
 70
    46
  9
$DIMATFIT
 70
     3
  9
$DIMFRAC
 70
     0
  9
$DIMLDRBLK
  1

  9
$DIMLUNIT
 70
     2
  9
$DIMLWD
 70
    -2
  9
$DIMLWE
 70
    -2
  9
$DIMTMOVE
 70
     0
  9
$DIMFXL
 40
1.0
  9
$DIMFXLON
 70
     0
  9
$DIMJOGANG
 40
0.7853981633974483
  9
$DIMTFILL
 70
     0
  9
$DIMTFILLCLR
 70
     0
  9
$DIMARCSYM
 70
     0
  9
$DIMLTYPE
  6

  9
$DIMLTEX1
  6

  9
$DIMLTEX2
  6

  9
$DIMTXTDIRECTION
 70
     0
  9
$LUNITS
 70
     2
  9
$LUPREC
 70
     4
  9
$SKETCHINC
 40
0.1
  9
$FILLETRAD
 40
0.5
  9
$AUNITS
 70
     0
  9
$AUPREC
 70
     0
  9
$MENU
  1
.
  9
$ELEVATION
 40
0.0
  9
$PELEVATION
 40
0.0
  9
$THICKNESS
 40
0.0
  9
$LIMCHECK
 70
     0
  9
$CHAMFERA
 40
0.5
  9
$CHAMFERB
 40
0.5
  9
$CHAMFERC
 40
1.0
  9
$CHAMFERD
 40
0.0
  9
$SKPOLY
 70
     0
  9
$TDCREATE
 40
2456216.559823600
  9
$TDUCREATE
 40
2456216.018156933
  9
$TDUPDATE
 40
2456636.564599433
  9
$TDUUPDATE
 40
2456636.022932766
  9
$TDINDWG
 40
0.9124083565
  9
$TDUSRTIMER
 40
0.9124083565
  9
$USRTIMER
 70
     1
  9
$ANGBASE
 50
0.0
  9
$ANGDIR
 70
     0
  9
$PDMODE
 70
     0
  9
$PDSIZE
 40
0.0
  9
$PLINEWID
 40
0.0
  9
$SPLFRAME
 70
     0
  9
$SPLINETYPE
 70
     6
  9
$SPLINESEGS
 70
     8
  9
$HANDSEED
  5
B89
  9
$SURFTAB1
 70
     6
  9
$SURFTAB2
 70
     6
  9
$SURFTYPE
 70
     6
  9
$SURFU
 70
     6
  9
$SURFV
 70
     6
  9
$UCSBASE
  2

  9
$UCSNAME
  2

  9
$UCSORG
 10
0.0
 20
0.0
 30
0.0
  9
$UCSXDIR
 10
1.0
 20
0.0
 30
0.0
  9
$UCSYDIR
 10
0.0
 20
1.0
 30
0.0
  9
$UCSORTHOREF
  2

  9
$UCSORTHOVIEW
 70
     0
  9
$UCSORGTOP
 10
0.0
 20
0.0
 30
0.0
  9
$UCSORGBOTTOM
 10
0.0
 20
0.0
 30
0.0
  9
$UCSORGLEFT
 10
0.0
 20
0.0
 30
0.0
  9
$UCSORGRIGHT
 10
0.0
 20
0.0
 30
0.0
  9
$UCSORGFRONT
 10
0.0
 20
0.0
 30
0.0
  9
$UCSORGBACK
 10
0.0
 20
0.0
 30
0.0
  9
$PUCSBASE
  2

  9
$PUCSNAME
  2

  9
$PUCSORG
 10
0.0
 20
0.0
 30
0.0
  9
$PUCSXDIR
 10
1.0
 20
0.0
 30
0.0
  9
$PUCSYDIR
 10
0.0
 20
1.0
 30
0.0
  9
$PUCSORTHOREF
  2

  9
$PUCSORTHOVIEW
 70
     0
  9
$PUCSORGTOP
 10
0.0
 20
0.0
 30
0.0
  9
$PUCSORGBOTTOM
 10
0.0
 20
0.0
 30
0.0
  9
$PUCSORGLEFT
 10
0.0
 20
0.0
 30
0.0
  9
$PUCSORGRIGHT
 10
0.0
 20
0.0
 30
0.0
  9
$PUCSORGFRONT
 10
0.0
 20
0.0
 30
0.0
  9
$PUCSORGBACK
 10
0.0
 20
0.0
 30
0.0
  9
$USERI1
 70
     0
  9
$USERI2
 70
     0
  9
$USERI3
 70
     0
  9
$USERI4
 70
     0
  9
$USERI5
 70
     0
  9
$USERR1
 40
0.0
  9
$USERR2
 40
0.0
  9
$USERR3
 40
0.0
  9
$USERR4
 40
0.0
  9
$USERR5
 40
0.0
  9
$WORLDVIEW
 70
     1
  9
$SHADEDGE
 70
     3
  9
$SHADEDIF
 70
    70
  9
$TILEMODE
 70
     1
  9
$MAXACTVP
 70
    64
  9
$PINSBASE
 10
0.0
 20
0.0
 30
0.0
  9
$PLIMCHECK
 70
     0
  9
$PEXTMIN
 10
1.049636599258096
 20
0.7996597240971078
 30
-0.0015258207003583
  9
$PEXTMAX
 10
9.450362731076971
 20
7.200340082697454
 30
0.0000000349246037
  9
$PLIMMIN
 10
-0.2500002402958907
 20
-0.2499999962453767
  9
$PLIMMAX
 10
10.74999951940822
 20
8.249999763458733
  9
$UNITMODE
 70
     0
  9
$VISRETAIN
 70
     1
  9
$PLINEGEN
 70
     0
  9
$PSLTSCALE
 70
     1
  9
$TREEDEPTH
 70
  3020
  9
$CMLSTYLE
  2
Standard
  9
$CMLJUST
 70
     0
  9
$CMLSCALE
 40
1.0
  9
$PROXYGRAPHICS
 70
     1
  9
$MEASUREMENT
 70
     0
  9
$CELWEIGHT
370
    -1
  9
$ENDCAPS
280
     0
  9
$JOINSTYLE
280
     0
  9
$LWDISPLAY
290
     1
  9
$INSUNITS
 70
     0
  9
$HYPERLINKBASE
  1

  9
$STYLESHEET
  1

  9
$XEDIT
290
     1
  9
$CEPSNTYPE
380
     0
  9
$PSTYLEMODE
290
     1
  9
$FINGERPRINTGUID
  2
{5CBF889B-CBCF-4381-B9A4-9DD35769755F}
  9
$VERSIONGUID
  2
{F8C74071-B3B5-48EF-81CC-4D39D901049A}
  9
$EXTNAMES
290
     1
  9
$PSVPSCALE
 40
0.0
  9
$OLESTARTUP
290
     0
  9
$SORTENTS
280
   127
  9
$INDEXCTL
280
     0
  9
$HIDETEXT
280
     1
  9
$XCLIPFRAME
280
     0
  9
$HALOGAP
280
     0
  9
$OBSCOLOR
 70
   257
  9
$OBSLTYPE
280
     0
  9
$INTERSECTIONDISPLAY
280
     0
  9
$INTERSECTIONCOLOR
 70
   257
  9
$DIMASSOC
280
     2
  9
$PROJECTNAME
  1

  9
$CAMERADISPLAY
290
     0
  9
$LENSLENGTH
 40
50.0
  9
$CAMERAHEIGHT
 40
0.0
  9
$STEPSPERSEC
 40
2.0
  9
$STEPSIZE
 40
6.0
  9
$3DDWFPREC
 40
2.0
  9
$PSOLWIDTH
 40
0.25
  9
$PSOLHEIGHT
 40
4.0
  9
$LOFTANG1
 40
1.570796326794896
  9
$LOFTANG2
 40
1.570796326794896
  9
$LOFTMAG1
 40
0.0
  9
$LOFTMAG2
 40
0.0
  9
$LOFTPARAM
 70
     7
  9
$LOFTNORMALS
280
     1
  9
$LATITUDE
 40
37.795
  9
$LONGITUDE
 40
-122.394
  9
$NORTHDIRECTION
 40
0.0
  9
$TIMEZONE
 70
 -8000
  9
$LIGHTGLYPHDISPLAY
280
     1
  9
$TILEMODELIGHTSYNCH
280
     1
  9
$CMATERIAL
347
3C
  9
$SOLIDHIST
280
     1
  9
$SHOWHIST
280
     1
  9
$DWFFRAME
280
     2
  9
$DGNFRAME
280
     2
  9
$REALWORLDSCALE
290
     1
  9
$INTERFERECOLOR
 62
   256
  9
$INTERFEREOBJVS
345
33
  9
$INTERFEREVPVS
346
25E
  9
$CSHADOW
280
     0
  9
$SHADOWPLANELOCATION
 40
0.0
  0
ENDSEC
  0
SECTION
  2
CLASSES
  0
CLASS
  1
ACDBDICTIONARYWDFLT
  2
AcDbDictionaryWithDefault
  3
ObjectDBX Classes
 90
        0
 91
        1
280
     0
281
     0
  0
CLASS
  1
VISUALSTYLE
  2
AcDbVisualStyle
  3
ObjectDBX Classes
 90
     4095
 91
       26
280
     0
281
     0
  0
CLASS
  1
MATERIAL
  2
AcDbMaterial
  3
ObjectDBX Classes
 90
     1153
 91
        3
280
     0
281
     0
  0
CLASS
  1
SCALE
  2
AcDbScale
  3
ObjectDBX Classes
 90
     1153
 91
       33
280
     0
281
     0
  0
CLASS
  1
DICTIONARYVAR
  2
AcDbDictionaryVar
  3
ObjectDBX Classes
 90
        0
 91
       17
280
     0
281
     0
  0
CLASS
  1
TABLESTYLE
  2
AcDbTableStyle
  3
ObjectDBX Classes
 90
     4095
 91
        1
280
     0
281
     0
  0
CLASS
  1
MLEADERSTYLE
  2
AcDbMLeaderStyle
  3
ACDB_MLEADERSTYLE_CLASS
 90
     4095
 91
        1
280
     0
281
     0
  0
CLASS
  1
ACDBSECTIONVIEWSTYLE
  2
AcDbSectionViewStyle
  3
ObjectDBX Classes
 90
     1025
 91
        2
280
     0
281
     0
  0
CLASS
  1
ACDBDETAILVIEWSTYLE
  2
AcDbDetailViewStyle
  3
ObjectDBX Classes
 90
     1025
 91
        2
280
     0
281
     0
  0
CLASS
  1
EXACXREFPANELOBJECT
  2
ExAcXREFPanelObject
  3
EXAC_ESW
 90
     1025
 91
        1
280
     0
281
     0
  0
CLASS
  1
NPOCOLLECTION
  2
AcDbImpNonPersistentObjectsCollection
  3
ObjectDBX Classes
 90
     1153
 91
        1
280
     0
281
     0
  0
CLASS
  1
IMAGE
  2
AcDbRasterImage
  3
ISM
 90
     2175
 91
        4
280
     0
281
     1
  0
CLASS
  1
IMAGEDEF_REACTOR
  2
AcDbRasterImageDefReactor
  3
ISM
 90
        1
 91
        4
280
     0
281
     0
  0
CLASS
  1
SORTENTSTABLE
  2
AcDbSortentsTable
  3
ObjectDBX Classes
 90
        0
 91
        2
280
     0
281
     0
  0
CLASS
  1
IMAGEDEF
  2
AcDbRasterImageDef
  3
ISM
 90
        0
 91
        2
280
     0
281
     0
  0
CLASS
  1
RASTERVARIABLES
  2
AcDbRasterVariables
  3
ISM
 90
        0
 91
        1
280
     0
281
     0
  0
CLASS
  1
ACDBASSOCNETWORK
  2
AcDbAssocNetwork
  3
ObjectDBX Classes
 90
     1025
 91
        0
280
     0
281
     0
  0
CLASS
  1
ACDBASSOC2DCONSTRAINTGROUP
  2
AcDbAssoc2dConstraintGroup
  3
ObjectDBX Classes
 90
     1025
 91
        0
280
     0
281
     0
  0
CLASS
  1
ACDBASSOCGEOMDEPENDENCY
  2
AcDbAssocGeomDependency
  3
ObjectDBX Classes
 90
     1025
 91
        0
280
     0
281
     0
  0
CLASS
  1
PDFDEFINITION
  2
AcDbPdfDefinition
  3
ObjectDBX Classes
 90
     1153
 91
        0
280
     0
281
     0
  0
CLASS
  1
PDFUNDERLAY
  2
AcDbPdfReference
  3
ObjectDBX Classes
 90
     4095
 91
        0
280
     0
281
     1
  0
CLASS
  1
CELLSTYLEMAP
  2
AcDbCellStyleMap
  3
ObjectDBX Classes
 90
     1152
 91
        2
280
     0
281
     0
  0
ENDSEC
  0
SECTION
  2
TABLES
  0
TABLE
  2
VPORT
  5
8
330
0
100
AcDbSymbolTable
 70
     1
  0
VPORT
  5
29
330
8
100
AcDbSymbolTableRecord
100
AcDbViewportTableRecord
  2
*Active
 70
     0
 10
0.0
 20
0.0
 11
1.0
 21
1.0
 12
7344.138924135144
 22
3833.221657187994
 13
0.0
 23
0.0
 14
0.5
 24
0.5
 15
0.5
 25
0.5
 16
0.0
 26
0.0
 36
1.0
 17
0.0
 27
0.0
 37
0.0
 40
1621.588888018644
 41
1.816348195329086
 42
50.0
 43
0.0
 44
0.0
 50
0.0
 51
0.0
 71
     0
 72
   100
 73
     1
 74
     3
 75
     0
 76
     0
 77
     0
 78
     0
281
     0
 65
     1
110
0.0
120
0.0
130
0.0
111
1.0
121
0.0
131
0.0
112
0.0
122
1.0
132
0.0
 79
     0
146
0.0
348
2F
 60
     3
 61
     5
292
     1
282
     1
141
0.0
142
0.0
 63
   250
1001
ACAD_NAV_VCDISPLAY
1070
     3
  0
ENDTAB
  0
TABLE
  2
LTYPE
  5
5
330
0
100
AcDbSymbolTable
 70
     7
  0
LTYPE
  5
14
330
5
100
AcDbSymbolTableRecord
100
AcDbLinetypeTableRecord
  2
ByBlock
 70
     0
  3

 72
    65
 73
     0
 40
0.0
  0
LTYPE
  5
15
330
5
100
AcDbSymbolTableRecord
100
AcDbLinetypeTableRecord
  2
ByLayer
 70
     0
  3

 72
    65
 73
     0
 40
0.0
  0
LTYPE
  5
16
330
5
100
AcDbSymbolTableRecord
100
AcDbLinetypeTableRecord
  2
Continuous
 70
     0
  3
Solid line
 72
    65
 73
     0
 40
0.0
  0
LTYPE
  5
1B3
330
5
100
AcDbSymbolTableRecord
100
AcDbLinetypeTableRecord
  2
Hidden
 70
     0
  3
- - - - - 
 72
    65
 73
     2
 40
4.938889980316162
 49
2.822222709655761
 74
     0
 49
-2.1166672706604
 74
     0
  0
LTYPE
  5
1D7
330
5
100
AcDbSymbolTableRecord
100
AcDbLinetypeTableRecord
  2
Above
 70
     0
  3
- - - - - 
 72
    65
 73
     2
 40
9.599999999999999
 49
6.0
 74
     0
 49
-3.6
 74
     0
  0
LTYPE
  5
1D9
330
5
100
AcDbSymbolTableRecord
100
AcDbLinetypeTableRecord
  2
Sketch
 70
     0
  3
??????????
 72
    65
 73
     3
 40
40.0
 49
0.0
 74
     4
 75
     1
340
1DA
 46
0.3174603174603174
 50
0.0
 44
0.0
 45
0.0
 49
-40.0
 74
     0
 49
0.0
 74
     0
  0
LTYPE
  5
6E9
330
5
100
AcDbSymbolTableRecord
100
AcDbLinetypeTableRecord
  2
ZIGZAG
 70
     0
  3
Zig zag /\/\/\/\/\/\/\/\/\/\/\/\/\/\/\/\/\/\/\/
 72
    65
 73
     4
 40
0.8001000000000001
 49
0.0001
 74
     0
 49
-0.2
 74
     4
 75
   131
340
6E8
 46
0.2
 50
0.0
 44
-0.2
 45
0.0
 49
-0.4
 74
     4
 75
   131
340
6E8
 46
0.2
 50
180.0
 44
0.2
 45
0.0
 49
-0.2
 74
     0
  0
LTYPE
  5
706
330
5
100
AcDbSymbolTableRecord
100
AcDbLinetypeTableRecord
  2
DASHEDX2
 70
     0
  3
Dashed (2x) ____  ____  ____  ____  ____  ___
 72
    65
 73
     2
 40
1.5
 49
1.0
 74
     0
 49
-0.5
 74
     0
  0
LTYPE
  5
742
330
5
100
AcDbSymbolTableRecord
100
AcDbLinetypeTableRecord
  2
PLASTER
 70
     0
  3
PLASTER
 72
    65
 73
     2
 40
2.379214999999999
 49
0.000024
 74
     4
 75
     1
340
741
 46
0.2
 50
0.0
 44
0.0
 45
0.0
 49
-2.379191
 74
     0
  0
ENDTAB
  0
TABLE
  2
LAYER
  5
2
102
{ACAD_XDICTIONARY
360
439
102
}
330
0
100
AcDbSymbolTable
 70
     6
  0
LAYER
  5
10
102
{ACAD_XDICTIONARY
360
577
102
}
330
2
100
AcDbSymbolTableRecord
100
AcDbLayerTableRecord
  2
0
 70
     0
 62
     7
  6
Continuous
370
    -3
390
F
347
3E
  0
LAYER
  5
40
102
{ACAD_XDICTIONARY
360
579
102
}
330
2
100
AcDbSymbolTableRecord
100
AcDbLayerTableRecord
  2
Specialized_Fills
 70
     0
 62
     7
  6
Continuous
370
    -3
390
F
347
3E
  0
LAYER
  5
1B0
102
{ACAD_XDICTIONARY
360
57B
102
}
330
2
100
AcDbSymbolTableRecord
100
AcDbLayerTableRecord
  2
Specialized_Lines
 70
     0
 62
     7
  6
Continuous
370
    -3
390
F
347
3E
  0
LAYER
  5
215
102
{ACAD_XDICTIONARY
360
57D
102
}
330
2
100
AcDbSymbolTableRecord
100
AcDbLayerTableRecord
  2
Specialized_Text
 70
     0
 62
     7
  6
Continuous
370
    -3
390
F
347
3E
  0
LAYER
  5
42F
102
{ACAD_XDICTIONARY
360
57F
102
}
330
2
100
AcDbSymbolTableRecord
100
AcDbLayerTableRecord
  2
Viewport
 70
     0
 62
     7
  6
Continuous
370
    -3
390
F
347
3E
1001
AcAecLayerStandard
1000

1000

1001
AcCmTransparency
1071
        0
  0
LAYER
  5
991
330
2
100
AcDbSymbolTableRecord
100
AcDbLayerTableRecord
  2
Defpoints
 70
     0
 62
     7
  6
Continuous
290
     0
370
    -3
390
F
347
3E
  0
ENDTAB
  0
TABLE
  2
STYLE
  5
3
330
0
100
AcDbSymbolTable
 70
     6
  0
STYLE
  5
11
330
3
100
AcDbSymbolTableRecord
100
AcDbTextStyleTableRecord
  2
Standard
 70
     0
 40
0.0
 41
1.0
 50
0.0
 71
     0
 42
0.2
  3
txt
  4
BIGFONT.SHX
  0
STYLE
  5
1DA
330
3
100
AcDbSymbolTableRecord
100
AcDbTextStyleTableRecord
  2

 70
     1
 40
0.2
 41
1.0
 50
0.0
 71
     0
 42
0.2
  3
01A Window Head_1.Shx
  4

  0
STYLE
  5
1F0
330
3
100
AcDbSymbolTableRecord
100
AcDbTextStyleTableRecord
  2
GENERATED_STYLE_1
 70
     0
 40
0.0
 41
1.0
 50
0.0
 71
     0
 42
0.2
  3
comic.ttf
  4

1001
ACAD
1000
Comic Sans MS
1071
       66
  0
STYLE
  5
213
330
3
100
AcDbSymbolTableRecord
100
AcDbTextStyleTableRecord
  2
GENERATED_STYLE_2
 70
     0
 40
0.0
 41
1.0
 50
0.0
 71
     0
 42
0.2
  3
ARIALUNI.TTF
  4

1001
ACAD
1000
Arial Unicode MS
1071
       34
  0
STYLE
  5
6E8
330
3
100
AcDbSymbolTableRecord
100
AcDbTextStyleTableRecord
  2

 70
     1
 40
0.0
 41
1.0
 50
0.0
 71
     0
 42
0.2
  3
ltypeshp.shx
  4

  0
STYLE
  5
741
330
3
100
AcDbSymbolTableRecord
100
AcDbTextStyleTableRecord
  2

 70
     1
 40
0.0
 41
1.0
 50
0.0
 71
     0
 42
0.2
  3
P:\VERT-X CONSULTING LTD\2013\10 OCT\1310-015- SPECIALIZED CONSTRUCTION PRODUCTS - CONTRACT DRAUGHTING\DRAWINGS\PLASTER.SHX
  4

  0
ENDTAB
  0
TABLE
  2
VIEW
  5
6
330
0
100
AcDbSymbolTable
 70
     0
  0
ENDTAB
  0
TABLE
  2
UCS
  5
7
330
0
100
AcDbSymbolTable
 70
     0
  0
ENDTAB
  0
TABLE
  2
APPID
  5
9
330
0
100
AcDbSymbolTable
 70
    12
  0
APPID
  5
12
330
9
100
AcDbSymbolTableRecord
100
AcDbRegAppTableRecord
  2
ACAD
 70
     0
  0
APPID
  5
432
330
9
100
AcDbSymbolTableRecord
100
AcDbRegAppTableRecord
  2
ACAD_PSEXT
 70
     0
  0
APPID
  5
433
330
9
100
AcDbSymbolTableRecord
100
AcDbRegAppTableRecord
  2
AcadAnnotative
 70
     0
  0
APPID
  5
434
330
9
100
AcDbSymbolTableRecord
100
AcDbRegAppTableRecord
  2
ACAD_DSTYLE_DIMJAG
 70
     0
  0
APPID
  5
435
330
9
100
AcDbSymbolTableRecord
100
AcDbRegAppTableRecord
  2
ACAD_DSTYLE_DIMTALN
 70
     0
  0
APPID
  5
436
330
9
100
AcDbSymbolTableRecord
100
AcDbRegAppTableRecord
  2
ACAD_NAV_VCDISPLAY
 70
     0
  0
APPID
  5
437
330
9
100
AcDbSymbolTableRecord
100
AcDbRegAppTableRecord
  2
AcAecLayerStandard
 70
     0
  0
APPID
  5
438
330
9
100
AcDbSymbolTableRecord
100
AcDbRegAppTableRecord
  2
AcCmTransparency
 70
     0
  0
APPID
  5
533
330
9
100
AcDbSymbolTableRecord
100
AcDbRegAppTableRecord
  2
ACAD_EXEMPT_FROM_CAD_STANDARDS
 70
     0
  0
APPID
  5
552
330
9
100
AcDbSymbolTableRecord
100
AcDbRegAppTableRecord
  2
GradientColor1ACI
 70
     0
  0
APPID
  5
553
330
9
100
AcDbSymbolTableRecord
100
AcDbRegAppTableRecord
  2
GradientColor2ACI
 70
     0
  0
APPID
  5
906
330
9
100
AcDbSymbolTableRecord
100
AcDbRegAppTableRecord
  2
AdeskUnderlayLayerOverrideData
 70
     0
  0
ENDTAB
  0
TABLE
  2
DIMSTYLE
  5
A
330
0
100
AcDbSymbolTable
 70
     7
100
AcDbDimStyleTable
 71
     1
340
27
  0
DIMSTYLE
105
27
330
A
100
AcDbSymbolTableRecord
100
AcDbDimStyleTableRecord
  2
Standard
 70
     0
340
11
  0
DIMSTYLE
105
1F3
102
{ACAD_REACTORS
330
1F2
102
}
330
A
100
AcDbSymbolTableRecord
100
AcDbDimStyleTableRecord
  2
GENERATED_STYLE__1
 70
     0
 41
3.799999999999999
 42
3.105243665848078
 73
     0
 74
     0
 77
     1
140
5.0
172
     1
176
     7
177
     7
178
     7
179
     2
271
     0
340
1F0
342
1F4
343
1F4
344
1F4
  0
DIMSTYLE
105
205
102
{ACAD_REACTORS
330
204
102
}
330
A
100
AcDbSymbolTableRecord
100
AcDbDimStyleTableRecord
  2
GENERATED_STYLE__2
 70
     0
 41
3.799999999999999
 42
15.0
 73
     0
 74
     0
 77
     1
140
5.0
172
     1
176
     7
177
     7
178
     7
179
     2
271
     0
279
     2
340
1F0
342
1F4
343
1F4
344
1F4
  0
DIMSTYLE
105
212
102
{ACAD_REACTORS
330
211
102
}
330
A
100
AcDbSymbolTableRecord
100
AcDbDimStyleTableRecord
  2
GENERATED_STYLE__3
 70
     0
 41
3.799999999999999
 42
48.37807635878288
 73
     0
 74
     0
 77
     1
140
5.0
172
     1
176
     7
177
     7
178
     7
179
     2
271
     0
279
     2
340
1F0
342
1F4
343
1F4
344
1F4
  0
DIMSTYLE
105
217
330
A
100
AcDbSymbolTableRecord
100
AcDbDimStyleTableRecord
  2
GENERATED_STYLE__4
 70
     0
 41
7.295999999999999
172
     1
341
218
  0
DIMSTYLE
105
430
330
A
100
AcDbSymbolTableRecord
100
AcDbDimStyleTableRecord
  2
Annotative
 70
     0
 40
0.0
 41
2.5
 42
0.625
 43
3.75
 44
1.25
 73
     0
 74
     0
 77
     1
 78
     8
140
2.5
141
2.5
143
0.03937007874016
147
0.625
171
     3
172
     1
271
     2
272
     2
274
     3
278
    44
283
     0
284
     8
340
11
1001
AcadAnnotative
1000
AnnotativeData
1002
{
1070
     1
1070
     1
1002
}
1001
ACAD_DSTYLE_DIMJAG
1070
   388
1040
1.5
1001
ACAD_DSTYLE_DIMTALN
1070
   392
1070
     0
  0
DIMSTYLE
105
431
330
A
100
AcDbSymbolTableRecord
100
AcDbDimStyleTableRecord
  2
ISO-25
 70
     0
 41
2.5
 42
0.625
 43
3.75
 44
1.25
 73
     0
 74
     0
 77
     1
 78
     8
140
2.5
141
2.5
143
0.03937007874016
147
0.625
171
     3
172
     1
271
     2
272
     2
274
     3
278
    44
283
     0
284
     8
340
11
  0
ENDTAB
  0
TABLE
  2
BLOCK_RECORD
  5
1
330
0
100
AcDbSymbolTable
 70
    13
  0
BLOCK_RECORD
  5
1F
102
{ACAD_XDICTIONARY
360
459
102
}
330
1
100
AcDbSymbolTableRecord
100
AcDbBlockTableRecord
  2
*Model_Space
340
22
 70
     0
280
     1
281
     0
  0
BLOCK_RECORD
  5
1B
330
1
100
AcDbSymbolTableRecord
100
AcDbBlockTableRecord
  2
*Paper_Space
340
1E
 70
     0
280
     1
281
     0
  0
BLOCK_RECORD
  5
23
330
1
100
AcDbSymbolTableRecord
100
AcDbBlockTableRecord
  2
*Paper_Space0
340
26
 70
     0
280
     1
281
     0
  0
BLOCK_RECORD
  5
47
330
1
100
AcDbSymbolTableRecord
100
AcDbBlockTableRecord
  2
Fill_1
340
0
102
{BLKREFS
331
3DD
102
}
 70
     0
280
     1
281
     0
  0
BLOCK_RECORD
  5
4A
330
1
100
AcDbSymbolTableRecord
100
AcDbBlockTableRecord
  2
*X2
340
0
102
{BLKREFS
331
184
102
}
 70
     0
280
     1
281
     0
  0
BLOCK_RECORD
  5
1E6
330
1
100
AcDbSymbolTableRecord
100
AcDbBlockTableRecord
  2
*D3
340
0
 70
     0
280
     1
281
     0
  0
BLOCK_RECORD
  5
1F4
330
1
100
AcDbSymbolTableRecord
100
AcDbBlockTableRecord
  2
ARROWHEAD_6
340
0
102
{BLKREFS
331
9E3
331
9E4
331
A2D
331
A2E
331
A39
331
A3A
102
}
 70
     0
280
     1
281
     0
  0
BLOCK_RECORD
  5
1F9
330
1
100
AcDbSymbolTableRecord
100
AcDbBlockTableRecord
  2
*D5
340
0
 70
     0
280
     1
281
     0
  0
BLOCK_RECORD
  5
206
330
1
100
AcDbSymbolTableRecord
100
AcDbBlockTableRecord
  2
*D6
340
0
 70
     0
280
     1
281
     0
  0
BLOCK_RECORD
  5
218
330
1
100
AcDbSymbolTableRecord
100
AcDbBlockTableRecord
  2
ARROWHEAD_5
340
0
 70
     0
280
     1
281
     0
  0
BLOCK_RECORD
  5
233
330
1
100
AcDbSymbolTableRecord
100
AcDbBlockTableRecord
  2
01A Window Head__STORY_MARKER
340
0
 70
     0
280
     1
281
     0
  0
BLOCK_RECORD
  5
3B4
330
1
100
AcDbSymbolTableRecord
100
AcDbBlockTableRecord
  2
*D9
340
0
 70
     0
280
     1
281
     0
  0
BLOCK_RECORD
  5
3BF
330
1
100
AcDbSymbolTableRecord
100
AcDbBlockTableRecord
  2
*D10
340
0
 70
     0
280
     1
281
     0
  0
BLOCK_RECORD
  5
3CA
330
1
100
AcDbSymbolTableRecord
100
AcDbBlockTableRecord
  2
*D11
340
0
 70
     0
280
     1
281
     0
  0
BLOCK_RECORD
  5
3D5
330
1
100
AcDbSymbolTableRecord
100
AcDbBlockTableRecord
  2
C01A
340
0
 70
     0
280
     1
281
     0
  0
ENDTAB
  0
ENDSEC
  0
SECTION
  2
BLOCKS
  0
BLOCK
  5
20
330
1F
100
AcDbEntity
  8
0
100
AcDbBlockBegin
  2
*Model_Space
 70
     0
 10
0.0
 20
0.0
 30
0.0
  3
*Model_Space
  1

  0
ENDBLK
  5
21
330
1F
100
AcDbEntity
  8
0
100
AcDbBlockEnd
  0
BLOCK
  5
1C
330
1B
100
AcDbEntity
 67
     1
  8
0
100
AcDbBlockBegin
  2
*Paper_Space
 70
     0
 10
0.0
 20
0.0
 30
0.0
  3
*Paper_Space
  1

  0
ENDBLK
  5
1D
330
1B
100
AcDbEntity
 67
     1
  8
0
100
AcDbBlockEnd
  0
BLOCK
  5
24
330
23
100
AcDbEntity
 67
     1
  8
0
100
AcDbBlockBegin
  2
*Paper_Space0
 70
     0
 10
0.0
 20
0.0
 30
0.0
  3
*Paper_Space0
  1

  0
ENDBLK
  5
25
330
23
100
AcDbEntity
 67
     1
  8
0
100
AcDbBlockEnd
  0
BLOCK
  5
48
330
47
100
AcDbEntity
  8
0
100
AcDbBlockBegin
  2
Fill_1
 70
     0
 10
0.0
 20
0.0
 30
0.0
  3
Fill_1
  1

  0
INSERT
  5
184
330
47
100
AcDbEntity
  8
Specialized_Fills
  6
Continuous
 62
    30
420
 16742400
370
    20
100
AcDbBlockReference
  2
*X2
 10
0.0
 20
0.0
 30
0.0
  0
LINE
  5
1A7
330
47
100
AcDbEntity
  8
Specialized_Fills
  6
Continuous
100
AcDbLine
 10
7002.782660105122
 20
3915.892874519765
 30
0.0
 11
7015.994830482104
 21
3923.525473100859
 31
0.0
  0
LINE
  5
1A8
330
47
100
AcDbEntity
  8
Specialized_Fills
  6
Continuous
100
AcDbLine
 10
7015.994830482104
 20
3923.525473100859
 30
0.0
 11
7015.994830482104
 21
4124.870600969187
 31
0.0
  0
LINE
  5
1A9
330
47
100
AcDbEntity
  8
Specialized_Fills
  6
Continuous
100
AcDbLine
 10
7015.994830482104
 20
4124.870600969187
 30
0.0
 11
6965.994830482085
 21
4124.870600969187
 31
0.0
  0
LINE
  5
1AA
330
47
100
AcDbEntity
  8
Specialized_Fills
  6
Continuous
100
AcDbLine
 10
6965.994830482085
 20
4124.870600969187
 30
0.0
 11
6965.994830482086
 21
3915.681303739293
 31
0.0
  0
LINE
  5
1AB
330
47
100
AcDbEntity
  8
Specialized_Fills
  6
Continuous
100
AcDbLine
 10
6965.994830482086
 20
3915.681303739293
 30
0.0
 11
7002.782660105122
 21
3915.892874519765
 31
0.0
  0
ENDBLK
  5
49
330
47
100
AcDbEntity
  8
0
100
AcDbBlockEnd
  0
BLOCK
  5
4B
330
4A
100
AcDbEntity
  8
0
100
AcDbBlockBegin
  2
*X2
 70
     1
 10
0.0
 20
0.0
 30
0.0
  3
*X2
  1

  0
ARC
  5
4D
330
4A
100
AcDbEntity
  8
Specialized_Fills
  6
Continuous
 62
    30
420
 16742400
370
    20
100
AcDbCircle
 10
6964.418711007548
 20
3916.966883954709
 30
0.0
 40
2.467047418139856
100
AcDbArc
 50
328.6770014741747
 51
50.29248410813963
  0
CIRCLE
  5
4E
330
4A
100
AcDbEntity
  8
Specialized_Fills
  6
Continuous
 62
    30
420
 16742400
370
    20
100
AcDbCircle
 10
6995.800133975119
 20
3928.388787823823
 30
0.0
 40
2.467047418139856
  0
CIRCLE
  5
4F
330
4A
100
AcDbEntity
  8
Specialized_Fills
  6
Continuous
 62
    30
420
 16742400
370
    20
100
AcDbCircle
 10
6984.376230757163
 20
3959.77570395719
 30
0.0
 40
2.467047418139856
  0
ARC
  5
50
330
4A
100
AcDbEntity
  8
Specialized_Fills
  6
Continuous
 62
    30
420
 16742400
370
    20
100
AcDbCircle
 10
7015.757653724733
 20
3971.197607826304
 30
0.0
 40
2.467047418139856
100
AcDbArc
 50
84.48318354017484
 51
275.5168164598251
  0
CIRCLE
  5
51
330
4A
100
AcDbEntity
  8
Specialized_Fills
  6
Continuous
 62
    30
420
 16742400
370
    20
100
AcDbCircle
 10
6972.952327539208
 20
3991.162620090557
 30
0.0
 40
2.467047418139856
  0
CIRCLE
  5
52
330
4A
100
AcDbEntity
  8
Specialized_Fills
  6
Continuous
 62
    30
420
 16742400
370
    20
100
AcDbCircle
 10
7004.33375050678
 20
4002.58452395967
 30
0.0
 40
2.467047418139856
  0
CIRCLE
  5
53
330
4A
100
AcDbEntity
  8
Specialized_Fills
  6
Continuous
 62
    30
420
 16742400
370
    20
100
AcDbCircle
 10
6992.909847288824
 20
4033.971440093036
 30
0.0
 40
2.467047418139856
  0
CIRCLE
  5
54
330
4A
100
AcDbEntity
  8
Specialized_Fills
  6
Continuous
 62
    30
420
 16742400
370
    20
100
AcDbCircle
 10
6981.485944070868
 20
4065.358356226404
 30
0.0
 40
2.467047418139856
  0
CIRCLE
  5
55
330
4A
100
AcDbEntity
  8
Specialized_Fills
  6
Continuous
 62
    30
420
 16742400
370
    20
100
AcDbCircle
 10
7012.86736703844
 20
4076.780260095517
 30
0.0
 40
2.467047418139856
  0
CIRCLE
  5
56
330
4A
100
AcDbEntity
  8
Specialized_Fills
  6
Continuous
 62
    30
420
 16742400
370
    20
100
AcDbCircle
 10
6970.062040852915
 20
4096.745272359771
 30
0.0
 40
2.467047418139856
  0
CIRCLE
  5
57
330
4A
100
AcDbEntity
  8
Specialized_Fills
  6
Continuous
 62
    30
420
 16742400
370
    20
100
AcDbCircle
 10
7001.443463820485
 20
4108.167176228884
 30
0.0
 40
2.467047418139856
  0
CIRCLE
  5
58
330
4A
100
AcDbEntity
  8
Specialized_Fills
  6
Continuous
 62
    30
420
 16742400
370
    20
100
AcDbCircle
 10
6998.417672057252
 20
3924.033082653634
 30
0.0
 40
1.884663110930518
  0
CIRCLE
  5
59
330
4A
100
AcDbEntity
  8
Specialized_Fills
  6
Continuous
 62
    30
420
 16742400
370
    20
100
AcDbCircle
 10
6986.993768839297
 20
3955.419998787
 30
0.0
 40
1.884663110930518
  0
CIRCLE
  5
5A
330
4A
100
AcDbEntity
  8
Specialized_Fills
  6
Continuous
 62
    30
420
 16742400
370
    20
100
AcDbCircle
 10
6975.569865621341
 20
3986.806914920367
 30
0.0
 40
1.884663110930518
  0
CIRCLE
  5
5B
330
4A
100
AcDbEntity
  8
Specialized_Fills
  6
Continuous
 62
    30
420
 16742400
370
    20
100
AcDbCircle
 10
7006.951288588912
 20
3998.228818789481
 30
0.0
 40
1.884663110930518
  0
ARC
  5
5C
330
4A
100
AcDbEntity
  8
Specialized_Fills
  6
Continuous
 62
    30
420
 16742400
370
    20
100
AcDbCircle
 10
6964.145962403385
 20
4018.193831053735
 30
0.0
 40
1.884663110930518
100
AcDbArc
 50
348.8153622523107
 51
11.1846377476893
  0
CIRCLE
  5
5D
330
4A
100
AcDbEntity
  8
Specialized_Fills
  6
Continuous
 62
    30
420
 16742400
370
    20
100
AcDbCircle
 10
6995.527385370957
 20
4029.615734922847
 30
0.0
 40
1.884663110930518
  0
CIRCLE
  5
5E
330
4A
100
AcDbEntity
  8
Specialized_Fills
  6
Continuous
 62
    30
420
 16742400
370
    20
100
AcDbCircle
 10
6984.103482153002
 20
4061.002651056215
 30
0.0
 40
1.884663110930518
  0
ARC
  5
5F
330
4A
100
AcDbEntity
  8
Specialized_Fills
  6
Continuous
 62
    30
420
 16742400
370
    20
100
AcDbCircle
 10
7015.484905120572
 20
4072.424554925329
 30
0.0
 40
1.884663110930518
100
AcDbArc
 50
74.30206264436032
 51
285.6979373556396
  0
CIRCLE
  5
60
330
4A
100
AcDbEntity
  8
Specialized_Fills
  6
Continuous
 62
    30
420
 16742400
370
    20
100
AcDbCircle
 10
6972.679578935046
 20
4092.389567189581
 30
0.0
 40
1.884663110930518
  0
CIRCLE
  5
61
330
4A
100
AcDbEntity
  8
Specialized_Fills
  6
Continuous
 62
    30
420
 16742400
370
    20
100
AcDbCircle
 10
7004.061001902617
 20
4103.811471058695
 30
0.0
 40
1.884663110930518
  0
ARC
  5
62
330
4A
100
AcDbEntity
  8
Specialized_Fills
  6
Continuous
 62
    30
420
 16742400
370
    20
100
AcDbCircle
 10
6999.592402469144
 20
3914.728562505087
 30
0.0
 40
1.668521729680527
100
AcDbArc
 50
43.70707035521987
 51
136.9519508085153
  0
CIRCLE
  5
63
330
4A
100
AcDbEntity
  8
Specialized_Fills
  6
Continuous
 62
    30
420
 16742400
370
    20
100
AcDbCircle
 10
6988.168499251187
 20
3946.115478638454
 30
0.0
 40
1.668521729680527
  0
CIRCLE
  5
64
330
4A
100
AcDbEntity
  8
Specialized_Fills
  6
Continuous
 62
    30
420
 16742400
370
    20
100
AcDbCircle
 10
6976.744596033232
 20
3977.50239477182
 30
0.0
 40
1.668521729680527
  0
CIRCLE
  5
65
330
4A
100
AcDbEntity
  8
Specialized_Fills
  6
Continuous
 62
    30
420
 16742400
370
    20
100
AcDbCircle
 10
7008.126019000804
 20
3988.924298640935
 30
0.0
 40
1.668521729680527
  0
ARC
  5
66
330
4A
100
AcDbEntity
  8
Specialized_Fills
  6
Continuous
 62
    30
420
 16742400
370
    20
100
AcDbCircle
 10
6965.320692815279
 20
4008.889310905188
 30
0.0
 40
1.668521729680527
100
AcDbArc
 50
293.8305376285521
 51
66.16946237144794
  0
CIRCLE
  5
67
330
4A
100
AcDbEntity
  8
Specialized_Fills
  6
Continuous
 62
    30
420
 16742400
370
    20
100
AcDbCircle
 10
6996.702115782849
 20
4020.3112147743
 30
0.0
 40
1.668521729680527
  0
CIRCLE
  5
68
330
4A
100
AcDbEntity
  8
Specialized_Fills
  6
Continuous
 62
    30
420
 16742400
370
    20
100
AcDbCircle
 10
6985.278212564892
 20
4051.698130907669
 30
0.0
 40
1.668521729680527
  0
ARC
  5
69
330
4A
100
AcDbEntity
  8
Specialized_Fills
  6
Continuous
 62
    30
420
 16742400
370
    20
100
AcDbCircle
 10
7016.659635532464
 20
4063.120034776782
 30
0.0
 40
1.668521729680527
100
AcDbArc
 50
113.4806635167313
 51
246.5193364832686
  0
CIRCLE
  5
6A
330
4A
100
AcDbEntity
  8
Specialized_Fills
  6
Continuous
 62
    30
420
 16742400
370
    20
100
AcDbCircle
 10
6973.854309346937
 20
4083.085047041034
 30
0.0
 40
1.668521729680527
  0
CIRCLE
  5
6B
330
4A
100
AcDbEntity
  8
Specialized_Fills
  6
Continuous
 62
    30
420
 16742400
370
    20
100
AcDbCircle
 10
7005.235732314509
 20
4094.506950910149
 30
0.0
 40
1.668521729680527
  0
ARC
  5
6C
330
4A
100
AcDbEntity
  8
Specialized_Fills
  6
Continuous
 62
    30
420
 16742400
370
    20
100
AcDbCircle
 10
6993.811829096554
 20
4125.893867043515
 30
0.0
 40
1.668521729680527
100
AcDbArc
 50
217.8268336471749
 51
322.173166352825
  0
ARC
  5
6D
330
4A
100
AcDbEntity
  8
Specialized_Fills
  6
Continuous
 62
    30
420
 16742400
370
    20
100
AcDbCircle
 10
6966.029761656201
 20
4112.685448296017
 30
0.0
 40
2.35557420874174
100
AcDbArc
 50
269.1503208713353
 51
90.84967912866471
  0
ARC
  5
6E
330
4A
100
AcDbEntity
  8
Specialized_Fills
  6
Continuous
 62
    30
420
 16742400
370
    20
100
AcDbCircle
 10
6997.411184623771
 20
4124.107352165131
 30
0.0
 40
2.35557420874174
100
AcDbArc
 50
161.0938993067474
 51
18.90610069325255
  0
CIRCLE
  5
6F
330
4A
100
AcDbEntity
  8
Specialized_Fills
  6
Continuous
 62
    30
420
 16742400
370
    20
100
AcDbCircle
 10
6995.68889549389
 20
3935.581651222826
 30
0.0
 40
0.831379126126208
  0
CIRCLE
  5
70
330
4A
100
AcDbEntity
  8
Specialized_Fills
  6
Continuous
 62
    30
420
 16742400
370
    20
100
AcDbCircle
 10
6984.264992275935
 20
3966.968567356193
 30
0.0
 40
0.831379126126208
  0
ARC
  5
71
330
4A
100
AcDbEntity
  8
Specialized_Fills
  6
Continuous
 62
    30
420
 16742400
370
    20
100
AcDbCircle
 10
7015.646415243506
 20
3978.390471225307
 30
0.0
 40
0.831379126126208
100
AcDbArc
 50
65.22341596450764
 51
294.7765840354924
  0
CIRCLE
  5
72
330
4A
100
AcDbEntity
  8
Specialized_Fills
  6
Continuous
 62
    30
420
 16742400
370
    20
100
AcDbCircle
 10
6972.841089057979
 20
3998.355483489559
 30
0.0
 40
0.831379126126208
  0
CIRCLE
  5
73
330
4A
100
AcDbEntity
  8
Specialized_Fills
  6
Continuous
 62
    30
420
 16742400
370
    20
100
AcDbCircle
 10
7004.222512025551
 20
4009.777387358673
 30
0.0
 40
0.831379126126208
  0
CIRCLE
  5
74
330
4A
100
AcDbEntity
  8
Specialized_Fills
  6
Continuous
 62
    30
420
 16742400
370
    20
100
AcDbCircle
 10
6992.798608807595
 20
4041.164303492041
 30
0.0
 40
0.831379126126208
  0
CIRCLE
  5
75
330
4A
100
AcDbEntity
  8
Specialized_Fills
  6
Continuous
 62
    30
420
 16742400
370
    20
100
AcDbCircle
 10
6981.37470558964
 20
4072.551219625406
 30
0.0
 40
0.831379126126208
  0
CIRCLE
  5
76
330
4A
100
AcDbEntity
  8
Specialized_Fills
  6
Continuous
 62
    30
420
 16742400
370
    20
100
AcDbCircle
 10
7012.756128557211
 20
4083.97312349452
 30
0.0
 40
0.831379126126208
  0
CIRCLE
  5
77
330
4A
100
AcDbEntity
  8
Specialized_Fills
  6
Continuous
 62
    30
420
 16742400
370
    20
100
AcDbCircle
 10
6969.950802371684
 20
4103.938135758774
 30
0.0
 40
0.831379126126208
  0
CIRCLE
  5
78
330
4A
100
AcDbEntity
  8
Specialized_Fills
  6
Continuous
 62
    30
420
 16742400
370
    20
100
AcDbCircle
 10
7001.332225339256
 20
4115.360039627886
 30
0.0
 40
0.831379126126208
  0
CIRCLE
  5
79
330
4A
100
AcDbEntity
  8
Specialized_Fills
  6
Continuous
 62
    30
420
 16742400
370
    20
100
AcDbCircle
 10
6969.575103525895
 20
3925.487184784973
 30
0.0
 40
0.5542527507506278
  0
CIRCLE
  5
7A
330
4A
100
AcDbEntity
  8
Specialized_Fills
  6
Continuous
 62
    30
420
 16742400
370
    20
100
AcDbCircle
 10
7000.956526493465
 20
3936.909088654087
 30
0.0
 40
0.5542527507506278
  0
CIRCLE
  5
7B
330
4A
100
AcDbEntity
  8
Specialized_Fills
  6
Continuous
 62
    30
420
 16742400
370
    20
100
AcDbCircle
 10
6989.532623275509
 20
3968.296004787454
 30
0.0
 40
0.5542527507506278
  0
CIRCLE
  5
7C
330
4A
100
AcDbEntity
  8
Specialized_Fills
  6
Continuous
 62
    30
420
 16742400
370
    20
100
AcDbCircle
 10
6978.108720057555
 20
3999.682920920821
 30
0.0
 40
0.5542527507506278
  0
CIRCLE
  5
7D
330
4A
100
AcDbEntity
  8
Specialized_Fills
  6
Continuous
 62
    30
420
 16742400
370
    20
100
AcDbCircle
 10
7009.490143025125
 20
4011.104824789934
 30
0.0
 40
0.5542527507506278
  0
CIRCLE
  5
7E
330
4A
100
AcDbEntity
  8
Specialized_Fills
  6
Continuous
 62
    30
420
 16742400
370
    20
100
AcDbCircle
 10
6966.684816839599
 20
4031.069837054187
 30
0.0
 40
0.5542527507506278
  0
CIRCLE
  5
7F
330
4A
100
AcDbEntity
  8
Specialized_Fills
  6
Continuous
 62
    30
420
 16742400
370
    20
100
AcDbCircle
 10
6998.06623980717
 20
4042.491740923301
 30
0.0
 40
0.5542527507506278
  0
CIRCLE
  5
80
330
4A
100
AcDbEntity
  8
Specialized_Fills
  6
Continuous
 62
    30
420
 16742400
370
    20
100
AcDbCircle
 10
6986.642336589214
 20
4073.878657056667
 30
0.0
 40
0.5542527507506278
  0
CIRCLE
  5
81
330
4A
100
AcDbEntity
  8
Specialized_Fills
  6
Continuous
 62
    30
420
 16742400
370
    20
100
AcDbCircle
 10
6975.218433371259
 20
4105.265573190035
 30
0.0
 40
0.5542527507506278
  0
CIRCLE
  5
82
330
4A
100
AcDbEntity
  8
Specialized_Fills
  6
Continuous
 62
    30
420
 16742400
370
    20
100
AcDbCircle
 10
7006.59985633883
 20
4116.687477059148
 30
0.0
 40
0.5542527507506278
  0
CIRCLE
  5
83
330
4A
100
AcDbEntity
  8
Specialized_Fills
  6
Continuous
 62
    30
420
 16742400
370
    20
100
AcDbCircle
 10
6971.323803429382
 20
3936.887937601215
 30
0.0
 40
1.498790034299268
  0
CIRCLE
  5
84
330
4A
100
AcDbEntity
  8
Specialized_Fills
  6
Continuous
 62
    30
420
 16742400
370
    20
100
AcDbCircle
 10
7002.705226396954
 20
3948.309841470328
 30
0.0
 40
1.498790034299268
  0
CIRCLE
  5
85
330
4A
100
AcDbEntity
  8
Specialized_Fills
  6
Continuous
 62
    30
420
 16742400
370
    20
100
AcDbCircle
 10
6991.281323178998
 20
3979.696757603695
 30
0.0
 40
1.498790034299268
  0
CIRCLE
  5
86
330
4A
100
AcDbEntity
  8
Specialized_Fills
  6
Continuous
 62
    30
420
 16742400
370
    20
100
AcDbCircle
 10
6979.857419961042
 20
4011.083673737061
 30
0.0
 40
1.498790034299268
  0
CIRCLE
  5
87
330
4A
100
AcDbEntity
  8
Specialized_Fills
  6
Continuous
 62
    30
420
 16742400
370
    20
100
AcDbCircle
 10
7011.238842928614
 20
4022.505577606175
 30
0.0
 40
1.498790034299268
  0
CIRCLE
  5
88
330
4A
100
AcDbEntity
  8
Specialized_Fills
  6
Continuous
 62
    30
420
 16742400
370
    20
100
AcDbCircle
 10
6968.433516743087
 20
4042.470589870428
 30
0.0
 40
1.498790034299268
  0
CIRCLE
  5
89
330
4A
100
AcDbEntity
  8
Specialized_Fills
  6
Continuous
 62
    30
420
 16742400
370
    20
100
AcDbCircle
 10
6999.814939710659
 20
4053.892493739542
 30
0.0
 40
1.498790034299268
  0
CIRCLE
  5
8A
330
4A
100
AcDbEntity
  8
Specialized_Fills
  6
Continuous
 62
    30
420
 16742400
370
    20
100
AcDbCircle
 10
6988.391036492703
 20
4085.279409872908
 30
0.0
 40
1.498790034299268
  0
CIRCLE
  5
8B
330
4A
100
AcDbEntity
  8
Specialized_Fills
  6
Continuous
 62
    30
420
 16742400
370
    20
100
AcDbCircle
 10
6976.967133274747
 20
4116.666326006277
 30
0.0
 40
1.498790034299268
  0
CIRCLE
  5
8C
330
4A
100
AcDbEntity
  8
Specialized_Fills
  6
Continuous
 62
    30
420
 16742400
370
    20
100
AcDbCircle
 10
7009.652794066153
 20
3921.929186337556
 30
0.0
 40
1.23934682739506
  0
ARC
  5
8D
330
4A
100
AcDbEntity
  8
Specialized_Fills
  6
Continuous
 62
    30
420
 16742400
370
    20
100
AcDbCircle
 10
6966.847467880626
 20
3941.894198601809
 30
0.0
 40
1.23934682739506
100
AcDbArc
 50
226.5301168137948
 51
133.4698831862052
  0
CIRCLE
  5
8E
330
4A
100
AcDbEntity
  8
Specialized_Fills
  6
Continuous
 62
    30
420
 16742400
370
    20
100
AcDbCircle
 10
6998.228890848197
 20
3953.316102470922
 30
0.0
 40
1.23934682739506
  0
CIRCLE
  5
8F
330
4A
100
AcDbEntity
  8
Specialized_Fills
  6
Continuous
 62
    30
420
 16742400
370
    20
100
AcDbCircle
 10
6986.804987630242
 20
3984.703018604289
 30
0.0
 40
1.23934682739506
  0
CIRCLE
  5
90
330
4A
100
AcDbEntity
  8
Specialized_Fills
  6
Continuous
 62
    30
420
 16742400
370
    20
100
AcDbCircle
 10
6975.381084412287
 20
4016.089934737656
 30
0.0
 40
1.23934682739506
  0
CIRCLE
  5
91
330
4A
100
AcDbEntity
  8
Specialized_Fills
  6
Continuous
 62
    30
420
 16742400
370
    20
100
AcDbCircle
 10
7006.762507379857
 20
4027.511838606769
 30
0.0
 40
1.23934682739506
  0
CIRCLE
  5
92
330
4A
100
AcDbEntity
  8
Specialized_Fills
  6
Continuous
 62
    30
420
 16742400
370
    20
100
AcDbCircle
 10
6995.338604161903
 20
4058.898754740137
 30
0.0
 40
1.23934682739506
  0
CIRCLE
  5
93
330
4A
100
AcDbEntity
  8
Specialized_Fills
  6
Continuous
 62
    30
420
 16742400
370
    20
100
AcDbCircle
 10
6983.914700943947
 20
4090.285670873503
 30
0.0
 40
1.23934682739506
  0
ARC
  5
94
330
4A
100
AcDbEntity
  8
Specialized_Fills
  6
Continuous
 62
    30
420
 16742400
370
    20
100
AcDbCircle
 10
7015.296123911517
 20
4101.707574742617
 30
0.0
 40
1.23934682739506
100
AcDbArc
 50
55.68307801443346
 51
304.3169219855665
  0
CIRCLE
  5
95
330
4A
100
AcDbEntity
  8
Specialized_Fills
  6
Continuous
 62
    30
420
 16742400
370
    20
100
AcDbCircle
 10
6972.490797725992
 20
4121.672587006871
 30
0.0
 40
1.23934682739506
  0
CIRCLE
  5
96
330
4A
100
AcDbEntity
  8
Specialized_Fills
  6
Continuous
 62
    30
420
 16742400
370
    20
100
AcDbCircle
 10
7004.750892294599
 20
3924.863627662875
 30
0.0
 40
2.110531596509446
  0
CIRCLE
  5
97
330
4A
100
AcDbEntity
  8
Specialized_Fills
  6
Continuous
 62
    30
420
 16742400
370
    20
100
AcDbCircle
 10
6993.326989076644
 20
3956.250543796241
 30
0.0
 40
2.110531596509446
  0
CIRCLE
  5
98
330
4A
100
AcDbEntity
  8
Specialized_Fills
  6
Continuous
 62
    30
420
 16742400
370
    20
100
AcDbCircle
 10
6981.903085858689
 20
3987.637459929608
 30
0.0
 40
2.110531596509446
  0
CIRCLE
  5
99
330
4A
100
AcDbEntity
  8
Specialized_Fills
  6
Continuous
 62
    30
420
 16742400
370
    20
100
AcDbCircle
 10
7013.284508826259
 20
3999.059363798721
 30
0.0
 40
2.110531596509446
  0
CIRCLE
  5
9A
330
4A
100
AcDbEntity
  8
Specialized_Fills
  6
Continuous
 62
    30
420
 16742400
370
    20
100
AcDbCircle
 10
6970.479182640733
 20
4019.024376062975
 30
0.0
 40
2.110531596509446
  0
CIRCLE
  5
9B
330
4A
100
AcDbEntity
  8
Specialized_Fills
  6
Continuous
 62
    30
420
 16742400
370
    20
100
AcDbCircle
 10
7001.860605608304
 20
4030.446279932088
 30
0.0
 40
2.110531596509446
  0
CIRCLE
  5
9C
330
4A
100
AcDbEntity
  8
Specialized_Fills
  6
Continuous
 62
    30
420
 16742400
370
    20
100
AcDbCircle
 10
6990.436702390349
 20
4061.833196065456
 30
0.0
 40
2.110531596509446
  0
CIRCLE
  5
9D
330
4A
100
AcDbEntity
  8
Specialized_Fills
  6
Continuous
 62
    30
420
 16742400
370
    20
100
AcDbCircle
 10
6979.012799172394
 20
4093.220112198821
 30
0.0
 40
2.110531596509446
  0
CIRCLE
  5
9E
330
4A
100
AcDbEntity
  8
Specialized_Fills
  6
Continuous
 62
    30
420
 16742400
370
    20
100
AcDbCircle
 10
7010.394222139963
 20
4104.642016067935
 30
0.0
 40
2.110531596509446
  0
ARC
  5
9F
330
4A
100
AcDbEntity
  8
Specialized_Fills
  6
Continuous
 62
    30
420
 16742400
370
    20
100
AcDbCircle
 10
6967.588895954438
 20
4124.607028332189
 30
0.0
 40
2.110531596509446
100
AcDbArc
 50
220.949198769776
 51
7.174084590270095
  0
CIRCLE
  5
A0
330
4A
100
AcDbEntity
  8
Specialized_Fills
  6
Continuous
 62
    30
420
 16742400
370
    20
100
AcDbCircle
 10
7001.106536338607
 20
3918.671147045941
 30
0.0
 40
1.884663110930518
  0
CIRCLE
  5
A1
330
4A
100
AcDbEntity
  8
Specialized_Fills
  6
Continuous
 62
    30
420
 16742400
370
    20
100
AcDbCircle
 10
6989.682633120651
 20
3950.058063179308
 30
0.0
 40
1.884663110930518
  0
CIRCLE
  5
A2
330
4A
100
AcDbEntity
  8
Specialized_Fills
  6
Continuous
 62
    30
420
 16742400
370
    20
100
AcDbCircle
 10
6978.258729902697
 20
3981.444979312675
 30
0.0
 40
1.884663110930518
  0
CIRCLE
  5
A3
330
4A
100
AcDbEntity
  8
Specialized_Fills
  6
Continuous
 62
    30
420
 16742400
370
    20
100
AcDbCircle
 10
7009.640152870267
 20
3992.866883181789
 30
0.0
 40
1.884663110930518
  0
ARC
  5
A4
330
4A
100
AcDbEntity
  8
Specialized_Fills
  6
Continuous
 62
    30
420
 16742400
370
    20
100
AcDbCircle
 10
6966.83482668474
 20
4012.831895446041
 30
0.0
 40
1.884663110930518
100
AcDbArc
 50
243.531803769417
 51
116.468196230583
  0
CIRCLE
  5
A5
330
4A
100
AcDbEntity
  8
Specialized_Fills
  6
Continuous
 62
    30
420
 16742400
370
    20
100
AcDbCircle
 10
6998.216249652312
 20
4024.253799315154
 30
0.0
 40
1.884663110930518
  0
CIRCLE
  5
A6
330
4A
100
AcDbEntity
  8
Specialized_Fills
  6
Continuous
 62
    30
420
 16742400
370
    20
100
AcDbCircle
 10
6986.792346434356
 20
4055.640715448522
 30
0.0
 40
1.884663110930518
  0
CIRCLE
  5
A7
330
4A
100
AcDbEntity
  8
Specialized_Fills
  6
Continuous
 62
    30
420
 16742400
370
    20
100
AcDbCircle
 10
6975.3684432164
 20
4087.027631581888
 30
0.0
 40
1.884663110930518
  0
CIRCLE
  5
A8
330
4A
100
AcDbEntity
  8
Specialized_Fills
  6
Continuous
 62
    30
420
 16742400
370
    20
100
AcDbCircle
 10
7006.749866183972
 20
4098.449535451002
 30
0.0
 40
1.884663110930518
  0
CIRCLE
  5
A9
330
4A
100
AcDbEntity
  8
Specialized_Fills
  6
Continuous
 62
    30
420
 16742400
370
    20
100
AcDbCircle
 10
6990.459593809579
 20
3928.06700467729
 30
0.0
 40
2.351495271282999
  0
CIRCLE
  5
AA
330
4A
100
AcDbEntity
  8
Specialized_Fills
  6
Continuous
 62
    30
420
 16742400
370
    20
100
AcDbCircle
 10
6979.035690591624
 20
3959.453920810658
 30
0.0
 40
2.351495271282999
  0
CIRCLE
  5
AB
330
4A
100
AcDbEntity
  8
Specialized_Fills
  6
Continuous
 62
    30
420
 16742400
370
    20
100
AcDbCircle
 10
7010.417113559196
 20
3970.875824679771
 30
0.0
 40
2.351495271282999
  0
ARC
  5
AC
330
4A
100
AcDbEntity
  8
Specialized_Fills
  6
Continuous
 62
    30
420
 16742400
370
    20
100
AcDbCircle
 10
6967.61178737367
 20
3990.840836944024
 30
0.0
 40
2.351495271282999
100
AcDbArc
 50
226.5572660692075
 51
133.4427339307924
  0
CIRCLE
  5
AD
330
4A
100
AcDbEntity
  8
Specialized_Fills
  6
Continuous
 62
    30
420
 16742400
370
    20
100
AcDbCircle
 10
6998.99321034124
 20
4002.262740813137
 30
0.0
 40
2.351495271282999
  0
CIRCLE
  5
AE
330
4A
100
AcDbEntity
  8
Specialized_Fills
  6
Continuous
 62
    30
420
 16742400
370
    20
100
AcDbCircle
 10
6987.569307123284
 20
4033.649656946503
 30
0.0
 40
2.351495271282999
  0
CIRCLE
  5
AF
330
4A
100
AcDbEntity
  8
Specialized_Fills
  6
Continuous
 62
    30
420
 16742400
370
    20
100
AcDbCircle
 10
6976.145403905331
 20
4065.036573079871
 30
0.0
 40
2.351495271282999
  0
CIRCLE
  5
B0
330
4A
100
AcDbEntity
  8
Specialized_Fills
  6
Continuous
 62
    30
420
 16742400
370
    20
100
AcDbCircle
 10
7007.526826872901
 20
4076.458476948984
 30
0.0
 40
2.351495271282999
  0
ARC
  5
B1
330
4A
100
AcDbEntity
  8
Specialized_Fills
  6
Continuous
 62
    30
420
 16742400
370
    20
100
AcDbCircle
 10
6964.721500687374
 20
4096.423489213237
 30
0.0
 40
2.351495271282999
100
AcDbArc
 50
302.7856669753326
 51
57.21433302466739
  0
CIRCLE
  5
B2
330
4A
100
AcDbEntity
  8
Specialized_Fills
  6
Continuous
 62
    30
420
 16742400
370
    20
100
AcDbCircle
 10
6996.102923654945
 20
4107.84539308235
 30
0.0
 40
2.351495271282999
  0
CIRCLE
  5
B3
330
4A
100
AcDbEntity
  8
Specialized_Fills
  6
Continuous
 62
    30
420
 16742400
370
    20
100
AcDbCircle
 10
6989.419852147749
 20
3921.20051162655
 30
0.0
 40
1.082213091730288
  0
CIRCLE
  5
B4
330
4A
100
AcDbEntity
  8
Specialized_Fills
  6
Continuous
 62
    30
420
 16742400
370
    20
100
AcDbCircle
 10
6977.995948929795
 20
3952.587427759916
 30
0.0
 40
1.082213091730288
  0
CIRCLE
  5
B5
330
4A
100
AcDbEntity
  8
Specialized_Fills
  6
Continuous
 62
    30
420
 16742400
370
    20
100
AcDbCircle
 10
7009.377371897365
 20
3964.00933162903
 30
0.0
 40
1.082213091730288
  0
ARC
  5
B6
330
4A
100
AcDbEntity
  8
Specialized_Fills
  6
Continuous
 62
    30
420
 16742400
370
    20
100
AcDbCircle
 10
6966.572045711838
 20
3983.974343893283
 30
0.0
 40
1.082213091730288
100
AcDbArc
 50
237.7668621451105
 51
122.2331378548895
  0
CIRCLE
  5
B7
330
4A
100
AcDbEntity
  8
Specialized_Fills
  6
Continuous
 62
    30
420
 16742400
370
    20
100
AcDbCircle
 10
6997.953468679409
 20
3995.396247762397
 30
0.0
 40
1.082213091730288
  0
CIRCLE
  5
B8
330
4A
100
AcDbEntity
  8
Specialized_Fills
  6
Continuous
 62
    30
420
 16742400
370
    20
100
AcDbCircle
 10
6986.529565461454
 20
4026.783163895763
 30
0.0
 40
1.082213091730288
  0
CIRCLE
  5
B9
330
4A
100
AcDbEntity
  8
Specialized_Fills
  6
Continuous
 62
    30
420
 16742400
370
    20
100
AcDbCircle
 10
6975.105662243499
 20
4058.170080029129
 30
0.0
 40
1.082213091730288
  0
CIRCLE
  5
BA
330
4A
100
AcDbEntity
  8
Specialized_Fills
  6
Continuous
 62
    30
420
 16742400
370
    20
100
AcDbCircle
 10
7006.48708521107
 20
4069.591983898243
 30
0.0
 40
1.082213091730288
  0
CIRCLE
  5
BB
330
4A
100
AcDbEntity
  8
Specialized_Fills
  6
Continuous
 62
    30
420
 16742400
370
    20
100
AcDbCircle
 10
6995.063181993114
 20
4100.978900031609
 30
0.0
 40
1.082213091730288
  0
CIRCLE
  5
BC
330
4A
100
AcDbEntity
  8
Specialized_Fills
  6
Continuous
 62
    30
420
 16742400
370
    20
100
AcDbCircle
 10
6983.676872551524
 20
3926.040663625295
 30
0.0
 40
1.859020241092324
  0
ARC
  5
BD
330
4A
100
AcDbEntity
  8
Specialized_Fills
  6
Continuous
 62
    30
420
 16742400
370
    20
100
AcDbCircle
 10
7015.058295519096
 20
3937.462567494409
 30
0.0
 40
1.859020241092324
100
AcDbArc
 50
59.74968093507027
 51
300.2503190649297
  0
CIRCLE
  5
BE
330
4A
100
AcDbEntity
  8
Specialized_Fills
  6
Continuous
 62
    30
420
 16742400
370
    20
100
AcDbCircle
 10
6972.252969333569
 20
3957.427579758662
 30
0.0
 40
1.859020241092324
  0
CIRCLE
  5
BF
330
4A
100
AcDbEntity
  8
Specialized_Fills
  6
Continuous
 62
    30
420
 16742400
370
    20
100
AcDbCircle
 10
7003.63439230114
 20
3968.849483627776
 30
0.0
 40
1.859020241092324
  0
CIRCLE
  5
C0
330
4A
100
AcDbEntity
  8
Specialized_Fills
  6
Continuous
 62
    30
420
 16742400
370
    20
100
AcDbCircle
 10
6992.210489083184
 20
4000.236399761142
 30
0.0
 40
1.859020241092324
  0
CIRCLE
  5
C1
330
4A
100
AcDbEntity
  8
Specialized_Fills
  6
Continuous
 62
    30
420
 16742400
370
    20
100
AcDbCircle
 10
6980.786585865229
 20
4031.623315894509
 30
0.0
 40
1.859020241092324
  0
CIRCLE
  5
C2
330
4A
100
AcDbEntity
  8
Specialized_Fills
  6
Continuous
 62
    30
420
 16742400
370
    20
100
AcDbCircle
 10
7012.168008832801
 20
4043.045219763622
 30
0.0
 40
1.859020241092324
  0
CIRCLE
  5
C3
330
4A
100
AcDbEntity
  8
Specialized_Fills
  6
Continuous
 62
    30
420
 16742400
370
    20
100
AcDbCircle
 10
6969.362682647274
 20
4063.010232027876
 30
0.0
 40
1.859020241092324
  0
CIRCLE
  5
C4
330
4A
100
AcDbEntity
  8
Specialized_Fills
  6
Continuous
 62
    30
420
 16742400
370
    20
100
AcDbCircle
 10
7000.744105614845
 20
4074.43213589699
 30
0.0
 40
1.859020241092324
  0
CIRCLE
  5
C5
330
4A
100
AcDbEntity
  8
Specialized_Fills
  6
Continuous
 62
    30
420
 16742400
370
    20
100
AcDbCircle
 10
6989.320202396889
 20
4105.819052030356
 30
0.0
 40
1.859020241092324
  0
ARC
  5
C6
330
4A
100
AcDbEntity
  8
Specialized_Fills
  6
Continuous
 62
    30
420
 16742400
370
    20
100
AcDbCircle
 10
7014.964947299993
 20
3932.857459724194
 30
0.0
 40
1.108505509026478
100
AcDbArc
 50
338.2908625403481
 51
21.70913745971153
  0
CIRCLE
  5
C7
330
4A
100
AcDbEntity
  8
Specialized_Fills
  6
Continuous
 62
    30
420
 16742400
370
    20
100
AcDbCircle
 10
6987.951196901565
 20
3923.615082120953
 30
0.0
 40
0.8763505458929897
  0
CIRCLE
  5
C8
330
4A
100
AcDbEntity
  8
Specialized_Fills
  6
Continuous
 62
    30
420
 16742400
370
    20
100
AcDbCircle
 10
6976.527293683611
 20
3955.00199825432
 30
0.0
 40
0.8763505458929897
  0
CIRCLE
  5
C9
330
4A
100
AcDbEntity
  8
Specialized_Fills
  6
Continuous
 62
    30
420
 16742400
370
    20
100
AcDbCircle
 10
7007.908716651183
 20
3966.423902123433
 30
0.0
 40
0.8763505458929897
  0
CIRCLE
  5
CA
330
4A
100
AcDbEntity
  8
Specialized_Fills
  6
Continuous
 62
    30
420
 16742400
370
    20
100
AcDbCircle
 10
6996.484813433226
 20
3997.8108182568
 30
0.0
 40
0.8763505458929897
  0
CIRCLE
  5
CB
330
4A
100
AcDbEntity
  8
Specialized_Fills
  6
Continuous
 62
    30
420
 16742400
370
    20
100
AcDbCircle
 10
6985.060910215271
 20
4029.197734390167
 30
0.0
 40
0.8763505458929897
  0
ARC
  5
CC
330
4A
100
AcDbEntity
  8
Specialized_Fills
  6
Continuous
 62
    30
420
 16742400
370
    20
100
AcDbCircle
 10
7016.442333182841
 20
4040.619638259281
 30
0.0
 40
0.8763505458929897
100
AcDbArc
 50
120.7067017615354
 51
239.2932982384645
  0
CIRCLE
  5
CD
330
4A
100
AcDbEntity
  8
Specialized_Fills
  6
Continuous
 62
    30
420
 16742400
370
    20
100
AcDbCircle
 10
6973.637006997316
 20
4060.584650523534
 30
0.0
 40
0.8763505458929897
  0
CIRCLE
  5
CE
330
4A
100
AcDbEntity
  8
Specialized_Fills
  6
Continuous
 62
    30
420
 16742400
370
    20
100
AcDbCircle
 10
7005.018429964886
 20
4072.006554392649
 30
0.0
 40
0.8763505458929897
  0
CIRCLE
  5
CF
330
4A
100
AcDbEntity
  8
Specialized_Fills
  6
Continuous
 62
    30
420
 16742400
370
    20
100
AcDbCircle
 10
6993.594526746932
 20
4103.393470526014
 30
0.0
 40
0.8763505458929897
  0
CIRCLE
  5
D0
330
4A
100
AcDbEntity
  8
Specialized_Fills
  6
Continuous
 62
    30
420
 16742400
370
    20
100
AcDbCircle
 10
6977.024836292959
 20
3922.439873514554
 30
0.0
 40
1.364689132099527
  0
CIRCLE
  5
D1
330
4A
100
AcDbEntity
  8
Specialized_Fills
  6
Continuous
 62
    30
420
 16742400
370
    20
100
AcDbCircle
 10
7008.406259260531
 20
3933.861777383667
 30
0.0
 40
1.364689132099527
  0
ARC
  5
D2
330
4A
100
AcDbEntity
  8
Specialized_Fills
  6
Continuous
 62
    30
420
 16742400
370
    20
100
AcDbCircle
 10
6965.600933075004
 20
3953.826789647921
 30
0.0
 40
1.364689132099527
100
AcDbArc
 50
286.776268863542
 51
73.22373113645799
  0
CIRCLE
  5
D3
330
4A
100
AcDbEntity
  8
Specialized_Fills
  6
Continuous
 62
    30
420
 16742400
370
    20
100
AcDbCircle
 10
6996.982356042575
 20
3965.248693517035
 30
0.0
 40
1.364689132099527
  0
CIRCLE
  5
D4
330
4A
100
AcDbEntity
  8
Specialized_Fills
  6
Continuous
 62
    30
420
 16742400
370
    20
100
AcDbCircle
 10
6985.558452824619
 20
3996.635609650401
 30
0.0
 40
1.364689132099527
  0
ARC
  5
D5
330
4A
100
AcDbEntity
  8
Specialized_Fills
  6
Continuous
 62
    30
420
 16742400
370
    20
100
AcDbCircle
 10
7016.939875792191
 20
4008.057513519514
 30
0.0
 40
1.364689132099527
100
AcDbArc
 50
133.828221406591
 51
226.171778593409
  0
CIRCLE
  5
D6
330
4A
100
AcDbEntity
  8
Specialized_Fills
  6
Continuous
 62
    30
420
 16742400
370
    20
100
AcDbCircle
 10
6974.134549606664
 20
4028.022525783767
 30
0.0
 40
1.364689132099527
  0
CIRCLE
  5
D7
330
4A
100
AcDbEntity
  8
Specialized_Fills
  6
Continuous
 62
    30
420
 16742400
370
    20
100
AcDbCircle
 10
7005.515972574236
 20
4039.44442965288
 30
0.0
 40
1.364689132099527
  0
CIRCLE
  5
D8
330
4A
100
AcDbEntity
  8
Specialized_Fills
  6
Continuous
 62
    30
420
 16742400
370
    20
100
AcDbCircle
 10
6994.09206935628
 20
4070.831345786248
 30
0.0
 40
1.364689132099527
  0
CIRCLE
  5
D9
330
4A
100
AcDbEntity
  8
Specialized_Fills
  6
Continuous
 62
    30
420
 16742400
370
    20
100
AcDbCircle
 10
6982.668166138324
 20
4102.218261919614
 30
0.0
 40
1.364689132099527
  0
CIRCLE
  5
DA
330
4A
100
AcDbEntity
  8
Specialized_Fills
  6
Continuous
 62
    30
420
 16742400
370
    20
100
AcDbCircle
 10
7014.049589105896
 20
4113.640165788729
 30
0.0
 40
1.364689132099527
  0
CIRCLE
  5
DB
330
4A
100
AcDbEntity
  8
Specialized_Fills
  6
Continuous
 62
    30
420
 16742400
370
    20
100
AcDbCircle
 10
6972.230641112003
 20
3921.432208493526
 30
0.0
 40
0.9991933561993347
  0
CIRCLE
  5
DC
330
4A
100
AcDbEntity
  8
Specialized_Fills
  6
Continuous
 62
    30
420
 16742400
370
    20
100
AcDbCircle
 10
7003.612064079573
 20
3932.854112362639
 30
0.0
 40
0.9991933561993347
  0
CIRCLE
  5
DD
330
4A
100
AcDbEntity
  8
Specialized_Fills
  6
Continuous
 62
    30
420
 16742400
370
    20
100
AcDbCircle
 10
6992.188160861617
 20
3964.241028496007
 30
0.0
 40
0.9991933561993347
  0
CIRCLE
  5
DE
330
4A
100
AcDbEntity
  8
Specialized_Fills
  6
Continuous
 62
    30
420
 16742400
370
    20
100
AcDbCircle
 10
6980.764257643663
 20
3995.627944629373
 30
0.0
 40
0.9991933561993347
  0
CIRCLE
  5
DF
330
4A
100
AcDbEntity
  8
Specialized_Fills
  6
Continuous
 62
    30
420
 16742400
370
    20
100
AcDbCircle
 10
7012.145680611233
 20
4007.049848498485
 30
0.0
 40
0.9991933561993347
  0
CIRCLE
  5
E0
330
4A
100
AcDbEntity
  8
Specialized_Fills
  6
Continuous
 62
    30
420
 16742400
370
    20
100
AcDbCircle
 10
6969.340354425707
 20
4027.014860762739
 30
0.0
 40
0.9991933561993347
  0
CIRCLE
  5
E1
330
4A
100
AcDbEntity
  8
Specialized_Fills
  6
Continuous
 62
    30
420
 16742400
370
    20
100
AcDbCircle
 10
7000.721777393278
 20
4038.436764631852
 30
0.0
 40
0.9991933561993347
  0
CIRCLE
  5
E2
330
4A
100
AcDbEntity
  8
Specialized_Fills
  6
Continuous
 62
    30
420
 16742400
370
    20
100
AcDbCircle
 10
6989.297874175324
 20
4069.82368076522
 30
0.0
 40
0.9991933561993347
  0
CIRCLE
  5
E3
330
4A
100
AcDbEntity
  8
Specialized_Fills
  6
Continuous
 62
    30
420
 16742400
370
    20
100
AcDbCircle
 10
6977.873970957367
 20
4101.210596898587
 30
0.0
 40
0.9991933561993347
  0
CIRCLE
  5
E4
330
4A
100
AcDbEntity
  8
Specialized_Fills
  6
Continuous
 62
    30
420
 16742400
370
    20
100
AcDbCircle
 10
7009.255393924938
 20
4112.6325007677
 30
0.0
 40
0.9991933561993347
  0
CIRCLE
  5
E5
330
4A
100
AcDbEntity
  8
Specialized_Fills
  6
Continuous
 62
    30
420
 16742400
370
    20
100
AcDbCircle
 10
6969.25981939531
 20
3919.466182630814
 30
0.0
 40
1.446642150311205
  0
CIRCLE
  5
E6
330
4A
100
AcDbEntity
  8
Specialized_Fills
  6
Continuous
 62
    30
420
 16742400
370
    20
100
AcDbCircle
 10
7000.641242362881
 20
3930.888086499928
 30
0.0
 40
1.446642150311205
  0
CIRCLE
  5
E7
330
4A
100
AcDbEntity
  8
Specialized_Fills
  6
Continuous
 62
    30
420
 16742400
370
    20
100
AcDbCircle
 10
6989.217339144925
 20
3962.275002633294
 30
0.0
 40
1.446642150311205
  0
CIRCLE
  5
E8
330
4A
100
AcDbEntity
  8
Specialized_Fills
  6
Continuous
 62
    30
420
 16742400
370
    20
100
AcDbCircle
 10
6977.793435926971
 20
3993.661918766662
 30
0.0
 40
1.446642150311205
  0
CIRCLE
  5
E9
330
4A
100
AcDbEntity
  8
Specialized_Fills
  6
Continuous
 62
    30
420
 16742400
370
    20
100
AcDbCircle
 10
7009.174858894541
 20
4005.083822635774
 30
0.0
 40
1.446642150311205
  0
ARC
  5
EA
330
4A
100
AcDbEntity
  8
Specialized_Fills
  6
Continuous
 62
    30
420
 16742400
370
    20
100
AcDbCircle
 10
6966.369532709015
 20
4025.048834900029
 30
0.0
 40
1.446642150311205
100
AcDbArc
 50
254.9883676097756
 51
105.0116323902243
  0
CIRCLE
  5
EB
330
4A
100
AcDbEntity
  8
Specialized_Fills
  6
Continuous
 62
    30
420
 16742400
370
    20
100
AcDbCircle
 10
6997.750955676585
 20
4036.470738769142
 30
0.0
 40
1.446642150311205
  0
CIRCLE
  5
EC
330
4A
100
AcDbEntity
  8
Specialized_Fills
  6
Continuous
 62
    30
420
 16742400
370
    20
100
AcDbCircle
 10
6986.327052458631
 20
4067.85765490251
 30
0.0
 40
1.446642150311205
  0
CIRCLE
  5
ED
330
4A
100
AcDbEntity
  8
Specialized_Fills
  6
Continuous
 62
    30
420
 16742400
370
    20
100
AcDbCircle
 10
6974.903149240674
 20
4099.244571035875
 30
0.0
 40
1.446642150311205
  0
CIRCLE
  5
EE
330
4A
100
AcDbEntity
  8
Specialized_Fills
  6
Continuous
 62
    30
420
 16742400
370
    20
100
AcDbCircle
 10
7006.284572208246
 20
4110.66647490499
 30
0.0
 40
1.446642150311205
  0
ARC
  5
EF
330
4A
100
AcDbEntity
  8
Specialized_Fills
  6
Continuous
 62
    30
420
 16742400
370
    20
100
AcDbCircle
 10
7015.488643686971
 20
3923.315982569085
 30
0.0
 40
1.254743030480298
100
AcDbArc
 50
66.20792771301023
 51
213.2956461170776
  0
CIRCLE
  5
F0
330
4A
100
AcDbEntity
  8
Specialized_Fills
  6
Continuous
 62
    30
420
 16742400
370
    20
100
AcDbCircle
 10
6972.683317501445
 20
3943.280994833338
 30
0.0
 40
1.254743030480298
  0
CIRCLE
  5
F1
330
4A
100
AcDbEntity
  8
Specialized_Fills
  6
Continuous
 62
    30
420
 16742400
370
    20
100
AcDbCircle
 10
7004.064740469016
 20
3954.702898702452
 30
0.0
 40
1.254743030480298
  0
CIRCLE
  5
F2
330
4A
100
AcDbEntity
  8
Specialized_Fills
  6
Continuous
 62
    30
420
 16742400
370
    20
100
AcDbCircle
 10
6992.640837251062
 20
3986.089814835818
 30
0.0
 40
1.254743030480298
  0
CIRCLE
  5
F3
330
4A
100
AcDbEntity
  8
Specialized_Fills
  6
Continuous
 62
    30
420
 16742400
370
    20
100
AcDbCircle
 10
6981.216934033105
 20
4017.476730969185
 30
0.0
 40
1.254743030480298
  0
CIRCLE
  5
F4
330
4A
100
AcDbEntity
  8
Specialized_Fills
  6
Continuous
 62
    30
420
 16742400
370
    20
100
AcDbCircle
 10
7012.598357000676
 20
4028.898634838298
 30
0.0
 40
1.254743030480298
  0
CIRCLE
  5
F5
330
4A
100
AcDbEntity
  8
Specialized_Fills
  6
Continuous
 62
    30
420
 16742400
370
    20
100
AcDbCircle
 10
6969.793030815151
 20
4048.863647102552
 30
0.0
 40
1.254743030480298
  0
CIRCLE
  5
F6
330
4A
100
AcDbEntity
  8
Specialized_Fills
  6
Continuous
 62
    30
420
 16742400
370
    20
100
AcDbCircle
 10
7001.174453782721
 20
4060.285550971665
 30
0.0
 40
1.254743030480298
  0
CIRCLE
  5
F7
330
4A
100
AcDbEntity
  8
Specialized_Fills
  6
Continuous
 62
    30
420
 16742400
370
    20
100
AcDbCircle
 10
6989.750550564766
 20
4091.672467105031
 30
0.0
 40
1.254743030480298
  0
CIRCLE
  5
F8
330
4A
100
AcDbEntity
  8
Specialized_Fills
  6
Continuous
 62
    30
420
 16742400
370
    20
100
AcDbCircle
 10
6978.326647346811
 20
4123.059383238399
 30
0.0
 40
1.254743030480298
  0
ARC
  5
F9
330
4A
100
AcDbEntity
  8
Specialized_Fills
  6
Continuous
 62
    30
420
 16742400
370
    20
100
AcDbCircle
 10
6991.730063413112
 20
3915.258389998657
 30
0.0
 40
2.190876364732474
100
AcDbArc
 50
15.43431135607754
 51
165.2247098076566
  0
CIRCLE
  5
FA
330
4A
100
AcDbEntity
  8
Specialized_Fills
  6
Continuous
 62
    30
420
 16742400
370
    20
100
AcDbCircle
 10
6980.306160195157
 20
3946.645306132025
 30
0.0
 40
2.190876364732474
  0
CIRCLE
  5
FB
330
4A
100
AcDbEntity
  8
Specialized_Fills
  6
Continuous
 62
    30
420
 16742400
370
    20
100
AcDbCircle
 10
7011.687583162728
 20
3958.067210001138
 30
0.0
 40
2.190876364732474
  0
CIRCLE
  5
FC
330
4A
100
AcDbEntity
  8
Specialized_Fills
  6
Continuous
 62
    30
420
 16742400
370
    20
100
AcDbCircle
 10
6968.882256977201
 20
3978.032222265392
 30
0.0
 40
2.190876364732474
  0
CIRCLE
  5
FD
330
4A
100
AcDbEntity
  8
Specialized_Fills
  6
Continuous
 62
    30
420
 16742400
370
    20
100
AcDbCircle
 10
7000.263679944771
 20
3989.454126134505
 30
0.0
 40
2.190876364732474
  0
CIRCLE
  5
FE
330
4A
100
AcDbEntity
  8
Specialized_Fills
  6
Continuous
 62
    30
420
 16742400
370
    20
100
AcDbCircle
 10
6988.839776726817
 20
4020.841042267871
 30
0.0
 40
2.190876364732474
  0
CIRCLE
  5
FF
330
4A
100
AcDbEntity
  8
Specialized_Fills
  6
Continuous
 62
    30
420
 16742400
370
    20
100
AcDbCircle
 10
6977.415873508862
 20
4052.227958401238
 30
0.0
 40
2.190876364732474
  0
CIRCLE
  5
100
330
4A
100
AcDbEntity
  8
Specialized_Fills
  6
Continuous
 62
    30
420
 16742400
370
    20
100
AcDbCircle
 10
7008.797296476432
 20
4063.649862270352
 30
0.0
 40
2.190876364732474
  0
ARC
  5
101
330
4A
100
AcDbEntity
  8
Specialized_Fills
  6
Continuous
 62
    30
420
 16742400
370
    20
100
AcDbCircle
 10
6965.991970290906
 20
4083.614874534606
 30
0.0
 40
2.190876364732474
100
AcDbArc
 50
270.0747997159014
 51
89.9252002840986
  0
CIRCLE
  5
102
330
4A
100
AcDbEntity
  8
Specialized_Fills
  6
Continuous
 62
    30
420
 16742400
370
    20
100
AcDbCircle
 10
6997.373393258477
 20
4095.036778403719
 30
0.0
 40
2.190876364732474
  0
ARC
  5
103
330
4A
100
AcDbEntity
  8
Specialized_Fills
  6
Continuous
 62
    30
420
 16742400
370
    20
100
AcDbCircle
 10
6985.949490040522
 20
4126.423694537087
 30
0.0
 40
2.190876364732474
100
AcDbArc
 50
225.1447937526761
 51
314.8552062473239
  0
ARC
  5
104
330
4A
100
AcDbEntity
  8
Specialized_Fills
  6
Continuous
 62
    30
420
 16742400
370
    20
100
AcDbCircle
 10
6983.277153904669
 20
3916.605458477258
 30
0.0
 40
1.392542801927199
100
AcDbArc
 50
324.0119005702675
 51
216.6471205934606
  0
ARC
  5
105
330
4A
100
AcDbEntity
  8
Specialized_Fills
  6
Continuous
 62
    30
420
 16742400
370
    20
100
AcDbCircle
 10
7014.65857687224
 20
3928.027362346372
 30
0.0
 40
1.392542801927199
100
AcDbArc
 50
16.3463104006432
 51
343.6536895993568
  0
CIRCLE
  5
106
330
4A
100
AcDbEntity
  8
Specialized_Fills
  6
Continuous
 62
    30
420
 16742400
370
    20
100
AcDbCircle
 10
6971.853250686713
 20
3947.992374610624
 30
0.0
 40
1.392542801927199
  0
CIRCLE
  5
107
330
4A
100
AcDbEntity
  8
Specialized_Fills
  6
Continuous
 62
    30
420
 16742400
370
    20
100
AcDbCircle
 10
7003.234673654285
 20
3959.414278479739
 30
0.0
 40
1.392542801927199
  0
CIRCLE
  5
108
330
4A
100
AcDbEntity
  8
Specialized_Fills
  6
Continuous
 62
    30
420
 16742400
370
    20
100
AcDbCircle
 10
6991.810770436329
 20
3990.801194613105
 30
0.0
 40
1.392542801927199
  0
CIRCLE
  5
109
330
4A
100
AcDbEntity
  8
Specialized_Fills
  6
Continuous
 62
    30
420
 16742400
370
    20
100
AcDbCircle
 10
6980.386867218374
 20
4022.188110746472
 30
0.0
 40
1.392542801927199
  0
CIRCLE
  5
10A
330
4A
100
AcDbEntity
  8
Specialized_Fills
  6
Continuous
 62
    30
420
 16742400
370
    20
100
AcDbCircle
 10
7011.768290185944
 20
4033.610014615584
 30
0.0
 40
1.392542801927199
  0
CIRCLE
  5
10B
330
4A
100
AcDbEntity
  8
Specialized_Fills
  6
Continuous
 62
    30
420
 16742400
370
    20
100
AcDbCircle
 10
6968.962964000418
 20
4053.575026879838
 30
0.0
 40
1.392542801927199
  0
CIRCLE
  5
10C
330
4A
100
AcDbEntity
  8
Specialized_Fills
  6
Continuous
 62
    30
420
 16742400
370
    20
100
AcDbCircle
 10
7000.34438696799
 20
4064.996930748952
 30
0.0
 40
1.392542801927199
  0
CIRCLE
  5
10D
330
4A
100
AcDbEntity
  8
Specialized_Fills
  6
Continuous
 62
    30
420
 16742400
370
    20
100
AcDbCircle
 10
6988.920483750034
 20
4096.383846882319
 30
0.0
 40
1.392542801927199
  0
ARC
  5
10E
330
4A
100
AcDbEntity
  8
Specialized_Fills
  6
Continuous
 62
    30
420
 16742400
370
    20
100
AcDbCircle
 10
6978.814220338391
 20
3916.308186281411
 30
0.0
 40
1.385631884225165
100
AcDbArc
 50
203.8578423529511
 51
336.8011788037853
  0
ARC
  5
10F
330
4A
100
AcDbEntity
  8
Specialized_Fills
  6
Continuous
 62
    30
420
 16742400
370
    20
100
AcDbCircle
 10
7015.838973151327
 20
4107.508478555586
 30
0.0
 40
1.385631884225165
100
AcDbArc
 50
276.4583572191012
 51
83.54164278089877
  0
CIRCLE
  5
110
330
4A
100
AcDbEntity
  8
Specialized_Fills
  6
Continuous
 62
    30
420
 16742400
370
    20
100
AcDbCircle
 10
6977.433946837152
 20
3931.444142978867
 30
0.0
 40
3.246639275191398
  0
CIRCLE
  5
111
330
4A
100
AcDbEntity
  8
Specialized_Fills
  6
Continuous
 62
    30
420
 16742400
370
    20
100
AcDbCircle
 10
7008.815369804723
 20
3942.866046847981
 30
0.0
 40
3.246639275191398
  0
ARC
  5
112
330
4A
100
AcDbEntity
  8
Specialized_Fills
  6
Continuous
 62
    30
420
 16742400
370
    20
100
AcDbCircle
 10
6966.010043619198
 20
3962.831059112234
 30
0.0
 40
3.246639275191398
100
AcDbArc
 50
269.7315218397753
 51
90.26847816022465
  0
CIRCLE
  5
113
330
4A
100
AcDbEntity
  8
Specialized_Fills
  6
Continuous
 62
    30
420
 16742400
370
    20
100
AcDbCircle
 10
6997.391466586769
 20
3974.252962981348
 30
0.0
 40
3.246639275191398
  0
CIRCLE
  5
114
330
4A
100
AcDbEntity
  8
Specialized_Fills
  6
Continuous
 62
    30
420
 16742400
370
    20
100
AcDbCircle
 10
6985.967563368813
 20
4005.639879114713
 30
0.0
 40
3.246639275191398
  0
ARC
  5
115
330
4A
100
AcDbEntity
  8
Specialized_Fills
  6
Continuous
 62
    30
420
 16742400
370
    20
100
AcDbCircle
 10
7017.348986336384
 20
4017.061782983827
 30
0.0
 40
3.246639275191398
100
AcDbArc
 50
114.6512956562088
 51
245.3487043437911
  0
CIRCLE
  5
116
330
4A
100
AcDbEntity
  8
Specialized_Fills
  6
Continuous
 62
    30
420
 16742400
370
    20
100
AcDbCircle
 10
6974.543660150859
 20
4037.02679524808
 30
0.0
 40
3.246639275191398
  0
CIRCLE
  5
117
330
4A
100
AcDbEntity
  8
Specialized_Fills
  6
Continuous
 62
    30
420
 16742400
370
    20
100
AcDbCircle
 10
7005.925083118428
 20
4048.448699117194
 30
0.0
 40
3.246639275191398
  0
ARC
  5
118
330
4A
100
AcDbEntity
  8
Specialized_Fills
  6
Continuous
 62
    30
420
 16742400
370
    20
100
AcDbCircle
 10
6963.119756932903
 20
4068.413711381448
 30
0.0
 40
3.246639275191398
100
AcDbArc
 50
332.3197418073166
 51
27.68025819268336
  0
CIRCLE
  5
119
330
4A
100
AcDbEntity
  8
Specialized_Fills
  6
Continuous
 62
    30
420
 16742400
370
    20
100
AcDbCircle
 10
6994.501179900473
 20
4079.835615250561
 30
0.0
 40
3.246639275191398
  0
CIRCLE
  5
11A
330
4A
100
AcDbEntity
  8
Specialized_Fills
  6
Continuous
 62
    30
420
 16742400
370
    20
100
AcDbCircle
 10
6983.077276682519
 20
4111.222531383929
 30
0.0
 40
3.246639275191398
  0
ARC
  5
11B
330
4A
100
AcDbEntity
  8
Specialized_Fills
  6
Continuous
 62
    30
420
 16742400
370
    20
100
AcDbCircle
 10
7014.458699650089
 20
4122.644435253041
 30
0.0
 40
3.246639275191398
100
AcDbArc
 50
136.7106463933301
 51
298.2386335600278
  0
ARC
  5
11C
330
4A
100
AcDbEntity
  8
Specialized_Fills
  6
Continuous
 62
    30
420
 16742400
370
    20
100
AcDbCircle
 10
6966.870752491209
 20
3974.645888946826
 30
0.0
 40
1.492371212980843
100
AcDbArc
 50
234.0603296359127
 51
125.9396703641149
  0
CIRCLE
  5
11D
330
4A
100
AcDbEntity
  8
Specialized_Fills
  6
Continuous
 62
    30
420
 16742400
370
    20
100
AcDbCircle
 10
6977.573730068552
 20
3939.16272486422
 30
0.0
 40
1.983922927269609
  0
CIRCLE
  5
11E
330
4A
100
AcDbEntity
  8
Specialized_Fills
  6
Continuous
 62
    30
420
 16742400
370
    20
100
AcDbCircle
 10
7008.955153036122
 20
3950.584628733333
 30
0.0
 40
1.983922927269609
  0
ARC
  5
11F
330
4A
100
AcDbEntity
  8
Specialized_Fills
  6
Continuous
 62
    30
420
 16742400
370
    20
100
AcDbCircle
 10
6966.149826850596
 20
3970.549640997587
 30
0.0
 40
1.983922927269609
100
AcDbArc
 50
265.5191319843571
 51
94.48086801564281
  0
CIRCLE
  5
120
330
4A
100
AcDbEntity
  8
Specialized_Fills
  6
Continuous
 62
    30
420
 16742400
370
    20
100
AcDbCircle
 10
6997.531249818168
 20
3981.9715448667
 30
0.0
 40
1.983922927269609
  0
CIRCLE
  5
121
330
4A
100
AcDbEntity
  8
Specialized_Fills
  6
Continuous
 62
    30
420
 16742400
370
    20
100
AcDbCircle
 10
6986.107346600213
 20
4013.358461000066
 30
0.0
 40
1.983922927269609
  0
ARC
  5
122
330
4A
100
AcDbEntity
  8
Specialized_Fills
  6
Continuous
 62
    30
420
 16742400
370
    20
100
AcDbCircle
 10
7017.488769567783
 20
4024.78036486918
 30
0.0
 40
1.983922927269609
100
AcDbArc
 50
138.8529001021182
 51
221.1470998978818
  0
CIRCLE
  5
123
330
4A
100
AcDbEntity
  8
Specialized_Fills
  6
Continuous
 62
    30
420
 16742400
370
    20
100
AcDbCircle
 10
6974.683443382257
 20
4044.745377133433
 30
0.0
 40
1.983922927269609
  0
CIRCLE
  5
124
330
4A
100
AcDbEntity
  8
Specialized_Fills
  6
Continuous
 62
    30
420
 16742400
370
    20
100
AcDbCircle
 10
7006.064866349828
 20
4056.167281002547
 30
0.0
 40
1.983922927269609
  0
CIRCLE
  5
125
330
4A
100
AcDbEntity
  8
Specialized_Fills
  6
Continuous
 62
    30
420
 16742400
370
    20
100
AcDbCircle
 10
6994.640963131871
 20
4087.554197135914
 30
0.0
 40
1.983922927269609
  0
CIRCLE
  5
126
330
4A
100
AcDbEntity
  8
Specialized_Fills
  6
Continuous
 62
    30
420
 16742400
370
    20
100
AcDbCircle
 10
6983.217059913918
 20
4118.941113269281
 30
0.0
 40
1.983922927269609
  0
CIRCLE
  5
127
330
4A
100
AcDbEntity
  8
Specialized_Fills
  6
Continuous
 62
    30
420
 16742400
370
    20
100
AcDbCircle
 10
6982.759502053474
 20
3937.068883169065
 30
0.0
 40
2.217011003003044
  0
ARC
  5
128
330
4A
100
AcDbEntity
  8
Specialized_Fills
  6
Continuous
 62
    30
420
 16742400
370
    20
100
AcDbCircle
 10
7014.140925021044
 20
3948.490787038178
 30
0.0
 40
2.217011003003044
100
AcDbArc
 50
33.25707653853276
 51
326.7429234614672
  0
CIRCLE
  5
129
330
4A
100
AcDbEntity
  8
Specialized_Fills
  6
Continuous
 62
    30
420
 16742400
370
    20
100
AcDbCircle
 10
6971.335598835517
 20
3968.455799302431
 30
0.0
 40
2.217011003003044
  0
CIRCLE
  5
12A
330
4A
100
AcDbEntity
  8
Specialized_Fills
  6
Continuous
 62
    30
420
 16742400
370
    20
100
AcDbCircle
 10
7002.717021803089
 20
3979.877703171545
 30
0.0
 40
2.217011003003044
  0
CIRCLE
  5
12B
330
4A
100
AcDbEntity
  8
Specialized_Fills
  6
Continuous
 62
    30
420
 16742400
370
    20
100
AcDbCircle
 10
6991.293118585133
 20
4011.264619304911
 30
0.0
 40
2.217011003003044
  0
CIRCLE
  5
12C
330
4A
100
AcDbEntity
  8
Specialized_Fills
  6
Continuous
 62
    30
420
 16742400
370
    20
100
AcDbCircle
 10
6979.869215367178
 20
4042.651535438278
 30
0.0
 40
2.217011003003044
  0
CIRCLE
  5
12D
330
4A
100
AcDbEntity
  8
Specialized_Fills
  6
Continuous
 62
    30
420
 16742400
370
    20
100
AcDbCircle
 10
7011.250638334749
 20
4054.073439307393
 30
0.0
 40
2.217011003003044
  0
CIRCLE
  5
12E
330
4A
100
AcDbEntity
  8
Specialized_Fills
  6
Continuous
 62
    30
420
 16742400
370
    20
100
AcDbCircle
 10
6968.445312149224
 20
4074.038451571645
 30
0.0
 40
2.217011003003044
  0
CIRCLE
  5
12F
330
4A
100
AcDbEntity
  8
Specialized_Fills
  6
Continuous
 62
    30
420
 16742400
370
    20
100
AcDbCircle
 10
6999.826735116794
 20
4085.460355440758
 30
0.0
 40
2.217011003003044
  0
CIRCLE
  5
130
330
4A
100
AcDbEntity
  8
Specialized_Fills
  6
Continuous
 62
    30
420
 16742400
370
    20
100
AcDbCircle
 10
6988.402831898838
 20
4116.847271574126
 30
0.0
 40
2.217011003003044
  0
CIRCLE
  5
131
330
4A
100
AcDbEntity
  8
Specialized_Fills
  6
Continuous
 62
    30
420
 16742400
370
    20
100
AcDbCircle
 10
6988.418709857012
 20
3935.294813884143
 30
0.0
 40
1.364689132099527
  0
CIRCLE
  5
132
330
4A
100
AcDbEntity
  8
Specialized_Fills
  6
Continuous
 62
    30
420
 16742400
370
    20
100
AcDbCircle
 10
6976.994806639057
 20
3966.68173001751
 30
0.0
 40
1.364689132099527
  0
CIRCLE
  5
133
330
4A
100
AcDbEntity
  8
Specialized_Fills
  6
Continuous
 62
    30
420
 16742400
370
    20
100
AcDbCircle
 10
7008.376229606628
 20
3978.103633886624
 30
0.0
 40
1.364689132099527
  0
ARC
  5
134
330
4A
100
AcDbEntity
  8
Specialized_Fills
  6
Continuous
 62
    30
420
 16742400
370
    20
100
AcDbCircle
 10
6965.570903421102
 20
3998.068646150877
 30
0.0
 40
1.364689132099527
100
AcDbArc
 50
288.0978053661548
 51
71.90219463384527
  0
CIRCLE
  5
135
330
4A
100
AcDbEntity
  8
Specialized_Fills
  6
Continuous
 62
    30
420
 16742400
370
    20
100
AcDbCircle
 10
6996.952326388672
 20
4009.490550019989
 30
0.0
 40
1.364689132099527
  0
CIRCLE
  5
136
330
4A
100
AcDbEntity
  8
Specialized_Fills
  6
Continuous
 62
    30
420
 16742400
370
    20
100
AcDbCircle
 10
6985.528423170717
 20
4040.877466153356
 30
0.0
 40
1.364689132099527
  0
ARC
  5
137
330
4A
100
AcDbEntity
  8
Specialized_Fills
  6
Continuous
 62
    30
420
 16742400
370
    20
100
AcDbCircle
 10
7016.909846138289
 20
4052.29937002247
 30
0.0
 40
1.364689132099527
100
AcDbArc
 50
132.1051910351369
 51
227.894808964863
  0
CIRCLE
  5
138
330
4A
100
AcDbEntity
  8
Specialized_Fills
  6
Continuous
 62
    30
420
 16742400
370
    20
100
AcDbCircle
 10
6974.104519952764
 20
4072.264382286723
 30
0.0
 40
1.364689132099527
  0
CIRCLE
  5
139
330
4A
100
AcDbEntity
  8
Specialized_Fills
  6
Continuous
 62
    30
420
 16742400
370
    20
100
AcDbCircle
 10
7005.485942920333
 20
4083.686286155837
 30
0.0
 40
1.364689132099527
  0
CIRCLE
  5
13A
330
4A
100
AcDbEntity
  8
Specialized_Fills
  6
Continuous
 62
    30
420
 16742400
370
    20
100
AcDbCircle
 10
6994.062039702377
 20
4115.073202289204
 30
0.0
 40
1.364689132099527
  0
CIRCLE
  5
13B
330
4A
100
AcDbEntity
  8
Specialized_Fills
  6
Continuous
 62
    30
420
 16742400
370
    20
100
AcDbCircle
 10
6996.006755126092
 20
3941.595577244449
 30
0.0
 40
0.9699423138137321
  0
CIRCLE
  5
13C
330
4A
100
AcDbEntity
  8
Specialized_Fills
  6
Continuous
 62
    30
420
 16742400
370
    20
100
AcDbCircle
 10
6984.582851908136
 20
3972.982493377815
 30
0.0
 40
0.9699423138137321
  0
ARC
  5
13D
330
4A
100
AcDbEntity
  8
Specialized_Fills
  6
Continuous
 62
    30
420
 16742400
370
    20
100
AcDbCircle
 10
7015.964274875708
 20
3984.40439724693
 30
0.0
 40
0.9699423138137321
100
AcDbArc
 50
88.1947411092166
 51
271.8052588907834
  0
CIRCLE
  5
13E
330
4A
100
AcDbEntity
  8
Specialized_Fills
  6
Continuous
 62
    30
420
 16742400
370
    20
100
AcDbCircle
 10
6973.158948690181
 20
4004.369409511181
 30
0.0
 40
0.9699423138137321
  0
CIRCLE
  5
13F
330
4A
100
AcDbEntity
  8
Specialized_Fills
  6
Continuous
 62
    30
420
 16742400
370
    20
100
AcDbCircle
 10
7004.540371657753
 20
4015.791313380296
 30
0.0
 40
0.9699423138137321
  0
CIRCLE
  5
140
330
4A
100
AcDbEntity
  8
Specialized_Fills
  6
Continuous
 62
    30
420
 16742400
370
    20
100
AcDbCircle
 10
6993.116468439797
 20
4047.178229513662
 30
0.0
 40
0.9699423138137321
  0
CIRCLE
  5
141
330
4A
100
AcDbEntity
  8
Specialized_Fills
  6
Continuous
 62
    30
420
 16742400
370
    20
100
AcDbCircle
 10
6981.692565221841
 20
4078.565145647028
 30
0.0
 40
0.9699423138137321
  0
CIRCLE
  5
142
330
4A
100
AcDbEntity
  8
Specialized_Fills
  6
Continuous
 62
    30
420
 16742400
370
    20
100
AcDbCircle
 10
7013.073988189413
 20
4089.987049516143
 30
0.0
 40
0.9699423138137321
  0
CIRCLE
  5
143
330
4A
100
AcDbEntity
  8
Specialized_Fills
  6
Continuous
 62
    30
420
 16742400
370
    20
100
AcDbCircle
 10
6970.268662003888
 20
4109.952061780396
 30
0.0
 40
0.9699423138137321
  0
CIRCLE
  5
144
330
4A
100
AcDbEntity
  8
Specialized_Fills
  6
Continuous
 62
    30
420
 16742400
370
    20
100
AcDbCircle
 10
7001.650084971458
 20
4121.373965649509
 30
0.0
 40
0.9699423138137321
  0
ARC
  5
145
330
4A
100
AcDbEntity
  8
Specialized_Fills
  6
Continuous
 62
    30
420
 16742400
370
    20
100
AcDbCircle
 10
7007.660315563136
 20
3917.957906454671
 30
0.0
 40
2.004675758922407
100
AcDbArc
 50
48.98928269388153
 51
191.0402995436884
  0
ARC
  5
146
330
4A
100
AcDbEntity
  8
Specialized_Fills
  6
Continuous
 62
    30
420
 16742400
370
    20
100
AcDbCircle
 10
6964.85498937761
 20
3937.922918718925
 30
0.0
 40
2.004675758922407
100
AcDbArc
 50
55.34795160871115
 51
304.6520483912536
  0
ARC
  5
147
330
4A
100
AcDbEntity
  8
Specialized_Fills
  6
Continuous
 62
    30
420
 16742400
370
    20
100
AcDbCircle
 10
7016.193932094797
 20
3992.153642590519
 30
0.0
 40
2.004675758922407
100
AcDbArc
 50
95.69993451736863
 51
264.3000654826566
  0
CIRCLE
  5
148
330
4A
100
AcDbEntity
  8
Specialized_Fills
  6
Continuous
 62
    30
420
 16742400
370
    20
100
AcDbCircle
 10
6968.165175249907
 20
3933.751732789327
 30
0.0
 40
1.57542517109146
  0
CIRCLE
  5
149
330
4A
100
AcDbEntity
  8
Specialized_Fills
  6
Continuous
 62
    30
420
 16742400
370
    20
100
AcDbCircle
 10
6999.546598217479
 20
3945.17363665844
 30
0.0
 40
1.57542517109146
  0
CIRCLE
  5
14A
330
4A
100
AcDbEntity
  8
Specialized_Fills
  6
Continuous
 62
    30
420
 16742400
370
    20
100
AcDbCircle
 10
6988.122694999525
 20
3976.560552791807
 30
0.0
 40
1.57542517109146
  0
CIRCLE
  5
14B
330
4A
100
AcDbEntity
  8
Specialized_Fills
  6
Continuous
 62
    30
420
 16742400
370
    20
100
AcDbCircle
 10
6976.698791781569
 20
4007.947468925173
 30
0.0
 40
1.57542517109146
  0
CIRCLE
  5
14C
330
4A
100
AcDbEntity
  8
Specialized_Fills
  6
Continuous
 62
    30
420
 16742400
370
    20
100
AcDbCircle
 10
7008.080214749139
 20
4019.369372794287
 30
0.0
 40
1.57542517109146
  0
ARC
  5
14D
330
4A
100
AcDbEntity
  8
Specialized_Fills
  6
Continuous
 62
    30
420
 16742400
370
    20
100
AcDbCircle
 10
6965.274888563614
 20
4039.33438505854
 30
0.0
 40
1.57542517109146
100
AcDbArc
 50
297.1925720650233
 51
62.80742793497671
  0
CIRCLE
  5
14E
330
4A
100
AcDbEntity
  8
Specialized_Fills
  6
Continuous
 62
    30
420
 16742400
370
    20
100
AcDbCircle
 10
6996.656311531184
 20
4050.756288927654
 30
0.0
 40
1.57542517109146
  0
CIRCLE
  5
14F
330
4A
100
AcDbEntity
  8
Specialized_Fills
  6
Continuous
 62
    30
420
 16742400
370
    20
100
AcDbCircle
 10
6985.232408313229
 20
4082.143205061021
 30
0.0
 40
1.57542517109146
  0
ARC
  5
150
330
4A
100
AcDbEntity
  8
Specialized_Fills
  6
Continuous
 62
    30
420
 16742400
370
    20
100
AcDbCircle
 10
7016.6138312808
 20
4093.565108930135
 30
0.0
 40
1.57542517109146
100
AcDbArc
 50
113.1357092774224
 51
246.8642907225776
  0
CIRCLE
  5
151
330
4A
100
AcDbEntity
  8
Specialized_Fills
  6
Continuous
 62
    30
420
 16742400
370
    20
100
AcDbCircle
 10
6973.808505095274
 20
4113.530121194389
 30
0.0
 40
1.57542517109146
  0
ARC
  5
152
330
4A
100
AcDbEntity
  8
Specialized_Fills
  6
Continuous
 62
    30
420
 16742400
370
    20
100
AcDbCircle
 10
7005.189928062844
 20
4124.952025063502
 30
0.0
 40
1.57542517109146
100
AcDbArc
 50
182.9625884696247
 51
357.0374115303752
  0
CIRCLE
  5
153
330
4A
100
AcDbEntity
  8
Specialized_Fills
  6
Continuous
 62
    30
420
 16742400
370
    20
100
AcDbCircle
 10
6990.299454213827
 20
3939.500190775955
 30
0.0
 40
1.277489469031145
  0
CIRCLE
  5
154
330
4A
100
AcDbEntity
  8
Specialized_Fills
  6
Continuous
 62
    30
420
 16742400
370
    20
100
AcDbCircle
 10
6978.875550995873
 20
3970.887106909322
 30
0.0
 40
1.277489469031145
  0
CIRCLE
  5
155
330
4A
100
AcDbEntity
  8
Specialized_Fills
  6
Continuous
 62
    30
420
 16742400
370
    20
100
AcDbCircle
 10
7010.256973963443
 20
3982.309010778436
 30
0.0
 40
1.277489469031145
  0
CIRCLE
  5
156
330
4A
100
AcDbEntity
  8
Specialized_Fills
  6
Continuous
 62
    30
420
 16742400
370
    20
100
AcDbCircle
 10
6967.451647777918
 20
4002.274023042688
 30
0.0
 40
1.277489469031145
  0
CIRCLE
  5
157
330
4A
100
AcDbEntity
  8
Specialized_Fills
  6
Continuous
 62
    30
420
 16742400
370
    20
100
AcDbCircle
 10
6998.833070745487
 20
4013.695926911802
 30
0.0
 40
1.277489469031145
  0
CIRCLE
  5
158
330
4A
100
AcDbEntity
  8
Specialized_Fills
  6
Continuous
 62
    30
420
 16742400
370
    20
100
AcDbCircle
 10
6987.409167527534
 20
4045.08284304517
 30
0.0
 40
1.277489469031145
  0
CIRCLE
  5
159
330
4A
100
AcDbEntity
  8
Specialized_Fills
  6
Continuous
 62
    30
420
 16742400
370
    20
100
AcDbCircle
 10
6975.985264309577
 20
4076.469759178535
 30
0.0
 40
1.277489469031145
  0
CIRCLE
  5
15A
330
4A
100
AcDbEntity
  8
Specialized_Fills
  6
Continuous
 62
    30
420
 16742400
370
    20
100
AcDbCircle
 10
7007.366687277148
 20
4087.891663047649
 30
0.0
 40
1.277489469031145
  0
CIRCLE
  5
15B
330
4A
100
AcDbEntity
  8
Specialized_Fills
  6
Continuous
 62
    30
420
 16742400
370
    20
100
AcDbCircle
 10
6995.942784059194
 20
4119.278579181016
 30
0.0
 40
1.277489469031145
  0
ARC
  5
15C
330
4A
100
AcDbEntity
  8
Specialized_Fills
  6
Continuous
 62
    30
420
 16742400
370
    20
100
AcDbCircle
 10
6967.084770556901
 20
3926.873170269758
 30
0.0
 40
1.255125548576963
100
AcDbArc
 50
209.7277700014997
 51
150.2722299985002
  0
CIRCLE
  5
15D
330
4A
100
AcDbEntity
  8
Specialized_Fills
  6
Continuous
 62
    30
420
 16742400
370
    20
100
AcDbCircle
 10
6998.466193524473
 20
3938.295074138872
 30
0.0
 40
1.255125548576963
  0
CIRCLE
  5
15E
330
4A
100
AcDbEntity
  8
Specialized_Fills
  6
Continuous
 62
    30
420
 16742400
370
    20
100
AcDbCircle
 10
6987.042290306519
 20
3969.681990272239
 30
0.0
 40
1.255125548576963
  0
CIRCLE
  5
15F
330
4A
100
AcDbEntity
  8
Specialized_Fills
  6
Continuous
 62
    30
420
 16742400
370
    20
100
AcDbCircle
 10
6975.618387088562
 20
4001.068906405605
 30
0.0
 40
1.255125548576963
  0
CIRCLE
  5
160
330
4A
100
AcDbEntity
  8
Specialized_Fills
  6
Continuous
 62
    30
420
 16742400
370
    20
100
AcDbCircle
 10
7006.999810056133
 20
4012.490810274718
 30
0.0
 40
1.255125548576963
  0
CIRCLE
  5
161
330
4A
100
AcDbEntity
  8
Specialized_Fills
  6
Continuous
 62
    30
420
 16742400
370
    20
100
AcDbCircle
 10
6995.575906838178
 20
4043.877726408086
 30
0.0
 40
1.255125548576963
  0
CIRCLE
  5
162
330
4A
100
AcDbEntity
  8
Specialized_Fills
  6
Continuous
 62
    30
420
 16742400
370
    20
100
AcDbCircle
 10
6984.152003620223
 20
4075.264642541452
 30
0.0
 40
1.255125548576963
  0
ARC
  5
163
330
4A
100
AcDbEntity
  8
Specialized_Fills
  6
Continuous
 62
    30
420
 16742400
370
    20
100
AcDbCircle
 10
7015.533426587793
 20
4086.686546410566
 30
0.0
 40
1.255125548576963
100
AcDbArc
 50
68.43135189809162
 51
291.5686481019084
  0
CIRCLE
  5
164
330
4A
100
AcDbEntity
  8
Specialized_Fills
  6
Continuous
 62
    30
420
 16742400
370
    20
100
AcDbCircle
 10
6972.728100402268
 20
4106.65155867482
 30
0.0
 40
1.255125548576963
  0
CIRCLE
  5
165
330
4A
100
AcDbEntity
  8
Specialized_Fills
  6
Continuous
 62
    30
420
 16742400
370
    20
100
AcDbCircle
 10
7004.109523369838
 20
4118.073462543933
 30
0.0
 40
1.255125548576963
  0
CIRCLE
  5
166
330
4A
100
AcDbEntity
  8
Specialized_Fills
  6
Continuous
 62
    30
420
 16742400
370
    20
100
AcDbCircle
 10
6973.853630758618
 20
3926.094170217915
 30
0.0
 40
1.474220607961029
  0
CIRCLE
  5
167
330
4A
100
AcDbEntity
  8
Specialized_Fills
  6
Continuous
 62
    30
420
 16742400
370
    20
100
AcDbCircle
 10
7005.235053726188
 20
3937.516074087028
 30
0.0
 40
1.474220607961029
  0
CIRCLE
  5
168
330
4A
100
AcDbEntity
  8
Specialized_Fills
  6
Continuous
 62
    30
420
 16742400
370
    20
100
AcDbCircle
 10
6993.811150508233
 20
3968.902990220396
 30
0.0
 40
1.474220607961029
  0
CIRCLE
  5
169
330
4A
100
AcDbEntity
  8
Specialized_Fills
  6
Continuous
 62
    30
420
 16742400
370
    20
100
AcDbCircle
 10
6982.387247290279
 20
4000.289906353762
 30
0.0
 40
1.474220607961029
  0
CIRCLE
  5
16A
330
4A
100
AcDbEntity
  8
Specialized_Fills
  6
Continuous
 62
    30
420
 16742400
370
    20
100
AcDbCircle
 10
7013.768670257849
 20
4011.711810222876
 30
0.0
 40
1.474220607961029
  0
CIRCLE
  5
16B
330
4A
100
AcDbEntity
  8
Specialized_Fills
  6
Continuous
 62
    30
420
 16742400
370
    20
100
AcDbCircle
 10
6970.963344072322
 20
4031.676822487129
 30
0.0
 40
1.474220607961029
  0
CIRCLE
  5
16C
330
4A
100
AcDbEntity
  8
Specialized_Fills
  6
Continuous
 62
    30
420
 16742400
370
    20
100
AcDbCircle
 10
7002.344767039893
 20
4043.098726356244
 30
0.0
 40
1.474220607961029
  0
CIRCLE
  5
16D
330
4A
100
AcDbEntity
  8
Specialized_Fills
  6
Continuous
 62
    30
420
 16742400
370
    20
100
AcDbCircle
 10
6990.92086382194
 20
4074.485642489609
 30
0.0
 40
1.474220607961029
  0
CIRCLE
  5
16E
330
4A
100
AcDbEntity
  8
Specialized_Fills
  6
Continuous
 62
    30
420
 16742400
370
    20
100
AcDbCircle
 10
6979.496960603983
 20
4105.872558622976
 30
0.0
 40
1.474220607961029
  0
CIRCLE
  5
16F
330
4A
100
AcDbEntity
  8
Specialized_Fills
  6
Continuous
 62
    30
420
 16742400
370
    20
100
AcDbCircle
 10
7010.878383571554
 20
4117.29446249209
 30
0.0
 40
1.474220607961029
  0
CIRCLE
  5
170
330
4A
100
AcDbEntity
  8
Specialized_Fills
  6
Continuous
 62
    30
420
 16742400
370
    20
100
AcDbCircle
 10
6985.621986187265
 20
3930.804167574573
 30
0.0
 40
1.37258085789611
  0
ARC
  5
171
330
4A
100
AcDbEntity
  8
Specialized_Fills
  6
Continuous
 62
    30
420
 16742400
370
    20
100
AcDbCircle
 10
7017.003409154836
 20
3942.226071443688
 30
0.0
 40
1.37258085789611
100
AcDbArc
 50
137.2907042225382
 51
222.7092957774617
  0
CIRCLE
  5
172
330
4A
100
AcDbEntity
  8
Specialized_Fills
  6
Continuous
 62
    30
420
 16742400
370
    20
100
AcDbCircle
 10
6974.19808296931
 20
3962.191083707941
 30
0.0
 40
1.37258085789611
  0
CIRCLE
  5
173
330
4A
100
AcDbEntity
  8
Specialized_Fills
  6
Continuous
 62
    30
420
 16742400
370
    20
100
AcDbCircle
 10
7005.579505936882
 20
3973.612987577054
 30
0.0
 40
1.37258085789611
  0
CIRCLE
  5
174
330
4A
100
AcDbEntity
  8
Specialized_Fills
  6
Continuous
 62
    30
420
 16742400
370
    20
100
AcDbCircle
 10
6994.155602718925
 20
4004.99990371042
 30
0.0
 40
1.37258085789611
  0
CIRCLE
  5
175
330
4A
100
AcDbEntity
  8
Specialized_Fills
  6
Continuous
 62
    30
420
 16742400
370
    20
100
AcDbCircle
 10
6982.731699500971
 20
4036.386819843787
 30
0.0
 40
1.37258085789611
  0
CIRCLE
  5
176
330
4A
100
AcDbEntity
  8
Specialized_Fills
  6
Continuous
 62
    30
420
 16742400
370
    20
100
AcDbCircle
 10
7014.113122468541
 20
4047.808723712902
 30
0.0
 40
1.37258085789611
  0
CIRCLE
  5
177
330
4A
100
AcDbEntity
  8
Specialized_Fills
  6
Continuous
 62
    30
420
 16742400
370
    20
100
AcDbCircle
 10
6971.307796283015
 20
4067.773735977154
 30
0.0
 40
1.37258085789611
  0
CIRCLE
  5
178
330
4A
100
AcDbEntity
  8
Specialized_Fills
  6
Continuous
 62
    30
420
 16742400
370
    20
100
AcDbCircle
 10
7002.689219250585
 20
4079.195639846267
 30
0.0
 40
1.37258085789611
  0
CIRCLE
  5
179
330
4A
100
AcDbEntity
  8
Specialized_Fills
  6
Continuous
 62
    30
420
 16742400
370
    20
100
AcDbCircle
 10
6991.265316032631
 20
4110.582555979635
 30
0.0
 40
1.37258085789611
  0
CIRCLE
  5
17A
330
4A
100
AcDbEntity
  8
Specialized_Fills
  6
Continuous
 62
    30
420
 16742400
370
    20
100
AcDbCircle
 10
6984.316642199897
 20
3943.299715958398
 30
0.0
 40
1.045510956534734
  0
ARC
  5
17B
330
4A
100
AcDbEntity
  8
Specialized_Fills
  6
Continuous
 62
    30
420
 16742400
370
    20
100
AcDbCircle
 10
7015.698065167467
 20
3954.721619827512
 30
0.0
 40
1.045510956534734
100
AcDbArc
 50
73.51004994441503
 51
286.489950055585
  0
CIRCLE
  5
17C
330
4A
100
AcDbEntity
  8
Specialized_Fills
  6
Continuous
 62
    30
420
 16742400
370
    20
100
AcDbCircle
 10
6972.892738981942
 20
3974.686632091765
 30
0.0
 40
1.045510956534734
  0
CIRCLE
  5
17D
330
4A
100
AcDbEntity
  8
Specialized_Fills
  6
Continuous
 62
    30
420
 16742400
370
    20
100
AcDbCircle
 10
7004.274161949512
 20
3986.108535960879
 30
0.0
 40
1.045510956534734
  0
CIRCLE
  5
17E
330
4A
100
AcDbEntity
  8
Specialized_Fills
  6
Continuous
 62
    30
420
 16742400
370
    20
100
AcDbCircle
 10
6992.850258731557
 20
4017.495452094244
 30
0.0
 40
1.045510956534734
  0
CIRCLE
  5
17F
330
4A
100
AcDbEntity
  8
Specialized_Fills
  6
Continuous
 62
    30
420
 16742400
370
    20
100
AcDbCircle
 10
6981.426355513601
 20
4048.882368227611
 30
0.0
 40
1.045510956534734
  0
CIRCLE
  5
180
330
4A
100
AcDbEntity
  8
Specialized_Fills
  6
Continuous
 62
    30
420
 16742400
370
    20
100
AcDbCircle
 10
7012.807778481172
 20
4060.304272096725
 30
0.0
 40
1.045510956534734
  0
CIRCLE
  5
181
330
4A
100
AcDbEntity
  8
Specialized_Fills
  6
Continuous
 62
    30
420
 16742400
370
    20
100
AcDbCircle
 10
6970.002452295647
 20
4080.269284360979
 30
0.0
 40
1.045510956534734
  0
CIRCLE
  5
182
330
4A
100
AcDbEntity
  8
Specialized_Fills
  6
Continuous
 62
    30
420
 16742400
370
    20
100
AcDbCircle
 10
7001.383875263217
 20
4091.691188230092
 30
0.0
 40
1.045510956534734
  0
CIRCLE
  5
183
330
4A
100
AcDbEntity
  8
Specialized_Fills
  6
Continuous
 62
    30
420
 16742400
370
    20
100
AcDbCircle
 10
6989.959972045261
 20
4123.07810436346
 30
0.0
 40
1.045510956534734
  0
ENDBLK
  5
4C
330
4A
100
AcDbEntity
  8
0
100
AcDbBlockEnd
  0
BLOCK
  5
1E7
330
1E6
100
AcDbEntity
  8
0
100
AcDbBlockBegin
  2
*D3
 70
     1
 10
0.0
 20
0.0
 30
0.0
  3
*D3
  1

  0
LINE
  5
A28
330
1E6
100
AcDbEntity
  8
Specialized_Lines
  6
Continuous
 62
     7
440
 16777216
370
    -2
100
AcDbLine
 10
7004.659716407608
 20
3897.964036407242
 30
0.0
 11
6952.391333821944
 21
3897.964036407242
 31
0.0
  0
LINE
  5
A29
330
1E6
100
AcDbEntity
  8
Specialized_Lines
  6
Continuous
 62
     7
440
 16777216
370
    -2
100
AcDbLine
 10
7007.488709726473
 20
3907.625198946352
 30
0.0
 11
6952.391333821944
 21
3907.625198946352
 31
0.0
  0
LINE
  5
A2A
330
1E6
100
AcDbEntity
  8
Specialized_Lines
  6
Continuous
 62
     7
440
 16777216
370
    -2
100
AcDbLine
 10
6952.571333821945
 20
3894.164036407241
 30
0.0
 11
6952.571333821945
 21
3890.364036407241
 31
0.0
  0
LINE
  5
A2B
330
1E6
100
AcDbEntity
  8
Specialized_Lines
  6
Continuous
 62
     7
440
 16777216
370
    -2
100
AcDbLine
 10
6952.571333821945
 20
3911.425198946352
 30
0.0
 11
6952.571333821945
 21
3915.225198946352
 31
0.0
  0
LINE
  5
A2C
330
1E6
100
AcDbEntity
  8
Specialized_Lines
  6
Continuous
 62
     7
440
 16777216
370
    -2
100
AcDbLine
 10
6952.571333821945
 20
3897.964036407242
 30
0.0
 11
6952.571333821945
 21
3907.625198946352
 31
0.0
  0
INSERT
  5
A2D
330
1E6
100
AcDbEntity
  8
Specialized_Lines
  6
Continuous
 62
     7
440
 16777216
370
    -2
100
AcDbBlockReference
  2
ARROWHEAD_6
 10
6952.571333821945
 20
3897.964036407242
 30
0.0
 41
3.799999999999999
 42
3.799999999999999
 43
3.799999999999999
 50
90.0
  0
INSERT
  5
A2E
330
1E6
100
AcDbEntity
  8
Specialized_Lines
  6
Continuous
 62
     7
440
 16777216
370
    -2
100
AcDbBlockReference
  2
ARROWHEAD_6
 10
6952.571333821945
 20
3907.625198946352
 30
0.0
 41
3.799999999999999
 42
3.799999999999999
 43
3.799999999999999
 50
270.0
  0
MTEXT
  5
A2F
330
1E6
100
AcDbEntity
  8
Specialized_Lines
  6
Continuous
 62
     7
440
 16777216
100
AcDbMText
 10
6947.868356826003
 20
3902.794617676798
 30
0.0
 40
5.0
 41
0.0
 46
0.0
 71
     5
 72
     1
  1
\A1;10
  7
GENERATED_STYLE_1
 11
0.0000000000000001
 21
1.0
 31
0.0
 73
     1
 44
1.0
  0
POINT
  5
A30
330
1E6
100
AcDbEntity
  8
Defpoints
  6
Continuous
 62
     0
440
 16777216
100
AcDbPoint
 10
7007.764960073457
 20
3897.964036407242
 30
0.0
  0
POINT
  5
A31
330
1E6
100
AcDbEntity
  8
Defpoints
  6
Continuous
 62
     0
440
 16777216
100
AcDbPoint
 10
7010.593953392322
 20
3907.625198946352
 30
0.0
  0
POINT
  5
A32
330
1E6
100
AcDbEntity
  8
Defpoints
  6
Continuous
 62
     0
440
 16777216
100
AcDbPoint
 10
6952.571333821945
 20
3907.625198946352
 30
0.0
  0
ENDBLK
  5
1E8
330
1E6
100
AcDbEntity
  8
0
100
AcDbBlockEnd
  0
BLOCK
  5
1F5
330
1F4
100
AcDbEntity
  8
0
100
AcDbBlockBegin
  2
ARROWHEAD_6
 70
     0
 10
0.0
 20
0.0
 30
0.0
  3
ARROWHEAD_6
  1

  0
LINE
  5
1F7
330
1F4
100
AcDbEntity
  8
0
  6
Continuous
 62
     0
370
     0
100
AcDbLine
 10
-0.5
 20
-0.5
 30
0.0
 11
0.5
 21
0.5
 31
0.0
  0
LINE
  5
1F8
330
1F4
100
AcDbEntity
  8
0
  6
Continuous
 62
     0
370
     0
100
AcDbLine
 10
0.0
 20
0.0
 30
0.0
 11
-1.0
 21
0.0
 31
0.0
  0
ENDBLK
  5
1F6
330
1F4
100
AcDbEntity
  8
0
100
AcDbBlockEnd
  0
BLOCK
  5
1FA
330
1F9
100
AcDbEntity
  8
0
100
AcDbBlockBegin
  2
*D5
 70
     1
 10
0.0
 20
0.0
 30
0.0
  3
*D5
  1

  0
LINE
  5
9DD
330
1F9
100
AcDbEntity
  8
Specialized_Lines
  6
Continuous
 62
     7
440
 16777216
370
    -2
100
AcDbLine
 10
7018.051284694249
 20
3925.137368484671
 30
0.0
 11
7020.921499235267
 21
3926.794487622559
 31
0.0
  0
LINE
  5
9DE
330
1F9
100
AcDbEntity
  8
Specialized_Lines
  6
Continuous
 62
     7
440
 16777216
370
    -2
100
AcDbLine
 10
7020.466471203583
 20
3920.954142740749
 30
0.0
 11
7023.336685744602
 21
3922.611261878637
 31
0.0
  0
LINE
  5
9DF
330
1F9
100
AcDbEntity
  8
Specialized_Lines
  6
Continuous
 62
     7
440
 16777216
370
    -2
100
AcDbLine
 10
7018.865614662584
 20
3929.99538415694
 30
0.0
 11
7016.965614662584
 21
3933.286280691321
 31
0.0
  0
LINE
  5
9E0
330
1F9
100
AcDbEntity
  8
Specialized_Lines
  6
Continuous
 62
     7
440
 16777216
370
    -2
100
AcDbLine
 10
7025.08080117192
 20
3919.230365344256
 30
0.0
 11
7026.98080117192
 21
3915.939468809876
 31
0.0
  0
MTEXT
  5
9E1
330
1F9
100
AcDbEntity
  8
Specialized_Lines
  6
Continuous
 62
     7
440
 16777216
100
AcDbMText
 10
7025.385405634118
 20
3926.775174458518
 30
0.0
 40
5.0
 41
0.0
 46
0.0
 71
     5
 72
     1
  1
\A1;5
  7
GENERATED_STYLE_1
 11
0.5000000000000808
 21
-0.866025403784392
 31
0.0
 73
     1
 44
1.0
  0
LINE
  5
9E2
330
1F9
100
AcDbEntity
  8
Specialized_Lines
  6
Continuous
 62
     7
440
 16777216
370
    -2
100
AcDbLine
 10
7020.765614662585
 20
3926.704487622559
 30
0.0
 11
7023.180801171919
 21
3922.521261878637
 31
0.0
  0
INSERT
  5
9E3
330
1F9
100
AcDbEntity
  8
Specialized_Lines
  6
Continuous
 62
     7
440
 16777216
370
    -2
100
AcDbBlockReference
  2
ARROWHEAD_6
 10
7020.765614662585
 20
3926.704487622559
 30
0.0
 41
3.799999999999999
 42
3.799999999999999
 43
3.799999999999999
 50
300.0000000000053
  0
INSERT
  5
9E4
330
1F9
100
AcDbEntity
  8
Specialized_Lines
  6
Continuous
 62
     7
440
 16777216
370
    -2
100
AcDbBlockReference
  2
ARROWHEAD_6
 10
7023.180801171919
 20
3922.521261878637
 30
0.0
 41
3.799999999999999
 42
3.799999999999999
 43
3.799999999999999
 50
120.0000000000053
  0
POINT
  5
9E5
330
1F9
100
AcDbEntity
  8
Defpoints
  6
Continuous
 62
     0
440
 16777216
100
AcDbPoint
 10
7016.31923388668
 20
3924.137368484671
 30
0.0
  0
POINT
  5
9E6
330
1F9
100
AcDbEntity
  8
Defpoints
  6
Continuous
 62
     0
440
 16777216
100
AcDbPoint
 10
7018.734420396015
 20
3919.954142740749
 30
0.0
  0
POINT
  5
9E7
330
1F9
100
AcDbEntity
  8
Defpoints
  6
Continuous
 62
     0
440
 16777216
100
AcDbPoint
 10
7023.180801171919
 20
3922.521261878637
 30
0.0
  0
ENDBLK
  5
1FB
330
1F9
100
AcDbEntity
  8
0
100
AcDbBlockEnd
  0
BLOCK
  5
207
330
206
100
AcDbEntity
  8
0
100
AcDbBlockBegin
  2
*D6
 70
     1
 10
0.0
 20
0.0
 30
0.0
  3
*D6
  1

  0
LINE
  5
A33
330
206
100
AcDbEntity
  8
Specialized_Lines
  6
Continuous
 62
     7
440
 16777216
370
    -2
100
AcDbLine
 10
7078.515877033517
 20
3882.731560126341
 30
0.0
 11
7001.384844911207
 21
3882.731560126341
 31
0.0
  0
LINE
  5
A34
330
206
100
AcDbEntity
  8
Specialized_Lines
  6
Continuous
 62
     7
440
 16777216
370
    -2
100
AcDbLine
 10
7033.015877033513
 20
3889.874836125852
 30
0.0
 11
7001.384844911207
 21
3889.874836125852
 31
0.0
  0
LINE
  5
A35
330
206
100
AcDbEntity
  8
Specialized_Lines
  6
Continuous
 62
     7
440
 16777216
370
    -2
100
AcDbLine
 10
7001.564844911207
 20
3878.931560126341
 30
0.0
 11
7001.564844911207
 21
3875.131560126341
 31
0.0
  0
LINE
  5
A36
330
206
100
AcDbEntity
  8
Specialized_Lines
  6
Continuous
 62
     7
440
 16777216
370
    -2
100
AcDbLine
 10
7001.564844911207
 20
3893.674836125852
 30
0.0
 11
7001.564844911207
 21
3897.474836125852
 31
0.0
  0
MTEXT
  5
A37
330
206
100
AcDbEntity
  8
Specialized_Lines
  6
Continuous
 62
     7
440
 16777216
100
AcDbMText
 10
6997.764844911206
 20
3878.258913445196
 30
0.0
 40
5.0
 41
0.0
 46
0.0
 71
     5
 72
     1
  1
\A1;7.5mm 
  7
GENERATED_STYLE_1
 11
0.0000000000000001
 21
1.0
 31
0.0
 73
     1
 44
1.0
  0
LINE
  5
A38
330
206
100
AcDbEntity
  8
Specialized_Lines
  6
Continuous
 62
     7
440
 16777216
370
    -2
100
AcDbLine
 10
7001.564844911207
 20
3882.731560126341
 30
0.0
 11
7001.564844911207
 21
3889.874836125852
 31
0.0
  0
INSERT
  5
A39
330
206
100
AcDbEntity
  8
Specialized_Lines
  6
Continuous
 62
     7
440
 16777216
370
    -2
100
AcDbBlockReference
  2
ARROWHEAD_6
 10
7001.564844911207
 20
3882.731560126341
 30
0.0
 41
3.799999999999999
 42
3.799999999999999
 43
3.799999999999999
 50
90.0
  0
INSERT
  5
A3A
330
206
100
AcDbEntity
  8
Specialized_Lines
  6
Continuous
 62
     7
440
 16777216
370
    -2
100
AcDbBlockReference
  2
ARROWHEAD_6
 10
7001.564844911207
 20
3889.874836125852
 30
0.0
 41
3.799999999999999
 42
3.799999999999999
 43
3.799999999999999
 50
270.0
  0
POINT
  5
A3B
330
206
100
AcDbEntity
  8
Defpoints
  6
Continuous
 62
     0
440
 16777216
100
AcDbPoint
 10
7126.893953392301
 20
3882.731560126341
 30
0.0
  0
POINT
  5
A3C
330
206
100
AcDbEntity
  8
Defpoints
  6
Continuous
 62
     0
440
 16777216
100
AcDbPoint
 10
7081.393953392296
 20
3889.874836125852
 30
0.0
  0
POINT
  5
A3D
330
206
100
AcDbEntity
  8
Defpoints
  6
Continuous
 62
     0
440
 16777216
100
AcDbPoint
 10
7001.564844911207
 20
3889.874836125852
 30
0.0
  0
ENDBLK
  5
208
330
206
100
AcDbEntity
  8
0
100
AcDbBlockEnd
  0
BLOCK
  5
219
330
218
100
AcDbEntity
  8
0
100
AcDbBlockBegin
  2
ARROWHEAD_5
 70
     0
 10
0.0
 20
0.0
 30
0.0
  3
ARROWHEAD_5
  1

  0
SOLID
  5
21B
330
218
100
AcDbEntity
  8
0
  6
Continuous
 62
     0
370
     0
100
AcDbTrace
 10
-1.0
 20
0.2679
 30
0.0
 11
0.0
 21
0.0
 31
0.0
 12
-1.0
 22
-0.2679
 32
0.0
 13
-1.0
 23
0.2679
 33
0.0
  0
LINE
  5
21C
330
218
100
AcDbEntity
  8
0
  6
Continuous
 62
     0
370
     0
100
AcDbLine
 10
0.0
 20
0.0
 30
0.0
 11
-1.0
 21
0.0
 31
0.0
  0
ENDBLK
  5
21A
330
218
100
AcDbEntity
  8
0
100
AcDbBlockEnd
  0
BLOCK
  5
234
330
233
100
AcDbEntity
  8
0
100
AcDbBlockBegin
  2
01A Window Head__STORY_MARKER
 70
     0
 10
0.0
 20
0.0
 30
0.0
  3
01A Window Head__STORY_MARKER
  1

  0
ENDBLK
  5
235
330
233
100
AcDbEntity
  8
0
100
AcDbBlockEnd
  0
BLOCK
  5
3B5
330
3B4
100
AcDbEntity
  8
0
100
AcDbBlockBegin
  2
*D9
 70
     1
 10
0.0
 20
0.0
 30
0.0
  3
*D9
  1

  0
LINE
  5
3B6
330
3B4
100
AcDbEntity
  8
Specialized_Lines
  6
Continuous
440
 16777216
100
AcDbLine
 10
6949.895305616433
 20
3894.964036407241
 30
0.0
 11
6949.895305616433
 21
3897.964036407242
 31
0.0
  0
LINE
  5
3B7
330
3B4
100
AcDbEntity
  8
Specialized_Lines
  6
Continuous
440
 16777216
100
AcDbLine
 10
6949.895305616433
 20
3897.964036407242
 30
0.0
 11
6949.895305616433
 21
3907.625198946352
 31
0.0
  0
LINE
  5
3B8
330
3B4
100
AcDbEntity
  8
Specialized_Lines
  6
Continuous
 62
    30
420
 16742400
440
 16777216
370
    20
100
AcDbLine
 10
6947.895305616433
 20
3899.964036407242
 30
0.0
 11
6951.895305616432
 21
3895.964036407242
 31
0.0
  0
LINE
  5
3B9
330
3B4
100
AcDbEntity
  8
Specialized_Lines
  6
Continuous
 62
    30
420
 16742400
440
 16777216
370
    20
100
AcDbLine
 10
6951.895305616432
 20
3905.625198946353
 30
0.0
 11
6947.895305616433
 21
3909.625198946352
 31
0.0
  0
LINE
  5
3BA
330
3B4
100
AcDbEntity
  8
Specialized_Lines
  6
Continuous
440
 16777216
100
AcDbLine
 10
6949.895305616433
 20
3907.625198946352
 30
0.0
 11
6949.895305616433
 21
3910.625198946352
 31
0.0
  0
LINE
  5
3BB
330
3B4
100
AcDbEntity
  8
Specialized_Lines
  6
Continuous
440
 16777216
100
AcDbLine
 10
7004.65971640761
 20
3897.964036407242
 30
0.0
 11
6946.145305616432
 21
3897.964036407242
 31
0.0
  0
LINE
  5
3BC
330
3B4
100
AcDbEntity
  8
Specialized_Lines
  6
Continuous
440
 16777216
100
AcDbLine
 10
7007.488709726473
 20
3907.625198946352
 30
0.0
 11
6946.145305616432
 21
3907.625198946352
 31
0.0
  0
MTEXT
  5
3BD
330
3B4
100
AcDbEntity
  8
Specialized_Lines
440
 16777216
100
AcDbMText
 10
6948.895305638784
 20
3888.852886593262
 30
0.0
 40
5.0
 41
0.0
 46
0.0
 71
     7
 72
     1
  1
{10}
  7
GENERATED_STYLE_1
 11
0.0000000000000001
 21
1.0
 31
0.0
 73
     1
 44
1.0
  0
ENDBLK
  5
3BE
330
3B4
100
AcDbEntity
  8
0
100
AcDbBlockEnd
  0
BLOCK
  5
3C0
330
3BF
100
AcDbEntity
  8
0
100
AcDbBlockBegin
  2
*D10
 70
     1
 10
0.0
 20
0.0
 30
0.0
  3
*D10
  1

  0
LINE
  5
3C1
330
3BF
100
AcDbEntity
  8
Specialized_Lines
  6
Continuous
440
 16777216
100
AcDbLine
 10
7016.190341722865
 20
3927.527054174333
 30
0.0
 11
7017.690341722865
 21
3924.92897796298
 31
0.0
  0
LINE
  5
3C2
330
3BF
100
AcDbEntity
  8
Specialized_Lines
  6
Continuous
440
 16777216
100
AcDbLine
 10
7017.690341722865
 20
3924.92897796298
 30
0.0
 11
7020.1055282322
 21
3920.745752219057
 31
0.0
  0
LINE
  5
3C3
330
3BF
100
AcDbEntity
  8
Specialized_Lines
  6
Continuous
 62
    30
420
 16742400
440
 16777216
370
    20
100
AcDbLine
 10
7020.422392530434
 20
3924.196927155411
 30
0.0
 11
7014.958290915295
 21
3925.661028770548
 31
0.0
  0
LINE
  5
3C4
330
3BF
100
AcDbEntity
  8
Specialized_Lines
  6
Continuous
 62
    30
420
 16742400
440
 16777216
370
    20
100
AcDbLine
 10
7017.373477424631
 20
3921.477803026626
 30
0.0
 11
7022.837579039769
 21
3920.013701411489
 31
0.0
  0
LINE
  5
3C5
330
3BF
100
AcDbEntity
  8
Specialized_Lines
  6
Continuous
440
 16777216
100
AcDbLine
 10
7020.1055282322
 20
3920.745752219057
 30
0.0
 11
7021.6055282322
 21
3918.147676007705
 31
0.0
  0
LINE
  5
3C6
330
3BF
100
AcDbEntity
  8
Specialized_Lines
  6
Continuous
440
 16777216
100
AcDbLine
 10
7014.442746458674
 20
3923.053977962979
 30
0.0
 11
7020.937936987057
 21
3926.80397796298
 31
0.0
  0
LINE
  5
3C7
330
3BF
100
AcDbEntity
  8
Specialized_Lines
  6
Continuous
440
 16777216
100
AcDbLine
 10
7016.857932968008
 20
3918.870752219057
 30
0.0
 11
7023.353123496391
 21
3922.620752219058
 31
0.0
  0
MTEXT
  5
3C8
330
3BF
100
AcDbEntity
  8
Specialized_Lines
440
 16777216
100
AcDbMText
 10
7021.677959987619
 20
3923.918622559714
 30
0.0
 40
5.0
 41
0.0
 46
0.0
 71
     7
 72
     1
  1
{5}
  7
GENERATED_STYLE_1
 11
0.9987933797490914
 21
-0.0491099233290734
 31
0.0
 73
     1
 44
1.0
  0
ENDBLK
  5
3C9
330
3BF
100
AcDbEntity
  8
0
100
AcDbBlockEnd
  0
BLOCK
  5
3CB
330
3CA
100
AcDbEntity
  8
0
100
AcDbBlockBegin
  2
*D11
 70
     1
 10
0.0
 20
0.0
 30
0.0
  3
*D11
  1

  0
LINE
  5
3CC
330
3CA
100
AcDbEntity
  8
Specialized_Lines
  6
Continuous
440
 16777216
100
AcDbLine
 10
6998.236601524957
 20
3879.731560126341
 30
0.0
 11
6998.236601524957
 21
3882.731560126341
 31
0.0
  0
LINE
  5
3CD
330
3CA
100
AcDbEntity
  8
Specialized_Lines
  6
Continuous
440
 16777216
100
AcDbLine
 10
6998.236601524957
 20
3882.731560126341
 30
0.0
 11
6998.236601524957
 21
3889.874836125852
 31
0.0
  0
LINE
  5
3CE
330
3CA
100
AcDbEntity
  8
Specialized_Lines
  6
Continuous
 62
    30
420
 16742400
440
 16777216
370
    20
100
AcDbLine
 10
6996.236601524957
 20
3884.731560126341
 30
0.0
 11
7000.236601524957
 21
3880.731560126342
 31
0.0
  0
LINE
  5
3CF
330
3CA
100
AcDbEntity
  8
Specialized_Lines
  6
Continuous
 62
    30
420
 16742400
440
 16777216
370
    20
100
AcDbLine
 10
7000.236601524957
 20
3887.874836125853
 30
0.0
 11
6996.236601524957
 21
3891.874836125852
 31
0.0
  0
LINE
  5
3D0
330
3CA
100
AcDbEntity
  8
Specialized_Lines
  6
Continuous
440
 16777216
100
AcDbLine
 10
6998.236601524957
 20
3889.874836125852
 30
0.0
 11
6998.236601524957
 21
3892.874836125852
 31
0.0
  0
LINE
  5
3D1
330
3CA
100
AcDbEntity
  8
Specialized_Lines
  6
Continuous
440
 16777216
100
AcDbLine
 10
7059.082888913223
 20
3882.731560126341
 30
0.0
 11
6994.486601524958
 21
3882.731560126341
 31
0.0
  0
LINE
  5
3D2
330
3CA
100
AcDbEntity
  8
Specialized_Lines
  6
Continuous
440
 16777216
100
AcDbLine
 10
7033.015877033513
 20
3889.874836125852
 30
0.0
 11
6994.486601524958
 21
3889.874836125852
 31
0.0
  0
MTEXT
  5
3D3
330
3CA
100
AcDbEntity
  8
Specialized_Lines
440
 16777216
100
AcDbMText
 10
6972.912419778585
 20
3883.872258245473
 30
0.0
 40
5.0
 41
0.0
 46
0.0
 71
     7
 72
     1
  1
{7.5mm }
  7
GENERATED_STYLE_1
 73
     1
 44
1.0
  0
ENDBLK
  5
3D4
330
3CA
100
AcDbEntity
  8
0
100
AcDbBlockEnd
  0
BLOCK
  5
42D
330
3D5
100
AcDbEntity
  8
0
100
AcDbBlockBegin
  2
C01A
 70
     0
 10
0.0
 20
0.0
 30
0.0
  3
C01A
  1

  0
HATCH
  5
3D6
330
3D5
100
AcDbEntity
  8
Specialized_Fills
  6
Continuous
 62
   254
420
 14671839
370
    13
100
AcDbHatch
 10
0.0
 20
0.0
 30
0.0
210
0.0
220
0.0
230
1.0
  2
SOLID
 70
     1
 71
     0
 91
        1
 92
        2
 72
     0
 73
     1
 93
        4
 10
7036.393953392279
 20
4029.874836126015
 10
7126.340588459455
 20
4029.874836126015
 10
7126.340588459455
 20
3890.040860361406
 10
7036.393953392279
 20
3890.040860361406
 97
        0
 75
     0
 76
     1
 98
        0
450
        0
451
        0
460
0.0
461
0.0
452
        1
462
0.0
453
        0
470

  0
HATCH
  5
3D7
330
3D5
100
AcDbEntity
  8
Specialized_Fills
  6
Continuous
 62
   254
420
 14671839
370
    13
100
AcDbHatch
 10
0.0
 20
0.0
 30
0.0
210
0.0
220
0.0
230
1.0
  2
SOLID
 70
     1
 71
     1
 91
        1
 92
        2
 72
     0
 73
     1
 93
        4
 10
7127.393953392289
 20
4125.387868301238
 10
7137.393953392336
 20
4125.387868301238
 10
7137.393953392336
 20
3878.495115433747
 10
7127.393953392289
 20
3878.495115433747
 97
        1
330
3D8
 75
     0
 76
     1
 98
        0
450
        0
451
        0
460
0.0
461
0.0
452
        1
462
0.0
453
        0
470

  0
LWPOLYLINE
  5
3D8
102
{ACAD_REACTORS
330
3D7
102
}
330
3D5
100
AcDbEntity
  8
Specialized_Fills
  6
Continuous
100
AcDbPolyline
 90
        4
 70
   129
 43
0.0
 10
7127.393953392289
 20
4125.387868301238
 10
7137.393953392336
 20
4125.387868301238
 10
7137.393953392336
 20
3878.495115433747
 10
7127.393953392289
 20
3878.495115433747
  0
HATCH
  5
3D9
330
3D5
100
AcDbEntity
  8
Specialized_Fills
  6
Continuous
 62
    30
420
 16742400
370
    20
100
AcDbHatch
 10
0.0
 20
0.0
 30
0.0
210
0.0
220
0.0
230
1.0
  2
SOLID
 70
     1
 71
     1
 91
        1
 92
        2
 72
     0
 73
     1
 93
        6
 10
7008.964960073457
 20
3900.964036407241
 10
7008.964960073457
 20
3897.964036407242
 10
7007.764960073457
 20
3897.964036407242
 10
7007.764960073458
 20
3900.466980132394
 10
7001.04536412417
 20
3907.186576081684
 10
7001.893892261593
 20
3908.035104219106
 97
        1
330
3DA
 75
     0
 76
     1
 98
        0
450
        0
451
        0
460
0.0
461
0.0
452
        1
462
0.0
453
        0
470

  0
LWPOLYLINE
  5
3DA
102
{ACAD_REACTORS
330
3D9
102
}
330
3D5
100
AcDbEntity
  8
Specialized_Fills
  6
Continuous
100
AcDbPolyline
 90
        6
 70
   129
 43
0.0
 10
7008.964960073457
 20
3900.964036407241
 10
7008.964960073457
 20
3897.964036407242
 10
7007.764960073457
 20
3897.964036407242
 10
7007.764960073458
 20
3900.466980132394
 10
7001.04536412417
 20
3907.186576081684
 10
7001.893892261593
 20
3908.035104219106
  0
HATCH
  5
3DB
330
3D5
100
AcDbEntity
  8
Specialized_Fills
  6
Continuous
100
AcDbHatch
 10
0.0
 20
0.0
 30
0.0
210
0.0
220
0.0
230
1.0
  2
LINES___ANGLED
 70
     0
 71
     1
 91
        1
 92
        2
 72
     0
 73
     1
 93
        4
 10
7017.076509673255
 20
3981.818420896602
 10
7017.076509673255
 20
3931.818420896604
 10
7032.536830484703
 20
3931.818420896604
 10
7032.536830484703
 20
3981.818420896607
 97
        1
330
3DC
 75
     0
 76
     2
 52
0.0
 41
1.0
 77
     0
 78
     1
 53
44.99999999999999
 43
0.0
 44
0.0
 45
-1.838477563650065
 46
1.838477563650065
 79
     0
 98
        0
  0
LWPOLYLINE
  5
3DC
102
{ACAD_REACTORS
330
3DB
102
}
330
3D5
100
AcDbEntity
  8
Specialized_Fills
  6
Continuous
100
AcDbPolyline
 90
        4
 70
   129
 43
0.0
 10
7017.076509673255
 20
3981.818420896602
 10
7017.076509673255
 20
3931.818420896604
 10
7032.536830484703
 20
3931.818420896604
 10
7032.536830484703
 20
3981.818420896607
  0
INSERT
  5
3DD
330
3D5
100
AcDbEntity
  8
Specialized_Fills
  6
Continuous
 62
    30
420
 16742400
370
    20
100
AcDbBlockReference
  2
Fill_1
 10
0.0
 20
0.0
 30
0.0
  0
HATCH
  5
3DE
330
3D5
100
AcDbEntity
  8
Specialized_Fills
  6
Continuous
100
AcDbHatch
 10
0.0
 20
0.0
 30
0.0
210
0.0
220
0.0
230
1.0
  2
WOODFACE
 70
     0
 71
     1
 91
        1
 92
        2
 72
     0
 73
     1
 93
        8
 10
7065.893953392322
 20
3863.731560126336
 10
7143.048872213331
 20
3863.731560126336
 10
7143.048872213331
 20
3882.731560126341
 10
7137.893953392325
 20
3882.731560126341
 10
7137.893953392325
 20
3877.495115433771
 10
7126.893953392301
 20
3877.495115433771
 10
7126.893953392301
 20
3882.731560126341
 10
7065.893953392322
 20
3882.731560126341
 97
        1
330
3DF
 75
     0
 76
     2
 52
0.0
 41
1.0
 77
     0
 78
    38
 53
0.0
 43
0.0
 44
0.0
 45
100.0
 46
100.0
 79
     2
 49
5.0
 49
-95.00000000000001
 53
90.0
 43
40.0
 44
35.00000000000001
 45
-100.0
 46
100.0
 79
     2
 49
10.0
 49
-90.00000000000001
 53
44.99999999999999
 43
20.0
 44
25.0
 45
0.0
 46
100.0000000019025
 79
     6
 49
7.070000000000001
 49
-21.21
 49
7.070000000000001
 49
-14.14
 49
49.5
 49
-42.43135622999999
 53
44.99999999999999
 43
-5.0
 44
-5.0
 45
0.0
 46
100.0000000019025
 79
     4
 49
7.071
 49
-14.142
 49
7.071
 49
-113.1373562
 53
44.99999999999999
 43
30.0
 44
5.0
 45
0.0
 46
100.0000000019025
 79
     2
 49
7.071
 49
-134.3503562
 53
44.99999999999999
 43
40.0
 44
0.0
 45
0.0
 46
100.0000000019025
 79
     2
 49
7.071
 49
-134.3503562
 53
44.99999999999999
 43
25.0
 44
10.0
 45
0.0
 46
100.0000000019025
 79
     2
 49
7.071
 49
-134.3503562
 53
44.99999999999999
 43
20.0
 44
15.0
 45
0.0
 46
100.0000000019025
 79
     2
 49
14.142
 49
-127.2793562
 53
44.99999999999999
 43
45.0
 44
90.00000000000001
 45
0.0
 46
100.0000000019025
 79
     2
 49
14.142
 49
-127.2793562
 53
44.99999999999999
 43
10.0
 44
20.0
 45
0.0
 46
100.0000000019025
 79
     2
 49
28.284
 49
-113.1373562
 53
44.99999999999999
 43
5.0
 44
25.0
 45
0.0
 46
100.0000000019025
 79
     2
 49
28.284
 49
-113.1373562
 53
44.99999999999999
 43
70.00000000000001
 44
55.0
 45
0.0
 46
100.0000000019025
 79
     2
 49
28.284
 49
-113.1373562
 53
44.99999999999999
 43
0.0
 44
35.00000000000001
 45
0.0
 46
100.0000000019025
 79
     2
 49
21.2132
 49
-120.2081562
 53
44.99999999999999
 43
-20.0
 44
50.00000000000001
 45
0.0
 46
100.0000000019025
 79
     2
 49
21.2132
 49
-120.2081562
 53
44.99999999999999
 43
-10.0
 44
40.0
 45
0.0
 46
100.0000000019025
 79
     2
 49
21.2132
 49
-120.2081562
 53
44.99999999999999
 43
55.0
 44
70.00000000000001
 45
0.0
 46
100.0000000019025
 79
     2
 49
35.35534
 49
-106.0660162
 53
44.99999999999999
 43
45.0
 44
75.0
 45
0.0
 46
100.0000000019025
 79
     2
 49
35.35534
 49
-106.0660162
 53
44.99999999999999
 43
55.0
 44
50.00000000000001
 45
0.0
 46
100.0000000019025
 79
     2
 49
49.49747460000001
 49
-91.92388150000001
 53
26.5650512
 43
10.0
 44
10.0
 45
100.0000000000093
 46
0.000000040006455
 79
     2
 49
11.180339
 49
-212.426458
 53
26.5650512
 43
30.0
 44
40.0
 45
100.0000000000093
 46
0.000000040006455
 79
     2
 49
11.180339
 49
-212.426458
 53
26.5650512
 43
25.0
 44
30.0
 45
100.0000000000093
 46
0.000000040006455
 79
     2
 49
11.180339
 49
-212.426458
 53
26.5650512
 43
5.0
 44
0.0
 45
100.0000000000093
 46
0.000000040006455
 79
     2
 49
22.36067999999999
 49
-201.2461177
 53
26.5650512
 43
25.0
 44
45.0
 45
100.0000000000093
 46
0.000000040006455
 79
     2
 49
33.5410196
 49
-190.0657781
 53
26.5650512
 43
15.0
 44
50.00000000000001
 45
100.0000000000093
 46
0.000000040006455
 79
     2
 49
44.72135950000001
 49
-178.8854382
 53
26.5650512
 43
5.0
 44
55.0
 45
100.0000000000093
 46
0.000000040006455
 79
     2
 49
44.72135950000001
 49
-178.8854382
 53
26.5650512
 43
-10.0
 44
85.0
 45
100.0000000000093
 46
0.000000040006455
 79
     2
 49
44.72135950000001
 49
-178.8854382
 53
26.5650512
 43
-10.0
 44
75.0
 45
100.0000000000093
 46
0.000000040006455
 79
     2
 49
55.90169999999999
 49
-167.7050977
 53
26.5650512
 43
-5.0
 44
65.00000000000001
 45
100.0000000000093
 46
0.000000040006455
 79
     2
 49
55.90169999999999
 49
-167.7050977
 53
63.43494882000001
 43
30.0
 44
25.0
 45
0.0000000050998636
 46
100.0000000000093
 79
     2
 49
11.18033899999999
 49
-212.4264579999999
 53
63.43494882000001
 43
15.0
 44
15.0
 45
0.0000000050998636
 46
100.0000000000093
 79
     2
 49
11.18033899999999
 49
-212.4264579999999
 53
63.43494882000001
 43
0.0
 44
0.0
 45
0.0000000050998636
 46
100.0000000000093
 79
     2
 49
22.36067999999998
 49
-201.2461176999999
 53
63.43494882000001
 43
30.0
 44
15.0
 45
0.0000000050998636
 46
100.0000000000093
 79
     2
 49
22.36067999999998
 49
-201.2461176999999
 53
63.43494882000001
 43
-10.0
 44
-5.0
 45
0.0000000050998636
 46
100.0000000000093
 79
     2
 49
33.54101959999996
 49
-190.0657780999998
 53
63.43494882000001
 43
-20.0
 44
-5.0
 45
0.0000000050998636
 46
100.0000000000093
 79
     2
 49
44.72135949999997
 49
-178.8854381999998
 53
63.43494882000001
 43
70.00000000000001
 44
0.0
 45
0.0000000050998636
 46
100.0000000000093
 79
     2
 49
44.72135949999997
 49
-178.8854381999998
 53
63.43494882000001
 43
35.00000000000001
 44
10.0
 45
0.0000000050998636
 46
100.0000000000093
 79
     2
 49
44.72135949999997
 49
-178.8854381999998
 53
63.43494882000001
 43
55.0
 44
0.0
 45
0.0000000050998636
 46
100.0000000000093
 79
     2
 49
55.90169999999996
 49
-167.7050976999998
 53
63.43494882000001
 43
45.0
 44
5.0
 45
0.0000000050998636
 46
100.0000000000093
 79
     2
 49
55.90169999999996
 49
-167.7050976999998
 98
        0
  0
LWPOLYLINE
  5
3DF
102
{ACAD_REACTORS
330
3DE
102
}
330
3D5
100
AcDbEntity
  8
Specialized_Fills
  6
Continuous
100
AcDbPolyline
 90
        8
 70
   129
 43
0.0
 10
7065.893953392322
 20
3863.731560126336
 10
7143.048872213331
 20
3863.731560126336
 10
7143.048872213331
 20
3882.731560126341
 10
7137.893953392325
 20
3882.731560126341
 10
7137.893953392325
 20
3877.495115433771
 10
7126.893953392301
 20
3877.495115433771
 10
7126.893953392301
 20
3882.731560126341
 10
7065.893953392322
 20
3882.731560126341
  0
LINE
  5
3E0
330
3D5
100
AcDbEntity
  8
Specialized_Lines
  6
Continuous
100
AcDbLine
 10
7036.393953392279
 20
4029.874836126015
 30
0.0
 11
7036.393953392337
 21
3889.874836125852
 31
0.0
  0
LINE
  5
3E1
330
3D5
100
AcDbEntity
  8
Specialized_Lines
  6
Continuous
100
AcDbLine
 10
7036.393953392279
 20
4029.874836126015
 30
0.0
 11
7126.393953392312
 21
4029.874836126015
 31
0.0
  0
LINE
  5
3E2
330
3D5
100
AcDbEntity
  8
Specialized_Lines
  6
Continuous
100
AcDbLine
 10
7036.393953392279
 20
4029.874836126015
 30
0.0
 11
7036.393953392279
 21
4125.387868301238
 31
0.0
  0
LINE
  5
3E3
330
3D5
100
AcDbEntity
  8
Specialized_Lines
  6
Hidden
100
AcDbLine
 10
7126.933648401555
 20
3889.056926715495
 30
0.0
 11
7126.933648401555
 21
3909.003520893273
 31
0.0
  0
LINE
  5
3E4
330
3D5
100
AcDbEntity
  8
Specialized_Lines
  6
Continuous
100
AcDbLine
 10
7036.393953392281
 20
3889.874836125852
 30
0.0
 11
7081.393953392296
 21
4029.874836125816
 31
0.0
  0
LINE
  5
3E5
330
3D5
100
AcDbEntity
  8
Specialized_Lines
  6
Continuous
100
AcDbLine
 10
7126.393953392312
 20
3889.874836125852
 30
0.0
 11
7081.393953392296
 21
4029.874836125816
 31
0.0
  0
LINE
  5
3E6
330
3D5
100
AcDbEntity
  8
Specialized_Lines
  6
Continuous
100
AcDbLine
 10
7081.393953392296
 20
3889.874836125852
 30
0.0
 11
7126.393953392312
 21
4029.874836125813
 31
0.0
  0
LINE
  5
3E7
330
3D5
100
AcDbEntity
  8
Specialized_Lines
  6
Continuous
100
AcDbLine
 10
7127.393953392289
 20
4125.387868301238
 30
0.0
 11
7127.393953392289
 21
3878.495115433747
 31
0.0
  0
LINE
  5
3E8
330
3D5
100
AcDbEntity
  8
Specialized_Lines
  6
Continuous
100
AcDbLine
 10
7137.393953392336
 20
4125.387868301238
 30
0.0
 11
7137.393953392336
 21
3878.495115433747
 31
0.0
  0
LINE
  5
3E9
330
3D5
100
AcDbEntity
  8
Specialized_Lines
  6
Continuous
100
AcDbLine
 10
7081.393953392296
 20
3889.874836125852
 30
0.0
 11
7036.393953392279
 21
4029.874836126015
 31
0.0
  0
LINE
  5
3EA
330
3D5
100
AcDbEntity
  8
Specialized_Lines
  6
Continuous
100
AcDbLine
 10
7137.393953392336
 20
3878.495115433747
 30
0.0
 11
7127.393953392289
 21
3878.495115433747
 31
0.0
  0
LINE
  5
3EB
330
3D5
100
AcDbEntity
  8
Specialized_Lines
  6
Continuous
100
AcDbLine
 10
7126.393953392312
 20
4029.874836125813
 30
0.0
 11
7126.393953392312
 21
3889.874836125852
 31
0.0
  0
LINE
  5
3EC
330
3D5
100
AcDbEntity
  8
Specialized_Lines
  6
Continuous
 62
   251
420
  6250335
370
    13
100
AcDbLine
 10
7069.151607833113
 20
3862.810352989175
 30
0.0
 11
7069.151607833113
 21
3747.94964652996
 31
0.0
  0
LINE
  5
3ED
330
3D5
100
AcDbEntity
  8
Specialized_Lines
  6
Continuous
 62
   251
420
  6250335
370
    13
100
AcDbLine
 10
7143.048872213331
 20
3868.895690481083
 30
0.0
 11
7143.048872213331
 21
3747.94964652996
 31
0.0
  0
LINE
  5
3EE
330
3D5
100
AcDbEntity
  8
Specialized_Lines
  6
Hidden
100
AcDbLine
 10
7035.63020411199
 20
3889.056926715495
 30
0.0
 11
7035.63020411199
 21
4125.387868301238
 31
0.0
  0
LINE
  5
3EF
330
3D5
100
AcDbEntity
  8
Specialized_Lines
  6
Continuous
100
AcDbLine
 10
7090.289349370653
 20
3883.305328762287
 30
0.0
 11
7117.878963846397
 21
3888.642808365867
 31
0.0
  0
LINE
  5
3F0
330
3D5
100
AcDbEntity
  8
Specialized_Lines
  6
Continuous
100
AcDbLine
 10
7117.878963846397
 20
3883.305328762287
 30
0.0
 11
7090.289349370653
 21
3888.642808365867
 31
0.0
  0
LINE
  5
3F1
330
3D5
100
AcDbEntity
  8
Specialized_Lines
  6
Hidden
100
AcDbLine
 10
7035.63020411199
 20
3889.056926715495
 30
0.0
 11
7126.933648401555
 21
3889.056926715495
 31
0.0
  0
LINE
  5
3F2
330
3D5
100
AcDbEntity
  8
Specialized_Lines
  6
Continuous
 62
   251
420
  6250335
370
    13
100
AcDbLine
 10
6957.299508211784
 20
3902.557484919793
 30
0.0
 11
6957.299508211784
 21
3747.94964652996
 31
0.0
  0
LINE
  5
3F3
330
3D5
100
AcDbEntity
  8
Specialized_Lines
  6
Continuous
 62
   251
420
  6250335
370
    13
100
AcDbLine
 10
7009.393953392322
 20
3884.588413375834
 30
0.0
 11
7009.393953392322
 21
3747.94964652996
 31
0.0
  0
LINE
  5
3F4
330
3D5
100
AcDbEntity
  8
Specialized_Lines
  6
Continuous
 62
   251
420
  6250335
370
    13
100
AcDbLine
 10
7016.393953392321
 20
3868.431560126341
 30
0.0
 11
7016.393953392321
 21
3747.94964652996
 31
0.0
  0
LINE
  5
3F5
330
3D5
100
AcDbEntity
  8
Specialized_Lines
  6
Continuous
 62
   251
420
  6250335
370
    13
100
AcDbLine
 10
7047.893953392322
 20
3849.431560126342
 30
0.0
 11
7047.893953392322
 21
3747.94964652996
 31
0.0
  0
LINE
  5
3F6
330
3D5
100
AcDbEntity
  8
Specialized_Lines
  6
Continuous
 62
   251
420
  6250335
370
    13
100
AcDbLine
 10
7051.393953392322
 20
3849.431560126342
 30
0.0
 11
7051.393953392322
 21
3747.94964652996
 31
0.0
  0
LINE
  5
3F7
330
3D5
100
AcDbEntity
  8
Specialized_Lines
  6
Continuous
 62
   251
420
  6250335
370
    13
100
AcDbLine
 10
7064.698031136924
 20
3863.232699203125
 30
0.0
 11
7064.698031136924
 21
3747.94964652996
 31
0.0
  0
LINE
  5
3F8
330
3D5
100
AcDbEntity
  8
Specialized_Lines
  6
Continuous
100
AcDbLine
 10
7041.352421721729
 20
3747.94964652996
 30
0.0
 11
7041.352421721729
 21
3861.88156012663
 31
0.0
  0
LINE
  5
3F9
330
3D5
100
AcDbEntity
  8
Specialized_Lines
  6
Continuous
100
AcDbLine
 10
7047.352421721701
 20
3747.94964652996
 30
0.0
 11
7047.352421721701
 21
3861.88156012663
 31
0.0
  0
LINE
  5
3FA
330
3D5
100
AcDbEntity
  8
Specialized_Lines
  6
Continuous
 62
     9
370
    20
100
AcDbLine
 10
7046.352421721724
 20
3747.94964652996
 30
0.0
 11
7046.352421721724
 21
3861.88156012663
 31
0.0
  0
LINE
  5
3FB
330
3D5
100
AcDbEntity
  8
Specialized_Lines
  6
Continuous
 62
     9
370
    20
100
AcDbLine
 10
7045.352421721748
 20
3747.94964652996
 30
0.0
 11
7045.352421721748
 21
3861.88156012663
 31
0.0
  0
LINE
  5
3FC
330
3D5
100
AcDbEntity
  8
Specialized_Lines
  6
Continuous
 62
     9
370
    20
100
AcDbLine
 10
7044.352421721715
 20
3747.94964652996
 30
0.0
 11
7044.352421721715
 21
3861.88156012663
 31
0.0
  0
LINE
  5
3FD
330
3D5
100
AcDbEntity
  8
Specialized_Lines
  6
Continuous
 62
     9
370
    20
100
AcDbLine
 10
7043.352421721738
 20
3747.94964652996
 30
0.0
 11
7043.352421721738
 21
3861.88156012663
 31
0.0
  0
LINE
  5
3FE
330
3D5
100
AcDbEntity
  8
Specialized_Lines
  6
Continuous
 62
     9
370
    20
100
AcDbLine
 10
7042.352421721705
 20
3747.94964652996
 30
0.0
 11
7042.352421721705
 21
3861.88156012663
 31
0.0
  0
LWPOLYLINE
  5
3FF
330
3D5
100
AcDbEntity
  8
Specialized_Lines
  6
Continuous
100
AcDbPolyline
 90
        4
 70
   129
 43
0.0
 10
7117.878963846397
 20
3883.305328762287
 10
7090.289349370653
 20
3883.305328762287
 10
7090.289349370653
 20
3888.642808365867
 10
7117.878963846397
 20
3888.642808365867
  0
LWPOLYLINE
  5
400
330
3D5
100
AcDbEntity
  8
Specialized_Lines
  6
Continuous
100
AcDbPolyline
 90
        3
 70
   128
 43
0.0
 10
7036.393953392281
 20
3889.874836125852
 10
7081.393953392296
 20
3889.874836125852
 10
7081.393953392296
 20
4029.874836125816
  0
LWPOLYLINE
  5
401
330
3D5
100
AcDbEntity
  8
Specialized_Lines
  6
Continuous
100
AcDbPolyline
 90
        2
 70
   128
 43
0.0
 10
7081.393953392296
 20
3889.874836125852
 10
7081.393953392296
 20
4021.655592826231
  0
LWPOLYLINE
  5
402
330
3D5
100
AcDbEntity
  8
Specialized_Lines
  6
Continuous
100
AcDbPolyline
 90
        8
 70
   129
 43
0.0
 10
7143.048872213331
 20
3863.731560126336
 10
7065.893953392322
 20
3863.731560126336
 10
7065.893953392322
 20
3882.731560126341
 10
7126.893953392301
 20
3882.731560126341
 10
7126.893953392301
 20
3877.495115433771
 10
7137.893953392325
 20
3877.495115433771
 10
7137.893953392325
 20
3882.731560126341
 10
7143.048872213331
 20
3882.731560126341
  0
LWPOLYLINE
  5
403
330
3D5
100
AcDbEntity
  8
Specialized_Lines
  6
Continuous
100
AcDbPolyline
 90
        2
 70
   128
 43
0.0
 10
7036.393953392281
 20
3889.874836125852
 10
7036.393953392281
 20
4021.655592826231
  0
LWPOLYLINE
  5
404
330
3D5
100
AcDbEntity
  8
Specialized_Lines
  6
Continuous
100
AcDbPolyline
 90
        3
 70
   128
 43
0.0
 10
7126.393953392312
 20
4021.655592826231
 10
7126.393953392312
 20
3889.874836125852
 10
7081.393953392296
 20
3889.874836125852
  0
LWPOLYLINE
  5
405
330
3D5
100
AcDbEntity
  8
Specialized_Lines
  6
Continuous
100
AcDbPolyline
 90
       32
 70
   129
 43
0.0
 10
7030.977857608141
 20
3869.029585073425
 42
-0.2727724127359798
 10
7031.441942591212
 20
3869.816971952929
 10
7031.124304217549
 20
3870.134610326593
 42
-0.1989123673796701
 10
7030.977857608141
 20
3870.488163717187
 10
7030.977857608141
 20
3870.758874395306
 42
-0.6681786379193188
 10
7031.439989642496
 20
3870.950295751543
 10
7033.019278964378
 20
3869.371006429662
 42
-0.6681786379194078
 10
7032.877857608141
 20
3869.029585073424
 10
7031.87785760814
 20
3869.029585073425
 10
7031.87785760814
 20
3867.229585073423
 10
7034.137743539101
 20
3854.413136812365
 10
7039.654393479202
 20
3850.024991986499
 10
7040.229237258717
 20
3850.663409888442
 42
-0.6913661932105743
 10
7040.577859384903
 20
3850.52737793042
 10
7040.57785938477
 20
3848.429515713997
 42
-0.6335369672704524
 10
7040.252577878941
 20
3848.27141677101
 10
7016.966600289823
 20
3866.793902225605
 42
-0.2285713999288997
 10
7016.77785760814
 20
3867.185206304031
 10
7016.77785760814
 20
3867.529585073424
 42
-0.4142135623731785
 10
7016.977857608141
 20
3867.729585073424
 10
7017.222065848601
 20
3867.729585073424
 42
-0.1695861875687451
 10
7017.533323166919
 20
3867.62088915185
 10
7018.657666251645
 20
3866.726546279601
 10
7020.427792646888
 20
3868.496672674842
 10
7019.617825106218
 20
3869.899577607762
 42
-0.9999999999998532
 10
7020.310645429247
 20
3870.299577607762
 10
7021.140304337065
 20
3868.862566226468
 42
-0.3394542588633155
 10
7020.997277576727
 20
3867.776170123399
 10
7019.376147746479
 20
3866.155040293151
 10
7033.07477032922
 20
3855.25866388196
 10
7030.991530634044
 20
3867.073301693021
 42
-0.0436609487024195
 10
7030.977857608141
 20
3867.229585073423
  0
LWPOLYLINE
  5
406
330
3D5
100
AcDbEntity
  8
Specialized_Fills
  6
Above
 62
   253
420
 10461087
370
    20
100
AcDbPolyline
 90
       10
 70
   128
 43
0.0
 10
7036.393953392279
 20
4029.874836126015
 42
-0.6180339902741404
 10
7072.393953794378
 20
4047.874836227644
 10
7090.393953734772
 20
4034.374836148249
 42
2.000000011029643
 10
7090.393953734772
 20
4070.374836148249
 10
7072.393953756193
 20
4056.874836119611
 42
-2.000000003978641
 10
7072.393953756193
 20
4092.874836119611
 10
7090.393953696588
 20
4079.374836040216
 42
2.000000011029643
 10
7090.393953696588
 20
4115.374836040216
 10
7072.393953718009
 20
4101.874836011578
 42
-0.6439562055307875
 10
7036.455799703381
 20
4121.541943576498
  0
LWPOLYLINE
  5
407
330
3D5
100
AcDbEntity
  8
Specialized_Lines
  6
Sketch
100
AcDbPolyline
 90
        4
 70
   128
 43
0.0
 10
6958.884830482073
 20
4125.387868301238
 10
6958.469416593342
 20
3895.871389744615
 42
0.3471762158826424
 10
6964.447947435697
 20
3897.090789340595
 10
6989.994830482086
 20
3906.498571071346
  0
LWPOLYLINE
  5
408
330
3D5
100
AcDbEntity
  8
Specialized_Lines
  6
Hidden
100
AcDbPolyline
 90
        2
 70
   128
 43
0.0
 10
6961.462995852397
 20
4125.387868301238
 10
6961.462995852397
 20
3898.746439102183
  0
LWPOLYLINE
  5
409
330
3D5
100
AcDbEntity
  8
Specialized_Lines
  6
Hidden
100
AcDbPolyline
 90
        2
 70
   128
 43
0.0
 10
6985.435411193667
 20
3908.767477132852
 10
6961.462995852397
 20
3898.746439102183
  0
LWPOLYLINE
  5
40A
330
3D5
100
AcDbEntity
  8
Specialized_Lines
  6
Continuous
100
AcDbPolyline
 90
        5
 70
   129
 43
0.0
 10
7015.994830482104
 20
3923.525473100859
 10
7015.994830482104
 20
4124.870600969187
 10
6965.994830482085
 20
4124.870600969187
 10
6965.994830482085
 20
3915.681303739293
 10
7002.782660105122
 20
3915.892874519765
  0
LWPOLYLINE
  5
40B
330
3D5
100
AcDbEntity
  8
Specialized_Lines
  6
Continuous
100
AcDbPolyline
 90
       91
 70
   129
 43
0.0
 10
7018.893953392321
 20
3902.225198946352
 42
-0.4142135623730951
 10
7018.293953392323
 20
3901.625198946352
 42
-0.4142135623731021
 10
7017.693953392323
 20
3902.225198946352
 10
7017.693953392323
 20
3906.425198946352
 10
7010.593953392322
 20
3906.425198946352
 10
7010.593953392322
 20
3884.588413375834
 42
0.1989123673796598
 10
7011.414054404998
 20
3882.608514388511
 10
7016.070908654493
 20
3877.951660139019
 42
-0.1494188041786777
 10
7017.498289711951
 20
3875.267554682249
 10
7033.884391620045
 20
3873.017685052415
 42
-0.3747899436168836
 10
7035.093953392321
 20
3871.630697928675
 10
7035.093953392321
 20
3869.331560126341
 10
7064.693953392321
 20
3869.331560126341
 10
7064.693953392321
 20
3882.731560126341
 10
7062.293953392323
 20
3882.731560126341
 42
-0.4142135623730951
 10
7061.693953392323
 20
3883.331560126342
 42
-0.4142135623730951
 10
7062.293953392323
 20
3883.931560126342
 10
7069.811110392322
 20
3883.931560126342
 42
-0.1994953901194283
 10
7069.952848612015
 20
3883.872663907574
 10
7070.293953392321
 20
3883.531560126341
 10
7073.493953392322
 20
3883.531560126341
 10
7073.835374748559
 20
3883.872981482578
 42
-0.1989123673797102
 10
7073.976796104798
 20
3883.931560126342
 10
7075.293953392322
 20
3883.931560126342
 42
-0.9999999999999998
 10
7075.293953392322
 20
3882.731560126341
 10
7065.893953392322
 20
3882.731560126341
 10
7065.893953392322
 20
3873.231523324863
 10
7065.493953392323
 20
3872.831523324864
 10
7065.893953392322
 20
3872.431523324863
 10
7065.893953392322
 20
3869.331560126341
 42
-0.3718832980523272
 10
7064.869308793193
 20
3868.144441563018
 42
0.6059274979908935
 10
7064.752870043292
 20
3867.809541726277
 42
-0.1910043624983056
 10
7065.893912392323
 20
3864.931560126341
 10
7065.893912392323
 20
3863.332037126342
 10
7069.193632143607
 20
3863.332037126339
 42
-0.4145886432917875
 10
7069.393888230841
 20
3863.132037290291
 42
-0.4142134464432531
 10
7068.393888230841
 20
3862.132037126341
 10
7065.893912392323
 20
3862.132037126341
 42
-0.4142135623730951
 10
7064.693912392321
 20
3863.332037126342
 10
7064.693912392321
 20
3864.931560126341
 42
0.4142135623730992
 10
7061.693912392321
 20
3867.931560126342
 10
7054.39395339232
 20
3867.931560126342
 42
0.4142135623730978
 10
7051.393953392322
 20
3864.931560126341
 10
7051.393953392322
 20
3849.431560126342
 42
-0.4142135623730951
 10
7050.893953392322
 20
3848.931560126342
 10
7048.393953392322
 20
3848.931560126342
 42
-0.4142135623730951
 10
7047.893953392322
 20
3849.431560126342
 10
7047.893953392322
 20
3850.581560126341
 42
-0.4142135623730951
 10
7048.343953392322
 20
3851.031560126341
 42
-0.4142135623730766
 10
7048.793953392323
 20
3850.581560126341
 10
7048.793953392323
 20
3849.931560126341
 10
7050.293953392323
 20
3849.931560126341
 10
7050.293953392323
 20
3855.331560126341
 10
7048.793953392323
 20
3855.331560126341
 10
7048.793953392323
 20
3854.681560126341
 42
-0.4142135623730951
 10
7048.343953392322
 20
3854.231560126341
 42
-0.4142135623730766
 10
7047.893953392322
 20
3854.681560126341
 10
7047.893953392322
 20
3855.831560126341
 42
-0.4142135623730951
 10
7048.393953392322
 20
3856.331560126341
 10
7050.193953392322
 20
3856.331560126341
 10
7050.193953392322
 20
3864.031601140442
 42
-0.500912579025221
 10
7050.195122343616
 20
3864.8324751909
 42
-0.1404257888372542
 10
7050.779669876949
 20
3867.070941969423
 42
-0.1928075209396724
 10
7050.193953234469
 20
3867.931560126342
 10
7033.232429735882
 20
3867.931560126342
 42
-0.1989123673796423
 10
7032.171769564103
 20
3868.370899954561
 10
7031.752530748558
 20
3868.790138770104
 42
-0.6681786379194047
 10
7031.893952104796
 20
3869.131560126341
 10
7033.693953392322
 20
3869.131560126341
 10
7033.693953392322
 20
3871.631560126342
 10
7017.593953392321
 20
3873.831517126341
 10
7017.593953392321
 20
3869.131560126341
 10
7018.893953392321
 20
3869.131560126341
 10
7018.893953392321
 20
3869.231560126342
 42
-0.4142135623730951
 10
7019.093953392321
 20
3869.431560126342
 10
7019.393909679847
 20
3869.431560126342
 42
-0.1989123673796841
 10
7019.535331036085
 20
3869.372981482579
 10
7020.135331536085
 20
3868.772980982579
 42
-0.4142135623730508
 10
7020.135331536085
 20
3868.490138270104
 10
7019.635332036084
 20
3867.990138770105
 42
-0.1989123673796372
 10
7019.493910679847
 20
3867.931560126342
 10
7016.893953392322
 20
3867.931560126342
 42
-0.4142135623730951
 10
7016.393953392321
 20
3868.431560126341
 10
7016.393953392321
 20
3874.274704876849
 42
0.1989123673796624
 10
7015.222380517068
 20
3877.103132001595
 10
7010.565526267575
 20
3881.759986251088
 42
-0.1989123673796631
 10
7009.393953392322
 20
3884.588413375834
 10
7009.393953392322
 20
3906.425198946352
 42
-0.414213562373088
 10
7010.593953392322
 20
3907.625198946352
 10
7017.693953392323
 20
3907.625198946352
 42
-0.4142135623730953
 10
7018.893953392321
 20
3906.425198946352
  0
LWPOLYLINE
  5
40C
330
3D5
100
AcDbEntity
  8
0
  6
Continuous
100
AcDbPolyline
 90
        6
 70
   128
 43
0.0
 10
7154.66039831861
 20
4125.263118073032
 10
7085.897664574623
 20
4125.263118073032
 10
7083.897664574621
 20
4130.758072911941
 10
7079.897664574622
 20
4119.768163234123
 10
7077.897664574621
 20
4125.263118073032
 10
6944.780507847498
 20
4125.263118073032
  0
LWPOLYLINE
  5
40D
330
3D5
100
AcDbEntity
  8
0
  6
Continuous
100
AcDbPolyline
 90
        6
 70
   128
 43
0.0
 10
7154.66039831861
 20
3747.824896301754
 10
7085.897664574623
 20
3747.824896301754
 10
7083.897664574621
 20
3753.319851140663
 10
7079.897664574622
 20
3742.329941462845
 10
7077.897664574621
 20
3747.824896301754
 10
6944.780507847498
 20
3747.824896301754
  0
LWPOLYLINE
  5
40E
330
3D5
100
AcDbEntity
  8
0
  6
Continuous
100
AcDbPolyline
 90
        4
 70
   128
 43
0.0
 10
7034.704628581041
 20
4029.901109655585
 10
7034.755702777525
 20
3962.793663140331
 10
7033.13155538071
 20
3957.727703591002
 10
7033.13155538071
 20
3928.756283264304
  0
ELLIPSE
  5
40F
330
3D5
100
AcDbEntity
  8
Specialized_Lines
  6
Continuous
100
AcDbEllipse
 10
7122.58556825218
 20
3885.926098264723
 30
0.0
 11
3.479568238652319
 21
-1.811071092807025
 31
0.0
210
0.0
220
0.0
230
1.0
 40
0.6607036763668314
 41
0.0
 42
6.283185307179586
  0
SPLINE
  5
410
330
3D5
100
AcDbEntity
  8
Specialized_Lines
  6
Continuous
100
AcDbSpline
210
0.0
220
0.0
230
1.0
 70
     8
 71
     3
 72
    11
 73
     7
 74
     0
 42
0.00001
 43
0.0000000001
 40
0.0
 40
0.0
 40
0.0
 40
0.0
 40
1.0
 40
1.0
 40
1.0
 40
2.0
 40
2.0
 40
2.0
 40
2.0
 10
7001.486622561484
 20
3908.481303739293
 30
0.0
 10
7001.486622561484
 20
3908.481303739293
 30
0.0
 10
7001.675407452754
 20
3908.275518608055
 30
0.0
 10
7001.675407452754
 20
3908.275518608055
 30
0.0
 10
7001.675407452754
 20
3908.275518608055
 30
0.0
 10
7001.893892261593
 20
3908.035104219107
 30
0.0
 10
7001.893892261593
 20
3908.035104219107
 30
0.0
  0
SPLINE
  5
411
330
3D5
100
AcDbEntity
  8
Specialized_Lines
  6
Continuous
100
AcDbSpline
210
0.0
220
0.0
230
1.0
 70
     8
 71
     3
 72
    11
 73
     7
 74
     0
 42
0.00001
 43
0.0000000001
 40
0.0
 40
0.0
 40
0.0
 40
0.0
 40
1.0
 40
1.0
 40
1.0
 40
2.0
 40
2.0
 40
2.0
 40
2.0
 10
6997.928500023377
 20
3908.481303739293
 30
0.0
 10
6997.928500023377
 20
3908.481303739293
 30
0.0
 10
7000.219346041062
 20
3907.682084602548
 30
0.0
 10
7000.219346041062
 20
3907.682084602548
 30
0.0
 10
7000.219346041062
 20
3907.682084602548
 30
0.0
 10
7001.045364124168
 20
3907.186576081683
 30
0.0
 10
7001.045364124168
 20
3907.186576081683
 30
0.0
  0
DIMENSION
  5
412
330
3D5
100
AcDbEntity
  8
Specialized_Lines
  6
Continuous
100
AcDbDimension
280
     0
  2
*D9
 10
6949.895305616433
 20
3897.964036407242
 30
0.0
 11
6946.395305638784
 21
3892.647186593262
 31
0.0
 70
    32
  1
<>
 71
     5
 42
-1.0
 73
     0
 74
     0
 75
     0
  3
GENERATED_STYLE__1
100
AcDbAlignedDimension
 13
7007.764960073457
 23
3897.964036407242
 33
0.0
 14
7010.593953392322
 24
3907.625198946352
 34
0.0
 50
90.0
100
AcDbRotatedDimension
  0
DIMENSION
  5
413
330
3D5
100
AcDbEntity
  8
Specialized_Lines
  6
Continuous
100
AcDbDimension
280
     0
  2
*D10
 10
7017.690341722865
 20
3924.92897796298
 30
0.0
 11
7023.695590662365
 21
3926.322437363593
 31
0.0
 70
    32
  1
<>
 71
     5
 42
-1.0
 73
     0
 74
     0
 75
     0
  3
GENERATED_STYLE__2
100
AcDbAlignedDimension
 13
7016.319233886682
 23
3924.137368484672
 33
0.0
 14
7018.734420396016
 24
3919.954142740749
 34
0.0
 50
-59.99999999999467
100
AcDbRotatedDimension
  0
DIMENSION
  5
414
330
3D5
100
AcDbEntity
  8
Specialized_Lines
  6
Continuous
100
AcDbDimension
280
     0
  2
*D11
 10
6998.236601524957
 20
3882.731560126341
 30
0.0
 11
6984.340994778584
 21
3886.372258245473
 31
0.0
 70
    32
  1
7.5mm 
 71
     5
 42
-1.0
 73
     0
 74
     0
 75
     0
  3
GENERATED_STYLE__3
100
AcDbAlignedDimension
 13
7126.893953392301
 23
3882.731560126341
 33
0.0
 14
7081.393953392296
 24
3889.874836125852
 34
0.0
 50
90.0
100
AcDbRotatedDimension
  0
MTEXT
  5
415
102
{ACAD_REACTORS
330
416
102
}
330
3D5
100
AcDbEntity
  8
Specialized_Text
  6
Continuous
100
AcDbMText
 10
7169.951772865842
 20
4106.740221020263
 30
0.0
 40
4.0
 41
136.705971199035
 46
0.0
 71
     4
 72
     1
  1
{breather type building wrap taped onto CAVITECLAD head flashing with Protecto Tape (or similar) }
  7
GENERATED_STYLE_2
 73
     1
 44
1.127312891095029
  0
LEADER
  5
416
330
3D5
100
AcDbEntity
  8
Specialized_Text
  6
Continuous
 62
   251
420
  6250335
370
    13
100
AcDbLeader
  3
GENERATED_STYLE__4
 73
     0
 40
12.833789866811
 41
131.3587994542974
 76
     2
 10
7035.63020411199
 20
4107.512720134881
 30
0.0
 10
7169.861772865842
 20
4106.740221020263
 30
0.0
340
415
  0
MTEXT
  5
417
102
{ACAD_REACTORS
330
418
102
}
330
3D5
100
AcDbEntity
  8
Specialized_Text
  6
Continuous
100
AcDbMText
 10
7169.951772865842
 20
4079.860800328918
 30
0.0
 40
4.0
 41
136.705971199035
 46
0.0
 71
     4
 72
     1
  1
{cavity insulation minimum R=0.9}
  7
GENERATED_STYLE_2
 73
     1
 44
1.0
  0
LEADER
  5
418
330
3D5
100
AcDbEntity
  8
Specialized_Text
  6
Continuous
 62
   251
420
  6250335
370
    13
100
AcDbLeader
  3
GENERATED_STYLE__4
 73
     0
 40
5.192360163710777
 41
79.82264665757162
 76
     2
 10
7084.961261684918
 20
4080.658119728567
 30
0.0
 10
7169.861772865842
 20
4079.860800328918
 30
0.0
340
417
  0
MTEXT
  5
419
102
{ACAD_REACTORS
330
41A
102
}
330
3D5
100
AcDbEntity
  8
Specialized_Text
  6
Continuous
100
AcDbMText
 10
7169.951772865842
 20
4061.638421268005
 30
0.0
 40
4.0
 41
136.705971199035
 46
0.0
 71
     4
 72
     1
  1
{50mm EPS OR \c30975;50mm Caviteclad Permapanel}
  7
GENERATED_STYLE_2
 73
     1
 44
1.0
  0
LEADER
  5
41A
330
3D5
100
AcDbEntity
  8
Specialized_Text
  6
Continuous
 62
   251
420
  6250335
370
    13
100
AcDbLeader
  3
GENERATED_STYLE__4
 73
     0
 40
5.18144611186903
 41
113.9863574351978
 76
     2
 10
6988.777828473607
 20
4062.380593607482
 30
0.0
 10
7169.861772865842
 20
4061.638421268005
 30
0.0
340
419
  0
MTEXT
  5
41B
102
{ACAD_REACTORS
330
41C
102
}
330
3D5
100
AcDbEntity
  8
Specialized_Text
  6
Continuous
100
AcDbMText
 10
7169.951772865842
 20
4042.923853750573
 30
0.0
 40
4.0
 41
136.705971199035
 46
0.0
 71
     4
 72
     1
  1
{selected plaster finish}
  7
GENERATED_STYLE_2
 73
     1
 44
1.0
  0
LEADER
  5
41C
330
3D5
100
AcDbEntity
  8
Specialized_Text
  6
Continuous
 62
   251
420
  6250335
370
    13
100
AcDbLeader
  3
GENERATED_STYLE__4
 73
     0
 40
5.18144611186903
 41
53.19508867667121
 76
     2
 10
6957.684830482074
 20
4043.66602609005
 30
0.0
 10
7169.861772865842
 20
4042.923853750573
 30
0.0
340
41B
  0
MTEXT
  5
41D
102
{ACAD_REACTORS
330
41E
102
}
330
3D5
100
AcDbEntity
  8
Specialized_Text
  6
Continuous
100
AcDbMText
 10
7169.951772865842
 20
4010.14268543623
 30
0.0
 40
4.0
 41
136.705971199035
 46
0.0
 71
     4
 72
     1
  1
{building wrap to be continued under lintel and taped with Protecto Sill System (or similar) at corners by builder}
  7
GENERATED_STYLE_2
 73
     1
 44
1.127302725799687
  0
LEADER
  5
41E
330
3D5
100
AcDbEntity
  8
Specialized_Text
  6
Continuous
 62
   251
420
  6250335
370
    13
100
AcDbLeader
  3
GENERATED_STYLE__4
 73
     0
 40
19.17581233711541
 41
127.2305593451569
 76
     2
 10
7035.63020411199
 20
4010.391213350816
 30
0.0
 10
7169.861772865842
 20
4010.14268543623
 30
0.0
340
41D
  0
MTEXT
  5
41F
102
{ACAD_REACTORS
330
420
102
}
330
3D5
100
AcDbEntity
  8
Specialized_Text
  6
Continuous
100
AcDbMText
 10
7169.951772865842
 20
3959.081239383048
 30
0.0
 40
4.0
 41
136.705971199035
 46
0.0
 71
     4
 72
     1
  1
{discontinuous horizontal 45mm x 20mm EPS battens on 15° slope and no more than 100mm in length as required for fixing}
  7
GENERATED_STYLE_2
 73
     1
 44
1.123977532571228
  0
LEADER
  5
420
330
3D5
100
AcDbEntity
  8
Specialized_Text
  6
Continuous
 62
   251
420
  6250335
370
    13
100
AcDbLeader
  3
GENERATED_STYLE__4
 73
     0
 40
20.32597769042387
 41
130.6521145975443
 76
     2
 10
7022.589802612344
 20
3959.853664380019
 30
0.0
 10
7169.861772865842
 20
3959.081239383048
 30
0.0
340
41F
  0
MTEXT
  5
421
102
{ACAD_REACTORS
330
422
102
}
330
3D5
100
AcDbEntity
  8
Specialized_Text
  6
Continuous
100
AcDbMText
 10
7169.951772865842
 20
3913.387134965679
 30
0.0
 40
4.0
 41
136.705971199035
 46
0.0
 71
     4
 72
     1
  1
{CAVITECLAD proprietary head flashing}
  7
GENERATED_STYLE_2
 73
     1
 44
1.0
  0
LEADER
  5
422
330
3D5
100
AcDbEntity
  8
Specialized_Text
  6
Continuous
 62
   251
420
  6250335
370
    13
100
AcDbLeader
  3
GENERATED_STYLE__4
 73
     0
 40
5.241473396998635
 41
97.50068212824011
 76
     2
 10
7019.147075561007
 20
3914.159638197943
 30
0.0
 10
7169.861772865842
 20
3913.387134965679
 30
0.0
340
421
  0
MTEXT
  5
423
102
{ACAD_REACTORS
330
424
102
}
330
3D5
100
AcDbEntity
  8
Specialized_Text
  6
Continuous
100
AcDbMText
 10
7169.951772865842
 20
3885.216576382543
 30
0.0
 40
4.0
 41
136.705971199035
 46
0.0
 71
     4
 72
     1
  1
{air seal - to be installed by builder}
  7
GENERATED_STYLE_2
 73
     1
 44
1.0
  0
LEADER
  5
424
330
3D5
100
AcDbEntity
  8
Specialized_Text
  6
Continuous
 62
   251
420
  6250335
370
    13
100
AcDbLeader
  3
GENERATED_STYLE__4
 73
     0
 40
5.173260572987722
 41
83.10504774897681
 76
     2
 10
7122.58556825218
 20
3886.023557543531
 30
0.0
 10
7169.861772865842
 20
3885.216576382543
 30
0.0
340
423
  0
MTEXT
  5
425
102
{ACAD_REACTORS
330
426
102
}
330
3D5
100
AcDbEntity
  8
Specialized_Text
  6
Continuous
100
AcDbMText
 10
7169.951772865842
 20
3857.015540969142
 30
0.0
 40
4.0
 41
136.705971199035
 46
0.0
 71
     4
 72
     1
  1
{selected aluminium joinery}
  7
GENERATED_STYLE_2
 73
     1
 44
1.0
  0
LEADER
  5
426
330
3D5
100
AcDbEntity
  8
Specialized_Text
  6
Continuous
 62
   251
420
  6250335
370
    13
100
AcDbLeader
  3
GENERATED_STYLE__4
 73
     0
 40
5.173260572987722
 41
65.62892223738064
 76
     2
 10
7050.852200247323
 20
3857.82252213013
 30
0.0
 10
7169.861772865842
 20
3857.015540969142
 30
0.0
340
425
  0
MTEXT
  5
427
330
3D5
100
AcDbEntity
  8
Specialized_Text
  6
Continuous
 62
    30
420
 16742400
370
    20
100
AcDbMText
 10
7168.351772865841
 20
3781.222629008823
 30
0.0
 40
5.0
 41
111.9228601720179
 46
0.0
 71
     7
 72
     1
  1
{note:  punchings in head flashing provide ventilation openings of 1000mm\A1{\H0.7x;\S2 ^  ;}per lineal metre}
  7
GENERATED_STYLE_2
 73
     1
 44
1.12662050634974
  0
LINE
  5
428
330
3D5
100
AcDbEntity
  8
Specialized_Lines
  6
Continuous
100
AcDbLine
 10
7041.352421721729
 20
3861.88156012663
 30
0.0
 11
7047.352421721701
 21
3861.88156012663
 31
0.0
  0
HATCH
  5
429
330
3D5
100
AcDbEntity
  8
Specialized_Fills
  6
Continuous
 62
    30
420
 16742400
370
    20
100
AcDbHatch
 10
0.0
 20
0.0
 30
0.0
210
0.0
220
0.0
230
1.0
  2
SOLID
 70
     1
 71
     1
 91
        3
 92
        2
 72
     0
 73
     1
 93
       58
 10
6964.794830482086
 20
3930.681303739294
 10
6964.794830482086
 20
3912.729980431809
 10
6966.194830482084
 20
3914.431303739291
 10
6966.194830482085
 20
3910.09437896734
 10
6964.794830482086
 20
3911.795702274821
 10
6964.794830482086
 20
3911.083483676526
 10
6965.787182514564
 20
3909.79570227482
 10
6964.794830482086
 20
3908.507920873114
 10
6964.794830482086
 20
3907.79570227482
 10
6966.194830482087
 20
3909.497025582305
 10
6966.194830482087
 20
3905.175221776898
 10
6964.794830482087
 20
3906.876545084383
 10
6964.794830482086
 20
3902.779671053556
 10
6965.658647607975
 20
3902.779671053556
 10
6966.462169630353
 20
3904.192998989494
 10
6968.033610073645
 20
3903.776203562305
 10
6968.690356799469
 20
3904.051774006788
 10
6966.579857105077
 20
3904.684460371873
 10
6971.56171307412
 20
3906.774843482687
 10
6970.53458475813
 20
3904.825610705649
 10
6971.191331483954
 20
3905.101181150132
 10
6971.99485350633
 20
3906.514509086071
 10
6973.566293949622
 20
3906.09771365888
 10
6974.223040675446
 20
3906.373284103364
 10
6972.112540981055
 20
3907.005970468449
 10
6977.094396950095
 20
3909.096353579261
 10
6976.067268634107
 20
3907.147120802224
 10
6976.724015359933
 20
3907.422691246708
 10
6977.527537382307
 20
3908.836019182646
 10
6979.0989778256
 20
3908.419223755456
 10
6979.755724551425
 20
3908.69479419994
 10
6977.645224857032
 20
3909.327480565024
 10
6982.627080826074
 20
3911.417863675839
 10
6981.599952510084
 20
3909.468630898799
 10
6982.256699235907
 20
3909.744201343283
 10
6983.060221258281
 20
3911.157529279222
 10
6984.631661701574
 20
3910.740733852032
 10
6985.288408427402
 20
3911.016304296516
 10
6983.177908733011
 20
3911.6489906616
 10
6988.159764702051
 20
3913.739373772415
 10
6987.132636386061
 20
3911.790140995375
 10
6987.7592774837
 20
3912.053079140353
 10
6988.592905134263
 20
3913.479039375798
 10
6989.994830482086
 20
3913.107204683157
 10
6989.994830482086
 20
3905.981303739294
 10
6991.194830482084
 20
3905.981303739294
 10
6991.194830482084
 20
3908.481303739293
 10
7019.147075561005
 20
3908.481303739293
 10
7019.147075561007
 20
3918.296258315518
 10
7035.147075561006
 20
3927.533862622552
 10
7035.147075561006
 20
3957.533862622552
 10
7033.947075561006
 20
3957.533862622552
 10
7033.947075561008
 20
3928.226636049823
 10
7001.825617755923
 20
3909.681303739294
 10
6991.194830482084
 20
3909.681303739294
 10
6991.194830482084
 20
3915.681303739293
 10
6965.994830482086
 20
3915.681303739293
 10
6965.994830482085
 20
3930.681303739294
 97
        1
330
42A
 92
        2
 72
     0
 73
     1
 93
        3
 10
7004.225536530087
 20
3909.681303739294
 10
7017.947075561007
 20
3917.60343799249
 10
7017.947075561007
 20
3909.681303739294
 97
        1
330
42B
 92
        2
 72
     0
 73
     1
 93
        3
 10
6967.394830482084
 20
3914.431303739291
 10
6986.718872607898
 20
3914.431303739292
 10
6967.394830482084
 20
3906.322949835951
 97
        1
330
42C
 75
     0
 76
     1
 98
        0
450
        0
451
        0
460
0.0
461
0.0
452
        1
462
0.0
453
        0
470

  0
LWPOLYLINE
  5
42A
102
{ACAD_REACTORS
330
429
102
}
330
3D5
100
AcDbEntity
  8
Specialized_Fills
  6
Continuous
100
AcDbPolyline
 90
       58
 70
   129
 43
0.0
 10
6964.794830482086
 20
3930.681303739294
 10
6964.794830482086
 20
3912.729980431809
 10
6966.194830482084
 20
3914.431303739291
 10
6966.194830482085
 20
3910.09437896734
 10
6964.794830482086
 20
3911.795702274821
 10
6964.794830482086
 20
3911.083483676526
 10
6965.787182514564
 20
3909.79570227482
 10
6964.794830482086
 20
3908.507920873114
 10
6964.794830482086
 20
3907.79570227482
 10
6966.194830482087
 20
3909.497025582305
 10
6966.194830482087
 20
3905.175221776898
 10
6964.794830482087
 20
3906.876545084383
 10
6964.794830482086
 20
3902.779671053556
 10
6965.658647607975
 20
3902.779671053556
 10
6966.462169630353
 20
3904.192998989494
 10
6968.033610073645
 20
3903.776203562305
 10
6968.690356799469
 20
3904.051774006788
 10
6966.579857105077
 20
3904.684460371873
 10
6971.56171307412
 20
3906.774843482687
 10
6970.53458475813
 20
3904.825610705649
 10
6971.191331483954
 20
3905.101181150132
 10
6971.99485350633
 20
3906.514509086071
 10
6973.566293949622
 20
3906.09771365888
 10
6974.223040675446
 20
3906.373284103364
 10
6972.112540981055
 20
3907.005970468449
 10
6977.094396950095
 20
3909.096353579261
 10
6976.067268634107
 20
3907.147120802224
 10
6976.724015359933
 20
3907.422691246708
 10
6977.527537382307
 20
3908.836019182646
 10
6979.0989778256
 20
3908.419223755456
 10
6979.755724551425
 20
3908.69479419994
 10
6977.645224857032
 20
3909.327480565024
 10
6982.627080826074
 20
3911.417863675839
 10
6981.599952510084
 20
3909.468630898799
 10
6982.256699235907
 20
3909.744201343283
 10
6983.060221258281
 20
3911.157529279222
 10
6984.631661701574
 20
3910.740733852032
 10
6985.288408427402
 20
3911.016304296516
 10
6983.177908733011
 20
3911.6489906616
 10
6988.159764702051
 20
3913.739373772415
 10
6987.132636386061
 20
3911.790140995375
 10
6987.7592774837
 20
3912.053079140353
 10
6988.592905134263
 20
3913.479039375798
 10
6989.994830482086
 20
3913.107204683157
 10
6989.994830482086
 20
3905.981303739294
 10
6991.194830482084
 20
3905.981303739294
 10
6991.194830482084
 20
3908.481303739293
 10
7019.147075561005
 20
3908.481303739293
 10
7019.147075561007
 20
3918.296258315518
 10
7035.147075561006
 20
3927.533862622552
 10
7035.147075561006
 20
3957.533862622552
 10
7033.947075561006
 20
3957.533862622552
 10
7033.947075561008
 20
3928.226636049823
 10
7001.825617755923
 20
3909.681303739294
 10
6991.194830482084
 20
3909.681303739294
 10
6991.194830482084
 20
3915.681303739293
 10
6965.994830482086
 20
3915.681303739293
 10
6965.994830482085
 20
3930.681303739294
  0
LWPOLYLINE
  5
42B
102
{ACAD_REACTORS
330
429
102
}
330
3D5
100
AcDbEntity
  8
Specialized_Fills
  6
Continuous
100
AcDbPolyline
 90
        3
 70
   129
 43
0.0
 10
7004.225536530087
 20
3909.681303739294
 10
7017.947075561007
 20
3917.60343799249
 10
7017.947075561007
 20
3909.681303739294
  0
LWPOLYLINE
  5
42C
102
{ACAD_REACTORS
330
429
102
}
330
3D5
100
AcDbEntity
  8
Specialized_Fills
  6
Continuous
100
AcDbPolyline
 90
        3
 70
   129
 43
0.0
 10
6967.394830482084
 20
3914.431303739291
 10
6986.718872607898
 20
3914.431303739292
 10
6967.394830482084
 20
3906.322949835951
  0
ENDBLK
  5
42E
330
3D5
100
AcDbEntity
  8
0
100
AcDbBlockEnd
  0
ENDSEC
  0
SECTION
  2
ENTITIES
  0
HATCH
  5
3F
330
1F
100
AcDbEntity
  8
Specialized_Fills
  6
Continuous
 62
   254
420
 14671839
370
    13
100
AcDbHatch
 10
0.0
 20
0.0
 30
0.0
210
0.0
220
0.0
230
1.0
  2
SOLID
 70
     1
 71
     0
 91
        1
 92
        2
 72
     0
 73
     1
 93
        4
 10
7036.393953392279
 20
4029.874836126015
 10
7126.340588459455
 20
4029.874836126015
 10
7126.340588459455
 20
3890.040860361406
 10
7036.393953392279
 20
3890.040860361406
 97
        0
 75
     0
 76
     1
 98
        0
450
        0
451
        0
460
0.0
461
0.0
452
        1
462
0.0
453
        0
470

  0
HATCH
  5
41
330
1F
100
AcDbEntity
  8
Specialized_Fills
  6
Continuous
 62
   254
420
 14671839
370
    13
100
AcDbHatch
 10
0.0
 20
0.0
 30
0.0
210
0.0
220
0.0
230
1.0
  2
SOLID
 70
     1
 71
     1
 91
        1
 92
        1
 93
        4
 72
     1
 10
7127.393953392289
 20
4125.263118073032
 11
7137.393953392336
 21
4125.263118073032
 72
     1
 10
7137.393953392336
 20
4125.263118073032
 11
7137.393953392336
 21
3878.495115433747
 72
     1
 10
7137.393953392336
 20
3878.495115433747
 11
7127.393953392289
 21
3878.495115433747
 72
     1
 10
7127.393953392289
 20
3878.495115433747
 11
7127.393953392289
 21
4125.263118073032
 97
        1
330
42
 75
     0
 76
     1
 98
        0
450
        0
451
        0
460
0.0
461
0.0
452
        1
462
0.0
453
        0
470

  0
LWPOLYLINE
  5
42
102
{ACAD_REACTORS
330
41
102
}
330
1F
100
AcDbEntity
  8
Specialized_Fills
  6
Continuous
100
AcDbPolyline
 90
        4
 70
   129
 43
0.0
 10
7127.393953392289
 20
4125.263118073032
 10
7137.393953392336
 20
4125.263118073032
 10
7137.393953392336
 20
3878.495115433747
 10
7127.393953392289
 20
3878.495115433747
  0
HATCH
  5
43
330
1F
100
AcDbEntity
  8
Specialized_Fills
  6
Continuous
 62
    30
420
 16742400
370
    20
100
AcDbHatch
 10
0.0
 20
0.0
 30
0.0
210
0.0
220
0.0
230
1.0
  2
SOLID
 70
     1
 71
     1
 91
        1
 92
        2
 72
     0
 73
     1
 93
        6
 10
7008.964960073457
 20
3900.964036407241
 10
7008.964960073457
 20
3897.964036407242
 10
7007.764960073457
 20
3897.964036407242
 10
7007.764960073458
 20
3900.466980132394
 10
7001.04536412417
 20
3907.186576081684
 10
7001.893892261593
 20
3908.035104219106
 97
        1
330
44
 75
     0
 76
     1
 98
        0
450
        0
451
        0
460
0.0
461
0.0
452
        1
462
0.0
453
        0
470

  0
LWPOLYLINE
  5
44
102
{ACAD_REACTORS
330
43
102
}
330
1F
100
AcDbEntity
  8
Specialized_Fills
  6
Continuous
100
AcDbPolyline
 90
        6
 70
   129
 43
0.0
 10
7008.964960073457
 20
3900.964036407241
 10
7008.964960073457
 20
3897.964036407242
 10
7007.764960073457
 20
3897.964036407242
 10
7007.764960073458
 20
3900.466980132394
 10
7001.04536412417
 20
3907.186576081684
 10
7001.893892261593
 20
3908.035104219106
  0
HATCH
  5
45
330
1F
100
AcDbEntity
  8
Specialized_Fills
  6
Continuous
100
AcDbHatch
 10
0.0
 20
0.0
 30
0.0
210
0.0
220
0.0
230
1.0
  2
LINES___ANGLED
 70
     0
 71
     1
 91
        1
 92
        2
 72
     0
 73
     1
 93
        4
 10
7017.076509673255
 20
3981.818420896602
 10
7017.076509673255
 20
3931.818420896604
 10
7032.536830484703
 20
3931.818420896604
 10
7032.536830484703
 20
3981.818420896607
 97
        1
330
46
 75
     0
 76
     2
 52
0.0
 41
1.0
 77
     0
 78
     1
 53
44.99999999999999
 43
0.0
 44
0.0
 45
-1.838477563650065
 46
1.838477563650065
 79
     0
 98
        0
  0
LWPOLYLINE
  5
46
102
{ACAD_REACTORS
330
45
102
}
330
1F
100
AcDbEntity
  8
Specialized_Fills
  6
Continuous
100
AcDbPolyline
 90
        4
 70
   129
 43
0.0
 10
7017.076509673255
 20
3981.818420896602
 10
7017.076509673255
 20
3931.818420896604
 10
7032.536830484703
 20
3931.818420896604
 10
7032.536830484703
 20
3981.818420896607
  0
HATCH
  5
1AD
330
1F
100
AcDbEntity
  8
Specialized_Fills
  6
Continuous
100
AcDbHatch
 10
0.0
 20
0.0
 30
0.0
210
0.0
220
0.0
230
1.0
  2
WOODFACE
 70
     0
 71
     1
 91
        1
 92
        1
 93
        8
 72
     1
 10
7066.965472358692
 20
3863.731560126336
 11
7143.048872213331
 21
3863.731560126336
 72
     1
 10
7143.048872213331
 20
3863.731560126336
 11
7143.048872213331
 21
3882.731560126341
 72
     1
 10
7143.048872213331
 20
3882.731560126341
 11
7137.893953392325
 21
3882.731560126341
 72
     1
 10
7137.893953392325
 20
3882.731560126341
 11
7137.893953392325
 21
3877.495115433771
 72
     1
 10
7137.893953392325
 20
3877.495115433771
 11
7126.893953392301
 21
3877.495115433771
 72
     1
 10
7126.893953392301
 20
3877.495115433771
 11
7126.893953392301
 21
3882.731560126341
 72
     1
 10
7126.893953392301
 20
3882.731560126341
 11
7066.965472358692
 21
3882.731560126341
 72
     1
 10
7066.965472358692
 20
3882.731560126341
 11
7066.965472358692
 21
3863.731560126336
 97
        1
330
1AE
 75
     0
 76
     2
 52
0.0
 41
1.0
 77
     0
 78
    38
 53
0.0
 43
0.0
 44
0.0
 45
100.0
 46
100.0
 79
     2
 49
5.0
 49
-95.00000000000001
 53
90.0
 43
40.0
 44
35.00000000000001
 45
-100.0
 46
100.0
 79
     2
 49
10.0
 49
-90.00000000000001
 53
44.99999999999999
 43
20.0
 44
25.0
 45
0.0
 46
100.0000000019025
 79
     6
 49
7.070000000000001
 49
-21.21
 49
7.070000000000001
 49
-14.14
 49
49.5
 49
-42.43135622999999
 53
44.99999999999999
 43
-5.0
 44
-5.0
 45
0.0
 46
100.0000000019025
 79
     4
 49
7.071
 49
-14.142
 49
7.071
 49
-113.1373562
 53
44.99999999999999
 43
30.0
 44
5.0
 45
0.0
 46
100.0000000019025
 79
     2
 49
7.071
 49
-134.3503562
 53
44.99999999999999
 43
40.0
 44
0.0
 45
0.0
 46
100.0000000019025
 79
     2
 49
7.071
 49
-134.3503562
 53
44.99999999999999
 43
25.0
 44
10.0
 45
0.0
 46
100.0000000019025
 79
     2
 49
7.071
 49
-134.3503562
 53
44.99999999999999
 43
20.0
 44
15.0
 45
0.0
 46
100.0000000019025
 79
     2
 49
14.142
 49
-127.2793562
 53
44.99999999999999
 43
45.0
 44
90.00000000000001
 45
0.0
 46
100.0000000019025
 79
     2
 49
14.142
 49
-127.2793562
 53
44.99999999999999
 43
10.0
 44
20.0
 45
0.0
 46
100.0000000019025
 79
     2
 49
28.284
 49
-113.1373562
 53
44.99999999999999
 43
5.0
 44
25.0
 45
0.0
 46
100.0000000019025
 79
     2
 49
28.284
 49
-113.1373562
 53
44.99999999999999
 43
70.00000000000001
 44
55.0
 45
0.0
 46
100.0000000019025
 79
     2
 49
28.284
 49
-113.1373562
 53
44.99999999999999
 43
0.0
 44
35.00000000000001
 45
0.0
 46
100.0000000019025
 79
     2
 49
21.2132
 49
-120.2081562
 53
44.99999999999999
 43
-20.0
 44
50.00000000000001
 45
0.0
 46
100.0000000019025
 79
     2
 49
21.2132
 49
-120.2081562
 53
44.99999999999999
 43
-10.0
 44
40.0
 45
0.0
 46
100.0000000019025
 79
     2
 49
21.2132
 49
-120.2081562
 53
44.99999999999999
 43
55.0
 44
70.00000000000001
 45
0.0
 46
100.0000000019025
 79
     2
 49
35.35534
 49
-106.0660162
 53
44.99999999999999
 43
45.0
 44
75.0
 45
0.0
 46
100.0000000019025
 79
     2
 49
35.35534
 49
-106.0660162
 53
44.99999999999999
 43
55.0
 44
50.00000000000001
 45
0.0
 46
100.0000000019025
 79
     2
 49
49.49747460000001
 49
-91.92388150000001
 53
26.5650512
 43
10.0
 44
10.0
 45
100.0000000000093
 46
0.000000040006455
 79
     2
 49
11.180339
 49
-212.426458
 53
26.5650512
 43
30.0
 44
40.0
 45
100.0000000000093
 46
0.000000040006455
 79
     2
 49
11.180339
 49
-212.426458
 53
26.5650512
 43
25.0
 44
30.0
 45
100.0000000000093
 46
0.000000040006455
 79
     2
 49
11.180339
 49
-212.426458
 53
26.5650512
 43
5.0
 44
0.0
 45
100.0000000000093
 46
0.000000040006455
 79
     2
 49
22.36067999999999
 49
-201.2461177
 53
26.5650512
 43
25.0
 44
45.0
 45
100.0000000000093
 46
0.000000040006455
 79
     2
 49
33.5410196
 49
-190.0657781
 53
26.5650512
 43
15.0
 44
50.00000000000001
 45
100.0000000000093
 46
0.000000040006455
 79
     2
 49
44.72135950000001
 49
-178.8854382
 53
26.5650512
 43
5.0
 44
55.0
 45
100.0000000000093
 46
0.000000040006455
 79
     2
 49
44.72135950000001
 49
-178.8854382
 53
26.5650512
 43
-10.0
 44
85.0
 45
100.0000000000093
 46
0.000000040006455
 79
     2
 49
44.72135950000001
 49
-178.8854382
 53
26.5650512
 43
-10.0
 44
75.0
 45
100.0000000000093
 46
0.000000040006455
 79
     2
 49
55.90169999999999
 49
-167.7050977
 53
26.5650512
 43
-5.0
 44
65.00000000000001
 45
100.0000000000093
 46
0.000000040006455
 79
     2
 49
55.90169999999999
 49
-167.7050977
 53
63.43494882000001
 43
30.0
 44
25.0
 45
0.0000000050998636
 46
100.0000000000093
 79
     2
 49
11.18033899999999
 49
-212.4264579999999
 53
63.43494882000001
 43
15.0
 44
15.0
 45
0.0000000050998636
 46
100.0000000000093
 79
     2
 49
11.18033899999999
 49
-212.4264579999999
 53
63.43494882000001
 43
0.0
 44
0.0
 45
0.0000000050998636
 46
100.0000000000093
 79
     2
 49
22.36067999999998
 49
-201.2461176999999
 53
63.43494882000001
 43
30.0
 44
15.0
 45
0.0000000050998636
 46
100.0000000000093
 79
     2
 49
22.36067999999998
 49
-201.2461176999999
 53
63.43494882000001
 43
-10.0
 44
-5.0
 45
0.0000000050998636
 46
100.0000000000093
 79
     2
 49
33.54101959999996
 49
-190.0657780999998
 53
63.43494882000001
 43
-20.0
 44
-5.0
 45
0.0000000050998636
 46
100.0000000000093
 79
     2
 49
44.72135949999997
 49
-178.8854381999998
 53
63.43494882000001
 43
70.00000000000001
 44
0.0
 45
0.0000000050998636
 46
100.0000000000093
 79
     2
 49
44.72135949999997
 49
-178.8854381999998
 53
63.43494882000001
 43
35.00000000000001
 44
10.0
 45
0.0000000050998636
 46
100.0000000000093
 79
     2
 49
44.72135949999997
 49
-178.8854381999998
 53
63.43494882000001
 43
55.0
 44
0.0
 45
0.0000000050998636
 46
100.0000000000093
 79
     2
 49
55.90169999999996
 49
-167.7050976999998
 53
63.43494882000001
 43
45.0
 44
5.0
 45
0.0000000050998636
 46
100.0000000000093
 79
     2
 49
55.90169999999996
 49
-167.7050976999998
 98
        0
  0
LWPOLYLINE
  5
1AE
102
{ACAD_REACTORS
330
1AD
102
}
330
1F
100
AcDbEntity
  8
Specialized_Fills
  6
Continuous
100
AcDbPolyline
 90
        8
 70
   129
 43
0.0
 10
7066.965472358692
 20
3863.731560126336
 10
7143.048872213331
 20
3863.731560126336
 10
7143.048872213331
 20
3882.731560126341
 10
7137.893953392325
 20
3882.731560126341
 10
7137.893953392325
 20
3877.495115433771
 10
7126.893953392301
 20
3877.495115433771
 10
7126.893953392301
 20
3882.731560126341
 10
7066.965472358692
 20
3882.731560126341
  0
LINE
  5
1AF
330
1F
100
AcDbEntity
  8
Specialized_Lines
  6
Continuous
100
AcDbLine
 10
7036.393953392279
 20
4029.874836126015
 30
0.0
 11
7036.393953392337
 21
3889.874836125852
 31
0.0
  0
LINE
  5
1B1
330
1F
100
AcDbEntity
  8
Specialized_Lines
  6
Continuous
100
AcDbLine
 10
7036.393953392279
 20
4029.874836126015
 30
0.0
 11
7126.393953392312
 21
4029.874836126015
 31
0.0
  0
LINE
  5
1B2
330
1F
100
AcDbEntity
  8
Specialized_Lines
  6
Continuous
100
AcDbLine
 10
7036.393953392279
 20
4029.874836126015
 30
0.0
 11
7036.393953392279
 21
4125.263118073032
 31
0.0
  0
LINE
  5
1B4
330
1F
100
AcDbEntity
  8
Specialized_Lines
  6
Hidden
100
AcDbLine
 10
7126.933648401555
 20
3889.056926715495
 30
0.0
 11
7126.933648401555
 21
3909.003520893273
 31
0.0
  0
LINE
  5
1B5
330
1F
100
AcDbEntity
  8
Specialized_Lines
  6
Continuous
100
AcDbLine
 10
7036.393953392281
 20
3889.874836125852
 30
0.0
 11
7081.393953392296
 21
4029.874836125816
 31
0.0
  0
LINE
  5
1B6
330
1F
100
AcDbEntity
  8
Specialized_Lines
  6
Continuous
100
AcDbLine
 10
7126.393953392312
 20
3889.874836125852
 30
0.0
 11
7081.393953392296
 21
4029.874836125816
 31
0.0
  0
LINE
  5
1B7
330
1F
100
AcDbEntity
  8
Specialized_Lines
  6
Continuous
100
AcDbLine
 10
7081.393953392296
 20
3889.874836125852
 30
0.0
 11
7126.393953392312
 21
4029.874836125813
 31
0.0
  0
LINE
  5
1B8
330
1F
100
AcDbEntity
  8
Specialized_Lines
  6
Continuous
100
AcDbLine
 10
7127.393953392289
 20
4125.263118073032
 30
0.0
 11
7127.393953392289
 21
3878.495115433747
 31
0.0
  0
LINE
  5
1B9
330
1F
100
AcDbEntity
  8
Specialized_Lines
  6
Continuous
100
AcDbLine
 10
7137.393953392336
 20
4125.263118073032
 30
0.0
 11
7137.393953392336
 21
3878.495115433747
 31
0.0
  0
LINE
  5
1BA
330
1F
100
AcDbEntity
  8
Specialized_Lines
  6
Continuous
100
AcDbLine
 10
7081.393953392296
 20
3889.874836125852
 30
0.0
 11
7036.393953392279
 21
4029.874836126015
 31
0.0
  0
LINE
  5
1BB
330
1F
100
AcDbEntity
  8
Specialized_Lines
  6
Continuous
100
AcDbLine
 10
7137.393953392336
 20
3878.495115433747
 30
0.0
 11
7127.393953392289
 21
3878.495115433747
 31
0.0
  0
LINE
  5
1BC
330
1F
100
AcDbEntity
  8
Specialized_Lines
  6
Continuous
100
AcDbLine
 10
7126.393953392312
 20
4029.874836125813
 30
0.0
 11
7126.393953392312
 21
3889.874836125852
 31
0.0
  0
LINE
  5
1BD
330
1F
100
AcDbEntity
  8
Specialized_Lines
  6
Continuous
 62
   251
420
  6250335
370
    13
100
AcDbLine
 10
7071.465472358696
 20
3863.331560126343
 30
0.0
 11
7071.465472358696
 21
3747.824896301754
 31
0.0
  0
LINE
  5
1BE
330
1F
100
AcDbEntity
  8
Specialized_Lines
  6
Continuous
 62
   251
420
  6250335
370
    13
100
AcDbLine
 10
7143.048872213331
 20
3868.895690481083
 30
0.0
 11
7143.048872213331
 21
3747.94964652996
 31
0.0
  0
LINE
  5
1BF
330
1F
100
AcDbEntity
  8
Specialized_Lines
  6
DASHEDX2
100
AcDbLine
 10
7035.63020411199
 20
3889.056926715495
 30
0.0
 11
7035.63020411199
 21
4125.263118073032
 31
0.0
  0
LINE
  5
1C0
330
1F
100
AcDbEntity
  8
Specialized_Lines
  6
Continuous
100
AcDbLine
 10
7090.289349370653
 20
3883.305328762287
 30
0.0
 11
7117.878963846397
 21
3888.642808365867
 31
0.0
  0
LINE
  5
1C1
330
1F
100
AcDbEntity
  8
Specialized_Lines
  6
Continuous
100
AcDbLine
 10
7117.878963846397
 20
3883.305328762287
 30
0.0
 11
7090.289349370653
 21
3888.642808365867
 31
0.0
  0
LINE
  5
1C2
330
1F
100
AcDbEntity
  8
Specialized_Lines
  6
DASHEDX2
100
AcDbLine
 10
7035.63020411199
 20
3889.056926715495
 30
0.0
 11
7126.933648401555
 21
3889.056926715495
 31
0.0
  0
LINE
  5
1C3
330
1F
100
AcDbEntity
  8
Specialized_Lines
  6
Continuous
 62
   251
420
  6250335
370
    13
100
AcDbLine
 10
6959.949232600465
 20
3902.553332709513
 30
0.0
 11
6959.949232600465
 21
3747.945494319681
 31
0.0
  0
LINE
  5
1C4
330
1F
100
AcDbEntity
  8
Specialized_Lines
  6
Continuous
 62
   251
420
  6250335
370
    13
100
AcDbLine
 10
7009.393953392322
 20
3884.588413375834
 30
0.0
 11
7009.393953392322
 21
3747.94964652996
 31
0.0
  0
LINE
  5
1C5
330
1F
100
AcDbEntity
  8
Specialized_Lines
  6
Continuous
 62
   251
420
  6250335
370
    13
100
AcDbLine
 10
7016.393953392321
 20
3868.431560126341
 30
0.0
 11
7016.393953392321
 21
3747.94964652996
 31
0.0
  0
LINE
  5
1C7
330
1F
100
AcDbEntity
  8
Specialized_Lines
  6
Continuous
 62
   251
420
  6250335
370
    13
100
AcDbLine
 10
7051.393953392322
 20
3849.431560126342
 30
0.0
 11
7051.393953392322
 21
3747.94964652996
 31
0.0
  0
LINE
  5
1C8
330
1F
100
AcDbEntity
  8
Specialized_Lines
  6
Continuous
 62
   251
420
  6250335
370
    13
100
AcDbLine
 10
7065.78010293825
 20
3863.419857217208
 30
0.0
 11
7065.78010293825
 21
3747.824896301754
 31
0.0
  0
LWPOLYLINE
  5
1D0
330
1F
100
AcDbEntity
  8
Specialized_Lines
  6
Continuous
100
AcDbPolyline
 90
        4
 70
   129
 43
0.0
 10
7117.878963846397
 20
3883.305328762287
 10
7090.289349370653
 20
3883.305328762287
 10
7090.289349370653
 20
3888.642808365867
 10
7117.878963846397
 20
3888.642808365867
  0
LWPOLYLINE
  5
1D1
330
1F
100
AcDbEntity
  8
Specialized_Lines
  6
Continuous
100
AcDbPolyline
 90
        3
 70
   128
 43
0.0
 10
7036.393953392281
 20
3889.874836125852
 10
7081.393953392296
 20
3889.874836125852
 10
7081.393953392296
 20
4029.874836125816
  0
LWPOLYLINE
  5
1D2
330
1F
100
AcDbEntity
  8
Specialized_Lines
  6
Continuous
100
AcDbPolyline
 90
        2
 70
   128
 43
0.0
 10
7081.393953392296
 20
3889.874836125852
 10
7081.393953392296
 20
4021.655592826231
  0
LWPOLYLINE
  5
1D3
330
1F
100
AcDbEntity
  8
Specialized_Lines
  6
Continuous
100
AcDbPolyline
 90
        8
 70
   129
 43
0.0
 10
7143.048872213331
 20
3863.731560126336
 10
7066.965472358692
 20
3863.731560126336
 10
7066.965472358692
 20
3882.731560126341
 10
7126.893953392301
 20
3882.731560126341
 10
7126.893953392301
 20
3877.495115433771
 10
7137.893953392325
 20
3877.495115433771
 10
7137.893953392325
 20
3882.731560126341
 10
7143.048872213331
 20
3882.731560126341
  0
LWPOLYLINE
  5
1D4
330
1F
100
AcDbEntity
  8
Specialized_Lines
  6
Continuous
100
AcDbPolyline
 90
        2
 70
   128
 43
0.0
 10
7036.393953392281
 20
3889.874836125852
 10
7036.393953392281
 20
4021.655592826231
  0
LWPOLYLINE
  5
1D5
330
1F
100
AcDbEntity
  8
Specialized_Lines
  6
Continuous
100
AcDbPolyline
 90
        3
 70
   128
 43
0.0
 10
7126.393953392312
 20
4021.655592826231
 10
7126.393953392312
 20
3889.874836125852
 10
7081.393953392296
 20
3889.874836125852
  0
LWPOLYLINE
  5
1D8
330
1F
100
AcDbEntity
  8
Specialized_Fills
  6
DASHEDX2
 62
   253
420
 10461087
370
    20
100
AcDbPolyline
 90
       10
 70
   128
 43
0.0
 10
7036.393953392279
 20
4029.874836126015
 42
-0.6180339902741404
 10
7072.393953794378
 20
4047.874836227644
 10
7090.393953734772
 20
4034.374836148249
 42
2.000000011029643
 10
7090.393953734772
 20
4070.374836148249
 10
7072.393953756193
 20
4056.874836119611
 42
-2.000000003978641
 10
7072.393953756193
 20
4092.874836119611
 10
7090.393953696588
 20
4079.374836040216
 42
2.000000011029643
 10
7090.393953696588
 20
4115.374836040216
 10
7072.393953718009
 20
4101.874836011578
 42
-0.6439562055307875
 10
7036.455799703381
 20
4121.541943576498
  0
LWPOLYLINE
  5
1DC
330
1F
100
AcDbEntity
  8
Specialized_Lines
  6
DASHEDX2
100
AcDbPolyline
 90
        2
 70
   128
 43
0.0
 10
6963.100314272598
 20
4125.263118073032
 10
6963.100314272598
 20
3899.430877024835
  0
LWPOLYLINE
  5
1DD
330
1F
100
AcDbEntity
  8
Specialized_Lines
  6
DASHEDX2
100
AcDbPolyline
 90
        2
 70
   128
 43
0.0
 10
6985.435411193667
 20
3908.767477132852
 10
6963.100314272598
 20
3899.430877024835
  0
LWPOLYLINE
  5
1DE
330
1F
100
AcDbEntity
  8
Specialized_Lines
  6
Continuous
100
AcDbPolyline
 90
        5
 70
   129
 43
0.0
 10
7015.994830482104
 20
3923.525473100859
 10
7015.994830482104
 20
4125.263118073032
 10
6965.994830482085
 20
4125.263118073032
 10
6965.994830482085
 20
3915.681303739293
 10
7002.782660105122
 20
3915.892874519765
  0
LWPOLYLINE
  5
1E0
330
1F
100
AcDbEntity
  8
0
  6
Continuous
100
AcDbPolyline
 90
        6
 70
   128
 43
0.0
 10
7154.66039831861
 20
4125.263118073032
 10
7085.897664574623
 20
4125.263118073032
 10
7083.897664574621
 20
4130.758072911941
 10
7079.897664574622
 20
4119.768163234123
 10
7077.897664574621
 20
4125.263118073032
 10
6944.780507847498
 20
4125.263118073032
  0
LWPOLYLINE
  5
1E1
330
1F
100
AcDbEntity
  8
0
  6
Continuous
100
AcDbPolyline
 90
        6
 70
   128
 43
0.0
 10
7154.66039831861
 20
3747.824896301754
 10
7085.897664574623
 20
3747.824896301754
 10
7083.897664574621
 20
3753.319851140663
 10
7079.897664574622
 20
3742.329941462845
 10
7077.897664574621
 20
3747.824896301754
 10
6944.780507847498
 20
3747.824896301754
  0
LWPOLYLINE
  5
1E2
330
1F
100
AcDbEntity
  8
0
  6
Continuous
100
AcDbPolyline
 90
        4
 70
   128
 43
0.0
 10
7034.704628581041
 20
4029.901109655585
 10
7034.755702777525
 20
3962.793663140331
 10
7033.13155538071
 20
3957.727703591002
 10
7033.13155538071
 20
3928.756283264304
  0
ELLIPSE
  5
1E3
330
1F
100
AcDbEntity
  8
Specialized_Lines
  6
Continuous
100
AcDbEllipse
 10
7122.58556825218
 20
3885.926098264723
 30
0.0
 11
3.479568238652319
 21
-1.811071092807025
 31
0.0
210
0.0
220
0.0
230
1.0
 40
0.6607036763668314
 41
0.0
 42
6.283185307179586
  0
SPLINE
  5
1E4
330
1F
100
AcDbEntity
  8
Specialized_Lines
  6
Continuous
100
AcDbSpline
210
0.0
220
0.0
230
1.0
 70
     8
 71
     3
 72
    11
 73
     7
 74
     0
 42
0.00001
 43
0.0000000001
 40
0.0
 40
0.0
 40
0.0
 40
0.0
 40
1.0
 40
1.0
 40
1.0
 40
2.0
 40
2.0
 40
2.0
 40
2.0
 10
7001.486622561484
 20
3908.481303739293
 30
0.0
 10
7001.486622561484
 20
3908.481303739293
 30
0.0
 10
7001.675407452754
 20
3908.275518608055
 30
0.0
 10
7001.675407452754
 20
3908.275518608055
 30
0.0
 10
7001.675407452754
 20
3908.275518608055
 30
0.0
 10
7001.893892261593
 20
3908.035104219107
 30
0.0
 10
7001.893892261593
 20
3908.035104219107
 30
0.0
  0
SPLINE
  5
1E5
330
1F
100
AcDbEntity
  8
Specialized_Lines
  6
Continuous
100
AcDbSpline
210
0.0
220
0.0
230
1.0
 70
     8
 71
     3
 72
    11
 73
     7
 74
     0
 42
0.00001
 43
0.0000000001
 40
0.0
 40
0.0
 40
0.0
 40
0.0
 40
1.0
 40
1.0
 40
1.0
 40
2.0
 40
2.0
 40
2.0
 40
2.0
 10
6997.928500023377
 20
3908.481303739293
 30
0.0
 10
6997.928500023377
 20
3908.481303739293
 30
0.0
 10
7000.219346041062
 20
3907.682084602548
 30
0.0
 10
7000.219346041062
 20
3907.682084602548
 30
0.0
 10
7000.219346041062
 20
3907.682084602548
 30
0.0
 10
7001.045364124168
 20
3907.186576081683
 30
0.0
 10
7001.045364124168
 20
3907.186576081683
 30
0.0
  0
DIMENSION
  5
1F2
330
1F
100
AcDbEntity
  8
Specialized_Lines
  6
Continuous
100
AcDbDimension
280
     0
  2
*D3
 10
6952.571333821945
 20
3907.625198946352
 30
0.0
 11
6952.571333821943
 21
3902.794617676798
 31
0.0
 70
   160
  1
<>
 71
     5
 42
9.661162539110137
 73
     0
 74
     0
 75
     0
  3
GENERATED_STYLE__1
100
AcDbAlignedDimension
 13
7007.764960073457
 23
3897.964036407242
 33
0.0
 14
7010.593953392322
 24
3907.625198946352
 34
0.0
 50
90.0
100
AcDbRotatedDimension
1001
ACAD
1000
DSTYLE
1002
{
1070
   147
1040
2.0
1002
}
  0
DIMENSION
  5
204
330
1F
100
AcDbEntity
  8
Specialized_Lines
  6
Continuous
100
AcDbDimension
280
     0
  2
*D5
 10
7023.180801171919
 20
3922.521261878637
 30
0.0
 11
7025.385405634118
 21
3926.775174458518
 31
0.0
 70
   160
  1
<>
 71
     5
 42
4.830373018669433
 73
     0
 74
     0
 75
     0
  3
GENERATED_STYLE__2
100
AcDbAlignedDimension
 13
7016.319233886682
 23
3924.137368484672
 33
0.0
 14
7018.734420396016
 24
3919.954142740749
 34
0.0
 50
-59.99999999999467
100
AcDbRotatedDimension
1001
ACAD
1000
DSTYLE
1002
{
1070
    42
1040
2.0
1002
}
  0
DIMENSION
  5
211
330
1F
100
AcDbEntity
  8
Specialized_Lines
  6
Continuous
100
AcDbDimension
280
     0
  2
*D6
 10
7001.564844911207
 20
3889.874836125852
 30
0.0
 11
6997.764844911206
 21
3878.258913445196
 31
0.0
 70
   160
  1
7.5mm 
 71
     5
 42
7.143275999510478
 73
     0
 74
     0
 75
     0
  3
GENERATED_STYLE__3
100
AcDbAlignedDimension
 13
7126.893953392301
 23
3882.731560126341
 33
0.0
 14
7081.393953392296
 24
3889.874836125852
 34
0.0
 50
90.0
100
AcDbRotatedDimension
1001
ACAD
1000
DSTYLE
1002
{
1070
   147
1040
2.0
1002
}
  0
MTEXT
  5
21D
102
{ACAD_REACTORS
330
21E
102
}
330
1F
100
AcDbEntity
  8
Specialized_Text
  6
Continuous
100
AcDbMText
 10
7169.951772865842
 20
4079.860800328918
 30
0.0
 40
5.5
 41
136.705971199035
 46
0.0
 71
     4
 72
     1
  1
{cavity insulation minimum R=0.9}
  7
GENERATED_STYLE_2
 73
     1
 44
1.0
  0
LEADER
  5
21E
330
1F
100
AcDbEntity
  8
Specialized_Text
  6
Continuous
 62
   251
420
  6250335
370
    13
100
AcDbLeader
  3
GENERATED_STYLE__4
 73
     0
 40
7.139495225102319
 41
109.756139154161
 76
     2
 10
7084.961261684918
 20
4080.658119728567
 30
0.0
 10
7169.861772865842
 20
4079.860800328918
 30
0.0
340
21D
  0
MTEXT
  5
21F
102
{ACAD_REACTORS
330
220
102
}
330
1F
100
AcDbEntity
  8
Specialized_Text
  6
Continuous
100
AcDbMText
 10
7169.951772865842
 20
4061.638421268005
 30
0.0
 40
5.5
 41
136.705971199035
 46
0.0
 71
     4
 72
     1
  1
50mm EPS OR {\C30;75mm Neopor® EPS}
  7
GENERATED_STYLE_2
 73
     1
 44
1.0
  0
LEADER
  5
220
330
1F
100
AcDbEntity
  8
Specialized_Text
  6
Continuous
 62
   251
420
  6250335
370
    13
100
AcDbLeader
  3
GENERATED_STYLE__4
 73
     0
 40
7.124488403819918
 41
125.7834242837653
 76
     2
 10
6988.777828473607
 20
4062.380593607482
 30
0.0
 10
7169.861772865842
 20
4061.638421268005
 30
0.0
340
21F
  0
MTEXT
  5
221
102
{ACAD_REACTORS
330
222
102
}
330
1F
100
AcDbEntity
  8
Specialized_Text
  6
Continuous
100
AcDbMText
 10
7169.951772865842
 20
4042.923853750573
 30
0.0
 40
5.5
 41
136.705971199035
 46
0.0
 71
     4
 72
     1
  1
{selected plaster finish}
  7
GENERATED_STYLE_2
 73
     1
 44
1.0
  0
LEADER
  5
222
330
1F
100
AcDbEntity
  8
Specialized_Text
  6
Continuous
 62
   251
420
  6250335
370
    13
100
AcDbLeader
  3
GENERATED_STYLE__4
 73
     0
 40
7.124488403819918
 41
73.14324693042292
 76
     2
 10
6962.268820513509
 20
4043.517164349192
 30
0.0
 10
7169.861772865842
 20
4042.923853750573
 30
0.0
340
221
  0
MTEXT
  5
223
102
{ACAD_REACTORS
330
224
102
}
330
1F
100
AcDbEntity
  8
Specialized_Text
  6
Continuous
100
AcDbMText
 10
7169.951772865842
 20
4010.14268543623
 30
0.0
 40
5.5
 41
136.705971199035
 46
0.0
 71
     4
 72
     1
  1
{building wrap to be continued under lintel and taped with Protecto Sill System (or similar) at corners by builder}
  7
GENERATED_STYLE_2
 73
     1
 44
1.127302725799687
  0
LEADER
  5
224
330
1F
100
AcDbEntity
  8
Specialized_Text
  6
Continuous
 62
   251
420
  6250335
370
    13
100
AcDbLeader
  3
GENERATED_STYLE__4
 73
     0
 40
27.97997525139181
 41
135.5341064120054
 76
     2
 10
7035.63020411199
 20
4010.391213350816
 30
0.0
 10
7169.861772865842
 20
4010.14268543623
 30
0.0
340
223
  0
MTEXT
  5
225
102
{ACAD_REACTORS
330
226
102
}
330
1F
100
AcDbEntity
  8
Specialized_Text
  6
Continuous
100
AcDbMText
 10
7169.951772865842
 20
3959.081239383048
 30
0.0
 40
5.5
 41
136.705971199035
 46
0.0
 71
     4
 72
     1
  1
{discontinuous horizontal 45mm x 20mm EPS battens on 15° slope and no more than 100mm in length as required for fixing}
  7
GENERATED_STYLE_2
 73
     1
 44
1.123977532571228
  0
LEADER
  5
226
330
1F
100
AcDbEntity
  8
Specialized_Text
  6
Continuous
 62
   251
420
  6250335
370
    13
100
AcDbLeader
  3
GENERATED_STYLE__4
 73
     0
 40
38.35676751846532
 41
134.6074351978172
 76
     2
 10
7022.589802612344
 20
3959.853664380019
 30
0.0
 10
7169.861772865842
 20
3959.081239383048
 30
0.0
340
225
  0
MTEXT
  5
227
102
{ACAD_REACTORS
330
228
102
}
330
1F
100
AcDbEntity
  8
Specialized_Text
  6
Continuous
100
AcDbMText
 10
7169.951772865842
 20
3913.387134965679
 30
0.0
 40
5.5
 41
136.705971199035
 46
0.0
 71
     4
 72
     1
  1
{CAVITECLAD proprietary head flashing}
  7
GENERATED_STYLE_2
 73
     1
 44
1.0
  0
LEADER
  5
228
330
1F
100
AcDbEntity
  8
Specialized_Text
  6
Continuous
 62
   251
420
  6250335
370
    13
100
AcDbLeader
  3
GENERATED_STYLE__4
 73
     0
 40
7.207025920873125
 41
134.0634379263301
 76
     2
 10
7019.147075561007
 20
3914.159638197943
 30
0.0
 10
7169.861772865842
 20
3913.387134965679
 30
0.0
340
227
  0
MTEXT
  5
229
102
{ACAD_REACTORS
330
22A
102
}
330
1F
100
AcDbEntity
  8
Specialized_Text
  6
Continuous
100
AcDbMText
 10
7169.951772865842
 20
3885.216576382543
 30
0.0
 40
5.5
 41
136.705971199035
 46
0.0
 71
     4
 72
     1
  1
{air seal - to be installed by builder}
  7
GENERATED_STYLE_2
 73
     1
 44
1.0
  0
LEADER
  5
22A
330
1F
100
AcDbEntity
  8
Specialized_Text
  6
Continuous
 62
   251
420
  6250335
370
    13
100
AcDbLeader
  3
GENERATED_STYLE__4
 73
     0
 40
7.113233287858117
 41
114.2694406548431
 76
     2
 10
7122.58556825218
 20
3886.023557543531
 30
0.0
 10
7169.861772865842
 20
3885.216576382543
 30
0.0
340
229
  0
MTEXT
  5
22B
102
{ACAD_REACTORS
330
22C
102
}
330
1F
100
AcDbEntity
  8
Specialized_Text
  6
Continuous
100
AcDbMText
 10
7169.951772865842
 20
3857.015540969142
 30
0.0
 40
5.5
 41
136.705971199035
 46
0.0
 71
     4
 72
     1
  1
{selected aluminium joinery}
  7
GENERATED_STYLE_2
 73
     1
 44
1.0
  0
LEADER
  5
22C
330
1F
100
AcDbEntity
  8
Specialized_Text
  6
Continuous
 62
   251
420
  6250335
370
    13
100
AcDbLeader
  3
GENERATED_STYLE__4
 73
     0
 40
7.113233287858117
 41
90.23976807639837
 76
     2
 10
7050.852200247323
 20
3857.82252213013
 30
0.0
 10
7169.861772865842
 20
3857.015540969142
 30
0.0
340
22B
  0
MTEXT
  5
22D
330
1F
100
AcDbEntity
  8
Specialized_Text
  6
Continuous
 62
    30
420
 16742400
370
    20
100
AcDbMText
 10
7168.351772865841
 20
3781.222629008823
 30
0.0
 40
5.5
 41
111.9228601720179
 46
0.0
 71
     7
 72
     1
  1
{note:  punchings in head flashing provide ventilation openings of 1000mm\A1{\H0.7x;\S2 ^  ;}per lineal metre}
  7
GENERATED_STYLE_2
 73
     1
 44
1.12662050634974
  0
HATCH
  5
22F
330
1F
100
AcDbEntity
  8
Specialized_Fills
  6
Continuous
 62
    30
420
 16742400
370
    20
100
AcDbHatch
 10
0.0
 20
0.0
 30
0.0
210
0.0
220
0.0
230
1.0
  2
SOLID
 70
     1
 71
     1
 91
        3
 92
        2
 72
     0
 73
     1
 93
       58
 10
6964.794830482086
 20
3930.681303739294
 10
6964.794830482086
 20
3912.729980431809
 10
6966.194830482084
 20
3914.431303739291
 10
6966.194830482085
 20
3910.09437896734
 10
6964.794830482086
 20
3911.795702274821
 10
6964.794830482086
 20
3911.083483676526
 10
6965.787182514564
 20
3909.79570227482
 10
6964.794830482086
 20
3908.507920873114
 10
6964.794830482086
 20
3907.79570227482
 10
6966.194830482087
 20
3909.497025582305
 10
6966.194830482087
 20
3905.175221776898
 10
6964.794830482087
 20
3906.876545084383
 10
6964.794830482086
 20
3902.779671053556
 10
6965.658647607975
 20
3902.779671053556
 10
6966.462169630353
 20
3904.192998989494
 10
6968.033610073645
 20
3903.776203562305
 10
6968.690356799469
 20
3904.051774006788
 10
6966.579857105077
 20
3904.684460371873
 10
6971.56171307412
 20
3906.774843482687
 10
6970.53458475813
 20
3904.825610705649
 10
6971.191331483954
 20
3905.101181150132
 10
6971.99485350633
 20
3906.514509086071
 10
6973.566293949622
 20
3906.09771365888
 10
6974.223040675446
 20
3906.373284103364
 10
6972.112540981055
 20
3907.005970468449
 10
6977.094396950095
 20
3909.096353579261
 10
6976.067268634107
 20
3907.147120802224
 10
6976.724015359933
 20
3907.422691246708
 10
6977.527537382307
 20
3908.836019182646
 10
6979.0989778256
 20
3908.419223755456
 10
6979.755724551425
 20
3908.69479419994
 10
6977.645224857032
 20
3909.327480565024
 10
6982.627080826074
 20
3911.417863675839
 10
6981.599952510084
 20
3909.468630898799
 10
6982.256699235907
 20
3909.744201343283
 10
6983.060221258281
 20
3911.157529279222
 10
6984.631661701574
 20
3910.740733852032
 10
6985.288408427402
 20
3911.016304296516
 10
6983.177908733011
 20
3911.6489906616
 10
6988.159764702051
 20
3913.739373772415
 10
6987.132636386061
 20
3911.790140995375
 10
6987.7592774837
 20
3912.053079140353
 10
6988.592905134263
 20
3913.479039375798
 10
6989.994830482086
 20
3913.107204683157
 10
6989.994830482086
 20
3905.981303739294
 10
6991.194830482084
 20
3905.981303739294
 10
6991.194830482084
 20
3908.481303739293
 10
7019.147075561005
 20
3908.481303739293
 10
7019.147075561007
 20
3918.296258315518
 10
7035.147075561006
 20
3927.533862622552
 10
7035.147075561006
 20
3957.533862622552
 10
7033.947075561006
 20
3957.533862622552
 10
7033.947075561008
 20
3928.226636049823
 10
7001.825617755923
 20
3909.681303739294
 10
6991.194830482084
 20
3909.681303739294
 10
6991.194830482084
 20
3915.681303739293
 10
6965.994830482086
 20
3915.681303739293
 10
6965.994830482085
 20
3930.681303739294
 97
        1
330
230
 92
        2
 72
     0
 73
     1
 93
        3
 10
7004.225536530087
 20
3909.681303739294
 10
7017.947075561007
 20
3917.60343799249
 10
7017.947075561007
 20
3909.681303739294
 97
        1
330
231
 92
        2
 72
     0
 73
     1
 93
        3
 10
6967.394830482084
 20
3914.431303739291
 10
6986.718872607898
 20
3914.431303739292
 10
6967.394830482084
 20
3906.322949835951
 97
        1
330
232
 75
     0
 76
     1
 98
        0
450
        0
451
        0
460
0.0
461
0.0
452
        1
462
0.0
453
        0
470

  0
LWPOLYLINE
  5
230
102
{ACAD_REACTORS
330
22F
102
}
330
1F
100
AcDbEntity
  8
Specialized_Fills
  6
Continuous
100
AcDbPolyline
 90
       58
 70
   129
 43
0.0
 10
6964.794830482086
 20
3930.681303739294
 10
6964.794830482086
 20
3912.729980431809
 10
6966.194830482084
 20
3914.431303739291
 10
6966.194830482085
 20
3910.09437896734
 10
6964.794830482086
 20
3911.795702274821
 10
6964.794830482086
 20
3911.083483676526
 10
6965.787182514564
 20
3909.79570227482
 10
6964.794830482086
 20
3908.507920873114
 10
6964.794830482086
 20
3907.79570227482
 10
6966.194830482087
 20
3909.497025582305
 10
6966.194830482087
 20
3905.175221776898
 10
6964.794830482087
 20
3906.876545084383
 10
6964.794830482086
 20
3902.779671053556
 10
6965.658647607975
 20
3902.779671053556
 10
6966.462169630353
 20
3904.192998989494
 10
6968.033610073645
 20
3903.776203562305
 10
6968.690356799469
 20
3904.051774006788
 10
6966.579857105077
 20
3904.684460371873
 10
6971.56171307412
 20
3906.774843482687
 10
6970.53458475813
 20
3904.825610705649
 10
6971.191331483954
 20
3905.101181150132
 10
6971.99485350633
 20
3906.514509086071
 10
6973.566293949622
 20
3906.09771365888
 10
6974.223040675446
 20
3906.373284103364
 10
6972.112540981055
 20
3907.005970468449
 10
6977.094396950095
 20
3909.096353579261
 10
6976.067268634107
 20
3907.147120802224
 10
6976.724015359933
 20
3907.422691246708
 10
6977.527537382307
 20
3908.836019182646
 10
6979.0989778256
 20
3908.419223755456
 10
6979.755724551425
 20
3908.69479419994
 10
6977.645224857032
 20
3909.327480565024
 10
6982.627080826074
 20
3911.417863675839
 10
6981.599952510084
 20
3909.468630898799
 10
6982.256699235907
 20
3909.744201343283
 10
6983.060221258281
 20
3911.157529279222
 10
6984.631661701574
 20
3910.740733852032
 10
6985.288408427402
 20
3911.016304296516
 10
6983.177908733011
 20
3911.6489906616
 10
6988.159764702051
 20
3913.739373772415
 10
6987.132636386061
 20
3911.790140995375
 10
6987.7592774837
 20
3912.053079140353
 10
6988.592905134263
 20
3913.479039375798
 10
6989.994830482086
 20
3913.107204683157
 10
6989.994830482086
 20
3905.981303739294
 10
6991.194830482084
 20
3905.981303739294
 10
6991.194830482084
 20
3908.481303739293
 10
7019.147075561005
 20
3908.481303739293
 10
7019.147075561007
 20
3918.296258315518
 10
7035.147075561006
 20
3927.533862622552
 10
7035.147075561006
 20
3957.533862622552
 10
7033.947075561006
 20
3957.533862622552
 10
7033.947075561008
 20
3928.226636049823
 10
7001.825617755923
 20
3909.681303739294
 10
6991.194830482084
 20
3909.681303739294
 10
6991.194830482084
 20
3915.681303739293
 10
6965.994830482086
 20
3915.681303739293
 10
6965.994830482085
 20
3930.681303739294
  0
LWPOLYLINE
  5
231
102
{ACAD_REACTORS
330
22F
102
}
330
1F
100
AcDbEntity
  8
Specialized_Fills
  6
Continuous
100
AcDbPolyline
 90
        3
 70
   129
 43
0.0
 10
7004.225536530087
 20
3909.681303739294
 10
7017.947075561007
 20
3917.60343799249
 10
7017.947075561007
 20
3909.681303739294
  0
LWPOLYLINE
  5
232
102
{ACAD_REACTORS
330
22F
102
}
330
1F
100
AcDbEntity
  8
Specialized_Fills
  6
Continuous
100
AcDbPolyline
 90
        3
 70
   129
 43
0.0
 10
6967.394830482084
 20
3914.431303739291
 10
6986.718872607898
 20
3914.431303739292
 10
6967.394830482084
 20
3906.322949835951
  0
MTEXT
  5
450
330
1F
100
AcDbEntity
  8
Specialized_Lines
 62
    30
420
 16742400
100
AcDbMText
 10
7012.013908575446
 20
3713.65690190472
 30
0.0
 40
7.0
 41
63.23088711380842
 46
0.0
 71
     1
 72
     5
  1
CAVITECLAD
  7
GENERATED_STYLE_2
 73
     1
 44
1.0
1001
ACAD
1000
ACAD_MTEXT_COLUMN_INFO_BEGIN
1070
    75
1070
     2
1070
    79
1070
     0
1070
    76
1070
     1
1070
    78
1070
     0
1070
    48
1040
63.23088711380842
1070
    49
1040
12.5
1070
    50
1070
     1
1040
0.0
1000
ACAD_MTEXT_COLUMN_INFO_END
  0
LINE
  5
452
330
1F
100
AcDbEntity
  8
Viewport
 62
     7
420
 16777215
100
AcDbLine
 10
7306.859270870951
 20
4212.373651283193
 30
0.0
 11
7306.859270870951
 21
3672.324035644397
 31
0.0
  0
LINE
  5
453
330
1F
100
AcDbEntity
  8
Viewport
 62
     7
420
 16777215
100
AcDbLine
 10
7306.859270870951
 20
3672.324035644397
 30
0.0
 11
6933.717543784968
 21
3672.324035644397
 31
0.0
  0
LINE
  5
454
330
1F
100
AcDbEntity
  8
Viewport
 62
     7
420
 16777215
100
AcDbLine
 10
6933.717543784968
 20
3672.324035644397
 30
0.0
 11
6933.717543784968
 21
4212.373651283193
 31
0.0
  0
LINE
  5
455
330
1F
100
AcDbEntity
  8
Viewport
 62
     7
420
 16777215
100
AcDbLine
 10
7306.859270870951
 20
4212.373651283193
 30
0.0
 11
6933.717543784968
 21
4212.373651283193
 31
0.0
  0
HATCH
  5
45C
330
1F
100
AcDbEntity
  8
0
 62
     8
420
  8224125
100
AcDbHatch
 10
0.0
 20
0.0
 30
0.0
210
0.0
220
0.0
230
1.0
  2
HPCRC1E0
 70
     0
 71
     0
 91
        1
 92
        7
 72
     0
 73
     1
 93
        5
 10
7015.994830482104
 20
4124.870600969187
 10
6965.994830482085
 20
4124.870600969187
 10
6965.994830482085
 20
3915.681303739293
 10
7002.782660105122
 20
3915.892874519765
 10
7015.994830482104
 20
3923.525473100859
 97
        1
330
1DE
 75
     1
 76
     2
 52
0.0
 41
0.11
 77
     0
 78
    78
 53
82.8749847
 43
0.0
 44
3.85
 45
-0.0000004547701588
 46
7.699999865186783
 79
     2
 49
0.8868483547
 49
-61.19253540399999
 53
75.96376039999999
 43
0.11
 44
4.73
 45
-0.000000319720093
 46
7.699999733391256
 79
     2
 49
0.4535416050000001
 49
-31.294372252
 53
63.43495179999999
 43
0.22
 44
5.169999999999999
 45
-0.0000000262199949
 46
7.700000038125692
 79
     2
 49
0.9838699199999998
 49
-16.233853911
 53
45.0
 43
0.6600000000000001
 44
6.049999999999999
 45
0.0000000000000008
 46
7.700000002635507
 79
     2
 49
1.400071463999999
 49
-9.489373167999998
 53
33.6900673
 43
1.649999999999999
 44
7.04
 45
0.0000001463018449
 46
7.699999838839423
 79
     2
 49
0.396610632
 49
-27.366133883
 53
33.6900673
 43
9.349999999999999
 44
7.04
 45
0.0000001463018449
 46
7.699999838839423
 79
     2
 49
0.396610632
 49
-27.366133883
 53
33.6900673
 43
17.05
 44
7.04
 45
0.0000001463018449
 46
7.699999838839423
 79
     2
 49
0.396610632
 49
-27.366133883
 53
26.5650501
 43
1.98
 44
7.259999999999999
 45
-0.0000000421863898
 46
7.700000131593327
 79
     2
 49
0.24596748
 49
-16.971756593
 53
26.5650501
 43
9.679999999999999
 44
7.259999999999999
 45
-0.0000000421863898
 46
7.700000131593327
 79
     2
 49
0.24596748
 49
-16.971756593
 53
18.434948
 43
2.2
 44
7.37
 45
0.000000246254489
 46
7.699999863928288
 79
     2
 49
0.3478505469999999
 49
-24.001687468
 53
18.434948
 43
9.9
 44
7.37
 45
0.000000246254489
 46
7.699999863928288
 79
     2
 49
0.3478505469999999
 49
-24.001687468
 53
18.434948
 43
17.6
 44
7.37
 45
0.000000246254489
 46
7.699999863928288
 79
     2
 49
0.3478505469999999
 49
-24.001687468
 53
26.5650501
 43
2.529999999999999
 44
7.48
 45
-0.0000000421863898
 46
7.700000131593327
 79
     2
 49
0.24596748
 49
-16.971756593
 53
26.5650501
 43
10.23
 44
7.48
 45
-0.0000000421863898
 46
7.700000131593327
 79
     2
 49
0.24596748
 49
-16.971756593
 53
11.3099327
 43
2.75
 44
7.589999999999999
 45
-0.0000000497850009
 46
7.700000063607435
 79
     2
 49
0.5608921482999999
 49
-38.70155700399999
 53
11.3099327
 43
10.45
 44
7.589999999999999
 45
-0.0000000497850009
 46
7.700000063607435
 79
     2
 49
0.5608921482999999
 49
-38.70155700399999
 53
11.3099327
 43
18.15
 44
7.589999999999999
 45
-0.0000000497850009
 46
7.700000063607435
 79
     2
 49
0.5608921482999999
 49
-38.70155700399999
 53
11.3099327
 43
25.85
 44
7.589999999999999
 45
-0.0000000497850009
 46
7.700000063607435
 79
     2
 49
0.5608921482999999
 49
-38.70155700399999
 53
11.3099327
 43
33.55
 44
7.589999999999999
 45
-0.0000000497850009
 46
7.700000063607435
 79
     2
 49
0.5608921482999999
 49
-38.70155700399999
 53
0.0
 43
3.299999999999999
 44
7.7
 45
0.0
 46
7.7
 79
     2
 49
1.1
 49
-6.599999999999999
 53
348.6900673
 43
4.4
 44
7.7
 45
0.0000000497850009
 46
7.700000063607435
 79
     2
 49
0.5608921482999999
 49
-38.70155700399999
 53
348.6900673
 43
12.1
 44
7.7
 45
0.0000000497850009
 46
7.700000063607435
 79
     2
 49
0.5608921482999999
 49
-38.70155700399999
 53
348.6900673
 43
19.8
 44
7.7
 45
0.0000000497850009
 46
7.700000063607435
 79
     2
 49
0.5608921482999999
 49
-38.70155700399999
 53
348.6900673
 43
27.5
 44
7.7
 45
0.0000000497850009
 46
7.700000063607435
 79
     2
 49
0.5608921482999999
 49
-38.70155700399999
 53
348.6900673
 43
35.2
 44
7.7
 45
0.0000000497850009
 46
7.700000063607435
 79
     2
 49
0.5608921482999999
 49
-38.70155700399999
 53
333.4349499
 43
4.95
 44
7.589999999999999
 45
0.0000000421863898
 46
7.700000131593327
 79
     2
 49
0.24596748
 49
-16.971756593
 53
333.4349499
 43
12.65
 44
7.589999999999999
 45
0.0000000421863898
 46
7.700000131593327
 79
     2
 49
0.24596748
 49
-16.971756593
 53
341.565052
 43
5.169999999999999
 44
7.48
 45
-0.000000246254489
 46
7.699999863928288
 79
     2
 49
0.347850547
 49
-24.001687468
 53
341.565052
 43
12.87
 44
7.48
 45
-0.000000246254489
 46
7.699999863928288
 79
     2
 49
0.347850547
 49
-24.001687468
 53
341.565052
 43
20.57
 44
7.48
 45
-0.000000246254489
 46
7.699999863928288
 79
     2
 49
0.347850547
 49
-24.001687468
 53
333.4349499
 43
5.5
 44
7.37
 45
0.0000000421863898
 46
7.700000131593327
 79
     2
 49
0.24596748
 49
-16.971756593
 53
333.4349499
 43
13.2
 44
7.37
 45
0.0000000421863898
 46
7.700000131593327
 79
     2
 49
0.24596748
 49
-16.971756593
 53
326.3099327
 43
5.719999999999999
 44
7.259999999999999
 45
-0.0000001463018449
 46
7.699999838839423
 79
     2
 49
0.396610632
 49
-27.366133883
 53
326.3099327
 43
13.42
 44
7.259999999999999
 45
-0.0000001463018449
 46
7.699999838839423
 79
     2
 49
0.396610632
 49
-27.366133883
 53
326.3099327
 43
21.12
 44
7.259999999999999
 45
-0.0000001463018449
 46
7.699999838839423
 79
     2
 49
0.396610632
 49
-27.366133883
 53
315.0
 43
6.049999999999999
 44
7.04
 45
-0.0000000000000008
 46
7.700000002635507
 79
     2
 49
1.400071463999999
 49
-9.489373167999998
 53
296.5650482
 43
7.04
 44
6.049999999999999
 45
0.0000000262199949
 46
7.700000038125692
 79
     2
 49
0.9838699199999998
 49
-16.233853911
 53
284.0362396
 43
7.48
 44
5.169999999999999
 45
0.000000319720093
 46
7.699999733391256
 79
     2
 49
0.4535416050000001
 49
-31.294372252
 53
277.1250153
 43
7.589999999999999
 44
4.73
 45
0.0000004547701588
 46
7.699999865186783
 79
     2
 49
0.8868483547
 49
-61.19253540399999
 53
277.1250153
 43
0.0
 44
3.85
 45
0.0000004547701588
 46
7.699999865186783
 79
     2
 49
0.8868483547
 49
-61.19253540399999
 53
284.0362396
 43
0.11
 44
2.97
 45
0.000000319720093
 46
7.699999733391256
 79
     2
 49
0.4535416050000001
 49
-31.294372252
 53
296.5650482
 43
0.22
 44
2.529999999999999
 45
0.0000000262199949
 46
7.700000038125692
 79
     2
 49
0.9838699199999998
 49
-16.233853911
 53
315.0
 43
0.6600000000000001
 44
1.649999999999999
 45
-0.0000000000000008
 46
7.700000002635507
 79
     2
 49
1.400071463999999
 49
-9.489373167999998
 53
326.3099327
 43
1.649999999999999
 44
0.6600000000000001
 45
-0.0000001463018449
 46
7.699999838839423
 79
     2
 49
0.396610632
 49
-27.366133883
 53
326.3099327
 43
9.349999999999999
 44
0.6600000000000001
 45
-0.0000001463018449
 46
7.699999838839423
 79
     2
 49
0.396610632
 49
-27.366133883
 53
326.3099327
 43
17.05
 44
0.6600000000000001
 45
-0.0000001463018449
 46
7.699999838839423
 79
     2
 49
0.396610632
 49
-27.366133883
 53
333.4349499
 43
1.98
 44
0.4400000000000001
 45
0.0000000421863898
 46
7.700000131593327
 79
     2
 49
0.24596748
 49
-16.971756593
 53
333.4349499
 43
9.679999999999999
 44
0.4400000000000001
 45
0.0000000421863898
 46
7.700000131593327
 79
     2
 49
0.24596748
 49
-16.971756593
 53
341.565052
 43
2.2
 44
0.33
 45
-0.000000246254489
 46
7.699999863928288
 79
     2
 49
0.347850547
 49
-24.001687468
 53
341.565052
 43
9.9
 44
0.33
 45
-0.000000246254489
 46
7.699999863928288
 79
     2
 49
0.347850547
 49
-24.001687468
 53
341.565052
 43
17.6
 44
0.33
 45
-0.000000246254489
 46
7.699999863928288
 79
     2
 49
0.347850547
 49
-24.001687468
 53
333.4349499
 43
2.529999999999999
 44
0.22
 45
0.0000000421863898
 46
7.700000131593327
 79
     2
 49
0.24596748
 49
-16.971756593
 53
333.4349499
 43
10.23
 44
0.22
 45
0.0000000421863898
 46
7.700000131593327
 79
     2
 49
0.24596748
 49
-16.971756593
 53
348.6900673
 43
2.75
 44
0.11
 45
0.0000000497850009
 46
7.700000063607435
 79
     2
 49
0.5608921482999999
 49
-38.70155700399999
 53
348.6900673
 43
10.45
 44
0.11
 45
0.0000000497850009
 46
7.700000063607435
 79
     2
 49
0.5608921482999999
 49
-38.70155700399999
 53
348.6900673
 43
18.15
 44
0.11
 45
0.0000000497850009
 46
7.700000063607435
 79
     2
 49
0.5608921482999999
 49
-38.70155700399999
 53
348.6900673
 43
25.85
 44
0.11
 45
0.0000000497850009
 46
7.700000063607435
 79
     2
 49
0.5608921482999999
 49
-38.70155700399999
 53
348.6900673
 43
33.55
 44
0.11
 45
0.0000000497850009
 46
7.700000063607435
 79
     2
 49
0.5608921482999999
 49
-38.70155700399999
 53
0.0
 43
3.299999999999999
 44
0.0
 45
0.0
 46
7.7
 79
     2
 49
1.1
 49
-6.599999999999999
 53
11.3099327
 43
4.4
 44
0.0
 45
-0.0000000497850009
 46
7.700000063607435
 79
     2
 49
0.5608921482999999
 49
-38.70155700399999
 53
11.3099327
 43
12.1
 44
0.0
 45
-0.0000000497850009
 46
7.700000063607435
 79
     2
 49
0.5608921482999999
 49
-38.70155700399999
 53
11.3099327
 43
19.8
 44
0.0
 45
-0.0000000497850009
 46
7.700000063607435
 79
     2
 49
0.5608921482999999
 49
-38.70155700399999
 53
11.3099327
 43
27.5
 44
0.0
 45
-0.0000000497850009
 46
7.700000063607435
 79
     2
 49
0.5608921482999999
 49
-38.70155700399999
 53
11.3099327
 43
35.2
 44
0.0
 45
-0.0000000497850009
 46
7.700000063607435
 79
     2
 49
0.5608921482999999
 49
-38.70155700399999
 53
26.5650501
 43
4.95
 44
0.11
 45
-0.0000000421863898
 46
7.700000131593327
 79
     2
 49
0.24596748
 49
-16.971756593
 53
26.5650501
 43
12.65
 44
0.11
 45
-0.0000000421863898
 46
7.700000131593327
 79
     2
 49
0.24596748
 49
-16.971756593
 53
18.434948
 43
5.169999999999999
 44
0.22
 45
0.000000246254489
 46
7.699999863928288
 79
     2
 49
0.3478505469999999
 49
-24.001687468
 53
18.434948
 43
12.87
 44
0.22
 45
0.000000246254489
 46
7.699999863928288
 79
     2
 49
0.3478505469999999
 49
-24.001687468
 53
18.434948
 43
20.57
 44
0.22
 45
0.000000246254489
 46
7.699999863928288
 79
     2
 49
0.3478505469999999
 49
-24.001687468
 53
26.5650501
 43
5.5
 44
0.33
 45
-0.0000000421863898
 46
7.700000131593327
 79
     2
 49
0.24596748
 49
-16.971756593
 53
26.5650501
 43
13.2
 44
0.33
 45
-0.0000000421863898
 46
7.700000131593327
 79
     2
 49
0.24596748
 49
-16.971756593
 53
33.6900673
 43
5.719999999999999
 44
0.4400000000000001
 45
0.0000001463018449
 46
7.699999838839423
 79
     2
 49
0.396610632
 49
-27.366133883
 53
33.6900673
 43
13.42
 44
0.4400000000000001
 45
0.0000001463018449
 46
7.699999838839423
 79
     2
 49
0.396610632
 49
-27.366133883
 53
33.6900673
 43
21.12
 44
0.4400000000000001
 45
0.0000001463018449
 46
7.699999838839423
 79
     2
 49
0.396610632
 49
-27.366133883
 53
45.0
 43
6.049999999999999
 44
0.6600000000000001
 45
0.0000000000000008
 46
7.700000002635507
 79
     2
 49
1.400071463999999
 49
-9.489373167999998
 53
63.43495179999999
 43
7.04
 44
1.649999999999999
 45
-0.0000000262199949
 46
7.700000038125692
 79
     2
 49
0.9838699199999998
 49
-16.233853911
 53
75.96376039999999
 43
7.48
 44
2.529999999999999
 45
-0.000000319720093
 46
7.699999733391256
 79
     2
 49
0.4535416050000001
 49
-31.294372252
 53
82.8749847
 43
7.589999999999999
 44
2.97
 45
-0.0000004547701588
 46
7.699999865186783
 79
     2
 49
0.8868483547
 49
-61.19253540399999
 47
0.0
 98
        1
 10
0.0
 20
0.0
1001
ACAD
1010
0.0
1020
0.0
1030
0.0
  0
LINE
  5
45F
330
1F
100
AcDbEntity
  8
0
370
     0
100
AcDbLine
 10
7015.994830482104
 20
4125.263118073032
 30
0.0
 11
6965.994830482085
 21
4125.263118073032
 31
0.0
  0
LINE
  5
460
330
1F
100
AcDbEntity
  8
0
370
     0
100
AcDbLine
 10
6965.994830482085
 20
4124.870600969187
 30
0.0
 11
6965.994830482085
 21
3915.681303739293
 31
0.0
  0
LINE
  5
461
330
1F
100
AcDbEntity
  8
0
370
     0
100
AcDbLine
 10
6965.994830482085
 20
3915.681303739293
 30
0.0
 11
7002.782660105122
 21
3915.892874519765
 31
0.0
  0
LINE
  5
462
330
1F
100
AcDbEntity
  8
0
370
     0
100
AcDbLine
 10
7002.782660105122
 20
3915.892874519765
 30
0.0
 11
7015.994830482104
 21
3923.525473100859
 31
0.0
  0
LINE
  5
463
330
1F
100
AcDbEntity
  8
0
370
     0
100
AcDbLine
 10
7015.994830482104
 20
3923.525473100859
 30
0.0
 11
7015.994830482104
 21
4124.870600969187
 31
0.0
  0
SPLINE
  5
468
330
1F
100
AcDbEntity
  8
Specialized_Lines
  6
Continuous
100
AcDbSpline
210
0.0
220
0.0
230
1.0
 70
     8
 71
     3
 72
    11
 73
     7
 74
     0
 42
0.00001
 43
0.0000000001
 40
0.0
 40
0.0
 40
0.0
 40
0.0
 40
1.0
 40
1.0
 40
1.0
 40
2.0
 40
2.0
 40
2.0
 40
2.0
 10
6997.928500023377
 20
3908.481303739293
 30
0.0
 10
6997.928500023377
 20
3908.481303739293
 30
0.0
 10
7000.219346041062
 20
3907.682084602548
 30
0.0
 10
7000.219346041062
 20
3907.682084602548
 30
0.0
 10
7000.219346041062
 20
3907.682084602548
 30
0.0
 10
7001.045364124168
 20
3907.186576081683
 30
0.0
 10
7001.045364124168
 20
3907.186576081683
 30
0.0
  0
SPLINE
  5
469
330
1F
100
AcDbEntity
  8
Specialized_Lines
  6
Continuous
100
AcDbSpline
210
0.0
220
0.0
230
1.0
 70
     8
 71
     3
 72
    11
 73
     7
 74
     0
 42
0.00001
 43
0.0000000001
 40
0.0
 40
0.0
 40
0.0
 40
0.0
 40
1.0
 40
1.0
 40
1.0
 40
2.0
 40
2.0
 40
2.0
 40
2.0
 10
7001.486622561484
 20
3908.481303739293
 30
0.0
 10
7001.486622561484
 20
3908.481303739293
 30
0.0
 10
7001.675407452754
 20
3908.275518608055
 30
0.0
 10
7001.675407452754
 20
3908.275518608055
 30
0.0
 10
7001.675407452754
 20
3908.275518608055
 30
0.0
 10
7001.893892261593
 20
3908.035104219107
 30
0.0
 10
7001.893892261593
 20
3908.035104219107
 30
0.0
  0
ELLIPSE
  5
46A
330
1F
100
AcDbEntity
  8
Specialized_Lines
  6
Continuous
100
AcDbEllipse
 10
7122.58556825218
 20
3885.926098264723
 30
0.0
 11
3.479568238652319
 21
-1.811071092807025
 31
0.0
210
0.0
220
0.0
230
1.0
 40
0.6607036763668314
 41
0.0
 42
6.283185307179586
  0
MTEXT
  5
53E
330
1F
100
AcDbEntity
  8
Specialized_Lines
100
AcDbMText
 10
7010.546943589895
 20
3729.25218888389
 30
0.0
 40
10.0
 41
112.037735929669
 46
0.0
 71
     1
 72
     5
  1
{\fArial|b1|i0|c0|p34;Window Head:}
 73
     1
 44
1.0
1001
ACAD
1000
ACAD_MTEXT_COLUMN_INFO_BEGIN
1070
    75
1070
     2
1070
    79
1070
     0
1070
    76
1070
     1
1070
    78
1070
     0
1070
    48
1040
112.037735929669
1070
    49
1040
12.5
1070
    50
1070
     1
1040
0.0
1000
ACAD_MTEXT_COLUMN_INFO_END
  0
MTEXT
  5
53F
330
1F
100
AcDbEntity
  8
Specialized_Lines
 62
    30
420
 16742400
100
AcDbMText
 10
6981.762088108528
 20
3709.709217364235
 30
0.0
 40
4.0
 41
34.37092666967328
 46
0.0
 71
     5
 72
     5
  1
SCALE: 1:2
  7
GENERATED_STYLE_2
 73
     1
 44
1.0
1001
ACAD
1000
ACAD_MTEXT_COLUMN_INFO_BEGIN
1070
    75
1070
     2
1070
    79
1070
     0
1070
    76
1070
     1
1070
    78
1070
     0
1070
    48
1040
34.37092666967328
1070
    49
1040
12.5
1070
    50
1070
     1
1040
0.0
1000
ACAD_MTEXT_COLUMN_INFO_END
  0
LWPOLYLINE
  5
541
330
1F
100
AcDbEntity
  8
0
370
     5
100
AcDbPolyline
 90
        5
 70
     0
 43
0.0
 10
6959.916073490044
 20
3734.732176864626
 10
6959.916073490044
 20
3714.732176864627
 10
7004.916073490043
 20
3714.732176864627
 10
7004.916073490043
 20
3734.732176864626
 10
6959.916073490044
 20
3734.732176864626
  0
HATCH
  5
554
330
1F
100
AcDbEntity
  8
0
 62
    30
420
 16742400
370
     5
100
AcDbHatch
 10
0.0
 20
0.0
 30
0.0
210
0.0
220
0.0
230
1.0
  2
SOLID
 70
     1
 71
     0
 91
        1
 92
        1
 93
        4
 72
     1
 10
7004.916073490043
 20
3714.732176864627
 11
7004.916073490043
 21
3734.732176864626
 72
     1
 10
7004.916073490043
 20
3734.732176864626
 11
6959.916073490044
 21
3734.732176864626
 72
     1
 10
6959.916073490044
 20
3734.732176864626
 11
6959.916073490044
 21
3714.732176864627
 72
     1
 10
6959.916073490044
 20
3714.732176864627
 11
7004.916073490043
 21
3714.732176864627
 97
        0
 75
     1
 76
     1
 98
        1
 10
6990.331246679573
 20
3720.86585736775
450
        0
451
        0
460
0.0
461
0.0
452
        0
462
1.0
453
        2
463
0.0
 63
     5
421
      255
463
1.0
 63
     2
421
 16776960
470
LINEAR
1001
GradientColor1ACI
1070
     5
1001
GradientColor2ACI
1070
     2
1001
ACAD
1010
0.0
1020
0.0
1030
0.0
  0
MTEXT
  5
555
330
1F
100
AcDbEntity
  8
Specialized_Lines
100
AcDbMText
 10
6982.620888578932
 20
3724.537332218238
 30
0.0
 40
10.0
 41
90.34063603881987
 46
0.0
 71
     5
 72
     5
  1
{\fArial|b1|i0|c0|p34;01A}
 73
     1
 44
1.0
1001
ACAD
1000
ACAD_MTEXT_COLUMN_INFO_BEGIN
1070
    75
1070
     2
1070
    79
1070
     0
1070
    76
1070
     1
1070
    78
1070
     0
1070
    48
1040
90.34063603881987
1070
    49
1040
12.5
1070
    50
1070
     1
1040
0.0
1000
ACAD_MTEXT_COLUMN_INFO_END
  0
LWPOLYLINE
  5
556
330
1F
100
AcDbEntity
  8
0
370
     5
100
AcDbPolyline
 90
        4
 70
     0
 43
0.0
 10
6959.916073490044
 20
3714.732176864627
 10
6959.916073490044
 20
3704.732176864626
 10
7004.916073490043
 20
3704.732176864626
 10
7004.916073490043
 20
3714.732176864627
  0
MTEXT
  5
557
102
{ACAD_REACTORS
330
558
102
}
330
1F
100
AcDbEntity
  8
Specialized_Text
  6
Continuous
100
AcDbMText
 10
7169.951772865842
 20
4107.148302866815
 30
0.0
 40
5.5
 41
136.705971199035
 46
0.0
 71
     4
 72
     1
  1
breather type building wrap taped onto CAVITECLAD head flashing with Protecto Tape (or similar)
  7
GENERATED_STYLE_2
 73
     1
 44
1.0
  0
LEADER
  5
558
330
1F
100
AcDbEntity
  8
Specialized_Text
  6
Continuous
 62
   251
420
  6250335
370
    13
100
AcDbLeader
  3
GENERATED_STYLE__4
 73
     0
 40
25.63415188722147
 41
130.3530013642565
 76
     2
 10
7035.63020411199
 20
4107.945622266463
 30
0.0
 10
7169.861772865842
 20
4107.148302866815
 30
0.0
340
557
  0
LWPOLYLINE
  5
6D0
330
1F
100
AcDbEntity
  8
0
  6
PLASTER
 48
5.0
100
AcDbPolyline
 90
        5
 70
     0
 43
0.0
 10
6989.993548850723
 20
3907.059740730719
 91
      105
 10
6963.937613712042
 20
3896.380272056635
 91
      106
 10
6960.053132227644
 20
3897.407609809158
 91
      111
 10
6959.945004364337
 20
3899.855092583717
 91
      114
 10
6960.29822658042
 20
4125.263118073032
 91
      116
  0
LWPOLYLINE
  5
75E
102
{ACAD_REACTORS
330
76A
102
}
330
1F
100
AcDbEntity
  8
0
 62
    30
420
 16742400
100
AcDbPolyline
 90
        4
 70
     1
 43
0.0
 10
6959.837150449887
 20
3690.910576136764
 10
6964.837150449884
 20
3690.910576136764
 10
6964.837150449891
 20
3685.910576136764
 10
6959.837150449887
 20
3685.910576136763
  0
LINE
  5
760
330
1F
100
AcDbEntity
  8
0
 62
    30
420
 16742400
100
AcDbLine
 10
6959.837150449887
 20
3690.910576136764
 30
0.0
 11
6964.837150449887
 21
3690.910576136764
 31
0.0
  0
HATCH
  5
76A
330
1F
100
AcDbEntity
  8
0
 62
    30
420
 16742400
100
AcDbHatch
 10
0.0
 20
0.0
 30
0.0
210
0.0
220
0.0
230
1.0
  2
SOLID
 70
     1
 71
     1
 91
        1
 92
        7
 72
     0
 73
     1
 93
        4
 10
6959.837150449887
 20
3690.910576136764
 10
6959.837150449887
 20
3685.910576136763
 10
6964.837150449891
 20
3685.910576136764
 10
6964.837150449884
 20
3690.910576136764
 97
        1
330
75E
 75
     1
 76
     1
 47
0.0321901215665183
 98
        1
 10
6961.626598578589
 20
3689.48759554652
450
        0
451
        0
460
0.0
461
0.0
452
        0
462
1.0
453
        2
463
0.0
 63
     5
421
      255
463
1.0
 63
     2
421
 16776960
470
LINEAR
1001
GradientColor1ACI
1070
     5
1001
GradientColor2ACI
1070
     2
1001
ACAD
1010
0.0
1020
0.0
1030
0.0
  0
LWPOLYLINE
  5
76B
330
1F
100
AcDbEntity
  8
0
370
     5
100
AcDbPolyline
 90
        2
 70
     0
 43
0.0
 10
6964.837150449887
 20
3688.410576136764
 10
7285.991208373568
 20
3688.410576136764
  0
MTEXT
  5
76D
330
1F
100
AcDbEntity
  8
Specialized_Text
  6
Continuous
100
AcDbMText
 10
6968.400829765022
 20
3690.937043170355
 30
0.0
 40
3.0
 41
163.0041735515597
 46
0.0
 71
     4
 72
     1
  1
© copyright 2013 Specialized Building Products Ltd
  7
GENERATED_STYLE_2
 73
     1
 44
1.0
  0
MTEXT
  5
76E
330
1F
100
AcDbEntity
  8
Specialized_Text
  6
Continuous
100
AcDbMText
 10
7146.301830438702
 20
3690.937043170355
 30
0.0
 40
3.0
 41
163.0041735515597
 46
0.0
 71
     4
 72
     1
  1
All Dimensions to be site checked before construction & installation
  7
GENERATED_STYLE_2
 73
     1
 44
1.0
  0
MTEXT
  5
772
330
1F
100
AcDbEntity
  8
Specialized_Text
  6
Continuous
100
AcDbMText
 10
6962.747212092533
 20
4161.29832700579
 30
0.0
 40
3.0
 41
48.87340123734884
 46
0.0
 71
     4
 72
     1
  1
Appraisal No.510 [2013]
  7
GENERATED_STYLE_2
 73
     1
 44
1.0
  0
IMAGE
  5
775
330
1F
100
AcDbEntity
  8
0
 62
     7
420
 16777215
160
               140
310
8C0000000100000084000000060000000500000078D0CA83EA2FBB409B91A3229944B040000000000000000078D0CA83EA2FBB406C499CA75F74B04000000000000000009399CC0E9162BB406C499CA75F74B04000000000000000009399CC0E9162BB409B91A3229944B040000000000000000078D0CA83EA2FBB409B91A3
310
229944B0400000000000000000
100
AcDbRasterImage
 90
        0
 10
6959.916073490044
 20
4164.598184798286
 30
0.0
 11
0.0611721721957824
 21
0.0
 31
0.0
 12
0.0
 22
0.0611721721957824
 32
0.0
 13
828.0
 23
781.0
340
773
 70
     7
280
     0
281
    50
282
    50
283
     0
290
     0
360
774
 71
     1
 91
        2
 14
-0.5
 24
-0.5
 14
827.5
 24
780.5
  0
MTEXT
  5
776
330
1F
100
AcDbEntity
  8
Specialized_Text
  6
Continuous
 62
    30
420
 16742400
370
    20
100
AcDbMText
 10
7184.857204227911
 20
3677.813139350242
 30
0.0
 40
5.5
 41
111.9228601720179
 46
0.0
 71
     7
 72
     1
  1
{\fArial Unicode MS|b1|i0|c0|p34;web \fArial Unicode MS|b0|i0|c0|p34;\C256;www.specialized.co.nz}
  7
GENERATED_STYLE_2
 73
     1
 44
1.12662050634974
  0
IMAGE
  5
915
330
1F
100
AcDbEntity
  8
0
 62
     7
420
 16777215
160
               140
310
8C000000010000008400000006000000050000009BDF6C533C1DBC4020D45795904AB04000000000000000009BDF6C533C1DBC40A36B8A78BE71B040000000000000000024012DF9DB8ABC40A36B8A78BE71B040000000000000000024012DF9DB8ABC4020D45795904AB04000000000000000009BDF6C533C1DBC4020D457
310
95904AB0400000000000000000
100
AcDbRasterImage
 90
        0
 10
7197.235647968856
 20
4170.564778794563
 30
0.0
 11
0.0434841820317712
 21
0.0
 31
0.0
 12
0.0
 22
0.0434841820317712
 32
0.0
 13
2521.0
 23
901.0
340
913
 70
     7
280
     0
281
    50
282
    50
283
     0
290
     0
360
914
 71
     1
 91
        2
 14
-0.5
 24
-0.5
 14
2520.5
 24
900.5
  0
LINE
  5
A76
330
1F
100
AcDbEntity
  8
0
  6
Continuous
100
AcDbLine
 10
7048.466416548798
 20
3853.181375602898
 30
0.0
 11
7048.466416548798
 21
3851.281375602898
 31
0.0
  0
LINE
  5
A77
330
1F
100
AcDbEntity
  8
0
  6
Continuous
100
AcDbLine
 10
7028.866416548805
 20
3859.73156014836
 30
0.0
 11
7040.866416548798
 21
3847.731560148364
 31
0.0
  0
LINE
  5
A78
330
1F
100
AcDbEntity
  8
0
  6
Continuous
100
AcDbLine
 10
7028.866416548805
 20
3847.731560148364
 30
0.0
 11
7040.866416548798
 21
3859.73156014836
 31
0.0
  0
LWPOLYLINE
  5
A79
330
1F
100
AcDbEntity
  8
Specialized_Lines
  6
Continuous
100
AcDbPolyline
 90
      120
 70
   129
 43
0.0
 10
7009.465472358691
 20
3904.625198946227
 42
-0.4142135623731866
 10
7012.465472358691
 20
3907.625198946228
 10
7019.965472358691
 20
3907.625198946226
 10
7019.965472358691
 20
3906.125198946225
 10
7019.292131163222
 20
3906.125198946226
 42
0.5655031645004213
 10
7018.850465725337
 20
3905.390823946399
 42
-0.3217948770562723
 10
7018.427274142881
 20
3902.270115724493
 42
-0.9999999999998639
 10
7017.555362238798
 20
3903.094597156376
 42
2.321887592543225
 10
7015.375582478589
 20
3903.094597156376
 42
-1.0
 10
7014.503670574505
 20
3902.270115724493
 42
-0.1103502097709531
 10
7013.90069440769
 20
3903.281448946493
 42
0.3239071718579501
 10
7013.425735526924
 20
3903.62519894623
 10
7012.865472358694
 20
3903.62519894623
 42
-0.9999999999999998
 10
7012.865472358694
 20
3904.625198946228
 10
7013.425735527244
 20
3904.625198946228
 42
0.323907171728007
 10
7013.900694407718
 20
3904.968948946043
 42
-0.0700097239470757
 10
7014.233119689757
 20
3905.643948945896
 42
0.602220588535332
 10
7013.819721046785
 20
3906.425198946227
 10
7012.465472358691
 20
3906.425198946227
 42
0.4142135623733198
 10
7010.665472358692
 20
3904.625198946226
 10
7010.665472358692
 20
3894.306181251406
 42
-0.4999999999699297
 10
7010.665472358692
 20
3893.506181251445
 10
7010.665472358694
 20
3887.256181251427
 10
7012.61578346092
 20
3887.256181251427
 10
7012.382509445551
 20
3888.126771728875
 42
-0.9999999999999998
 10
7013.348435271838
 20
3888.385590773977
 10
7013.581709287207
 20
3887.515000296528
 42
-0.4931454260305637
 10
7012.61578346092
 20
3886.256181251426
 10
7010.665472358699
 20
3886.256181251426
 10
7010.665472358699
 20
3884.187586813913
 42
0.1763269807084013
 10
7011.320547917964
 20
3882.387781506791
 10
7016.44890346291
 20
3876.276045362001
 42
-0.0563385934597803
 10
7017.094505330487
 20
3875.302527154548
 10
7018.165472358695
 20
3874.231560126342
 10
7018.165472358695
 20
3873.731560126343
 10
7017.66547235869
 20
3873.731560126343
 10
7017.66547235869
 20
3870.631560126341
 42
0.4142135623731409
 10
7019.16547235869
 20
3869.131560126341
 10
7027.618832251585
 20
3869.131560126342
 42
0.4671804552025508
 10
7028.110985209327
 20
3869.719795420614
 42
-0.1957965268150679
 10
7028.565472358697
 20
3871.859442186008
 10
7028.565472358697
 20
3873.331560126399
 10
7033.165472358695
 20
3873.331560126399
 10
7033.165472358695
 20
3872.121004489171
 42
-0.0334583915426535
 10
7033.397837250564
 20
3871.810674128875
 10
7034.006459369206
 20
3871.810674128764
 42
-0.1989123673327494
 10
7034.996408862615
 20
3871.400623622424
 10
7037.265472358814
 20
3869.131560126224
 10
7050.165472358696
 20
3869.131560126507
 42
-0.2757233595359096
 10
7051.397666576288
 20
3868.396163324013
 42
0.4507513050372938
 10
7052.127341163693
 20
3868.225932582679
 42
-0.1556796623165252
 10
7054.965472358695
 20
3869.131560126342
 10
7059.925285835184
 20
3869.131560126342
 42
-0.5724326707062994
 10
7061.072582004044
 20
3869.507207537674
 42
2.21717847210509
 10
7061.072582004044
 20
3871.755912715011
 42
-0.5724326705872703
 10
7059.92528583524
 20
3872.131560126095
 10
7059.365472358549
 20
3872.131560126197
 42
-0.4142135623199554
 10
7058.565472358694
 20
3872.931560126197
 10
7058.565472358694
 20
3873.631560126342
 10
7065.565472358692
 20
3873.631560126341
 10
7065.927435643366
 20
3882.771133064341
 42
-0.4026668427419374
 10
7066.926652327862
 20
3883.731560126341
 10
7067.965472358693
 20
3883.731560126341
 10
7068.165472358694
 20
3883.531560126342
 10
7074.765472358693
 20
3883.531560126344
 10
7074.965472358694
 20
3883.731560126344
 10
7076.465472358691
 20
3883.731560126344
 42
-0.9999999999999998
 10
7076.465472358691
 20
3882.731560126341
 10
7066.965472358692
 20
3882.731560126341
 10
7066.965472358692
 20
3873.631560126342
 42
-0.4142135623728079
 10
7065.565472358695
 20
3872.231560126341
 10
7064.989510662222
 20
3872.231560126341
 42
0.5427832983428679
 10
7064.715382071274
 20
3871.809685126345
 42
-0.2772996015394571
 10
7064.349917759317
 20
3868.845136545115
 42
0.4682733384615019
 10
7064.446993656996
 20
3868.394607666917
 42
-0.2789442285749476
 10
7066.965472358695
 20
3864.231560126341
 10
7066.965472358692
 20
3863.531560126342
 10
7071.465472358696
 20
3863.531560126342
 10
7071.465472358696
 20
3863.331560126343
 42
-0.4348123749608391
 10
7070.395715884952
 20
3862.333996076083
 10
7066.695715884951
 20
3862.592725280273
 42
-0.3939104756170651
 10
7065.765472358695
 20
3863.590289330541
 10
7065.765472358698
 20
3864.231560126342
 42
0.4142135623730951
 10
7062.265472358699
 20
3867.731560126343
 10
7054.965472358695
 20
3867.731560126343
 42
0.4142135623730951
 10
7051.465472358696
 20
3864.231560126342
 10
7051.465472358696
 20
3847.731560126341
 10
7048.665472358695
 20
3847.731560126341
 42
-0.414213562373428
 10
7047.865472358695
 20
3848.531560126342
 10
7047.865472358695
 20
3850.581560126342
 42
-0.4142135623748682
 10
7048.315472358692
 20
3851.031560126342
 42
-0.4142135623725041
 10
7048.765472358692
 20
3850.581560126342
 10
7048.765472358692
 20
3849.031560126342
 10
7050.165472358692
 20
3849.031560126342
 10
7050.165472358692
 20
3855.431560126341
 10
7048.765472358692
 20
3855.431560126341
 10
7048.765472358692
 20
3854.781560126342
 42
-0.4142135623730951
 10
7048.315472358692
 20
3854.331560126341
 42
-0.4142135623725041
 10
7047.865472358695
 20
3854.781560126341
 10
7047.865472358695
 20
3855.631560126342
 42
-0.4142135623726539
 10
7048.765472358692
 20
3856.531560126342
 10
7050.165472358696
 20
3856.531560126342
 10
7050.165472358695
 20
3867.731560126505
 10
7037.265472358708
 20
3867.731560126347
 42
-0.1989123673830573
 10
7036.275522865027
 20
3868.141610632687
 10
7034.006459368955
 20
3870.410674128764
 10
7032.982192113857
 20
3870.410674128764
 42
-0.2983362412664925
 10
7032.340508555397
 20
3870.830956037102
 42
1.850368107317784
 10
7030.965472358612
 20
3868.731560126398
 10
7031.965472358692
 20
3868.731560126342
 42
-0.1989123673801356
 10
7032.17760439305
 20
3868.643692160698
 10
7032.377604393051
 20
3868.443692160699
 42
-0.4142135623737189
 10
7032.377604393051
 20
3868.019428091987
 10
7032.17760439305
 20
3867.819428091986
 42
-0.1989123673802284
 10
7031.965472358695
 20
3867.731560126343
 10
7016.465472358696
 20
3867.731560126343
 10
7016.465472358696
 20
3872.933549791625
 42
0.1763269807084801
 10
7015.529650131171
 20
3875.504700230372
 10
7010.401294586221
 20
3881.616436375167
 42
-0.1763269807084215
 10
7009.465472358697
 20
3884.187586813912
  0
LWPOLYLINE
  5
A7A
330
1F
100
AcDbEntity
  8
Specialized_Lines
  6
Continuous
100
AcDbPolyline
 90
       36
 70
   129
 43
0.0
 10
7031.115562546816
 20
3869.491367747479
 42
0.7673269879784158
 10
7031.265562546817
 20
3868.931560126343
 10
7032.465562546815
 20
3868.931560126343
 10
7032.465562546817
 20
3867.231560127166
 10
7019.861067508921
 20
3867.231560127166
 42
0.1839743436377466
 10
7017.865472358673
 20
3866.471560126342
 10
7017.865472358675
 20
3867.431560126341
 42
0.4142135623733169
 10
7017.565472358675
 20
3867.731560126343
 10
7017.165472358694
 20
3867.731560126343
 42
0.4142135623730951
 10
7016.865472358694
 20
3867.431560126343
 10
7016.865472358695
 20
3847.031560126337
 42
0.4142135623773127
 10
7017.1654723587
 20
3846.731560126337
 10
7017.465472358704
 20
3846.73156012634
 42
0.4142135623699874
 10
7017.7654723587
 20
3847.031560126342
 10
7017.765472358695
 20
3847.731560126341
 10
7018.865472358676
 20
3847.731560126341
 42
0.4142135623735391
 10
7019.165472358676
 20
3848.031560126342
 10
7019.165472358676
 20
3848.331560126342
 42
0.414213562373761
 10
7018.865472358676
 20
3848.631560126341
 10
7018.065472358694
 20
3848.631560126341
 10
7018.065472358694
 20
3849.295164023291
 10
7019.033670410211
 20
3850.263362074807
 42
0.6681786379188248
 10
7018.715472358677
 20
3851.031560126341
 10
7018.265472358695
 20
3851.031560126341
 10
7018.365472358695
 20
3864.220579641511
 42
-0.416146736396814
 10
7019.87536591934
 20
3865.720547013642
 42
-0.4380437686141797
 10
7020.172245616631
 20
3865.394406815397
 10
7020.048075684662
 20
3863.975137998541
 42
1.000000000000079
 10
7021.044270382752
 20
3863.887982255795
 10
7021.181798927088
 20
3865.459940710669
 42
-0.3865331148211373
 10
7021.478210435855
 20
3865.733784008807
 10
7032.473718882354
 20
3865.823470048337
 42
0.4118266132869719
 10
7033.46556254682
 20
3866.823436784881
 10
7033.465562546814
 20
3868.931560126344
 42
0.414213562372799
 10
7032.565562546814
 20
3869.831560126343
 10
7031.704793031356
 20
3869.831560126343
  0
LWPOLYLINE
  5
A7B
330
1F
100
AcDbEntity
  8
0
  6
Continuous
100
AcDbPolyline
 90
       23
 70
   129
 43
0.0
 10
7049.851216548798
 20
3851.345334430043
 42
-0.2556906500445654
 10
7049.966416548798
 20
3851.134789992928
 10
7049.966416548798
 20
3850.431375602898
 42
-0.9999999999999998
 10
7049.066416548798
 20
3850.431375602898
 10
7049.066416548798
 20
3851.281375602898
 10
7048.466416548798
 20
3851.281375602898
 10
7047.866416548798
 20
3851.281375602898
 10
7047.866416548798
 20
3848.681375602898
 42
-0.4142135623730951
 10
7047.616416548798
 20
3848.431375602898
 10
7047.116416548798
 20
3848.431375602898
 42
-0.4142135623730951
 10
7046.866416548798
 20
3848.681375602898
 10
7046.866416548798
 20
3852.231375602898
 10
7046.866416548798
 20
3855.781375602898
 42
-0.4142135623730951
 10
7047.116416548798
 20
3856.031375602898
 10
7047.616416548798
 20
3856.031375602898
 42
-0.4142135623730951
 10
7047.866416548798
 20
3855.781375602898
 10
7047.866416548798
 20
3853.181375602898
 10
7048.466416548798
 20
3853.181375602898
 10
7049.066416548798
 20
3853.181375602898
 10
7049.066416548798
 20
3854.031375602898
 42
-0.9999999999999998
 10
7049.966416548798
 20
3854.031375602898
 10
7049.966416548798
 20
3853.327961212868
 42
-0.2556906500445664
 10
7049.851216548798
 20
3853.117416775756
 42
0.5471529031042364
  0
LWPOLYLINE
  5
A7C
330
1F
100
AcDbEntity
  8
0
  6
Continuous
100
AcDbPolyline
 90
       25
 70
   129
 43
0.0
 10
7018.599252291306
 20
3851.081171622249
 10
7019.149252291306
 20
3851.081171622249
 10
7019.149252291306
 20
3847.53117162225
 10
7018.999259127252
 20
3847.53117162225
 42
0.414213562374094
 10
7018.499252291353
 20
3847.031164786353
 10
7018.499252291353
 20
3846.665223108146
 42
0.3222824919740567
 10
7018.840210146193
 20
3846.191191889698
 42
0.0594186347937949
 10
7023.014026721418
 20
3845.323323112003
 42
0.4660174091873958
 10
7023.230506779376
 20
3845.54000973435
 10
7023.13162863709
 20
3846.67019207227
 42
0.310508253462837
 10
7022.987517168636
 20
3846.845013262908
 10
7022.793977579673
 20
3846.900509847005
 42
-0.3345953195019857
 10
7021.345252291308
 20
3848.823033238881
 10
7021.345252291308
 20
3850.281171622251
 10
7023.071545241143
 20
3849.652852372886
 42
0.8390996311772196
 10
7023.416227954697
 20
3850.249860345253
 10
7021.345252291308
 20
3851.987615260581
 10
7021.345252291308
 20
3853.919254191392
 10
7023.071545241143
 20
3853.290934942028
 42
0.8390996311772196
 10
7023.416227954697
 20
3853.887942914395
 10
7021.345252291308
 20
3855.625697829723
 10
7019.819611332313
 20
3857.02486106184
 42
0.6526623844698686
 10
7019.149252291306
 20
3856.730062844502
 10
7019.149252291306
 20
3852.535331080129
 10
7018.39555652879
 20
3851.476113115042
 42
0.6094093647963478
  0
LWPOLYLINE
  5
A7D
330
1F
100
AcDbEntity
  8
0
  6
Continuous
100
AcDbPolyline
 90
        4
 70
   129
 43
0.0
 10
7028.866416548805
 20
3859.73156014836
 10
7040.866416548798
 20
3859.73156014836
 10
7040.866416548798
 20
3847.731560148364
 10
7028.866416548805
 20
3847.731560148364
  0
LWPOLYLINE
  5
A7E
330
1F
100
AcDbEntity
  8
0
  6
Continuous
100
AcDbPolyline
 90
        4
 70
   128
 43
0.0
 10
7040.866416548798
 20
3747.824896301754
 10
7040.866416548798
 20
3859.73156014836
 10
7046.866416548798
 20
3859.73156014836
 10
7046.866416548798
 20
3747.824896301754
  0
LWPOLYLINE
  5
A7F
330
1F
100
AcDbEntity
  8
Specialized_Lines
  6
Continuous
 62
     9
370
    20
100
AcDbPolyline
 90
        2
 70
   128
 43
0.0
 10
7041.866416548798
 20
3859.73156014836
 10
7041.866416548798
 20
3747.824896301754
  0
LWPOLYLINE
  5
A80
330
1F
100
AcDbEntity
  8
Specialized_Lines
  6
Continuous
 62
     9
370
    20
100
AcDbPolyline
 90
        2
 70
   128
 43
0.0
 10
7042.866416548799
 20
3859.73156014836
 10
7042.866416548799
 20
3747.824896301754
  0
LWPOLYLINE
  5
A81
330
1F
100
AcDbEntity
  8
Specialized_Lines
  6
Continuous
 62
     9
370
    20
100
AcDbPolyline
 90
        2
 70
   128
 43
0.0
 10
7043.866416548798
 20
3859.73156014836
 10
7043.866416548798
 20
3747.824896301754
  0
LWPOLYLINE
  5
A82
330
1F
100
AcDbEntity
  8
Specialized_Lines
  6
Continuous
 62
     9
370
    20
100
AcDbPolyline
 90
        2
 70
   128
 43
0.0
 10
7044.866416548798
 20
3859.73156014836
 10
7044.866416548798
 20
3747.824896301754
  0
LWPOLYLINE
  5
A83
330
1F
100
AcDbEntity
  8
Specialized_Lines
  6
Continuous
 62
     9
370
    20
100
AcDbPolyline
 90
        2
 70
   128
 43
0.0
 10
7045.866416548799
 20
3859.73156014836
 10
7045.866416548799
 20
3747.824896301754
  0
LWPOLYLINE
  5
A84
330
1F
100
AcDbEntity
  8
0
  6
Continuous
100
AcDbPolyline
 90
        4
 70
   128
 43
0.0
 10
7028.866416548805
 20
3747.824896301754
 10
7028.866416548805
 20
3859.73156014836
 10
7022.866416548804
 20
3859.73156014836
 10
7022.866416548804
 20
3747.824896301754
  0
LWPOLYLINE
  5
A85
330
1F
100
AcDbEntity
  8
Specialized_Lines
  6
Continuous
 62
     9
370
    20
100
AcDbPolyline
 90
        2
 70
   128
 43
0.0
 10
7027.866416548803
 20
3859.73156014836
 10
7027.866416548803
 20
3747.824896301754
  0
LWPOLYLINE
  5
A86
330
1F
100
AcDbEntity
  8
Specialized_Lines
  6
Continuous
 62
     9
370
    20
100
AcDbPolyline
 90
        2
 70
   128
 43
0.0
 10
7026.866416548803
 20
3859.73156014836
 10
7026.866416548803
 20
3747.824896301754
  0
LWPOLYLINE
  5
A87
330
1F
100
AcDbEntity
  8
Specialized_Lines
  6
Continuous
 62
     9
370
    20
100
AcDbPolyline
 90
        2
 70
   128
 43
0.0
 10
7025.866416548804
 20
3859.73156014836
 10
7025.866416548804
 20
3747.824896301754
  0
LWPOLYLINE
  5
A88
330
1F
100
AcDbEntity
  8
Specialized_Lines
  6
Continuous
 62
     9
370
    20
100
AcDbPolyline
 90
        2
 70
   128
 43
0.0
 10
7024.866416548803
 20
3859.73156014836
 10
7024.866416548803
 20
3747.824896301754
  0
LWPOLYLINE
  5
A89
330
1F
100
AcDbEntity
  8
Specialized_Lines
  6
Continuous
 62
     9
370
    20
100
AcDbPolyline
 90
        2
 70
   128
 43
0.0
 10
7023.866416548803
 20
3859.73156014836
 10
7023.866416548803
 20
3747.824896301754
  0
VIEWPORT
  5
5CA
102
{ACAD_XDICTIONARY
360
5CB
102
}
330
1B
100
AcDbEntity
 67
     1
  8
0
100
AcDbViewport
 10
5.330743719359164
 20
3.999999883606678
 30
0.0
 40
18.44585824894449
 41
8.99418101426106
 68
     1
 69
     1
 12
5.330743719359164
 22
3.999999883606678
 13
0.0
 23
0.0
 14
10.0
 24
10.0
 15
10.0
 25
10.0
 16
0.0
 26
0.0
 36
1.0
 17
0.0
 27
0.0
 37
0.0
 42
50.0
 43
0.0
 44
0.0
 45
8.99418101426106
 50
0.0
 51
0.0
 72
   100
 90
   819232
  1

281
     0
 71
     1
 74
     0
110
0.0
120
0.0
130
0.0
111
1.0
121
0.0
131
0.0
112
0.0
122
1.0
132
0.0
 79
     0
146
0.0
170
     0
 61
     5
348
2F
292
     1
282
     1
141
0.0
142
0.0
 63
   250
  0
VIEWPORT
  5
5CE
102
{ACAD_XDICTIONARY
360
5CF
102
}
330
1B
100
AcDbEntity
 67
     1
  8
0
100
AcDbViewport
 10
5.249999761581421
 20
3.999999761581421
 30
0.0
 40
8.399999618530275
 41
6.399999618530274
 68
     2
 69
     2
 12
7120.288407327959
 22
3942.348843463795
 13
0.0
 23
0.0
 14
0.5
 24
0.5
 15
0.5
 25
0.5
 16
0.0
 26
0.0
 36
1.0
 17
0.0
 27
0.0
 37
0.0
 42
50.0
 43
0.0
 44
0.0
 45
544.8931099494581
 50
0.0
 51
0.0
 72
   100
 90
   819296
  1

281
     0
 71
     1
 74
     0
110
0.0
120
0.0
130
0.0
111
1.0
121
0.0
131
0.0
112
0.0
122
1.0
132
0.0
 79
     0
146
0.0
170
     0
 61
     5
348
2F
292
     1
282
     1
141
0.0
142
0.0
 63
   250
  0
ENDSEC
  0
SECTION
  2
OBJECTS
  0
DICTIONARY
  5
C
330
0
100
AcDbDictionary
281
     1
  3
ACAD_CIP_PREVIOUS_PRODUCT_INFO
350
275
  3
ACAD_COLOR
350
268
  3
ACAD_DETAILVIEWSTYLE
350
26D
  3
ACAD_GROUP
350
D
  3
ACAD_IMAGE_DICT
350
44A
  3
ACAD_IMAGE_VARS
350
44D
  3
ACAD_LAYOUT
350
1A
  3
ACAD_MATERIAL
350
3B
  3
ACAD_MLEADERSTYLE
350
25B
  3
ACAD_MLINESTYLE
350
17
  3
ACAD_PDFDEFINITIONS
350
902
  3
ACAD_PLOTSETTINGS
350
19
  3
ACAD_PLOTSTYLENAME
350
E
  3
ACAD_SCALELIST
350
185
  3
ACAD_SECTIONVIEWSTYLE
350
26B
  3
ACAD_TABLESTYLE
350
25A
  3
ACAD_VISUALSTYLE
350
2A
  3
ACDB_RECOMPOSE_DATA
350
B46
  3
AcDbVariableDictionary
350
238
  3
AcDsDecomposeData
350
B4C
  3
WATERMARKS
350
236
  0
DICTIONARY
  5
439
330
2
100
AcDbDictionary
280
     1
281
     1
  3
ACAD_LAYERSTATES
360
43A
  0
DICTIONARY
  5
577
330
10
100
AcDbDictionary
280
     1
281
     1
  3
ADSK_XREC_LAYER_RECONCILED
360
578
  0
DICTIONARY
  5
579
330
40
100
AcDbDictionary
280
     1
281
     1
  3
ADSK_XREC_LAYER_RECONCILED
360
57A
  0
DICTIONARY
  5
57B
330
1B0
100
AcDbDictionary
280
     1
281
     1
  3
ADSK_XREC_LAYER_RECONCILED
360
57C
  0
DICTIONARY
  5
57D
330
215
100
AcDbDictionary
280
     1
281
     1
  3
ADSK_XREC_LAYER_RECONCILED
360
57E
  0
DICTIONARY
  5
57F
330
42F
100
AcDbDictionary
280
     1
281
     1
  3
ADSK_XREC_LAYER_RECONCILED
360
580
  0
DICTIONARY
  5
459
330
1F
100
AcDbDictionary
280
     1
281
     1
  3
ACAD_SORTENTS
360
45A
  0
IMAGEDEF_REACTOR
  5
774
330
775
100
AcDbRasterImageDefReactor
 90
        2
330
775
  0
IMAGEDEF_REACTOR
  5
914
330
915
100
AcDbRasterImageDefReactor
 90
        2
330
915
  0
DICTIONARY
  5
5CB
330
5CA
100
AcDbDictionary
280
     1
281
     1
  3
ASDK_XREC_ANNOTATION_SCALE_INFO
360
5CC
  0
DICTIONARY
  5
5CF
330
5CE
100
AcDbDictionary
280
     1
281
     1
  3
ASDK_XREC_ANNOTATION_SCALE_INFO
360
5D0
  0
XRECORD
  5
275
102
{ACAD_REACTORS
330
C
102
}
330
C
100
AcDbXrecord
280
     1
300
ACD
300
2014
300
BDSPRM_F_S
  0
DICTIONARY
  5
268
102
{ACAD_REACTORS
330
C
102
}
330
C
100
AcDbDictionary
281
     1
  0
DICTIONARY
  5
26D
102
{ACAD_REACTORS
330
C
102
}
330
C
100
AcDbDictionary
281
     1
  3
Imperial24
350
26E
  3
Metric50
350
43C
  0
DICTIONARY
  5
D
102
{ACAD_REACTORS
330
C
102
}
330
C
100
AcDbDictionary
281
     1
  0
DICTIONARY
  5
44A
102
{ACAD_REACTORS
330
C
102
}
330
C
100
AcDbDictionary
281
     1
  3
BRANZ logo. Do not place on drawing without number 510-
350
773
  3
logo sharp
350
913
  0
RASTERVARIABLES
  5
44D
102
{ACAD_REACTORS
330
C
102
}
330
C
100
AcDbRasterVariables
 90
        0
 70
     1
 71
     1
 72
     0
  0
DICTIONARY
  5
1A
102
{ACAD_REACTORS
330
C
102
}
330
C
100
AcDbDictionary
281
     1
  3
Layout1
350
1E
  3
Layout2
350
26
  3
Model
350
22
  0
DICTIONARY
  5
3B
102
{ACAD_REACTORS
330
C
102
}
330
C
100
AcDbDictionary
281
     1
  3
ByBlock
350
3D
  3
ByLayer
350
3C
  3
Global
350
3E
  0
DICTIONARY
  5
25B
102
{ACAD_REACTORS
330
C
102
}
330
C
100
AcDbDictionary
281
     1
  3
Standard
350
26A
  0
DICTIONARY
  5
17
102
{ACAD_REACTORS
330
C
102
}
330
C
100
AcDbDictionary
281
     1
  3
Standard
350
18
  0
DICTIONARY
  5
902
102
{ACAD_REACTORS
330
C
102
}
330
C
100
AcDbDictionary
281
     1
  0
DICTIONARY
  5
19
102
{ACAD_REACTORS
330
C
102
}
330
C
100
AcDbDictionary
281
     1
  0
ACDBDICTIONARYWDFLT
  5
E
102
{ACAD_REACTORS
330
C
102
}
330
C
100
AcDbDictionary
281
     1
  3
Normal
350
F
100
AcDbDictionaryWithDefault
340
F
  0
DICTIONARY
  5
185
102
{ACAD_REACTORS
330
C
102
}
330
C
100
AcDbDictionary
281
     1
  3
A0
350
186
  3
A1
350
187
  3
A2
350
188
  3
A3
350
189
  3
A4
350
18A
  3
A5
350
18B
  3
A6
350
18C
  3
A7
350
18D
  3
A8
350
18E
  3
A9
350
18F
  3
B0
350
190
  3
B1
350
191
  3
B2
350
192
  3
B3
350
193
  3
B4
350
194
  3
B5
350
195
  3
B6
350
196
  3
B7
350
197
  3
B8
350
198
  3
B9
350
199
  3
C0
350
19A
  3
C1
350
19B
  3
C2
350
19C
  3
C3
350
19D
  3
C4
350
19E
  3
C5
350
19F
  3
C6
350
1A0
  3
C7
350
1A1
  3
C8
350
1A2
  3
C9
350
1A3
  3
D0
350
1A4
  3
D1
350
1A5
  3
D2
350
1A6
  0
DICTIONARY
  5
26B
102
{ACAD_REACTORS
330
C
102
}
330
C
100
AcDbDictionary
281
     1
  3
Imperial24
350
26C
  3
Metric50
350
43B
  0
DICTIONARY
  5
25A
102
{ACAD_REACTORS
330
C
102
}
330
C
100
AcDbDictionary
281
     1
  3
Standard
350
269
  0
DICTIONARY
  5
2A
102
{ACAD_REACTORS
330
C
102
}
330
C
100
AcDbDictionary
281
     1
  3
2dWireframe
350
2F
  3
3D Hidden
350
31
  3
3dWireframe
350
30
  3
Basic
350
32
  3
Brighten
350
36
  3
ColorChange
350
3A
  3
Conceptual
350
34
  3
Dim
350
35
  3
EdgeColorOff
350
267
  3
Facepattern
350
39
  3
Flat
350
2B
  3
FlatWithEdges
350
2C
  3
Gouraud
350
2D
  3
GouraudWithEdges
350
2E
  3
Hidden
350
25F
  3
JitterOff
350
265
  3
Linepattern
350
38
  3
OverhangOff
350
266
  3
Realistic
350
33
  3
Shaded
350
264
  3
Shaded with edges
350
263
  3
Shades of Gray
350
260
  3
Sketchy
350
261
  3
Thicken
350
37
  3
Wireframe
350
25E
  3
X-Ray
350
262
  0
XRECORD
  5
B46
102
{ACAD_REACTORS
330
C
102
}
330
C
100
AcDbXrecord
280
     1
 90
        1
330
269
330
450
330
53E
330
53F
330
555
  0
DICTIONARY
  5
238
102
{ACAD_REACTORS
330
C
102
}
330
C
100
AcDbDictionary
281
     1
  3
CANNOSCALE
350
239
  3
CMLEADERSTYLE
350
5B0
  3
CTABLESTYLE
350
5AF
  3
CVIEWDETAILSTYLE
350
5B1
  3
CVIEWSECTIONSTYLE
350
5B2
  3
HPCOLOR
350
54B
  3
LAYEREVAL
350
5B3
  3
LAYERNOTIFY
350
5B4
  0
DICTIONARY
  5
B4C
102
{ACAD_REACTORS
330
C
102
}
330
C
100
AcDbDictionary
281
     1
  3
AcDsRecords
350
B4E
  3
AcDsSchemas
350
B4D
1001
ACAD
1070
     2
  0
DICTIONARY
  5
236
102
{ACAD_REACTORS
330
C
102
}
330
C
100
AcDbDictionary
281
     1
  3
AC_WATERMARK
350
237
  0
DICTIONARY
  5
43A
102
{ACAD_REACTORS
330
439
102
}
330
439
100
AcDbDictionary
281
     1
  0
XRECORD
  5
578
102
{ACAD_REACTORS
330
577
102
}
330
577
100
AcDbXrecord
280
     1
290
     1
  0
XRECORD
  5
57A
102
{ACAD_REACTORS
330
579
102
}
330
579
100
AcDbXrecord
280
     1
290
     1
  0
XRECORD
  5
57C
102
{ACAD_REACTORS
330
57B
102
}
330
57B
100
AcDbXrecord
280
     1
290
     1
  0
XRECORD
  5
57E
102
{ACAD_REACTORS
330
57D
102
}
330
57D
100
AcDbXrecord
280
     1
290
     1
  0
XRECORD
  5
580
102
{ACAD_REACTORS
330
57F
102
}
330
57F
100
AcDbXrecord
280
     1
290
     1
  0
SORTENTSTABLE
  5
45A
102
{ACAD_REACTORS
330
459
102
}
330
459
100
AcDbSortentsTable
330
1F
331
462
  5
465
331
3F
  5
42
331
1B2
  5
1B5
331
1B9
  5
1BB
331
220
  5
226
331
1C0
  5
1C3
331
558
  5
558
331
1D4
  5
1D8
331
1E0
  5
1F2
331
227
  5
22D
331
42
  5
43
331
1C7
  5
1CA
331
75E
  5
764
331
45F
  5
462
331
1AF
  5
1B2
331
1B6
  5
1B8
331
541
  5
54D
331
1BD
  5
1BF
331
555
  5
555
331
1D1
  5
1D4
331
224
  5
22A
331
1C4
  5
1C7
331
455
  5
461
331
1D8
  5
1DE
331
469
  5
46B
331
1E4
  5
21D
331
22B
  5
231
331
46
  5
1AE
331
45C
  5
1E2
331
21E
  5
224
331
463
  5
469
331
1F2
  5
21F
331
53E
  5
53E
331
1BA
  5
1BC
331
221
  5
227
331
452
  5
452
331
1C1
  5
1C4
331
1D5
  5
1DC
331
43
  5
44
331
1E1
  5
204
331
228
  5
22E
331
1DC
  5
1DF
331
22F
  5
451
331
460
  5
463
331
1B7
  5
1B9
331
556
  5
556
331
1BE
  5
1C0
331
1D2
  5
1D5
331
211
  5
221
331
225
  5
22B
331
1C5
  5
1C8
331
46A
  5
46C
331
1E5
  5
21E
331
22C
  5
232
331
21F
  5
225
331
1AD
  5
1AF
331
1B4
  5
1B6
331
76A
  5
763
331
1C8
  5
1CB
331
53F
  5
53F
331
1BB
  5
1BD
331
222
  5
228
331
1C2
  5
1C5
331
453
  5
454
331
44
  5
45
331
229
  5
22F
331
1E2
  5
211
331
1DD
  5
1E1
331
230
  5
453
331
760
  5
765
331
461
  5
464
331
1B1
  5
1B4
331
204
  5
220
331
1B8
  5
1BA
331
450
  5
457
331
1BF
  5
1C2
331
557
  5
557
331
1D3
  5
1D6
331
226
  5
22C
331
41
  5
41
331
22D
  5
44E
331
1AE
  5
1B1
331
1B5
  5
1B7
331
6D0
  5
6D0
331
1BC
  5
1BE
331
554
  5
54C
331
1D0
  5
1D3
331
223
  5
229
331
1C3
  5
1C6
331
454
  5
458
331
468
  5
46A
331
1E3
  5
216
331
22A
  5
230
331
45
  5
1AD
331
21D
  5
223
331
1DE
  5
1E4
  0
XRECORD
  5
5CC
102
{ACAD_REACTORS
330
5CB
102
}
330
5CB
100
AcDbXrecord
280
     1
 90
        1
340
186
  0
XRECORD
  5
5D0
102
{ACAD_REACTORS
330
5CF
102
}
330
5CF
100
AcDbXrecord
280
     1
 90
        1
340
186
  0
ACDBDETAILVIEWSTYLE
  5
26E
102
{ACAD_XDICTIONARY
360
5A8
102
}
102
{ACAD_REACTORS
330
26D
102
}
330
26D
100
AcDbModelDocViewStyle
 70
     0
  3
Imperial24
290
     0
100
AcDbDetailViewStyle
 70
     0
 71
     0
 90
        3
 71
     1
340
11
 62
   256
 40
0.24
340
0
 62
   256
 40
0.24
300

 40
0.36
280
     3
 71
     2
340
16
 90
       25
 62
   256
 71
     3
340
11
 62
   256
 40
0.24
 90
        1
 40
0.75
 90
        1
300
%<\AcVar ViewType \f "%tc1">% %<\AcVar ViewDetailId>%\PSCALE %<\AcVar ViewScale \f "%sn">%
 71
     4
340
16
 90
       25
 62
   256
340
16
 90
       25
 62
   256
280
     0
  0
ACDBDETAILVIEWSTYLE
  5
43C
102
{ACAD_XDICTIONARY
360
5AC
102
}
102
{ACAD_REACTORS
330
26D
102
}
330
26D
100
AcDbModelDocViewStyle
 70
     0
  3
Metric50
290
     0
100
AcDbDetailViewStyle
 70
     0
 71
     0
 90
        3
 71
     1
340
11
 62
   256
 40
5.0
340
0
 62
   256
 40
5.0
300

 40
0.0
280
     1
 71
     2
340
16
 90
       25
 62
   256
 71
     3
340
11
 62
   256
 40
5.0
 90
        0
 40
15.0
 90
        1
300
%<\AcVar ViewDetailId>% (%<\AcVar ViewScale \f "%sn">%)
 71
     4
340
16
 90
       25
 62
   256
340
16
 90
       25
 62
   256
280
     0
  0
IMAGEDEF
  5
773
102
{ACAD_REACTORS
330
44A
330
774
330
8E0
102
}
330
44A
100
AcDbRasterImageDef
 90
        0
  1
P:\VERT-X CONSULTING LTD\2013\10 Oct\1310-015- Specialized Construction Products - Contract draughting\Drawings\BRANZ logo. Do not place on drawing without number 510-.jpg
 10
828.0
 20
781.0
 11
0.0846666666666667
 21
0.0846666666666667
280
     1
281
     5
  0
IMAGEDEF
  5
913
102
{ACAD_REACTORS
330
44A
330
914
330
93C
102
}
330
44A
100
AcDbRasterImageDef
 90
        0
  1
P:\VERT-X CONSULTING LTD\2013\10 Oct\1310-015- Specialized Construction Products - Contract draughting\Drawings\logo sharp.JPG
 10
2521.0
 20
901.0
 11
0.2645833333333333
 21
0.2645833333333333
280
     1
281
     5
  0
LAYOUT
  5
1E
102
{ACAD_REACTORS
330
1A
102
}
330
1A
100
AcDbPlotSettings
  1

  2
none_device
  4
Letter_(8.50_x_11.00_Inches)
  6

 40
6.349999904632568
 41
6.349999904632568
 42
6.350006103515625
 43
6.350006103515625
 44
215.8999938964844
 45
279.3999938964844
 46
0.0
 47
0.0
 48
0.0
 49
0.0
140
0.0
141
0.0
142
1.0
143
1.0
 70
   688
 72
     0
 73
     1
 74
     5
  7

 75
    16
147
1.0
 76
     0
 77
     2
 78
   300
148
0.0
149
0.0
100
AcDbLayout
  1
Layout1
 70
     1
 71
     1
 10
-0.2500002402958907
 20
-0.2499999962453767
 11
10.74999951940822
 21
8.249999763458733
 12
0.0
 22
0.0
 32
0.0
 14
1.049636599258096
 24
0.7996597240971078
 34
-0.0015258207003583
 15
9.450362731076971
 25
7.200340082697454
 35
0.0000000349246037
146
0.0
 13
0.0
 23
0.0
 33
0.0
 16
1.0
 26
0.0
 36
0.0
 17
0.0
 27
1.0
 37
0.0
 76
     0
330
1B
331
5CA
1001
ACAD_PSEXT
1000
None
1000
None
1000
Not applicable
1000
The layout will not be plotted unless a new plotter configuration name is selected.
1070
     0
  0
LAYOUT
  5
26
102
{ACAD_REACTORS
330
1A
102
}
330
1A
100
AcDbPlotSettings
  1

  2
none_device
  4

  6

 40
0.0
 41
0.0
 42
0.0
 43
0.0
 44
0.0
 45
0.0
 46
0.0
 47
0.0
 48
0.0
 49
0.0
140
0.0
141
0.0
142
1.0
143
1.0
 70
   688
 72
     0
 73
     0
 74
     5
  7

 75
    16
147
1.0
 76
     0
 77
     2
 78
   300
148
0.0
149
0.0
100
AcDbLayout
  1
Layout2
 70
     1
 71
     2
 10
0.0
 20
0.0
 11
0.0
 21
0.0
 12
0.0
 22
0.0
 32
0.0
 14
0.0
 24
0.0
 34
0.0
 15
0.0
 25
0.0
 35
0.0
146
0.0
 13
0.0
 23
0.0
 33
0.0
 16
1.0
 26
0.0
 36
0.0
 17
0.0
 27
1.0
 37
0.0
 76
     0
330
23
  0
LAYOUT
  5
22
102
{ACAD_REACTORS
330
1A
102
}
330
1A
100
AcDbPlotSettings
  1

  2
none_device
  4

  6

 40
0.0
 41
0.0
 42
0.0
 43
0.0
 44
0.0
 45
0.0
 46
0.0
 47
0.0
 48
0.0
 49
0.0
140
0.0
141
0.0
142
1.0
143
1.0
 70
  1712
 72
     0
 73
     0
 74
     0
  7

 75
     0
147
1.0
 76
     0
 77
     2
 78
   300
148
0.0
149
0.0
100
AcDbLayout
  1
Model
 70
     1
 71
     0
 10
0.0
 20
0.0
 11
12.0
 21
9.0
 12
0.0
 22
0.0
 32
0.0
 14
1.000000000000000E+20
 24
1.000000000000000E+20
 34
1.000000000000000E+20
 15
-1.000000000000000E+20
 25
-1.000000000000000E+20
 35
-1.000000000000000E+20
146
0.0
 13
0.0
 23
0.0
 33
0.0
 16
1.0
 26
0.0
 36
0.0
 17
0.0
 27
1.0
 37
0.0
 76
     0
330
1F
331
29
  0
MATERIAL
  5
3D
102
{ACAD_REACTORS
330
3B
102
}
330
3B
100
AcDbMaterial
  1
ByBlock
 73
     1
 78
     1
172
     1
176
     1
270
     1
274
     1
  0
MATERIAL
  5
3C
102
{ACAD_REACTORS
330
3B
102
}
330
3B
100
AcDbMaterial
  1
ByLayer
 73
     1
 78
     1
172
     1
176
     1
270
     1
274
     1
  0
MATERIAL
  5
3E
102
{ACAD_REACTORS
330
3B
102
}
330
3B
100
AcDbMaterial
  1
Global
 73
     1
 78
     1
172
     1
176
     1
270
     1
274
     1
  0
MLEADERSTYLE
  5
26A
102
{ACAD_XDICTIONARY
360
B83
102
}
102
{ACAD_REACTORS
330
25B
102
}
330
25B
100
AcDbMLeaderStyle
179
     2
170
     2
171
     1
172
     0
 90
        2
 40
0.0
 41
0.0
173
     1
 91
-1056964608
340
14
 92
       -2
290
     1
 42
0.09
291
     1
 43
0.36
  3
Standard
 44
0.18
300

342
11
174
     1
178
     6
175
     1
176
     0
 93
-1056964608
 45
0.18
292
     0
297
     0
 46
0.18
 94
-1056964608
 47
1.0
 49
1.0
140
1.0
293
     1
141
0.0
294
     1
177
     0
142
1.0
295
     0
296
     0
143
0.125
271
     0
272
     9
273
     9
  0
MLINESTYLE
  5
18
102
{ACAD_REACTORS
330
17
102
}
330
17
100
AcDbMlineStyle
  2
STANDARD
 70
     0
  3

 62
   256
 51
90.0
 52
90.0
 71
     2
 49
0.5
 62
   256
  6
BYLAYER
 49
-0.5
 62
   256
  6
BYLAYER
  0
ACDBPLACEHOLDER
  5
F
102
{ACAD_REACTORS
330
E
102
}
330
E
  0
SCALE
  5
186
102
{ACAD_REACTORS
330
185
102
}
330
185
100
AcDbScale
 70
     0
300
1:1
140
1.0
141
1.0
290
     1
  0
SCALE
  5
187
102
{ACAD_REACTORS
330
185
102
}
330
185
100
AcDbScale
 70
     0
300
1:2
140
1.0
141
2.0
290
     0
  0
SCALE
  5
188
102
{ACAD_REACTORS
330
185
102
}
330
185
100
AcDbScale
 70
     0
300
1:4
140
1.0
141
4.0
290
     0
  0
SCALE
  5
189
102
{ACAD_REACTORS
330
185
102
}
330
185
100
AcDbScale
 70
     0
300
1:5
140
1.0
141
5.0
290
     0
  0
SCALE
  5
18A
102
{ACAD_REACTORS
330
185
102
}
330
185
100
AcDbScale
 70
     0
300
1:8
140
1.0
141
8.0
290
     0
  0
SCALE
  5
18B
102
{ACAD_REACTORS
330
185
102
}
330
185
100
AcDbScale
 70
     0
300
1:10
140
1.0
141
10.0
290
     0
  0
SCALE
  5
18C
102
{ACAD_REACTORS
330
185
102
}
330
185
100
AcDbScale
 70
     0
300
1:16
140
1.0
141
16.0
290
     0
  0
SCALE
  5
18D
102
{ACAD_REACTORS
330
185
102
}
330
185
100
AcDbScale
 70
     0
300
1:20
140
1.0
141
20.0
290
     0
  0
SCALE
  5
18E
102
{ACAD_REACTORS
330
185
102
}
330
185
100
AcDbScale
 70
     0
300
1:30
140
1.0
141
30.0
290
     0
  0
SCALE
  5
18F
102
{ACAD_REACTORS
330
185
102
}
330
185
100
AcDbScale
 70
     0
300
1:40
140
1.0
141
40.0
290
     0
  0
SCALE
  5
190
102
{ACAD_REACTORS
330
185
102
}
330
185
100
AcDbScale
 70
     0
300
1:50
140
1.0
141
50.0
290
     0
  0
SCALE
  5
191
102
{ACAD_REACTORS
330
185
102
}
330
185
100
AcDbScale
 70
     0
300
1:100
140
1.0
141
100.0
290
     0
  0
SCALE
  5
192
102
{ACAD_REACTORS
330
185
102
}
330
185
100
AcDbScale
 70
     0
300
2:1
140
2.0
141
1.0
290
     0
  0
SCALE
  5
193
102
{ACAD_REACTORS
330
185
102
}
330
185
100
AcDbScale
 70
     0
300
4:1
140
4.0
141
1.0
290
     0
  0
SCALE
  5
194
102
{ACAD_REACTORS
330
185
102
}
330
185
100
AcDbScale
 70
     0
300
8:1
140
8.0
141
1.0
290
     0
  0
SCALE
  5
195
102
{ACAD_REACTORS
330
185
102
}
330
185
100
AcDbScale
 70
     0
300
10:1
140
10.0
141
1.0
290
     0
  0
SCALE
  5
196
102
{ACAD_REACTORS
330
185
102
}
330
185
100
AcDbScale
 70
     0
300
100:1
140
100.0
141
1.0
290
     0
  0
SCALE
  5
197
102
{ACAD_REACTORS
330
185
102
}
330
185
100
AcDbScale
 70
     0
300
1/128" = 1'-0"
140
0.0078125
141
12.0
290
     0
  0
SCALE
  5
198
102
{ACAD_REACTORS
330
185
102
}
330
185
100
AcDbScale
 70
     0
300
1/64" = 1'-0"
140
0.015625
141
12.0
290
     0
  0
SCALE
  5
199
102
{ACAD_REACTORS
330
185
102
}
330
185
100
AcDbScale
 70
     0
300
1/32" = 1'-0"
140
0.03125
141
12.0
290
     0
  0
SCALE
  5
19A
102
{ACAD_REACTORS
330
185
102
}
330
185
100
AcDbScale
 70
     0
300
1/16" = 1'-0"
140
0.0625
141
12.0
290
     0
  0
SCALE
  5
19B
102
{ACAD_REACTORS
330
185
102
}
330
185
100
AcDbScale
 70
     0
300
3/32" = 1'-0"
140
0.09375
141
12.0
290
     0
  0
SCALE
  5
19C
102
{ACAD_REACTORS
330
185
102
}
330
185
100
AcDbScale
 70
     0
300
1/8" = 1'-0"
140
0.125
141
12.0
290
     0
  0
SCALE
  5
19D
102
{ACAD_REACTORS
330
185
102
}
330
185
100
AcDbScale
 70
     0
300
3/16" = 1'-0"
140
0.1875
141
12.0
290
     0
  0
SCALE
  5
19E
102
{ACAD_REACTORS
330
185
102
}
330
185
100
AcDbScale
 70
     0
300
1/4" = 1'-0"
140
0.25
141
12.0
290
     0
  0
SCALE
  5
19F
102
{ACAD_REACTORS
330
185
102
}
330
185
100
AcDbScale
 70
     0
300
3/8" = 1'-0"
140
0.375
141
12.0
290
     0
  0
SCALE
  5
1A0
102
{ACAD_REACTORS
330
185
102
}
330
185
100
AcDbScale
 70
     0
300
1/2" = 1'-0"
140
0.5
141
12.0
290
     0
  0
SCALE
  5
1A1
102
{ACAD_REACTORS
330
185
102
}
330
185
100
AcDbScale
 70
     0
300
3/4" = 1'-0"
140
0.75
141
12.0
290
     0
  0
SCALE
  5
1A2
102
{ACAD_REACTORS
330
185
102
}
330
185
100
AcDbScale
 70
     0
300
1" = 1'-0"
140
1.0
141
12.0
290
     0
  0
SCALE
  5
1A3
102
{ACAD_REACTORS
330
185
102
}
330
185
100
AcDbScale
 70
     0
300
1-1/2" = 1'-0"
140
1.5
141
12.0
290
     0
  0
SCALE
  5
1A4
102
{ACAD_REACTORS
330
185
102
}
330
185
100
AcDbScale
 70
     0
300
3" = 1'-0"
140
3.0
141
12.0
290
     0
  0
SCALE
  5
1A5
102
{ACAD_REACTORS
330
185
102
}
330
185
100
AcDbScale
 70
     0
300
6" = 1'-0"
140
6.0
141
12.0
290
     0
  0
SCALE
  5
1A6
102
{ACAD_REACTORS
330
185
102
}
330
185
100
AcDbScale
 70
     0
300
1'-0" = 1'-0"
140
12.0
141
12.0
290
     0
  0
ACDBSECTIONVIEWSTYLE
  5
26C
102
{ACAD_XDICTIONARY
360
5A6
102
}
102
{ACAD_REACTORS
330
26B
102
}
330
26B
100
AcDbModelDocViewStyle
 70
     0
  3
Imperial24
290
     0
100
AcDbSectionViewStyle
 70
     0
 71
     0
 90
       78
 71
     1
340
11
 62
   256
 40
0.24
340
0
340
0
 62
   256
 40
0.24
300
I, O, Q, S, X, Z
 40
0.48
 90
        3
 40
0.18
 90
        1
 71
     2
340
16
 90
       25
 62
   256
340
16
 90
       50
 62
   256
 40
0.24
 40
0.0
 40
0.24
 71
     3
340
11
 62
   256
 40
0.24
 90
        1
 40
0.75
 90
        1
300
%<\AcVar ViewType \f "%tc1">% %<\AcVar ViewSectionStartId>%-%<\AcVar ViewSectionEndId>%\PSCALE %<\AcVar ViewScale \f "%sn">%
 71
     4
 62
   256
 62
   257
300
ANSI31
 40
1.0
 90
        0
290
     0
290
     0
 90
        6
 40
0.0
 40
1.570796326794896
 40
0.2617993877991494
 40
1.308996938995747
 40
-0.2617993877991494
 40
1.832595714594046
  0
ACDBSECTIONVIEWSTYLE
  5
43B
102
{ACAD_XDICTIONARY
360
5AA
102
}
102
{ACAD_REACTORS
330
26B
102
}
330
26B
100
AcDbModelDocViewStyle
 70
     0
  3
Metric50
290
     0
100
AcDbSectionViewStyle
 70
     0
 71
     0
 90
      102
 71
     1
340
11
 62
   256
 40
5.0
340
0
340
0
 62
   256
 40
5.0
300
I, O, Q, S, X, Z
 40
10.0
 90
        0
 40
2.5
 90
        0
 71
     2
340
16
 90
       25
 62
   256
340
16
 90
       50
 62
   256
 40
5.0
 40
2.5
 40
5.0
 71
     3
340
11
 62
   256
 40
5.0
 90
        0
 40
15.0
 90
        1
300
%<\AcVar ViewSectionStartId>%-%<\AcVar ViewSectionEndId>% (%<\AcVar ViewScale \f "%sn">%)
 71
     4
 62
   256
 62
   257
300
ANSI31
 40
1.0
 90
        0
290
     0
290
     0
 90
        6
 40
0.0
 40
1.570796326794896
 40
0.2617993877991494
 40
1.308996938995747
 40
-0.2617993877991494
 40
1.832595714594046
  0
TABLESTYLE
  5
269
102
{ACAD_XDICTIONARY
360
B44
102
}
102
{ACAD_REACTORS
330
25A
102
}
330
25A
100
AcDbTableStyle
280
     0
  3
Standard
 70
     0
 71
     0
 40
0.06
 41
0.06
280
     0
281
     0
  7
Standard
140
0.18
170
     2
 62
     0
 63
     7
283
     0
 90
      512
 91
        0
  1

274
    -2
284
     1
 64
     0
275
    -2
285
     1
 65
     0
276
    -2
286
     1
 66
     0
277
    -2
287
     1
 67
     0
278
    -2
288
     1
 68
     0
279
    -2
289
     1
 69
     0
  7
Standard
140
0.25
170
     5
 62
     0
 63
     7
283
     0
 90
      512
 91
        0
  1

274
    -2
284
     1
 64
     0
275
    -2
285
     1
 65
     0
276
    -2
286
     1
 66
     0
277
    -2
287
     1
 67
     0
278
    -2
288
     1
 68
     0
279
    -2
289
     1
 69
     0
  7
Standard
140
0.18
170
     5
 62
     0
 63
     7
283
     0
 90
      512
 91
        0
  1

274
    -2
284
     1
 64
     0
275
    -2
285
     1
 65
     0
276
    -2
286
     1
 66
     0
277
    -2
287
     1
 67
     0
278
    -2
288
     1
 68
     0
279
    -2
289
     1
 69
     0
  0
VISUALSTYLE
  5
2F
102
{ACAD_XDICTIONARY
360
B57
102
}
102
{ACAD_REACTORS
330
2A
102
}
330
2A
100
AcDbVisualStyle
  2
2dWireframe
 70
     4
177
     2
291
     0
 71
     0
176
     1
 72
     2
176
     1
 73
     0
176
     1
 90
        0
176
     1
 40
0.6
176
     1
 41
30.0
176
     1
 63
     7
421
 16777215
176
     1
 74
     1
176
     1
 91
        4
176
     1
 64
     7
176
     1
 65
   257
176
     1
 75
     1
176
     1
175
     1
176
     1
 42
1.0
176
     1
 92
        0
176
     1
 66
   257
176
     1
 43
1.0
176
     1
 76
     1
176
     1
 77
     6
176
     1
 78
     2
176
     1
 67
     7
176
     1
 79
     5
176
     1
170
     0
176
     1
171
     0
176
     1
290
     0
176
     1
 93
        1
176
     1
 44
0.0
176
     1
173
     0
176
     1
1001
ACAD
1000
AcDbSavedByObjectVersion
1070
     0
  0
VISUALSTYLE
  5
31
102
{ACAD_XDICTIONARY
360
B5B
102
}
102
{ACAD_REACTORS
330
2A
102
}
330
2A
100
AcDbVisualStyle
  2
3D Hidden
 70
     6
177
     2
291
     0
 71
     1
176
     1
 72
     2
176
     1
 73
     2
176
     1
 90
        0
176
     1
 40
0.6
176
     1
 41
30.0
176
     1
 63
     7
421
 16777215
176
     1
 74
     2
176
     1
 91
        2
176
     1
 64
     7
176
     1
 65
   257
176
     1
 75
     2
176
     1
175
     1
176
     1
 42
40.0
176
     1
 92
        0
176
     1
 66
   257
176
     1
 43
1.0
176
     1
 76
     1
176
     1
 77
     6
176
     1
 78
     2
176
     1
 67
     7
176
     1
 79
     3
176
     1
170
     0
176
     1
171
     0
176
     1
290
     0
176
     1
 93
        1
176
     1
 44
0.0
176
     1
173
     0
176
     1
1001
ACAD
1000
AcDbSavedByObjectVersion
1070
     0
  0
VISUALSTYLE
  5
30
102
{ACAD_XDICTIONARY
360
B59
102
}
102
{ACAD_REACTORS
330
2A
102
}
330
2A
100
AcDbVisualStyle
  2
3dWireframe
 70
     5
177
     2
291
     0
 71
     0
176
     1
 72
     2
176
     1
 73
     0
176
     1
 90
        0
176
     1
 40
0.6
176
     1
 41
30.0
176
     1
 63
     7
421
 16777215
176
     1
 74
     1
176
     1
 91
        4
176
     1
 64
     7
176
     1
 65
   257
176
     1
 75
     1
176
     1
175
     1
176
     1
 42
1.0
176
     1
 92
        0
176
     1
 66
   257
176
     1
 43
1.0
176
     1
 76
     1
176
     1
 77
     6
176
     1
 78
     2
176
     1
 67
     7
176
     1
 79
     5
176
     1
170
     0
176
     1
171
     0
176
     1
290
     0
176
     1
 93
        1
176
     1
 44
0.0
176
     1
173
     0
176
     1
1001
ACAD
1000
AcDbSavedByObjectVersion
1070
     0
  0
VISUALSTYLE
  5
32
102
{ACAD_XDICTIONARY
360
B5D
102
}
102
{ACAD_REACTORS
330
2A
102
}
330
2A
100
AcDbVisualStyle
  2
Basic
 70
     7
177
     2
291
     1
 71
     1
176
     1
 72
     0
176
     1
 73
     1
176
     1
 90
        0
176
     1
 40
0.6
176
     1
 41
30.0
176
     1
 63
     7
421
 16777215
176
     1
 74
     0
176
     1
 91
        4
176
     1
 64
     7
176
     1
 65
   257
176
     1
 75
     1
176
     1
175
     1
176
     1
 42
1.0
176
     1
 92
        8
176
     1
 66
     7
176
     1
 43
1.0
176
     1
 76
     1
176
     1
 77
     6
176
     1
 78
     2
176
     1
 67
     7
176
     1
 79
     5
176
     1
170
     0
176
     1
171
     0
176
     1
290
     0
176
     1
 93
        1
176
     1
 44
0.0
176
     1
173
     0
176
     1
1001
ACAD
1000
AcDbSavedByObjectVersion
1070
     0
  0
VISUALSTYLE
  5
36
102
{ACAD_XDICTIONARY
360
B65
102
}
102
{ACAD_REACTORS
330
2A
102
}
330
2A
100
AcDbVisualStyle
  2
Brighten
 70
    12
177
     2
291
     1
 71
     2
176
     1
 72
     2
176
     1
 73
     0
176
     1
 90
        0
176
     1
 40
0.6
176
     1
 41
30.0
176
     1
 63
     7
421
 16777215
176
     1
 74
     1
176
     1
 91
        4
176
     1
 64
     7
176
     1
 65
   257
176
     1
 75
     1
176
     1
175
     1
176
     1
 42
1.0
176
     1
 92
        8
176
     1
 66
     7
176
     1
 43
1.0
176
     1
 76
     1
176
     1
 77
     6
176
     1
 78
     2
176
     1
 67
     7
176
     1
 79
     5
176
     1
170
     0
176
     1
171
     0
176
     1
290
     0
176
     1
 93
        1
176
     1
 44
50.0
176
     1
173
     0
176
     1
1001
ACAD
1000
AcDbSavedByObjectVersion
1070
     0
  0
VISUALSTYLE
  5
3A
102
{ACAD_XDICTIONARY
360
B6D
102
}
102
{ACAD_REACTORS
330
2A
102
}
330
2A
100
AcDbVisualStyle
  2
ColorChange
 70
    16
177
     2
291
     1
 71
     2
176
     1
 72
     2
176
     1
 73
     3
176
     1
 90
        0
176
     1
 40
0.6
176
     1
 41
30.0
176
     1
 63
     8
421
  8421504
176
     1
 74
     1
176
     1
 91
        4
176
     1
 64
     7
176
     1
 65
   257
176
     1
 75
     1
176
     1
175
     1
176
     1
 42
1.0
176
     1
 92
        8
176
     1
 66
     8
424
  8421504
176
     1
 43
1.0
176
     1
 76
     1
176
     1
 77
     6
176
     1
 78
     2
176
     1
 67
     7
176
     1
 79
     5
176
     1
170
     0
176
     1
171
     0
176
     1
290
     0
176
     1
 93
        1
176
     1
 44
0.0
176
     1
173
     0
176
     1
1001
ACAD
1000
AcDbSavedByObjectVersion
1070
     0
  0
VISUALSTYLE
  5
34
102
{ACAD_XDICTIONARY
360
B61
102
}
102
{ACAD_REACTORS
330
2A
102
}
330
2A
100
AcDbVisualStyle
  2
Conceptual
 70
     9
177
     2
291
     0
 71
     3
176
     1
 72
     2
176
     1
 73
     0
176
     1
 90
        0
176
     1
 40
0.6
176
     1
 41
30.0
176
     1
 63
     7
421
 16777215
176
     1
 74
     2
176
     1
 91
        2
176
     1
 64
     7
176
     1
 65
   257
176
     1
 75
     1
176
     1
175
     1
176
     1
 42
40.0
176
     1
 92
        8
176
     1
 66
     7
176
     1
 43
1.0
176
     1
 76
     1
176
     1
 77
     6
176
     1
 78
     2
176
     1
 67
     7
176
     1
 79
     3
176
     1
170
     0
176
     1
171
     0
176
     1
290
     0
176
     1
 93
        1
176
     1
 44
0.0
176
     1
173
     0
176
     1
1001
ACAD
1000
AcDbSavedByObjectVersion
1070
     0
  0
VISUALSTYLE
  5
35
102
{ACAD_XDICTIONARY
360
B63
102
}
102
{ACAD_REACTORS
330
2A
102
}
330
2A
100
AcDbVisualStyle
  2
Dim
 70
    11
177
     2
291
     1
 71
     2
176
     1
 72
     2
176
     1
 73
     0
176
     1
 90
        0
176
     1
 40
0.6
176
     1
 41
30.0
176
     1
 63
     7
421
 16777215
176
     1
 74
     1
176
     1
 91
        4
176
     1
 64
     7
176
     1
 65
   257
176
     1
 75
     1
176
     1
175
     1
176
     1
 42
1.0
176
     1
 92
        8
176
     1
 66
     7
176
     1
 43
1.0
176
     1
 76
     1
176
     1
 77
     6
176
     1
 78
     2
176
     1
 67
     7
176
     1
 79
     5
176
     1
170
     0
176
     1
171
     0
176
     1
290
     0
176
     1
 93
        1
176
     1
 44
-50.0
176
     1
173
     0
176
     1
1001
ACAD
1000
AcDbSavedByObjectVersion
1070
     0
  0
VISUALSTYLE
  5
267
102
{ACAD_XDICTIONARY
360
B81
102
}
102
{ACAD_REACTORS
330
2A
102
}
330
2A
100
AcDbVisualStyle
  2
EdgeColorOff
 70
    22
177
     2
291
     1
 71
     2
176
     0
 72
     2
176
     0
 73
     0
176
     0
 90
        0
176
     0
 40
0.6
176
     0
 41
30.0
176
     0
 63
     7
421
 16777215
176
     0
 74
     1
176
     0
 91
        4
176
     0
 64
     7
176
     0
 65
   257
176
     0
 75
     1
176
     0
175
     1
176
     0
 42
1.0
176
     0
 92
        8
176
     2
 66
     7
176
     0
 43
1.0
176
     0
 76
     1
176
     0
 77
     6
176
     0
 78
     2
176
     0
 67
     7
176
     0
 79
     5
176
     0
170
     0
176
     0
171
     0
176
     0
290
     0
176
     0
 93
        1
176
     0
 44
0.0
176
     0
173
     0
176
     0
1001
ACAD
1000
AcDbSavedByObjectVersion
1070
     0
  0
VISUALSTYLE
  5
39
102
{ACAD_XDICTIONARY
360
B6B
102
}
102
{ACAD_REACTORS
330
2A
102
}
330
2A
100
AcDbVisualStyle
  2
Facepattern
 70
    15
177
     2
291
     1
 71
     2
176
     1
 72
     2
176
     1
 73
     0
176
     1
 90
        0
176
     1
 40
0.6
176
     1
 41
30.0
176
     1
 63
     7
421
 16777215
176
     1
 74
     1
176
     1
 91
        4
176
     1
 64
     7
176
     1
 65
   257
176
     1
 75
     1
176
     1
175
     1
176
     1
 42
1.0
176
     1
 92
        8
176
     1
 66
     7
176
     1
 43
1.0
176
     1
 76
     1
176
     1
 77
     6
176
     1
 78
     2
176
     1
 67
     7
176
     1
 79
     5
176
     1
170
     0
176
     1
171
     0
176
     1
290
     0
176
     1
 93
        1
176
     1
 44
0.0
176
     1
173
     0
176
     1
1001
ACAD
1000
AcDbSavedByObjectVersion
1070
     0
  0
VISUALSTYLE
  5
2B
102
{ACAD_XDICTIONARY
360
B4F
102
}
102
{ACAD_REACTORS
330
2A
102
}
330
2A
100
AcDbVisualStyle
  2
Flat
 70
     0
177
     2
291
     1
 71
     2
176
     1
 72
     1
176
     1
 73
     1
176
     1
 90
        2
176
     1
 40
0.6
176
     1
 41
30.0
176
     1
 63
     7
421
 16777215
176
     1
 74
     0
176
     1
 91
        4
176
     1
 64
     7
176
     1
 65
   257
176
     1
 75
     1
176
     1
175
     1
176
     1
 42
1.0
176
     1
 92
        8
176
     1
 66
     7
176
     1
 43
1.0
176
     1
 76
     1
176
     1
 77
     6
176
     1
 78
     2
176
     1
 67
     7
176
     1
 79
     5
176
     1
170
     0
176
     1
171
     0
176
     1
290
     0
176
     1
 93
       13
176
     1
 44
0.0
176
     1
173
     0
176
     1
1001
ACAD
1000
AcDbSavedByObjectVersion
1070
     0
  0
VISUALSTYLE
  5
2C
102
{ACAD_XDICTIONARY
360
B51
102
}
102
{ACAD_REACTORS
330
2A
102
}
330
2A
100
AcDbVisualStyle
  2
FlatWithEdges
 70
     1
177
     2
291
     1
 71
     2
176
     1
 72
     1
176
     1
 73
     1
176
     1
 90
        2
176
     1
 40
0.6
176
     1
 41
30.0
176
     1
 63
     7
421
 16777215
176
     1
 74
     1
176
     1
 91
        4
176
     1
 64
     7
176
     1
 65
   257
176
     1
 75
     1
176
     1
175
     1
176
     1
 42
1.0
176
     1
 92
        0
176
     1
 66
   257
176
     1
 43
1.0
176
     1
 76
     1
176
     1
 77
     6
176
     1
 78
     2
176
     1
 67
     7
176
     1
 79
     5
176
     1
170
     0
176
     1
171
     0
176
     1
290
     0
176
     1
 93
       13
176
     1
 44
0.0
176
     1
173
     0
176
     1
1001
ACAD
1000
AcDbSavedByObjectVersion
1070
     0
  0
VISUALSTYLE
  5
2D
102
{ACAD_XDICTIONARY
360
B53
102
}
102
{ACAD_REACTORS
330
2A
102
}
330
2A
100
AcDbVisualStyle
  2
Gouraud
 70
     2
177
     2
291
     1
 71
     2
176
     1
 72
     2
176
     1
 73
     1
176
     1
 90
        2
176
     1
 40
0.6
176
     1
 41
30.0
176
     1
 63
     7
421
 16777215
176
     1
 74
     0
176
     1
 91
        4
176
     1
 64
     7
176
     1
 65
   257
176
     1
 75
     1
176
     1
175
     1
176
     1
 42
1.0
176
     1
 92
        0
176
     1
 66
     7
176
     1
 43
1.0
176
     1
 76
     1
176
     1
 77
     6
176
     1
 78
     2
176
     1
 67
     7
176
     1
 79
     5
176
     1
170
     0
176
     1
171
     0
176
     1
290
     0
176
     1
 93
       13
176
     1
 44
0.0
176
     1
173
     0
176
     1
1001
ACAD
1000
AcDbSavedByObjectVersion
1070
     0
  0
VISUALSTYLE
  5
2E
102
{ACAD_XDICTIONARY
360
B55
102
}
102
{ACAD_REACTORS
330
2A
102
}
330
2A
100
AcDbVisualStyle
  2
GouraudWithEdges
 70
     3
177
     2
291
     1
 71
     2
176
     1
 72
     2
176
     1
 73
     1
176
     1
 90
        2
176
     1
 40
0.6
176
     1
 41
30.0
176
     1
 63
     7
421
 16777215
176
     1
 74
     1
176
     1
 91
        4
176
     1
 64
     7
176
     1
 65
   257
176
     1
 75
     1
176
     1
175
     1
176
     1
 42
1.0
176
     1
 92
        0
176
     1
 66
   257
176
     1
 43
1.0
176
     1
 76
     1
176
     1
 77
     6
176
     1
 78
     2
176
     1
 67
     7
176
     1
 79
     5
176
     1
170
     0
176
     1
171
     0
176
     1
290
     0
176
     1
 93
       13
176
     1
 44
0.0
176
     1
173
     0
176
     1
1001
ACAD
1000
AcDbSavedByObjectVersion
1070
     0
  0
VISUALSTYLE
  5
25F
102
{ACAD_XDICTIONARY
360
B71
102
}
102
{ACAD_REACTORS
330
2A
102
}
330
2A
100
AcDbVisualStyle
  2
Hidden
 70
     6
177
     2
291
     0
 71
     1
176
     1
 72
     2
176
     1
 73
     2
176
     1
 90
        0
176
     1
 40
0.6
176
     1
 41
30.0
176
     1
 63
     7
421
 16777215
176
     1
 74
     2
176
     1
 91
        2
176
     1
 64
     7
176
     1
 65
   257
176
     1
 75
     2
176
     1
175
     1
176
     1
 42
40.0
176
     1
 92
        0
176
     1
 66
   257
176
     1
 43
1.0
176
     1
 76
     1
176
     1
 77
     6
176
     1
 78
     2
176
     1
 67
     7
176
     1
 79
     3
176
     1
170
     0
176
     1
171
     0
176
     1
290
     0
176
     1
 93
        1
176
     1
 44
0.0
176
     1
173
     0
176
     1
1001
ACAD
1000
AcDbSavedByObjectVersion
1070
     0
  0
VISUALSTYLE
  5
265
102
{ACAD_XDICTIONARY
360
B7D
102
}
102
{ACAD_REACTORS
330
2A
102
}
330
2A
100
AcDbVisualStyle
  2
JitterOff
 70
    20
177
     2
291
     1
 71
     2
176
     0
 72
     2
176
     0
 73
     0
176
     0
 90
        0
176
     0
 40
0.6
176
     0
 41
30.0
176
     0
 63
     7
421
 16777215
176
     0
 74
     1
176
     0
 91
        4
176
     0
 64
     7
176
     0
 65
   257
176
     0
 75
     1
176
     0
175
     1
176
     0
 42
1.0
176
     0
 92
       10
176
     2
 66
     7
176
     0
 43
1.0
176
     0
 76
     1
176
     0
 77
     6
176
     0
 78
     2
176
     0
 67
     7
176
     0
 79
     5
176
     0
170
     0
176
     0
171
     0
176
     0
290
     0
176
     0
 93
        1
176
     0
 44
0.0
176
     0
173
     0
176
     0
1001
ACAD
1000
AcDbSavedByObjectVersion
1070
     0
  0
VISUALSTYLE
  5
38
102
{ACAD_XDICTIONARY
360
B69
102
}
102
{ACAD_REACTORS
330
2A
102
}
330
2A
100
AcDbVisualStyle
  2
Linepattern
 70
    14
177
     2
291
     1
 71
     2
176
     1
 72
     2
176
     1
 73
     0
176
     1
 90
        0
176
     1
 40
0.6
176
     1
 41
30.0
176
     1
 63
     7
421
 16777215
176
     1
 74
     1
176
     1
 91
        4
176
     1
 64
     7
176
     1
 65
   257
176
     1
 75
     7
176
     1
175
     7
176
     1
 42
1.0
176
     1
 92
        8
176
     1
 66
     7
176
     1
 43
1.0
176
     1
 76
     1
176
     1
 77
     6
176
     1
 78
     2
176
     1
 67
     7
176
     1
 79
     5
176
     1
170
     0
176
     1
171
     0
176
     1
290
     0
176
     1
 93
        1
176
     1
 44
0.0
176
     1
173
     0
176
     1
1001
ACAD
1000
AcDbSavedByObjectVersion
1070
     0
  0
VISUALSTYLE
  5
266
102
{ACAD_XDICTIONARY
360
B7F
102
}
102
{ACAD_REACTORS
330
2A
102
}
330
2A
100
AcDbVisualStyle
  2
OverhangOff
 70
    21
177
     2
291
     1
 71
     2
176
     0
 72
     2
176
     0
 73
     0
176
     0
 90
        0
176
     0
 40
0.6
176
     0
 41
30.0
176
     0
 63
     7
421
 16777215
176
     0
 74
     1
176
     0
 91
        4
176
     0
 64
     7
176
     0
 65
   257
176
     0
 75
     1
176
     0
175
     1
176
     0
 42
1.0
176
     0
 92
        9
176
     2
 66
     7
176
     0
 43
1.0
176
     0
 76
     1
176
     0
 77
     6
176
     0
 78
     2
176
     0
 67
     7
176
     0
 79
     5
176
     0
170
     0
176
     0
171
     0
176
     0
290
     0
176
     0
 93
        1
176
     0
 44
0.0
176
     0
173
     0
176
     0
1001
ACAD
1000
AcDbSavedByObjectVersion
1070
     0
  0
VISUALSTYLE
  5
33
102
{ACAD_XDICTIONARY
360
B5F
102
}
102
{ACAD_REACTORS
330
2A
102
}
330
2A
100
AcDbVisualStyle
  2
Realistic
 70
     8
177
     2
291
     0
 71
     2
176
     1
 72
     2
176
     1
 73
     0
176
     1
 90
        0
176
     1
 40
0.6
176
     1
 41
30.0
176
     1
 63
     7
421
 16777215
176
     1
 74
     1
176
     1
 91
        0
176
     1
 64
     7
176
     1
 65
   257
176
     1
 75
     1
176
     1
175
     1
176
     1
 42
1.0
176
     1
 92
        8
176
     1
 66
     8
424
  7895160
176
     1
 43
1.0
176
     1
 76
     1
176
     1
 77
     6
176
     1
 78
     2
176
     1
 67
     7
176
     1
 79
     5
176
     1
170
     0
176
     1
171
     0
176
     1
290
     0
176
     1
 93
       13
176
     1
 44
0.0
176
     1
173
     0
176
     1
1001
ACAD
1000
AcDbSavedByObjectVersion
1070
     0
  0
VISUALSTYLE
  5
264
102
{ACAD_XDICTIONARY
360
B7B
102
}
102
{ACAD_REACTORS
330
2A
102
}
330
2A
100
AcDbVisualStyle
  2
Shaded
 70
    27
177
     2
291
     0
 71
     2
176
     1
 72
     2
176
     1
 73
     1
176
     1
 90
        2
176
     1
 40
0.6
176
     1
 41
30.0
176
     1
 63
     7
421
 16777215
176
     1
 74
     0
176
     1
 91
        4
176
     1
 64
     7
176
     1
 65
   257
176
     1
 75
     1
176
     1
175
     1
176
     1
 42
1.0
176
     1
 92
        8
176
     1
 66
   257
176
     1
 43
1.0
176
     1
 76
     1
176
     1
 77
     6
176
     1
 78
     2
176
     1
 67
     8
425
  7895160
176
     1
 79
     3
176
     1
170
     0
176
     1
171
     0
176
     1
290
     0
176
     1
 93
        5
176
     1
 44
0.0
176
     1
173
     0
176
     1
1001
ACAD
1000
AcDbSavedByObjectVersion
1070
     0
  0
VISUALSTYLE
  5
263
102
{ACAD_XDICTIONARY
360
B79
102
}
102
{ACAD_REACTORS
330
2A
102
}
330
2A
100
AcDbVisualStyle
  2
Shaded with edges
 70
    26
177
     2
291
     0
 71
     2
176
     1
 72
     2
176
     1
 73
     1
176
     1
 90
        2
176
     1
 40
0.6
176
     1
 41
30.0
176
     1
 63
     7
421
 16777215
176
     1
 74
     1
176
     1
 91
       10
176
     1
 64
     7
176
     1
 65
   257
176
     1
 75
     2
176
     1
175
     1
176
     1
 42
1.0
176
     1
 92
        8
176
     1
 66
   257
176
     1
 43
1.0
176
     1
 76
     1
176
     1
 77
     6
176
     1
 78
     2
176
     1
 67
     7
176
     1
 79
     3
176
     1
170
     0
176
     1
171
     0
176
     1
290
     0
176
     1
 93
        5
176
     1
 44
0.0
176
     1
173
     0
176
     1
1001
ACAD
1000
AcDbSavedByObjectVersion
1070
     0
  0
VISUALSTYLE
  5
260
102
{ACAD_XDICTIONARY
360
B73
102
}
102
{ACAD_REACTORS
330
2A
102
}
330
2A
100
AcDbVisualStyle
  2
Shades of Gray
 70
    23
177
     2
291
     0
 71
     2
176
     1
 72
     2
176
     1
 73
     3
176
     1
 90
        0
176
     1
 40
0.6
176
     1
 41
30.0
176
     1
 63
     7
421
 16777215
176
     1
 74
     2
176
     1
 91
        2
176
     1
 64
     7
176
     1
 65
     7
176
     1
 75
     1
176
     1
175
     1
176
     1
 42
40.0
176
     1
 92
        8
176
     1
 66
     7
176
     1
 43
1.0
176
     1
 76
     1
176
     1
 77
     6
176
     1
 78
     2
176
     1
 67
     7
176
     1
 79
     3
176
     1
170
     0
176
     1
171
     0
176
     1
290
     0
176
     1
 93
        1
176
     1
 44
0.0
176
     1
173
     0
176
     1
1001
ACAD
1000
AcDbSavedByObjectVersion
1070
     0
  0
VISUALSTYLE
  5
261
102
{ACAD_XDICTIONARY
360
B75
102
}
102
{ACAD_REACTORS
330
2A
102
}
330
2A
100
AcDbVisualStyle
  2
Sketchy
 70
    24
177
     2
291
     0
 71
     1
176
     1
 72
     2
176
     1
 73
     2
176
     1
 90
        0
176
     1
 40
0.6
176
     1
 41
30.0
176
     1
 63
     7
421
 16777215
176
     1
 74
     2
176
     1
 91
        2
176
     1
 64
     7
176
     1
 65
     7
176
     1
 75
     1
176
     1
175
     1
176
     1
 42
40.0
176
     1
 92
       11
176
     1
 66
     7
176
     1
 43
1.0
176
     1
 76
     1
176
     1
 77
     6
176
     1
 78
     2
176
     1
 67
     7
176
     1
 79
     6
176
     1
170
     0
176
     1
171
     0
176
     1
290
     0
176
     1
 93
        1
176
     1
 44
0.0
176
     1
173
     0
176
     1
1001
ACAD
1000
AcDbSavedByObjectVersion
1070
     0
  0
VISUALSTYLE
  5
37
102
{ACAD_XDICTIONARY
360
B67
102
}
102
{ACAD_REACTORS
330
2A
102
}
330
2A
100
AcDbVisualStyle
  2
Thicken
 70
    13
177
     2
291
     1
 71
     2
176
     1
 72
     2
176
     1
 73
     0
176
     1
 90
        0
176
     1
 40
0.6
176
     1
 41
30.0
176
     1
 63
     7
421
 16777215
176
     1
 74
     1
176
     1
 91
        4
176
     1
 64
     7
176
     1
 65
   257
176
     1
 75
     1
176
     1
175
     1
176
     1
 42
1.0
176
     1
 92
       12
176
     1
 66
     7
176
     1
 43
1.0
176
     1
 76
     1
176
     1
 77
     6
176
     1
 78
     2
176
     1
 67
     7
176
     1
 79
     5
176
     1
170
     0
176
     1
171
     0
176
     1
290
     0
176
     1
 93
        1
176
     1
 44
0.0
176
     1
173
     0
176
     1
1001
ACAD
1000
AcDbSavedByObjectVersion
1070
     0
  0
VISUALSTYLE
  5
25E
102
{ACAD_XDICTIONARY
360
B6F
102
}
102
{ACAD_REACTORS
330
2A
102
}
330
2A
100
AcDbVisualStyle
  2
Wireframe
 70
     5
177
     2
291
     0
 71
     0
176
     1
 72
     2
176
     1
 73
     0
176
     1
 90
        0
176
     1
 40
0.6
176
     1
 41
30.0
176
     1
 63
     7
421
 16777215
176
     1
 74
     1
176
     1
 91
        4
176
     1
 64
     7
176
     1
 65
   257
176
     1
 75
     1
176
     1
175
     1
176
     1
 42
1.0
176
     1
 92
        0
176
     1
 66
   257
176
     1
 43
1.0
176
     1
 76
     1
176
     1
 77
     6
176
     1
 78
     2
176
     1
 67
     7
176
     1
 79
     3
176
     1
170
     0
176
     1
171
     0
176
     1
290
     0
176
     1
 93
        1
176
     1
 44
0.0
176
     1
173
     0
176
     1
1001
ACAD
1000
AcDbSavedByObjectVersion
1070
     0
  0
VISUALSTYLE
  5
262
102
{ACAD_XDICTIONARY
360
B77
102
}
102
{ACAD_REACTORS
330
2A
102
}
330
2A
100
AcDbVisualStyle
  2
X-Ray
 70
    25
177
     2
291
     0
 71
     2
176
     1
 72
     2
176
     1
 73
     1
176
     1
 90
        1
176
     1
 40
0.5
176
     1
 41
30.0
176
     1
 63
     7
421
 16777215
176
     1
 74
     1
176
     1
 91
        0
176
     1
 64
     7
176
     1
 65
   257
176
     1
 75
     1
176
     1
175
     1
176
     1
 42
1.0
176
     1
 92
        8
176
     1
 66
     7
176
     1
 43
1.0
176
     1
 76
     1
176
     1
 77
     6
176
     1
 78
     2
176
     1
 67
     7
176
     1
 79
     3
176
     1
170
     0
176
     1
171
     0
176
     1
290
     0
176
     1
 93
       13
176
     1
 44
0.0
176
     1
173
     0
176
     1
1001
ACAD
1000
AcDbSavedByObjectVersion
1070
     0
  0
DICTIONARYVAR
  5
239
102
{ACAD_REACTORS
330
238
102
}
330
238
100
DictionaryVariables
280
     0
  1
1:1
  0
DICTIONARYVAR
  5
5B0
102
{ACAD_REACTORS
330
238
102
}
330
238
100
DictionaryVariables
280
     0
  1
STANDARD
  0
DICTIONARYVAR
  5
5AF
102
{ACAD_REACTORS
330
238
102
}
330
238
100
DictionaryVariables
280
     0
  1
STANDARD
  0
DICTIONARYVAR
  5
5B1
102
{ACAD_REACTORS
330
238
102
}
330
238
100
DictionaryVariables
280
     0
  1
Imperial24
  0
DICTIONARYVAR
  5
5B2
102
{ACAD_REACTORS
330
238
102
}
330
238
100
DictionaryVariables
280
     0
  1
Imperial24
  0
DICTIONARYVAR
  5
54B
102
{ACAD_REACTORS
330
238
102
}
330
238
100
DictionaryVariables
280
     0
  1
RGB:255,120,0
  0
DICTIONARYVAR
  5
5B3
102
{ACAD_REACTORS
330
238
102
}
330
238
100
DictionaryVariables
280
     0
  1
1
  0
DICTIONARYVAR
  5
5B4
102
{ACAD_REACTORS
330
238
102
}
330
238
100
DictionaryVariables
280
     0
  1
15
  0
DICTIONARY
  5
B4E
102
{ACAD_REACTORS
330
B4C
102
}
330
B4C
100
AcDbDictionary
281
     1
  0
DICTIONARY
  5
B4D
102
{ACAD_REACTORS
330
B4C
102
}
330
B4C
100
AcDbDictionary
281
     1
  3
2127726328
350
B47
  3
2127726336
350
B48
  3
2127726344
350
B49
  3
2127726352
350
B4A
  3
2127726360
350
B4B
  0
XRECORD
  5
237
102
{ACAD_REACTORS
330
236
102
}
330
236
100
AcDbXrecord
280
     1
1000
This DWG file was created in ArchiCAD(TM)®
  0
DICTIONARY
  5
5A8
330
26E
100
AcDbDictionary
280
     1
281
     1
  3
ACAD_XREC_ROUNDTRIP
360
B86
  0
DICTIONARY
  5
5AC
330
43C
100
AcDbDictionary
280
     1
281
     1
  3
ACAD_XREC_ROUNDTRIP
360
B88
  0
DICTIONARY
  5
B83
330
26A
100
AcDbDictionary
280
     1
281
     1
  3
ACAD_XREC_ROUNDTRIP
360
B84
  0
DICTIONARY
  5
5A6
330
26C
100
AcDbDictionary
280
     1
281
     1
  3
ACAD_XREC_ROUNDTRIP
360
B85
  0
DICTIONARY
  5
5AA
330
43B
100
AcDbDictionary
280
     1
281
     1
  3
ACAD_XREC_ROUNDTRIP
360
B87
  0
DICTIONARY
  5
B44
330
269
100
AcDbDictionary
280
     1
281
     1
  3
ACAD_ROUNDTRIP_2008_TABLESTYLE_CELLSTYLEMAP
360
B45
  0
DICTIONARY
  5
B57
330
2F
100
AcDbDictionary
280
     1
281
     1
  3
ACAD_XREC_ROUNDTRIP
360
B58
  0
DICTIONARY
  5
B5B
330
31
100
AcDbDictionary
280
     1
281
     1
  3
ACAD_XREC_ROUNDTRIP
360
B5C
  0
DICTIONARY
  5
B59
330
30
100
AcDbDictionary
280
     1
281
     1
  3
ACAD_XREC_ROUNDTRIP
360
B5A
  0
DICTIONARY
  5
B5D
330
32
100
AcDbDictionary
280
     1
281
     1
  3
ACAD_XREC_ROUNDTRIP
360
B5E
  0
DICTIONARY
  5
B65
330
36
100
AcDbDictionary
280
     1
281
     1
  3
ACAD_XREC_ROUNDTRIP
360
B66
  0
DICTIONARY
  5
B6D
330
3A
100
AcDbDictionary
280
     1
281
     1
  3
ACAD_XREC_ROUNDTRIP
360
B6E
  0
DICTIONARY
  5
B61
330
34
100
AcDbDictionary
280
     1
281
     1
  3
ACAD_XREC_ROUNDTRIP
360
B62
  0
DICTIONARY
  5
B63
330
35
100
AcDbDictionary
280
     1
281
     1
  3
ACAD_XREC_ROUNDTRIP
360
B64
  0
DICTIONARY
  5
B81
330
267
100
AcDbDictionary
280
     1
281
     1
  3
ACAD_XREC_ROUNDTRIP
360
B82
  0
DICTIONARY
  5
B6B
330
39
100
AcDbDictionary
280
     1
281
     1
  3
ACAD_XREC_ROUNDTRIP
360
B6C
  0
DICTIONARY
  5
B4F
330
2B
100
AcDbDictionary
280
     1
281
     1
  3
ACAD_XREC_ROUNDTRIP
360
B50
  0
DICTIONARY
  5
B51
330
2C
100
AcDbDictionary
280
     1
281
     1
  3
ACAD_XREC_ROUNDTRIP
360
B52
  0
DICTIONARY
  5
B53
330
2D
100
AcDbDictionary
280
     1
281
     1
  3
ACAD_XREC_ROUNDTRIP
360
B54
  0
DICTIONARY
  5
B55
330
2E
100
AcDbDictionary
280
     1
281
     1
  3
ACAD_XREC_ROUNDTRIP
360
B56
  0
DICTIONARY
  5
B71
330
25F
100
AcDbDictionary
280
     1
281
     1
  3
ACAD_XREC_ROUNDTRIP
360
B72
  0
DICTIONARY
  5
B7D
330
265
100
AcDbDictionary
280
     1
281
     1
  3
ACAD_XREC_ROUNDTRIP
360
B7E
  0
DICTIONARY
  5
B69
330
38
100
AcDbDictionary
280
     1
281
     1
  3
ACAD_XREC_ROUNDTRIP
360
B6A
  0
DICTIONARY
  5
B7F
330
266
100
AcDbDictionary
280
     1
281
     1
  3
ACAD_XREC_ROUNDTRIP
360
B80
  0
DICTIONARY
  5
B5F
330
33
100
AcDbDictionary
280
     1
281
     1
  3
ACAD_XREC_ROUNDTRIP
360
B60
  0
DICTIONARY
  5
B7B
330
264
100
AcDbDictionary
280
     1
281
     1
  3
ACAD_XREC_ROUNDTRIP
360
B7C
  0
DICTIONARY
  5
B79
330
263
100
AcDbDictionary
280
     1
281
     1
  3
ACAD_XREC_ROUNDTRIP
360
B7A
  0
DICTIONARY
  5
B73
330
260
100
AcDbDictionary
280
     1
281
     1
  3
ACAD_XREC_ROUNDTRIP
360
B74
  0
DICTIONARY
  5
B75
330
261
100
AcDbDictionary
280
     1
281
     1
  3
ACAD_XREC_ROUNDTRIP
360
B76
  0
DICTIONARY
  5
B67
330
37
100
AcDbDictionary
280
     1
281
     1
  3
ACAD_XREC_ROUNDTRIP
360
B68
  0
DICTIONARY
  5
B6F
330
25E
100
AcDbDictionary
280
     1
281
     1
  3
ACAD_XREC_ROUNDTRIP
360
B70
  0
DICTIONARY
  5
B77
330
262
100
AcDbDictionary
280
     1
281
     1
  3
ACAD_XREC_ROUNDTRIP
360
B78
  0
XRECORD
  5
B47
102
{ACAD_REACTORS
330
B4D
102
}
330
B4D
100
AcDbXrecord
280
     1
  1
AcDb_Thumbnail_Schema
102
{ATTRRECORD
341
B48
  2
AcDbDs::TreatedAsObjectData
280
     1
291
     1
102
ATTRRECORD}
102
{ATTRRECORD
341
B49
  2
AcDbDs::Legacy
280
     1
291
     1
102
ATTRRECORD}
  2
AcDbDs::ID
280
    10
 91
        8
102
{ATTRRECORD
341
B4A
  2
AcDs:Indexable
280
     1
291
     1
102
ATTRRECORD}
102
{ATTRRECORD
341
B4B
  2
AcDbDs::HandleAttribute
280
     7
282
     1
102
ATTRRECORD}
  2
Thumbnail_Data
280
    15
 91
        0
  0
XRECORD
  5
B48
102
{ACAD_REACTORS
330
B4D
102
}
330
B4D
100
AcDbXrecord
280
     1
  1
AcDbDs::TreatedAsObjectDataSchema
  2
AcDbDs::TreatedAsObjectData
280
     1
 91
        0
  0
XRECORD
  5
B49
102
{ACAD_REACTORS
330
B4D
102
}
330
B4D
100
AcDbXrecord
280
     1
  1
AcDbDs::LegacySchema
  2
AcDbDs::Legacy
280
     1
 91
        0
  0
XRECORD
  5
B4A
102
{ACAD_REACTORS
330
B4D
102
}
330
B4D
100
AcDbXrecord
280
     1
  1
AcDbDs::IndexedPropertySchema
  2
AcDs:Indexable
280
     1
 91
        0
  0
XRECORD
  5
B4B
102
{ACAD_REACTORS
330
B4D
102
}
330
B4D
100
AcDbXrecord
280
     1
  1
AcDbDs::HandleAttributeSchema
  2
AcDbDs::HandleAttribute
280
     7
 91
        1
284
     1
  0
XRECORD
  5
B86
102
{ACAD_REACTORS
330
5A8
102
}
330
5A8
100
AcDbXrecord
280
     1
102
DISPLAYNAME
  1
Imperial24
102
FLAGS
 90
        0
  0
XRECORD
  5
B88
102
{ACAD_REACTORS
330
5AC
102
}
330
5AC
100
AcDbXrecord
280
     1
102
DISPLAYNAME
  1
Metric50
102
FLAGS
 90
        0
  0
XRECORD
  5
B84
102
{ACAD_REACTORS
330
B83
102
}
330
B83
100
AcDbXrecord
280
     1
102
ACAD_ROUNDTRIP_2012_MLEADER_STYLE
298
     1
  0
XRECORD
  5
B85
102
{ACAD_REACTORS
330
5A6
102
}
330
5A6
100
AcDbXrecord
280
     1
102
DISPLAYNAME
  1
Imperial24
102
FLAGS
 90
        0
  0
XRECORD
  5
B87
102
{ACAD_REACTORS
330
5AA
102
}
330
5AA
100
AcDbXrecord
280
     1
102
DISPLAYNAME
  1
Metric50
102
FLAGS
 90
        0
  0
CELLSTYLEMAP
  5
B45
102
{ACAD_REACTORS
330
B44
102
}
330
B44
100
AcDbCellStyleMap
 90
        3
300
CELLSTYLE
  1
TABLEFORMAT_BEGIN
 90
        5
170
     1
 91
        0
 92
    32768
 62
   257
 93
        1
300
CONTENTFORMAT
  1
CONTENTFORMAT_BEGIN
 90
        0
 91
        0
 92
      512
 93
        0
300

 40
0.0
140
1.0
 94
        5
 62
     0
340
11
144
0.25
309
CONTENTFORMAT_END
171
     0
 94
        0
309
TABLEFORMAT_END
  1
CELLSTYLE_BEGIN
 90
        1
 91
        1
300
_TITLE
309
CELLSTYLE_END
300
CELLSTYLE
  1
TABLEFORMAT_BEGIN
 90
        5
170
     1
 91
        0
 92
        0
 62
   257
 93
        1
300
CONTENTFORMAT
  1
CONTENTFORMAT_BEGIN
 90
        0
 91
        0
 92
      512
 93
        0
300

 40
0.0
140
1.0
 94
        5
 62
     0
340
11
144
0.18
309
CONTENTFORMAT_END
171
     0
 94
        0
309
TABLEFORMAT_END
  1
CELLSTYLE_BEGIN
 90
        2
 91
        1
300
_HEADER
309
CELLSTYLE_END
300
CELLSTYLE
  1
TABLEFORMAT_BEGIN
 90
        5
170
     1
 91
        0
 92
        0
 62
   257
 93
        1
300
CONTENTFORMAT
  1
CONTENTFORMAT_BEGIN
 90
        0
 91
        0
 92
      512
 93
        0
300

 40
0.0
140
1.0
 94
        2
 62
     0
340
11
144
0.18
309
CONTENTFORMAT_END
171
     0
 94
        0
309
TABLEFORMAT_END
  1
CELLSTYLE_BEGIN
 90
        3
 91
        2
300
_DATA
309
CELLSTYLE_END
  0
XRECORD
  5
B58
102
{ACAD_REACTORS
330
B57
102
}
330
B57
100
AcDbXrecord
280
     1
102
RTVSPost2010Prop28
280
     1
102
RTVSPost2010PropOp28
 70
     1
102
RTVSPost2010Prop29
280
     1
102
RTVSPost2010PropOp29
 70
     1
102
RTVSPost2010Prop30
280
     0
102
RTVSPost2010PropOp30
 70
     1
102
RTVSPost2010Prop31
280
     0
102
RTVSPost2010PropOp31
 70
     1
102
RTVSPost2010Prop32
280
     0
102
RTVSPost2010PropOp32
 70
     1
102
RTVSPost2010Prop33
280
     0
102
RTVSPost2010PropOp33
 70
     1
102
RTVSPost2010Prop34
280
     0
102
RTVSPost2010PropOp34
 70
     1
102
RTVSPost2010Prop35
280
     0
102
RTVSPost2010PropOp35
 70
     1
102
RTVSPost2010Prop36
280
     0
102
RTVSPost2010PropOp36
 70
     1
102
RTVSPost2010Prop37
 90
       50
102
RTVSPost2010PropOp37
 70
     1
102
RTVSPost2010Prop38
140
0.0
102
RTVSPost2010PropOp38
 70
     1
102
RTVSPost2010Prop39
140
1.0
102
RTVSPost2010PropOp39
 70
     1
102
RTVSPost2010Prop40
 90
        0
102
RTVSPost2010PropOp40
 70
     1
102
RTVSPost2010Prop41ColorIndex
 90
       18
102
RTVSPost2010Prop41ColorRGB
 90
        0
102
RTVSPost2010PropOp41
 70
     1
102
RTVSPost2010Prop42
 90
       50
102
RTVSPost2010PropOp42
 70
     1
102
RTVSPost2010Prop43
 90
        3
102
RTVSPost2010PropOp43
 70
     1
102
RTVSPost2010Prop44ColorIndex
 90
        5
102
RTVSPost2010Prop44ColorRGB
 90
      255
102
RTVSPost2010PropOp44
 70
     1
102
RTVSPost2010Prop45
280
     0
102
RTVSPost2010PropOp45
 70
     1
102
RTVSPost2010Prop46
 90
       50
102
RTVSPost2010PropOp46
 70
     1
102
RTVSPost2010Prop47
 90
       50
102
RTVSPost2010PropOp47
 70
     1
102
RTVSPost2010Prop48
 90
       50
102
RTVSPost2010PropOp48
 70
     1
102
RTVSPost2010Prop49
280
     0
102
RTVSPost2010PropOp49
 70
     1
102
RTVSPost2010Prop50
 90
       50
102
RTVSPost2010PropOp50
 70
     1
102
RTVSPost2010Prop51ColorIndex
 90
      256
102
RTVSPost2010Prop51ColorRGB
 90
-16777216
102
RTVSPost2010PropOp51
 70
     0
102
RTVSPost2010Prop52
140
1.0
102
RTVSPost2010PropOp52
 70
     0
102
RTVSPost2010Prop53
 90
        2
102
RTVSPost2010PropOp53
 70
     1
102
RTVSPost2010Prop54
  1
strokes_ogs.tif
102
RTVSPost2010PropOp54
 70
     1
102
RTVSPost2010Prop55
280
     0
102
RTVSPost2010PropOp55
 70
     1
102
RTVSPost2010Prop56
140
1.0
102
RTVSPost2010PropOp56
 70
     1
102
RTVSPost2010Prop57
140
1.0
102
RTVSPost2010PropOp57
 70
     1
  0
XRECORD
  5
B5C
102
{ACAD_REACTORS
330
B5B
102
}
330
B5B
100
AcDbXrecord
280
     1
102
RTVSPost2010Prop28
280
     0
102
RTVSPost2010PropOp28
 70
     1
102
RTVSPost2010Prop29
280
     1
102
RTVSPost2010PropOp29
 70
     1
102
RTVSPost2010Prop30
280
     1
102
RTVSPost2010PropOp30
 70
     1
102
RTVSPost2010Prop31
280
     0
102
RTVSPost2010PropOp31
 70
     1
102
RTVSPost2010Prop32
280
     0
102
RTVSPost2010PropOp32
 70
     1
102
RTVSPost2010Prop33
280
     0
102
RTVSPost2010PropOp33
 70
     1
102
RTVSPost2010Prop34
280
     0
102
RTVSPost2010PropOp34
 70
     1
102
RTVSPost2010Prop35
280
     0
102
RTVSPost2010PropOp35
 70
     1
102
RTVSPost2010Prop36
280
     0
102
RTVSPost2010PropOp36
 70
     1
102
RTVSPost2010Prop37
 90
       50
102
RTVSPost2010PropOp37
 70
     1
102
RTVSPost2010Prop38
140
0.0
102
RTVSPost2010PropOp38
 70
     1
102
RTVSPost2010Prop39
140
1.0
102
RTVSPost2010PropOp39
 70
     1
102
RTVSPost2010Prop40
 90
        0
102
RTVSPost2010PropOp40
 70
     1
102
RTVSPost2010Prop41ColorIndex
 90
       18
102
RTVSPost2010Prop41ColorRGB
 90
        0
102
RTVSPost2010PropOp41
 70
     1
102
RTVSPost2010Prop42
 90
       50
102
RTVSPost2010PropOp42
 70
     1
102
RTVSPost2010Prop43
 90
        3
102
RTVSPost2010PropOp43
 70
     1
102
RTVSPost2010Prop44ColorIndex
 90
        5
102
RTVSPost2010Prop44ColorRGB
 90
      255
102
RTVSPost2010PropOp44
 70
     1
102
RTVSPost2010Prop45
280
     0
102
RTVSPost2010PropOp45
 70
     1
102
RTVSPost2010Prop46
 90
       50
102
RTVSPost2010PropOp46
 70
     1
102
RTVSPost2010Prop47
 90
       50
102
RTVSPost2010PropOp47
 70
     1
102
RTVSPost2010Prop48
 90
       50
102
RTVSPost2010PropOp48
 70
     1
102
RTVSPost2010Prop49
280
     0
102
RTVSPost2010PropOp49
 70
     1
102
RTVSPost2010Prop50
 90
       50
102
RTVSPost2010PropOp50
 70
     1
102
RTVSPost2010Prop51ColorIndex
 90
      256
102
RTVSPost2010Prop51ColorRGB
 90
-16777216
102
RTVSPost2010PropOp51
 70
     0
102
RTVSPost2010Prop52
140
1.0
102
RTVSPost2010PropOp52
 70
     0
102
RTVSPost2010Prop53
 90
        2
102
RTVSPost2010PropOp53
 70
     1
102
RTVSPost2010Prop54
  1
strokes_ogs.tif
102
RTVSPost2010PropOp54
 70
     1
102
RTVSPost2010Prop55
280
     0
102
RTVSPost2010PropOp55
 70
     1
102
RTVSPost2010Prop56
140
1.0
102
RTVSPost2010PropOp56
 70
     1
102
RTVSPost2010Prop57
140
1.0
102
RTVSPost2010PropOp57
 70
     1
  0
XRECORD
  5
B5A
102
{ACAD_REACTORS
330
B59
102
}
330
B59
100
AcDbXrecord
280
     1
102
RTVSPost2010Prop28
280
     0
102
RTVSPost2010PropOp28
 70
     1
102
RTVSPost2010Prop29
280
     1
102
RTVSPost2010PropOp29
 70
     1
102
RTVSPost2010Prop30
280
     1
102
RTVSPost2010PropOp30
 70
     1
102
RTVSPost2010Prop31
280
     0
102
RTVSPost2010PropOp31
 70
     1
102
RTVSPost2010Prop32
280
     0
102
RTVSPost2010PropOp32
 70
     1
102
RTVSPost2010Prop33
280
     0
102
RTVSPost2010PropOp33
 70
     1
102
RTVSPost2010Prop34
280
     0
102
RTVSPost2010PropOp34
 70
     1
102
RTVSPost2010Prop35
280
     0
102
RTVSPost2010PropOp35
 70
     1
102
RTVSPost2010Prop36
280
     0
102
RTVSPost2010PropOp36
 70
     1
102
RTVSPost2010Prop37
 90
       50
102
RTVSPost2010PropOp37
 70
     1
102
RTVSPost2010Prop38
140
0.0
102
RTVSPost2010PropOp38
 70
     1
102
RTVSPost2010Prop39
140
1.0
102
RTVSPost2010PropOp39
 70
     1
102
RTVSPost2010Prop40
 90
        0
102
RTVSPost2010PropOp40
 70
     1
102
RTVSPost2010Prop41ColorIndex
 90
       18
102
RTVSPost2010Prop41ColorRGB
 90
        0
102
RTVSPost2010PropOp41
 70
     1
102
RTVSPost2010Prop42
 90
       50
102
RTVSPost2010PropOp42
 70
     1
102
RTVSPost2010Prop43
 90
        3
102
RTVSPost2010PropOp43
 70
     1
102
RTVSPost2010Prop44ColorIndex
 90
        5
102
RTVSPost2010Prop44ColorRGB
 90
      255
102
RTVSPost2010PropOp44
 70
     1
102
RTVSPost2010Prop45
280
     0
102
RTVSPost2010PropOp45
 70
     1
102
RTVSPost2010Prop46
 90
       50
102
RTVSPost2010PropOp46
 70
     1
102
RTVSPost2010Prop47
 90
       50
102
RTVSPost2010PropOp47
 70
     1
102
RTVSPost2010Prop48
 90
       50
102
RTVSPost2010PropOp48
 70
     1
102
RTVSPost2010Prop49
280
     0
102
RTVSPost2010PropOp49
 70
     1
102
RTVSPost2010Prop50
 90
       50
102
RTVSPost2010PropOp50
 70
     1
102
RTVSPost2010Prop51ColorIndex
 90
      256
102
RTVSPost2010Prop51ColorRGB
 90
-16777216
102
RTVSPost2010PropOp51
 70
     0
102
RTVSPost2010Prop52
140
1.0
102
RTVSPost2010PropOp52
 70
     0
102
RTVSPost2010Prop53
 90
        2
102
RTVSPost2010PropOp53
 70
     1
102
RTVSPost2010Prop54
  1
strokes_ogs.tif
102
RTVSPost2010PropOp54
 70
     1
102
RTVSPost2010Prop55
280
     0
102
RTVSPost2010PropOp55
 70
     1
102
RTVSPost2010Prop56
140
1.0
102
RTVSPost2010PropOp56
 70
     1
102
RTVSPost2010Prop57
140
1.0
102
RTVSPost2010PropOp57
 70
     1
  0
XRECORD
  5
B5E
102
{ACAD_REACTORS
330
B5D
102
}
330
B5D
100
AcDbXrecord
280
     1
102
RTVSPost2010Prop28
280
     0
102
RTVSPost2010PropOp28
 70
     1
102
RTVSPost2010Prop29
280
     1
102
RTVSPost2010PropOp29
 70
     1
102
RTVSPost2010Prop30
280
     1
102
RTVSPost2010PropOp30
 70
     1
102
RTVSPost2010Prop31
280
     0
102
RTVSPost2010PropOp31
 70
     1
102
RTVSPost2010Prop32
280
     0
102
RTVSPost2010PropOp32
 70
     1
102
RTVSPost2010Prop33
280
     0
102
RTVSPost2010PropOp33
 70
     1
102
RTVSPost2010Prop34
280
     0
102
RTVSPost2010PropOp34
 70
     1
102
RTVSPost2010Prop35
280
     0
102
RTVSPost2010PropOp35
 70
     1
102
RTVSPost2010Prop36
280
     0
102
RTVSPost2010PropOp36
 70
     1
102
RTVSPost2010Prop37
 90
       50
102
RTVSPost2010PropOp37
 70
     1
102
RTVSPost2010Prop38
140
0.0
102
RTVSPost2010PropOp38
 70
     1
102
RTVSPost2010Prop39
140
1.0
102
RTVSPost2010PropOp39
 70
     1
102
RTVSPost2010Prop40
 90
        0
102
RTVSPost2010PropOp40
 70
     1
102
RTVSPost2010Prop41ColorIndex
 90
       18
102
RTVSPost2010Prop41ColorRGB
 90
        0
102
RTVSPost2010PropOp41
 70
     1
102
RTVSPost2010Prop42
 90
       50
102
RTVSPost2010PropOp42
 70
     1
102
RTVSPost2010Prop43
 90
        3
102
RTVSPost2010PropOp43
 70
     1
102
RTVSPost2010Prop44ColorIndex
 90
        5
102
RTVSPost2010Prop44ColorRGB
 90
      255
102
RTVSPost2010PropOp44
 70
     1
102
RTVSPost2010Prop45
280
     0
102
RTVSPost2010PropOp45
 70
     1
102
RTVSPost2010Prop46
 90
       50
102
RTVSPost2010PropOp46
 70
     1
102
RTVSPost2010Prop47
 90
       50
102
RTVSPost2010PropOp47
 70
     1
102
RTVSPost2010Prop48
 90
       50
102
RTVSPost2010PropOp48
 70
     1
102
RTVSPost2010Prop49
280
     0
102
RTVSPost2010PropOp49
 70
     1
102
RTVSPost2010Prop50
 90
       50
102
RTVSPost2010PropOp50
 70
     1
102
RTVSPost2010Prop51ColorIndex
 90
      256
102
RTVSPost2010Prop51ColorRGB
 90
-16777216
102
RTVSPost2010PropOp51
 70
     0
102
RTVSPost2010Prop52
140
1.0
102
RTVSPost2010PropOp52
 70
     0
102
RTVSPost2010Prop53
 90
        2
102
RTVSPost2010PropOp53
 70
     1
102
RTVSPost2010Prop54
  1
strokes_ogs.tif
102
RTVSPost2010PropOp54
 70
     1
102
RTVSPost2010Prop55
280
     0
102
RTVSPost2010PropOp55
 70
     1
102
RTVSPost2010Prop56
140
1.0
102
RTVSPost2010PropOp56
 70
     1
102
RTVSPost2010Prop57
140
1.0
102
RTVSPost2010PropOp57
 70
     1
  0
XRECORD
  5
B66
102
{ACAD_REACTORS
330
B65
102
}
330
B65
100
AcDbXrecord
280
     1
102
RTVSPost2010Prop28
280
     0
102
RTVSPost2010PropOp28
 70
     1
102
RTVSPost2010Prop29
280
     1
102
RTVSPost2010PropOp29
 70
     1
102
RTVSPost2010Prop30
280
     1
102
RTVSPost2010PropOp30
 70
     1
102
RTVSPost2010Prop31
280
     0
102
RTVSPost2010PropOp31
 70
     1
102
RTVSPost2010Prop32
280
     0
102
RTVSPost2010PropOp32
 70
     1
102
RTVSPost2010Prop33
280
     0
102
RTVSPost2010PropOp33
 70
     1
102
RTVSPost2010Prop34
280
     0
102
RTVSPost2010PropOp34
 70
     1
102
RTVSPost2010Prop35
280
     0
102
RTVSPost2010PropOp35
 70
     1
102
RTVSPost2010Prop36
280
     0
102
RTVSPost2010PropOp36
 70
     1
102
RTVSPost2010Prop37
 90
       50
102
RTVSPost2010PropOp37
 70
     1
102
RTVSPost2010Prop38
140
0.0
102
RTVSPost2010PropOp38
 70
     1
102
RTVSPost2010Prop39
140
1.0
102
RTVSPost2010PropOp39
 70
     1
102
RTVSPost2010Prop40
 90
        0
102
RTVSPost2010PropOp40
 70
     1
102
RTVSPost2010Prop41ColorIndex
 90
       18
102
RTVSPost2010Prop41ColorRGB
 90
        0
102
RTVSPost2010PropOp41
 70
     1
102
RTVSPost2010Prop42
 90
       50
102
RTVSPost2010PropOp42
 70
     1
102
RTVSPost2010Prop43
 90
        3
102
RTVSPost2010PropOp43
 70
     1
102
RTVSPost2010Prop44ColorIndex
 90
        5
102
RTVSPost2010Prop44ColorRGB
 90
      255
102
RTVSPost2010PropOp44
 70
     1
102
RTVSPost2010Prop45
280
     0
102
RTVSPost2010PropOp45
 70
     1
102
RTVSPost2010Prop46
 90
       50
102
RTVSPost2010PropOp46
 70
     1
102
RTVSPost2010Prop47
 90
       50
102
RTVSPost2010PropOp47
 70
     1
102
RTVSPost2010Prop48
 90
       50
102
RTVSPost2010PropOp48
 70
     1
102
RTVSPost2010Prop49
280
     0
102
RTVSPost2010PropOp49
 70
     1
102
RTVSPost2010Prop50
 90
       50
102
RTVSPost2010PropOp50
 70
     1
102
RTVSPost2010Prop51ColorIndex
 90
      256
102
RTVSPost2010Prop51ColorRGB
 90
-16777216
102
RTVSPost2010PropOp51
 70
     0
102
RTVSPost2010Prop52
140
1.0
102
RTVSPost2010PropOp52
 70
     0
102
RTVSPost2010Prop53
 90
        2
102
RTVSPost2010PropOp53
 70
     1
102
RTVSPost2010Prop54
  1
strokes_ogs.tif
102
RTVSPost2010PropOp54
 70
     1
102
RTVSPost2010Prop55
280
     0
102
RTVSPost2010PropOp55
 70
     1
102
RTVSPost2010Prop56
140
1.0
102
RTVSPost2010PropOp56
 70
     1
102
RTVSPost2010Prop57
140
1.0
102
RTVSPost2010PropOp57
 70
     1
  0
XRECORD
  5
B6E
102
{ACAD_REACTORS
330
B6D
102
}
330
B6D
100
AcDbXrecord
280
     1
102
RTVSPost2010Prop28
280
     0
102
RTVSPost2010PropOp28
 70
     1
102
RTVSPost2010Prop29
280
     1
102
RTVSPost2010PropOp29
 70
     1
102
RTVSPost2010Prop30
280
     1
102
RTVSPost2010PropOp30
 70
     1
102
RTVSPost2010Prop31
280
     0
102
RTVSPost2010PropOp31
 70
     1
102
RTVSPost2010Prop32
280
     0
102
RTVSPost2010PropOp32
 70
     1
102
RTVSPost2010Prop33
280
     0
102
RTVSPost2010PropOp33
 70
     1
102
RTVSPost2010Prop34
280
     0
102
RTVSPost2010PropOp34
 70
     1
102
RTVSPost2010Prop35
280
     0
102
RTVSPost2010PropOp35
 70
     1
102
RTVSPost2010Prop36
280
     0
102
RTVSPost2010PropOp36
 70
     1
102
RTVSPost2010Prop37
 90
       50
102
RTVSPost2010PropOp37
 70
     1
102
RTVSPost2010Prop38
140
0.0
102
RTVSPost2010PropOp38
 70
     1
102
RTVSPost2010Prop39
140
1.0
102
RTVSPost2010PropOp39
 70
     1
102
RTVSPost2010Prop40
 90
        0
102
RTVSPost2010PropOp40
 70
     1
102
RTVSPost2010Prop41ColorIndex
 90
       18
102
RTVSPost2010Prop41ColorRGB
 90
        0
102
RTVSPost2010PropOp41
 70
     1
102
RTVSPost2010Prop42
 90
       50
102
RTVSPost2010PropOp42
 70
     1
102
RTVSPost2010Prop43
 90
        3
102
RTVSPost2010PropOp43
 70
     1
102
RTVSPost2010Prop44ColorIndex
 90
        5
102
RTVSPost2010Prop44ColorRGB
 90
      255
102
RTVSPost2010PropOp44
 70
     1
102
RTVSPost2010Prop45
280
     0
102
RTVSPost2010PropOp45
 70
     1
102
RTVSPost2010Prop46
 90
       50
102
RTVSPost2010PropOp46
 70
     1
102
RTVSPost2010Prop47
 90
       50
102
RTVSPost2010PropOp47
 70
     1
102
RTVSPost2010Prop48
 90
       50
102
RTVSPost2010PropOp48
 70
     1
102
RTVSPost2010Prop49
280
     0
102
RTVSPost2010PropOp49
 70
     1
102
RTVSPost2010Prop50
 90
       50
102
RTVSPost2010PropOp50
 70
     1
102
RTVSPost2010Prop51ColorIndex
 90
      256
102
RTVSPost2010Prop51ColorRGB
 90
-16777216
102
RTVSPost2010PropOp51
 70
     0
102
RTVSPost2010Prop52
140
1.0
102
RTVSPost2010PropOp52
 70
     0
102
RTVSPost2010Prop53
 90
        2
102
RTVSPost2010PropOp53
 70
     1
102
RTVSPost2010Prop54
  1
strokes_ogs.tif
102
RTVSPost2010PropOp54
 70
     1
102
RTVSPost2010Prop55
280
     0
102
RTVSPost2010PropOp55
 70
     1
102
RTVSPost2010Prop56
140
1.0
102
RTVSPost2010PropOp56
 70
     1
102
RTVSPost2010Prop57
140
1.0
102
RTVSPost2010PropOp57
 70
     1
  0
XRECORD
  5
B62
102
{ACAD_REACTORS
330
B61
102
}
330
B61
100
AcDbXrecord
280
     1
102
RTVSPost2010Prop28
280
     0
102
RTVSPost2010PropOp28
 70
     1
102
RTVSPost2010Prop29
280
     1
102
RTVSPost2010PropOp29
 70
     1
102
RTVSPost2010Prop30
280
     1
102
RTVSPost2010PropOp30
 70
     1
102
RTVSPost2010Prop31
280
     0
102
RTVSPost2010PropOp31
 70
     1
102
RTVSPost2010Prop32
280
     0
102
RTVSPost2010PropOp32
 70
     1
102
RTVSPost2010Prop33
280
     0
102
RTVSPost2010PropOp33
 70
     1
102
RTVSPost2010Prop34
280
     0
102
RTVSPost2010PropOp34
 70
     1
102
RTVSPost2010Prop35
280
     0
102
RTVSPost2010PropOp35
 70
     1
102
RTVSPost2010Prop36
280
     0
102
RTVSPost2010PropOp36
 70
     1
102
RTVSPost2010Prop37
 90
       50
102
RTVSPost2010PropOp37
 70
     1
102
RTVSPost2010Prop38
140
0.0
102
RTVSPost2010PropOp38
 70
     1
102
RTVSPost2010Prop39
140
1.0
102
RTVSPost2010PropOp39
 70
     1
102
RTVSPost2010Prop40
 90
        0
102
RTVSPost2010PropOp40
 70
     1
102
RTVSPost2010Prop41ColorIndex
 90
       18
102
RTVSPost2010Prop41ColorRGB
 90
        0
102
RTVSPost2010PropOp41
 70
     1
102
RTVSPost2010Prop42
 90
       50
102
RTVSPost2010PropOp42
 70
     1
102
RTVSPost2010Prop43
 90
        3
102
RTVSPost2010PropOp43
 70
     1
102
RTVSPost2010Prop44ColorIndex
 90
        5
102
RTVSPost2010Prop44ColorRGB
 90
      255
102
RTVSPost2010PropOp44
 70
     1
102
RTVSPost2010Prop45
280
     0
102
RTVSPost2010PropOp45
 70
     1
102
RTVSPost2010Prop46
 90
       50
102
RTVSPost2010PropOp46
 70
     1
102
RTVSPost2010Prop47
 90
       50
102
RTVSPost2010PropOp47
 70
     1
102
RTVSPost2010Prop48
 90
       50
102
RTVSPost2010PropOp48
 70
     1
102
RTVSPost2010Prop49
280
     0
102
RTVSPost2010PropOp49
 70
     1
102
RTVSPost2010Prop50
 90
       50
102
RTVSPost2010PropOp50
 70
     1
102
RTVSPost2010Prop51ColorIndex
 90
      256
102
RTVSPost2010Prop51ColorRGB
 90
-16777216
102
RTVSPost2010PropOp51
 70
     0
102
RTVSPost2010Prop52
140
1.0
102
RTVSPost2010PropOp52
 70
     0
102
RTVSPost2010Prop53
 90
        2
102
RTVSPost2010PropOp53
 70
     1
102
RTVSPost2010Prop54
  1
strokes_ogs.tif
102
RTVSPost2010PropOp54
 70
     1
102
RTVSPost2010Prop55
280
     0
102
RTVSPost2010PropOp55
 70
     1
102
RTVSPost2010Prop56
140
1.0
102
RTVSPost2010PropOp56
 70
     1
102
RTVSPost2010Prop57
140
1.0
102
RTVSPost2010PropOp57
 70
     1
  0
XRECORD
  5
B64
102
{ACAD_REACTORS
330
B63
102
}
330
B63
100
AcDbXrecord
280
     1
102
RTVSPost2010Prop28
280
     0
102
RTVSPost2010PropOp28
 70
     1
102
RTVSPost2010Prop29
280
     1
102
RTVSPost2010PropOp29
 70
     1
102
RTVSPost2010Prop30
280
     1
102
RTVSPost2010PropOp30
 70
     1
102
RTVSPost2010Prop31
280
     0
102
RTVSPost2010PropOp31
 70
     1
102
RTVSPost2010Prop32
280
     0
102
RTVSPost2010PropOp32
 70
     1
102
RTVSPost2010Prop33
280
     0
102
RTVSPost2010PropOp33
 70
     1
102
RTVSPost2010Prop34
280
     0
102
RTVSPost2010PropOp34
 70
     1
102
RTVSPost2010Prop35
280
     0
102
RTVSPost2010PropOp35
 70
     1
102
RTVSPost2010Prop36
280
     0
102
RTVSPost2010PropOp36
 70
     1
102
RTVSPost2010Prop37
 90
       50
102
RTVSPost2010PropOp37
 70
     1
102
RTVSPost2010Prop38
140
0.0
102
RTVSPost2010PropOp38
 70
     1
102
RTVSPost2010Prop39
140
1.0
102
RTVSPost2010PropOp39
 70
     1
102
RTVSPost2010Prop40
 90
        0
102
RTVSPost2010PropOp40
 70
     1
102
RTVSPost2010Prop41ColorIndex
 90
       18
102
RTVSPost2010Prop41ColorRGB
 90
        0
102
RTVSPost2010PropOp41
 70
     1
102
RTVSPost2010Prop42
 90
       50
102
RTVSPost2010PropOp42
 70
     1
102
RTVSPost2010Prop43
 90
        3
102
RTVSPost2010PropOp43
 70
     1
102
RTVSPost2010Prop44ColorIndex
 90
        5
102
RTVSPost2010Prop44ColorRGB
 90
      255
102
RTVSPost2010PropOp44
 70
     1
102
RTVSPost2010Prop45
280
     0
102
RTVSPost2010PropOp45
 70
     1
102
RTVSPost2010Prop46
 90
       50
102
RTVSPost2010PropOp46
 70
     1
102
RTVSPost2010Prop47
 90
       50
102
RTVSPost2010PropOp47
 70
     1
102
RTVSPost2010Prop48
 90
       50
102
RTVSPost2010PropOp48
 70
     1
102
RTVSPost2010Prop49
280
     0
102
RTVSPost2010PropOp49
 70
     1
102
RTVSPost2010Prop50
 90
       50
102
RTVSPost2010PropOp50
 70
     1
102
RTVSPost2010Prop51ColorIndex
 90
      256
102
RTVSPost2010Prop51ColorRGB
 90
-16777216
102
RTVSPost2010PropOp51
 70
     0
102
RTVSPost2010Prop52
140
1.0
102
RTVSPost2010PropOp52
 70
     0
102
RTVSPost2010Prop53
 90
        2
102
RTVSPost2010PropOp53
 70
     1
102
RTVSPost2010Prop54
  1
strokes_ogs.tif
102
RTVSPost2010PropOp54
 70
     1
102
RTVSPost2010Prop55
280
     0
102
RTVSPost2010PropOp55
 70
     1
102
RTVSPost2010Prop56
140
1.0
102
RTVSPost2010PropOp56
 70
     1
102
RTVSPost2010Prop57
140
1.0
102
RTVSPost2010PropOp57
 70
     1
  0
XRECORD
  5
B82
102
{ACAD_REACTORS
330
B81
102
}
330
B81
100
AcDbXrecord
280
     1
102
RTVSPost2010Prop28
280
     0
102
RTVSPost2010PropOp28
 70
     0
102
RTVSPost2010Prop29
280
     1
102
RTVSPost2010PropOp29
 70
     0
102
RTVSPost2010Prop30
280
     1
102
RTVSPost2010PropOp30
 70
     0
102
RTVSPost2010Prop31
280
     0
102
RTVSPost2010PropOp31
 70
     0
102
RTVSPost2010Prop32
280
     0
102
RTVSPost2010PropOp32
 70
     0
102
RTVSPost2010Prop33
280
     0
102
RTVSPost2010PropOp33
 70
     0
102
RTVSPost2010Prop34
280
     0
102
RTVSPost2010PropOp34
 70
     0
102
RTVSPost2010Prop35
280
     0
102
RTVSPost2010PropOp35
 70
     0
102
RTVSPost2010Prop36
280
     0
102
RTVSPost2010PropOp36
 70
     0
102
RTVSPost2010Prop37
 90
       50
102
RTVSPost2010PropOp37
 70
     0
102
RTVSPost2010Prop38
140
0.0
102
RTVSPost2010PropOp38
 70
     0
102
RTVSPost2010Prop39
140
1.0
102
RTVSPost2010PropOp39
 70
     0
102
RTVSPost2010Prop40
 90
        0
102
RTVSPost2010PropOp40
 70
     0
102
RTVSPost2010Prop41ColorIndex
 90
       18
102
RTVSPost2010Prop41ColorRGB
 90
        0
102
RTVSPost2010PropOp41
 70
     0
102
RTVSPost2010Prop42
 90
       50
102
RTVSPost2010PropOp42
 70
     0
102
RTVSPost2010Prop43
 90
        3
102
RTVSPost2010PropOp43
 70
     0
102
RTVSPost2010Prop44ColorIndex
 90
        5
102
RTVSPost2010Prop44ColorRGB
 90
      255
102
RTVSPost2010PropOp44
 70
     0
102
RTVSPost2010Prop45
280
     0
102
RTVSPost2010PropOp45
 70
     0
102
RTVSPost2010Prop46
 90
       50
102
RTVSPost2010PropOp46
 70
     0
102
RTVSPost2010Prop47
 90
       50
102
RTVSPost2010PropOp47
 70
     0
102
RTVSPost2010Prop48
 90
       50
102
RTVSPost2010PropOp48
 70
     0
102
RTVSPost2010Prop49
280
     0
102
RTVSPost2010PropOp49
 70
     0
102
RTVSPost2010Prop50
 90
       50
102
RTVSPost2010PropOp50
 70
     0
102
RTVSPost2010Prop51ColorIndex
 90
      256
102
RTVSPost2010Prop51ColorRGB
 90
-16777216
102
RTVSPost2010PropOp51
 70
     0
102
RTVSPost2010Prop52
140
1.0
102
RTVSPost2010PropOp52
 70
     0
102
RTVSPost2010Prop53
 90
        2
102
RTVSPost2010PropOp53
 70
     0
102
RTVSPost2010Prop54
  1
strokes_ogs.tif
102
RTVSPost2010PropOp54
 70
     0
102
RTVSPost2010Prop55
280
     0
102
RTVSPost2010PropOp55
 70
     0
102
RTVSPost2010Prop56
140
1.0
102
RTVSPost2010PropOp56
 70
     0
102
RTVSPost2010Prop57
140
1.0
102
RTVSPost2010PropOp57
 70
     0
  0
XRECORD
  5
B6C
102
{ACAD_REACTORS
330
B6B
102
}
330
B6B
100
AcDbXrecord
280
     1
102
RTVSPost2010Prop28
280
     0
102
RTVSPost2010PropOp28
 70
     1
102
RTVSPost2010Prop29
280
     1
102
RTVSPost2010PropOp29
 70
     1
102
RTVSPost2010Prop30
280
     1
102
RTVSPost2010PropOp30
 70
     1
102
RTVSPost2010Prop31
280
     0
102
RTVSPost2010PropOp31
 70
     1
102
RTVSPost2010Prop32
280
     0
102
RTVSPost2010PropOp32
 70
     1
102
RTVSPost2010Prop33
280
     0
102
RTVSPost2010PropOp33
 70
     1
102
RTVSPost2010Prop34
280
     0
102
RTVSPost2010PropOp34
 70
     1
102
RTVSPost2010Prop35
280
     0
102
RTVSPost2010PropOp35
 70
     1
102
RTVSPost2010Prop36
280
     0
102
RTVSPost2010PropOp36
 70
     1
102
RTVSPost2010Prop37
 90
       50
102
RTVSPost2010PropOp37
 70
     1
102
RTVSPost2010Prop38
140
0.0
102
RTVSPost2010PropOp38
 70
     1
102
RTVSPost2010Prop39
140
1.0
102
RTVSPost2010PropOp39
 70
     1
102
RTVSPost2010Prop40
 90
        0
102
RTVSPost2010PropOp40
 70
     1
102
RTVSPost2010Prop41ColorIndex
 90
       18
102
RTVSPost2010Prop41ColorRGB
 90
        0
102
RTVSPost2010PropOp41
 70
     1
102
RTVSPost2010Prop42
 90
       50
102
RTVSPost2010PropOp42
 70
     1
102
RTVSPost2010Prop43
 90
        3
102
RTVSPost2010PropOp43
 70
     1
102
RTVSPost2010Prop44ColorIndex
 90
        5
102
RTVSPost2010Prop44ColorRGB
 90
      255
102
RTVSPost2010PropOp44
 70
     1
102
RTVSPost2010Prop45
280
     0
102
RTVSPost2010PropOp45
 70
     1
102
RTVSPost2010Prop46
 90
       50
102
RTVSPost2010PropOp46
 70
     1
102
RTVSPost2010Prop47
 90
       50
102
RTVSPost2010PropOp47
 70
     1
102
RTVSPost2010Prop48
 90
       50
102
RTVSPost2010PropOp48
 70
     1
102
RTVSPost2010Prop49
280
     0
102
RTVSPost2010PropOp49
 70
     1
102
RTVSPost2010Prop50
 90
       50
102
RTVSPost2010PropOp50
 70
     1
102
RTVSPost2010Prop51ColorIndex
 90
      256
102
RTVSPost2010Prop51ColorRGB
 90
-16777216
102
RTVSPost2010PropOp51
 70
     0
102
RTVSPost2010Prop52
140
1.0
102
RTVSPost2010PropOp52
 70
     0
102
RTVSPost2010Prop53
 90
        2
102
RTVSPost2010PropOp53
 70
     1
102
RTVSPost2010Prop54
  1
strokes_ogs.tif
102
RTVSPost2010PropOp54
 70
     1
102
RTVSPost2010Prop55
280
     0
102
RTVSPost2010PropOp55
 70
     1
102
RTVSPost2010Prop56
140
1.0
102
RTVSPost2010PropOp56
 70
     1
102
RTVSPost2010Prop57
140
1.0
102
RTVSPost2010PropOp57
 70
     1
  0
XRECORD
  5
B50
102
{ACAD_REACTORS
330
B4F
102
}
330
B4F
100
AcDbXrecord
280
     1
102
RTVSPost2010Prop28
280
     0
102
RTVSPost2010PropOp28
 70
     1
102
RTVSPost2010Prop29
280
     1
102
RTVSPost2010PropOp29
 70
     1
102
RTVSPost2010Prop30
280
     1
102
RTVSPost2010PropOp30
 70
     1
102
RTVSPost2010Prop31
280
     0
102
RTVSPost2010PropOp31
 70
     1
102
RTVSPost2010Prop32
280
     0
102
RTVSPost2010PropOp32
 70
     1
102
RTVSPost2010Prop33
280
     0
102
RTVSPost2010PropOp33
 70
     1
102
RTVSPost2010Prop34
280
     0
102
RTVSPost2010PropOp34
 70
     1
102
RTVSPost2010Prop35
280
     0
102
RTVSPost2010PropOp35
 70
     1
102
RTVSPost2010Prop36
280
     0
102
RTVSPost2010PropOp36
 70
     1
102
RTVSPost2010Prop37
 90
       50
102
RTVSPost2010PropOp37
 70
     1
102
RTVSPost2010Prop38
140
0.0
102
RTVSPost2010PropOp38
 70
     1
102
RTVSPost2010Prop39
140
1.0
102
RTVSPost2010PropOp39
 70
     1
102
RTVSPost2010Prop40
 90
        0
102
RTVSPost2010PropOp40
 70
     1
102
RTVSPost2010Prop41ColorIndex
 90
       18
102
RTVSPost2010Prop41ColorRGB
 90
        0
102
RTVSPost2010PropOp41
 70
     1
102
RTVSPost2010Prop42
 90
       50
102
RTVSPost2010PropOp42
 70
     1
102
RTVSPost2010Prop43
 90
        3
102
RTVSPost2010PropOp43
 70
     1
102
RTVSPost2010Prop44ColorIndex
 90
        5
102
RTVSPost2010Prop44ColorRGB
 90
      255
102
RTVSPost2010PropOp44
 70
     1
102
RTVSPost2010Prop45
280
     0
102
RTVSPost2010PropOp45
 70
     1
102
RTVSPost2010Prop46
 90
       50
102
RTVSPost2010PropOp46
 70
     1
102
RTVSPost2010Prop47
 90
       50
102
RTVSPost2010PropOp47
 70
     1
102
RTVSPost2010Prop48
 90
       50
102
RTVSPost2010PropOp48
 70
     1
102
RTVSPost2010Prop49
280
     0
102
RTVSPost2010PropOp49
 70
     1
102
RTVSPost2010Prop50
 90
       50
102
RTVSPost2010PropOp50
 70
     1
102
RTVSPost2010Prop51ColorIndex
 90
      256
102
RTVSPost2010Prop51ColorRGB
 90
-16777216
102
RTVSPost2010PropOp51
 70
     0
102
RTVSPost2010Prop52
140
1.0
102
RTVSPost2010PropOp52
 70
     0
102
RTVSPost2010Prop53
 90
        2
102
RTVSPost2010PropOp53
 70
     1
102
RTVSPost2010Prop54
  1
strokes_ogs.tif
102
RTVSPost2010PropOp54
 70
     1
102
RTVSPost2010Prop55
280
     0
102
RTVSPost2010PropOp55
 70
     1
102
RTVSPost2010Prop56
140
1.0
102
RTVSPost2010PropOp56
 70
     1
102
RTVSPost2010Prop57
140
1.0
102
RTVSPost2010PropOp57
 70
     1
  0
XRECORD
  5
B52
102
{ACAD_REACTORS
330
B51
102
}
330
B51
100
AcDbXrecord
280
     1
102
RTVSPost2010Prop28
280
     0
102
RTVSPost2010PropOp28
 70
     1
102
RTVSPost2010Prop29
280
     1
102
RTVSPost2010PropOp29
 70
     1
102
RTVSPost2010Prop30
280
     1
102
RTVSPost2010PropOp30
 70
     1
102
RTVSPost2010Prop31
280
     0
102
RTVSPost2010PropOp31
 70
     1
102
RTVSPost2010Prop32
280
     0
102
RTVSPost2010PropOp32
 70
     1
102
RTVSPost2010Prop33
280
     0
102
RTVSPost2010PropOp33
 70
     1
102
RTVSPost2010Prop34
280
     0
102
RTVSPost2010PropOp34
 70
     1
102
RTVSPost2010Prop35
280
     0
102
RTVSPost2010PropOp35
 70
     1
102
RTVSPost2010Prop36
280
     0
102
RTVSPost2010PropOp36
 70
     1
102
RTVSPost2010Prop37
 90
       50
102
RTVSPost2010PropOp37
 70
     1
102
RTVSPost2010Prop38
140
0.0
102
RTVSPost2010PropOp38
 70
     1
102
RTVSPost2010Prop39
140
1.0
102
RTVSPost2010PropOp39
 70
     1
102
RTVSPost2010Prop40
 90
        0
102
RTVSPost2010PropOp40
 70
     1
102
RTVSPost2010Prop41ColorIndex
 90
       18
102
RTVSPost2010Prop41ColorRGB
 90
        0
102
RTVSPost2010PropOp41
 70
     1
102
RTVSPost2010Prop42
 90
       50
102
RTVSPost2010PropOp42
 70
     1
102
RTVSPost2010Prop43
 90
        3
102
RTVSPost2010PropOp43
 70
     1
102
RTVSPost2010Prop44ColorIndex
 90
        5
102
RTVSPost2010Prop44ColorRGB
 90
      255
102
RTVSPost2010PropOp44
 70
     1
102
RTVSPost2010Prop45
280
     0
102
RTVSPost2010PropOp45
 70
     1
102
RTVSPost2010Prop46
 90
       50
102
RTVSPost2010PropOp46
 70
     1
102
RTVSPost2010Prop47
 90
       50
102
RTVSPost2010PropOp47
 70
     1
102
RTVSPost2010Prop48
 90
       50
102
RTVSPost2010PropOp48
 70
     1
102
RTVSPost2010Prop49
280
     0
102
RTVSPost2010PropOp49
 70
     1
102
RTVSPost2010Prop50
 90
       50
102
RTVSPost2010PropOp50
 70
     1
102
RTVSPost2010Prop51ColorIndex
 90
      256
102
RTVSPost2010Prop51ColorRGB
 90
-16777216
102
RTVSPost2010PropOp51
 70
     0
102
RTVSPost2010Prop52
140
1.0
102
RTVSPost2010PropOp52
 70
     0
102
RTVSPost2010Prop53
 90
        2
102
RTVSPost2010PropOp53
 70
     1
102
RTVSPost2010Prop54
  1
strokes_ogs.tif
102
RTVSPost2010PropOp54
 70
     1
102
RTVSPost2010Prop55
280
     0
102
RTVSPost2010PropOp55
 70
     1
102
RTVSPost2010Prop56
140
1.0
102
RTVSPost2010PropOp56
 70
     1
102
RTVSPost2010Prop57
140
1.0
102
RTVSPost2010PropOp57
 70
     1
  0
XRECORD
  5
B54
102
{ACAD_REACTORS
330
B53
102
}
330
B53
100
AcDbXrecord
280
     1
102
RTVSPost2010Prop28
280
     0
102
RTVSPost2010PropOp28
 70
     1
102
RTVSPost2010Prop29
280
     1
102
RTVSPost2010PropOp29
 70
     1
102
RTVSPost2010Prop30
280
     1
102
RTVSPost2010PropOp30
 70
     1
102
RTVSPost2010Prop31
280
     0
102
RTVSPost2010PropOp31
 70
     1
102
RTVSPost2010Prop32
280
     0
102
RTVSPost2010PropOp32
 70
     1
102
RTVSPost2010Prop33
280
     0
102
RTVSPost2010PropOp33
 70
     1
102
RTVSPost2010Prop34
280
     0
102
RTVSPost2010PropOp34
 70
     1
102
RTVSPost2010Prop35
280
     0
102
RTVSPost2010PropOp35
 70
     1
102
RTVSPost2010Prop36
280
     0
102
RTVSPost2010PropOp36
 70
     1
102
RTVSPost2010Prop37
 90
       50
102
RTVSPost2010PropOp37
 70
     1
102
RTVSPost2010Prop38
140
0.0
102
RTVSPost2010PropOp38
 70
     1
102
RTVSPost2010Prop39
140
1.0
102
RTVSPost2010PropOp39
 70
     1
102
RTVSPost2010Prop40
 90
        0
102
RTVSPost2010PropOp40
 70
     1
102
RTVSPost2010Prop41ColorIndex
 90
       18
102
RTVSPost2010Prop41ColorRGB
 90
        0
102
RTVSPost2010PropOp41
 70
     1
102
RTVSPost2010Prop42
 90
       50
102
RTVSPost2010PropOp42
 70
     1
102
RTVSPost2010Prop43
 90
        3
102
RTVSPost2010PropOp43
 70
     1
102
RTVSPost2010Prop44ColorIndex
 90
        5
102
RTVSPost2010Prop44ColorRGB
 90
      255
102
RTVSPost2010PropOp44
 70
     1
102
RTVSPost2010Prop45
280
     0
102
RTVSPost2010PropOp45
 70
     1
102
RTVSPost2010Prop46
 90
       50
102
RTVSPost2010PropOp46
 70
     1
102
RTVSPost2010Prop47
 90
       50
102
RTVSPost2010PropOp47
 70
     1
102
RTVSPost2010Prop48
 90
       50
102
RTVSPost2010PropOp48
 70
     1
102
RTVSPost2010Prop49
280
     0
102
RTVSPost2010PropOp49
 70
     1
102
RTVSPost2010Prop50
 90
       50
102
RTVSPost2010PropOp50
 70
     1
102
RTVSPost2010Prop51ColorIndex
 90
      256
102
RTVSPost2010Prop51ColorRGB
 90
-16777216
102
RTVSPost2010PropOp51
 70
     0
102
RTVSPost2010Prop52
140
1.0
102
RTVSPost2010PropOp52
 70
     0
102
RTVSPost2010Prop53
 90
        2
102
RTVSPost2010PropOp53
 70
     1
102
RTVSPost2010Prop54
  1
strokes_ogs.tif
102
RTVSPost2010PropOp54
 70
     1
102
RTVSPost2010Prop55
280
     0
102
RTVSPost2010PropOp55
 70
     1
102
RTVSPost2010Prop56
140
1.0
102
RTVSPost2010PropOp56
 70
     1
102
RTVSPost2010Prop57
140
1.0
102
RTVSPost2010PropOp57
 70
     1
  0
XRECORD
  5
B56
102
{ACAD_REACTORS
330
B55
102
}
330
B55
100
AcDbXrecord
280
     1
102
RTVSPost2010Prop28
280
     0
102
RTVSPost2010PropOp28
 70
     1
102
RTVSPost2010Prop29
280
     1
102
RTVSPost2010PropOp29
 70
     1
102
RTVSPost2010Prop30
280
     1
102
RTVSPost2010PropOp30
 70
     1
102
RTVSPost2010Prop31
280
     0
102
RTVSPost2010PropOp31
 70
     1
102
RTVSPost2010Prop32
280
     0
102
RTVSPost2010PropOp32
 70
     1
102
RTVSPost2010Prop33
280
     0
102
RTVSPost2010PropOp33
 70
     1
102
RTVSPost2010Prop34
280
     0
102
RTVSPost2010PropOp34
 70
     1
102
RTVSPost2010Prop35
280
     0
102
RTVSPost2010PropOp35
 70
     1
102
RTVSPost2010Prop36
280
     0
102
RTVSPost2010PropOp36
 70
     1
102
RTVSPost2010Prop37
 90
       50
102
RTVSPost2010PropOp37
 70
     1
102
RTVSPost2010Prop38
140
0.0
102
RTVSPost2010PropOp38
 70
     1
102
RTVSPost2010Prop39
140
1.0
102
RTVSPost2010PropOp39
 70
     1
102
RTVSPost2010Prop40
 90
        0
102
RTVSPost2010PropOp40
 70
     1
102
RTVSPost2010Prop41ColorIndex
 90
       18
102
RTVSPost2010Prop41ColorRGB
 90
        0
102
RTVSPost2010PropOp41
 70
     1
102
RTVSPost2010Prop42
 90
       50
102
RTVSPost2010PropOp42
 70
     1
102
RTVSPost2010Prop43
 90
        3
102
RTVSPost2010PropOp43
 70
     1
102
RTVSPost2010Prop44ColorIndex
 90
        5
102
RTVSPost2010Prop44ColorRGB
 90
      255
102
RTVSPost2010PropOp44
 70
     1
102
RTVSPost2010Prop45
280
     0
102
RTVSPost2010PropOp45
 70
     1
102
RTVSPost2010Prop46
 90
       50
102
RTVSPost2010PropOp46
 70
     1
102
RTVSPost2010Prop47
 90
       50
102
RTVSPost2010PropOp47
 70
     1
102
RTVSPost2010Prop48
 90
       50
102
RTVSPost2010PropOp48
 70
     1
102
RTVSPost2010Prop49
280
     0
102
RTVSPost2010PropOp49
 70
     1
102
RTVSPost2010Prop50
 90
       50
102
RTVSPost2010PropOp50
 70
     1
102
RTVSPost2010Prop51ColorIndex
 90
      256
102
RTVSPost2010Prop51ColorRGB
 90
-16777216
102
RTVSPost2010PropOp51
 70
     0
102
RTVSPost2010Prop52
140
1.0
102
RTVSPost2010PropOp52
 70
     0
102
RTVSPost2010Prop53
 90
        2
102
RTVSPost2010PropOp53
 70
     1
102
RTVSPost2010Prop54
  1
strokes_ogs.tif
102
RTVSPost2010PropOp54
 70
     1
102
RTVSPost2010Prop55
280
     0
102
RTVSPost2010PropOp55
 70
     1
102
RTVSPost2010Prop56
140
1.0
102
RTVSPost2010PropOp56
 70
     1
102
RTVSPost2010Prop57
140
1.0
102
RTVSPost2010PropOp57
 70
     1
  0
XRECORD
  5
B72
102
{ACAD_REACTORS
330
B71
102
}
330
B71
100
AcDbXrecord
280
     1
102
RTVSPost2010Prop28
280
     0
102
RTVSPost2010PropOp28
 70
     1
102
RTVSPost2010Prop29
280
     1
102
RTVSPost2010PropOp29
 70
     1
102
RTVSPost2010Prop30
280
     1
102
RTVSPost2010PropOp30
 70
     1
102
RTVSPost2010Prop31
280
     0
102
RTVSPost2010PropOp31
 70
     1
102
RTVSPost2010Prop32
280
     0
102
RTVSPost2010PropOp32
 70
     1
102
RTVSPost2010Prop33
280
     0
102
RTVSPost2010PropOp33
 70
     1
102
RTVSPost2010Prop34
280
     0
102
RTVSPost2010PropOp34
 70
     1
102
RTVSPost2010Prop35
280
     0
102
RTVSPost2010PropOp35
 70
     1
102
RTVSPost2010Prop36
280
     0
102
RTVSPost2010PropOp36
 70
     1
102
RTVSPost2010Prop37
 90
       50
102
RTVSPost2010PropOp37
 70
     1
102
RTVSPost2010Prop38
140
0.0
102
RTVSPost2010PropOp38
 70
     1
102
RTVSPost2010Prop39
140
1.0
102
RTVSPost2010PropOp39
 70
     1
102
RTVSPost2010Prop40
 90
        0
102
RTVSPost2010PropOp40
 70
     1
102
RTVSPost2010Prop41ColorIndex
 90
       18
102
RTVSPost2010Prop41ColorRGB
 90
        0
102
RTVSPost2010PropOp41
 70
     1
102
RTVSPost2010Prop42
 90
       50
102
RTVSPost2010PropOp42
 70
     1
102
RTVSPost2010Prop43
 90
        3
102
RTVSPost2010PropOp43
 70
     1
102
RTVSPost2010Prop44ColorIndex
 90
        5
102
RTVSPost2010Prop44ColorRGB
 90
      255
102
RTVSPost2010PropOp44
 70
     1
102
RTVSPost2010Prop45
280
     0
102
RTVSPost2010PropOp45
 70
     1
102
RTVSPost2010Prop46
 90
       50
102
RTVSPost2010PropOp46
 70
     1
102
RTVSPost2010Prop47
 90
       50
102
RTVSPost2010PropOp47
 70
     1
102
RTVSPost2010Prop48
 90
       50
102
RTVSPost2010PropOp48
 70
     1
102
RTVSPost2010Prop49
280
     0
102
RTVSPost2010PropOp49
 70
     1
102
RTVSPost2010Prop50
 90
       50
102
RTVSPost2010PropOp50
 70
     1
102
RTVSPost2010Prop51ColorIndex
 90
      256
102
RTVSPost2010Prop51ColorRGB
 90
-16777216
102
RTVSPost2010PropOp51
 70
     0
102
RTVSPost2010Prop52
140
1.0
102
RTVSPost2010PropOp52
 70
     0
102
RTVSPost2010Prop53
 90
        2
102
RTVSPost2010PropOp53
 70
     1
102
RTVSPost2010Prop54
  1
strokes_ogs.tif
102
RTVSPost2010PropOp54
 70
     1
102
RTVSPost2010Prop55
280
     0
102
RTVSPost2010PropOp55
 70
     1
102
RTVSPost2010Prop56
140
1.0
102
RTVSPost2010PropOp56
 70
     1
102
RTVSPost2010Prop57
140
1.0
102
RTVSPost2010PropOp57
 70
     1
  0
XRECORD
  5
B7E
102
{ACAD_REACTORS
330
B7D
102
}
330
B7D
100
AcDbXrecord
280
     1
102
RTVSPost2010Prop28
280
     0
102
RTVSPost2010PropOp28
 70
     0
102
RTVSPost2010Prop29
280
     1
102
RTVSPost2010PropOp29
 70
     0
102
RTVSPost2010Prop30
280
     1
102
RTVSPost2010PropOp30
 70
     0
102
RTVSPost2010Prop31
280
     0
102
RTVSPost2010PropOp31
 70
     0
102
RTVSPost2010Prop32
280
     0
102
RTVSPost2010PropOp32
 70
     0
102
RTVSPost2010Prop33
280
     0
102
RTVSPost2010PropOp33
 70
     0
102
RTVSPost2010Prop34
280
     0
102
RTVSPost2010PropOp34
 70
     0
102
RTVSPost2010Prop35
280
     0
102
RTVSPost2010PropOp35
 70
     0
102
RTVSPost2010Prop36
280
     0
102
RTVSPost2010PropOp36
 70
     0
102
RTVSPost2010Prop37
 90
       50
102
RTVSPost2010PropOp37
 70
     0
102
RTVSPost2010Prop38
140
0.0
102
RTVSPost2010PropOp38
 70
     0
102
RTVSPost2010Prop39
140
1.0
102
RTVSPost2010PropOp39
 70
     0
102
RTVSPost2010Prop40
 90
        0
102
RTVSPost2010PropOp40
 70
     0
102
RTVSPost2010Prop41ColorIndex
 90
       18
102
RTVSPost2010Prop41ColorRGB
 90
        0
102
RTVSPost2010PropOp41
 70
     0
102
RTVSPost2010Prop42
 90
       50
102
RTVSPost2010PropOp42
 70
     0
102
RTVSPost2010Prop43
 90
        3
102
RTVSPost2010PropOp43
 70
     0
102
RTVSPost2010Prop44ColorIndex
 90
        5
102
RTVSPost2010Prop44ColorRGB
 90
      255
102
RTVSPost2010PropOp44
 70
     0
102
RTVSPost2010Prop45
280
     0
102
RTVSPost2010PropOp45
 70
     0
102
RTVSPost2010Prop46
 90
       50
102
RTVSPost2010PropOp46
 70
     0
102
RTVSPost2010Prop47
 90
       50
102
RTVSPost2010PropOp47
 70
     0
102
RTVSPost2010Prop48
 90
       50
102
RTVSPost2010PropOp48
 70
     0
102
RTVSPost2010Prop49
280
     0
102
RTVSPost2010PropOp49
 70
     0
102
RTVSPost2010Prop50
 90
       50
102
RTVSPost2010PropOp50
 70
     0
102
RTVSPost2010Prop51ColorIndex
 90
      256
102
RTVSPost2010Prop51ColorRGB
 90
-16777216
102
RTVSPost2010PropOp51
 70
     0
102
RTVSPost2010Prop52
140
1.0
102
RTVSPost2010PropOp52
 70
     0
102
RTVSPost2010Prop53
 90
        2
102
RTVSPost2010PropOp53
 70
     0
102
RTVSPost2010Prop54
  1
strokes_ogs.tif
102
RTVSPost2010PropOp54
 70
     0
102
RTVSPost2010Prop55
280
     0
102
RTVSPost2010PropOp55
 70
     0
102
RTVSPost2010Prop56
140
1.0
102
RTVSPost2010PropOp56
 70
     0
102
RTVSPost2010Prop57
140
1.0
102
RTVSPost2010PropOp57
 70
     0
  0
XRECORD
  5
B6A
102
{ACAD_REACTORS
330
B69
102
}
330
B69
100
AcDbXrecord
280
     1
102
RTVSPost2010Prop28
280
     0
102
RTVSPost2010PropOp28
 70
     1
102
RTVSPost2010Prop29
280
     1
102
RTVSPost2010PropOp29
 70
     1
102
RTVSPost2010Prop30
280
     1
102
RTVSPost2010PropOp30
 70
     1
102
RTVSPost2010Prop31
280
     0
102
RTVSPost2010PropOp31
 70
     1
102
RTVSPost2010Prop32
280
     0
102
RTVSPost2010PropOp32
 70
     1
102
RTVSPost2010Prop33
280
     0
102
RTVSPost2010PropOp33
 70
     1
102
RTVSPost2010Prop34
280
     0
102
RTVSPost2010PropOp34
 70
     1
102
RTVSPost2010Prop35
280
     0
102
RTVSPost2010PropOp35
 70
     1
102
RTVSPost2010Prop36
280
     0
102
RTVSPost2010PropOp36
 70
     1
102
RTVSPost2010Prop37
 90
       50
102
RTVSPost2010PropOp37
 70
     1
102
RTVSPost2010Prop38
140
0.0
102
RTVSPost2010PropOp38
 70
     1
102
RTVSPost2010Prop39
140
1.0
102
RTVSPost2010PropOp39
 70
     1
102
RTVSPost2010Prop40
 90
        0
102
RTVSPost2010PropOp40
 70
     1
102
RTVSPost2010Prop41ColorIndex
 90
       18
102
RTVSPost2010Prop41ColorRGB
 90
        0
102
RTVSPost2010PropOp41
 70
     1
102
RTVSPost2010Prop42
 90
       50
102
RTVSPost2010PropOp42
 70
     1
102
RTVSPost2010Prop43
 90
        3
102
RTVSPost2010PropOp43
 70
     1
102
RTVSPost2010Prop44ColorIndex
 90
        5
102
RTVSPost2010Prop44ColorRGB
 90
      255
102
RTVSPost2010PropOp44
 70
     1
102
RTVSPost2010Prop45
280
     0
102
RTVSPost2010PropOp45
 70
     1
102
RTVSPost2010Prop46
 90
       50
102
RTVSPost2010PropOp46
 70
     1
102
RTVSPost2010Prop47
 90
       50
102
RTVSPost2010PropOp47
 70
     1
102
RTVSPost2010Prop48
 90
       50
102
RTVSPost2010PropOp48
 70
     1
102
RTVSPost2010Prop49
280
     0
102
RTVSPost2010PropOp49
 70
     1
102
RTVSPost2010Prop50
 90
       50
102
RTVSPost2010PropOp50
 70
     1
102
RTVSPost2010Prop51ColorIndex
 90
      256
102
RTVSPost2010Prop51ColorRGB
 90
-16777216
102
RTVSPost2010PropOp51
 70
     0
102
RTVSPost2010Prop52
140
1.0
102
RTVSPost2010PropOp52
 70
     0
102
RTVSPost2010Prop53
 90
        2
102
RTVSPost2010PropOp53
 70
     1
102
RTVSPost2010Prop54
  1
strokes_ogs.tif
102
RTVSPost2010PropOp54
 70
     1
102
RTVSPost2010Prop55
280
     0
102
RTVSPost2010PropOp55
 70
     1
102
RTVSPost2010Prop56
140
1.0
102
RTVSPost2010PropOp56
 70
     1
102
RTVSPost2010Prop57
140
1.0
102
RTVSPost2010PropOp57
 70
     1
  0
XRECORD
  5
B80
102
{ACAD_REACTORS
330
B7F
102
}
330
B7F
100
AcDbXrecord
280
     1
102
RTVSPost2010Prop28
280
     0
102
RTVSPost2010PropOp28
 70
     0
102
RTVSPost2010Prop29
280
     1
102
RTVSPost2010PropOp29
 70
     0
102
RTVSPost2010Prop30
280
     1
102
RTVSPost2010PropOp30
 70
     0
102
RTVSPost2010Prop31
280
     0
102
RTVSPost2010PropOp31
 70
     0
102
RTVSPost2010Prop32
280
     0
102
RTVSPost2010PropOp32
 70
     0
102
RTVSPost2010Prop33
280
     0
102
RTVSPost2010PropOp33
 70
     0
102
RTVSPost2010Prop34
280
     0
102
RTVSPost2010PropOp34
 70
     0
102
RTVSPost2010Prop35
280
     0
102
RTVSPost2010PropOp35
 70
     0
102
RTVSPost2010Prop36
280
     0
102
RTVSPost2010PropOp36
 70
     0
102
RTVSPost2010Prop37
 90
       50
102
RTVSPost2010PropOp37
 70
     0
102
RTVSPost2010Prop38
140
0.0
102
RTVSPost2010PropOp38
 70
     0
102
RTVSPost2010Prop39
140
1.0
102
RTVSPost2010PropOp39
 70
     0
102
RTVSPost2010Prop40
 90
        0
102
RTVSPost2010PropOp40
 70
     0
102
RTVSPost2010Prop41ColorIndex
 90
       18
102
RTVSPost2010Prop41ColorRGB
 90
        0
102
RTVSPost2010PropOp41
 70
     0
102
RTVSPost2010Prop42
 90
       50
102
RTVSPost2010PropOp42
 70
     0
102
RTVSPost2010Prop43
 90
        3
102
RTVSPost2010PropOp43
 70
     0
102
RTVSPost2010Prop44ColorIndex
 90
        5
102
RTVSPost2010Prop44ColorRGB
 90
      255
102
RTVSPost2010PropOp44
 70
     0
102
RTVSPost2010Prop45
280
     0
102
RTVSPost2010PropOp45
 70
     0
102
RTVSPost2010Prop46
 90
       50
102
RTVSPost2010PropOp46
 70
     0
102
RTVSPost2010Prop47
 90
       50
102
RTVSPost2010PropOp47
 70
     0
102
RTVSPost2010Prop48
 90
       50
102
RTVSPost2010PropOp48
 70
     0
102
RTVSPost2010Prop49
280
     0
102
RTVSPost2010PropOp49
 70
     0
102
RTVSPost2010Prop50
 90
       50
102
RTVSPost2010PropOp50
 70
     0
102
RTVSPost2010Prop51ColorIndex
 90
      256
102
RTVSPost2010Prop51ColorRGB
 90
-16777216
102
RTVSPost2010PropOp51
 70
     0
102
RTVSPost2010Prop52
140
1.0
102
RTVSPost2010PropOp52
 70
     0
102
RTVSPost2010Prop53
 90
        2
102
RTVSPost2010PropOp53
 70
     0
102
RTVSPost2010Prop54
  1
strokes_ogs.tif
102
RTVSPost2010PropOp54
 70
     0
102
RTVSPost2010Prop55
280
     0
102
RTVSPost2010PropOp55
 70
     0
102
RTVSPost2010Prop56
140
1.0
102
RTVSPost2010PropOp56
 70
     0
102
RTVSPost2010Prop57
140
1.0
102
RTVSPost2010PropOp57
 70
     0
  0
XRECORD
  5
B60
102
{ACAD_REACTORS
330
B5F
102
}
330
B5F
100
AcDbXrecord
280
     1
102
RTVSPost2010Prop28
280
     0
102
RTVSPost2010PropOp28
 70
     1
102
RTVSPost2010Prop29
280
     1
102
RTVSPost2010PropOp29
 70
     1
102
RTVSPost2010Prop30
280
     1
102
RTVSPost2010PropOp30
 70
     1
102
RTVSPost2010Prop31
280
     0
102
RTVSPost2010PropOp31
 70
     1
102
RTVSPost2010Prop32
280
     0
102
RTVSPost2010PropOp32
 70
     1
102
RTVSPost2010Prop33
280
     0
102
RTVSPost2010PropOp33
 70
     1
102
RTVSPost2010Prop34
280
     0
102
RTVSPost2010PropOp34
 70
     1
102
RTVSPost2010Prop35
280
     0
102
RTVSPost2010PropOp35
 70
     1
102
RTVSPost2010Prop36
280
     0
102
RTVSPost2010PropOp36
 70
     1
102
RTVSPost2010Prop37
 90
       50
102
RTVSPost2010PropOp37
 70
     1
102
RTVSPost2010Prop38
140
0.0
102
RTVSPost2010PropOp38
 70
     1
102
RTVSPost2010Prop39
140
1.0
102
RTVSPost2010PropOp39
 70
     1
102
RTVSPost2010Prop40
 90
        0
102
RTVSPost2010PropOp40
 70
     1
102
RTVSPost2010Prop41ColorIndex
 90
       18
102
RTVSPost2010Prop41ColorRGB
 90
        0
102
RTVSPost2010PropOp41
 70
     1
102
RTVSPost2010Prop42
 90
       50
102
RTVSPost2010PropOp42
 70
     1
102
RTVSPost2010Prop43
 90
        3
102
RTVSPost2010PropOp43
 70
     1
102
RTVSPost2010Prop44ColorIndex
 90
        5
102
RTVSPost2010Prop44ColorRGB
 90
      255
102
RTVSPost2010PropOp44
 70
     1
102
RTVSPost2010Prop45
280
     0
102
RTVSPost2010PropOp45
 70
     1
102
RTVSPost2010Prop46
 90
       50
102
RTVSPost2010PropOp46
 70
     1
102
RTVSPost2010Prop47
 90
       50
102
RTVSPost2010PropOp47
 70
     1
102
RTVSPost2010Prop48
 90
       50
102
RTVSPost2010PropOp48
 70
     1
102
RTVSPost2010Prop49
280
     0
102
RTVSPost2010PropOp49
 70
     1
102
RTVSPost2010Prop50
 90
       50
102
RTVSPost2010PropOp50
 70
     1
102
RTVSPost2010Prop51ColorIndex
 90
      256
102
RTVSPost2010Prop51ColorRGB
 90
-16777216
102
RTVSPost2010PropOp51
 70
     0
102
RTVSPost2010Prop52
140
1.0
102
RTVSPost2010PropOp52
 70
     0
102
RTVSPost2010Prop53
 90
        2
102
RTVSPost2010PropOp53
 70
     1
102
RTVSPost2010Prop54
  1
strokes_ogs.tif
102
RTVSPost2010PropOp54
 70
     1
102
RTVSPost2010Prop55
280
     0
102
RTVSPost2010PropOp55
 70
     1
102
RTVSPost2010Prop56
140
1.0
102
RTVSPost2010PropOp56
 70
     1
102
RTVSPost2010Prop57
140
1.0
102
RTVSPost2010PropOp57
 70
     1
  0
XRECORD
  5
B7C
102
{ACAD_REACTORS
330
B7B
102
}
330
B7B
100
AcDbXrecord
280
     1
102
RTVSPost2010Prop28
280
     0
102
RTVSPost2010PropOp28
 70
     1
102
RTVSPost2010Prop29
280
     1
102
RTVSPost2010PropOp29
 70
     1
102
RTVSPost2010Prop30
280
     1
102
RTVSPost2010PropOp30
 70
     1
102
RTVSPost2010Prop31
280
     0
102
RTVSPost2010PropOp31
 70
     1
102
RTVSPost2010Prop32
280
     0
102
RTVSPost2010PropOp32
 70
     1
102
RTVSPost2010Prop33
280
     0
102
RTVSPost2010PropOp33
 70
     1
102
RTVSPost2010Prop34
280
     0
102
RTVSPost2010PropOp34
 70
     1
102
RTVSPost2010Prop35
280
     0
102
RTVSPost2010PropOp35
 70
     1
102
RTVSPost2010Prop36
280
     0
102
RTVSPost2010PropOp36
 70
     1
102
RTVSPost2010Prop37
 90
       50
102
RTVSPost2010PropOp37
 70
     1
102
RTVSPost2010Prop38
140
0.0
102
RTVSPost2010PropOp38
 70
     1
102
RTVSPost2010Prop39
140
1.0
102
RTVSPost2010PropOp39
 70
     1
102
RTVSPost2010Prop40
 90
        0
102
RTVSPost2010PropOp40
 70
     1
102
RTVSPost2010Prop41ColorIndex
 90
       18
102
RTVSPost2010Prop41ColorRGB
 90
        0
102
RTVSPost2010PropOp41
 70
     1
102
RTVSPost2010Prop42
 90
       50
102
RTVSPost2010PropOp42
 70
     1
102
RTVSPost2010Prop43
 90
        3
102
RTVSPost2010PropOp43
 70
     1
102
RTVSPost2010Prop44ColorIndex
 90
        5
102
RTVSPost2010Prop44ColorRGB
 90
      255
102
RTVSPost2010PropOp44
 70
     1
102
RTVSPost2010Prop45
280
     0
102
RTVSPost2010PropOp45
 70
     1
102
RTVSPost2010Prop46
 90
       50
102
RTVSPost2010PropOp46
 70
     1
102
RTVSPost2010Prop47
 90
       50
102
RTVSPost2010PropOp47
 70
     1
102
RTVSPost2010Prop48
 90
       50
102
RTVSPost2010PropOp48
 70
     1
102
RTVSPost2010Prop49
280
     0
102
RTVSPost2010PropOp49
 70
     1
102
RTVSPost2010Prop50
 90
       50
102
RTVSPost2010PropOp50
 70
     1
102
RTVSPost2010Prop51ColorIndex
 90
      256
102
RTVSPost2010Prop51ColorRGB
 90
-16777216
102
RTVSPost2010PropOp51
 70
     0
102
RTVSPost2010Prop52
140
1.0
102
RTVSPost2010PropOp52
 70
     0
102
RTVSPost2010Prop53
 90
        2
102
RTVSPost2010PropOp53
 70
     1
102
RTVSPost2010Prop54
  1
strokes_ogs.tif
102
RTVSPost2010PropOp54
 70
     1
102
RTVSPost2010Prop55
280
     0
102
RTVSPost2010PropOp55
 70
     1
102
RTVSPost2010Prop56
140
1.0
102
RTVSPost2010PropOp56
 70
     1
102
RTVSPost2010Prop57
140
1.0
102
RTVSPost2010PropOp57
 70
     1
  0
XRECORD
  5
B7A
102
{ACAD_REACTORS
330
B79
102
}
330
B79
100
AcDbXrecord
280
     1
102
RTVSPost2010Prop28
280
     0
102
RTVSPost2010PropOp28
 70
     1
102
RTVSPost2010Prop29
280
     1
102
RTVSPost2010PropOp29
 70
     1
102
RTVSPost2010Prop30
280
     1
102
RTVSPost2010PropOp30
 70
     1
102
RTVSPost2010Prop31
280
     0
102
RTVSPost2010PropOp31
 70
     1
102
RTVSPost2010Prop32
280
     0
102
RTVSPost2010PropOp32
 70
     1
102
RTVSPost2010Prop33
280
     0
102
RTVSPost2010PropOp33
 70
     1
102
RTVSPost2010Prop34
280
     0
102
RTVSPost2010PropOp34
 70
     1
102
RTVSPost2010Prop35
280
     0
102
RTVSPost2010PropOp35
 70
     1
102
RTVSPost2010Prop36
280
     0
102
RTVSPost2010PropOp36
 70
     1
102
RTVSPost2010Prop37
 90
       50
102
RTVSPost2010PropOp37
 70
     1
102
RTVSPost2010Prop38
140
0.0
102
RTVSPost2010PropOp38
 70
     1
102
RTVSPost2010Prop39
140
1.0
102
RTVSPost2010PropOp39
 70
     1
102
RTVSPost2010Prop40
 90
        0
102
RTVSPost2010PropOp40
 70
     1
102
RTVSPost2010Prop41ColorIndex
 90
       18
102
RTVSPost2010Prop41ColorRGB
 90
        0
102
RTVSPost2010PropOp41
 70
     1
102
RTVSPost2010Prop42
 90
       50
102
RTVSPost2010PropOp42
 70
     1
102
RTVSPost2010Prop43
 90
        3
102
RTVSPost2010PropOp43
 70
     1
102
RTVSPost2010Prop44ColorIndex
 90
        5
102
RTVSPost2010Prop44ColorRGB
 90
      255
102
RTVSPost2010PropOp44
 70
     1
102
RTVSPost2010Prop45
280
     0
102
RTVSPost2010PropOp45
 70
     1
102
RTVSPost2010Prop46
 90
       50
102
RTVSPost2010PropOp46
 70
     1
102
RTVSPost2010Prop47
 90
       50
102
RTVSPost2010PropOp47
 70
     1
102
RTVSPost2010Prop48
 90
       50
102
RTVSPost2010PropOp48
 70
     1
102
RTVSPost2010Prop49
280
     0
102
RTVSPost2010PropOp49
 70
     1
102
RTVSPost2010Prop50
 90
       50
102
RTVSPost2010PropOp50
 70
     1
102
RTVSPost2010Prop51ColorIndex
 90
      256
102
RTVSPost2010Prop51ColorRGB
 90
-16777216
102
RTVSPost2010PropOp51
 70
     0
102
RTVSPost2010Prop52
140
1.0
102
RTVSPost2010PropOp52
 70
     0
102
RTVSPost2010Prop53
 90
        2
102
RTVSPost2010PropOp53
 70
     1
102
RTVSPost2010Prop54
  1
strokes_ogs.tif
102
RTVSPost2010PropOp54
 70
     1
102
RTVSPost2010Prop55
280
     0
102
RTVSPost2010PropOp55
 70
     1
102
RTVSPost2010Prop56
140
1.0
102
RTVSPost2010PropOp56
 70
     1
102
RTVSPost2010Prop57
140
1.0
102
RTVSPost2010PropOp57
 70
     1
  0
XRECORD
  5
B74
102
{ACAD_REACTORS
330
B73
102
}
330
B73
100
AcDbXrecord
280
     1
102
RTVSPost2010Prop28
280
     0
102
RTVSPost2010PropOp28
 70
     1
102
RTVSPost2010Prop29
280
     1
102
RTVSPost2010PropOp29
 70
     1
102
RTVSPost2010Prop30
280
     1
102
RTVSPost2010PropOp30
 70
     1
102
RTVSPost2010Prop31
280
     0
102
RTVSPost2010PropOp31
 70
     1
102
RTVSPost2010Prop32
280
     0
102
RTVSPost2010PropOp32
 70
     1
102
RTVSPost2010Prop33
280
     0
102
RTVSPost2010PropOp33
 70
     1
102
RTVSPost2010Prop34
280
     0
102
RTVSPost2010PropOp34
 70
     1
102
RTVSPost2010Prop35
280
     0
102
RTVSPost2010PropOp35
 70
     1
102
RTVSPost2010Prop36
280
     0
102
RTVSPost2010PropOp36
 70
     1
102
RTVSPost2010Prop37
 90
       50
102
RTVSPost2010PropOp37
 70
     1
102
RTVSPost2010Prop38
140
0.0
102
RTVSPost2010PropOp38
 70
     1
102
RTVSPost2010Prop39
140
1.0
102
RTVSPost2010PropOp39
 70
     1
102
RTVSPost2010Prop40
 90
        0
102
RTVSPost2010PropOp40
 70
     1
102
RTVSPost2010Prop41ColorIndex
 90
       18
102
RTVSPost2010Prop41ColorRGB
 90
        0
102
RTVSPost2010PropOp41
 70
     1
102
RTVSPost2010Prop42
 90
       50
102
RTVSPost2010PropOp42
 70
     1
102
RTVSPost2010Prop43
 90
        3
102
RTVSPost2010PropOp43
 70
     1
102
RTVSPost2010Prop44ColorIndex
 90
        5
102
RTVSPost2010Prop44ColorRGB
 90
      255
102
RTVSPost2010PropOp44
 70
     1
102
RTVSPost2010Prop45
280
     0
102
RTVSPost2010PropOp45
 70
     1
102
RTVSPost2010Prop46
 90
       50
102
RTVSPost2010PropOp46
 70
     1
102
RTVSPost2010Prop47
 90
       50
102
RTVSPost2010PropOp47
 70
     1
102
RTVSPost2010Prop48
 90
       50
102
RTVSPost2010PropOp48
 70
     1
102
RTVSPost2010Prop49
280
     0
102
RTVSPost2010PropOp49
 70
     1
102
RTVSPost2010Prop50
 90
       50
102
RTVSPost2010PropOp50
 70
     1
102
RTVSPost2010Prop51ColorIndex
 90
      256
102
RTVSPost2010Prop51ColorRGB
 90
-16777216
102
RTVSPost2010PropOp51
 70
     0
102
RTVSPost2010Prop52
140
1.0
102
RTVSPost2010PropOp52
 70
     0
102
RTVSPost2010Prop53
 90
        2
102
RTVSPost2010PropOp53
 70
     1
102
RTVSPost2010Prop54
  1
strokes_ogs.tif
102
RTVSPost2010PropOp54
 70
     1
102
RTVSPost2010Prop55
280
     0
102
RTVSPost2010PropOp55
 70
     1
102
RTVSPost2010Prop56
140
1.0
102
RTVSPost2010PropOp56
 70
     1
102
RTVSPost2010Prop57
140
1.0
102
RTVSPost2010PropOp57
 70
     1
  0
XRECORD
  5
B76
102
{ACAD_REACTORS
330
B75
102
}
330
B75
100
AcDbXrecord
280
     1
102
RTVSPost2010Prop28
280
     0
102
RTVSPost2010PropOp28
 70
     1
102
RTVSPost2010Prop29
280
     1
102
RTVSPost2010PropOp29
 70
     1
102
RTVSPost2010Prop30
280
     1
102
RTVSPost2010PropOp30
 70
     1
102
RTVSPost2010Prop31
280
     0
102
RTVSPost2010PropOp31
 70
     1
102
RTVSPost2010Prop32
280
     0
102
RTVSPost2010PropOp32
 70
     1
102
RTVSPost2010Prop33
280
     0
102
RTVSPost2010PropOp33
 70
     1
102
RTVSPost2010Prop34
280
     0
102
RTVSPost2010PropOp34
 70
     1
102
RTVSPost2010Prop35
280
     0
102
RTVSPost2010PropOp35
 70
     1
102
RTVSPost2010Prop36
280
     0
102
RTVSPost2010PropOp36
 70
     1
102
RTVSPost2010Prop37
 90
       50
102
RTVSPost2010PropOp37
 70
     1
102
RTVSPost2010Prop38
140
0.0
102
RTVSPost2010PropOp38
 70
     1
102
RTVSPost2010Prop39
140
1.0
102
RTVSPost2010PropOp39
 70
     1
102
RTVSPost2010Prop40
 90
        0
102
RTVSPost2010PropOp40
 70
     1
102
RTVSPost2010Prop41ColorIndex
 90
       18
102
RTVSPost2010Prop41ColorRGB
 90
        0
102
RTVSPost2010PropOp41
 70
     1
102
RTVSPost2010Prop42
 90
       50
102
RTVSPost2010PropOp42
 70
     1
102
RTVSPost2010Prop43
 90
        3
102
RTVSPost2010PropOp43
 70
     1
102
RTVSPost2010Prop44ColorIndex
 90
        5
102
RTVSPost2010Prop44ColorRGB
 90
      255
102
RTVSPost2010PropOp44
 70
     1
102
RTVSPost2010Prop45
280
     0
102
RTVSPost2010PropOp45
 70
     1
102
RTVSPost2010Prop46
 90
       50
102
RTVSPost2010PropOp46
 70
     1
102
RTVSPost2010Prop47
 90
       50
102
RTVSPost2010PropOp47
 70
     1
102
RTVSPost2010Prop48
 90
       50
102
RTVSPost2010PropOp48
 70
     1
102
RTVSPost2010Prop49
280
     0
102
RTVSPost2010PropOp49
 70
     1
102
RTVSPost2010Prop50
 90
       50
102
RTVSPost2010PropOp50
 70
     1
102
RTVSPost2010Prop51ColorIndex
 90
      256
102
RTVSPost2010Prop51ColorRGB
 90
-16777216
102
RTVSPost2010PropOp51
 70
     0
102
RTVSPost2010Prop52
140
1.0
102
RTVSPost2010PropOp52
 70
     0
102
RTVSPost2010Prop53
 90
        2
102
RTVSPost2010PropOp53
 70
     1
102
RTVSPost2010Prop54
  1
strokes_ogs.tif
102
RTVSPost2010PropOp54
 70
     1
102
RTVSPost2010Prop55
280
     0
102
RTVSPost2010PropOp55
 70
     1
102
RTVSPost2010Prop56
140
1.0
102
RTVSPost2010PropOp56
 70
     1
102
RTVSPost2010Prop57
140
1.0
102
RTVSPost2010PropOp57
 70
     1
  0
XRECORD
  5
B68
102
{ACAD_REACTORS
330
B67
102
}
330
B67
100
AcDbXrecord
280
     1
102
RTVSPost2010Prop28
280
     0
102
RTVSPost2010PropOp28
 70
     1
102
RTVSPost2010Prop29
280
     1
102
RTVSPost2010PropOp29
 70
     1
102
RTVSPost2010Prop30
280
     1
102
RTVSPost2010PropOp30
 70
     1
102
RTVSPost2010Prop31
280
     0
102
RTVSPost2010PropOp31
 70
     1
102
RTVSPost2010Prop32
280
     0
102
RTVSPost2010PropOp32
 70
     1
102
RTVSPost2010Prop33
280
     0
102
RTVSPost2010PropOp33
 70
     1
102
RTVSPost2010Prop34
280
     0
102
RTVSPost2010PropOp34
 70
     1
102
RTVSPost2010Prop35
280
     0
102
RTVSPost2010PropOp35
 70
     1
102
RTVSPost2010Prop36
280
     0
102
RTVSPost2010PropOp36
 70
     1
102
RTVSPost2010Prop37
 90
       50
102
RTVSPost2010PropOp37
 70
     1
102
RTVSPost2010Prop38
140
0.0
102
RTVSPost2010PropOp38
 70
     1
102
RTVSPost2010Prop39
140
1.0
102
RTVSPost2010PropOp39
 70
     1
102
RTVSPost2010Prop40
 90
        0
102
RTVSPost2010PropOp40
 70
     1
102
RTVSPost2010Prop41ColorIndex
 90
       18
102
RTVSPost2010Prop41ColorRGB
 90
        0
102
RTVSPost2010PropOp41
 70
     1
102
RTVSPost2010Prop42
 90
       50
102
RTVSPost2010PropOp42
 70
     1
102
RTVSPost2010Prop43
 90
        3
102
RTVSPost2010PropOp43
 70
     1
102
RTVSPost2010Prop44ColorIndex
 90
        5
102
RTVSPost2010Prop44ColorRGB
 90
      255
102
RTVSPost2010PropOp44
 70
     1
102
RTVSPost2010Prop45
280
     0
102
RTVSPost2010PropOp45
 70
     1
102
RTVSPost2010Prop46
 90
       50
102
RTVSPost2010PropOp46
 70
     1
102
RTVSPost2010Prop47
 90
       50
102
RTVSPost2010PropOp47
 70
     1
102
RTVSPost2010Prop48
 90
       50
102
RTVSPost2010PropOp48
 70
     1
102
RTVSPost2010Prop49
280
     0
102
RTVSPost2010PropOp49
 70
     1
102
RTVSPost2010Prop50
 90
       50
102
RTVSPost2010PropOp50
 70
     1
102
RTVSPost2010Prop51ColorIndex
 90
      256
102
RTVSPost2010Prop51ColorRGB
 90
-16777216
102
RTVSPost2010PropOp51
 70
     0
102
RTVSPost2010Prop52
140
1.0
102
RTVSPost2010PropOp52
 70
     0
102
RTVSPost2010Prop53
 90
        2
102
RTVSPost2010PropOp53
 70
     1
102
RTVSPost2010Prop54
  1
strokes_ogs.tif
102
RTVSPost2010PropOp54
 70
     1
102
RTVSPost2010Prop55
280
     0
102
RTVSPost2010PropOp55
 70
     1
102
RTVSPost2010Prop56
140
1.0
102
RTVSPost2010PropOp56
 70
     1
102
RTVSPost2010Prop57
140
1.0
102
RTVSPost2010PropOp57
 70
     1
  0
XRECORD
  5
B70
102
{ACAD_REACTORS
330
B6F
102
}
330
B6F
100
AcDbXrecord
280
     1
102
RTVSPost2010Prop28
280
     0
102
RTVSPost2010PropOp28
 70
     1
102
RTVSPost2010Prop29
280
     1
102
RTVSPost2010PropOp29
 70
     1
102
RTVSPost2010Prop30
280
     1
102
RTVSPost2010PropOp30
 70
     1
102
RTVSPost2010Prop31
280
     0
102
RTVSPost2010PropOp31
 70
     1
102
RTVSPost2010Prop32
280
     0
102
RTVSPost2010PropOp32
 70
     1
102
RTVSPost2010Prop33
280
     0
102
RTVSPost2010PropOp33
 70
     1
102
RTVSPost2010Prop34
280
     0
102
RTVSPost2010PropOp34
 70
     1
102
RTVSPost2010Prop35
280
     0
102
RTVSPost2010PropOp35
 70
     1
102
RTVSPost2010Prop36
280
     0
102
RTVSPost2010PropOp36
 70
     1
102
RTVSPost2010Prop37
 90
       50
102
RTVSPost2010PropOp37
 70
     1
102
RTVSPost2010Prop38
140
0.0
102
RTVSPost2010PropOp38
 70
     1
102
RTVSPost2010Prop39
140
1.0
102
RTVSPost2010PropOp39
 70
     1
102
RTVSPost2010Prop40
 90
        0
102
RTVSPost2010PropOp40
 70
     1
102
RTVSPost2010Prop41ColorIndex
 90
       18
102
RTVSPost2010Prop41ColorRGB
 90
        0
102
RTVSPost2010PropOp41
 70
     1
102
RTVSPost2010Prop42
 90
       50
102
RTVSPost2010PropOp42
 70
     1
102
RTVSPost2010Prop43
 90
        3
102
RTVSPost2010PropOp43
 70
     1
102
RTVSPost2010Prop44ColorIndex
 90
        5
102
RTVSPost2010Prop44ColorRGB
 90
      255
102
RTVSPost2010PropOp44
 70
     1
102
RTVSPost2010Prop45
280
     0
102
RTVSPost2010PropOp45
 70
     1
102
RTVSPost2010Prop46
 90
       50
102
RTVSPost2010PropOp46
 70
     1
102
RTVSPost2010Prop47
 90
       50
102
RTVSPost2010PropOp47
 70
     1
102
RTVSPost2010Prop48
 90
       50
102
RTVSPost2010PropOp48
 70
     1
102
RTVSPost2010Prop49
280
     0
102
RTVSPost2010PropOp49
 70
     1
102
RTVSPost2010Prop50
 90
       50
102
RTVSPost2010PropOp50
 70
     1
102
RTVSPost2010Prop51ColorIndex
 90
      256
102
RTVSPost2010Prop51ColorRGB
 90
-16777216
102
RTVSPost2010PropOp51
 70
     0
102
RTVSPost2010Prop52
140
1.0
102
RTVSPost2010PropOp52
 70
     0
102
RTVSPost2010Prop53
 90
        2
102
RTVSPost2010PropOp53
 70
     1
102
RTVSPost2010Prop54
  1
strokes_ogs.tif
102
RTVSPost2010PropOp54
 70
     1
102
RTVSPost2010Prop55
280
     0
102
RTVSPost2010PropOp55
 70
     1
102
RTVSPost2010Prop56
140
1.0
102
RTVSPost2010PropOp56
 70
     1
102
RTVSPost2010Prop57
140
1.0
102
RTVSPost2010PropOp57
 70
     1
  0
XRECORD
  5
B78
102
{ACAD_REACTORS
330
B77
102
}
330
B77
100
AcDbXrecord
280
     1
102
RTVSPost2010Prop28
280
     0
102
RTVSPost2010PropOp28
 70
     1
102
RTVSPost2010Prop29
280
     1
102
RTVSPost2010PropOp29
 70
     1
102
RTVSPost2010Prop30
280
     1
102
RTVSPost2010PropOp30
 70
     1
102
RTVSPost2010Prop31
280
     0
102
RTVSPost2010PropOp31
 70
     1
102
RTVSPost2010Prop32
280
     0
102
RTVSPost2010PropOp32
 70
     1
102
RTVSPost2010Prop33
280
     0
102
RTVSPost2010PropOp33
 70
     1
102
RTVSPost2010Prop34
280
     0
102
RTVSPost2010PropOp34
 70
     1
102
RTVSPost2010Prop35
280
     0
102
RTVSPost2010PropOp35
 70
     1
102
RTVSPost2010Prop36
280
     0
102
RTVSPost2010PropOp36
 70
     1
102
RTVSPost2010Prop37
 90
       50
102
RTVSPost2010PropOp37
 70
     1
102
RTVSPost2010Prop38
140
0.0
102
RTVSPost2010PropOp38
 70
     1
102
RTVSPost2010Prop39
140
1.0
102
RTVSPost2010PropOp39
 70
     1
102
RTVSPost2010Prop40
 90
        0
102
RTVSPost2010PropOp40
 70
     1
102
RTVSPost2010Prop41ColorIndex
 90
       18
102
RTVSPost2010Prop41ColorRGB
 90
        0
102
RTVSPost2010PropOp41
 70
     1
102
RTVSPost2010Prop42
 90
       50
102
RTVSPost2010PropOp42
 70
     1
102
RTVSPost2010Prop43
 90
        3
102
RTVSPost2010PropOp43
 70
     1
102
RTVSPost2010Prop44ColorIndex
 90
        5
102
RTVSPost2010Prop44ColorRGB
 90
      255
102
RTVSPost2010PropOp44
 70
     1
102
RTVSPost2010Prop45
280
     0
102
RTVSPost2010PropOp45
 70
     1
102
RTVSPost2010Prop46
 90
       50
102
RTVSPost2010PropOp46
 70
     1
102
RTVSPost2010Prop47
 90
       50
102
RTVSPost2010PropOp47
 70
     1
102
RTVSPost2010Prop48
 90
       50
102
RTVSPost2010PropOp48
 70
     1
102
RTVSPost2010Prop49
280
     0
102
RTVSPost2010PropOp49
 70
     1
102
RTVSPost2010Prop50
 90
       50
102
RTVSPost2010PropOp50
 70
     1
102
RTVSPost2010Prop51ColorIndex
 90
      256
102
RTVSPost2010Prop51ColorRGB
 90
-16777216
102
RTVSPost2010PropOp51
 70
     0
102
RTVSPost2010Prop52
140
1.0
102
RTVSPost2010PropOp52
 70
     0
102
RTVSPost2010Prop53
 90
        2
102
RTVSPost2010PropOp53
 70
     1
102
RTVSPost2010Prop54
  1
strokes_ogs.tif
102
RTVSPost2010PropOp54
 70
     1
102
RTVSPost2010Prop55
280
     0
102
RTVSPost2010PropOp55
 70
     1
102
RTVSPost2010Prop56
140
1.0
102
RTVSPost2010PropOp56
 70
     1
102
RTVSPost2010Prop57
140
1.0
102
RTVSPost2010PropOp57
 70
     1
  0
ENDSEC
  0
EOF
