  0
SECTION
  2
HEADER
  9
$ACADVER
  1
AC1021
  9
$ACADMAINTVER
 70
     1
  9
$DWGCODEPAGE
  3
ANSI_1252
  9
$LASTSAVEDBY
  1
danielv
  9
$INSBASE
 10
0.0
 20
0.0
 30
0.0
  9
$EXTMIN
 10
1491.443075188763
 20
1022.699305408806
 30
-0.0015258207003583
  9
$EXTMAX
 10
1800.346197498724
 20
1247.848136680162
 30
0.0000000349246037
  9
$LIMMIN
 10
0.0
 20
0.0
  9
$LIMMAX
 10
12.0
 20
9.0
  9
$ORTHOMODE
 70
     0
  9
$REGENMODE
 70
     1
  9
$FILLMODE
 70
     1
  9
$QTEXTMODE
 70
     0
  9
$MIRRTEXT
 70
     0
  9
$LTSCALE
 40
1.0
  9
$ATTMODE
 70
     1
  9
$TEXTSIZE
 40
0.2
  9
$TRACEWID
 40
0.05
  9
$TEXTSTYLE
  7
CS-Text
  9
$CLAYER
  8
CS-Text
  9
$CELTYPE
  6
ByLayer
  9
$CECOLOR
 62
   256
  9
$CELTSCALE
 40
1.0
  9
$DISPSILH
 70
     0
  9
$DIMSCALE
 40
1.0
  9
$DIMASZ
 40
0.18
  9
$DIMEXO
 40
0.0625
  9
$DIMDLI
 40
0.38
  9
$DIMRND
 40
0.0
  9
$DIMDLE
 40
0.0
  9
$DIMEXE
 40
0.18
  9
$DIMTP
 40
0.0
  9
$DIMTM
 40
0.0
  9
$DIMTXT
 40
0.18
  9
$DIMCEN
 40
0.09
  9
$DIMTSZ
 40
0.0
  9
$DIMTOL
 70
     0
  9
$DIMLIM
 70
     0
  9
$DIMTIH
 70
     1
  9
$DIMTOH
 70
     1
  9
$DIMSE1
 70
     0
  9
$DIMSE2
 70
     0
  9
$DIMTAD
 70
     0
  9
$DIMZIN
 70
     0
  9
$DIMBLK
  1

  9
$DIMASO
 70
     1
  9
$DIMSHO
 70
     1
  9
$DIMPOST
  1

  9
$DIMAPOST
  1

  9
$DIMALT
 70
     0
  9
$DIMALTD
 70
     2
  9
$DIMALTF
 40
25.4
  9
$DIMLFAC
 40
1.0
  9
$DIMTOFL
 70
     0
  9
$DIMTVP
 40
0.0
  9
$DIMTIX
 70
     0
  9
$DIMSOXD
 70
     0
  9
$DIMSAH
 70
     0
  9
$DIMBLK1
  1

  9
$DIMBLK2
  1

  9
$DIMSTYLE
  2
Standard
  9
$DIMCLRD
 70
     0
  9
$DIMCLRE
 70
     0
  9
$DIMCLRT
 70
     0
  9
$DIMTFAC
 40
1.0
  9
$DIMGAP
 40
0.09
  9
$DIMJUST
 70
     0
  9
$DIMSD1
 70
     0
  9
$DIMSD2
 70
     0
  9
$DIMTOLJ
 70
     1
  9
$DIMTZIN
 70
     0
  9
$DIMALTZ
 70
     0
  9
$DIMALTTZ
 70
     0
  9
$DIMUPT
 70
     0
  9
$DIMDEC
 70
     4
  9
$DIMTDEC
 70
     4
  9
$DIMALTU
 70
     2
  9
$DIMALTTD
 70
     2
  9
$DIMTXSTY
  7
CS-Text
  9
$DIMAUNIT
 70
     1
  9
$DIMADEC
 70
     0
  9
$DIMALTRND
 40
0.0
  9
$DIMAZIN
 70
     0
  9
$DIMDSEP
 70
    46
  9
$DIMATFIT
 70
     3
  9
$DIMFRAC
 70
     0
  9
$DIMLDRBLK
  1

  9
$DIMLUNIT
 70
     2
  9
$DIMLWD
 70
    -2
  9
$DIMLWE
 70
    -2
  9
$DIMTMOVE
 70
     0
  9
$DIMFXL
 40
1.0
  9
$DIMFXLON
 70
     0
  9
$DIMJOGANG
 40
0.7853981633974483
  9
$DIMTFILL
 70
     0
  9
$DIMTFILLCLR
 70
     0
  9
$DIMARCSYM
 70
     0
  9
$DIMLTYPE
  6

  9
$DIMLTEX1
  6

  9
$DIMLTEX2
  6

  9
$LUNITS
 70
     2
  9
$LUPREC
 70
     4
  9
$SKETCHINC
 40
0.1
  9
$FILLETRAD
 40
0.0
  9
$AUNITS
 70
     0
  9
$AUPREC
 70
     0
  9
$MENU
  1
.
  9
$ELEVATION
 40
0.0
  9
$PELEVATION
 40
0.0
  9
$THICKNESS
 40
0.0
  9
$LIMCHECK
 70
     0
  9
$CHAMFERA
 40
0.0
  9
$CHAMFERB
 40
0.0
  9
$CHAMFERC
 40
0.0
  9
$CHAMFERD
 40
0.0
  9
$SKPOLY
 70
     0
  9
$TDCREATE
 40
2456211.377628391
  9
$TDUCREATE
 40
2456210.835961725
  9
$TDUPDATE
 40
2456211.391268449
  9
$TDUUPDATE
 40
2456210.849601782
  9
$TDINDWG
 40
0.0068475463
  9
$TDUSRTIMER
 40
0.0068475463
  9
$USRTIMER
 70
     1
  9
$ANGBASE
 50
0.0
  9
$ANGDIR
 70
     0
  9
$PDMODE
 70
     0
  9
$PDSIZE
 40
0.0
  9
$PLINEWID
 40
0.0
  9
$SPLFRAME
 70
     0
  9
$SPLINETYPE
 70
     6
  9
$SPLINESEGS
 70
     8
  9
$HANDSEED
  5
4FC
  9
$SURFTAB1
 70
     6
  9
$SURFTAB2
 70
     6
  9
$SURFTYPE
 70
     6
  9
$SURFU
 70
     6
  9
$SURFV
 70
     6
  9
$UCSBASE
  2

  9
$UCSNAME
  2

  9
$UCSORG
 10
0.0
 20
0.0
 30
0.0
  9
$UCSXDIR
 10
1.0
 20
0.0
 30
0.0
  9
$UCSYDIR
 10
0.0
 20
1.0
 30
0.0
  9
$UCSORTHOREF
  2

  9
$UCSORTHOVIEW
 70
     0
  9
$UCSORGTOP
 10
0.0
 20
0.0
 30
0.0
  9
$UCSORGBOTTOM
 10
0.0
 20
0.0
 30
0.0
  9
$UCSORGLEFT
 10
0.0
 20
0.0
 30
0.0
  9
$UCSORGRIGHT
 10
0.0
 20
0.0
 30
0.0
  9
$UCSORGFRONT
 10
0.0
 20
0.0
 30
0.0
  9
$UCSORGBACK
 10
0.0
 20
0.0
 30
0.0
  9
$PUCSBASE
  2

  9
$PUCSNAME
  2

  9
$PUCSORG
 10
0.0
 20
0.0
 30
0.0
  9
$PUCSXDIR
 10
1.0
 20
0.0
 30
0.0
  9
$PUCSYDIR
 10
0.0
 20
1.0
 30
0.0
  9
$PUCSORTHOREF
  2

  9
$PUCSORTHOVIEW
 70
     0
  9
$PUCSORGTOP
 10
0.0
 20
0.0
 30
0.0
  9
$PUCSORGBOTTOM
 10
0.0
 20
0.0
 30
0.0
  9
$PUCSORGLEFT
 10
0.0
 20
0.0
 30
0.0
  9
$PUCSORGRIGHT
 10
0.0
 20
0.0
 30
0.0
  9
$PUCSORGFRONT
 10
0.0
 20
0.0
 30
0.0
  9
$PUCSORGBACK
 10
0.0
 20
0.0
 30
0.0
  9
$USERI1
 70
     0
  9
$USERI2
 70
     0
  9
$USERI3
 70
     0
  9
$USERI4
 70
     0
  9
$USERI5
 70
     0
  9
$USERR1
 40
0.0
  9
$USERR2
 40
0.0
  9
$USERR3
 40
0.0
  9
$USERR4
 40
0.0
  9
$USERR5
 40
0.0
  9
$WORLDVIEW
 70
     1
  9
$SHADEDGE
 70
     3
  9
$SHADEDIF
 70
    70
  9
$TILEMODE
 70
     0
  9
$MAXACTVP
 70
    64
  9
$PINSBASE
 10
0.0
 20
0.0
 30
0.0
  9
$PLIMCHECK
 70
     0
  9
$PEXTMIN
 10
-67.05256002566864
 20
7.182814027480219
 30
-0.0000000000112498
  9
$PEXTMAX
 10
192.1620943615789
 20
177.6194232320869
 30
0.0000000000002956
  9
$PLIMMIN
 10
-71.58876593201266
 20
2.628765910733894
  9
$PLIMMAX
 10
196.7187692589591
 20
192.3643463813555
  9
$UNITMODE
 70
     0
  9
$VISRETAIN
 70
     1
  9
$PLINEGEN
 70
     0
  9
$PSLTSCALE
 70
     1
  9
$TREEDEPTH
 70
  3020
  9
$CMLSTYLE
  2
Standard
  9
$CMLJUST
 70
     0
  9
$CMLSCALE
 40
1.0
  9
$PROXYGRAPHICS
 70
     1
  9
$MEASUREMENT
 70
     1
  9
$CELWEIGHT
370
    -1
  9
$ENDCAPS
280
     0
  9
$JOINSTYLE
280
     0
  9
$LWDISPLAY
290
     0
  9
$INSUNITS
 70
     4
  9
$HYPERLINKBASE
  1

  9
$STYLESHEET
  1

  9
$XEDIT
290
     1
  9
$CEPSNTYPE
380
     0
  9
$PSTYLEMODE
290
     1
  9
$FINGERPRINTGUID
  2
{0D4C7EF4-264C-481B-9BE0-75336085BE10}
  9
$VERSIONGUID
  2
{B52C6383-F32A-46BA-9922-A81F3594A4E8}
  9
$EXTNAMES
290
     1
  9
$PSVPSCALE
 40
0.0
  9
$OLESTARTUP
290
     0
  9
$SORTENTS
280
   127
  9
$INDEXCTL
280
     0
  9
$HIDETEXT
280
     1
  9
$XCLIPFRAME
290
     1
  9
$HALOGAP
280
     0
  9
$OBSCOLOR
 70
   257
  9
$OBSLTYPE
280
     0
  9
$INTERSECTIONDISPLAY
280
     0
  9
$INTERSECTIONCOLOR
 70
   257
  9
$DIMASSOC
280
     2
  9
$PROJECTNAME
  1

  9
$CAMERADISPLAY
290
     0
  9
$LENSLENGTH
 40
50.0
  9
$CAMERAHEIGHT
 40
0.0
  9
$STEPSPERSEC
 40
2.0
  9
$STEPSIZE
 40
6.0
  9
$3DDWFPREC
 40
2.0
  9
$PSOLWIDTH
 40
0.25
  9
$PSOLHEIGHT
 40
4.0
  9
$LOFTANG1
 40
1.570796326794897
  9
$LOFTANG2
 40
1.570796326794897
  9
$LOFTMAG1
 40
0.0
  9
$LOFTMAG2
 40
0.0
  9
$LOFTPARAM
 70
     7
  9
$LOFTNORMALS
280
     1
  9
$LATITUDE
 40
37.795
  9
$LONGITUDE
 40
-122.394
  9
$NORTHDIRECTION
 40
0.0
  9
$TIMEZONE
 70
 -8000
  9
$LIGHTGLYPHDISPLAY
280
     1
  9
$TILEMODELIGHTSYNCH
280
     1
  9
$SOLIDHIST
280
     1
  9
$SHOWHIST
280
     1
  9
$DWFFRAME
280
     2
  9
$DGNFRAME
280
     2
  9
$REALWORLDSCALE
290
     1
  9
$INTERFERECOLOR
 62
   256
  9
$CSHADOW
280
     0
  9
$SHADOWPLANELOCATION
 40
0.0
  0
ENDSEC
  0
SECTION
  2
CLASSES
  0
CLASS
  1
ACDBDICTIONARYWDFLT
  2
AcDbDictionaryWithDefault
  3
ObjectDBX Classes
 90
        0
 91
        3
280
     0
281
     0
  0
CLASS
  1
MATERIAL
  2
AcDbMaterial
  3
ObjectDBX Classes
 90
     1024
 91
        3
280
     0
281
     0
  0
CLASS
  1
VISUALSTYLE
  2
AcDbVisualStyle
  3
ObjectDBX Classes
 90
     4095
 91
        3
280
     0
281
     0
  0
CLASS
  1
SCALE
  2
AcDbScale
  3
ObjectDBX Classes
 90
     1153
 91
       34
280
     1
281
     0
  0
CLASS
  1
TABLESTYLE
  2
AcDbTableStyle
  3
ObjectDBX Classes
 90
     4095
 91
        3
280
     0
281
     0
  0
CLASS
  1
MLEADERSTYLE
  2
AcDbMLeaderStyle
  3
ACDB_MLEADERSTYLE_CLASS
 90
     4095
 91
        2
280
     1
281
     0
  0
CLASS
  1
SORTENTSTABLE
  2
AcDbSortentsTable
  3
ObjectDBX Classes
 90
        0
 91
        3
280
     0
281
     0
  0
CLASS
  1
CELLSTYLEMAP
  2
AcDbCellStyleMap
  3
ObjectDBX Classes
 90
     1152
 91
        2
280
     1
281
     0
  0
CLASS
  1
DICTIONARYVAR
  2
AcDbDictionaryVar
  3
ObjectDBX Classes
 90
        0
 91
        3
280
     0
281
     0
  0
ENDSEC
  0
SECTION
  2
TABLES
  0
TABLE
  2
VPORT
  5
8
330
0
100
AcDbSymbolTable
 70
     1
  0
VPORT
  5
62
330
8
100
AcDbSymbolTableRecord
100
AcDbViewportTableRecord
  2
*Active
 70
     0
 10
0.0
 20
0.0
 11
1.0
 21
1.0
 12
1645.894636343744
 22
1135.273721044484
 13
0.0
 23
0.0
 14
1.0
 24
1.0
 15
0.0
 25
0.0
 16
0.0
 26
0.0
 36
1.0
 17
0.0
 27
0.0
 37
0.0
 40
232.6801666399287
 41
2.128335451080051
 42
50.0
 43
0.0
 44
0.0
 50
0.0
 51
0.0
 71
     0
 72
   100
 73
     1
 74
     1
 75
     0
 76
     0
 77
     0
 78
     0
281
     0
 65
     1
110
0.0
120
0.0
130
0.0
111
1.0
121
0.0
131
0.0
112
0.0
122
1.0
132
0.0
 79
     0
146
0.0
348
2F
 60
     3
 61
     5
292
     1
282
     1
141
0.0
142
0.0
 63
   256
1001
ACAD_NAV_VCDISPLAY
1070
     3
  0
ENDTAB
  0
TABLE
  2
LTYPE
  5
5
330
0
100
AcDbSymbolTable
 70
     2
  0
LTYPE
  5
66
330
5
100
AcDbSymbolTableRecord
100
AcDbLinetypeTableRecord
  2
ByBlock
 70
     0
  3

 72
    65
 73
     0
 40
0.0
  0
LTYPE
  5
67
330
5
100
AcDbSymbolTableRecord
100
AcDbLinetypeTableRecord
  2
ByLayer
 70
     0
  3

 72
    65
 73
     0
 40
0.0
  0
LTYPE
  5
68
330
5
100
AcDbSymbolTableRecord
100
AcDbLinetypeTableRecord
  2
Continuous
 70
     0
  3
Solid line
 72
    65
 73
     0
 40
0.0
  0
LTYPE
  5
B9
330
5
100
AcDbSymbolTableRecord
100
AcDbLinetypeTableRecord
  2
Dash
 70
     0
  3

 72
    65
 73
     2
 40
3.4
 49
2.2
 74
     0
 49
-1.2
 74
     0
  0
ENDTAB
  0
TABLE
  2
LAYER
  5
2
102
{ACAD_XDICTIONARY
360
43E
102
}
330
0
100
AcDbSymbolTable
 70
    15
  0
LAYER
  5
5F
330
2
100
AcDbSymbolTableRecord
100
AcDbLayerTableRecord
  2
0
 70
     0
 62
     7
  6
Continuous
370
    -3
390
F
347
21
  0
LAYER
  5
81
330
2
100
AcDbSymbolTableRecord
100
AcDbLayerTableRecord
  2
CS_Lines 35
 70
     0
 62
     1
  6
Continuous
370
    25
390
F
347
21
  0
LAYER
  5
85
330
2
100
AcDbSymbolTableRecord
100
AcDbLayerTableRecord
  2
CS_Cut Lines 15
 70
     0
 62
     1
  6
Continuous
370
     9
390
F
347
21
  0
LAYER
  5
8F
330
2
100
AcDbSymbolTableRecord
100
AcDbLayerTableRecord
  2
CS_Cut Lines 01
 70
     0
 62
     1
  6
Continuous
370
     9
390
F
347
21
  0
LAYER
  5
A1
330
2
100
AcDbSymbolTableRecord
100
AcDbLayerTableRecord
  2
CS_Lines 15
 70
     0
 62
     1
  6
Continuous
370
     9
390
F
347
21
  0
LAYER
  5
BA
330
2
100
AcDbSymbolTableRecord
100
AcDbLayerTableRecord
  2
CS_Lines Hidden 15
 70
     0
 62
     1
  6
Dash
370
     9
390
F
347
21
  0
LAYER
  5
C5
330
2
100
AcDbSymbolTableRecord
100
AcDbLayerTableRecord
  2
CS_Lines 25
 70
     0
 62
     1
  6
Continuous
370
    18
390
F
347
21
  0
LAYER
  5
25A
330
2
100
AcDbSymbolTableRecord
100
AcDbLayerTableRecord
  2
CS_Lines 50
 70
     0
 62
     1
  6
Continuous
370
    50
390
F
347
21
  0
LAYER
  5
266
330
2
100
AcDbSymbolTableRecord
100
AcDbLayerTableRecord
  2
CS_Lines 80
 70
     0
 62
     8
  6
Dash
370
     9
390
F
347
21
  0
LAYER
  5
282
330
2
100
AcDbSymbolTableRecord
100
AcDbLayerTableRecord
  2
A-ANNO-NOTE
 70
     0
 62
     7
  6
Continuous
370
     9
390
F
347
21
  0
LAYER
  5
28A
330
2
100
AcDbSymbolTableRecord
100
AcDbLayerTableRecord
  2
CS-Text
 70
     0
 62
     7
  6
Continuous
370
     9
390
F
347
21
  0
LAYER
  5
2AA
330
2
100
AcDbSymbolTableRecord
100
AcDbLayerTableRecord
  2
CS-Dims
 70
     0
 62
     7
  6
Continuous
370
    -3
390
F
347
21
  0
LAYER
  5
2BC
330
2
100
AcDbSymbolTableRecord
100
AcDbLayerTableRecord
  2
Defpoints
 70
     0
 62
     7
  6
Continuous
290
     0
370
    -3
390
F
347
21
  0
LAYER
  5
3DF
330
2
100
AcDbSymbolTableRecord
100
AcDbLayerTableRecord
  2
A-ANNO-NPLT
 70
     0
 62
    -5
  6
Continuous
370
    -3
390
F
347
21
  0
ENDTAB
  0
TABLE
  2
STYLE
  5
3
330
0
100
AcDbSymbolTable
 70
     1
  0
STYLE
  5
60
330
3
100
AcDbSymbolTableRecord
100
AcDbTextStyleTableRecord
  2
CS-Text
 70
     0
 40
0.0
 41
1.0
 50
0.0
 71
     0
 42
0.2
  3
swissl.ttf
  4

1001
ACAD
1000
Swis721 Lt BT
1071
       34
  0
ENDTAB
  0
TABLE
  2
VIEW
  5
6
330
0
100
AcDbSymbolTable
 70
     0
  0
ENDTAB
  0
TABLE
  2
UCS
  5
7
330
0
100
AcDbSymbolTable
 70
     0
  0
ENDTAB
  0
TABLE
  2
APPID
  5
9
330
0
100
AcDbSymbolTable
 70
     6
  0
APPID
  5
61
330
9
100
AcDbSymbolTableRecord
100
AcDbRegAppTableRecord
  2
ACAD
 70
     0
  0
APPID
  5
69
330
9
100
AcDbSymbolTableRecord
100
AcDbRegAppTableRecord
  2
AcadAnnotative
 70
     0
  0
APPID
  5
7F
330
9
100
AcDbSymbolTableRecord
100
AcDbRegAppTableRecord
  2
REVIT
 70
     0
  0
APPID
  5
418
330
9
100
AcDbSymbolTableRecord
100
AcDbRegAppTableRecord
  2
ACAD_MLEADERVER
 70
     0
  0
APPID
  5
430
330
9
100
AcDbSymbolTableRecord
100
AcDbRegAppTableRecord
  2
ACAD_PSEXT
 70
     0
  0
APPID
  5
44E
330
9
100
AcDbSymbolTableRecord
100
AcDbRegAppTableRecord
  2
ACAD_NAV_VCDISPLAY
 70
     0
  0
ENDTAB
  0
TABLE
  2
DIMSTYLE
  5
A
330
0
100
AcDbSymbolTable
 70
     3
100
AcDbDimStyleTable
  0
DIMSTYLE
105
63
330
A
100
AcDbSymbolTableRecord
100
AcDbDimStyleTableRecord
  2
Standard
 70
     0
340
60
  0
DIMSTYLE
105
2AB
102
{ACAD_REACTORS
330
2BA
102
}
330
A
100
AcDbSymbolTableRecord
100
AcDbDimStyleTableRecord
  2
CS_Std_Dimension
 70
     0
 40
304.8
 42
0.0164041994750656
 44
0.0091863517060367
 46
0.0098425196850394
 73
     0
 77
     1
 78
     1
140
0.0131233595800525
142
0.0055677699306027
145
1.0
147
0.0006561679790026
148
1.0
171
     0
172
     1
271
     0
272
     0
274
     0
275
     1
340
60
  0
ENDTAB
  0
TABLE
  2
BLOCK_RECORD
  5
1
330
0
100
AcDbSymbolTable
 70
    20
  0
BLOCK_RECORD
  5
77
102
{ACAD_XDICTIONARY
360
3EA
102
}
330
1
100
AcDbSymbolTableRecord
100
AcDbBlockTableRecord
  2
*Model_Space
340
7A
 70
     0
280
     1
281
     0
  0
BLOCK_RECORD
  5
73
330
1
100
AcDbSymbolTableRecord
100
AcDbBlockTableRecord
  2
*Paper_Space
340
76
 70
     0
280
     1
281
     0
  0
BLOCK_RECORD
  5
80
330
1
100
AcDbSymbolTableRecord
100
AcDbBlockTableRecord
  2
CS_Timber Packing - Packer 2_1-13-J2
340
0
102
{BLKREFS
331
89
102
}
 70
     0
280
     1
281
     0
  0
BLOCK_RECORD
  5
8A
330
1
100
AcDbSymbolTableRecord
100
AcDbBlockTableRecord
  2
CS_Timber Framing - 90 x 45_1-12-J2
340
0
102
{BLKREFS
331
94
102
}
 70
     0
280
     1
281
     0
  0
BLOCK_RECORD
  5
95
330
1
100
AcDbSymbolTableRecord
100
AcDbBlockTableRecord
  2
CS_Lining - Generic Sheet - 9mm_1-11-J2
340
0
102
{BLKREFS
331
9F
102
}
 70
     0
280
     1
281
     0
  0
BLOCK_RECORD
  5
A0
330
1
100
AcDbSymbolTableRecord
100
AcDbBlockTableRecord
  2
CS_Line - H3_1 FRAMING_1-10-J2
340
0
102
{BLKREFS
331
A5
331
A6
102
}
 70
     0
280
     1
281
     0
  0
BLOCK_RECORD
  5
A7
330
1
100
AcDbSymbolTableRecord
100
AcDbBlockTableRecord
  2
CS_Mortar Bed - CS_Mortar Bed_1-9-J2
340
0
102
{BLKREFS
331
B7
102
}
 70
     0
280
     1
281
     0
  0
BLOCK_RECORD
  5
B8
330
1
100
AcDbSymbolTableRecord
100
AcDbBlockTableRecord
  2
CS_Line - Building underlay_1-8-J2
340
0
102
{BLKREFS
331
BE
102
}
 70
     0
280
     1
281
     0
  0
BLOCK_RECORD
  5
BF
330
1
100
AcDbSymbolTableRecord
100
AcDbBlockTableRecord
  2
CS_Line - H3_1 FRAMING_1-7-J2
340
0
102
{BLKREFS
331
C3
102
}
 70
     0
280
     1
281
     0
  0
BLOCK_RECORD
  5
C4
330
1
100
AcDbSymbolTableRecord
100
AcDbBlockTableRecord
  2
CS_Sill Block 2 - CS_Sill Block 2_1-6-J2
340
0
102
{BLKREFS
331
D0
102
}
 70
     0
280
     1
281
     0
  0
BLOCK_RECORD
  5
D1
330
1
100
AcDbSymbolTableRecord
100
AcDbBlockTableRecord
  2
CS_Fix_Screw - CS_Fix_Screw_1-5-J2
340
0
102
{BLKREFS
331
258
102
}
 70
     0
280
     1
281
     0
  0
BLOCK_RECORD
  5
259
330
1
100
AcDbSymbolTableRecord
100
AcDbBlockTableRecord
  2
CS_Flashing - Head Part - CS_Head Flashing_1-4-J2
340
0
102
{BLKREFS
331
260
102
}
 70
     0
280
     1
281
     0
  0
BLOCK_RECORD
  5
261
330
1
100
AcDbSymbolTableRecord
100
AcDbBlockTableRecord
  2
CS_cavity batten - 20x45_1-3-J2
340
0
102
{BLKREFS
331
26B
102
}
 70
     0
280
     1
281
     0
  0
BLOCK_RECORD
  5
26C
330
1
100
AcDbSymbolTableRecord
100
AcDbBlockTableRecord
  2
CS_Cavity batten castelated mid small - CS_Cavity batten castelated mid small_1-2-J2
340
0
102
{BLKREFS
331
275
102
}
 70
     0
280
     1
281
     0
  0
BLOCK_RECORD
  5
276
330
1
100
AcDbSymbolTableRecord
100
AcDbBlockTableRecord
  2
CS_Line - Building underlay separation_1-1-J2
340
0
102
{BLKREFS
331
27A
102
}
 70
     0
280
     1
281
     0
  0
BLOCK_RECORD
  5
27B
330
1
100
AcDbSymbolTableRecord
100
AcDbBlockTableRecord
  2
CS_Line - Building underlay_1-0-J2
340
0
102
{BLKREFS
331
27F
102
}
 70
     0
280
     1
281
     0
  0
BLOCK_RECORD
  5
283
330
1
100
AcDbSymbolTableRecord
100
AcDbBlockTableRecord
  2
CS_Roof Angle Symbol - CS_Roof Angle Symbol_1-314851-J2
340
0
102
{BLKREFS
331
288
102
}
 70
     0
280
     1
281
     0
  0
BLOCK_RECORD
  5
28F
330
1
100
AcDbSymbolTableRecord
100
AcDbBlockTableRecord
  2
CS_Comment tag - Comment Only_1-304015-J2
340
0
102
{BLKREFS
331
292
331
298
331
29D
331
2A2
331
2A8
331
2CD
331
2D3
102
}
 70
     0
280
     1
281
     0
  0
BLOCK_RECORD
  5
2BD
330
1
100
AcDbSymbolTableRecord
100
AcDbBlockTableRecord
  2
DIMBLOCK1-J2
340
0
 70
     0
280
     1
281
     0
  0
BLOCK_RECORD
  5
2D5
330
1
100
AcDbSymbolTableRecord
100
AcDbBlockTableRecord
  2
CS_T Block _landscape_ - CS_T Block _landscape__0-539294-CHIMNEY CAP DETAIL
340
0
102
{BLKREFS
331
3DA
102
}
 70
     0
280
     1
281
     0
  0
BLOCK_RECORD
  5
2D6
330
1
100
AcDbSymbolTableRecord
100
AcDbBlockTableRecord
  2
CS_T Block _landscape_ - CS_Logo_dwg_0-539050-CHIMNEY CAP DETAIL
340
0
102
{BLKREFS
331
3C9
102
}
 70
     0
280
     1
281
     0
  0
ENDTAB
  0
ENDSEC
  0
SECTION
  2
BLOCKS
  0
BLOCK
  5
78
330
77
100
AcDbEntity
  8
0
100
AcDbBlockBegin
  2
*Model_Space
 70
     0
 71
     0
 10
0.0
 20
0.0
 30
0.0
  3
*Model_Space
  1

  0
ENDBLK
  5
79
330
77
100
AcDbEntity
  8
0
100
AcDbBlockEnd
  0
BLOCK
  5
74
330
73
100
AcDbEntity
 67
     1
  8
0
100
AcDbBlockBegin
  2
*Paper_Space
 70
     0
 71
     0
 10
0.0
 20
0.0
 30
0.0
  3
*Paper_Space
  1

  0
ENDBLK
  5
75
330
73
100
AcDbEntity
 67
     1
  8
0
100
AcDbBlockEnd
  0
BLOCK
  5
87
330
80
100
AcDbEntity
  8
0
100
AcDbBlockBegin
  2
CS_Timber Packing - Packer 2_1-13-J2
 70
     0
 71
     0
 10
0.0
 20
0.0
 30
0.0
  3
CS_Timber Packing - Packer 2_1-13-J2
  1

  0
LINE
  5
82
330
80
100
AcDbEntity
  8
CS_Lines 35
100
AcDbLine
 10
0.0
 20
13.20990078355509
 30
0.0
 11
41.06136779194397
 21
13.20990078355509
 31
0.0
1001
REVIT
1002
{
1070
     3
1000
316799
1002
}
  0
LINE
  5
83
330
80
100
AcDbEntity
  8
CS_Lines 35
100
AcDbLine
 10
41.06136779194397
 20
-24.99999999999865
 30
0.0
 11
30.00000000000263
 21
-24.99999999999865
 31
0.0
1001
REVIT
1002
{
1070
     3
1000
316799
1002
}
  0
LINE
  5
84
330
80
100
AcDbEntity
  8
CS_Lines 35
100
AcDbLine
 10
41.06136779194397
 20
13.20990078355509
 30
0.0
 11
41.06136779194397
 21
-24.99999999999866
 31
0.0
1001
REVIT
1002
{
1070
     3
1000
316799
1002
}
  0
LINE
  5
86
330
80
100
AcDbEntity
  8
CS_Cut Lines 15
100
AcDbLine
 10
0.0
 20
-24.99999999999865
 30
0.0
 11
41.06136779194397
 21
13.20990078355509
 31
0.0
1001
REVIT
1002
{
1070
     3
1000
372149
1002
}
  0
ENDBLK
  5
88
330
80
100
AcDbEntity
  8
0
100
AcDbBlockEnd
  0
BLOCK
  5
92
330
8A
100
AcDbEntity
  8
0
100
AcDbBlockBegin
  2
CS_Timber Framing - 90 x 45_1-12-J2
 70
     0
 71
     0
 10
0.0
 20
0.0
 30
0.0
  3
CS_Timber Framing - 90 x 45_1-12-J2
  1

  0
LINE
  5
8B
330
8A
100
AcDbEntity
  8
CS_Lines 35
100
AcDbLine
 10
0.0
 20
64.99999999999972
 30
0.0
 11
45.0000000000005
 21
64.99999999999972
 31
0.0
1001
REVIT
1002
{
1070
     3
1000
316799
1002
}
  0
LINE
  5
8C
330
8A
100
AcDbEntity
  8
CS_Lines 35
100
AcDbLine
 10
0.0
 20
-24.99999999999865
 30
0.0
 11
0.0
 21
64.9999999999997
 31
0.0
1001
REVIT
1002
{
1070
     3
1000
316799
1002
}
  0
LINE
  5
8D
330
8A
100
AcDbEntity
  8
CS_Lines 35
100
AcDbLine
 10
45.0000000000005
 20
-24.99999999999865
 30
0.0
 11
0.0
 21
-24.99999999999865
 31
0.0
1001
REVIT
1002
{
1070
     3
1000
316799
1002
}
  0
LINE
  5
8E
330
8A
100
AcDbEntity
  8
CS_Lines 35
100
AcDbLine
 10
45.0000000000005
 20
64.99999999999972
 30
0.0
 11
45.0000000000005
 21
-24.99999999999864
 31
0.0
1001
REVIT
1002
{
1070
     3
1000
316799
1002
}
  0
LINE
  5
90
330
8A
100
AcDbEntity
  8
CS_Cut Lines 01
100
AcDbLine
 10
0.0
 20
64.99999999999972
 30
0.0
 11
45.0000000000005
 21
-24.99999999999864
 31
0.0
1001
REVIT
1002
{
1070
     3
1000
343256
1002
}
  0
LINE
  5
91
330
8A
100
AcDbEntity
  8
CS_Cut Lines 01
100
AcDbLine
 10
0.0
 20
-24.99999999999865
 30
0.0
 11
45.0000000000005
 21
64.9999999999997
 31
0.0
1001
REVIT
1002
{
1070
     3
1000
343256
1002
}
  0
ENDBLK
  5
93
330
8A
100
AcDbEntity
  8
0
100
AcDbBlockEnd
  0
BLOCK
  5
9D
330
95
100
AcDbEntity
  8
0
100
AcDbBlockBegin
  2
CS_Lining - Generic Sheet - 9mm_1-11-J2
 70
     0
 71
     0
 10
0.0
 20
0.0
 30
0.0
  3
CS_Lining - Generic Sheet - 9mm_1-11-J2
  1

  0
LINE
  5
97
330
95
100
AcDbEntity
  8
0
370
     9
100
AcDbLine
 10
38.20990078355251
 20
9.000000000000002
 30
0.0
 11
0.0
 21
9.000000000000002
 31
0.0
  0
LINE
  5
99
330
95
100
AcDbEntity
  8
0
370
     9
100
AcDbLine
 10
0.0
 20
0.0
 30
0.0
 11
111.6943785534951
 21
0.0
 31
0.0
  0
HATCH
  5
9B
330
95
100
AcDbEntity
  8
0
370
     9
100
AcDbHatch
 10
0.0
 20
0.0
 30
0.0
210
0.0
220
0.0
230
1.0
  2
SOLID
 70
     1
 71
     0
 91
        1
 92
        0
 93
        5
 72
     1
 10
111.6943785534951
 20
9.000000000000002
 11
38.20990078355251
 21
9.000000000000002
 72
     1
 10
38.20990078355251
 20
9.000000000000002
 11
0.0
 21
9.000000000000002
 72
     1
 10
0.0
 20
9.000000000000002
 11
0.0
 21
0.0
 72
     1
 10
0.0
 20
0.0
 11
111.6943785534951
 21
0.0
 72
     1
 10
111.6943785534951
 20
0.0
 11
111.6943785534951
 21
9.000000000000002
 97
        0
 75
     0
 76
     1
 98
        1
 10
0.0
 20
0.0
1001
REVIT
1002
{
1070
     3
1000
459970
1002
}
  0
LINE
  5
9C
330
95
100
AcDbEntity
  8
0
370
     9
100
AcDbLine
 10
0.0
 20
9.000000000000002
 30
0.0
 11
-0.0000000000000145
 21
0.0
 31
0.0
  0
ENDBLK
  5
9E
330
95
100
AcDbEntity
  8
0
100
AcDbBlockEnd
  0
BLOCK
  5
A3
330
A0
100
AcDbEntity
  8
0
100
AcDbBlockBegin
  2
CS_Line - H3_1 FRAMING_1-10-J2
 70
     0
 71
     0
 10
0.0
 20
0.0
 30
0.0
  3
CS_Line - H3_1 FRAMING_1-10-J2
  1

  0
LINE
  5
A2
330
A0
100
AcDbEntity
  8
CS_Lines 15
100
AcDbLine
 10
0.0
 20
0.0
 30
0.0
 11
66.69437855372759
 21
0.0
 31
0.0
1001
REVIT
1002
{
1070
     3
1000
316516
1002
}
  0
ENDBLK
  5
A4
330
A0
100
AcDbEntity
  8
0
100
AcDbBlockEnd
  0
BLOCK
  5
B5
330
A7
100
AcDbEntity
  8
0
100
AcDbBlockBegin
  2
CS_Mortar Bed - CS_Mortar Bed_1-9-J2
 70
     0
 71
     0
 10
0.0
 20
0.0
 30
0.0
  3
CS_Mortar Bed - CS_Mortar Bed_1-9-J2
  1

  0
HATCH
  5
B0
330
A7
100
AcDbEntity
  8
0
370
     9
100
AcDbHatch
 10
0.0
 20
0.0
 30
0.0
210
0.0
220
0.0
230
1.0
  2
FP1_1
 70
     0
 71
     0
 91
        1
 92
        0
 93
        8
 72
     1
 10
-0.0000000000015801
 20
-73.48447776994273
 11
30.00000000000216
 21
-73.48447776994273
 72
     1
 10
30.00000000000216
 20
-73.48447776994273
 11
30.00000000000218
 21
-65.42455727623377
 72
     1
 10
30.00000000000218
 20
-65.42455727623377
 11
9.999999999998053
 21
-70.78354112485745
 72
     1
 10
9.99999999999805
 20
-70.78354112485745
 11
9.999999999997984
 21
-7.109234160821572
 72
     1
 10
9.999999999997984
 20
-7.109234160821569
 11
30.00000000000156
 21
-7.109234160821569
 72
     1
 10
30.00000000000156
 20
-7.109234160821569
 11
30.00000000000158
 21
0.000000000000135
 72
     1
 10
30.00000000000158
 20
0.0000000000001354
 11
-0.0000000000016165
 21
0.0
 72
     1
 10
-0.0000000000016143
 20
0.0
 11
-0.0000000000015801
 21
-73.48447776994273
 97
        0
 75
     0
 76
     2
 52
0.0
 41
1.0
 77
     0
 78
     9
 53
0.0
 43
-812.12
 44
-548.096
 45
8.128
 46
-2.032
 79
     5
 49
0.6709999999999999
 49
-5.425
 49
0.6709999999999999
 49
-5.425
 49
-32.512
 53
0.0
 43
-812.12
 44
-548.096
 45
8.128
 46
-2.032
 79
     6
 49
-12.192
 49
0.6709999999999999
 49
-11.521
 49
0.6709999999999999
 49
-5.425
 49
-14.224
 53
0.0
 43
-812.12
 44
-548.096
 45
8.128
 46
-2.032
 79
     5
 49
-30.48
 49
0.6709999999999999
 49
-3.393
 49
0.6709999999999999
 49
-9.488999999999999
 53
120.0
 43
-809.072
 44
-547.08
 45
-2.304236379510018
 46
8.055054481959917
 79
     5
 49
0.6709999999999998
 49
-5.424999999999999
 49
0.6709999999999998
 49
-5.424999999999999
 49
-32.51199999999999
 53
120.0
 43
-809.072
 44
-547.08
 45
-2.304236379510018
 46
8.055054481959917
 79
     6
 49
-12.192
 49
0.6709999999999998
 49
-11.521
 49
0.6709999999999998
 49
-5.424999999999999
 49
-14.224
 53
120.0
 43
-809.072
 44
-547.08
 45
-2.304236379510018
 46
8.055054481959917
 79
     5
 49
-30.48
 49
0.6709999999999998
 49
-3.393
 49
0.6709999999999998
 49
-9.488999999999997
 53
240.0
 43
-808.056
 44
-543.016
 45
-5.823763620489978
 46
-6.023054481959919
 79
     5
 49
0.6709999999999999
 49
-5.425
 49
0.6709999999999999
 49
-5.425
 49
-32.512
 53
240.0
 43
-808.056
 44
-543.016
 45
-5.823763620489978
 46
-6.023054481959919
 79
     6
 49
-12.192
 49
0.6709999999999999
 49
-11.521
 49
0.6709999999999999
 49
-5.425
 49
-14.224
 53
240.0
 43
-808.056
 44
-543.016
 45
-5.823763620489978
 46
-6.023054481959919
 79
     5
 49
-30.48
 49
0.6709999999999999
 49
-3.393
 49
0.6709999999999999
 49
-9.488999999999999
 98
        1
 10
0.0
 20
0.0
1001
REVIT
1002
{
1070
     3
1000
612345
1002
}
  0
LINE
  5
B1
330
A7
100
AcDbEntity
  8
CS_Lines 15
100
AcDbLine
 10
30.00000000000211
 20
-73.4844777699428
 30
0.0
 11
30.00000000000211
 21
-65.42455727623381
 31
0.0
1001
REVIT
1002
{
1070
     3
1000
316516
1002
}
  0
LINE
  5
B2
330
A7
100
AcDbEntity
  8
CS_Lines 15
100
AcDbLine
 10
30.00000000000211
 20
-7.10923416082156
 30
0.0
 11
30.00000000000211
 21
0.0
 31
0.0
1001
REVIT
1002
{
1070
     3
1000
316516
1002
}
  0
LINE
  5
B3
330
A7
100
AcDbEntity
  8
CS_Lines 15
100
AcDbLine
 10
-0.0000000000015059
 20
0.0
 30
0.0
 11
-0.0000000000015059
 21
-73.4844777699428
 31
0.0
1001
REVIT
1002
{
1070
     3
1000
316516
1002
}
  0
LINE
  5
B4
330
A7
100
AcDbEntity
  8
0
370
     9
100
AcDbLine
 10
-0.0000000000015059
 20
0.0
 30
0.0
 11
29.99999999999849
 21
0.0000000000000973
 31
0.0
  0
ENDBLK
  5
B6
330
A7
100
AcDbEntity
  8
0
100
AcDbBlockEnd
  0
BLOCK
  5
BC
330
B8
100
AcDbEntity
  8
0
100
AcDbBlockBegin
  2
CS_Line - Building underlay_1-8-J2
 70
     0
 71
     0
 10
0.0
 20
0.0
 30
0.0
  3
CS_Line - Building underlay_1-8-J2
  1

  0
LINE
  5
BB
330
B8
100
AcDbEntity
  8
CS_Lines Hidden 15
100
AcDbLine
 10
0.0
 20
0.0
 30
0.0
 11
114.8103937132616
 21
0.0
 31
0.0
1001
REVIT
1002
{
1070
     3
1000
316801
1002
}
  0
ENDBLK
  5
BD
330
B8
100
AcDbEntity
  8
0
100
AcDbBlockEnd
  0
BLOCK
  5
C1
330
BF
100
AcDbEntity
  8
0
100
AcDbBlockBegin
  2
CS_Line - H3_1 FRAMING_1-7-J2
 70
     0
 71
     0
 10
0.0
 20
0.0
 30
0.0
  3
CS_Line - H3_1 FRAMING_1-7-J2
  1

  0
LINE
  5
C0
330
BF
100
AcDbEntity
  8
CS_Lines 15
100
AcDbLine
 10
0.0
 20
0.0
 30
0.0
 11
3.543081965635047
 21
0.0
 31
0.0
1001
REVIT
1002
{
1070
     3
1000
316516
1002
}
  0
ENDBLK
  5
C2
330
BF
100
AcDbEntity
  8
0
100
AcDbBlockEnd
  0
BLOCK
  5
CE
330
C4
100
AcDbEntity
  8
0
100
AcDbBlockBegin
  2
CS_Sill Block 2 - CS_Sill Block 2_1-6-J2
 70
     0
 71
     0
 10
0.0
 20
0.0
 30
0.0
  3
CS_Sill Block 2 - CS_Sill Block 2_1-6-J2
  1

  0
LINE
  5
C6
330
C4
100
AcDbEntity
  8
CS_Lines 25
100
AcDbLine
 10
-0.0000000000014488
 20
63.67430696403591
 30
0.0
 11
-0.0000000000014488
 21
-0.0000000000000338
 31
0.0
1001
REVIT
1002
{
1070
     3
1000
289292
1002
}
  0
LINE
  5
C7
330
C4
100
AcDbEntity
  8
CS_Lines 25
100
AcDbLine
 10
-0.0000000000014466
 20
0.0000000000000328
 30
0.0
 11
29.11244561276632
 21
7.800656291636131
 31
0.0
1001
REVIT
1002
{
1070
     3
1000
289292
1002
}
  0
LINE
  5
C8
330
C4
100
AcDbEntity
  8
CS_Lines 25
100
AcDbLine
 10
29.11244561276632
 20
7.800656291636131
 30
0.0
 11
32.67799124807983
 21
26.4396996811687
 31
0.0
1001
REVIT
1002
{
1070
     3
1000
289292
1002
}
  0
LINE
  5
C9
330
C4
100
AcDbEntity
  8
CS_Lines 25
100
AcDbLine
 10
32.67799124807983
 20
26.43969968116872
 30
0.0
 11
29.00288923323149
 21
40.15536712358136
 31
0.0
1001
REVIT
1002
{
1070
     3
1000
289292
1002
}
  0
LINE
  5
CA
330
C4
100
AcDbEntity
  8
CS_Lines 25
100
AcDbLine
 10
29.00288923323149
 20
40.15536712358134
 30
0.0
 11
32.18104187249462
 21
52.01639424752054
 31
0.0
1001
REVIT
1002
{
1070
     3
1000
289292
1002
}
  0
LINE
  5
CB
330
C4
100
AcDbEntity
  8
CS_Lines 25
100
AcDbLine
 10
32.18104187249462
 20
52.01639424752054
 30
0.0
 11
24.2845022656055
 21
63.67430696403591
 31
0.0
1001
REVIT
1002
{
1070
     3
1000
289292
1002
}
  0
LINE
  5
CC
330
C4
100
AcDbEntity
  8
CS_Lines 25
100
AcDbLine
 10
24.28450226560549
 20
63.67430696403591
 30
0.0
 11
-0.0000000000014488
 21
63.67430696403591
 31
0.0
1001
REVIT
1002
{
1070
     3
1000
289292
1002
}
  0
HATCH
  5
CD
330
C4
100
AcDbEntity
  8
0
370
     9
100
AcDbHatch
 10
0.0
 20
0.0
 30
0.0
210
0.0
220
0.0
230
1.0
  2
FP1_2
 70
     0
 71
     0
 91
        1
 92
        0
 93
        7
 72
     1
 10
-0.0000000000014488
 20
63.67430696403591
 11
-0.0000000000014488
 21
-0.0000000000000355
 72
     1
 10
-0.0000000000014466
 20
0.0000000000000328
 11
29.11244561276632
 21
7.800656291636131
 72
     1
 10
29.11244561276632
 20
7.800656291636131
 11
32.67799124807983
 21
26.4396996811687
 72
     1
 10
32.67799124807983
 20
26.43969968116872
 11
29.00288923323149
 21
40.15536712358136
 72
     1
 10
29.00288923323149
 20
40.15536712358134
 11
32.18104187249462
 21
52.01639424752054
 72
     1
 10
32.18104187249462
 20
52.01639424752054
 11
24.2845022656055
 21
63.67430696403591
 72
     1
 10
24.28450226560549
 20
63.67430696403591
 11
-0.0000000000014495
 21
63.67430696403591
 97
        0
 75
     0
 76
     2
 52
0.0
 41
1.0
 77
     0
 78
     1
 53
45.0
 43
-817.12
 44
-512.705
 45
2.82842712474619
 46
-2.82842712474619
 79
     0
 98
        1
 10
0.0
 20
0.0
1001
REVIT
1002
{
1070
     3
1000
398472
1002
}
  0
ENDBLK
  5
CF
330
C4
100
AcDbEntity
  8
0
100
AcDbBlockEnd
  0
BLOCK
  5
256
330
D1
100
AcDbEntity
  8
0
100
AcDbBlockBegin
  2
CS_Fix_Screw - CS_Fix_Screw_1-5-J2
 70
     0
 71
     0
 10
0.0
 20
0.0
 30
0.0
  3
CS_Fix_Screw - CS_Fix_Screw_1-5-J2
  1

  0
LINE
  5
D2
330
D1
100
AcDbEntity
  8
0
370
     9
100
AcDbLine
 10
-1.500000000000135
 20
-105.0881634903535
 30
0.0
 11
-1.50000000000014
 21
-106.400663490353
 31
0.0
  0
LINE
  5
D3
330
D1
100
AcDbEntity
  8
0
370
     9
100
AcDbLine
 10
-1.50000000000014
 20
-106.400663490353
 30
0.0
 11
-2.000000000000197
 21
-106.4999999999993
 31
0.0
  0
LINE
  5
D4
330
D1
100
AcDbEntity
  8
0
370
     9
100
AcDbLine
 10
-2.000000000000196
 20
-106.4999999999993
 30
0.0
 11
1.999999999999759
 21
-107.205307922833
 31
0.0
  0
LINE
  5
D5
330
D1
100
AcDbEntity
  8
0
370
     9
100
AcDbLine
 10
1.999999999999766
 20
-107.205307922833
 30
0.0
 11
1.499999999999815
 21
-107.3046444324789
 31
0.0
  0
LINE
  5
D6
330
D1
100
AcDbEntity
  8
0
370
     9
100
AcDbLine
 10
-1.500000000000101
 20
-96.08816349035351
 30
0.0
 11
-1.500000000000106
 21
-97.40066349035322
 31
0.0
  0
LINE
  5
D7
330
D1
100
AcDbEntity
  8
0
370
     9
100
AcDbLine
 10
-1.500000000000106
 20
-97.40066349035322
 30
0.0
 11
-2.000000000000193
 21
-97.49999999999928
 31
0.0
  0
LINE
  5
D8
330
D1
100
AcDbEntity
  8
0
370
     9
100
AcDbLine
 10
-2.000000000000178
 20
-97.49999999999928
 30
0.0
 11
1.999999999999806
 21
-98.20530792283304
 31
0.0
  0
LINE
  5
D9
330
D1
100
AcDbEntity
  8
0
370
     9
100
AcDbLine
 10
1.999999999999807
 20
-98.20530792283304
 30
0.0
 11
1.499999999999861
 21
-98.30464443247863
 31
0.0
  0
LINE
  5
DA
330
D1
100
AcDbEntity
  8
0
370
     9
100
AcDbLine
 10
1.499999999999862
 20
-98.30464443247863
 30
0.0
 11
1.499999999999857
 21
-99.61714443247882
 31
0.0
  0
LINE
  5
DB
330
D1
100
AcDbEntity
  8
0
370
     9
100
AcDbLine
 10
-1.500000000000164
 20
-97.5881634903535
 30
0.0
 11
-1.500000000000169
 21
-98.90066349035322
 31
0.0
  0
LINE
  5
DC
330
D1
100
AcDbEntity
  8
0
370
     9
100
AcDbLine
 10
-1.500000000000169
 20
-98.90066349035322
 30
0.0
 11
-2.0000000000002
 21
-98.99999999999928
 31
0.0
  0
LINE
  5
DD
330
D1
100
AcDbEntity
  8
0
370
     9
100
AcDbLine
 10
-2.000000000000184
 20
-98.99999999999928
 30
0.0
 11
1.999999999999796
 21
-99.70530792283304
 31
0.0
  0
LINE
  5
DE
330
D1
100
AcDbEntity
  8
0
370
     9
100
AcDbLine
 10
1.999999999999792
 20
-99.70530792283304
 30
0.0
 11
1.499999999999828
 21
-99.80464443247884
 31
0.0
  0
LINE
  5
DF
330
D1
100
AcDbEntity
  8
0
370
     9
100
AcDbLine
 10
1.499999999999828
 20
-99.80464443247884
 30
0.0
 11
1.499999999999823
 21
-101.1171444324788
 31
0.0
  0
LINE
  5
E0
330
D1
100
AcDbEntity
  8
0
370
     9
100
AcDbLine
 10
-1.500000000000113
 20
-99.08816349035351
 30
0.0
 11
-1.500000000000118
 21
-100.4006634903532
 31
0.0
  0
LINE
  5
E1
330
D1
100
AcDbEntity
  8
0
370
     9
100
AcDbLine
 10
-1.500000000000118
 20
-100.4006634903532
 30
0.0
 11
-2.000000000000206
 21
-100.4999999999993
 31
0.0
  0
LINE
  5
E2
330
D1
100
AcDbEntity
  8
0
370
     9
100
AcDbLine
 10
-2.000000000000191
 20
-100.4999999999993
 30
0.0
 11
1.999999999999801
 21
-101.205307922833
 31
0.0
  0
LINE
  5
E3
330
D1
100
AcDbEntity
  8
0
370
     9
100
AcDbLine
 10
1.999999999999806
 20
-101.205307922833
 30
0.0
 11
1.499999999999851
 21
-101.3046444324788
 31
0.0
  0
LINE
  5
E4
330
D1
100
AcDbEntity
  8
0
370
     9
100
AcDbLine
 10
1.499999999999851
 20
-101.3046444324788
 30
0.0
 11
1.499999999999846
 21
-102.6171444324788
 31
0.0
  0
LINE
  5
E5
330
D1
100
AcDbEntity
  8
0
370
     9
100
AcDbLine
 10
-1.500000000000118
 20
-100.5881634903535
 30
0.0
 11
-1.500000000000123
 21
-101.9006634903535
 31
0.0
  0
LINE
  5
E6
330
D1
100
AcDbEntity
  8
0
370
     9
100
AcDbLine
 10
-1.500000000000123
 20
-101.9006634903535
 30
0.0
 11
-2.000000000000179
 21
-101.9999999999993
 31
0.0
  0
LINE
  5
E7
330
D1
100
AcDbEntity
  8
0
370
     9
100
AcDbLine
 10
-2.000000000000179
 20
-101.9999999999993
 30
0.0
 11
1.999999999999794
 21
-102.705307922833
 31
0.0
  0
LINE
  5
E8
330
D1
100
AcDbEntity
  8
0
370
     9
100
AcDbLine
 10
1.999999999999796
 20
-102.705307922833
 30
0.0
 11
1.499999999999844
 21
-102.8046444324786
 31
0.0
  0
LINE
  5
E9
330
D1
100
AcDbEntity
  8
0
370
     9
100
AcDbLine
 10
1.499999999999845
 20
-102.8046444324786
 30
0.0
 11
1.49999999999984
 21
-104.1171444324789
 31
0.0
  0
LINE
  5
EA
330
D1
100
AcDbEntity
  8
0
370
     9
100
AcDbLine
 10
-1.500000000000152
 20
-102.0881634903535
 30
0.0
 11
-1.500000000000157
 21
-103.4006634903532
 31
0.0
  0
LINE
  5
EB
330
D1
100
AcDbEntity
  8
0
370
     9
100
AcDbLine
 10
-1.500000000000157
 20
-103.4006634903532
 30
0.0
 11
-2.000000000000216
 21
-103.4999999999993
 31
0.0
  0
LINE
  5
EC
330
D1
100
AcDbEntity
  8
0
370
     9
100
AcDbLine
 10
-2.000000000000203
 20
-103.4999999999993
 30
0.0
 11
1.999999999999754
 21
-104.205307922833
 31
0.0
  0
LINE
  5
ED
330
D1
100
AcDbEntity
  8
0
370
     9
100
AcDbLine
 10
1.999999999999724
 20
-104.205307922833
 30
0.0
 11
1.499999999999839
 21
-104.3046444324788
 31
0.0
  0
LINE
  5
EE
330
D1
100
AcDbEntity
  8
0
370
     9
100
AcDbLine
 10
1.499999999999839
 20
-104.3046444324788
 30
0.0
 11
1.499999999999835
 21
-105.6171444324788
 31
0.0
  0
LINE
  5
EF
330
D1
100
AcDbEntity
  8
0
370
     9
100
AcDbLine
 10
-1.50000000000013
 20
-103.5881634903535
 30
0.0
 11
-1.500000000000135
 21
-104.9006634903532
 31
0.0
  0
LINE
  5
F0
330
D1
100
AcDbEntity
  8
0
370
     9
100
AcDbLine
 10
-1.500000000000135
 20
-104.9006634903532
 30
0.0
 11
-2.000000000000223
 21
-104.9999999999993
 31
0.0
  0
LINE
  5
F1
330
D1
100
AcDbEntity
  8
0
370
     9
100
AcDbLine
 10
-2.000000000000207
 20
-104.9999999999993
 30
0.0
 11
1.99999999999975
 21
-105.705307922833
 31
0.0
  0
LINE
  5
F2
330
D1
100
AcDbEntity
  8
0
370
     9
100
AcDbLine
 10
1.999999999999716
 20
-105.705307922833
 30
0.0
 11
1.499999999999862
 21
-105.8046444324788
 31
0.0
  0
LINE
  5
F3
330
D1
100
AcDbEntity
  8
0
370
     9
100
AcDbLine
 10
1.499999999999862
 20
-105.8046444324788
 30
0.0
 11
1.499999999999857
 21
-107.1171444324788
 31
0.0
  0
LINE
  5
F4
330
D1
100
AcDbEntity
  8
0
370
     9
100
AcDbLine
 10
-1.500000000000118
 20
-93.08816349035348
 30
0.0
 11
-1.500000000000123
 21
-94.40066349035347
 31
0.0
  0
LINE
  5
F5
330
D1
100
AcDbEntity
  8
0
370
     9
100
AcDbLine
 10
-1.500000000000123
 20
-94.40066349035347
 30
0.0
 11
-2.000000000000093
 21
-94.49999999999926
 31
0.0
  0
LINE
  5
F6
330
D1
100
AcDbEntity
  8
0
370
     9
100
AcDbLine
 10
-2.000000000000123
 20
-94.49999999999926
 30
0.0
 11
1.999999999999847
 21
-95.20530792283303
 31
0.0
  0
LINE
  5
F7
330
D1
100
AcDbEntity
  8
0
370
     9
100
AcDbLine
 10
1.999999999999878
 20
-95.20530792283303
 30
0.0
 11
1.499999999999811
 21
-95.3046444324791
 31
0.0
  0
LINE
  5
F8
330
D1
100
AcDbEntity
  8
0
370
     9
100
AcDbLine
 10
1.499999999999811
 20
-96.80464443247885
 30
0.0
 11
1.499999999999806
 21
-98.11714443247882
 31
0.0
  0
LINE
  5
F9
330
D1
100
AcDbEntity
  8
0
370
     9
100
AcDbLine
 10
-1.500000000000113
 20
-91.58816349035348
 30
0.0
 11
-1.500000000000118
 21
-92.90066349035324
 31
0.0
  0
LINE
  5
FA
330
D1
100
AcDbEntity
  8
0
370
     9
100
AcDbLine
 10
-1.500000000000118
 20
-92.90066349035324
 30
0.0
 11
-2.000000000000117
 21
-92.99999999999926
 31
0.0
  0
LINE
  5
FB
330
D1
100
AcDbEntity
  8
0
370
     9
100
AcDbLine
 10
-2.000000000000131
 20
-92.99999999999926
 30
0.0
 11
1.999999999999822
 21
-93.70530792283303
 31
0.0
  0
LINE
  5
FC
330
D1
100
AcDbEntity
  8
0
370
     9
100
AcDbLine
 10
1.999999999999822
 20
-93.70530792283303
 30
0.0
 11
1.499999999999793
 21
-93.80464443247863
 31
0.0
  0
LINE
  5
FD
330
D1
100
AcDbEntity
  8
0
370
     9
100
AcDbLine
 10
1.499999999999794
 20
-93.80464443247863
 30
0.0
 11
1.499999999999789
 21
-95.1171444324788
 31
0.0
  0
LINE
  5
FE
330
D1
100
AcDbEntity
  8
0
370
     9
100
AcDbLine
 10
1.499999999999833
 20
-90.80464443247884
 30
0.0
 11
1.499999999999828
 21
-92.11714443247881
 31
0.0
  0
LINE
  5
FF
330
D1
100
AcDbEntity
  8
0
370
     9
100
AcDbLine
 10
-1.500000000000135
 20
-90.08816349035351
 30
0.0
 11
-1.50000000000014
 21
-91.40066349035347
 31
0.0
  0
LINE
  5
100
330
D1
100
AcDbEntity
  8
0
370
     9
100
AcDbLine
 10
-1.50000000000014
 20
-91.40066349035347
 30
0.0
 11
-2.000000000000138
 21
-91.49999999999926
 31
0.0
  0
LINE
  5
101
330
D1
100
AcDbEntity
  8
0
370
     9
100
AcDbLine
 10
-2.000000000000139
 20
-91.49999999999926
 30
0.0
 11
1.999999999999833
 21
-92.20530792283303
 31
0.0
  0
LINE
  5
102
330
D1
100
AcDbEntity
  8
0
370
     9
100
AcDbLine
 10
1.999999999999836
 20
-92.20530792283303
 30
0.0
 11
1.499999999999828
 21
-92.30464443247884
 31
0.0
  0
LINE
  5
103
330
D1
100
AcDbEntity
  8
0
370
     9
100
AcDbLine
 10
1.499999999999828
 20
-92.30464443247884
 30
0.0
 11
1.499999999999823
 21
-93.61714443247881
 31
0.0
  0
LINE
  5
104
330
D1
100
AcDbEntity
  8
0
370
     9
100
AcDbLine
 10
1.499999999999812
 20
-96.80464443247885
 30
0.0
 11
1.999999999999803
 21
-96.70530792283304
 31
0.0
  0
LINE
  5
105
330
D1
100
AcDbEntity
  8
0
370
     9
100
AcDbLine
 10
1.999999999999807
 20
-96.70530792283304
 30
0.0
 11
-2.000000000000193
 21
-95.99999999999928
 31
0.0
  0
LINE
  5
106
330
D1
100
AcDbEntity
  8
0
370
     9
100
AcDbLine
 10
-2.000000000000221
 20
-95.99999999999928
 30
0.0
 11
-1.500000000000158
 21
-95.90066349035345
 31
0.0
  0
LINE
  5
107
330
D1
100
AcDbEntity
  8
0
370
     9
100
AcDbLine
 10
-1.500000000000157
 20
-95.90066349035345
 30
0.0
 11
-1.500000000000152
 21
-94.58816349035348
 31
0.0
  0
ARC
  5
108
330
D1
100
AcDbEntity
  8
0
370
     9
100
AcDbCircle
 10
-11.97880498737638
 20
-110.7114314102956
 30
0.0
 40
14.08660983816511
100
AcDbArc
 50
328.9223593179761
 51
343.1076318727611
  0
ARC
  5
109
330
D1
100
AcDbEntity
  8
0
370
     9
100
AcDbCircle
 10
12.15067283700591
 20
-110.7114314102943
 30
0.0
 40
14.08660983816512
100
AcDbArc
 50
193.8500708145593
 51
211.0776406820293
  0
LINE
  5
10A
330
D1
100
AcDbEntity
  8
0
370
     9
100
AcDbLine
 10
-1.500000000000147
 20
-112.5881634903534
 30
0.0
 11
-1.500000000000152
 21
-113.9006634903529
 31
0.0
  0
LINE
  5
10B
330
D1
100
AcDbEntity
  8
0
370
     9
100
AcDbLine
 10
-1.500000000000152
 20
-113.9006634903529
 30
0.0
 11
-2.000000000000149
 21
-113.9999999999991
 31
0.0
  0
LINE
  5
10C
330
D1
100
AcDbEntity
  8
0
370
     9
100
AcDbLine
 10
-2.000000000000179
 20
-113.9999999999991
 30
0.0
 11
1.999999999999744
 21
-114.7053079228329
 31
0.0
  0
LINE
  5
10D
330
D1
100
AcDbEntity
  8
0
370
     9
100
AcDbLine
 10
1.999999999999752
 20
-114.7053079228329
 30
0.0
 11
1.499999999999949
 21
-114.8046444324787
 31
0.0
  0
LINE
  5
10E
330
D1
100
AcDbEntity
  8
0
370
     9
100
AcDbLine
 10
1.499999999999816
 20
-107.3046444324789
 30
0.0
 11
1.499999999999811
 21
-108.6171444324787
 31
0.0
  0
LINE
  5
10F
330
D1
100
AcDbEntity
  8
0
370
     9
100
AcDbLine
 10
-1.500000000000125
 20
-106.5881634903535
 30
0.0
 11
-1.50000000000013
 21
-107.9006634903531
 31
0.0
  0
LINE
  5
110
330
D1
100
AcDbEntity
  8
0
370
     9
100
AcDbLine
 10
-1.50000000000013
 20
-107.9006634903531
 30
0.0
 11
-2.000000000000157
 21
-107.9999999999991
 31
0.0
  0
LINE
  5
111
330
D1
100
AcDbEntity
  8
0
370
     9
100
AcDbLine
 10
-2.000000000000171
 20
-107.9999999999991
 30
0.0
 11
1.999999999999839
 21
-108.7053079228329
 31
0.0
  0
LINE
  5
112
330
D1
100
AcDbEntity
  8
0
370
     9
100
AcDbLine
 10
1.999999999999806
 20
-108.7053079228329
 30
0.0
 11
1.499999999999839
 21
-108.8046444324787
 31
0.0
  0
LINE
  5
113
330
D1
100
AcDbEntity
  8
0
370
     9
100
AcDbLine
 10
1.499999999999839
 20
-108.8046444324787
 30
0.0
 11
1.499999999999834
 21
-110.1171444324787
 31
0.0
  0
LINE
  5
114
330
D1
100
AcDbEntity
  8
0
370
     9
100
AcDbLine
 10
-1.50000000000013
 20
-108.0881634903533
 30
0.0
 11
-1.500000000000135
 21
-109.4006634903533
 31
0.0
  0
LINE
  5
115
330
D1
100
AcDbEntity
  8
0
370
     9
100
AcDbLine
 10
-1.500000000000135
 20
-109.4006634903533
 30
0.0
 11
-2.000000000000132
 21
-109.4999999999991
 31
0.0
  0
LINE
  5
116
330
D1
100
AcDbEntity
  8
0
370
     9
100
AcDbLine
 10
-2.000000000000163
 20
-109.4999999999991
 30
0.0
 11
1.999999999999836
 21
-110.2053079228329
 31
0.0
  0
LINE
  5
117
330
D1
100
AcDbEntity
  8
0
370
     9
100
AcDbLine
 10
1.999999999999803
 20
-110.2053079228329
 30
0.0
 11
1.499999999999832
 21
-110.3046444324785
 31
0.0
  0
LINE
  5
118
330
D1
100
AcDbEntity
  8
0
370
     9
100
AcDbLine
 10
1.499999999999833
 20
-110.3046444324785
 30
0.0
 11
1.499999999999828
 21
-111.6171444324787
 31
0.0
  0
LINE
  5
119
330
D1
100
AcDbEntity
  8
0
370
     9
100
AcDbLine
 10
-1.500000000000164
 20
-109.5881634903533
 30
0.0
 11
-1.500000000000169
 21
-110.9006634903531
 31
0.0
  0
LINE
  5
11A
330
D1
100
AcDbEntity
  8
0
370
     9
100
AcDbLine
 10
-1.500000000000169
 20
-110.9006634903531
 30
0.0
 11
-2.000000000000228
 21
-110.9999999999991
 31
0.0
  0
LINE
  5
11B
330
D1
100
AcDbEntity
  8
0
370
     9
100
AcDbLine
 10
-2.000000000000214
 20
-110.9999999999991
 30
0.0
 11
1.999999999999775
 21
-111.7053079228329
 31
0.0
  0
LINE
  5
11C
330
D1
100
AcDbEntity
  8
0
370
     9
100
AcDbLine
 10
1.999999999999772
 20
-111.7053079228329
 30
0.0
 11
1.499999999999827
 21
-111.8046444324787
 31
0.0
  0
LINE
  5
11D
330
D1
100
AcDbEntity
  8
0
370
     9
100
AcDbLine
 10
1.499999999999827
 20
-111.8046444324787
 30
0.0
 11
1.499999999999822
 21
-113.1171444324787
 31
0.0
  0
LINE
  5
11E
330
D1
100
AcDbEntity
  8
0
370
     9
100
AcDbLine
 10
-1.500000000000142
 20
-111.0881634903534
 30
0.0
 11
-1.500000000000147
 21
-112.4006634903531
 31
0.0
  0
LINE
  5
11F
330
D1
100
AcDbEntity
  8
0
370
     9
100
AcDbLine
 10
-1.500000000000147
 20
-112.4006634903531
 30
0.0
 11
-2.000000000000235
 21
-112.4999999999991
 31
0.0
  0
LINE
  5
120
330
D1
100
AcDbEntity
  8
0
370
     9
100
AcDbLine
 10
-2.000000000000219
 20
-112.4999999999991
 30
0.0
 11
1.999999999999766
 21
-113.2053079228329
 31
0.0
  0
LINE
  5
121
330
D1
100
AcDbEntity
  8
0
370
     9
100
AcDbLine
 10
1.999999999999766
 20
-113.2053079228329
 30
0.0
 11
1.49999999999985
 21
-113.3046444324787
 31
0.0
  0
LINE
  5
122
330
D1
100
AcDbEntity
  8
0
370
     9
100
AcDbLine
 10
1.49999999999985
 20
-113.3046444324787
 30
0.0
 11
1.499999999999845
 21
-114.6171444324787
 31
0.0
  0
LINE
  5
123
330
D1
100
AcDbEntity
  8
0
370
     9
100
AcDbLine
 10
1.499999999999994
 20
-12.8046444324789
 30
0.0
 11
1.499999999999989
 21
-14.11714443247911
 31
0.0
  0
LINE
  5
124
330
D1
100
AcDbEntity
  8
0
370
     9
100
AcDbLine
 10
-1.499999999999975
 20
-12.08816349035356
 30
0.0
 11
-1.49999999999998
 21
-13.40066349035351
 31
0.0
  0
LINE
  5
125
330
D1
100
AcDbEntity
  8
0
370
     9
100
AcDbLine
 10
-1.499999999999994
 20
-18.08816349035378
 30
0.0
 11
-1.5
 21
-19.4006634903533
 31
0.0
  0
LINE
  5
126
330
D1
100
AcDbEntity
  8
0
370
     9
100
AcDbLine
 10
-1.5
 20
-19.4006634903533
 30
0.0
 11
-2.000000000000056
 21
-19.49999999999956
 31
0.0
  0
LINE
  5
127
330
D1
100
AcDbEntity
  8
0
370
     9
100
AcDbLine
 10
-2.000000000000055
 20
-19.49999999999956
 30
0.0
 11
1.999999999999897
 21
-20.20530792283333
 31
0.0
  0
LINE
  5
128
330
D1
100
AcDbEntity
  8
0
370
     9
100
AcDbLine
 10
1.999999999999907
 20
-20.20530792283333
 30
0.0
 11
1.499999999999947
 21
-20.30464443247914
 31
0.0
  0
LINE
  5
129
330
D1
100
AcDbEntity
  8
0
370
     9
100
AcDbLine
 10
-1.49999999999998
 20
-13.40066349035351
 30
0.0
 11
-2.000000000000057
 21
-13.49999999999955
 31
0.0
  0
LINE
  5
12A
330
D1
100
AcDbEntity
  8
0
370
     9
100
AcDbLine
 10
-2.000000000000057
 20
-13.49999999999955
 30
0.0
 11
1.999999999999937
 21
-14.20530792283332
 31
0.0
  0
LINE
  5
12B
330
D1
100
AcDbEntity
  8
0
370
     9
100
AcDbLine
 10
1.999999999999929
 20
-14.20530792283332
 30
0.0
 11
1.499999999999992
 21
-14.30464443247913
 31
0.0
  0
LINE
  5
12C
330
D1
100
AcDbEntity
  8
0
370
     9
100
AcDbLine
 10
1.499999999999992
 20
-14.30464443247913
 30
0.0
 11
1.499999999999986
 21
-15.61714443247911
 31
0.0
  0
LINE
  5
12D
330
D1
100
AcDbEntity
  8
0
370
     9
100
AcDbLine
 10
-1.499999999999978
 20
-13.58816349035379
 30
0.0
 11
-1.499999999999983
 21
-14.90066349035374
 31
0.0
  0
LINE
  5
12E
330
D1
100
AcDbEntity
  8
0
370
     9
100
AcDbLine
 10
-1.499999999999983
 20
-14.90066349035374
 30
0.0
 11
-2.000000000000039
 21
-14.99999999999955
 31
0.0
  0
LINE
  5
12F
330
D1
100
AcDbEntity
  8
0
370
     9
100
AcDbLine
 10
-2.000000000000039
 20
-14.99999999999955
 30
0.0
 11
1.99999999999993
 21
-15.70530792283332
 31
0.0
  0
LINE
  5
130
330
D1
100
AcDbEntity
  8
0
370
     9
100
AcDbLine
 10
1.999999999999927
 20
-15.70530792283332
 30
0.0
 11
1.499999999999986
 21
-15.8046444324789
 31
0.0
  0
LINE
  5
131
330
D1
100
AcDbEntity
  8
0
370
     9
100
AcDbLine
 10
1.499999999999986
 20
-15.8046444324789
 30
0.0
 11
1.499999999999981
 21
-17.1171444324791
 31
0.0
  0
LINE
  5
132
330
D1
100
AcDbEntity
  8
0
370
     9
100
AcDbLine
 10
-1.500000000000011
 20
-15.08816349035378
 30
0.0
 11
-1.500000000000016
 21
-16.40066349035352
 31
0.0
  0
LINE
  5
133
330
D1
100
AcDbEntity
  8
0
370
     9
100
AcDbLine
 10
-1.500000000000016
 20
-16.40066349035352
 30
0.0
 11
-2.000000000000023
 21
-16.49999999999955
 31
0.0
  0
LINE
  5
134
330
D1
100
AcDbEntity
  8
0
370
     9
100
AcDbLine
 10
-2.000000000000022
 20
-16.49999999999955
 30
0.0
 11
1.999999999999927
 21
-17.20530792283332
 31
0.0
  0
LINE
  5
135
330
D1
100
AcDbEntity
  8
0
370
     9
100
AcDbLine
 10
1.999999999999925
 20
-17.20530792283332
 30
0.0
 11
1.49999999999998
 21
-17.30464443247912
 31
0.0
  0
LINE
  5
136
330
D1
100
AcDbEntity
  8
0
370
     9
100
AcDbLine
 10
1.49999999999998
 20
-17.30464443247912
 30
0.0
 11
1.499999999999975
 21
-18.6171444324791
 31
0.0
  0
LINE
  5
137
330
D1
100
AcDbEntity
  8
0
370
     9
100
AcDbLine
 10
-1.499999999999989
 20
-16.58816349035378
 30
0.0
 11
-1.499999999999994
 21
-17.90066349035352
 31
0.0
  0
LINE
  5
138
330
D1
100
AcDbEntity
  8
0
370
     9
100
AcDbLine
 10
-1.499999999999994
 20
-17.90066349035352
 30
0.0
 11
-2.00000000000003
 21
-17.99999999999955
 31
0.0
  0
LINE
  5
139
330
D1
100
AcDbEntity
  8
0
370
     9
100
AcDbLine
 10
-2.000000000000028
 20
-17.99999999999955
 30
0.0
 11
1.999999999999922
 21
-18.70530792283331
 31
0.0
  0
LINE
  5
13A
330
D1
100
AcDbEntity
  8
0
370
     9
100
AcDbLine
 10
1.999999999999918
 20
-18.70530792283331
 30
0.0
 11
1.500000000000003
 21
-18.80464443247912
 31
0.0
  0
LINE
  5
13B
330
D1
100
AcDbEntity
  8
0
370
     9
100
AcDbLine
 10
1.500000000000003
 20
-18.80464443247912
 30
0.0
 11
1.499999999999998
 21
-20.11714443247912
 31
0.0
  0
LINE
  5
13C
330
D1
100
AcDbEntity
  8
0
370
     9
100
AcDbLine
 10
-1.500000000000021
 20
-34.5881634903538
 30
0.0
 11
-1.500000000000026
 21
-35.9006634903533
 31
0.0
  0
LINE
  5
13D
330
D1
100
AcDbEntity
  8
0
370
     9
100
AcDbLine
 10
-1.500000000000026
 20
-35.9006634903533
 30
0.0
 11
-2.00000000000008
 21
-35.99999999999957
 31
0.0
  0
LINE
  5
13E
330
D1
100
AcDbEntity
  8
0
370
     9
100
AcDbLine
 10
-2.000000000000081
 20
-35.99999999999957
 30
0.0
 11
1.99999999999987
 21
-36.70530792283333
 31
0.0
  0
LINE
  5
13F
330
D1
100
AcDbEntity
  8
0
370
     9
100
AcDbLine
 10
1.999999999999881
 20
-36.70530792283333
 30
0.0
 11
1.49999999999993
 21
-36.80464443247914
 31
0.0
  0
LINE
  5
140
330
D1
100
AcDbEntity
  8
0
370
     9
100
AcDbLine
 10
-1.499999999999987
 20
-25.5881634903538
 30
0.0
 11
-1.499999999999992
 21
-26.90066349035352
 31
0.0
  0
LINE
  5
141
330
D1
100
AcDbEntity
  8
0
370
     9
100
AcDbLine
 10
-1.499999999999992
 20
-26.90066349035352
 30
0.0
 11
-2.000000000000067
 21
-26.99999999999956
 31
0.0
  0
LINE
  5
142
330
D1
100
AcDbEntity
  8
0
370
     9
100
AcDbLine
 10
-2.00000000000007
 20
-26.99999999999956
 30
0.0
 11
1.999999999999923
 21
-27.70530792283333
 31
0.0
  0
LINE
  5
143
330
D1
100
AcDbEntity
  8
0
370
     9
100
AcDbLine
 10
1.999999999999915
 20
-27.70530792283333
 30
0.0
 11
1.499999999999977
 21
-27.80464443247891
 31
0.0
  0
LINE
  5
144
330
D1
100
AcDbEntity
  8
0
370
     9
100
AcDbLine
 10
1.499999999999976
 20
-27.80464443247891
 30
0.0
 11
1.499999999999971
 21
-29.11714443247912
 31
0.0
  0
LINE
  5
145
330
D1
100
AcDbEntity
  8
0
370
     9
100
AcDbLine
 10
-1.50000000000005
 20
-27.08816349035378
 30
0.0
 11
-1.500000000000055
 21
-28.40066349035352
 31
0.0
  0
LINE
  5
146
330
D1
100
AcDbEntity
  8
0
370
     9
100
AcDbLine
 10
-1.500000000000055
 20
-28.40066349035352
 30
0.0
 11
-2.000000000000083
 21
-28.49999999999956
 31
0.0
  0
LINE
  5
147
330
D1
100
AcDbEntity
  8
0
370
     9
100
AcDbLine
 10
-2.000000000000081
 20
-28.49999999999956
 30
0.0
 11
1.999999999999913
 21
-29.20530792283333
 31
0.0
  0
LINE
  5
148
330
D1
100
AcDbEntity
  8
0
370
     9
100
AcDbLine
 10
1.999999999999907
 20
-29.20530792283333
 30
0.0
 11
1.499999999999942
 21
-29.30464443247914
 31
0.0
  0
LINE
  5
149
330
D1
100
AcDbEntity
  8
0
370
     9
100
AcDbLine
 10
1.499999999999942
 20
-29.30464443247914
 30
0.0
 11
1.499999999999937
 21
-30.61714443247911
 31
0.0
  0
LINE
  5
14A
330
D1
100
AcDbEntity
  8
0
370
     9
100
AcDbLine
 10
-1.499999999999999
 20
-28.58816349035379
 30
0.0
 11
-1.500000000000004
 21
-29.90066349035352
 31
0.0
  0
LINE
  5
14B
330
D1
100
AcDbEntity
  8
0
370
     9
100
AcDbLine
 10
-1.500000000000004
 20
-29.90066349035352
 30
0.0
 11
-2.000000000000078
 21
-29.99999999999956
 31
0.0
  0
LINE
  5
14C
330
D1
100
AcDbEntity
  8
0
370
     9
100
AcDbLine
 10
-2.000000000000081
 20
-29.99999999999956
 30
0.0
 11
1.999999999999915
 21
-30.70530792283333
 31
0.0
  0
LINE
  5
14D
330
D1
100
AcDbEntity
  8
0
370
     9
100
AcDbLine
 10
1.999999999999903
 20
-30.70530792283333
 30
0.0
 11
1.499999999999964
 21
-30.80464443247914
 31
0.0
  0
LINE
  5
14E
330
D1
100
AcDbEntity
  8
0
370
     9
100
AcDbLine
 10
1.499999999999965
 20
-30.80464443247914
 30
0.0
 11
1.49999999999996
 21
-32.11714443247912
 31
0.0
  0
LINE
  5
14F
330
D1
100
AcDbEntity
  8
0
370
     9
100
AcDbLine
 10
-1.500000000000004
 20
-30.08816349035379
 30
0.0
 11
-1.500000000000009
 21
-31.40066349035375
 31
0.0
  0
LINE
  5
150
330
D1
100
AcDbEntity
  8
0
370
     9
100
AcDbLine
 10
-1.500000000000009
 20
-31.40066349035375
 30
0.0
 11
-2.000000000000066
 21
-31.49999999999956
 31
0.0
  0
LINE
  5
151
330
D1
100
AcDbEntity
  8
0
370
     9
100
AcDbLine
 10
-2.000000000000065
 20
-31.49999999999956
 30
0.0
 11
1.999999999999908
 21
-32.20530792283333
 31
0.0
  0
LINE
  5
152
330
D1
100
AcDbEntity
  8
0
370
     9
100
AcDbLine
 10
1.99999999999991
 20
-32.20530792283333
 30
0.0
 11
1.499999999999959
 21
-32.3046444324789
 31
0.0
  0
LINE
  5
153
330
D1
100
AcDbEntity
  8
0
370
     9
100
AcDbLine
 10
1.499999999999959
 20
-32.3046444324789
 30
0.0
 11
1.499999999999954
 21
-33.61714443247912
 31
0.0
  0
LINE
  5
154
330
D1
100
AcDbEntity
  8
0
370
     9
100
AcDbLine
 10
-1.500000000000038
 20
-31.58816349035378
 30
0.0
 11
-1.500000000000043
 21
-32.90066349035353
 31
0.0
  0
LINE
  5
155
330
D1
100
AcDbEntity
  8
0
370
     9
100
AcDbLine
 10
-1.500000000000043
 20
-32.90066349035353
 30
0.0
 11
-2.00000000000009
 21
-32.99999999999957
 31
0.0
  0
LINE
  5
156
330
D1
100
AcDbEntity
  8
0
370
     9
100
AcDbLine
 10
-2.000000000000092
 20
-32.99999999999957
 30
0.0
 11
1.99999999999986
 21
-33.70530792283333
 31
0.0
  0
LINE
  5
157
330
D1
100
AcDbEntity
  8
0
370
     9
100
AcDbLine
 10
1.999999999999855
 20
-33.70530792283333
 30
0.0
 11
1.499999999999954
 21
-33.80464443247913
 31
0.0
  0
LINE
  5
158
330
D1
100
AcDbEntity
  8
0
370
     9
100
AcDbLine
 10
1.499999999999954
 20
-33.80464443247913
 30
0.0
 11
1.499999999999948
 21
-35.11714443247912
 31
0.0
  0
LINE
  5
159
330
D1
100
AcDbEntity
  8
0
370
     9
100
AcDbLine
 10
-1.500000000000016
 20
-33.0881634903538
 30
0.0
 11
-1.500000000000021
 21
-34.40066349035352
 31
0.0
  0
LINE
  5
15A
330
D1
100
AcDbEntity
  8
0
370
     9
100
AcDbLine
 10
-1.500000000000021
 20
-34.40066349035352
 30
0.0
 11
-2.000000000000096
 21
-34.49999999999957
 31
0.0
  0
LINE
  5
15B
330
D1
100
AcDbEntity
  8
0
370
     9
100
AcDbLine
 10
-2.000000000000099
 20
-34.49999999999957
 30
0.0
 11
1.999999999999851
 21
-35.20530792283333
 31
0.0
  0
LINE
  5
15C
330
D1
100
AcDbEntity
  8
0
370
     9
100
AcDbLine
 10
1.999999999999848
 20
-35.20530792283333
 30
0.0
 11
1.499999999999976
 21
-35.30464443247912
 31
0.0
  0
LINE
  5
15D
330
D1
100
AcDbEntity
  8
0
370
     9
100
AcDbLine
 10
1.499999999999976
 20
-35.30464443247912
 30
0.0
 11
1.499999999999971
 21
-36.61714443247913
 31
0.0
  0
LINE
  5
15E
330
D1
100
AcDbEntity
  8
0
370
     9
100
AcDbLine
 10
-1.500000000000004
 20
-22.58816349035378
 30
0.0
 11
-1.500000000000009
 21
-23.90066349035376
 31
0.0
  0
LINE
  5
15F
330
D1
100
AcDbEntity
  8
0
370
     9
100
AcDbLine
 10
-1.500000000000009
 20
-23.90066349035376
 30
0.0
 11
-1.999999999999994
 21
-23.99999999999956
 31
0.0
  0
LINE
  5
160
330
D1
100
AcDbEntity
  8
0
370
     9
100
AcDbLine
 10
-1.999999999999993
 20
-23.99999999999956
 30
0.0
 11
1.99999999999998
 21
-24.70530792283333
 31
0.0
  0
LINE
  5
161
330
D1
100
AcDbEntity
  8
0
370
     9
100
AcDbLine
 10
1.999999999999982
 20
-24.70530792283333
 30
0.0
 11
1.49999999999993
 21
-24.80464443247937
 31
0.0
  0
LINE
  5
162
330
D1
100
AcDbEntity
  8
0
370
     9
100
AcDbLine
 10
1.49999999999993
 20
-24.80464443247937
 30
0.0
 11
1.49999999999992
 21
-27.61714443247911
 31
0.0
  0
LINE
  5
163
330
D1
100
AcDbEntity
  8
0
370
     9
100
AcDbLine
 10
-1.499999999999999
 20
-21.08816349035379
 30
0.0
 11
-1.500000000000004
 21
-22.40066349035353
 31
0.0
  0
LINE
  5
164
330
D1
100
AcDbEntity
  8
0
370
     9
100
AcDbLine
 10
-1.500000000000004
 20
-22.40066349035353
 30
0.0
 11
-2.000000000000005
 21
-22.49999999999956
 31
0.0
  0
LINE
  5
165
330
D1
100
AcDbEntity
  8
0
370
     9
100
AcDbLine
 10
-2.000000000000007
 20
-22.49999999999956
 30
0.0
 11
1.999999999999938
 21
-23.20530792283332
 31
0.0
  0
LINE
  5
166
330
D1
100
AcDbEntity
  8
0
370
     9
100
AcDbLine
 10
1.999999999999937
 20
-23.20530792283332
 30
0.0
 11
1.499999999999907
 21
-23.30464443247891
 31
0.0
  0
LINE
  5
167
330
D1
100
AcDbEntity
  8
0
370
     9
100
AcDbLine
 10
1.499999999999908
 20
-23.30464443247891
 30
0.0
 11
1.499999999999903
 21
-24.61714443247909
 31
0.0
  0
LINE
  5
168
330
D1
100
AcDbEntity
  8
0
370
     9
100
AcDbLine
 10
1.499999999999947
 20
-20.30464443247914
 30
0.0
 11
1.499999999999942
 21
-21.6171444324791
 31
0.0
  0
LINE
  5
169
330
D1
100
AcDbEntity
  8
0
370
     9
100
AcDbLine
 10
-1.500000000000022
 20
-19.58816349035379
 30
0.0
 11
-1.500000000000026
 21
-20.90066349035375
 31
0.0
  0
LINE
  5
16A
330
D1
100
AcDbEntity
  8
0
370
     9
100
AcDbLine
 10
-1.500000000000026
 20
-20.90066349035375
 30
0.0
 11
-2.000000000000024
 21
-20.99999999999956
 31
0.0
  0
LINE
  5
16B
330
D1
100
AcDbEntity
  8
0
370
     9
100
AcDbLine
 10
-2.000000000000026
 20
-20.99999999999956
 30
0.0
 11
1.999999999999948
 21
-21.70530792283333
 31
0.0
  0
LINE
  5
16C
330
D1
100
AcDbEntity
  8
0
370
     9
100
AcDbLine
 10
1.99999999999995
 20
-21.70530792283333
 30
0.0
 11
1.499999999999942
 21
-21.80464443247913
 31
0.0
  0
LINE
  5
16D
330
D1
100
AcDbEntity
  8
0
370
     9
100
AcDbLine
 10
1.499999999999942
 20
-21.80464443247913
 30
0.0
 11
1.499999999999936
 21
-23.1171444324791
 31
0.0
  0
LINE
  5
16E
330
D1
100
AcDbEntity
  8
0
370
     9
100
AcDbLine
 10
1.499999999999925
 20
-26.30464443247915
 30
0.0
 11
1.999999999999919
 21
-26.20530792283333
 31
0.0
  0
LINE
  5
16F
330
D1
100
AcDbEntity
  8
0
370
     9
100
AcDbLine
 10
1.999999999999922
 20
-26.20530792283333
 30
0.0
 11
-2.000000000000095
 21
-25.49999999999956
 31
0.0
  0
LINE
  5
170
330
D1
100
AcDbEntity
  8
0
370
     9
100
AcDbLine
 10
-2.000000000000095
 20
-25.49999999999956
 30
0.0
 11
-1.500000000000044
 21
-25.40066349035374
 31
0.0
  0
LINE
  5
171
330
D1
100
AcDbEntity
  8
0
370
     9
100
AcDbLine
 10
-1.500000000000043
 20
-25.40066349035374
 30
0.0
 11
-1.500000000000038
 21
-24.08816349035378
 31
0.0
  0
LINE
  5
172
330
D1
100
AcDbEntity
  8
0
370
     9
100
AcDbLine
 10
1.49999999999993
 20
-36.80464443247914
 30
0.0
 11
1.499999999999925
 21
-38.11714443247894
 31
0.0
  0
LINE
  5
173
330
D1
100
AcDbEntity
  8
0
370
     9
100
AcDbLine
 10
-1.500000000000011
 20
-36.0881634903538
 30
0.0
 11
-1.500000000000016
 21
-37.40066349035337
 31
0.0
  0
LINE
  5
174
330
D1
100
AcDbEntity
  8
0
370
     9
100
AcDbLine
 10
-1.500000000000016
 20
-37.40066349035337
 30
0.0
 11
-2.000000000000045
 21
-37.4999999999994
 31
0.0
  0
LINE
  5
175
330
D1
100
AcDbEntity
  8
0
370
     9
100
AcDbLine
 10
-2.000000000000048
 20
-37.4999999999994
 30
0.0
 11
1.999999999999951
 21
-38.20530792283317
 31
0.0
  0
LINE
  5
176
330
D1
100
AcDbEntity
  8
0
370
     9
100
AcDbLine
 10
1.99999999999994
 20
-38.20530792283317
 30
0.0
 11
1.499999999999953
 21
-38.30464443247899
 31
0.0
  0
LINE
  5
177
330
D1
100
AcDbEntity
  8
0
370
     9
100
AcDbLine
 10
1.499999999999953
 20
-38.30464443247899
 30
0.0
 11
1.499999999999948
 21
-39.61714443247895
 31
0.0
  0
LINE
  5
178
330
D1
100
AcDbEntity
  8
0
370
     9
100
AcDbLine
 10
-1.500000000000016
 20
-37.58816349035362
 30
0.0
 11
-1.500000000000022
 21
-38.9006634903536
 31
0.0
  0
LINE
  5
179
330
D1
100
AcDbEntity
  8
0
370
     9
100
AcDbLine
 10
-1.500000000000022
 20
-38.9006634903536
 30
0.0
 11
-2.000000000000023
 21
-38.9999999999994
 31
0.0
  0
LINE
  5
17A
330
D1
100
AcDbEntity
  8
0
370
     9
100
AcDbLine
 10
-2.000000000000026
 20
-38.9999999999994
 30
0.0
 11
1.999999999999927
 21
-39.70530792283317
 31
0.0
  0
LINE
  5
17B
330
D1
100
AcDbEntity
  8
0
370
     9
100
AcDbLine
 10
1.999999999999931
 20
-39.70530792283317
 30
0.0
 11
1.499999999999947
 21
-39.80464443247875
 31
0.0
  0
LINE
  5
17C
330
D1
100
AcDbEntity
  8
0
370
     9
100
AcDbLine
 10
1.499999999999947
 20
-39.80464443247875
 30
0.0
 11
1.499999999999942
 21
-41.11714443247897
 31
0.0
  0
LINE
  5
17D
330
D1
100
AcDbEntity
  8
0
370
     9
100
AcDbLine
 10
-1.50000000000005
 20
-39.08816349035362
 30
0.0
 11
-1.500000000000055
 21
-40.40066349035336
 31
0.0
  0
LINE
  5
17E
330
D1
100
AcDbEntity
  8
0
370
     9
100
AcDbLine
 10
-1.500000000000055
 20
-40.40066349035336
 30
0.0
 11
-2.000000000000113
 21
-40.4999999999994
 31
0.0
  0
LINE
  5
17F
330
D1
100
AcDbEntity
  8
0
370
     9
100
AcDbLine
 10
-2.000000000000099
 20
-40.4999999999994
 30
0.0
 11
1.99999999999989
 21
-41.20530792283317
 31
0.0
  0
LINE
  5
180
330
D1
100
AcDbEntity
  8
0
370
     9
100
AcDbLine
 10
1.999999999999887
 20
-41.20530792283317
 30
0.0
 11
1.499999999999941
 21
-41.30464443247898
 31
0.0
  0
LINE
  5
181
330
D1
100
AcDbEntity
  8
0
370
     9
100
AcDbLine
 10
1.499999999999941
 20
-41.30464443247898
 30
0.0
 11
1.499999999999936
 21
-42.61714443247896
 31
0.0
  0
LINE
  5
182
330
D1
100
AcDbEntity
  8
0
370
     9
100
AcDbLine
 10
-1.500000000000028
 20
-40.58816349035364
 30
0.0
 11
-1.500000000000033
 21
-41.90066349035336
 31
0.0
  0
LINE
  5
183
330
D1
100
AcDbEntity
  8
0
370
     9
100
AcDbLine
 10
-1.500000000000033
 20
-41.90066349035336
 30
0.0
 11
-2.00000000000012
 21
-41.9999999999994
 31
0.0
  0
LINE
  5
184
330
D1
100
AcDbEntity
  8
0
370
     9
100
AcDbLine
 10
-2.000000000000105
 20
-41.9999999999994
 30
0.0
 11
1.999999999999879
 21
-42.70530792283317
 31
0.0
  0
LINE
  5
185
330
D1
100
AcDbEntity
  8
0
370
     9
100
AcDbLine
 10
1.999999999999874
 20
-42.70530792283317
 30
0.0
 11
1.499999999999938
 21
-42.80464443247899
 31
0.0
  0
LINE
  5
186
330
D1
100
AcDbEntity
  8
0
370
     9
100
AcDbLine
 10
1.499999999999939
 20
-42.80464443247899
 30
0.0
 11
1.499999999999934
 21
-44.11714443247896
 31
0.0
  0
LINE
  5
187
330
D1
100
AcDbEntity
  8
0
370
     9
100
AcDbLine
 10
-1.50000000000003
 20
-42.08816349035364
 30
0.0
 11
-1.500000000000035
 21
-43.40066349035336
 31
0.0
  0
LINE
  5
188
330
D1
100
AcDbEntity
  8
0
370
     9
100
AcDbLine
 10
-1.500000000000043
 20
-48.08816349035362
 30
0.0
 11
-1.500000000000048
 21
-49.40066349035315
 31
0.0
  0
LINE
  5
189
330
D1
100
AcDbEntity
  8
0
370
     9
100
AcDbLine
 10
-1.500000000000048
 20
-49.40066349035315
 30
0.0
 11
-2.000000000000103
 21
-49.4999999999994
 31
0.0
  0
LINE
  5
18A
330
D1
100
AcDbEntity
  8
0
370
     9
100
AcDbLine
 10
-2.000000000000103
 20
-49.4999999999994
 30
0.0
 11
1.999999999999849
 21
-50.20530792283318
 31
0.0
  0
LINE
  5
18B
330
D1
100
AcDbEntity
  8
0
370
     9
100
AcDbLine
 10
1.999999999999859
 20
-50.20530792283318
 30
0.0
 11
1.499999999999899
 21
-50.30464443247898
 31
0.0
  0
LINE
  5
18C
330
D1
100
AcDbEntity
  8
0
370
     9
100
AcDbLine
 10
-1.500000000000035
 20
-43.40066349035336
 30
0.0
 11
-2.000000000000111
 21
-43.4999999999994
 31
0.0
  0
LINE
  5
18D
330
D1
100
AcDbEntity
  8
0
370
     9
100
AcDbLine
 10
-2.000000000000097
 20
-43.4999999999994
 30
0.0
 11
1.999999999999893
 21
-44.20530792283317
 31
0.0
  0
LINE
  5
18E
330
D1
100
AcDbEntity
  8
0
370
     9
100
AcDbLine
 10
1.999999999999893
 20
-44.20530792283317
 30
0.0
 11
1.499999999999943
 21
-44.30464443247897
 31
0.0
  0
LINE
  5
18F
330
D1
100
AcDbEntity
  8
0
370
     9
100
AcDbLine
 10
1.499999999999943
 20
-44.30464443247897
 30
0.0
 11
1.499999999999938
 21
-45.61714443247896
 31
0.0
  0
LINE
  5
190
330
D1
100
AcDbEntity
  8
0
370
     9
100
AcDbLine
 10
-1.500000000000026
 20
-43.58816349035364
 30
0.0
 11
-1.500000000000031
 21
-44.90066349035359
 31
0.0
  0
LINE
  5
191
330
D1
100
AcDbEntity
  8
0
370
     9
100
AcDbLine
 10
-1.500000000000031
 20
-44.90066349035359
 30
0.0
 11
-2.000000000000087
 21
-44.9999999999994
 31
0.0
  0
LINE
  5
192
330
D1
100
AcDbEntity
  8
0
370
     9
100
AcDbLine
 10
-2.000000000000087
 20
-44.9999999999994
 30
0.0
 11
1.999999999999885
 21
-45.70530792283316
 31
0.0
  0
LINE
  5
193
330
D1
100
AcDbEntity
  8
0
370
     9
100
AcDbLine
 10
1.999999999999882
 20
-45.70530792283316
 30
0.0
 11
1.499999999999938
 21
-45.80464443247875
 31
0.0
  0
LINE
  5
194
330
D1
100
AcDbEntity
  8
0
370
     9
100
AcDbLine
 10
1.499999999999937
 20
-45.80464443247875
 30
0.0
 11
1.499999999999932
 21
-47.11714443247895
 31
0.0
  0
LINE
  5
195
330
D1
100
AcDbEntity
  8
0
370
     9
100
AcDbLine
 10
-1.50000000000006
 20
-45.08816349035362
 30
0.0
 11
-1.500000000000065
 21
-46.40066349035337
 31
0.0
  0
LINE
  5
196
330
D1
100
AcDbEntity
  8
0
370
     9
100
AcDbLine
 10
-1.500000000000065
 20
-46.40066349035337
 30
0.0
 11
-2.000000000000065
 21
-46.4999999999994
 31
0.0
  0
LINE
  5
197
330
D1
100
AcDbEntity
  8
0
370
     9
100
AcDbLine
 10
-2.00000000000008
 20
-46.4999999999994
 30
0.0
 11
1.999999999999879
 21
-47.20530792283316
 31
0.0
  0
LINE
  5
198
330
D1
100
AcDbEntity
  8
0
370
     9
100
AcDbLine
 10
1.999999999999876
 20
-47.20530792283316
 30
0.0
 11
1.499999999999932
 21
-47.30464443247897
 31
0.0
  0
LINE
  5
199
330
D1
100
AcDbEntity
  8
0
370
     9
100
AcDbLine
 10
1.499999999999932
 20
-47.30464443247897
 30
0.0
 11
1.499999999999927
 21
-48.61714443247895
 31
0.0
  0
LINE
  5
19A
330
D1
100
AcDbEntity
  8
0
370
     9
100
AcDbLine
 10
-1.500000000000037
 20
-46.58816349035362
 30
0.0
 11
-1.500000000000042
 21
-47.90066349035337
 31
0.0
  0
LINE
  5
19B
330
D1
100
AcDbEntity
  8
0
370
     9
100
AcDbLine
 10
-1.500000000000042
 20
-47.90066349035337
 30
0.0
 11
-2.000000000000072
 21
-47.99999999999939
 31
0.0
  0
LINE
  5
19C
330
D1
100
AcDbEntity
  8
0
370
     9
100
AcDbLine
 10
-2.000000000000087
 20
-47.99999999999939
 30
0.0
 11
1.999999999999874
 21
-48.70530792283316
 31
0.0
  0
LINE
  5
19D
330
D1
100
AcDbEntity
  8
0
370
     9
100
AcDbLine
 10
1.999999999999868
 20
-48.70530792283316
 30
0.0
 11
1.499999999999954
 21
-48.80464443247897
 31
0.0
  0
LINE
  5
19E
330
D1
100
AcDbEntity
  8
0
370
     9
100
AcDbLine
 10
1.499999999999954
 20
-48.80464443247897
 30
0.0
 11
1.49999999999995
 21
-50.11714443247897
 31
0.0
  0
LINE
  5
19F
330
D1
100
AcDbEntity
  8
0
370
     9
100
AcDbLine
 10
-1.500000000000069
 20
-64.58816349035365
 30
0.0
 11
-1.500000000000075
 21
-65.90066349035315
 31
0.0
  0
LINE
  5
1A0
330
D1
100
AcDbEntity
  8
0
370
     9
100
AcDbLine
 10
-1.500000000000075
 20
-65.90066349035315
 30
0.0
 11
-2.000000000000128
 21
-65.99999999999942
 31
0.0
  0
LINE
  5
1A1
330
D1
100
AcDbEntity
  8
0
370
     9
100
AcDbLine
 10
-2.00000000000013
 20
-65.99999999999942
 30
0.0
 11
1.999999999999823
 21
-66.70530792283319
 31
0.0
  0
LINE
  5
1A2
330
D1
100
AcDbEntity
  8
0
370
     9
100
AcDbLine
 10
1.999999999999832
 20
-66.70530792283319
 30
0.0
 11
1.499999999999881
 21
-66.80464443247898
 31
0.0
  0
LINE
  5
1A3
330
D1
100
AcDbEntity
  8
0
370
     9
100
AcDbLine
 10
-1.500000000000036
 20
-55.58816349035365
 30
0.0
 11
-1.500000000000041
 21
-56.90066349035337
 31
0.0
  0
LINE
  5
1A4
330
D1
100
AcDbEntity
  8
0
370
     9
100
AcDbLine
 10
-1.500000000000041
 20
-56.90066349035337
 30
0.0
 11
-2.000000000000127
 21
-56.99999999999941
 31
0.0
  0
LINE
  5
1A5
330
D1
100
AcDbEntity
  8
0
370
     9
100
AcDbLine
 10
-2.000000000000112
 20
-56.99999999999941
 30
0.0
 11
1.999999999999875
 21
-57.70530792283318
 31
0.0
  0
LINE
  5
1A6
330
D1
100
AcDbEntity
  8
0
370
     9
100
AcDbLine
 10
1.999999999999872
 20
-57.70530792283318
 30
0.0
 11
1.499999999999928
 21
-57.80464443247876
 31
0.0
  0
LINE
  5
1A7
330
D1
100
AcDbEntity
  8
0
370
     9
100
AcDbLine
 10
1.499999999999928
 20
-57.80464443247876
 30
0.0
 11
1.499999999999923
 21
-59.11714443247897
 31
0.0
  0
LINE
  5
1A8
330
D1
100
AcDbEntity
  8
0
370
     9
100
AcDbLine
 10
-1.500000000000098
 20
-57.08816349035364
 30
0.0
 11
-1.500000000000103
 21
-58.40066349035337
 31
0.0
  0
LINE
  5
1A9
330
D1
100
AcDbEntity
  8
0
370
     9
100
AcDbLine
 10
-1.500000000000103
 20
-58.40066349035337
 30
0.0
 11
-2.000000000000132
 21
-58.49999999999941
 31
0.0
  0
LINE
  5
1AA
330
D1
100
AcDbEntity
  8
0
370
     9
100
AcDbLine
 10
-2.000000000000118
 20
-58.49999999999941
 30
0.0
 11
1.999999999999865
 21
-59.20530792283318
 31
0.0
  0
LINE
  5
1AB
330
D1
100
AcDbEntity
  8
0
370
     9
100
AcDbLine
 10
1.999999999999857
 20
-59.20530792283318
 30
0.0
 11
1.499999999999893
 21
-59.30464443247898
 31
0.0
  0
LINE
  5
1AC
330
D1
100
AcDbEntity
  8
0
370
     9
100
AcDbLine
 10
1.499999999999893
 20
-59.30464443247898
 30
0.0
 11
1.499999999999889
 21
-60.61714443247895
 31
0.0
  0
LINE
  5
1AD
330
D1
100
AcDbEntity
  8
0
370
     9
100
AcDbLine
 10
-1.500000000000047
 20
-58.58816349035364
 30
0.0
 11
-1.500000000000052
 21
-59.90066349035336
 31
0.0
  0
LINE
  5
1AE
330
D1
100
AcDbEntity
  8
0
370
     9
100
AcDbLine
 10
-1.500000000000052
 20
-59.90066349035336
 30
0.0
 11
-2.000000000000138
 21
-59.9999999999994
 31
0.0
  0
LINE
  5
1AF
330
D1
100
AcDbEntity
  8
0
370
     9
100
AcDbLine
 10
-2.000000000000124
 20
-59.9999999999994
 30
0.0
 11
1.999999999999867
 21
-60.70530792283317
 31
0.0
  0
LINE
  5
1B0
330
D1
100
AcDbEntity
  8
0
370
     9
100
AcDbLine
 10
1.999999999999873
 20
-60.70530792283317
 30
0.0
 11
1.499999999999917
 21
-60.80464443247898
 31
0.0
  0
LINE
  5
1B1
330
D1
100
AcDbEntity
  8
0
370
     9
100
AcDbLine
 10
1.499999999999917
 20
-60.80464443247898
 30
0.0
 11
1.499999999999911
 21
-62.11714443247896
 31
0.0
  0
LINE
  5
1B2
330
D1
100
AcDbEntity
  8
0
370
     9
100
AcDbLine
 10
-1.500000000000053
 20
-60.08816349035364
 30
0.0
 11
-1.500000000000058
 21
-61.40066349035359
 31
0.0
  0
LINE
  5
1B3
330
D1
100
AcDbEntity
  8
0
370
     9
100
AcDbLine
 10
-1.500000000000058
 20
-61.40066349035359
 30
0.0
 11
-2.000000000000114
 21
-61.4999999999994
 31
0.0
  0
LINE
  5
1B4
330
D1
100
AcDbEntity
  8
0
370
     9
100
AcDbLine
 10
-2.000000000000114
 20
-61.4999999999994
 30
0.0
 11
1.999999999999861
 21
-62.20530792283317
 31
0.0
  0
LINE
  5
1B5
330
D1
100
AcDbEntity
  8
0
370
     9
100
AcDbLine
 10
1.999999999999854
 20
-62.20530792283317
 30
0.0
 11
1.499999999999911
 21
-62.30464443247875
 31
0.0
  0
LINE
  5
1B6
330
D1
100
AcDbEntity
  8
0
370
     9
100
AcDbLine
 10
1.499999999999911
 20
-62.30464443247875
 30
0.0
 11
1.499999999999906
 21
-63.61714443247897
 31
0.0
  0
LINE
  5
1B7
330
D1
100
AcDbEntity
  8
0
370
     9
100
AcDbLine
 10
-1.500000000000086
 20
-61.58816349035363
 30
0.0
 11
-1.500000000000091
 21
-62.90066349035337
 31
0.0
  0
LINE
  5
1B8
330
D1
100
AcDbEntity
  8
0
370
     9
100
AcDbLine
 10
-1.500000000000091
 20
-62.90066349035337
 30
0.0
 11
-2.00000000000015
 21
-62.99999999999942
 31
0.0
  0
LINE
  5
1B9
330
D1
100
AcDbEntity
  8
0
370
     9
100
AcDbLine
 10
-2.000000000000135
 20
-62.99999999999942
 30
0.0
 11
1.999999999999797
 21
-63.70530792283318
 31
0.0
  0
LINE
  5
1BA
330
D1
100
AcDbEntity
  8
0
370
     9
100
AcDbLine
 10
1.999999999999804
 20
-63.70530792283318
 30
0.0
 11
1.499999999999905
 21
-63.80464443247897
 31
0.0
  0
LINE
  5
1BB
330
D1
100
AcDbEntity
  8
0
370
     9
100
AcDbLine
 10
1.499999999999905
 20
-63.80464443247897
 30
0.0
 11
1.4999999999999
 21
-65.11714443247897
 31
0.0
  0
LINE
  5
1BC
330
D1
100
AcDbEntity
  8
0
370
     9
100
AcDbLine
 10
-1.500000000000064
 20
-63.08816349035365
 30
0.0
 11
-1.500000000000069
 21
-64.40066349035337
 31
0.0
  0
LINE
  5
1BD
330
D1
100
AcDbEntity
  8
0
370
     9
100
AcDbLine
 10
-1.500000000000069
 20
-64.40066349035337
 30
0.0
 11
-2.000000000000156
 21
-64.49999999999942
 31
0.0
  0
LINE
  5
1BE
330
D1
100
AcDbEntity
  8
0
370
     9
100
AcDbLine
 10
-2.000000000000141
 20
-64.49999999999942
 30
0.0
 11
1.999999999999791
 21
-65.20530792283317
 31
0.0
  0
LINE
  5
1BF
330
D1
100
AcDbEntity
  8
0
370
     9
100
AcDbLine
 10
1.9999999999998
 20
-65.20530792283317
 30
0.0
 11
1.499999999999928
 21
-65.30464443247897
 31
0.0
  0
LINE
  5
1C0
330
D1
100
AcDbEntity
  8
0
370
     9
100
AcDbLine
 10
1.499999999999928
 20
-65.30464443247897
 30
0.0
 11
1.499999999999923
 21
-66.61714443247898
 31
0.0
  0
LINE
  5
1C1
330
D1
100
AcDbEntity
  8
0
370
     9
100
AcDbLine
 10
-1.500000000000053
 20
-52.58816349035363
 30
0.0
 11
-1.500000000000058
 21
-53.90066349035361
 31
0.0
  0
LINE
  5
1C2
330
D1
100
AcDbEntity
  8
0
370
     9
100
AcDbLine
 10
-1.500000000000058
 20
-53.90066349035361
 30
0.0
 11
-2.000000000000032
 21
-53.99999999999941
 31
0.0
  0
LINE
  5
1C3
330
D1
100
AcDbEntity
  8
0
370
     9
100
AcDbLine
 10
-2.000000000000034
 20
-53.99999999999941
 30
0.0
 11
1.99999999999992
 21
-54.70530792283318
 31
0.0
  0
LINE
  5
1C4
330
D1
100
AcDbEntity
  8
0
370
     9
100
AcDbLine
 10
1.999999999999924
 20
-54.70530792283318
 30
0.0
 11
1.499999999999882
 21
-54.80464443247922
 31
0.0
  0
LINE
  5
1C5
330
D1
100
AcDbEntity
  8
0
370
     9
100
AcDbLine
 10
1.499999999999882
 20
-54.80464443247922
 30
0.0
 11
1.499999999999871
 21
-57.61714443247896
 31
0.0
  0
LINE
  5
1C6
330
D1
100
AcDbEntity
  8
0
370
     9
100
AcDbLine
 10
-1.500000000000047
 20
-51.08816349035363
 30
0.0
 11
-1.500000000000052
 21
-52.40066349035337
 31
0.0
  0
LINE
  5
1C7
330
D1
100
AcDbEntity
  8
0
370
     9
100
AcDbLine
 10
-1.500000000000052
 20
-52.40066349035337
 30
0.0
 11
-2.000000000000053
 21
-52.4999999999994
 31
0.0
  0
LINE
  5
1C8
330
D1
100
AcDbEntity
  8
0
370
     9
100
AcDbLine
 10
-2.000000000000067
 20
-52.4999999999994
 30
0.0
 11
1.99999999999989
 21
-53.20530792283317
 31
0.0
  0
LINE
  5
1C9
330
D1
100
AcDbEntity
  8
0
370
     9
100
AcDbLine
 10
1.999999999999886
 20
-53.20530792283317
 30
0.0
 11
1.49999999999986
 21
-53.30464443247875
 31
0.0
  0
LINE
  5
1CA
330
D1
100
AcDbEntity
  8
0
370
     9
100
AcDbLine
 10
1.499999999999859
 20
-53.30464443247875
 30
0.0
 11
1.499999999999854
 21
-54.61714443247894
 31
0.0
  0
LINE
  5
1CB
330
D1
100
AcDbEntity
  8
0
370
     9
100
AcDbLine
 10
1.499999999999899
 20
-50.30464443247898
 30
0.0
 11
1.499999999999894
 21
-51.61714443247895
 31
0.0
  0
LINE
  5
1CC
330
D1
100
AcDbEntity
  8
0
370
     9
100
AcDbLine
 10
-1.50000000000007
 20
-49.58816349035364
 30
0.0
 11
-1.500000000000075
 21
-50.9006634903536
 31
0.0
  0
LINE
  5
1CD
330
D1
100
AcDbEntity
  8
0
370
     9
100
AcDbLine
 10
-1.500000000000075
 20
-50.9006634903536
 30
0.0
 11
-2.000000000000073
 21
-50.9999999999994
 31
0.0
  0
LINE
  5
1CE
330
D1
100
AcDbEntity
  8
0
370
     9
100
AcDbLine
 10
-2.000000000000074
 20
-50.9999999999994
 30
0.0
 11
1.9999999999999
 21
-51.70530792283317
 31
0.0
  0
LINE
  5
1CF
330
D1
100
AcDbEntity
  8
0
370
     9
100
AcDbLine
 10
1.999999999999901
 20
-51.70530792283317
 30
0.0
 11
1.499999999999893
 21
-51.80464443247898
 31
0.0
  0
LINE
  5
1D0
330
D1
100
AcDbEntity
  8
0
370
     9
100
AcDbLine
 10
1.499999999999893
 20
-51.80464443247898
 30
0.0
 11
1.499999999999888
 21
-53.11714443247895
 31
0.0
  0
LINE
  5
1D1
330
D1
100
AcDbEntity
  8
0
370
     9
100
AcDbLine
 10
1.499999999999876
 20
-56.30464443247899
 30
0.0
 11
1.99999999999987
 21
-56.20530792283318
 31
0.0
  0
LINE
  5
1D2
330
D1
100
AcDbEntity
  8
0
370
     9
100
AcDbLine
 10
1.999999999999873
 20
-56.20530792283318
 30
0.0
 11
-2.000000000000132
 21
-55.4999999999994
 31
0.0
  0
LINE
  5
1D3
330
D1
100
AcDbEntity
  8
0
370
     9
100
AcDbLine
 10
-2.000000000000135
 20
-55.4999999999994
 30
0.0
 11
-1.500000000000092
 21
-55.40066349035359
 31
0.0
  0
LINE
  5
1D4
330
D1
100
AcDbEntity
  8
0
370
     9
100
AcDbLine
 10
-1.500000000000092
 20
-55.40066349035359
 30
0.0
 11
-1.500000000000087
 21
-54.08816349035362
 31
0.0
  0
LINE
  5
1D5
330
D1
100
AcDbEntity
  8
0
370
     9
100
AcDbLine
 10
1.499999999999881
 20
-66.80464443247898
 30
0.0
 11
1.499999999999876
 21
-68.1171444324788
 31
0.0
  0
LINE
  5
1D6
330
D1
100
AcDbEntity
  8
0
370
     9
100
AcDbLine
 10
-1.500000000000059
 20
-66.08816349035365
 30
0.0
 11
-1.500000000000064
 21
-67.40066349035321
 31
0.0
  0
LINE
  5
1D7
330
D1
100
AcDbEntity
  8
0
370
     9
100
AcDbLine
 10
-1.500000000000064
 20
-67.40066349035321
 30
0.0
 11
-2.000000000000093
 21
-67.49999999999923
 31
0.0
  0
LINE
  5
1D8
330
D1
100
AcDbEntity
  8
0
370
     9
100
AcDbLine
 10
-2.000000000000107
 20
-67.49999999999923
 30
0.0
 11
1.999999999999903
 21
-68.20530792283301
 31
0.0
  0
LINE
  5
1D9
330
D1
100
AcDbEntity
  8
0
370
     9
100
AcDbLine
 10
1.999999999999894
 20
-68.20530792283301
 30
0.0
 11
1.499999999999905
 21
-68.30464443247884
 31
0.0
  0
LINE
  5
1DA
330
D1
100
AcDbEntity
  8
0
370
     9
100
AcDbLine
 10
1.499999999999904
 20
-68.30464443247884
 30
0.0
 11
1.499999999999899
 21
-69.6171444324788
 31
0.0
  0
LINE
  5
1DB
330
D1
100
AcDbEntity
  8
0
370
     9
100
AcDbLine
 10
-1.500000000000065
 20
-67.58816349035347
 30
0.0
 11
-1.50000000000007
 21
-68.90066349035345
 31
0.0
  0
LINE
  5
1DC
330
D1
100
AcDbEntity
  8
0
370
     9
100
AcDbLine
 10
-1.50000000000007
 20
-68.90066349035345
 30
0.0
 11
-2.000000000000071
 21
-68.99999999999925
 31
0.0
  0
LINE
  5
1DD
330
D1
100
AcDbEntity
  8
0
370
     9
100
AcDbLine
 10
-2.000000000000075
 20
-68.99999999999925
 30
0.0
 11
1.99999999999988
 21
-69.70530792283301
 31
0.0
  0
LINE
  5
1DE
330
D1
100
AcDbEntity
  8
0
370
     9
100
AcDbLine
 10
1.999999999999883
 20
-69.70530792283301
 30
0.0
 11
1.499999999999899
 21
-69.8046444324786
 31
0.0
  0
LINE
  5
1DF
330
D1
100
AcDbEntity
  8
0
370
     9
100
AcDbLine
 10
1.499999999999899
 20
-69.8046444324786
 30
0.0
 11
1.499999999999893
 21
-71.11714443247881
 31
0.0
  0
LINE
  5
1E0
330
D1
100
AcDbEntity
  8
0
370
     9
100
AcDbLine
 10
-1.500000000000099
 20
-69.08816349035347
 30
0.0
 11
-1.500000000000104
 21
-70.40066349035321
 31
0.0
  0
LINE
  5
1E1
330
D1
100
AcDbEntity
  8
0
370
     9
100
AcDbLine
 10
-1.500000000000104
 20
-70.40066349035321
 30
0.0
 11
-2.000000000000162
 21
-70.49999999999925
 31
0.0
  0
LINE
  5
1E2
330
D1
100
AcDbEntity
  8
0
370
     9
100
AcDbLine
 10
-2.000000000000147
 20
-70.49999999999925
 30
0.0
 11
1.999999999999842
 21
-71.20530792283301
 31
0.0
  0
LINE
  5
1E3
330
D1
100
AcDbEntity
  8
0
370
     9
100
AcDbLine
 10
1.999999999999839
 20
-71.20530792283301
 30
0.0
 11
1.499999999999893
 21
-71.30464443247882
 31
0.0
  0
LINE
  5
1E4
330
D1
100
AcDbEntity
  8
0
370
     9
100
AcDbLine
 10
1.499999999999893
 20
-71.30464443247882
 30
0.0
 11
1.499999999999888
 21
-72.61714443247881
 31
0.0
  0
LINE
  5
1E5
330
D1
100
AcDbEntity
  8
0
370
     9
100
AcDbLine
 10
-1.500000000000076
 20
-70.58816349035348
 30
0.0
 11
-1.500000000000081
 21
-71.90066349035321
 31
0.0
  0
LINE
  5
1E6
330
D1
100
AcDbEntity
  8
0
370
     9
100
AcDbLine
 10
-1.500000000000081
 20
-71.90066349035321
 30
0.0
 11
-2.000000000000168
 21
-71.99999999999925
 31
0.0
  0
LINE
  5
1E7
330
D1
100
AcDbEntity
  8
0
370
     9
100
AcDbLine
 10
-2.000000000000153
 20
-71.99999999999925
 30
0.0
 11
1.99999999999983
 21
-72.70530792283301
 31
0.0
  0
LINE
  5
1E8
330
D1
100
AcDbEntity
  8
0
370
     9
100
AcDbLine
 10
1.999999999999825
 20
-72.70530792283301
 30
0.0
 11
1.499999999999898
 21
-72.80464443247882
 31
0.0
  0
LINE
  5
1E9
330
D1
100
AcDbEntity
  8
0
370
     9
100
AcDbLine
 10
1.499999999999813
 20
-95.3046444324791
 30
0.0
 11
1.499999999999808
 21
-96.61714443247882
 31
0.0
  0
LINE
  5
1EA
330
D1
100
AcDbEntity
  8
0
370
     9
100
AcDbLine
 10
-1.500000000000089
 20
-76.58816349035348
 30
0.0
 11
-1.500000000000094
 21
-77.900663490353
 31
0.0
  0
LINE
  5
1EB
330
D1
100
AcDbEntity
  8
0
370
     9
100
AcDbLine
 10
-1.500000000000094
 20
-77.900663490353
 30
0.0
 11
-2.00000000000015
 21
-77.99999999999926
 31
0.0
  0
LINE
  5
1EC
330
D1
100
AcDbEntity
  8
0
370
     9
100
AcDbLine
 10
-2.00000000000015
 20
-77.99999999999926
 30
0.0
 11
1.999999999999803
 21
-78.70530792283303
 31
0.0
  0
LINE
  5
1ED
330
D1
100
AcDbEntity
  8
0
370
     9
100
AcDbLine
 10
1.999999999999813
 20
-78.70530792283303
 30
0.0
 11
1.499999999999853
 21
-78.80464443247882
 31
0.0
  0
LINE
  5
1EE
330
D1
100
AcDbEntity
  8
0
370
     9
100
AcDbLine
 10
1.499999999999897
 20
-72.80464443247882
 30
0.0
 11
1.499999999999892
 21
-74.11714443247881
 31
0.0
  0
LINE
  5
1EF
330
D1
100
AcDbEntity
  8
0
370
     9
100
AcDbLine
 10
-1.500000000000072
 20
-72.08816349035348
 30
0.0
 11
-1.500000000000077
 21
-73.40066349035344
 31
0.0
  0
LINE
  5
1F0
330
D1
100
AcDbEntity
  8
0
370
     9
100
AcDbLine
 10
-1.500000000000077
 20
-73.40066349035344
 30
0.0
 11
-2.000000000000133
 21
-73.49999999999925
 31
0.0
  0
LINE
  5
1F1
330
D1
100
AcDbEntity
  8
0
370
     9
100
AcDbLine
 10
-2.000000000000133
 20
-73.49999999999925
 30
0.0
 11
1.999999999999838
 21
-74.20530792283301
 31
0.0
  0
LINE
  5
1F2
330
D1
100
AcDbEntity
  8
0
370
     9
100
AcDbLine
 10
1.999999999999836
 20
-74.20530792283301
 30
0.0
 11
1.499999999999892
 21
-74.3046444324786
 31
0.0
  0
LINE
  5
1F3
330
D1
100
AcDbEntity
  8
0
370
     9
100
AcDbLine
 10
1.499999999999891
 20
-74.3046444324786
 30
0.0
 11
1.499999999999886
 21
-75.6171444324788
 31
0.0
  0
LINE
  5
1F4
330
D1
100
AcDbEntity
  8
0
370
     9
100
AcDbLine
 10
-1.500000000000106
 20
-73.58816349035348
 30
0.0
 11
-1.500000000000111
 21
-74.90066349035322
 31
0.0
  0
LINE
  5
1F5
330
D1
100
AcDbEntity
  8
0
370
     9
100
AcDbLine
 10
-1.500000000000111
 20
-74.90066349035322
 30
0.0
 11
-2.000000000000111
 21
-74.99999999999925
 31
0.0
  0
LINE
  5
1F6
330
D1
100
AcDbEntity
  8
0
370
     9
100
AcDbLine
 10
-2.000000000000126
 20
-74.99999999999925
 30
0.0
 11
1.999999999999832
 21
-75.70530792283301
 31
0.0
  0
LINE
  5
1F7
330
D1
100
AcDbEntity
  8
0
370
     9
100
AcDbLine
 10
1.99999999999983
 20
-75.70530792283301
 30
0.0
 11
1.499999999999886
 21
-75.80464443247882
 31
0.0
  0
LINE
  5
1F8
330
D1
100
AcDbEntity
  8
0
370
     9
100
AcDbLine
 10
1.499999999999886
 20
-75.80464443247882
 30
0.0
 11
1.499999999999881
 21
-77.1171444324788
 31
0.0
  0
LINE
  5
1F9
330
D1
100
AcDbEntity
  8
0
370
     9
100
AcDbLine
 10
-1.500000000000083
 20
-75.08816349035347
 30
0.0
 11
-1.500000000000089
 21
-76.40066349035321
 31
0.0
  0
LINE
  5
1FA
330
D1
100
AcDbEntity
  8
0
370
     9
100
AcDbLine
 10
-1.500000000000089
 20
-76.40066349035321
 30
0.0
 11
-2.000000000000119
 21
-76.49999999999925
 31
0.0
  0
LINE
  5
1FB
330
D1
100
AcDbEntity
  8
0
370
     9
100
AcDbLine
 10
-2.000000000000133
 20
-76.49999999999925
 30
0.0
 11
1.999999999999827
 21
-77.20530792283301
 31
0.0
  0
LINE
  5
1FC
330
D1
100
AcDbEntity
  8
0
370
     9
100
AcDbLine
 10
1.999999999999822
 20
-77.20530792283301
 30
0.0
 11
1.499999999999908
 21
-77.30464443247881
 31
0.0
  0
LINE
  5
1FD
330
D1
100
AcDbEntity
  8
0
370
     9
100
AcDbLine
 10
1.499999999999908
 20
-77.30464443247881
 30
0.0
 11
1.499999999999903
 21
-78.61714443247882
 31
0.0
  0
LINE
  5
1FE
330
D1
100
AcDbEntity
  8
0
370
     9
100
AcDbLine
 10
-1.500000000000099
 20
-81.08816349035347
 30
0.0
 11
-1.500000000000104
 21
-82.40066349035345
 31
0.0
  0
LINE
  5
1FF
330
D1
100
AcDbEntity
  8
0
370
     9
100
AcDbLine
 10
-1.500000000000104
 20
-82.40066349035345
 30
0.0
 11
-2.000000000000076
 21
-82.49999999999925
 31
0.0
  0
LINE
  5
200
330
D1
100
AcDbEntity
  8
0
370
     9
100
AcDbLine
 10
-2.000000000000104
 20
-82.49999999999925
 30
0.0
 11
1.999999999999872
 21
-83.20530792283301
 31
0.0
  0
LINE
  5
201
330
D1
100
AcDbEntity
  8
0
370
     9
100
AcDbLine
 10
1.999999999999895
 20
-83.20530792283301
 30
0.0
 11
1.499999999999831
 21
-83.30464443247908
 31
0.0
  0
LINE
  5
202
330
D1
100
AcDbEntity
  8
0
370
     9
100
AcDbLine
 10
-1.500000000000093
 20
-79.58816349035347
 30
0.0
 11
-1.500000000000098
 21
-80.90066349035322
 31
0.0
  0
LINE
  5
203
330
D1
100
AcDbEntity
  8
0
370
     9
100
AcDbLine
 10
-1.500000000000098
 20
-80.90066349035322
 30
0.0
 11
-2.000000000000099
 21
-80.99999999999925
 31
0.0
  0
LINE
  5
204
330
D1
100
AcDbEntity
  8
0
370
     9
100
AcDbLine
 10
-2.000000000000113
 20
-80.99999999999925
 30
0.0
 11
1.999999999999839
 21
-81.70530792283301
 31
0.0
  0
LINE
  5
205
330
D1
100
AcDbEntity
  8
0
370
     9
100
AcDbLine
 10
1.99999999999984
 20
-81.70530792283301
 30
0.0
 11
1.499999999999812
 21
-81.80464443247861
 31
0.0
  0
LINE
  5
206
330
D1
100
AcDbEntity
  8
0
370
     9
100
AcDbLine
 10
1.499999999999813
 20
-81.80464443247861
 30
0.0
 11
1.499999999999808
 21
-83.11714443247878
 31
0.0
  0
LINE
  5
207
330
D1
100
AcDbEntity
  8
0
370
     9
100
AcDbLine
 10
1.499999999999853
 20
-78.80464443247882
 30
0.0
 11
1.499999999999848
 21
-80.1171444324788
 31
0.0
  0
LINE
  5
208
330
D1
100
AcDbEntity
  8
0
370
     9
100
AcDbLine
 10
-1.500000000000116
 20
-78.0881634903535
 30
0.0
 11
-1.500000000000121
 21
-79.40066349035345
 31
0.0
  0
LINE
  5
209
330
D1
100
AcDbEntity
  8
0
370
     9
100
AcDbLine
 10
-1.500000000000121
 20
-79.40066349035345
 30
0.0
 11
-2.000000000000119
 21
-79.49999999999925
 31
0.0
  0
LINE
  5
20A
330
D1
100
AcDbEntity
  8
0
370
     9
100
AcDbLine
 10
-2.000000000000121
 20
-79.49999999999925
 30
0.0
 11
1.999999999999853
 21
-80.20530792283301
 31
0.0
  0
LINE
  5
20B
330
D1
100
AcDbEntity
  8
0
370
     9
100
AcDbLine
 10
1.999999999999855
 20
-80.20530792283301
 30
0.0
 11
1.499999999999847
 21
-80.30464443247882
 31
0.0
  0
LINE
  5
20C
330
D1
100
AcDbEntity
  8
0
370
     9
100
AcDbLine
 10
1.499999999999847
 20
-80.30464443247882
 30
0.0
 11
1.499999999999842
 21
-81.6171444324788
 31
0.0
  0
LINE
  5
20D
330
D1
100
AcDbEntity
  8
0
370
     9
100
AcDbLine
 10
1.499999999999831
 20
-84.80464443247884
 30
0.0
 11
1.999999999999823
 21
-84.70530792283303
 31
0.0
  0
LINE
  5
20E
330
D1
100
AcDbEntity
  8
0
370
     9
100
AcDbLine
 10
1.999999999999826
 20
-84.70530792283303
 30
0.0
 11
-2.000000000000177
 21
-83.99999999999926
 31
0.0
  0
LINE
  5
20F
330
D1
100
AcDbEntity
  8
0
370
     9
100
AcDbLine
 10
-2.000000000000202
 20
-83.99999999999926
 30
0.0
 11
-1.500000000000138
 21
-83.90066349035344
 31
0.0
  0
LINE
  5
210
330
D1
100
AcDbEntity
  8
0
370
     9
100
AcDbLine
 10
-1.500000000000138
 20
-83.90066349035344
 30
0.0
 11
-1.500000000000133
 21
-82.58816349035347
 31
0.0
  0
LINE
  5
211
330
D1
100
AcDbEntity
  8
0
370
     9
100
AcDbLine
 10
1.499999999999832
 20
-83.30464443247908
 30
0.0
 11
1.499999999999827
 21
-84.61714443247881
 31
0.0
  0
LINE
  5
212
330
D1
100
AcDbEntity
  8
0
370
     9
100
AcDbLine
 10
1.49999999999983
 20
-84.80464443247884
 30
0.0
 11
1.499999999999825
 21
-86.11714443247855
 31
0.0
  0
ARC
  5
213
330
D1
100
AcDbEntity
  8
0
370
     9
100
AcDbCircle
 10
3.499999999999994
 20
1.499999999999978
 30
0.0
 40
0.5000000000000004
100
AcDbArc
 50
359.9999999999994
 51
89.99999999999982
  0
LINE
  5
214
330
D1
100
AcDbEntity
  8
0
370
     9
100
AcDbLine
 10
1.49999999999998
 20
-2.304644432479578
 30
0.0
 11
1.499999999999975
 21
-3.617144432479548
 31
0.0
  0
LINE
  5
215
330
D1
100
AcDbEntity
  8
0
370
     9
100
AcDbLine
 10
1.999999999999984
 20
-2.205307922833769
 30
0.0
 11
1.49999999999998
 21
-2.304644432479578
 31
0.0
  0
LINE
  5
216
330
D1
100
AcDbEntity
  8
0
370
     9
100
AcDbLine
 10
-1.999999999999988
 20
-1.500000000000001
 30
0.0
 11
1.999999999999983
 21
-2.205307922833771
 31
0.0
  0
LINE
  5
217
330
D1
100
AcDbEntity
  8
0
370
     9
100
AcDbLine
 10
-1.499999999999988
 20
-1.400663490354194
 30
0.0
 11
-1.999999999999987
 21
-1.500000000000001
 31
0.0
  0
LINE
  5
218
330
D1
100
AcDbEntity
  8
0
370
     9
100
AcDbLine
 10
-1.499999999999983
 20
-0.0000000000000028
 30
0.0
 11
-1.499999999999988
 21
-1.400663490354194
 31
0.0
  0
LINE
  5
219
330
D1
100
AcDbEntity
  8
0
370
     9
100
AcDbLine
 10
1.500000000000017
 20
-0.0000000000000141
 30
0.0
 11
1.500000000000015
 21
-0.6171444324795531
 31
0.0
  0
LINE
  5
21A
330
D1
100
AcDbEntity
  8
0
370
     9
100
AcDbLine
 10
-3.499999999999975
 20
2.000000000000005
 30
0.0
 11
3.499999999999996
 21
1.999999999999978
 31
0.0
  0
LINE
  5
21B
330
D1
100
AcDbEntity
  8
0
370
     9
100
AcDbLine
 10
3.999999999999988
 20
-0.0000000000000236
 30
0.0
 11
3.999999999999994
 21
1.499999999999976
 31
0.0
  0
LINE
  5
21C
330
D1
100
AcDbEntity
  8
0
370
     9
100
AcDbLine
 10
-3.999999999999983
 20
0.0000000000000066
 30
0.0
 11
3.999999999999988
 21
-0.0000000000000236
 31
0.0
  0
LINE
  5
21D
330
D1
100
AcDbEntity
  8
0
370
     9
100
AcDbLine
 10
-3.999999999999977
 20
1.500000000000007
 30
0.0
 11
-3.999999999999983
 21
0.0000000000000066
 31
0.0
  0
LINE
  5
21E
330
D1
100
AcDbEntity
  8
0
370
     9
100
AcDbLine
 10
-1.500000000000017
 20
-8.900663490354194
 30
0.0
 11
-1.500000000000012
 21
-7.588163490354223
 31
0.0
  0
LINE
  5
21F
330
D1
100
AcDbEntity
  8
0
370
     9
100
AcDbLine
 10
-2.00000000000002
 20
-9.000000000000002
 30
0.0
 11
-1.500000000000017
 21
-8.900663490354194
 31
0.0
  0
LINE
  5
220
330
D1
100
AcDbEntity
  8
0
370
     9
100
AcDbLine
 10
1.999999999999951
 20
-9.70530792283377
 30
0.0
 11
-2.000000000000018
 21
-9.000000000000002
 31
0.0
  0
LINE
  5
221
330
D1
100
AcDbEntity
  8
0
370
     9
100
AcDbLine
 10
1.499999999999951
 20
-9.804644432479584
 30
0.0
 11
1.999999999999952
 21
-9.70530792283377
 31
0.0
  0
LINE
  5
222
330
D1
100
AcDbEntity
  8
0
370
     9
100
AcDbLine
 10
1.499999999999968
 20
-5.304644432479576
 30
0.0
 11
1.499999999999963
 21
-6.617144432479548
 31
0.0
  0
LINE
  5
223
330
D1
100
AcDbEntity
  8
0
370
     9
100
AcDbLine
 10
1.999999999999971
 20
-5.20530792283377
 30
0.0
 11
1.499999999999968
 21
-5.304644432479576
 31
0.0
  0
LINE
  5
224
330
D1
100
AcDbEntity
  8
0
370
     9
100
AcDbLine
 10
-2.000000000000002
 20
-4.500000000000001
 30
0.0
 11
1.999999999999968
 21
-5.20530792283377
 31
0.0
  0
LINE
  5
225
330
D1
100
AcDbEntity
  8
0
370
     9
100
AcDbLine
 10
-1.5
 20
-4.400663490354193
 30
0.0
 11
-2.000000000000001
 21
-4.500000000000001
 31
0.0
  0
LINE
  5
226
330
D1
100
AcDbEntity
  8
0
370
     9
100
AcDbLine
 10
-1.499999999999995
 20
-3.088163490354223
 30
0.0
 11
-1.5
 21
-4.400663490354193
 31
0.0
  0
LINE
  5
227
330
D1
100
AcDbEntity
  8
0
370
     9
100
AcDbLine
 10
1.499999999999974
 20
-3.804644432479577
 30
0.0
 11
1.499999999999969
 21
-5.117144432479547
 31
0.0
  0
LINE
  5
228
330
D1
100
AcDbEntity
  8
0
370
     9
100
AcDbLine
 10
1.999999999999977
 20
-3.705307922833769
 30
0.0
 11
1.499999999999974
 21
-3.804644432479577
 31
0.0
  0
LINE
  5
229
330
D1
100
AcDbEntity
  8
0
370
     9
100
AcDbLine
 10
-1.999999999999996
 20
-3.0
 30
0.0
 11
1.999999999999975
 21
-3.70530792283377
 31
0.0
  0
LINE
  5
22A
330
D1
100
AcDbEntity
  8
0
370
     9
100
AcDbLine
 10
-1.499999999999994
 20
-2.900663490353966
 30
0.0
 11
-1.999999999999997
 21
-3.000000000000001
 31
0.0
  0
LINE
  5
22B
330
D1
100
AcDbEntity
  8
0
370
     9
100
AcDbLine
 10
-1.499999999999989
 20
-1.588163490354223
 30
0.0
 11
-1.499999999999994
 21
-2.900663490353966
 31
0.0
  0
LINE
  5
22C
330
D1
100
AcDbEntity
  8
0
370
     9
100
AcDbLine
 10
1.499999999999934
 20
-6.80464443247935
 30
0.0
 11
1.499999999999929
 21
-8.117144432479543
 31
0.0
  0
LINE
  5
22D
330
D1
100
AcDbEntity
  8
0
370
     9
100
AcDbLine
 10
1.999999999999961
 20
-6.70530792283377
 30
0.0
 11
1.499999999999934
 21
-6.80464443247935
 31
0.0
  0
LINE
  5
22E
330
D1
100
AcDbEntity
  8
0
370
     9
100
AcDbLine
 10
-2.000000000000006
 20
-6.000000000000001
 30
0.0
 11
1.999999999999964
 21
-6.70530792283377
 31
0.0
  0
LINE
  5
22F
330
D1
100
AcDbEntity
  8
0
370
     9
100
AcDbLine
 10
-1.499999999999977
 20
-5.900663490353967
 30
0.0
 11
-2.000000000000006
 21
-6.000000000000001
 31
0.0
  0
LINE
  5
230
330
D1
100
AcDbEntity
  8
0
370
     9
100
AcDbLine
 10
-1.499999999999972
 20
-4.588163490354228
 30
0.0
 11
-1.499999999999977
 21
-5.900663490353967
 31
0.0
  0
LINE
  5
231
330
D1
100
AcDbEntity
  8
0
370
     9
100
AcDbLine
 10
1.499999999999957
 20
-8.304644432479805
 30
0.0
 11
1.499999999999946
 21
-11.11714443247955
 31
0.0
  0
LINE
  5
232
330
D1
100
AcDbEntity
  8
0
370
     9
100
AcDbLine
 10
1.999999999999959
 20
-8.20530792283377
 30
0.0
 11
1.499999999999957
 21
-8.304644432479805
 31
0.0
  0
LINE
  5
233
330
D1
100
AcDbEntity
  8
0
370
     9
100
AcDbLine
 10
-2.000000000000012
 20
-7.500000000000001
 30
0.0
 11
1.999999999999962
 21
-8.205307922833772
 31
0.0
  0
LINE
  5
234
330
D1
100
AcDbEntity
  8
0
370
     9
100
AcDbLine
 10
-1.499999999999983
 20
-7.400663490354194
 30
0.0
 11
-2.000000000000012
 21
-7.500000000000001
 31
0.0
  0
LINE
  5
235
330
D1
100
AcDbEntity
  8
0
370
     9
100
AcDbLine
 10
-1.499999999999978
 20
-6.088163490354227
 30
0.0
 11
-1.499999999999983
 21
-7.400663490354194
 31
0.0
  0
LINE
  5
236
330
D1
100
AcDbEntity
  8
0
370
     9
100
AcDbLine
 10
1.499999999999889
 20
-89.30464443247882
 30
0.0
 11
1.499999999999884
 21
-90.61714443247884
 31
0.0
  0
LINE
  5
237
330
D1
100
AcDbEntity
  8
0
370
     9
100
AcDbLine
 10
1.999999999999803
 20
-89.20530792283303
 30
0.0
 11
1.499999999999889
 21
-89.30464443247882
 31
0.0
  0
LINE
  5
238
330
D1
100
AcDbEntity
  8
0
370
     9
100
AcDbLine
 10
-2.000000000000151
 20
-88.49999999999925
 30
0.0
 11
1.999999999999807
 21
-89.20530792283303
 31
0.0
  0
LINE
  5
239
330
D1
100
AcDbEntity
  8
0
370
     9
100
AcDbLine
 10
-1.500000000000108
 20
-88.40066349035322
 30
0.0
 11
-2.000000000000137
 21
-88.49999999999925
 31
0.0
  0
LINE
  5
23A
330
D1
100
AcDbEntity
  8
0
370
     9
100
AcDbLine
 10
-1.500000000000103
 20
-87.0881634903535
 30
0.0
 11
-1.500000000000108
 21
-88.40066349035322
 31
0.0
  0
LINE
  5
23B
330
D1
100
AcDbEntity
  8
0
370
     9
100
AcDbLine
 10
1.499999999999866
 20
-87.80464443247884
 30
0.0
 11
1.499999999999861
 21
-89.11714443247881
 31
0.0
  0
LINE
  5
23C
330
D1
100
AcDbEntity
  8
0
370
     9
100
AcDbLine
 10
1.999999999999811
 20
-87.70530792283303
 30
0.0
 11
1.499999999999866
 21
-87.80464443247884
 31
0.0
  0
LINE
  5
23D
330
D1
100
AcDbEntity
  8
0
370
     9
100
AcDbLine
 10
-2.000000000000144
 20
-86.99999999999926
 30
0.0
 11
1.999999999999813
 21
-87.70530792283303
 31
0.0
  0
LINE
  5
23E
330
D1
100
AcDbEntity
  8
0
370
     9
100
AcDbLine
 10
-1.50000000000013
 20
-86.90066349035322
 30
0.0
 11
-2.00000000000013
 21
-86.99999999999926
 31
0.0
  0
LINE
  5
23F
330
D1
100
AcDbEntity
  8
0
370
     9
100
AcDbLine
 10
-1.500000000000125
 20
-85.58816349035348
 30
0.0
 11
-1.50000000000013
 21
-86.90066349035322
 31
0.0
  0
LINE
  5
240
330
D1
100
AcDbEntity
  8
0
370
     9
100
AcDbLine
 10
1.499999999999872
 20
-86.30464443247861
 30
0.0
 11
1.499999999999867
 21
-87.61714443247881
 31
0.0
  0
LINE
  5
241
330
D1
100
AcDbEntity
  8
0
370
     9
100
AcDbLine
 10
1.999999999999817
 20
-86.20530792283303
 30
0.0
 11
1.499999999999871
 21
-86.30464443247861
 31
0.0
  0
LINE
  5
242
330
D1
100
AcDbEntity
  8
0
370
     9
100
AcDbLine
 10
-2.000000000000152
 20
-85.49999999999926
 30
0.0
 11
1.999999999999817
 21
-86.20530792283303
 31
0.0
  0
LINE
  5
243
330
D1
100
AcDbEntity
  8
0
370
     9
100
AcDbLine
 10
-1.500000000000097
 20
-85.40066349035345
 30
0.0
 11
-2.000000000000152
 21
-85.49999999999926
 31
0.0
  0
LINE
  5
244
330
D1
100
AcDbEntity
  8
0
370
     9
100
AcDbLine
 10
-1.500000000000091
 20
-84.0881634903535
 30
0.0
 11
-1.500000000000097
 21
-85.40066349035345
 31
0.0
  0
LINE
  5
245
330
D1
100
AcDbEntity
  8
0
370
     9
100
AcDbLine
 10
1.99999999999995
 20
-12.70530792283377
 30
0.0
 11
1.500000000000124
 21
-12.80464443247955
 31
0.0
  0
LINE
  5
246
330
D1
100
AcDbEntity
  8
0
370
     9
100
AcDbLine
 10
-2.000000000000028
 20
-12.0
 30
0.0
 11
1.999999999999945
 21
-12.70530792283377
 31
0.0
  0
LINE
  5
247
330
D1
100
AcDbEntity
  8
0
370
     9
100
AcDbLine
 10
-1.500000000000028
 20
-11.90066349035397
 30
0.0
 11
-2.000000000000029
 21
-12.0
 31
0.0
  0
LINE
  5
248
330
D1
100
AcDbEntity
  8
0
370
     9
100
AcDbLine
 10
-1.500000000000023
 20
-10.58816349035422
 30
0.0
 11
-1.500000000000028
 21
-11.90066349035397
 31
0.0
  0
LINE
  5
249
330
D1
100
AcDbEntity
  8
0
370
     9
100
AcDbLine
 10
1.500000000000003
 20
-11.30464443247935
 30
0.0
 11
1.499999999999998
 21
-12.61714443247956
 31
0.0
  0
LINE
  5
24A
330
D1
100
AcDbEntity
  8
0
370
     9
100
AcDbLine
 10
1.999999999999949
 20
-11.20530792283377
 30
0.0
 11
1.500000000000003
 21
-11.30464443247935
 31
0.0
  0
LINE
  5
24B
330
D1
100
AcDbEntity
  8
0
370
     9
100
AcDbLine
 10
-2.000000000000024
 20
-10.5
 30
0.0
 11
1.999999999999954
 21
-11.20530792283377
 31
0.0
  0
LINE
  5
24C
330
D1
100
AcDbEntity
  8
0
370
     9
100
AcDbLine
 10
-1.499999999999966
 20
-10.40066349035397
 30
0.0
 11
-2.000000000000023
 21
-10.5
 31
0.0
  0
LINE
  5
24D
330
D1
100
AcDbEntity
  8
0
370
     9
100
AcDbLine
 10
-1.499999999999961
 20
-9.088163490354233
 30
0.0
 11
-1.499999999999966
 21
-10.40066349035397
 31
0.0
  0
LINE
  5
24E
330
D1
100
AcDbEntity
  8
0
370
     9
100
AcDbLine
 10
1.999999999999793
 20
-90.70530792283304
 30
0.0
 11
1.499999999999826
 21
-90.80464443247884
 31
0.0
  0
LINE
  5
24F
330
D1
100
AcDbEntity
  8
0
370
     9
100
AcDbLine
 10
-2.000000000000169
 20
-89.99999999999928
 30
0.0
 11
1.999999999999782
 21
-90.70530792283304
 31
0.0
  0
LINE
  5
250
330
D1
100
AcDbEntity
  8
0
370
     9
100
AcDbLine
 10
-1.500000000000113
 20
-89.90066349035301
 30
0.0
 11
-2.00000000000017
 21
-89.99999999999928
 31
0.0
  0
LINE
  5
251
330
D1
100
AcDbEntity
  8
0
370
     9
100
AcDbLine
 10
-1.500000000000108
 20
-88.5881634903535
 30
0.0
 11
-1.500000000000113
 21
-89.90066349035301
 31
0.0
  0
LINE
  5
252
330
D1
100
AcDbEntity
  8
0
370
     9
100
AcDbLine
 10
1.500000000000043
 20
-0.8046444324795771
 30
0.0
 11
1.500000000000038
 21
-2.117144432479559
 31
0.0
  0
LINE
  5
253
330
D1
100
AcDbEntity
  8
0
370
     9
100
AcDbLine
 10
1.999999999999988
 20
-0.7053079228337692
 30
0.0
 11
1.500000000000043
 21
-0.8046444324795771
 31
0.0
  0
LINE
  5
254
330
D1
100
AcDbEntity
  8
0
370
     9
100
AcDbLine
 10
-1.999999999999982
 20
-0.0000000000000011
 30
0.0
 11
1.999999999999989
 21
-0.7053079228337704
 31
0.0
  0
ARC
  5
255
330
D1
100
AcDbEntity
  8
0
370
     9
100
AcDbCircle
 10
-3.499999999999977
 20
1.500000000000005
 30
0.0
 40
0.4999999999999995
100
AcDbArc
 50
89.99999999999969
 51
179.9999999999999
  0
ENDBLK
  5
257
330
D1
100
AcDbEntity
  8
0
100
AcDbBlockEnd
  0
BLOCK
  5
25E
330
259
100
AcDbEntity
  8
0
100
AcDbBlockBegin
  2
CS_Flashing - Head Part - CS_Head Flashing_1-4-J2
 70
     0
 71
     0
 10
0.0
 20
0.0
 30
0.0
  3
CS_Flashing - Head Part - CS_Head Flashing_1-4-J2
  1

  0
LINE
  5
25B
330
259
100
AcDbEntity
  8
CS_Lines 50
100
AcDbLine
 10
0.0
 20
0.0
 30
0.0
 11
181.154506914952
 21
-15.84896570168688
 31
0.0
1001
REVIT
1002
{
1070
     3
1000
302576
1002
}
  0
LINE
  5
25C
330
259
100
AcDbEntity
  8
CS_Lines 50
100
AcDbLine
 10
181.154506914952
 20
-15.84896570168688
 30
0.0
 11
181.154506914952
 21
-66.39308906566491
 31
0.0
1001
REVIT
1002
{
1070
     3
1000
302576
1002
}
  0
LINE
  5
25D
330
259
100
AcDbEntity
  8
CS_Lines 50
100
AcDbLine
 10
181.154506914952
 20
-66.39308906566491
 30
0.0
 11
188.2255747268189
 21
-73.46415687753193
 31
0.0
1001
REVIT
1002
{
1070
     3
1000
302576
1002
}
  0
ENDBLK
  5
25F
330
259
100
AcDbEntity
  8
0
100
AcDbBlockEnd
  0
BLOCK
  5
269
330
261
100
AcDbEntity
  8
0
100
AcDbBlockBegin
  2
CS_cavity batten - 20x45_1-3-J2
 70
     0
 71
     0
 10
0.0
 20
0.0
 30
0.0
  3
CS_cavity batten - 20x45_1-3-J2
  1

  0
LINE
  5
262
330
261
100
AcDbEntity
  8
CS_Lines 35
100
AcDbLine
 10
45.00000000000006
 20
0.0
 30
0.0
 11
0.0
 21
0.0
 31
0.0
1001
REVIT
1002
{
1070
     3
1000
316799
1002
}
  0
LINE
  5
263
330
261
100
AcDbEntity
  8
CS_Lines 35
100
AcDbLine
 10
0.0
 20
0.0
 30
0.0
 11
0.0
 21
-19.99999999999999
 31
0.0
1001
REVIT
1002
{
1070
     3
1000
316799
1002
}
  0
LINE
  5
264
330
261
100
AcDbEntity
  8
CS_Lines 35
100
AcDbLine
 10
44.99999999999997
 20
0.0
 30
0.0
 11
44.99999999999997
 21
-19.99999999999999
 31
0.0
1001
REVIT
1002
{
1070
     3
1000
316799
1002
}
  0
LINE
  5
265
330
261
100
AcDbEntity
  8
CS_Lines 35
100
AcDbLine
 10
44.99999999999997
 20
-19.99999999999999
 30
0.0
 11
0.0
 21
-19.99999999999999
 31
0.0
1001
REVIT
1002
{
1070
     3
1000
316799
1002
}
  0
LINE
  5
267
330
261
100
AcDbEntity
  8
CS_Lines 80
100
AcDbLine
 10
0.0
 20
-4.999999999999946
 30
0.0
 11
44.99999999999999
 21
-5.000000000000092
 31
0.0
1001
REVIT
1002
{
1070
     3
1000
-2009514
1002
}
  0
LINE
  5
268
330
261
100
AcDbEntity
  8
CS_Lines 80
100
AcDbLine
 10
0.0
 20
-15.00000000000009
 30
0.0
 11
44.99999999999997
 21
-15.00000000000009
 31
0.0
1001
REVIT
1002
{
1070
     3
1000
-2009514
1002
}
  0
ENDBLK
  5
26A
330
261
100
AcDbEntity
  8
0
100
AcDbBlockEnd
  0
BLOCK
  5
273
330
26C
100
AcDbEntity
  8
0
100
AcDbBlockBegin
  2
CS_Cavity batten castelated mid small - CS_Cavity batten castelated mid small_1-2-J2
 70
     0
 71
     0
 10
0.0
 20
0.0
 30
0.0
  3
CS_Cavity batten castelated mid small - CS_Cavity batten castelated mid small_1-2-J2
  1

  0
LINE
  5
26D
330
26C
100
AcDbEntity
  8
0
370
     9
100
AcDbLine
 10
10.0000000000001
 20
-4.999999999999706
 30
0.0
 11
10.0000000000001
 21
0.0000000000004399
 31
0.0
  0
LINE
  5
26E
330
26C
100
AcDbEntity
  8
0
370
     9
100
AcDbLine
 10
10.0000000000001
 20
0.0000000000004399
 30
0.0
 11
56.00000000000009
 21
0.0000000000004401
 31
0.0
  0
LINE
  5
26F
330
26C
100
AcDbEntity
  8
0
370
     9
100
AcDbLine
 10
40.00000000000007
 20
-20.00000000000036
 30
0.0
 11
40.0000000000001
 21
-15.00000000000024
 31
0.0
  0
LINE
  5
270
330
26C
100
AcDbEntity
  8
0
370
     9
100
AcDbLine
 10
40.0000000000001
 20
-15.00000000000024
 30
0.0
 11
56.00000000000006
 21
-15.00000000000034
 31
0.0
  0
LINE
  5
271
330
26C
100
AcDbEntity
  8
0
370
     9
100
AcDbLine
 10
0.0000000000000952
 20
-4.99999999999964
 30
0.0
 11
10.0000000000001
 21
-4.999999999999706
 31
0.0
  0
LINE
  5
272
330
26C
100
AcDbEntity
  8
0
370
     9
100
AcDbLine
 10
0.0
 20
-20.00000000000022
 30
0.0
 11
40.00000000000007
 21
-20.00000000000036
 31
0.0
  0
ENDBLK
  5
274
330
26C
100
AcDbEntity
  8
0
100
AcDbBlockEnd
  0
BLOCK
  5
278
330
276
100
AcDbEntity
  8
0
100
AcDbBlockBegin
  2
CS_Line - Building underlay separation_1-1-J2
 70
     0
 71
     0
 10
0.0
 20
0.0
 30
0.0
  3
CS_Line - Building underlay separation_1-1-J2
  1

  0
LINE
  5
277
330
276
100
AcDbEntity
  8
CS_Lines Hidden 15
100
AcDbLine
 10
0.0
 20
0.0
 30
0.0
 11
178.3646162191537
 21
0.0
 31
0.0
1001
REVIT
1002
{
1070
     3
1000
316801
1002
}
  0
ENDBLK
  5
279
330
276
100
AcDbEntity
  8
0
100
AcDbBlockEnd
  0
BLOCK
  5
27D
330
27B
100
AcDbEntity
  8
0
100
AcDbBlockBegin
  2
CS_Line - Building underlay_1-0-J2
 70
     0
 71
     0
 10
0.0
 20
0.0
 30
0.0
  3
CS_Line - Building underlay_1-0-J2
  1

  0
LINE
  5
27C
330
27B
100
AcDbEntity
  8
CS_Lines Hidden 15
100
AcDbLine
 10
0.0
 20
0.0
 30
0.0
 11
37.98962733535685
 21
0.0
 31
0.0
1001
REVIT
1002
{
1070
     3
1000
316801
1002
}
  0
ENDBLK
  5
27E
330
27B
100
AcDbEntity
  8
0
100
AcDbBlockEnd
  0
BLOCK
  5
286
330
283
100
AcDbEntity
  8
0
100
AcDbBlockBegin
  2
CS_Roof Angle Symbol - CS_Roof Angle Symbol_1-314851-J2
 70
     0
 71
     0
 10
0.0
 20
0.0
 30
0.0
  3
CS_Roof Angle Symbol - CS_Roof Angle Symbol_1-314851-J2
  1

  0
LINE
  5
284
330
283
100
AcDbEntity
  8
A-ANNO-NOTE
100
AcDbLine
 10
0.0
 20
0.0
 30
0.0
 11
11.3566195582459
 21
-0.9935754673233023
 31
0.0
  0
LINE
  5
285
330
283
100
AcDbEntity
  8
A-ANNO-NOTE
100
AcDbLine
 10
11.4
 20
0.0
 30
0.0
 11
0.0
 21
0.0
 31
0.0
  0
ENDBLK
  5
287
330
283
100
AcDbEntity
  8
0
100
AcDbBlockEnd
  0
BLOCK
  5
290
330
28F
100
AcDbEntity
  8
0
100
AcDbBlockBegin
  2
CS_Comment tag - Comment Only_1-304015-J2
 70
     0
 71
     0
 10
0.0
 20
0.0
 30
0.0
  3
CS_Comment tag - Comment Only_1-304015-J2
  1

  0
ENDBLK
  5
291
330
28F
100
AcDbEntity
  8
0
100
AcDbBlockEnd
  0
BLOCK
  5
2B8
330
2BD
100
AcDbEntity
  8
0
100
AcDbBlockBegin
  2
DIMBLOCK1-J2
 70
     0
 71
     0
 10
0.0
 20
0.0
 30
0.0
  3
DIMBLOCK1-J2
  1

  0
LINE
  5
431
330
2BD
100
AcDbEntity
  8
CS-Dims
 62
     0
440
 16777216
370
    -2
100
AcDbLine
 10
1698.900961191292
 20
1088.935139979096
 30
0.0
 11
1702.260923278494
 21
1088.935139979096
 31
0.0
  0
LINE
  5
432
330
2BD
100
AcDbEntity
  8
CS-Dims
 62
     0
440
 16777216
370
    -2
100
AcDbLine
 10
1677.687757755695
 20
1139.479263343074
 30
0.0
 11
1702.260923278494
 21
1139.479263343074
 31
0.0
  0
LINE
  5
433
330
2BD
100
AcDbEntity
  8
CS-Dims
 62
     0
440
 16777216
370
    -2
100
AcDbLine
 10
1699.460923278494
 20
1085.935139979096
 30
0.0
 11
1699.460923278494
 21
1142.479263343074
 31
0.0
  0
LINE
  5
434
330
2BD
100
AcDbEntity
  8
CS-Dims
 62
     0
440
 16777216
370
    -2
100
AcDbLine
 10
1701.157979553341
 20
1137.782207068226
 30
0.0
 11
1697.763867003646
 21
1141.176319617921
 31
0.0
  0
LINE
  5
435
330
2BD
100
AcDbEntity
  8
CS-Dims
 62
     0
440
 16777216
370
    -2
100
AcDbLine
 10
1701.157979553341
 20
1087.238083704248
 30
0.0
 11
1697.763867003646
 21
1090.632196253943
 31
0.0
  0
MTEXT
  5
436
330
2BD
100
AcDbEntity
  8
CS-Dims
 62
     0
440
 16777216
370
     9
100
AcDbMText
 10
1697.260923278493
 20
1114.207201661085
 30
0.0
 40
4.0
 41
0.0
 46
0.0
 71
     5
 72
     1
  1
\A1;51
 11
6.123233995736766E-17
 21
1.0
 31
0.0
 73
     1
 44
1.0
  0
POINT
  5
437
330
2BD
100
AcDbEntity
  8
Defpoints
 62
     0
440
 16777216
100
AcDbPoint
 10
1693.900961191292
 20
1088.935139979096
 30
0.0
  0
POINT
  5
438
330
2BD
100
AcDbEntity
  8
Defpoints
 62
     0
440
 16777216
100
AcDbPoint
 10
1672.687757755695
 20
1139.479263343074
 30
0.0
  0
POINT
  5
439
330
2BD
100
AcDbEntity
  8
Defpoints
 62
     0
440
 16777216
100
AcDbPoint
 10
1699.460923278494
 20
1139.479263343074
 30
0.0
  0
ENDBLK
  5
2B9
330
2BD
100
AcDbEntity
  8
0
100
AcDbBlockEnd
  0
BLOCK
  5
3D8
330
2D5
100
AcDbEntity
  8
0
100
AcDbBlockBegin
  2
CS_T Block _landscape_ - CS_T Block _landscape__0-539294-CHIMNEY CAP DETAIL
 70
     0
 71
     0
 10
0.0
 20
0.0
 30
0.0
  3
CS_T Block _landscape_ - CS_T Block _landscape__0-539294-CHIMNEY CAP DETAIL
  1

  0
INSERT
  5
3C9
330
2D5
100
AcDbEntity
  8
0
370
     9
100
AcDbBlockReference
  2
CS_T Block _landscape_ - CS_Logo_dwg_0-539050-CHIMNEY CAP DETAIL
 10
-67.00000000000018
 20
10.22141544495182
 30
0.0
 41
0.1007324647440582
 42
0.1007324647440582
 43
0.1007324647440582
  0
LINE
  5
3CA
330
2D5
100
AcDbEntity
  8
0
370
     9
100
AcDbLine
 10
95.65747759756523
 20
10.27118703763284
 30
0.0
 11
95.65747759756523
 21
17.80935871454877
 31
0.0
  0
LINE
  5
3CB
330
2D5
100
AcDbEntity
  8
0
370
     9
100
AcDbLine
 10
-3.159463587458342
 20
10.27118703763284
 30
0.0
 11
-3.159463587458342
 21
17.80935871454877
 31
0.0
  0
LINE
  5
3CC
330
2D5
100
AcDbEntity
  8
0
370
     9
100
AcDbLine
 10
-17.15946358745834
 20
10.27118703763284
 30
0.0
 11
-17.15946358745834
 21
17.80935871454877
 31
0.0
  0
LINE
  5
3CD
330
2D5
100
AcDbEntity
  8
0
370
     9
100
AcDbLine
 10
-48.75635399787334
 20
26.14243655910805
 30
0.0
 11
189.9999999999997
 21
26.14243655910805
 31
0.0
  0
LINE
  5
3CE
330
2D5
100
AcDbEntity
  8
0
370
     9
100
AcDbLine
 10
-34.25000000000016
 20
10.27118703763284
 30
0.0
 11
-34.25000000000016
 21
17.80935871454877
 31
0.0
  0
LINE
  5
3CF
330
2D5
100
AcDbEntity
  8
0
370
     9
100
AcDbLine
 10
-48.25000000000016
 20
10.27118703763284
 30
0.0
 11
189.9999999999997
 21
10.27118703763284
 31
0.0
  0
MTEXT
  5
3D0
330
2D5
100
AcDbEntity
  8
0
370
     9
100
AcDbMText
 10
-31.52823787706742
 20
13.60319933379965
 30
0.0
 40
1.475299401197605
 41
8.046
 46
0.0
 71
     1
 72
     1
  1
\fArial|b0|i0|c0|p34|;SCALE
 73
     2
 44
0.9385317878468563
1001
REVIT
1002
{
1070
     3
1000
538973
1002
}
  0
MTEXT
  5
3D1
330
2D5
100
AcDbEntity
  8
0
370
     9
100
AcDbMText
 10
-15.10821263317598
 20
13.60319933379965
 30
0.0
 40
1.475299401197605
 41
9.126
 46
0.0
 71
     1
 72
     1
  1
\fArial|b0|i0|c0|p34|;ISSUED
 73
     2
 44
0.9385317878468563
1001
REVIT
1002
{
1070
     3
1000
538973
1002
}
  0
MTEXT
  5
3D2
330
2D5
100
AcDbEntity
  8
0
370
     9
100
AcDbMText
 10
-48.31664714756881
 20
13.60319933379965
 30
0.0
 40
1.475299401197605
 41
8.172
 46
0.0
 71
     1
 72
     1
  1
\fArial|b0|i0|c0|p34|;SHEET
 73
     2
 44
0.9385317878468563
1001
REVIT
1002
{
1070
     3
1000
538973
1002
}
  0
MTEXT
  5
3D3
330
2D5
100
AcDbEntity
  8
0
370
     9
100
AcDbMText
 10
135.4799831947976
 20
30.77314472816069
 30
0.0
 40
3.044268605645851
 41
65.664
 46
0.0
 71
     1
 72
     1
  1
\fArial|b1|i0|c0|p34|;WWW.CRAFTSTONE.CO.NZ
 73
     2
 44
0.9385317878468564
1001
REVIT
1002
{
1070
     3
1000
539009
1002
}
  0
MTEXT
  5
3D4
330
2D5
100
AcDbEntity
  8
0
370
     9
100
AcDbMText
 10
-1.650100498176878
 20
17.43017855818529
 30
0.0
 40
1.475299401197605
 41
60.534
 46
0.0
 71
     1
 72
     1
  1
\fArial|b0|i0|c0|p34|;COPYRIGHT CRAFTSTONE NEW ZEALAND LIMITED
 73
     2
 44
0.9385317878468563
1001
REVIT
1002
{
1070
     3
1000
538973
1002
}
  0
MTEXT
  5
3D5
330
2D5
100
AcDbEntity
  8
0
370
     9
100
AcDbMText
 10
-1.650100498176878
 20
13.60319933379965
 30
0.0
 40
1.475299401197605
 41
114.048
 46
0.0
 71
     1
 72
     1
  1
\fArial|b0|i0|c0|p34|;CRAFTSTONE NEW ZEALAND ACCEPTS NO LIABILITY FOR DRAWINGS SUBMITTED TO COUNCIL
 73
     2
 44
0.9385317878468563
1001
REVIT
1002
{
1070
     3
1000
538973
1002
}
  0
MTEXT
  5
3D6
330
2D5
100
AcDbEntity
  8
0
370
     9
100
AcDbMText
 10
97.21871139601923
 20
17.43017855818529
 30
0.0
 40
1.475299401197605
 41
107.712
 46
0.0
 71
     1
 72
     1
  1
\fArial|b0|i0|c0|p34|;6C PIERMARK DRIVE, ALBANY, AUCKLAND, NEW ZEALAND  -  P: 09 447 3918  F: 09 447 3919
 73
     2
 44
0.9385317878468563
1001
REVIT
1002
{
1070
     3
1000
538973
1002
}
  0
MTEXT
  5
3D7
330
2D5
100
AcDbEntity
  8
0
370
     9
100
AcDbMText
 10
96.71709418739238
 20
13.60319933379965
 30
0.0
 40
1.475299401197605
 41
83.39399999999999
 46
0.0
 71
     1
 72
     1
  1
\fArial|b0|i0|c0|p34|; P.O. BOX 302-613 NORTH HARBOUR 0751, AUCKLAND, NEW ZEALAND
 73
     2
 44
0.9385317878468563
1001
REVIT
1002
{
1070
     3
1000
538973
1002
}
  0
ENDBLK
  5
3D9
330
2D5
100
AcDbEntity
  8
0
100
AcDbBlockEnd
  0
BLOCK
  5
3C7
330
2D6
100
AcDbEntity
  8
0
100
AcDbBlockBegin
  2
CS_T Block _landscape_ - CS_Logo_dwg_0-539050-CHIMNEY CAP DETAIL
 70
     0
 71
     0
 10
0.0
 20
0.0
 30
0.0
  3
CS_T Block _landscape_ - CS_Logo_dwg_0-539050-CHIMNEY CAP DETAIL
  1

  0
HATCH
  5
369
330
2D6
100
AcDbEntity
  8
0
370
     9
100
AcDbHatch
 10
0.0
 20
0.0
 30
0.0
210
0.0
220
0.0
230
1.0
  2
SOLID
 70
     1
 71
     0
 91
       12
 92
        0
 93
       12
 72
     1
 10
102.0065686757731
 20
-17.07427125327393
 11
102.0065686757731
 21
-22.83624405316931
 72
     2
 10
109.1077768571327
 20
-22.65411831081278
 40
7.103543300426765
 50
181.4691513107122
 51
209.257308047527
 73
     1
 72
     2
 10
109.8528887233228
 20
-22.15260177215563
 40
7.999048010758361
 50
209.78292002789
 51
255.1281441739384
 73
     1
 72
     2
 10
110.0123511758663
 20
-21.46041916113503
 40
8.709003195890553
 50
255.282968770855
 51
289.5448965094274
 73
     1
 72
     2
 10
109.6363220644336
 20
-21.64392966766346
 40
8.671837462557662
 50
292.2928872230697
 51
329.8619239836153
 73
     1
 72
     2
 10
109.490667552751
 20
-22.09952134058013
 40
8.581779383376205
 50
332.9822666432543
 51
356.7769832271838
 73
     1
 72
     1
 10
118.0588727845961
 20
-22.58201122640475
 11
118.0588727845961
 21
-16.96425259532424
 72
     2
 10
109.4906675527566
 20
-17.44674248114941
 40
8.581779383370582
 50
3.223016772821631
 51
27.01773335675493
 73
     1
 72
     2
 10
109.6363220644306
 20
-17.9023341540667
 40
8.671837462559843
 50
30.13807601637078
 51
67.70711277691488
 73
     1
 72
     2
 10
110.0123511758684
 20
-18.08584466059487
 40
8.709003195890672
 50
70.45510349058762
 51
104.7170312291245
 73
     1
 72
     2
 10
109.8528887233229
 20
-17.39366204957492
 40
7.999048010758598
 50
104.8718558260237
 51
150.2170799720676
 73
     1
 72
     2
 10
109.1077768571304
 20
-16.89214551091706
 40
7.103543300424477
 50
150.7426919524207
 51
181.4691513107154
 73
     1
 97
        0
 92
        0
 93
       10
 72
     2
 10
109.2624266483992
 20
-17.24476966987693
 40
3.564668394625033
 50
176.9962862262332
 51
246.7816130305994
 73
     0
 72
     2
 10
110.0331050636927
 20
-18.23594855599405
 40
4.789934786124208
 50
242.9809729220954
 51
289.9059847818116
 73
     0
 72
     2
 10
110.5325748774447
 20
-17.49430903873535
 40
3.928552132363883
 50
286.7378526300175
 51
319.4119940843074
 73
     0
 72
     2
 10
110.0715297982838
 20
-17.51833830712244
 40
4.303537647873084
 50
323.1653313514115
 51
355.670322730756
 73
     0
 72
     1
 10
114.3627858525818
 20
-17.19344176495559
 11
114.3627858525818
 21
-22.35282205677521
 72
     2
 10
110.0715297982838
 20
-22.02792551460837
 40
4.303537647873084
 50
4.329677269243629
 51
36.83466864858806
 73
     0
 72
     2
 10
110.5325748774455
 20
-22.05195478299514
 40
3.928552132363454
 50
40.58800591570347
 51
73.26214737001854
 73
     0
 72
     2
 10
110.0331050636917
 20
-21.31031526573649
 40
4.78993478612422
 50
70.09401521819652
 51
117.019027077898
 73
     0
 72
     2
 10
109.2624266484003
 20
-22.30149415185337
 40
3.564668394626164
 50
113.2183869694228
 51
176.9962862262437
 73
     0
 72
     1
 10
105.7026556077874
 20
-22.48828521711057
 11
105.7026556077874
 21
-17.43156073513473
 97
        0
 92
        0
 93
       16
 72
     1
 10
92.42160245958189
 20
-26.15806611388343
 11
92.42160245958189
 21
-12.76058276090424
 72
     1
 10
92.42160245958189
 20
-12.76058276090424
 11
90.45482122117363
 21
-12.76058276090424
 72
     1
 10
90.45482122117363
 20
-12.76058276090424
 11
90.45482122117363
 21
-10.03066504231373
 72
     1
 10
90.45482122117363
 20
-10.03066504231373
 11
92.42331817452481
 21
-10.03066504231373
 72
     1
 10
92.42331817452481
 20
-10.03066504231373
 11
92.42331817452481
 21
-7.814152757302679
 72
     1
 10
92.42331817452481
 20
-7.814152757302679
 11
96.02975100074602
 21
-7.814152757302679
 72
     1
 10
96.02975100074602
 20
-7.814152757302679
 11
96.02975100074602
 21
-10.03066504231373
 72
     1
 10
96.02975100074602
 20
-10.03066504231373
 11
98.9578330283554
 21
-10.03066504231373
 72
     1
 10
98.9578330283554
 20
-10.03066504231373
 11
98.9578330283554
 21
-12.76058276090424
 72
     1
 10
98.9578330283554
 20
-12.76058276090424
 11
95.96812823876634
 21
-12.76058276090424
 72
     1
 10
95.96812823876634
 20
-12.76058276090424
 11
95.96812823876634
 21
-25.26301987151254
 72
     2
 10
96.96288386359153
 20
-24.82719554219634
 40
1.08603940957281
 50
203.6592836906717
 51
274.1842926898305
 73
     1
 72
     1
 10
97.04212649704674
 20
-25.91034013281586
 11
98.74394056451209
 21
-25.91034013281586
 72
     1
 10
98.74394056451209
 20
-25.91034013281586
 11
98.74394056451209
 21
-29.3218399472882
 72
     1
 10
98.74394056451209
 20
-29.3218399472882
 11
96.367671802646
 21
-29.32183994728821
 72
     2
 10
96.32512310762338
 20
-25.33212240480402
 40
3.989944418191069
 50
89.38898726367503
 51
168.0530276412425
 73
     0
 97
        0
 92
        0
 93
       18
 72
     2
 10
78.65737038756376
 20
-16.01683667290141
 40
6.201130719546937
 50
175.7717791127172
 51
256.6001005762379
 73
     0
 72
     2
 10
80.19986000099263
 20
-21.28436770433505
 40
11.6860754076733
 50
255.2282968265842
 51
309.645479233974
 73
     0
 72
     1
 10
87.65598971983877
 20
-12.28600740650489
 11
85.11503760403016
 21
-14.97191785225567
 72
     2
 10
80.27603833550054
 20
-20.69482206121736
 40
7.494501084513994
 50
49.78382380776704
 51
98.40068828538573
 73
     1
 72
     2
 10
79.93873925163486
 20
-17.00937143736873
 40
3.804828415139858
 50
101.4853802457459
 51
149.8241753849618
 73
     1
 72
     2
 10
78.31597033146689
 20
-15.59314314963275
 40
1.73878603378388
 50
163.4158964047945
 51
226.5260134750313
 73
     1
 72
     2
 10
81.01065582380899
 20
-10.65558962255849
 40
7.319299793639326
 50
237.8856892561124
 51
249.1852330680329
 73
     1
 72
     2
 10
81.80184772333655
 20
-4.141564196171307
 40
13.77965830440232
 50
255.7492220921744
 51
268.5437240719061
 73
     1
 72
     2
 10
82.17883432160112
 20
-25.13299867775551
 40
7.252773711635068
 50
264.2456926122973
 51
294.8051916584826
 73
     0
 72
     2
 10
82.47602421700525
 20
-23.36189288985417
 40
5.540639487492036
 50
299.7052364513917
 51
346.8942158708463
 73
     0
 72
     2
 10
81.1798931410323
 20
-22.84113101116404
 40
6.732756672828083
 50
353.727724925116
 51
449.101182328527
 73
     0
 72
     2
 10
80.37687256334134
 20
-16.23319055000661
 40
13.3707784056928
 50
86.10335950266358
 51
131.5360591989402
 73
     0
 72
     1
 10
71.51082608196148
 20
-26.24173364898724
 11
74.07784107532308
 21
-23.75063467725175
 72
     2
 10
80.33808695952246
 20
-16.8704060086579
 40
9.302054883883248
 50
227.7012779162852
 51
281.7426639680988
 73
     1
 72
     2
 10
81.8630153587953
 20
-23.49841294154142
 40
2.506559872667467
 50
278.4468255977092
 51
380.6127116560005
 73
     1
 72
     2
 10
82.2719323004406
 20
-23.65093413727111
 40
2.196311169178248
 50
28.11375903228948
 51
97.39394301927675
 73
     1
 72
     2
 10
80.84958118298567
 20
-6.279348476428073
 40
15.23622349510438
 50
85.71013095124245
 51
107.7068705920184
 73
     0
 72
     2
 10
77.6032586169498
 20
-15.81050101693896
 40
5.172875038506623
 50
105.5614216491363
 51
172.6301798124944
 73
     0
 97
        0
 92
        0
 93
       27
 72
     1
 10
63.35410274231264
 20
-26.15806611388343
 11
63.35410274231265
 21
-12.76058276090424
 72
     1
 10
63.35410274231265
 20
-12.76058276090424
 11
56.57173856623913
 21
-12.76058276090424
 72
     1
 10
56.57173856623913
 20
-12.76058276090424
 11
56.57173856623913
 21
-29.35675438824382
 72
     1
 10
56.57173856623913
 20
-29.35675438824382
 11
52.78072340658213
 21
-29.35675438824382
 72
     1
 10
52.78072340658213
 20
-29.35675438824382
 11
52.78072340658213
 21
-12.76058276090242
 72
     1
 10
52.78072340658213
 20
-12.76058276090242
 11
50.93418519096957
 21
-12.76058276090242
 72
     1
 10
50.93418519096957
 20
-12.76058276090242
 11
50.93418519096957
 21
-10.03066504231373
 72
     1
 10
50.93418519096957
 20
-10.03066504231373
 11
52.78072340658213
 21
-10.03066504231373
 72
     1
 10
52.78072340658213
 20
-10.03066504231373
 11
52.78072340658213
 21
-6.959541959881051
 72
     2
 10
57.69360796419981
 20
-6.685687071523457
 40
4.920511271845197
 50
176.8095101793823
 51
281.5675099160695
 73
     0
 72
     1
 10
58.6802807524343
 20
-1.865115737613622
 11
58.68028075243431
 21
-5.629161360108069
 72
     2
 10
58.29839085418441
 20
-8.49515991080103
 40
2.891329726433756
 50
82.41013452874654
 51
110.5062781741666
 73
     1
 72
     2
 10
57.64848196310929
 20
-6.800772274165331
 40
1.076746193509816
 50
109.6992557414683
 51
180.1305868081957
 73
     1
 72
     1
 10
56.57173856623913
 20
-6.803226359407005
 11
56.57173856623913
 21
-10.03066504231373
 72
     1
 10
56.57173856623913
 20
-10.03066504231373
 11
63.35581845725557
 21
-10.03066504231373
 72
     1
 10
63.35581845725557
 20
-10.03066504231373
 11
63.35581845725557
 21
-7.814152757302679
 72
     1
 10
63.35581845725557
 20
-7.814152757302679
 11
66.96225128347706
 21
-7.814152757302679
 72
     1
 10
66.96225128347706
 20
-7.814152757302679
 11
66.96225128347706
 21
-10.03066504231373
 72
     1
 10
66.96225128347706
 20
-10.03066504231373
 11
69.89033331108658
 21
-10.03066504231373
 72
     1
 10
69.89033331108658
 20
-10.03066504231373
 11
69.89033331108658
 21
-12.76058276090424
 72
     1
 10
69.89033331108658
 20
-12.76058276090424
 11
66.90062852149751
 21
-12.76058276090424
 72
     1
 10
66.90062852149751
 20
-12.76058276090424
 11
66.90062852149752
 21
-25.26301987151254
 72
     2
 10
67.89538414632248
 20
-24.82719554219663
 40
1.086039409572501
 50
203.6592836906622
 51
274.1842926898212
 73
     1
 72
     1
 10
67.9746267797775
 20
-25.91034013281586
 11
69.67644084724284
 21
-25.91034013281586
 72
     1
 10
69.67644084724284
 20
-25.91034013281586
 11
69.67644084724284
 21
-29.3218399472882
 72
     1
 10
69.67644084724284
 20
-29.3218399472882
 11
67.30017208537674
 21
-29.3218399472882
 72
     2
 10
67.25762339035424
 20
-25.33212240480389
 40
3.989944418191203
 50
89.38898726367651
 51
168.0530276412409
 73
     0
 97
        0
 92
        0
 93
       17
 72
     1
 10
43.05605106643313
 20
-17.7815404122868
 11
43.05605106643313
 21
-15.34172371855146
 72
     2
 10
40.78725099264817
 20
-15.41754783303924
 40
2.270066754777149
 50
1.91413312629365
 51
79.39408898901175
 73
     1
 72
     2
 10
39.34280269032455
 20
-21.49867469324143
 40
8.518463315356268
 50
77.37232591416118
 51
86.79517825630911
 73
     1
 72
     1
 10
39.81903188721887
 20
-12.9935337180961
 11
38.86657349341846
 21
-12.99353371809611
 72
     2
 10
38.86657349341893
 20
-17.36558107083077
 40
4.372047352734658
 50
90.00000000000571
 51
144.6450704711898
 73
     1
 72
     1
 10
35.30080502522694
 20
-14.83574050553779
 11
32.46224885442643
 21
-12.66913540028344
 72
     2
 10
39.03771165529621
 20
-17.3160449578369
 40
8.05173766846038
 50
215.2490231219919
 51
266.8687199282597
 73
     0
 72
     2
 10
39.36859795753149
 20
-18.6520669531238
 40
9.407361755659643
 50
265.3007406896658
 51
306.7365817953264
 73
     0
 72
     2
 10
42.65270743203094
 20
-14.76503232408827
 40
4.338835343210686
 50
302.6806576706154
 51
359.6732829107659
 73
     0
 72
     1
 10
46.9914722344329
 20
-14.74029116542459
 11
46.9914722344329
 21
-29.356754388242
 72
     1
 10
46.9914722344329
 20
-29.356754388242
 11
43.05605106643313
 21
-29.356754388242
 72
     1
 10
43.05605106643313
 20
-29.356754388242
 11
43.05605106643313
 21
-27.99378597838239
 72
     2
 10
37.93541201687373
 20
-21.65603534153929
 40
8.147884842747699
 50
51.0632298489674
 51
90.46562365840397
 73
     0
 72
     2
 10
37.47858585609954
 20
-23.59242771242988
 40
6.223493705589413
 50
86.4015188380723
 51
174.4037566465603
 73
     0
 72
     1
 10
31.28475459142393
 20
-24.19932817233911
 11
31.28475459142394
 21
-23.82344801106973
 72
     2
 10
37.6735624575161
 20
-24.1775592676244
 40
6.398613969592141
 50
183.1724763381719
 51
268.3681223431445
 73
     0
 72
     1
 10
37.49134408844867
 20
-17.7815404122868
 11
43.05605106643313
 21
-17.7815404122868
 97
        0
 92
        0
 93
        5
 72
     1
 10
43.05605106643313
 20
-21.09332197296879
 11
43.05605106643313
 21
-23.14726724267729
 72
     2
 10
40.11907556206941
 20
-23.26085476578918
 40
2.939171182261965
 50
357.7851896469765
 51
436.9543731135914
 73
     0
 72
     1
 10
40.78252559747725
 20
-26.12416775761466
 11
37.70807170386036
 21
-26.12416775761466
 72
     2
 10
37.59970789615387
 20
-23.60874486529173
 40
2.517755953630714
 50
87.53323696328587
 51
267.5332369632852
 73
     0
 72
     1
 10
37.49134408844739
 20
-21.09332197296879
 11
43.05605106643313
 21
-21.09332197296879
 97
        0
 92
        0
 93
        8
 72
     1
 10
22.29525677073866
 20
-16.87317760180503
 11
22.29525677073866
 21
-29.356754388242
 72
     1
 10
22.29525677073866
 20
-29.356754388242
 11
18.34589541876525
 21
-29.356754388242
 72
     1
 10
18.34589541876525
 20
-29.356754388242
 11
18.34589541876525
 21
-10.18950943348699
 72
     1
 10
18.34589541876525
 20
-10.18950943348699
 11
22.29525677073866
 21
-10.18950943348699
 72
     1
 10
22.29525677073866
 20
-10.18950943348699
 11
22.29525677073866
 21
-11.91167239100122
 72
     2
 10
27.33931686952942
 20
-16.60518803045766
 40
6.88996598961382
 50
222.9382908906374
 51
307.5540183035923
 73
     0
 72
     1
 10
31.53881404348553
 20
-11.14296734432918
 11
28.74026849464329
 21
-14.4687146813996
 72
     2
 10
26.13409420275928
 20
-17.32298417520732
 40
3.865100099992044
 50
47.6014439947043
 51
173.3169778806538
 73
     1
 97
        0
 92
        0
 93
        8
 72
     2
 10
8.686351637967663
 20
-19.01034553049972
 40
9.115765720146793
 50
179.9999999999978
 51
318.527618636455
 73
     0
 72
     1
 10
15.51656736779762
 20
-12.97334811882337
 11
12.69075596525951
 21
-15.47098754893721
 72
     2
 10
8.68635163796764
 20
-19.01034553049975
 40
5.344371706579198
 50
41.47238136354504
 51
180.0000000000012
 73
     1
 72
     1
 10
3.341979931388438
 20
-19.01034553049993
 11
3.341979931388436
 21
-20.53591829122905
 72
     2
 10
8.686351637967633
 20
-20.53591829122925
 40
5.344371706579201
 50
179.9999999999974
 51
318.527618636454
 73
     1
 72
     1
 10
12.69075596525951
 20
-24.07527627279177
 11
15.51656736779762
 21
-26.57291570290562
 72
     2
 10
8.68635163796769
 20
-20.5359182912292
 40
9.115765720146818
 50
41.47238136354426
 51
180.0000000000002
 73
     0
 72
     1
 10
-0.4294140821791356
 20
-20.53591829122906
 11
-0.4294140821791377
 21
-19.01034553049994
 97
        0
 92
        0
 93
       11
 72
     1
 10
122.373267281408
 20
-29.3218399472882
 11
122.373267281408
 21
-10.25705419308377
 72
     1
 10
122.373267281408
 20
-10.25705419308377
 11
125.9560375389299
 21
-10.25705419308377
 72
     1
 10
125.9560375389299
 20
-10.25705419308377
 11
125.9560375389299
 21
-11.88883149817611
 72
     2
 10
130.8066943744351
 20
-16.91137974258201
 40
6.982468231450699
 50
225.9974124217676
 51
317.8946738092728
 73
     0
 72
     2
 10
131.1972323104805
 20
-16.48266418894573
 40
6.405517655344043
 50
318.3975176562068
 51
359.8966870206334
 73
     0
 72
     1
 10
137.6027395525186
 20
-16.47111407547544
 11
137.6027395525186
 21
-29.3218399472882
 72
     1
 10
137.6027395525186
 20
-29.3218399472882
 11
134.045705019257
 21
-29.3218399472882
 72
     1
 10
134.045705019257
 20
-29.3218399472882
 11
134.045705019257
 21
-17.36883214204516
 72
     2
 10
130.0008712790935
 20
-17.50128193267045
 40
4.047001721349006
 50
1.875504366928222
 51
181.8755043669276
 73
     1
 72
     1
 10
125.95603753893
 20
-17.63373172329574
 11
125.95603753893
 21
-29.3218399472882
 72
     1
 10
125.95603753893
 20
-29.3218399472882
 11
122.373267281408
 21
-29.3218399472882
 97
        0
 92
        0
 93
       12
 72
     2
 10
149.8926949203268
 20
-17.71730839399316
 40
8.097174158878994
 50
263.8881797987992
 51
353.7544108164495
 73
     0
 72
     2
 10
147.5886772353731
 20
-18.46424881639389
 40
10.48032467745207
 50
351.0644739084328
 51
363.6015503067921
 73
     0
 72
     1
 10
158.0483035763518
 20
-19.1225968640976
 11
158.0483035763521
 21
-21.12360290867781
 72
     1
 10
158.0483035763521
 20
-21.12360290867781
 11
145.8699120421112
 21
-21.1236029086778
 72
     2
 10
150.4639461467945
 20
-21.79630560733028
 40
4.643024690411124
 50
171.66940426346
 51
223.3450962976879
 73
     1
 72
     2
 10
150.5591052819236
 20
-21.2473652169314
 40
5.09995680642947
 50
227.0989008351069
 51
276.6774538039654
 73
     1
 72
     2
 10
150.9667717670586
 20
-21.17045344087442
 40
5.145612485111761
 50
272.0643638809649
 51
322.17686444306
 73
     1
 72
     1
 10
155.0313294615943
 20
-24.32587711999094
 11
157.5049127094302
 21
-26.64922322758885
 72
     2
 10
150.3232011278792
 20
-19.65740924783078
 40
10.02309552823495
 50
44.23239421900363
 51
104.2454222481362
 73
     0
 72
     2
 10
149.7560454626899
 20
-22.37606531837978
 40
7.249454614830491
 50
105.188186891158
 51
167.6442069302721
 73
     0
 72
     2
 10
158.2047316462353
 20
-19.53058380322533
 40
16.14060685758017
 50
164.1927552338866
 51
192.1179328304819
 73
     0
 72
     2
 10
149.9206005909797
 20
-17.18226402535861
 40
7.568616171471794
 50
187.897901475919
 51
263.2468753300164
 73
     0
 97
        0
 92
        0
 93
        2
 72
     1
 10
145.8699120421112
 20
-18.02554993512075
 11
154.2245859941845
 21
-18.02554993512075
 72
     2
 10
150.0472490181478
 20
-17.39628921291517
 40
4.224466033461928
 50
351.4335540061985
 51
548.5664459938002
 73
     1
 97
        0
 75
     0
 76
     1
 98
        1
 10
0.0
 20
0.0
1001
REVIT
1002
{
1070
     3
1000
165723
1002
}
  0
HATCH
  5
39B
330
2D6
100
AcDbEntity
  8
0
370
     9
100
AcDbHatch
 10
0.0
 20
0.0
 30
0.0
210
0.0
220
0.0
230
1.0
  2
SOLID
 70
     1
 71
     0
 91
        3
 92
        0
 93
        4
 72
     1
 10
158.4674004174723
 20
0.0
 11
158.4674004174722
 21
158.0525320670797
 72
     1
 10
158.4674004174722
 20
158.0525320670797
 11
0.0
 21
158.0525320670796
 72
     1
 10
0.0
 20
158.0525320670796
 11
0.0
 21
0.0
 72
     1
 10
0.0
 20
0.0
 11
158.4674004174723
 21
0.0
 97
        0
 92
        0
 93
       18
 72
     2
 10
48.16124999258831
 20
52.31205260770336
 40
21.84795297442921
 50
135.9500892571048
 51
180.9245628259473
 73
     0
 72
     1
 10
26.31614147221499
 20
52.66459041557968
 11
26.31614147221498
 21
108.2806607359045
 72
     2
 10
49.84034922670731
 20
107.0896219859043
 40
23.55433980778318
 50
182.8984301209805
 51
315.3581316395932
 73
     0
 72
     2
 10
47.05346721090941
 20
106.2873627568421
 40
26.13781829595923
 50
318.4009404137925
 51
348.5923430369137
 73
     0
 72
     2
 10
30.79605438790824
 20
105.0511512900326
 40
42.36598088947936
 50
351.3032094129197
 51
355.8590489016831
 73
     0
 72
     1
 10
73.05143577855006
 20
108.1104126811416
 11
73.05143577855006
 21
95.9025446544863
 72
     1
 10
73.05143577855006
 20
95.9025446544863
 11
57.91909361809175
 21
95.9025446544863
 72
     1
 10
57.91909361809175
 20
95.9025446544863
 11
57.91909361809175
 21
108.2806607359037
 72
     2
 10
49.49136124934199
 20
107.3530347898562
 40
8.478629769901085
 50
6.281163442005984
 51
173.7188365580026
 73
     1
 72
     1
 10
41.06362888059209
 20
108.2806607359024
 11
41.06362888059209
 21
52.66459041557699
 72
     2
 10
49.45861302428966
 20
53.72295691066191
 40
8.461435954425935
 50
187.1854445386532
 51
360.8610003927997
 73
     1
 72
     1
 10
57.91909361809146
 20
53.85010459154928
 11
57.91909361809147
 21
63.42448338031482
 72
     1
 10
57.91909361809147
 20
63.42448338031482
 11
73.05143577855006
 21
63.42448338031473
 72
     1
 10
73.05143577855006
 20
63.42448338031473
 11
73.05143577855006
 21
52.37902457028972
 72
     2
 10
55.12783037872038
 20
51.98048145489532
 40
17.92803578598704
 50
358.7262006886505
 51
386.530417869525
 73
     0
 72
     2
 10
50.0508399775747
 20
53.25593307891117
 40
23.06764322558678
 50
23.73101074722264
 51
57.02232884935014
 73
     0
 72
     2
 10
49.54492698826812
 20
53.61968042675642
 40
23.64924300016104
 50
56.47379071692733
 51
103.6157633396506
 73
     0
 72
     2
 10
48.88201208309243
 20
52.81652457349211
 40
22.71716366869324
 50
102.4675748184007
 51
136.2995422535412
 73
     0
 97
        0
 92
        0
 93
       27
 72
     2
 10
113.9324245246711
 20
57.61366080273392
 40
30.58039427594974
 50
131.5607077152165
 51
180.6801285151607
 73
     0
 72
     1
 10
83.35418473973716
 20
57.97665629529557
 11
97.0953591594023
 21
58.736552200559
 72
     2
 10
121.6124885195191
 20
60.71095158500366
 40
24.59650147866557
 50
184.6041748049343
 51
203.341280013282
 73
     1
 72
     2
 10
112.14372372293
 20
56.13126607908234
 40
14.09543611225078
 50
201.4983780978064
 51
232.8895062702544
 73
     1
 72
     2
 10
107.9399848056488
 20
53.22126334826249
 40
9.375392920827801
 50
242.6946367052342
 51
295.3145444358597
 73
     1
 72
     2
 10
107.2219831852597
 20
53.13471133917918
 40
9.628633497850414
 50
299.4004692559135
 51
339.4060827040703
 73
     1
 72
     2
 10
102.4647957920329
 20
54.90537930433424
 40
14.70464903549041
 50
339.467596339353
 51
381.3962029739434
 73
     1
 72
     2
 10
96.58376625138965
 20
52.12271106105796
 40
21.20019657205506
 50
22.60002811300756
 51
51.01565349303601
 73
     1
 72
     1
 10
109.9209805215231
 20
68.60200261762448
 11
94.14136732009483
 21
84.16445345380066
 72
     2
 10
116.3067015126409
 20
106.6390883118093
 40
31.56598251073567
 50
134.6030163209509
 51
190.5018451954441
 73
     0
 72
     2
 10
107.1378334088431
 20
108.6344409313544
 40
22.18891936685596
 50
189.7510685880772
 51
262.1234140616697
 73
     0
 72
     2
 10
107.3433477719655
 20
103.2975915086439
 40
27.508645726086
 50
263.2227671763137
 51
296.7290168454875
 73
     0
 72
     2
 10
107.4336402975723
 20
107.3752810693206
 40
23.89050140520934
 50
300.9378821642933
 51
358.3904592130642
 73
     0
 72
     1
 10
131.314715746595
 20
108.0463196601573
 11
117.6440315099715
 21
105.6321775107769
 72
     2
 10
104.345871515493
 20
105.3744809130883
 40
13.30065662947541
 50
1.11015957731178
 51
11.46033587865917
 73
     1
 72
     2
 10
104.4931780146341
 20
105.7317399905138
 40
13.08923687313902
 50
10.05565338925282
 51
25.42251501467403
 73
     1
 72
     2
 10
103.2169501510668
 20
105.2687994902381
 40
14.44120208354096
 50
24.90768437495521
 51
43.67597495166556
 73
     1
 72
     2
 10
108.4073293431627
 20
110.4117856968033
 40
7.136869065532603
 50
42.58944773263399
 51
97.09093134355875
 73
     1
 72
     2
 10
108.3288842346065
 20
109.9585739825784
 40
7.578111911912149
 50
96.07932174143593
 51
138.8781808986696
 73
     1
 72
     2
 10
112.4310530765507
 20
107.3779772054942
 40
12.38844708951706
 50
142.3668173378822
 51
183.4388574881765
 73
     1
 72
     2
 10
122.1540955128479
 20
107.3024196478758
 40
22.09926700175456
 50
181.7309723657289
 51
225.686495673345
 73
     1
 72
     1
 10
106.7159022520746
 20
91.48977309969004
 11
117.4761887765692
 21
82.09709816785548
 72
     2
 10
83.5403444249613
 20
43.22005714130835
 40
51.60490142260121
 50
311.1177706521018
 51
331.7431816405693
 73
     0
 72
     2
 10
102.9531846115168
 20
54.47291579655286
 40
29.18694137436999
 50
333.1594613308091
 51
367.7451663061748
 73
     0
 72
     2
 10
106.5166132229478
 20
53.7655346627371
 40
25.56164181942005
 50
7.250479856632831
 51
47.56462341825493
 73
     0
 72
     2
 10
108.3307871208431
 20
56.59948559918483
 40
26.62829838250555
 50
54.57760738349759
 51
97.92754934398322
 73
     0
 72
     2
 10
107.2853586332789
 20
52.35812541666268
 40
22.28783815414791
 50
96.76944918523421
 51
127.7349569226043
 73
     0
 97
        0
 75
     0
 76
     1
 98
        1
 10
0.0
 20
0.0
1001
REVIT
1002
{
1070
     4
1000
2783
1002
}
1002
{
1070
     3
1000
165723
1002
}
  0
ARC
  5
39C
330
2D6
100
AcDbEntity
  8
0
370
     9
100
AcDbCircle
 10
107.4336402975723
 20
107.3752810693207
 30
0.0
 40
23.89050140520926
100
AcDbArc
 50
1.609540786934325
 51
59.0621178357078
1001
REVIT
1002
{
1070
     4
1000
2783
1002
}
1002
{
1070
     3
1000
165723
1002
}
  0
ARC
  5
39D
330
2D6
100
AcDbEntity
  8
0
370
     9
100
AcDbCircle
 10
107.3433477719655
 20
103.2975915086438
 30
0.0
 40
27.50864572608601
100
AcDbArc
 50
63.27098315451398
 51
96.7772328237189
1001
REVIT
1002
{
1070
     4
1000
2783
1002
}
1002
{
1070
     3
1000
165723
1002
}
  0
ARC
  5
39E
330
2D6
100
AcDbEntity
  8
0
370
     9
100
AcDbCircle
 10
107.1378334088431
 20
108.6344409313545
 30
0.0
 40
22.18891936685593
100
AcDbArc
 50
97.87658593837193
 51
170.2489314119293
1001
REVIT
1002
{
1070
     4
1000
2783
1002
}
1002
{
1070
     3
1000
165723
1002
}
  0
ARC
  5
39F
330
2D6
100
AcDbEntity
  8
0
370
     9
100
AcDbCircle
 10
116.3067015126408
 20
106.6390883118093
 30
0.0
 40
31.56598251073558
100
AcDbArc
 50
169.4981548045607
 51
225.3969836790517
1001
REVIT
1002
{
1070
     4
1000
2783
1002
}
1002
{
1070
     3
1000
165723
1002
}
  0
ARC
  5
3A0
330
2D6
100
AcDbEntity
  8
0
370
     9
100
AcDbCircle
 10
96.58376625138956
 20
52.12271106105789
 30
0.0
 40
21.20019657205519
100
AcDbArc
 50
22.60002811302519
 51
51.0156534930356
1001
REVIT
1002
{
1070
     4
1000
2783
1002
}
1002
{
1070
     3
1000
165723
1002
}
  0
ARC
  5
3A1
330
2D6
100
AcDbEntity
  8
0
370
     9
100
AcDbCircle
 10
102.464795792033
 20
54.90537930433426
 30
0.0
 40
14.70464903549039
100
AcDbArc
 50
339.4675963397997
 51
29.24708205014196
1001
REVIT
1002
{
1070
     4
1000
2783
1002
}
1002
{
1070
     3
1000
165723
1002
}
  0
ARC
  5
3A2
330
2D6
100
AcDbEntity
  8
0
370
     9
100
AcDbCircle
 10
107.2219831852597
 20
53.13471133917922
 30
0.0
 40
9.628633497850453
100
AcDbArc
 50
299.4004692559174
 51
339.406082704758
1001
REVIT
1002
{
1070
     4
1000
2783
1002
}
1002
{
1070
     3
1000
165723
1002
}
  0
ARC
  5
3A3
330
2D6
100
AcDbEntity
  8
0
370
     9
100
AcDbCircle
 10
107.9399848056488
 20
53.22126334826251
 30
0.0
 40
9.375392920827853
100
AcDbArc
 50
242.6946367052379
 51
295.3145444358588
1001
REVIT
1002
{
1070
     4
1000
2783
1002
}
1002
{
1070
     3
1000
165723
1002
}
  0
ARC
  5
3A4
330
2D6
100
AcDbEntity
  8
0
370
     9
100
AcDbCircle
 10
112.14372372293
 20
56.13126607908235
 30
0.0
 40
14.09543611225078
100
AcDbArc
 50
201.4983780977986
 51
232.8895062702539
1001
REVIT
1002
{
1070
     4
1000
2783
1002
}
1002
{
1070
     3
1000
165723
1002
}
  0
ARC
  5
3A5
330
2D6
100
AcDbEntity
  8
0
370
     9
100
AcDbCircle
 10
121.6124885195193
 20
60.71095158500378
 30
0.0
 40
24.59650147866572
100
AcDbArc
 50
184.6041748049376
 51
203.3412800132779
1001
REVIT
1002
{
1070
     4
1000
2783
1002
}
1002
{
1070
     3
1000
165723
1002
}
  0
ARC
  5
3A6
330
2D6
100
AcDbEntity
  8
0
370
     9
100
AcDbCircle
 10
113.9324245246711
 20
57.6136608027339
 30
0.0
 40
30.58039427594966
100
AcDbArc
 50
179.3198714848382
 51
228.4392922847755
1001
REVIT
1002
{
1070
     4
1000
2783
1002
}
1002
{
1070
     3
1000
165723
1002
}
  0
ARC
  5
3A7
330
2D6
100
AcDbEntity
  8
0
370
     9
100
AcDbCircle
 10
107.2853586332789
 20
52.35812541666271
 30
0.0
 40
22.28783815414793
100
AcDbArc
 50
232.2650430773873
 51
263.2305508147641
1001
REVIT
1002
{
1070
     4
1000
2783
1002
}
1002
{
1070
     3
1000
165723
1002
}
  0
ARC
  5
3A8
330
2D6
100
AcDbEntity
  8
0
370
     9
100
AcDbCircle
 10
108.330787120843
 20
56.59948559918483
 30
0.0
 40
26.62829838250557
100
AcDbArc
 50
262.0724506560156
 51
305.4223948753792
1001
REVIT
1002
{
1070
     4
1000
2783
1002
}
1002
{
1070
     3
1000
165723
1002
}
  0
ARC
  5
3A9
330
2D6
100
AcDbEntity
  8
0
370
     9
100
AcDbCircle
 10
106.5166132229477
 20
53.76553466273712
 30
0.0
 40
25.56164181942017
100
AcDbArc
 50
312.4353765817482
 51
352.7495201433571
1001
REVIT
1002
{
1070
     4
1000
2783
1002
}
1002
{
1070
     3
1000
165723
1002
}
  0
ARC
  5
3AA
330
2D6
100
AcDbEntity
  8
0
370
     9
100
AcDbCircle
 10
102.9531846115171
 20
54.47291579655285
 30
0.0
 40
29.18694137436973
100
AcDbArc
 50
352.2548336938151
 51
26.8405386691882
1001
REVIT
1002
{
1070
     4
1000
2783
1002
}
1002
{
1070
     3
1000
165723
1002
}
  0
ARC
  5
3AB
330
2D6
100
AcDbEntity
  8
0
370
     9
100
AcDbCircle
 10
83.54034442496074
 20
43.22005714130803
 30
0.0
 40
51.60490142260176
100
AcDbArc
 50
28.25681835942632
 51
48.88222934789749
1001
REVIT
1002
{
1070
     4
1000
2783
1002
}
1002
{
1070
     3
1000
165723
1002
}
  0
ARC
  5
3AC
330
2D6
100
AcDbEntity
  8
0
370
     9
100
AcDbCircle
 10
108.3288842346066
 20
109.9585739825785
 30
0.0
 40
7.578111911912063
100
AcDbArc
 50
96.07932174148766
 51
138.8781808986905
1001
REVIT
1002
{
1070
     4
1000
2783
1002
}
1002
{
1070
     3
1000
165723
1002
}
  0
LINE
  5
3AD
330
2D6
100
AcDbEntity
  8
0
370
     9
100
AcDbLine
 10
131.3147157465953
 20
108.0463196601573
 30
0.0
 11
117.6440315099714
 21
105.6321775107769
 31
0.0
1001
REVIT
1002
{
1070
     4
1000
2783
1002
}
1002
{
1070
     3
1000
165723
1002
}
  0
LWPOLYLINE
  5
3AE
330
2D6
100
AcDbEntity
  8
0
370
     9
100
AcDbPolyline
 90
        4
 70
     1
 43
0.0
 10
0.0
 20
158.0525320670796
 10
158.4674004174722
 20
158.0525320670796
 10
158.4674004174722
 20
0.0
 10
0.0
 20
0.0
1001
REVIT
1002
{
1070
     4
1000
2783
1002
}
1002
{
1070
     3
1000
165723
1002
}
  0
LINE
  5
3AF
330
2D6
100
AcDbEntity
  8
0
370
     9
100
AcDbLine
 10
94.14136732009467
 20
84.16445345380076
 30
0.0
 11
109.920980521523
 21
68.60200261762458
 31
0.0
1001
REVIT
1002
{
1070
     4
1000
2783
1002
}
1002
{
1070
     3
1000
165723
1002
}
  0
LINE
  5
3B0
330
2D6
100
AcDbEntity
  8
0
370
     9
100
AcDbLine
 10
83.3541847397369
 20
57.97665629529554
 30
0.0
 11
97.09535915940265
 21
58.73655220055903
 31
0.0
1001
REVIT
1002
{
1070
     4
1000
2783
1002
}
1002
{
1070
     3
1000
165723
1002
}
  0
LINE
  5
3B1
330
2D6
100
AcDbEntity
  8
0
370
     9
100
AcDbLine
 10
117.4761887765688
 20
82.09709816785583
 30
0.0
 11
106.7159022520767
 21
91.48977309968829
 31
0.0
1001
REVIT
1002
{
1070
     4
1000
2783
1002
}
1002
{
1070
     3
1000
165723
1002
}
  0
LWPOLYLINE
  5
3B2
330
2D6
100
AcDbEntity
  8
0
370
     9
100
AcDbPolyline
 90
        3
 70
     0
 43
0.0
 10
73.05143577855006
 20
95.9025446544863
 10
57.91909361809175
 20
95.9025446544863
 10
57.91909361809175
 20
108.2806607359024
1001
REVIT
1002
{
1070
     4
1000
2783
1002
}
1002
{
1070
     3
1000
165723
1002
}
  0
LINE
  5
3B3
330
2D6
100
AcDbEntity
  8
0
370
     9
100
AcDbLine
 10
73.05143577855006
 20
95.73870539983687
 30
0.0
 11
73.05143577855006
 21
108.2450743980115
 31
0.0
1001
REVIT
1002
{
1070
     4
1000
2783
1002
}
1002
{
1070
     3
1000
165723
1002
}
  0
LINE
  5
3B4
330
2D6
100
AcDbEntity
  8
0
370
     9
100
AcDbLine
 10
41.06362888059209
 20
108.2806607359026
 30
0.0
 11
41.06362888059209
 21
52.66459041557866
 31
0.0
1001
REVIT
1002
{
1070
     4
1000
2783
1002
}
1002
{
1070
     3
1000
165723
1002
}
  0
LWPOLYLINE
  5
3B5
330
2D6
100
AcDbEntity
  8
0
370
     9
100
AcDbPolyline
 90
        4
 70
     0
 43
0.0
 10
57.91909361809147
 20
53.58702455380254
 10
57.91909361809147
 20
63.42448338031481
 10
73.05143577855006
 20
63.42448338031481
 10
73.05143577855006
 20
52.37902457028952
1001
REVIT
1002
{
1070
     4
1000
2783
1002
}
1002
{
1070
     3
1000
165723
1002
}
  0
LINE
  5
3B6
330
2D6
100
AcDbEntity
  8
0
370
     9
100
AcDbLine
 10
26.31614147221498
 20
108.2806607359026
 30
0.0
 11
26.31614147221498
 21
52.66459041557866
 31
0.0
1001
REVIT
1002
{
1070
     4
1000
2783
1002
}
1002
{
1070
     3
1000
165723
1002
}
  0
ARC
  5
3B7
330
2D6
100
AcDbEntity
  8
0
370
     9
100
AcDbCircle
 10
49.8403492267073
 20
107.0896219859043
 30
0.0
 40
23.55433980778314
100
AcDbArc
 50
44.64186836040074
 51
177.1015698790263
1001
REVIT
1002
{
1070
     4
1000
2783
1002
}
1002
{
1070
     3
1000
165723
1002
}
  0
ARC
  5
3B8
330
2D6
100
AcDbEntity
  8
0
370
     9
100
AcDbCircle
 10
49.49136124934199
 20
107.3530347898562
 30
0.0
 40
8.478629769901085
100
AcDbArc
 50
6.281163441994668
 51
173.7188365579971
1001
REVIT
1002
{
1070
     4
1000
2783
1002
}
1002
{
1070
     3
1000
165723
1002
}
  0
ARC
  5
3B9
330
2D6
100
AcDbEntity
  8
0
370
     9
100
AcDbCircle
 10
47.05346721090919
 20
106.2873627568421
 30
0.0
 40
26.1378182959594
100
AcDbArc
 50
11.4076569630978
 51
41.59905958620534
1001
REVIT
1002
{
1070
     4
1000
2783
1002
}
1002
{
1070
     3
1000
165723
1002
}
  0
ARC
  5
3BA
330
2D6
100
AcDbEntity
  8
0
370
     9
100
AcDbCircle
 10
30.79605438792186
 20
105.0511512900339
 30
0.0
 40
42.36598088946567
100
AcDbArc
 50
4.140951098319032
 51
8.69679058708927
1001
REVIT
1002
{
1070
     4
1000
2783
1002
}
1002
{
1070
     3
1000
165723
1002
}
  0
ARC
  5
3BB
330
2D6
100
AcDbEntity
  8
0
370
     9
100
AcDbCircle
 10
104.3458715154917
 20
105.3744809130882
 30
0.0
 40
13.30065662947672
100
AcDbArc
 50
1.110159577308853
 51
11.4603358786587
1001
REVIT
1002
{
1070
     4
1000
2783
1002
}
1002
{
1070
     3
1000
165723
1002
}
  0
ARC
  5
3BC
330
2D6
100
AcDbEntity
  8
0
370
     9
100
AcDbCircle
 10
108.4073293431626
 20
110.4117856968035
 30
0.0
 40
7.136869065532551
100
AcDbArc
 50
42.58944773264758
 51
97.09093134361399
1001
REVIT
1002
{
1070
     4
1000
2783
1002
}
1002
{
1070
     3
1000
165723
1002
}
  0
ARC
  5
3BD
330
2D6
100
AcDbEntity
  8
0
370
     9
100
AcDbCircle
 10
104.4931780146354
 20
105.7317399905133
 30
0.0
 40
13.08923687313804
100
AcDbArc
 50
10.05565338924377
 51
25.42251501459574
1001
REVIT
1002
{
1070
     4
1000
2783
1002
}
1002
{
1070
     3
1000
165723
1002
}
  0
ARC
  5
3BE
330
2D6
100
AcDbEntity
  8
0
370
     9
100
AcDbCircle
 10
103.2169501510668
 20
105.2687994902381
 30
0.0
 40
14.44120208354099
100
AcDbArc
 50
24.90768437488627
 51
43.67597495167369
1001
REVIT
1002
{
1070
     4
1000
2783
1002
}
1002
{
1070
     3
1000
165723
1002
}
  0
ARC
  5
3BF
330
2D6
100
AcDbEntity
  8
0
370
     9
100
AcDbCircle
 10
122.1540955128479
 20
107.3024196478758
 30
0.0
 40
22.09926700175455
100
AcDbArc
 50
181.7309723657656
 51
225.686495673352
1001
REVIT
1002
{
1070
     4
1000
2783
1002
}
1002
{
1070
     3
1000
165723
1002
}
  0
ARC
  5
3C0
330
2D6
100
AcDbEntity
  8
0
370
     9
100
AcDbCircle
 10
112.4310530765507
 20
107.3779772054941
 30
0.0
 40
12.38844708951708
100
AcDbArc
 50
142.366817337896
 51
183.4388574882347
1001
REVIT
1002
{
1070
     4
1000
2783
1002
}
1002
{
1070
     3
1000
165723
1002
}
  0
ARC
  5
3C1
330
2D6
100
AcDbEntity
  8
0
370
     9
100
AcDbCircle
 10
49.45861302428966
 20
53.72295691066192
 30
0.0
 40
8.461435954425932
100
AcDbArc
 50
187.1854445386399
 51
0.8610003928995363
1001
REVIT
1002
{
1070
     4
1000
2783
1002
}
1002
{
1070
     3
1000
165723
1002
}
  0
ARC
  5
3C2
330
2D6
100
AcDbEntity
  8
0
370
     9
100
AcDbCircle
 10
48.16124999258832
 20
52.31205260770339
 30
0.0
 40
21.84795297442921
100
AcDbArc
 50
179.0754371740592
 51
224.0499107428927
1001
REVIT
1002
{
1070
     4
1000
2783
1002
}
1002
{
1070
     3
1000
165723
1002
}
  0
ARC
  5
3C3
330
2D6
100
AcDbEntity
  8
0
370
     9
100
AcDbCircle
 10
48.88201208309255
 20
52.81652457349232
 30
0.0
 40
22.71716366869344
100
AcDbArc
 50
223.7004577464642
 51
257.5324251816109
1001
REVIT
1002
{
1070
     4
1000
2783
1002
}
1002
{
1070
     3
1000
165723
1002
}
  0
ARC
  5
3C4
330
2D6
100
AcDbEntity
  8
0
370
     9
100
AcDbCircle
 10
49.54492698826812
 20
53.61968042675642
 30
0.0
 40
23.64924300016105
100
AcDbArc
 50
256.3842366603597
 51
303.5262092830686
1001
REVIT
1002
{
1070
     4
1000
2783
1002
}
1002
{
1070
     3
1000
165723
1002
}
  0
ARC
  5
3C5
330
2D6
100
AcDbEntity
  8
0
370
     9
100
AcDbCircle
 10
50.05083997757495
 20
53.25593307891098
 30
0.0
 40
23.06764322558652
100
AcDbArc
 50
302.9776711506438
 51
336.2689892527797
1001
REVIT
1002
{
1070
     4
1000
2783
1002
}
1002
{
1070
     3
1000
165723
1002
}
  0
ARC
  5
3C6
330
2D6
100
AcDbEntity
  8
0
370
     9
100
AcDbCircle
 10
55.1278303787204
 20
51.9804814548953
 30
0.0
 40
17.92803578598704
100
AcDbArc
 50
333.4695821304765
 51
1.273799311352352
1001
REVIT
1002
{
1070
     4
1000
2783
1002
}
1002
{
1070
     3
1000
165723
1002
}
  0
ENDBLK
  5
3C8
330
2D6
100
AcDbEntity
  8
0
100
AcDbBlockEnd
  0
ENDSEC
  0
SECTION
  2
ENTITIES
  0
INSERT
  5
89
330
77
100
AcDbEntity
  8
0
370
     9
100
AcDbBlockReference
  2
CS_Timber Packing - Packer 2_1-13-J2
 10
1624.240587488748
 20
1121.192948946085
 30
0.0
1001
REVIT
1002
{
1070
     1
1000
614774
1002
}
1002
{
1070
     5
1000
614940
1002
}
1002
{
1070
     2
1000
-2002000
1002
}
  0
INSERT
  5
94
330
77
100
AcDbEntity
  8
0
370
     9
100
AcDbBlockReference
  2
CS_Timber Framing - 90 x 45_1-12-J2
 10
1560.076332806379
 20
1089.402849729871
 30
0.0
 41
1.0
 42
1.0
 43
1.0
 50
89.99999999999991
1001
REVIT
1002
{
1070
     1
1000
308534
1002
}
1002
{
1070
     5
1000
343498
1002
}
1002
{
1070
     2
1000
-2002000
1002
}
  0
INSERT
  5
9F
330
77
100
AcDbEntity
  8
0
370
     9
100
AcDbBlockReference
  2
CS_Lining - Generic Sheet - 9mm_1-11-J2
 10
1615.240587488748
 20
1134.402849729639
 30
0.0
 41
1.0
 42
1.0
 43
1.0
 50
269.9999999999998
1001
REVIT
1002
{
1070
     1
1000
314989
1002
}
1002
{
1070
     5
1000
291181
1002
}
1002
{
1070
     2
1000
-2002000
1002
}
  0
INSERT
  5
A5
330
77
100
AcDbEntity
  8
0
370
     9
100
AcDbBlockReference
  2
CS_Line - H3_1 FRAMING_1-10-J2
 10
1495.076332806379
 20
1089.402849729871
 30
0.0
 50
270.0
1001
REVIT
1002
{
1070
     1
1000
316159
1002
}
1002
{
1070
     5
1000
316249
1002
}
1002
{
1070
     2
1000
-2002000
1002
}
  0
INSERT
  5
A6
330
77
100
AcDbEntity
  8
0
370
     9
100
AcDbBlockReference
  2
CS_Line - H3_1 FRAMING_1-10-J2
 10
1585.076332806377
 20
1089.402849729871
 30
0.0
 50
270.0
1001
REVIT
1002
{
1070
     1
1000
316217
1002
}
1002
{
1070
     5
1000
316249
1002
}
1002
{
1070
     2
1000
-2002000
1002
}
  0
INSERT
  5
B7
330
77
100
AcDbEntity
  8
0
370
     9
100
AcDbBlockReference
  2
CS_Mortar Bed - CS_Mortar Bed_1-9-J2
 10
1624.240587488748
 20
1096.192948946086
 30
0.0
1001
REVIT
1002
{
1070
     1
1000
461661
1002
}
1002
{
1070
     5
1000
454333
1002
}
1002
{
1070
     2
1000
-2002000
1002
}
  0
INSERT
  5
BE
330
77
100
AcDbEntity
  8
0
370
     9
100
AcDbBlockReference
  2
CS_Line - Building underlay_1-8-J2
 10
1587.94985016526
 20
1137.518864889405
 30
0.0
 50
269.9999999999998
1001
REVIT
1002
{
1070
     1
1000
422993
1002
}
1002
{
1070
     5
1000
385154
1002
}
1002
{
1070
     2
1000
-2002000
1002
}
  0
INSERT
  5
C3
330
77
100
AcDbEntity
  8
0
370
     9
100
AcDbBlockReference
  2
CS_Line - H3_1 FRAMING_1-7-J2
 10
1495.076332806379
 20
1134.402849729872
 30
0.0
 50
180.0
1001
REVIT
1002
{
1070
     1
1000
423041
1002
}
1002
{
1070
     5
1000
316249
1002
}
1002
{
1070
     2
1000
-2002000
1002
}
  0
INSERT
  5
D0
330
77
100
AcDbEntity
  8
0
370
     9
100
AcDbBlockReference
  2
CS_Sill Block 2 - CS_Sill Block 2_1-6-J2
 10
1634.240587488748
 20
1025.409407821229
 30
0.0
1001
REVIT
1002
{
1070
     1
1000
461663
1002
}
1002
{
1070
     5
1000
397577
1002
}
1002
{
1070
     2
1000
-2002000
1002
}
  0
INSERT
  5
258
330
77
100
AcDbEntity
  8
0
370
     9
100
AcDbBlockReference
  2
CS_Fix_Screw - CS_Fix_Screw_1-5-J2
 10
1677.576332806377
 20
1114.986796770999
 30
0.0
 41
1.0
 42
1.0
 43
1.0
 50
269.9999999999998
1001
REVIT
1002
{
1070
     1
1000
504327
1002
}
1002
{
1070
     5
1000
504325
1002
}
1002
{
1070
     2
1000
-2002000
1002
}
  0
INSERT
  5
260
330
77
100
AcDbEntity
  8
0
370
     9
100
AcDbBlockReference
  2
CS_Flashing - Head Part - CS_Head Flashing_1-4-J2
 10
1491.533250840743
 20
1155.328229044761
 30
0.0
1001
REVIT
1002
{
1070
     1
1000
564835
1002
}
1002
{
1070
     5
1000
564786
1002
}
1002
{
1070
     2
1000
-2002000
1002
}
  0
INSERT
  5
26B
330
77
100
AcDbEntity
  8
0
370
     9
100
AcDbBlockReference
  2
CS_cavity batten - 20x45_1-3-J2
 10
1610.770011083654
 20
1134.402849729639
 30
0.0
 50
269.9999999999996
1001
REVIT
1002
{
1070
     1
1000
581481
1002
}
1002
{
1070
     5
1000
554327
1002
}
1002
{
1070
     2
1000
-2002000
1002
}
  0
INSERT
  5
275
330
77
100
AcDbEntity
  8
0
370
     9
100
AcDbBlockReference
  2
CS_Cavity batten castelated mid small - CS_Cavity batten castelated mid small_1-2-J2
 10
1610.770011083654
 20
1089.402849729639
 30
0.0
 50
269.9999999999999
1001
REVIT
1002
{
1070
     1
1000
581482
1002
}
1002
{
1070
     5
1000
573109
1002
}
1002
{
1070
     2
1000
-2002000
1002
}
  0
INSERT
  5
27A
330
77
100
AcDbEntity
  8
0
370
     9
100
AcDbBlockReference
  2
CS_Line - Building underlay separation_1-1-J2
 10
1669.219135845433
 20
1135.41022887048
 30
0.0
 50
175.0
1001
REVIT
1002
{
1070
     1
1000
563963
1002
}
1002
{
1070
     5
1000
564216
1002
}
1002
{
1070
     2
1000
-2002000
1002
}
  0
INSERT
  5
27F
330
77
100
AcDbEntity
  8
0
370
     9
100
AcDbBlockReference
  2
CS_Line - Building underlay_1-0-J2
 10
1669.219135845433
 20
1135.41022887048
 30
0.0
 50
270.0
1001
REVIT
1002
{
1070
     1
1000
564115
1002
}
1002
{
1070
     5
1000
385154
1002
}
1002
{
1070
     2
1000
-2002000
1002
}
  0
LINE
  5
280
330
77
100
AcDbEntity
  8
0
370
     9
100
AcDbLine
 10
1595.770011083653
 20
1033.402849729639
 30
0.0
 11
1595.770011083653
 21
1023.402849729639
 31
0.0
1001
REVIT
1002
{
1070
     1
1000
581585
1002
}
1002
{
1070
     2
1000
-2000051
1002
}
1002
{
1070
     3
1000
154115
1002
}
  0
LINE
  5
281
330
77
100
AcDbEntity
  8
0
370
     9
100
AcDbLine
 10
1610.770011083654
 20
1033.402849729639
 30
0.0
 11
1610.770011083654
 21
1023.402849729639
 31
0.0
1001
REVIT
1002
{
1070
     1
1000
581642
1002
}
1002
{
1070
     2
1000
-2000051
1002
}
1002
{
1070
     3
1000
154115
1002
}
  0
INSERT
  5
288
330
77
100
AcDbEntity
  8
A-ANNO-NOTE
100
AcDbBlockReference
  2
CS_Roof Angle Symbol - CS_Roof Angle Symbol_1-314851-J2
 10
1552.541375504512
 20
1157.579197086086
 30
0.0
 41
2.0
 42
2.0
 43
2.0
1001
REVIT
1002
{
1070
     1
1000
314619
1002
}
1002
{
1070
     5
1000
314849
1002
}
1002
{
1070
     2
1000
-2000150
1002
}
  0
MTEXT
  5
289
102
{ACAD_XDICTIONARY
360
4E2
102
}
330
77
100
AcDbEntity
  8
A-ANNO-NOTE
100
AcDbMText
 10
1564.915812789939
 20
1163.59765040918
 30
0.0
 40
3.784283513097072
 41
10.464
 46
0.0
 71
     2
 72
     1
  1
\fSwis721 Lt BT|b0|i0|c0|p34|;5.0°
 73
     2
 44
1.006669768884753
1001
REVIT
1002
{
1070
     1
1000
314619
1002
}
1002
{
1070
     5
1000
314849
1002
}
1002
{
1070
     2
1000
-2000059
1002
}
1002
{
1070
     3
1000
314633
1002
}
  0
CIRCLE
  5
28B
330
77
100
AcDbEntity
  8
CS-Text
100
AcDbCircle
 10
1601.862107683074
 20
1134.226262045382
 30
0.0
 40
1.0
1001
REVIT
1002
{
1070
     1
1000
314900
1002
}
1002
{
1070
     5
1000
304015
1002
}
1002
{
1070
     2
1000
-2005028
1002
}
  0
HATCH
  5
28C
330
77
100
AcDbEntity
  8
CS-Text
100
AcDbHatch
 10
0.0
 20
0.0
 30
0.0
210
0.0
220
0.0
230
1.0
  2
SOLID
 70
     1
 71
     0
 91
        1
 92
        0
 93
        1
 72
     2
 10
1601.862107683074
 20
1134.226262045382
 40
1.0
 50
0.0
 51
360.0
 73
     1
 97
        0
 75
     0
 76
     1
 98
        1
 10
0.0
 20
0.0
1001
REVIT
1002
{
1070
     1
1000
314900
1002
}
1002
{
1070
     5
1000
304015
1002
}
1002
{
1070
     2
1000
-2005028
1002
}
  0
LINE
  5
28D
330
77
100
AcDbEntity
  8
CS-Text
100
AcDbLine
 10
1601.862107683074
 20
1202.179641880339
 30
0.0
 11
1691.515559418435
 21
1202.179641880339
 31
0.0
1001
REVIT
1002
{
1070
     1
1000
314900
1002
}
1002
{
1070
     5
1000
304015
1002
}
1002
{
1070
     2
1000
-2005028
1002
}
  0
LINE
  5
28E
330
77
100
AcDbEntity
  8
CS-Text
100
AcDbLine
 10
1601.862107683074
 20
1134.226262045382
 30
0.0
 11
1601.862107683074
 21
1202.179641880339
 31
0.0
1001
REVIT
1002
{
1070
     1
1000
314900
1002
}
1002
{
1070
     5
1000
304015
1002
}
1002
{
1070
     2
1000
-2005028
1002
}
  0
INSERT
  5
292
330
77
100
AcDbEntity
  8
CS-Text
100
AcDbBlockReference
  2
CS_Comment tag - Comment Only_1-304015-J2
 10
1691.515559418435
 20
1202.189472541185
 30
0.0
 41
2.0
 42
2.0
 43
2.0
1001
REVIT
1002
{
1070
     1
1000
314900
1002
}
1002
{
1070
     5
1000
304015
1002
}
1002
{
1070
     2
1000
-2005028
1002
}
  0
MTEXT
  5
293
330
77
100
AcDbEntity
  8
CS-Text
100
AcDbMText
 10
1693.995719843944
 20
1204.298389001481
 30
0.0
 40
3.934131736526946
 41
88.8
 46
0.0
 71
     1
 72
     1
  1
\fArial|b0|i0|c0|p34|;VENTCLAD CAVITY SYSTEM
 73
     2
 44
0.9385317878468563
 90
        3
 63
     7
 45
1.25
441
        0
1001
REVIT
1002
{
1070
     1
1000
314900
1002
}
1002
{
1070
     5
1000
304015
1002
}
1002
{
1070
     2
1000
-2000059
1002
}
1002
{
1070
     3
1000
303815
1002
}
  0
CIRCLE
  5
294
330
77
100
AcDbEntity
  8
CS-Text
100
AcDbCircle
 10
1510.131306960621
 20
1134.226262045382
 30
0.0
 40
1.0
1001
REVIT
1002
{
1070
     1
1000
316836
1002
}
1002
{
1070
     5
1000
304015
1002
}
1002
{
1070
     2
1000
-2005028
1002
}
  0
HATCH
  5
295
330
77
100
AcDbEntity
  8
CS-Text
100
AcDbHatch
 10
0.0
 20
0.0
 30
0.0
210
0.0
220
0.0
230
1.0
  2
SOLID
 70
     1
 71
     0
 91
        1
 92
        0
 93
        1
 72
     2
 10
1510.131306960621
 20
1134.226262045382
 40
1.0
 50
0.0
 51
360.0
 73
     1
 97
        0
 75
     0
 76
     1
 98
        1
 10
0.0
 20
0.0
1001
REVIT
1002
{
1070
     1
1000
316836
1002
}
1002
{
1070
     5
1000
304015
1002
}
1002
{
1070
     2
1000
-2005028
1002
}
  0
LINE
  5
296
330
77
100
AcDbEntity
  8
CS-Text
100
AcDbLine
 10
1510.131306960621
 20
1244.65007655807
 30
0.0
 11
1691.515559418435
 21
1244.65007655807
 31
0.0
1001
REVIT
1002
{
1070
     1
1000
316836
1002
}
1002
{
1070
     5
1000
304015
1002
}
1002
{
1070
     2
1000
-2005028
1002
}
  0
LINE
  5
297
330
77
100
AcDbEntity
  8
CS-Text
100
AcDbLine
 10
1510.131306960621
 20
1134.226262045382
 30
0.0
 11
1510.131306960621
 21
1244.65007655807
 31
0.0
1001
REVIT
1002
{
1070
     1
1000
316836
1002
}
1002
{
1070
     5
1000
304015
1002
}
1002
{
1070
     2
1000
-2005028
1002
}
  0
INSERT
  5
298
330
77
100
AcDbEntity
  8
CS-Text
100
AcDbBlockReference
  2
CS_Comment tag - Comment Only_1-304015-J2
 10
1691.515559418435
 20
1244.659907218916
 30
0.0
 41
2.0
 42
2.0
 43
2.0
1001
REVIT
1002
{
1070
     1
1000
316836
1002
}
1002
{
1070
     5
1000
304015
1002
}
1002
{
1070
     2
1000
-2005028
1002
}
  0
MTEXT
  5
299
330
77
100
AcDbEntity
  8
CS-Text
100
AcDbMText
 10
1693.995719843944
 20
1246.768823679212
 30
0.0
 40
3.934131736526946
 41
45.74400000000001
 46
0.0
 71
     1
 72
     1
  1
\fArial|b0|i0|c0|p34|;H3.1 FRAMING
 73
     2
 44
0.9385317878468563
 90
        3
 63
     7
 45
1.25
441
        0
1001
REVIT
1002
{
1070
     1
1000
316836
1002
}
1002
{
1070
     5
1000
304015
1002
}
1002
{
1070
     2
1000
-2000059
1002
}
1002
{
1070
     3
1000
303815
1002
}
  0
CIRCLE
  5
29A
330
77
100
AcDbEntity
  8
CS-Text
100
AcDbCircle
 10
1587.812205497979
 20
1027.418716584449
 30
0.0
 40
1.0
1001
REVIT
1002
{
1070
     1
1000
423012
1002
}
1002
{
1070
     5
1000
304015
1002
}
1002
{
1070
     2
1000
-2005028
1002
}
  0
HATCH
  5
29B
330
77
100
AcDbEntity
  8
CS-Text
100
AcDbHatch
 10
0.0
 20
0.0
 30
0.0
210
0.0
220
0.0
230
1.0
  2
SOLID
 70
     1
 71
     0
 91
        1
 92
        0
 93
        1
 72
     2
 10
1587.812205497979
 20
1027.418716584449
 40
1.0
 50
0.0
 51
360.0
 73
     1
 97
        0
 75
     0
 76
     1
 98
        1
 10
0.0
 20
0.0
1001
REVIT
1002
{
1070
     1
1000
423012
1002
}
1002
{
1070
     5
1000
304015
1002
}
1002
{
1070
     2
1000
-2005028
1002
}
  0
LINE
  5
29C
330
77
100
AcDbEntity
  8
CS-Text
100
AcDbLine
 10
1587.812205497979
 20
1027.418716584449
 30
0.0
 11
1691.515559418435
 21
1027.418716584449
 31
0.0
1001
REVIT
1002
{
1070
     1
1000
423012
1002
}
1002
{
1070
     5
1000
304015
1002
}
1002
{
1070
     2
1000
-2005028
1002
}
  0
INSERT
  5
29D
330
77
100
AcDbEntity
  8
CS-Text
100
AcDbBlockReference
  2
CS_Comment tag - Comment Only_1-304015-J2
 10
1691.515559418435
 20
1027.428547245295
 30
0.0
 41
2.0
 42
2.0
 43
2.0
1001
REVIT
1002
{
1070
     1
1000
423012
1002
}
1002
{
1070
     5
1000
304015
1002
}
1002
{
1070
     2
1000
-2005028
1002
}
  0
MTEXT
  5
29E
330
77
100
AcDbEntity
  8
CS-Text
100
AcDbMText
 10
1693.995719843944
 20
1029.537463705591
 30
0.0
 40
3.934131736526946
 41
68.16
 46
0.0
 71
     1
 72
     1
  1
\fArial|b0|i0|c0|p34|;BUILDING UNDERLAY
 73
     2
 44
0.9385317878468563
 90
        3
 63
     7
 45
1.25
441
        0
1001
REVIT
1002
{
1070
     1
1000
423012
1002
}
1002
{
1070
     5
1000
304015
1002
}
1002
{
1070
     2
1000
-2000059
1002
}
1002
{
1070
     3
1000
303815
1002
}
  0
CIRCLE
  5
29F
330
77
100
AcDbEntity
  8
CS-Text
100
AcDbCircle
 10
1665.931517313651
 20
1056.338662328703
 30
0.0
 40
1.000000000000227
1001
REVIT
1002
{
1070
     1
1000
462894
1002
}
1002
{
1070
     5
1000
304015
1002
}
1002
{
1070
     2
1000
-2005028
1002
}
  0
HATCH
  5
2A0
330
77
100
AcDbEntity
  8
CS-Text
100
AcDbHatch
 10
0.0
 20
0.0
 30
0.0
210
0.0
220
0.0
230
1.0
  2
SOLID
 70
     1
 71
     0
 91
        1
 92
        0
 93
        1
 72
     2
 10
1665.931517313651
 20
1056.338662328703
 40
1.000000000000227
 50
0.0
 51
360.0
 73
     1
 97
        0
 75
     0
 76
     1
 98
        1
 10
0.0
 20
0.0
1001
REVIT
1002
{
1070
     1
1000
462894
1002
}
1002
{
1070
     5
1000
304015
1002
}
1002
{
1070
     2
1000
-2005028
1002
}
  0
LINE
  5
2A1
330
77
100
AcDbEntity
  8
CS-Text
100
AcDbLine
 10
1665.931517313651
 20
1056.338662328703
 30
0.0
 11
1691.515559418435
 21
1056.338662328703
 31
0.0
1001
REVIT
1002
{
1070
     1
1000
462894
1002
}
1002
{
1070
     5
1000
304015
1002
}
1002
{
1070
     2
1000
-2005028
1002
}
  0
INSERT
  5
2A2
330
77
100
AcDbEntity
  8
CS-Text
100
AcDbBlockReference
  2
CS_Comment tag - Comment Only_1-304015-J2
 10
1691.515559418435
 20
1072.194646835703
 30
0.0
 41
2.0
 42
2.0
 43
2.0
1001
REVIT
1002
{
1070
     1
1000
462894
1002
}
1002
{
1070
     5
1000
304015
1002
}
1002
{
1070
     2
1000
-2005028
1002
}
  0
MTEXT
  5
2A3
330
77
100
AcDbEntity
  8
CS-Text
100
AcDbMText
 10
1693.995719843944
 20
1074.303563296
 30
0.0
 40
3.934131736526946
 41
104.544
 46
0.0
 71
     1
 72
     1
  1
\fArial|b0|i0|c0|p34|;SELECTED CRAFTSTONE\PVENEER OVER CRAFTSTONE\PADHESIVE MORTAR ON 9mm\PETERPAN FIXED ACCORDING TO\PVENTCLAD CONSTRUCTION\PDETAILS
 73
     2
 44
0.9385317878468563
 90
        3
 63
     7
 45
1.25
441
        0
1001
REVIT
1002
{
1070
     1
1000
462894
1002
}
1002
{
1070
     5
1000
304015
1002
}
1002
{
1070
     2
1000
-2000059
1002
}
1002
{
1070
     3
1000
303815
1002
}
  0
CIRCLE
  5
2A4
330
77
100
AcDbEntity
  8
CS-Text
100
AcDbCircle
 10
1636.305837577061
 20
1138.368938522208
 30
0.0
 40
1.000000000000227
1001
REVIT
1002
{
1070
     1
1000
564240
1002
}
1002
{
1070
     5
1000
304015
1002
}
1002
{
1070
     2
1000
-2005028
1002
}
  0
HATCH
  5
2A5
330
77
100
AcDbEntity
  8
CS-Text
100
AcDbHatch
 10
0.0
 20
0.0
 30
0.0
210
0.0
220
0.0
230
1.0
  2
SOLID
 70
     1
 71
     0
 91
        1
 92
        0
 93
        1
 72
     2
 10
1636.305837577061
 20
1138.368938522208
 40
1.000000000000227
 50
0.0
 51
360.0
 73
     1
 97
        0
 75
     0
 76
     1
 98
        1
 10
0.0
 20
0.0
1001
REVIT
1002
{
1070
     1
1000
564240
1002
}
1002
{
1070
     5
1000
304015
1002
}
1002
{
1070
     2
1000
-2005028
1002
}
  0
LINE
  5
2A6
330
77
100
AcDbEntity
  8
CS-Text
100
AcDbLine
 10
1636.305837577061
 20
1183.834852814513
 30
0.0
 11
1691.515559418435
 21
1183.834852814513
 31
0.0
1001
REVIT
1002
{
1070
     1
1000
564240
1002
}
1002
{
1070
     5
1000
304015
1002
}
1002
{
1070
     2
1000
-2005028
1002
}
  0
LINE
  5
2A7
330
77
100
AcDbEntity
  8
CS-Text
100
AcDbLine
 10
1636.305837577061
 20
1138.368938522208
 30
0.0
 11
1636.305837577061
 21
1183.834852814513
 31
0.0
1001
REVIT
1002
{
1070
     1
1000
564240
1002
}
1002
{
1070
     5
1000
304015
1002
}
1002
{
1070
     2
1000
-2005028
1002
}
  0
INSERT
  5
2A8
330
77
100
AcDbEntity
  8
CS-Text
100
AcDbBlockReference
  2
CS_Comment tag - Comment Only_1-304015-J2
 10
1691.515559418435
 20
1190.18314501382
 30
0.0
 41
2.0
 42
2.0
 43
2.0
1001
REVIT
1002
{
1070
     1
1000
564240
1002
}
1002
{
1070
     5
1000
304015
1002
}
1002
{
1070
     2
1000
-2005028
1002
}
  0
MTEXT
  5
2A9
330
77
100
AcDbEntity
  8
CS-Text
100
AcDbMText
 10
1693.995719843944
 20
1192.292061474117
 30
0.0
 40
3.934131736526946
 41
88.99199999999999
 46
0.0
 71
     1
 72
     1
  1
\fArial|b0|i0|c0|p34|;BUILDING UNDERLAY\PSEPARATING CAPPING AND\PTREATED TIMBER
 73
     2
 44
0.9385317878468563
 90
        3
 63
     7
 45
1.25
441
        0
1001
REVIT
1002
{
1070
     1
1000
564240
1002
}
1002
{
1070
     5
1000
304015
1002
}
1002
{
1070
     2
1000
-2000059
1002
}
1002
{
1070
     3
1000
303815
1002
}
  0
DIMENSION
  5
2BA
330
77
100
AcDbEntity
  8
CS-Dims
370
     9
100
AcDbDimension
  2
DIMBLOCK1-J2
 10
1699.460923278494
 20
1139.479263343074
 30
0.0
 11
1697.260923278493
 21
1114.207201661085
 31
0.0
 70
    32
 71
     5
 42
50.54412336397809
 73
     0
 74
     0
 75
     0
  3
CS_Std_Dimension
100
AcDbAlignedDimension
 13
1693.900961191292
 23
1088.935139979096
 33
0.0
 14
1672.687757755695
 24
1139.479263343074
 34
0.0
 50
89.99999999999991
100
AcDbRotatedDimension
1001
REVIT
1002
{
1070
     1
1000
565171
1002
}
1002
{
1070
     5
1000
10363
1002
}
  0
CIRCLE
  5
2C9
330
77
100
AcDbEntity
  8
CS-Text
100
AcDbCircle
 10
1584.117410867503
 20
1147.832971176047
 30
0.0
 40
1.000000000000227
1001
REVIT
1002
{
1070
     1
1000
565195
1002
}
1002
{
1070
     5
1000
304015
1002
}
1002
{
1070
     2
1000
-2005028
1002
}
  0
HATCH
  5
2CA
330
77
100
AcDbEntity
  8
CS-Text
100
AcDbHatch
 10
0.0
 20
0.0
 30
0.0
210
0.0
220
0.0
230
1.0
  2
SOLID
 70
     1
 71
     0
 91
        1
 92
        0
 93
        1
 72
     2
 10
1584.117410867503
 20
1147.832971176047
 40
1.000000000000227
 50
0.0
 51
360.0
 73
     1
 97
        0
 75
     0
 76
     1
 98
        1
 10
0.0
 20
0.0
1001
REVIT
1002
{
1070
     1
1000
565195
1002
}
1002
{
1070
     5
1000
304015
1002
}
1002
{
1070
     2
1000
-2005028
1002
}
  0
LINE
  5
2CB
330
77
100
AcDbEntity
  8
CS-Text
100
AcDbLine
 10
1584.117410867503
 20
1221.095408039693
 30
0.0
 11
1691.515559418435
 21
1221.095408039693
 31
0.0
1001
REVIT
1002
{
1070
     1
1000
565195
1002
}
1002
{
1070
     5
1000
304015
1002
}
1002
{
1070
     2
1000
-2005028
1002
}
  0
LINE
  5
2CC
330
77
100
AcDbEntity
  8
CS-Text
100
AcDbLine
 10
1584.117410867503
 20
1147.832971176047
 30
0.0
 11
1584.117410867503
 21
1221.095408039693
 31
0.0
1001
REVIT
1002
{
1070
     1
1000
565195
1002
}
1002
{
1070
     5
1000
304015
1002
}
1002
{
1070
     2
1000
-2005028
1002
}
  0
INSERT
  5
2CD
330
77
100
AcDbEntity
  8
CS-Text
100
AcDbBlockReference
  2
CS_Comment tag - Comment Only_1-304015-J2
 10
1691.515559418435
 20
1227.443700239001
 30
0.0
 41
2.0
 42
2.0
 43
2.0
1001
REVIT
1002
{
1070
     1
1000
565195
1002
}
1002
{
1070
     5
1000
304015
1002
}
1002
{
1070
     2
1000
-2005028
1002
}
  0
MTEXT
  5
2CE
330
77
100
AcDbEntity
  8
CS-Text
100
AcDbMText
 10
1693.995719843944
 20
1229.552616699297
 30
0.0
 40
3.934131736526946
 41
102.864
 46
0.0
 71
     1
 72
     1
  1
\fArial|b0|i0|c0|p34|;FLUE PENETRATION OR\PCHIMNEY CAP AS PER\PFIREPLACE INSTALLERS DETAIL
 73
     2
 44
0.9385317878468563
 90
        3
 63
     7
 45
1.25
441
        0
1001
REVIT
1002
{
1070
     1
1000
565195
1002
}
1002
{
1070
     5
1000
304015
1002
}
1002
{
1070
     2
1000
-2000059
1002
}
1002
{
1070
     3
1000
303815
1002
}
  0
CIRCLE
  5
2CF
330
77
100
AcDbEntity
  8
CS-Text
100
AcDbCircle
 10
1658.149648636633
 20
1134.226262045382
 30
0.0
 40
1.0
1001
REVIT
1002
{
1070
     1
1000
614945
1002
}
1002
{
1070
     5
1000
304015
1002
}
1002
{
1070
     2
1000
-2005028
1002
}
  0
HATCH
  5
2D0
330
77
100
AcDbEntity
  8
CS-Text
100
AcDbHatch
 10
0.0
 20
0.0
 30
0.0
210
0.0
220
0.0
230
1.0
  2
SOLID
 70
     1
 71
     0
 91
        1
 92
        0
 93
        1
 72
     2
 10
1658.149648636633
 20
1134.226262045382
 40
1.0
 50
0.0
 51
360.0
 73
     1
 97
        0
 75
     0
 76
     1
 98
        1
 10
0.0
 20
0.0
1001
REVIT
1002
{
1070
     1
1000
614945
1002
}
1002
{
1070
     5
1000
304015
1002
}
1002
{
1070
     2
1000
-2005028
1002
}
  0
LINE
  5
2D1
330
77
100
AcDbEntity
  8
CS-Text
100
AcDbLine
 10
1658.149648636633
 20
1158.222647289561
 30
0.0
 11
1691.515559418435
 21
1158.222647289561
 31
0.0
1001
REVIT
1002
{
1070
     1
1000
614945
1002
}
1002
{
1070
     5
1000
304015
1002
}
1002
{
1070
     2
1000
-2005028
1002
}
  0
LINE
  5
2D2
330
77
100
AcDbEntity
  8
CS-Text
100
AcDbLine
 10
1658.149648636633
 20
1134.226262045382
 30
0.0
 11
1658.149648636633
 21
1158.222647289561
 31
0.0
1001
REVIT
1002
{
1070
     1
1000
614945
1002
}
1002
{
1070
     5
1000
304015
1002
}
1002
{
1070
     2
1000
-2005028
1002
}
  0
INSERT
  5
2D3
330
77
100
AcDbEntity
  8
CS-Text
100
AcDbBlockReference
  2
CS_Comment tag - Comment Only_1-304015-J2
 10
1691.515559418435
 20
1167.740170258099
 30
0.0
 41
2.0
 42
2.0
 43
2.0
1001
REVIT
1002
{
1070
     1
1000
614945
1002
}
1002
{
1070
     5
1000
304015
1002
}
1002
{
1070
     2
1000
-2005028
1002
}
  0
MTEXT
  5
2D4
330
77
100
AcDbEntity
  8
CS-Text
100
AcDbMText
 10
1693.995719843944
 20
1169.849086718395
 30
0.0
 40
3.934131736526946
 41
105.312
 46
0.0
 71
     1
 72
     1
  1
\fArial|b0|i0|c0|p34|;H3.1 TREATED CONTINUOUS\PTIMBER PACKER TO SUIT STONE\PTHICKNESS AND CAPPING\POVER-LAP
 73
     2
 44
0.9385317878468563
 90
        3
 63
     7
 45
1.25
441
        0
1001
REVIT
1002
{
1070
     1
1000
614945
1002
}
1002
{
1070
     5
1000
304015
1002
}
1002
{
1070
     2
1000
-2000059
1002
}
1002
{
1070
     3
1000
303815
1002
}
  0
INSERT
  5
3DA
330
73
100
AcDbEntity
 67
     1
  8
0
370
     9
100
AcDbBlockReference
  2
CS_T Block _landscape_ - CS_T Block _landscape__0-539294-CHIMNEY CAP DETAIL
 10
0.0
 20
0.0
 30
0.0
1001
REVIT
1002
{
1070
     1
1000
287458
1002
}
1002
{
1070
     5
1000
287436
1002
}
1002
{
1070
     2
1000
-2000280
1002
}
  0
MTEXT
  5
3DB
330
73
100
AcDbEntity
 67
     1
  8
0
370
     9
100
AcDbMText
 10
-32.79605049263046
 20
17.29886810217424
 30
0.0
 40
1.967065868263473
 41
16.44
 46
0.0
 71
     1
 72
     1
  1
\fArial|b0|i0|c0|p34|; 1 : 2 @ A4
 73
     2
 44
0.9385317878468563
1001
REVIT
1002
{
1070
     1
1000
287458
1002
}
1002
{
1070
     5
1000
287436
1002
}
1002
{
1070
     2
1000
-2000059
1002
}
1002
{
1070
     3
1000
538969
1002
}
  0
MTEXT
  5
3DC
330
73
100
AcDbEntity
 67
     1
  8
0
370
     9
100
AcDbMText
 10
-15.10821263317598
 20
17.29886810217424
 30
0.0
 40
1.967065868263473
 41
12.768
 46
0.0
 71
     1
 72
     1
  1
\fArial|b0|i0|c0|p34|;08/12/11
 73
     2
 44
0.9385317878468563
1001
REVIT
1002
{
1070
     1
1000
287458
1002
}
1002
{
1070
     5
1000
287436
1002
}
1002
{
1070
     2
1000
-2000059
1002
}
1002
{
1070
     3
1000
538969
1002
}
  0
MTEXT
  5
3DD
330
73
100
AcDbEntity
 67
     1
  8
0
370
     9
100
AcDbMText
 10
-48.31664714756881
 20
18.03695591206359
 30
0.0
 40
3.044268605645851
 41
5.472
 46
0.0
 71
     1
 72
     1
  1
\fArial|b1|i0|c0|p34|;J2
 73
     2
 44
0.9385317878468564
1001
REVIT
1002
{
1070
     1
1000
287458
1002
}
1002
{
1070
     5
1000
287436
1002
}
1002
{
1070
     2
1000
-2000059
1002
}
1002
{
1070
     3
1000
538962
1002
}
  0
MTEXT
  5
3DE
330
73
100
AcDbEntity
 67
     1
  8
0
370
     9
100
AcDbMText
 10
-48.31664714756881
 20
24.22495930556796
 30
0.0
 40
3.044268605645851
 41
53.45999999999999
 46
0.0
 71
     1
 72
     1
  1
\fArial|b1|i0|c0|p34|;CHIMNEY CAP DETAIL
 73
     2
 44
0.9385317878468564
1001
REVIT
1002
{
1070
     1
1000
287458
1002
}
1002
{
1070
     5
1000
287436
1002
}
1002
{
1070
     2
1000
-2000059
1002
}
1002
{
1070
     3
1000
538962
1002
}
  0
VIEWPORT
  5
3E0
102
{ACAD_XDICTIONARY
360
4E4
102
}
330
73
100
AcDbEntity
 67
     1
  8
A-ANNO-NPLT
100
AcDbViewport
 10
51.82425252079221
 20
121.3361959112806
 30
0.0
 40
167.6889147547251
 41
112.5554180755789
 68
     2
 69
     2
 12
1614.066805089219
 22
1135.263889251722
 13
0.0
 23
0.0
 14
10.0
 24
10.0
 15
0.0
 25
0.0
 16
0.0
 26
0.0
 36
1.0
 17
0.0
 27
0.0
 37
0.0
 42
0.0
 43
0.0
 44
0.0
 45
225.1108361511579
 50
0.0
 51
0.0
 72
   100
 90
    49152
  1

281
     0
 71
     1
 74
     1
110
0.0
120
0.0
130
0.0
111
1.0
121
0.0
131
0.0
112
0.0
122
1.0
132
0.0
 79
     0
146
0.0
170
     0
 61
     5
292
     1
282
     1
141
0.0
142
0.0
 63
   256
  0
VIEWPORT
  5
3E2
102
{ACAD_XDICTIONARY
360
4E6
102
}
330
73
100
AcDbEntity
 67
     1
  8
0
100
AcDbViewport
 10
62.55476716795511
 20
92.40111862978358
 30
0.0
 40
365.5083050259398
 41
171.7343498838296
 68
     1
 69
     1
 12
62.55476716795511
 22
92.40111862978358
 13
0.0
 23
0.0
 14
10.0
 24
10.0
 15
0.0
 25
0.0
 16
0.0
 26
0.0
 36
1.0
 17
0.0
 27
0.0
 37
0.0
 42
50.0
 43
0.0
 44
0.0
 45
171.7343498838296
 50
0.0
 51
0.0
 72
   100
 90
    32800
  1

281
     0
 71
     1
 74
     1
110
0.0
120
0.0
130
0.0
111
1.0
121
0.0
131
0.0
112
0.0
122
1.0
132
0.0
 79
     0
146
0.0
170
     0
 61
     5
292
     1
282
     1
141
0.0
142
0.0
 63
   256
  0
ENDSEC
  0
SECTION
  2
OBJECTS
  0
DICTIONARY
  5
C
330
0
100
AcDbDictionary
281
     1
  3
ACAD_CIP_PREVIOUS_PRODUCT_INFO
350
42E
  3
ACAD_COLOR
350
6E
  3
ACAD_GROUP
350
D
  3
ACAD_LAYOUT
350
6D
  3
ACAD_MATERIAL
350
10
  3
ACAD_MLEADERSTYLE
350
71
  3
ACAD_MLINESTYLE
350
6A
  3
ACAD_PLOTSETTINGS
350
6C
  3
ACAD_PLOTSTYLENAME
350
E
  3
ACAD_SCALELIST
350
3D
  3
ACAD_TABLESTYLE
350
6F
  3
ACAD_VISUALSTYLE
350
29
  3
ACDB_RECOMPOSE_DATA
350
4B5
  3
AcDbVariableDictionary
350
419
  3
REVIT_DICTIONARY
350
3E6
  0
DICTIONARY
  5
43E
330
2
100
AcDbDictionary
280
     1
281
     1
  3
ACAD_LAYERSTATES
360
43F
  0
DICTIONARY
  5
3EA
330
77
100
AcDbDictionary
280
     1
281
     1
  3
ACAD_SORTENTS
360
3EB
  0
DICTIONARY
  5
4E2
330
289
100
AcDbDictionary
280
     1
281
     1
  3
ACAD_MTEXT_2008_RT
360
4E3
  0
DICTIONARY
  5
4E4
330
3E0
100
AcDbDictionary
280
     1
281
     1
  3
ACAD_XREC_ROUNDTRIP
360
4E5
  0
DICTIONARY
  5
4E6
330
3E2
100
AcDbDictionary
280
     1
281
     1
  3
ACAD_XREC_ROUNDTRIP
360
4E7
  0
XRECORD
  5
42E
102
{ACAD_REACTORS
330
C
102
}
330
C
100
AcDbXrecord
280
     1
300
ACD
300
2012
300
REVITS_F_S
  0
DICTIONARY
  5
6E
102
{ACAD_REACTORS
330
C
102
}
330
C
100
AcDbDictionary
281
     1
  0
DICTIONARY
  5
D
102
{ACAD_REACTORS
330
C
102
}
330
C
100
AcDbDictionary
281
     1
  0
DICTIONARY
  5
6D
102
{ACAD_REACTORS
330
C
102
}
330
C
100
AcDbDictionary
281
     1
  3
Layout1
350
76
  3
Model
350
7A
  0
DICTIONARY
  5
10
102
{ACAD_REACTORS
330
C
102
}
330
C
100
AcDbDictionary
281
     1
  3
ByBlock
350
19
  3
ByLayer
350
11
  3
Global
350
21
  0
DICTIONARY
  5
71
102
{ACAD_REACTORS
330
C
102
}
330
C
100
AcDbDictionary
281
     1
  3
Standard
350
72
  0
DICTIONARY
  5
6A
102
{ACAD_REACTORS
330
C
102
}
330
C
100
AcDbDictionary
281
     1
  3
Standard
350
6B
  0
DICTIONARY
  5
6C
102
{ACAD_REACTORS
330
C
102
}
330
C
100
AcDbDictionary
281
     1
  0
ACDBDICTIONARYWDFLT
  5
E
102
{ACAD_REACTORS
330
C
102
}
330
C
100
AcDbDictionary
281
     1
  3
Normal
350
F
100
AcDbDictionaryWithDefault
340
F
  0
DICTIONARY
  5
3D
102
{ACAD_REACTORS
330
C
102
}
330
C
100
AcDbDictionary
281
     1
  3
A0
350
3E
  3
A1
350
3F
  3
A2
350
40
  3
A3
350
41
  3
A4
350
42
  3
A5
350
43
  3
A6
350
44
  3
A7
350
45
  3
A8
350
46
  3
A9
350
47
  3
B0
350
48
  3
B1
350
49
  3
B2
350
4A
  3
B3
350
4B
  3
B4
350
4C
  3
B5
350
4D
  3
B6
350
4E
  3
B7
350
4F
  3
B8
350
50
  3
B9
350
51
  3
C0
350
52
  3
C1
350
53
  3
C2
350
54
  3
C3
350
55
  3
C4
350
56
  3
C5
350
57
  3
C6
350
58
  3
C7
350
59
  3
C8
350
5A
  3
C9
350
5B
  3
D0
350
5C
  3
D1
350
5D
  3
D2
350
5E
  0
DICTIONARY
  5
6F
102
{ACAD_REACTORS
330
C
102
}
330
C
100
AcDbDictionary
281
     1
  3
Standard
350
70
  0
DICTIONARY
  5
29
102
{ACAD_REACTORS
330
C
102
}
330
C
100
AcDbDictionary
281
     1
  3
2dWireframe
350
2F
  3
3D Hidden
350
31
  3
3dWireframe
350
30
  3
Basic
350
2E
  3
Brighten
350
35
  3
ColorChange
350
39
  3
Conceptual
350
32
  3
Dim
350
34
  3
EdgeColorOff
350
3C
  3
Facepattern
350
38
  3
Flat
350
2A
  3
FlatWithEdges
350
2B
  3
Gouraud
350
2C
  3
GouraudWithEdges
350
2D
  3
Hidden
350
420
  3
JitterOff
350
3A
  3
Linepattern
350
37
  3
OverhangOff
350
3B
  3
Realistic
350
33
  3
Shaded
350
425
  3
Shaded with edges
350
424
  3
Shades of Gray
350
421
  3
Sketchy
350
422
  3
Thicken
350
36
  3
Wireframe
350
41F
  3
X-Ray
350
423
  0
XRECORD
  5
4B5
102
{ACAD_REACTORS
330
C
102
}
330
C
100
AcDbXrecord
280
     1
 90
        1
330
70
  0
DICTIONARY
  5
419
102
{ACAD_REACTORS
330
C
102
}
330
C
100
AcDbDictionary
281
     1
  3
CANNOSCALE
350
41C
  3
CMLEADERSTYLE
350
41B
  3
CTABLESTYLE
350
41A
  3
LAYEREVAL
350
4F8
  3
LAYERNOTIFY
350
4F9
  3
LIGHTINGUNITS
350
4F7
  3
MSLTSCALE
350
4F6
  3
SOLIDHIST
350
4FA
  3
XCLIPFRAME
350
4FB
  0
DICTIONARY
  5
3E6
102
{ACAD_REACTORS
330
C
102
}
330
C
100
AcDbDictionary
281
     1
  3
REVIT_CATEGORY_MAPPING
350
3E8
  3
REVIT_SUB_CATEGORY_MAPPING
350
3E9
  3
REVIT_TYPE_MAPPING
350
3E7
  0
DICTIONARY
  5
43F
102
{ACAD_REACTORS
330
43E
102
}
330
43E
100
AcDbDictionary
281
     1
  0
SORTENTSTABLE
  5
3EB
102
{ACAD_REACTORS
330
3EA
102
}
330
3EA
100
AcDbSortentsTable
330
77
  0
XRECORD
  5
4E3
102
{ACAD_REACTORS
330
4E2
102
}
330
4E2
100
AcDbXrecord
280
     1
 40
59400.0
  1
\fSwis721 Lt BT|b0|i0|c0|p34|;5.0°
  0
XRECORD
  5
4E5
102
{ACAD_REACTORS
330
4E4
102
}
330
4E4
100
AcDbXrecord
280
     1
102
VISUALSTYLE
340
2F
102
GRIDDISPLAY
 70
     0
102
GRIDMAJOR
 70
     5
102
DEFAULTLIGHTING
280
     1
102
DEFAULTLIGHTINGTYPE
 70
     1
102
BRIGHTNESS
141
0.0
102
CONTRAST
142
0.0
  0
XRECORD
  5
4E7
102
{ACAD_REACTORS
330
4E6
102
}
330
4E6
100
AcDbXrecord
280
     1
102
VISUALSTYLE
340
2F
102
GRIDDISPLAY
 70
     0
102
GRIDMAJOR
 70
     5
102
DEFAULTLIGHTING
280
     1
102
DEFAULTLIGHTINGTYPE
 70
     1
102
BRIGHTNESS
141
0.0
102
CONTRAST
142
0.0
  0
LAYOUT
  5
76
102
{ACAD_REACTORS
330
6D
102
}
102
{ACAD_XDICTIONARY
360
443
102
}
330
6D
100
AcDbPlotSettings
  1

  2
\\Server\OKI C830(PCL)
  4
A4
  6

 40
5.027082920074463
 41
5.027099609375
 42
5.027069091796875
 43
5.027069091796875
 44
209.9733276367188
 45
296.9259948730469
 46
0.0
 47
0.0
 48
0.0
 49
0.0
140
0.0
141
0.0
142
1.0
143
0.9036175337416614
 70
   688
 72
     1
 73
     1
 74
     1
  7

 75
     0
 76
     0
 77
     2
 78
   300
147
1.106662899577924
148
67.04621815733424
149
-7.17132618088641
100
AcDbLayout
  1
Layout1
 70
     1
 71
     1
 10
-71.58876593201266
 20
2.628765910733894
 11
196.7187692589591
 21
192.3643463813555
 12
0.0
 22
0.0
 32
0.0
 14
-67.05256002566864
 24
7.182814027480219
 34
-0.0000000000112498
 15
192.1620943615789
 25
177.6194232320869
 35
0.0000000000002956
146
0.0
 13
0.0
 23
0.0
 33
0.0
 16
1.0
 26
0.0
 36
0.0
 17
0.0
 27
1.0
 37
0.0
 76
     0
330
73
331
3E2
1001
ACAD_PSEXT
1000
\\Server\OKI C830(PCL)
1000
OKI C830(PCL)
1000
\\Server
1000

1070
     0
  0
LAYOUT
  5
7A
102
{ACAD_REACTORS
330
6D
102
}
102
{ACAD_XDICTIONARY
360
44C
102
}
330
6D
100
AcDbPlotSettings
  1

  2

  4

  6

 40
0.0
 41
0.0
 42
0.0
 43
0.0
 44
0.0
 45
0.0
 46
0.0
 47
0.0
 48
0.0
 49
0.0
140
0.0
141
0.0
142
1.0
143
1.0
 70
  1712
 72
     0
 73
     0
 74
     0
  7

 75
     0
 76
     0
 77
     2
 78
   300
147
1.0
148
0.0
149
0.0
100
AcDbLayout
  1
Model
 70
     1
 71
     0
 10
0.0
 20
0.0
 11
12.0
 21
9.0
 12
0.0
 22
0.0
 32
0.0
 14
0.0
 24
0.0
 34
0.0
 15
0.0
 25
0.0
 35
0.0
146
0.0
 13
0.0
 23
0.0
 33
0.0
 16
1.0
 26
0.0
 36
0.0
 17
0.0
 27
1.0
 37
0.0
 76
     0
330
77
331
62
  0
MATERIAL
  5
19
102
{ACAD_REACTORS
330
10
102
}
102
{ACAD_XDICTIONARY
360
1A
102
}
330
10
100
AcDbMaterial
  1
ByBlock
 72
     0
 73
     2
 43
0.0208333333333333
 43
0.0
 43
0.0
 43
0.0
 43
0.0
 43
0.0208333333333333
 43
0.0
 43
0.0
 43
0.0
 43
0.0
 43
1.0
 43
0.0
 43
0.0
 43
0.0
 43
0.0
 43
1.0
 77
     0
 78
     2
 47
0.0208333333333333
 47
0.0
 47
0.0
 47
0.0
 47
0.0
 47
0.0208333333333333
 47
0.0
 47
0.0
 47
0.0
 47
0.0
 47
1.0
 47
0.0
 47
0.0
 47
0.0
 47
0.0
 47
1.0
171
     0
172
     2
 49
0.0208333333333333
 49
0.0
 49
0.0
 49
0.0
 49
0.0
 49
0.0208333333333333
 49
0.0
 49
0.0
 49
0.0
 49
0.0
 49
1.0
 49
0.0
 49
0.0
 49
0.0
 49
0.0
 49
1.0
175
     0
176
     2
142
0.0208333333333333
142
0.0
142
0.0
142
0.0
142
0.0
142
0.0208333333333333
142
0.0
142
0.0
142
0.0
142
0.0
142
1.0
142
0.0
142
0.0
142
0.0
142
0.0
142
1.0
179
     0
270
     2
144
0.0208333333333333
144
0.0
144
0.0
144
0.0
144
0.0
144
0.0208333333333333
144
0.0
144
0.0
144
0.0
144
0.0
144
1.0
144
0.0
144
0.0
144
0.0
144
0.0
144
1.0
274
     2
147
0.0208333333333333
147
0.0
147
0.0
147
0.0
147
0.0
147
0.0208333333333333
147
0.0
147
0.0
147
0.0
147
0.0
147
1.0
147
0.0
147
0.0
147
0.0
147
0.0
147
1.0
 94
      127
  0
MATERIAL
  5
11
102
{ACAD_REACTORS
330
10
102
}
102
{ACAD_XDICTIONARY
360
12
102
}
330
10
100
AcDbMaterial
  1
ByLayer
 72
     0
 73
     2
 43
0.0208333333333333
 43
0.0
 43
0.0
 43
0.0
 43
0.0
 43
0.0208333333333333
 43
0.0
 43
0.0
 43
0.0
 43
0.0
 43
1.0
 43
0.0
 43
0.0
 43
0.0
 43
0.0
 43
1.0
 77
     0
 78
     2
 47
0.0208333333333333
 47
0.0
 47
0.0
 47
0.0
 47
0.0
 47
0.0208333333333333
 47
0.0
 47
0.0
 47
0.0
 47
0.0
 47
1.0
 47
0.0
 47
0.0
 47
0.0
 47
0.0
 47
1.0
171
     0
172
     2
 49
0.0208333333333333
 49
0.0
 49
0.0
 49
0.0
 49
0.0
 49
0.0208333333333333
 49
0.0
 49
0.0
 49
0.0
 49
0.0
 49
1.0
 49
0.0
 49
0.0
 49
0.0
 49
0.0
 49
1.0
175
     0
176
     2
142
0.0208333333333333
142
0.0
142
0.0
142
0.0
142
0.0
142
0.0208333333333333
142
0.0
142
0.0
142
0.0
142
0.0
142
1.0
142
0.0
142
0.0
142
0.0
142
0.0
142
1.0
179
     0
270
     2
144
0.0208333333333333
144
0.0
144
0.0
144
0.0
144
0.0
144
0.0208333333333333
144
0.0
144
0.0
144
0.0
144
0.0
144
1.0
144
0.0
144
0.0
144
0.0
144
0.0
144
1.0
274
     2
147
0.0208333333333333
147
0.0
147
0.0
147
0.0
147
0.0
147
0.0208333333333333
147
0.0
147
0.0
147
0.0
147
0.0
147
1.0
147
0.0
147
0.0
147
0.0
147
0.0
147
1.0
 94
      127
  0
MATERIAL
  5
21
102
{ACAD_REACTORS
330
10
102
}
102
{ACAD_XDICTIONARY
360
22
102
}
330
10
100
AcDbMaterial
  1
Global
 72
     0
 73
     2
 43
0.0208333333333333
 43
0.0
 43
0.0
 43
0.0
 43
0.0
 43
0.0208333333333333
 43
0.0
 43
0.0
 43
0.0
 43
0.0
 43
1.0
 43
0.0
 43
0.0
 43
0.0
 43
0.0
 43
1.0
 77
     0
 78
     2
 47
0.0208333333333333
 47
0.0
 47
0.0
 47
0.0
 47
0.0
 47
0.0208333333333333
 47
0.0
 47
0.0
 47
0.0
 47
0.0
 47
1.0
 47
0.0
 47
0.0
 47
0.0
 47
0.0
 47
1.0
171
     0
172
     2
 49
0.0208333333333333
 49
0.0
 49
0.0
 49
0.0
 49
0.0
 49
0.0208333333333333
 49
0.0
 49
0.0
 49
0.0
 49
0.0
 49
1.0
 49
0.0
 49
0.0
 49
0.0
 49
0.0
 49
1.0
175
     0
176
     2
142
0.0208333333333333
142
0.0
142
0.0
142
0.0
142
0.0
142
0.0208333333333333
142
0.0
142
0.0
142
0.0
142
0.0
142
1.0
142
0.0
142
0.0
142
0.0
142
0.0
142
1.0
179
     0
270
     2
144
0.0208333333333333
144
0.0
144
0.0
144
0.0
144
0.0
144
0.0208333333333333
144
0.0
144
0.0
144
0.0
144
0.0
144
1.0
144
0.0
144
0.0
144
0.0
144
0.0
144
1.0
274
     2
147
0.0208333333333333
147
0.0
147
0.0
147
0.0
147
0.0
147
0.0208333333333333
147
0.0
147
0.0
147
0.0
147
0.0
147
1.0
147
0.0
147
0.0
147
0.0
147
0.0
147
1.0
 94
      127
  0
ACAD_PROXY_OBJECT
  5
72
102
{ACAD_REACTORS
330
71
102
}
330
71
100
AcDbProxyObject
 90
      499
 91
      505
 95
  6815769
 70
     0
 93
      744
310
40901902A40600000030400FEFFFFFF815AF46E07A156E7F02B5E8DC0F42B5CFD095374616E646172640002B5E8DC0F42B1CFE405064068000000C10002B5E8DC0F42B1CFC02B5E8DC0F42B1CFE000000304015D90000000000000C03F
340
66
340
0
340
60
340
0
 94
        0
1001
ACAD_MLEADERVER
1070
     2
  0
MLINESTYLE
  5
6B
102
{ACAD_REACTORS
330
6A
102
}
330
6A
100
AcDbMlineStyle
  2
STANDARD
 70
     0
  3

 62
   256
 51
90.0
 52
90.0
 71
     2
 49
0.5
 62
   256
  6
BYLAYER
 49
-0.5
 62
   256
  6
BYLAYER
  0
ACDBPLACEHOLDER
  5
F
102
{ACAD_REACTORS
330
E
102
}
330
E
  0
ACAD_PROXY_OBJECT
  5
3E
102
{ACAD_REACTORS
330
3D
102
}
330
3D
100
AcDbProxyObject
 90
      499
 91
      503
 95
  6815769
 70
     0
 93
       49
310
904313A3100580
  0
ACAD_PROXY_OBJECT
  5
3F
102
{ACAD_REACTORS
330
3D
102
}
330
3D
100
AcDbProxyObject
 90
      499
 91
      503
 95
  6815769
 70
     0
 93
      113
310
904313A32004000000000000004000
  0
ACAD_PROXY_OBJECT
  5
40
102
{ACAD_REACTORS
330
3D
102
}
330
3D
100
AcDbProxyObject
 90
      499
 91
      503
 95
  6815769
 70
     0
 93
      113
310
904313A34004000000000000104000
  0
ACAD_PROXY_OBJECT
  5
41
102
{ACAD_REACTORS
330
3D
102
}
330
3D
100
AcDbProxyObject
 90
      499
 91
      503
 95
  6815769
 70
     0
 93
      113
310
904313A35004000000000000144000
  0
ACAD_PROXY_OBJECT
  5
42
102
{ACAD_REACTORS
330
3D
102
}
330
3D
100
AcDbProxyObject
 90
      499
 91
      503
 95
  6815769
 70
     0
 93
      113
310
904313A38004000000000000204000
  0
ACAD_PROXY_OBJECT
  5
43
102
{ACAD_REACTORS
330
3D
102
}
330
3D
100
AcDbProxyObject
 90
      499
 91
      503
 95
  6815769
 70
     0
 93
      121
310
905313A3130004000000000000244000
  0
ACAD_PROXY_OBJECT
  5
44
102
{ACAD_REACTORS
330
3D
102
}
330
3D
100
AcDbProxyObject
 90
      499
 91
      503
 95
  6815769
 70
     0
 93
      121
310
905313A3136004000000000000304000
  0
ACAD_PROXY_OBJECT
  5
45
102
{ACAD_REACTORS
330
3D
102
}
330
3D
100
AcDbProxyObject
 90
      499
 91
      503
 95
  6815769
 70
     0
 93
      121
310
905313A3230004000000000000344000
  0
ACAD_PROXY_OBJECT
  5
46
102
{ACAD_REACTORS
330
3D
102
}
330
3D
100
AcDbProxyObject
 90
      499
 91
      503
 95
  6815769
 70
     0
 93
      121
310
905313A33300040000000000003E4000
  0
ACAD_PROXY_OBJECT
  5
47
102
{ACAD_REACTORS
330
3D
102
}
330
3D
100
AcDbProxyObject
 90
      499
 91
      503
 95
  6815769
 70
     0
 93
      121
310
905313A3430004000000000000444000
  0
ACAD_PROXY_OBJECT
  5
48
102
{ACAD_REACTORS
330
3D
102
}
330
3D
100
AcDbProxyObject
 90
      499
 91
      503
 95
  6815769
 70
     0
 93
      121
310
905313A3530004000000000000494000
  0
ACAD_PROXY_OBJECT
  5
49
102
{ACAD_REACTORS
330
3D
102
}
330
3D
100
AcDbProxyObject
 90
      499
 91
      503
 95
  6815769
 70
     0
 93
      129
310
906313A313030004000000000000594000
  0
ACAD_PROXY_OBJECT
  5
4A
102
{ACAD_REACTORS
330
3D
102
}
330
3D
100
AcDbProxyObject
 90
      499
 91
      503
 95
  6815769
 70
     0
 93
      113
310
904323A31000000000000000010100
  0
ACAD_PROXY_OBJECT
  5
4B
102
{ACAD_REACTORS
330
3D
102
}
330
3D
100
AcDbProxyObject
 90
      499
 91
      503
 95
  6815769
 70
     0
 93
      113
310
904343A31000000000000000410100
  0
ACAD_PROXY_OBJECT
  5
4C
102
{ACAD_REACTORS
330
3D
102
}
330
3D
100
AcDbProxyObject
 90
      499
 91
      503
 95
  6815769
 70
     0
 93
      113
310
904383A31000000000000000810100
  0
ACAD_PROXY_OBJECT
  5
4D
102
{ACAD_REACTORS
330
3D
102
}
330
3D
100
AcDbProxyObject
 90
      499
 91
      503
 95
  6815769
 70
     0
 93
      121
310
90531303A31000000000000000910100
  0
ACAD_PROXY_OBJECT
  5
4E
102
{ACAD_REACTORS
330
3D
102
}
330
3D
100
AcDbProxyObject
 90
      499
 91
      503
 95
  6815769
 70
     0
 93
      129
310
9063130303A31000000000000001650100
  0
ACAD_PROXY_OBJECT
  5
4F
102
{ACAD_REACTORS
330
3D
102
}
330
3D
100
AcDbProxyObject
 90
      499
 91
      503
 95
  6815769
 70
     0
 93
      265
310
90F312F31323822203D2031272D302200000000000000200FC000000000000284000
  0
ACAD_PROXY_OBJECT
  5
50
102
{ACAD_REACTORS
330
3D
102
}
330
3D
100
AcDbProxyObject
 90
      499
 91
      503
 95
  6815769
 70
     0
 93
      257
310
90E312F363422203D2031272D302200000000000000240FC000000000000284000
  0
ACAD_PROXY_OBJECT
  5
51
102
{ACAD_REACTORS
330
3D
102
}
330
3D
100
AcDbProxyObject
 90
      499
 91
      503
 95
  6815769
 70
     0
 93
      257
310
90E312F333222203D2031272D302200000000000000280FC000000000000284000
  0
ACAD_PROXY_OBJECT
  5
52
102
{ACAD_REACTORS
330
3D
102
}
330
3D
100
AcDbProxyObject
 90
      499
 91
      503
 95
  6815769
 70
     0
 93
      257
310
90E312F313622203D2031272D3022000000000000002C0FC000000000000284000
  0
ACAD_PROXY_OBJECT
  5
53
102
{ACAD_REACTORS
330
3D
102
}
330
3D
100
AcDbProxyObject
 90
      499
 91
      503
 95
  6815769
 70
     0
 93
      257
310
90E332F333222203D2031272D3022000000000000002E0FC000000000000284000
  0
ACAD_PROXY_OBJECT
  5
54
102
{ACAD_REACTORS
330
3D
102
}
330
3D
100
AcDbProxyObject
 90
      499
 91
      503
 95
  6815769
 70
     0
 93
      249
310
90D312F3822203D2031272D302200000000000000300FC000000000000284000
  0
ACAD_PROXY_OBJECT
  5
55
102
{ACAD_REACTORS
330
3D
102
}
330
3D
100
AcDbProxyObject
 90
      499
 91
      503
 95
  6815769
 70
     0
 93
      257
310
90E332F313622203D2031272D302200000000000000320FC000000000000284000
  0
ACAD_PROXY_OBJECT
  5
56
102
{ACAD_REACTORS
330
3D
102
}
330
3D
100
AcDbProxyObject
 90
      499
 91
      503
 95
  6815769
 70
     0
 93
      249
310
90D312F3422203D2031272D302200000000000000340FC000000000000284000
  0
ACAD_PROXY_OBJECT
  5
57
102
{ACAD_REACTORS
330
3D
102
}
330
3D
100
AcDbProxyObject
 90
      499
 91
      503
 95
  6815769
 70
     0
 93
      249
310
90D332F3822203D2031272D302200000000000000360FC000000000000284000
  0
ACAD_PROXY_OBJECT
  5
58
102
{ACAD_REACTORS
330
3D
102
}
330
3D
100
AcDbProxyObject
 90
      499
 91
      503
 95
  6815769
 70
     0
 93
      249
310
90D312F3222203D2031272D302200000000000000380FC000000000000284000
  0
ACAD_PROXY_OBJECT
  5
59
102
{ACAD_REACTORS
330
3D
102
}
330
3D
100
AcDbProxyObject
 90
      499
 91
      503
 95
  6815769
 70
     0
 93
      249
310
90D332F3422203D2031272D3022000000000000003A0FC000000000000284000
  0
ACAD_PROXY_OBJECT
  5
5A
102
{ACAD_REACTORS
330
3D
102
}
330
3D
100
AcDbProxyObject
 90
      499
 91
      503
 95
  6815769
 70
     0
 93
      169
310
90B3122203D2031272D3022004000000000000284000
  0
ACAD_PROXY_OBJECT
  5
5B
102
{ACAD_REACTORS
330
3D
102
}
330
3D
100
AcDbProxyObject
 90
      499
 91
      503
 95
  6815769
 70
     0
 93
      265
310
90F312D312F3222203D2031272D3022000000000000003E0FC000000000000284000
  0
ACAD_PROXY_OBJECT
  5
5C
102
{ACAD_REACTORS
330
3D
102
}
330
3D
100
AcDbProxyObject
 90
      499
 91
      503
 95
  6815769
 70
     0
 93
      233
310
90B3322203D2031272D30220000000000000002100000000000000284000
  0
ACAD_PROXY_OBJECT
  5
5D
102
{ACAD_REACTORS
330
3D
102
}
330
3D
100
AcDbProxyObject
 90
      499
 91
      503
 95
  6815769
 70
     0
 93
      233
310
90B3622203D2031272D30220000000000000006100000000000000284000
  0
ACAD_PROXY_OBJECT
  5
5E
102
{ACAD_REACTORS
330
3D
102
}
330
3D
100
AcDbProxyObject
 90
      499
 91
      503
 95
  6815769
 70
     0
 93
      257
310
90E31272D3022203D2031272D3022000000000000000A100000000000000284000
  0
TABLESTYLE
  5
70
102
{ACAD_REACTORS
330
6F
102
}
102
{ACAD_XDICTIONARY
360
3EE
102
}
330
6F
100
AcDbTableStyle
  3
Standard
 70
     0
 71
     0
 40
0.06
 41
0.06
280
     0
281
     0
  7
CS-Text
140
0.18
170
     2
 62
     0
 63
     7
283
     0
 90
      512
 91
        0
  1

274
    -2
284
     1
 64
     0
275
    -2
285
     1
 65
     0
276
    -2
286
     1
 66
     0
277
    -2
287
     1
 67
     0
278
    -2
288
     1
 68
     0
279
    -2
289
     1
 69
     0
  7
CS-Text
140
0.25
170
     5
 62
     0
 63
     7
283
     0
 90
      512
 91
        0
  1

274
    -2
284
     1
 64
     0
275
    -2
285
     1
 65
     0
276
    -2
286
     1
 66
     0
277
    -2
287
     1
 67
     0
278
    -2
288
     1
 68
     0
279
    -2
289
     1
 69
     0
  7
CS-Text
140
0.18
170
     5
 62
     0
 63
     7
283
     0
 90
      512
 91
        0
  1

274
    -2
284
     1
 64
     0
275
    -2
285
     1
 65
     0
276
    -2
286
     1
 66
     0
277
    -2
287
     1
 67
     0
278
    -2
288
     1
 68
     0
279
    -2
289
     1
 69
     0
  0
VISUALSTYLE
  5
2F
102
{ACAD_REACTORS
330
29
102
}
102
{ACAD_XDICTIONARY
360
4C5
102
}
330
29
100
AcDbVisualStyle
  2
2dWireframe
 70
     4
 71
     0
 72
     2
 73
     0
 90
        0
 40
-0.6
 41
-30.0
 62
     5
 63
     7
421
 16777215
 74
     1
 91
        4
 64
     7
 65
   257
 75
     1
175
     1
 42
1.0
 92
        0
 66
   257
 43
1.0
 76
     1
 77
     6
 78
     2
 67
     7
 79
     5
170
     0
171
     0
290
     0
174
     0
 93
        1
 44
0.0
173
     0
291
     0
 45
0.0
  0
VISUALSTYLE
  5
31
102
{ACAD_REACTORS
330
29
102
}
102
{ACAD_XDICTIONARY
360
4C9
102
}
330
29
100
AcDbVisualStyle
  2
3D Hidden
 70
     6
 71
     1
 72
     2
 73
     2
 90
        0
 40
-0.6
 41
-30.0
 62
     5
 63
     7
421
 16777215
 74
     2
 91
        2
 64
     7
 65
   257
 75
     2
175
     1
 42
179.0
 92
        0
 66
   257
 43
1.0
 76
     1
 77
     6
 78
     2
 67
     7
 79
     3
170
     0
171
     0
290
     0
174
     0
 93
        1
 44
0.0
173
     0
291
     0
 45
0.0
  0
VISUALSTYLE
  5
30
102
{ACAD_REACTORS
330
29
102
}
102
{ACAD_XDICTIONARY
360
4C7
102
}
330
29
100
AcDbVisualStyle
  2
3dWireframe
 70
     5
 71
     0
 72
     2
 73
     0
 90
        0
 40
-0.6
 41
-30.0
 62
     5
 63
     7
421
 16777215
 74
     1
 91
        4
 64
     7
 65
   257
 75
     1
175
     1
 42
1.0
 92
        0
 66
   257
 43
1.0
 76
     1
 77
     6
 78
     2
 67
     7
 79
     5
170
     0
171
     0
290
     0
174
     0
 93
        1
 44
0.0
173
     0
291
     0
 45
0.0
  0
VISUALSTYLE
  5
2E
102
{ACAD_REACTORS
330
29
102
}
102
{ACAD_XDICTIONARY
360
4C3
102
}
330
29
100
AcDbVisualStyle
  2
Basic
 70
     7
 71
     1
 72
     0
 73
     1
 90
        0
 40
-0.6
 41
-30.0
 62
     5
 63
     7
421
 16777215
 74
     0
 91
        4
 64
     7
 65
   257
 75
     1
175
     1
 42
1.0
 92
        8
 66
     7
 43
1.0
 76
     1
 77
     6
 78
     2
 67
     7
 79
     5
170
     0
171
     0
290
     0
174
     0
 93
        1
 44
0.0
173
     0
291
     1
 45
0.0
  0
VISUALSTYLE
  5
35
102
{ACAD_REACTORS
330
29
102
}
102
{ACAD_XDICTIONARY
360
4D1
102
}
330
29
100
AcDbVisualStyle
  2
Brighten
 70
    12
 71
     2
 72
     2
 73
     0
 90
        0
 40
-0.6
 41
-30.0
 62
     5
 63
     7
421
 16777215
 74
     1
 91
        4
 64
     7
 65
   257
 75
     1
175
     1
 42
1.0
 92
        8
 66
     7
 43
1.0
 76
     1
 77
     6
 78
     2
 67
     7
 79
     5
170
     0
171
     0
290
     0
174
     0
 93
        1
 44
50.0
173
     0
291
     1
 45
0.0
  0
VISUALSTYLE
  5
39
102
{ACAD_REACTORS
330
29
102
}
102
{ACAD_XDICTIONARY
360
4D9
102
}
330
29
100
AcDbVisualStyle
  2
ColorChange
 70
    16
 71
     2
 72
     2
 73
     3
 90
        0
 40
-0.6
 41
-30.0
 62
     5
 63
     8
421
  8421504
 74
     1
 91
        4
 64
     7
 65
   257
 75
     1
175
     1
 42
1.0
 92
        8
 66
     8
424
  8421504
 43
1.0
 76
     1
 77
     6
 78
     2
 67
     7
 79
     5
170
     0
171
     0
290
     0
174
     0
 93
        1
 44
0.0
173
     0
291
     1
 45
0.0
  0
VISUALSTYLE
  5
32
102
{ACAD_REACTORS
330
29
102
}
102
{ACAD_XDICTIONARY
360
4CB
102
}
330
29
100
AcDbVisualStyle
  2
Conceptual
 70
     9
 71
     3
 72
     2
 73
     0
 90
        0
 40
-0.6
 41
-30.0
 62
     5
 63
     7
421
 16777215
 74
     2
 91
        2
 64
     7
 65
   257
 75
     1
175
     1
 42
179.0
 92
        8
 66
     7
 43
1.0
 76
     1
 77
     6
 78
     2
 67
     7
 79
     3
170
     0
171
     0
290
     0
174
     0
 93
        1
 44
0.0
173
     0
291
     0
 45
0.0
  0
VISUALSTYLE
  5
34
102
{ACAD_REACTORS
330
29
102
}
102
{ACAD_XDICTIONARY
360
4CF
102
}
330
29
100
AcDbVisualStyle
  2
Dim
 70
    11
 71
     2
 72
     2
 73
     0
 90
        0
 40
-0.6
 41
-30.0
 62
     5
 63
     7
421
 16777215
 74
     1
 91
        4
 64
     7
 65
   257
 75
     1
175
     1
 42
1.0
 92
        8
 66
     7
 43
1.0
 76
     1
 77
     6
 78
     2
 67
     7
 79
     5
170
     0
171
     0
290
     0
174
     0
 93
        1
 44
-50.0
173
     0
291
     1
 45
0.0
  0
VISUALSTYLE
  5
3C
102
{ACAD_REACTORS
330
29
102
}
102
{ACAD_XDICTIONARY
360
4DF
102
}
330
29
100
AcDbVisualStyle
  2
EdgeColorOff
 70
    22
 71
     2
 72
     2
 73
     0
 90
        0
 40
-0.6
 41
-30.0
 62
     5
 63
     7
421
 16777215
 74
     1
 91
        4
 64
     7
 65
   257
 75
     1
175
     1
 42
1.0
 92
        8
 66
     7
 43
1.0
 76
     1
 77
     6
 78
     2
 67
     7
 79
     5
170
     0
171
     0
290
     0
174
     0
 93
        1
 44
0.0
173
     0
291
     1
 45
0.0
  0
VISUALSTYLE
  5
38
102
{ACAD_REACTORS
330
29
102
}
102
{ACAD_XDICTIONARY
360
4D7
102
}
330
29
100
AcDbVisualStyle
  2
Facepattern
 70
    15
 71
     2
 72
     2
 73
     0
 90
        0
 40
-0.6
 41
-30.0
 62
     5
 63
     7
421
 16777215
 74
     1
 91
        4
 64
     7
 65
   257
 75
     1
175
     1
 42
1.0
 92
        8
 66
     7
 43
1.0
 76
     1
 77
     6
 78
     2
 67
     7
 79
     5
170
     0
171
     0
290
     0
174
     0
 93
        1
 44
0.0
173
     0
291
     1
 45
0.0
  0
VISUALSTYLE
  5
2A
102
{ACAD_REACTORS
330
29
102
}
102
{ACAD_XDICTIONARY
360
4BB
102
}
330
29
100
AcDbVisualStyle
  2
Flat
 70
     0
 71
     2
 72
     1
 73
     1
 90
        2
 40
-0.6
 41
30.0
 62
     5
 63
     7
421
 16777215
 74
     0
 91
        4
 64
     7
 65
   257
 75
     1
175
     1
 42
1.0
 92
        8
 66
     7
 43
1.0
 76
     1
 77
     6
 78
     2
 67
     7
 79
     5
170
     0
171
     0
290
     0
174
     0
 93
       13
 44
0.0
173
     0
291
     1
 45
0.0
  0
VISUALSTYLE
  5
2B
102
{ACAD_REACTORS
330
29
102
}
102
{ACAD_XDICTIONARY
360
4BD
102
}
330
29
100
AcDbVisualStyle
  2
FlatWithEdges
 70
     1
 71
     2
 72
     1
 73
     1
 90
        2
 40
-0.6
 41
30.0
 62
     5
 63
     7
421
 16777215
 74
     1
 91
        4
 64
     7
 65
   257
 75
     1
175
     1
 42
1.0
 92
        0
 66
   257
 43
1.0
 76
     1
 77
     6
 78
     2
 67
     7
 79
     5
170
     0
171
     0
290
     0
174
     0
 93
       13
 44
0.0
173
     0
291
     1
 45
0.0
  0
VISUALSTYLE
  5
2C
102
{ACAD_REACTORS
330
29
102
}
102
{ACAD_XDICTIONARY
360
4BF
102
}
330
29
100
AcDbVisualStyle
  2
Gouraud
 70
     2
 71
     2
 72
     2
 73
     1
 90
        2
 40
-0.6
 41
30.0
 62
     5
 63
     7
421
 16777215
 74
     0
 91
        4
 64
     7
 65
   257
 75
     1
175
     1
 42
1.0
 92
        0
 66
     7
 43
1.0
 76
     1
 77
     6
 78
     2
 67
     7
 79
     5
170
     0
171
     0
290
     0
174
     0
 93
       13
 44
0.0
173
     0
291
     1
 45
0.0
  0
VISUALSTYLE
  5
2D
102
{ACAD_REACTORS
330
29
102
}
102
{ACAD_XDICTIONARY
360
4C1
102
}
330
29
100
AcDbVisualStyle
  2
GouraudWithEdges
 70
     3
 71
     2
 72
     2
 73
     1
 90
        2
 40
-0.6
 41
30.0
 62
     5
 63
     7
421
 16777215
 74
     1
 91
        4
 64
     7
 65
   257
 75
     1
175
     1
 42
1.0
 92
        0
 66
   257
 43
1.0
 76
     1
 77
     6
 78
     2
 67
     7
 79
     5
170
     0
171
     0
290
     0
174
     0
 93
       13
 44
0.0
173
     0
291
     1
 45
0.0
  0
VISUALSTYLE
  5
420
102
{ACAD_REACTORS
330
29
102
}
102
{ACAD_XDICTIONARY
360
4EA
102
}
330
29
100
AcDbVisualStyle
  2
Hidden
 70
     6
 71
     1
 72
     2
 73
     2
 90
        0
 40
-0.6
 41
-30.0
 62
     5
 63
     7
421
 16777215
 74
     2
 91
        2
 64
     7
 65
   257
 75
     2
175
     1
 42
40.0
 92
        0
 66
   257
 43
1.0
 76
     1
 77
     6
 78
     2
 67
     7
 79
     3
170
     0
171
     0
290
     0
174
     0
 93
        1
 44
0.0
173
     0
291
     0
 45
0.0
  0
VISUALSTYLE
  5
3A
102
{ACAD_REACTORS
330
29
102
}
102
{ACAD_XDICTIONARY
360
4DB
102
}
330
29
100
AcDbVisualStyle
  2
JitterOff
 70
    20
 71
     2
 72
     2
 73
     0
 90
        0
 40
-0.6
 41
-30.0
 62
     5
 63
     7
421
 16777215
 74
     1
 91
        4
 64
     7
 65
   257
 75
     1
175
     1
 42
1.0
 92
       10
 66
     7
 43
1.0
 76
     1
 77
     6
 78
     2
 67
     7
 79
     5
170
     0
171
     0
290
     0
174
     0
 93
        1
 44
0.0
173
     0
291
     1
 45
0.0
  0
VISUALSTYLE
  5
37
102
{ACAD_REACTORS
330
29
102
}
102
{ACAD_XDICTIONARY
360
4D5
102
}
330
29
100
AcDbVisualStyle
  2
Linepattern
 70
    14
 71
     2
 72
     2
 73
     0
 90
        0
 40
-0.6
 41
-30.0
 62
     5
 63
     7
421
 16777215
 74
     1
 91
        4
 64
     7
 65
   257
 75
     7
175
     7
 42
1.0
 92
        8
 66
     7
 43
1.0
 76
     1
 77
     6
 78
     2
 67
     7
 79
     5
170
     0
171
     0
290
     0
174
     0
 93
        1
 44
0.0
173
     0
291
     1
 45
0.0
  0
VISUALSTYLE
  5
3B
102
{ACAD_REACTORS
330
29
102
}
102
{ACAD_XDICTIONARY
360
4DD
102
}
330
29
100
AcDbVisualStyle
  2
OverhangOff
 70
    21
 71
     2
 72
     2
 73
     0
 90
        0
 40
-0.6
 41
-30.0
 62
     5
 63
     7
421
 16777215
 74
     1
 91
        4
 64
     7
 65
   257
 75
     1
175
     1
 42
1.0
 92
        9
 66
     7
 43
1.0
 76
     1
 77
     6
 78
     2
 67
     7
 79
     5
170
     0
171
     0
290
     0
174
     0
 93
        1
 44
0.0
173
     0
291
     1
 45
0.0
  0
VISUALSTYLE
  5
33
102
{ACAD_REACTORS
330
29
102
}
102
{ACAD_XDICTIONARY
360
4CD
102
}
330
29
100
AcDbVisualStyle
  2
Realistic
 70
     8
 71
     2
 72
     2
 73
     0
 90
        0
 40
-0.6
 41
-30.0
 62
     5
 63
     7
421
 16777215
 74
     1
 91
        0
 64
     7
 65
   257
 75
     1
175
     1
 42
1.0
 92
        8
 66
     8
424
  7895160
 43
1.0
 76
     1
 77
     6
 78
     2
 67
     7
 79
     5
170
     0
171
     0
290
     0
174
     0
 93
       13
 44
0.0
173
     0
291
     0
 45
0.0
  0
VISUALSTYLE
  5
425
102
{ACAD_REACTORS
330
29
102
}
102
{ACAD_XDICTIONARY
360
4F4
102
}
330
29
100
AcDbVisualStyle
  2
Shaded
 70
    27
 71
     2
 72
     2
 73
     1
 90
        2
 40
-0.6
 41
30.0
 62
     5
 63
     7
421
 16777215
 74
     0
 91
        4
 64
     7
 65
   257
 75
     1
175
     1
 42
1.0
 92
        8
 66
   257
 43
1.0
 76
     1
 77
     6
 78
     2
 67
     8
425
  7895160
 79
     3
170
     0
171
     0
290
     0
174
     0
 93
        5
 44
0.0
173
     0
291
     0
 45
0.0
  0
VISUALSTYLE
  5
424
102
{ACAD_REACTORS
330
29
102
}
102
{ACAD_XDICTIONARY
360
4F2
102
}
330
29
100
AcDbVisualStyle
  2
Shaded with edges
 70
    26
 71
     2
 72
     2
 73
     1
 90
        2
 40
-0.6
 41
30.0
 62
     5
 63
     7
421
 16777215
 74
     1
 91
       10
 64
     7
 65
   257
 75
     2
175
     1
 42
1.0
 92
        8
 66
   257
 43
1.0
 76
     1
 77
     6
 78
     2
 67
     7
 79
     3
170
     0
171
     0
290
     0
174
     0
 93
        5
 44
0.0
173
     0
291
     0
 45
0.0
  0
VISUALSTYLE
  5
421
102
{ACAD_REACTORS
330
29
102
}
102
{ACAD_XDICTIONARY
360
4EC
102
}
330
29
100
AcDbVisualStyle
  2
Shades of Gray
 70
    23
 71
     2
 72
     2
 73
     3
 90
        0
 40
-0.6
 41
-30.0
 62
     5
 63
     7
421
 16777215
 74
     2
 91
        2
 64
     7
 65
     7
 75
     1
175
     1
 42
40.0
 92
        8
 66
     7
 43
1.0
 76
     1
 77
     6
 78
     2
 67
     7
 79
     3
170
     0
171
     0
290
     0
174
     0
 93
        1
 44
0.0
173
     0
291
     0
 45
0.0
  0
VISUALSTYLE
  5
422
102
{ACAD_REACTORS
330
29
102
}
102
{ACAD_XDICTIONARY
360
4EE
102
}
330
29
100
AcDbVisualStyle
  2
Sketchy
 70
    24
 71
     1
 72
     2
 73
     2
 90
        0
 40
-0.6
 41
-30.0
 62
     5
 63
     7
421
 16777215
 74
     2
 91
        2
 64
     7
 65
     7
 75
     1
175
     1
 42
40.0
 92
       11
 66
     7
 43
1.0
 76
     1
 77
     6
 78
     2
 67
     7
 79
     6
170
     0
171
     0
290
     0
174
     0
 93
        1
 44
0.0
173
     0
291
     0
 45
0.0
  0
VISUALSTYLE
  5
36
102
{ACAD_REACTORS
330
29
102
}
102
{ACAD_XDICTIONARY
360
4D3
102
}
330
29
100
AcDbVisualStyle
  2
Thicken
 70
    13
 71
     2
 72
     2
 73
     0
 90
        0
 40
-0.6
 41
-30.0
 62
     5
 63
     7
421
 16777215
 74
     1
 91
        4
 64
     7
 65
   257
 75
     1
175
     1
 42
1.0
 92
       12
 66
     7
 43
1.0
 76
     1
 77
     6
 78
     2
 67
     7
 79
     5
170
     0
171
     0
290
     0
174
     0
 93
        1
 44
0.0
173
     0
291
     1
 45
0.0
  0
VISUALSTYLE
  5
41F
102
{ACAD_REACTORS
330
29
102
}
102
{ACAD_XDICTIONARY
360
4E8
102
}
330
29
100
AcDbVisualStyle
  2
Wireframe
 70
     5
 71
     0
 72
     2
 73
     0
 90
        0
 40
-0.6
 41
-30.0
 62
     5
 63
     7
421
 16777215
 74
     1
 91
        4
 64
     7
 65
   257
 75
     1
175
     1
 42
1.0
 92
        0
 66
   257
 43
1.0
 76
     1
 77
     6
 78
     2
 67
     7
 79
     3
170
     0
171
     0
290
     0
174
     0
 93
        1
 44
0.0
173
     0
291
     0
 45
0.0
  0
VISUALSTYLE
  5
423
102
{ACAD_REACTORS
330
29
102
}
102
{ACAD_XDICTIONARY
360
4F0
102
}
330
29
100
AcDbVisualStyle
  2
X-Ray
 70
    25
 71
     2
 72
     2
 73
     1
 90
        1
 40
0.5
 41
-30.0
 62
     5
 63
     7
421
 16777215
 74
     1
 91
        0
 64
     7
 65
   257
 75
     1
175
     1
 42
1.0
 92
        8
 66
     7
 43
1.0
 76
     1
 77
     6
 78
     2
 67
     7
 79
     3
170
     0
171
     0
290
     0
174
     0
 93
       13
 44
0.0
173
     0
291
     0
 45
0.0
  0
DICTIONARYVAR
  5
41C
102
{ACAD_REACTORS
330
419
102
}
330
419
100
DictionaryVariables
280
     0
  1
1:1
  0
DICTIONARYVAR
  5
41B
102
{ACAD_REACTORS
330
419
102
}
330
419
100
DictionaryVariables
280
     0
  1
STANDARD
  0
DICTIONARYVAR
  5
41A
102
{ACAD_REACTORS
330
419
102
}
330
419
100
DictionaryVariables
280
     0
  1
Standard
  0
DICTIONARYVAR
  5
4F8
102
{ACAD_REACTORS
330
419
102
}
330
419
100
DictionaryVariables
280
     0
  1
0
  0
DICTIONARYVAR
  5
4F9
102
{ACAD_REACTORS
330
419
102
}
330
419
100
DictionaryVariables
280
     0
  1
0
  0
DICTIONARYVAR
  5
4F7
102
{ACAD_REACTORS
330
419
102
}
330
419
100
DictionaryVariables
280
     0
  1
2
  0
DICTIONARYVAR
  5
4F6
102
{ACAD_REACTORS
330
419
102
}
330
419
100
DictionaryVariables
280
     0
  1
1
  0
DICTIONARYVAR
  5
4FA
102
{ACAD_REACTORS
330
419
102
}
330
419
100
DictionaryVariables
280
     0
  1
1
  0
DICTIONARYVAR
  5
4FB
102
{ACAD_REACTORS
330
419
102
}
330
419
100
DictionaryVariables
280
     0
  1
2
  0
XRECORD
  5
3E8
102
{ACAD_REACTORS
330
3E6
102
}
330
3E6
100
AcDbXrecord
280
     1
  1
-2000051
  1
Lines
  1
-2000059
  1
Internal Object Styles
  1
-2000150
  1
Generic Annotations
  1
-2000280
  1
Title Blocks
  1
-2002000
  1
Detail Items
  1
-2005028
  1
Detail Item Tags
  0
XRECORD
  5
3E9
102
{ACAD_REACTORS
330
3E6
102
}
330
3E6
100
AcDbXrecord
280
     1
  1
-2000064
  1
<Invisible lines>
  1
-2009514
  1
Hidden Lines
  1
10364
  1

  1
10367
  1

  1
154115
  1
01
  1
165723
  1
0
  1
289292
  1
CS_Lines 25
  1
302576
  1
CS_Lines 50
  1
303815
  1

  1
314633
  1

  1
316516
  1
CS_Lines 15
  1
316799
  1
CS_Lines 35
  1
316801
  1
CS_Lines Hidden 15
  1
343256
  1
CS_Cut Lines 01
  1
372149
  1
CS_Cut Lines 15
  1
398472
  1

  1
459970
  1

  1
538962
  1

  1
538969
  1

  1
538973
  1

  1
539009
  1

  1
612345
  1

  0
XRECORD
  5
3E7
102
{ACAD_REACTORS
330
3E6
102
}
330
3E6
100
AcDbXrecord
280
     1
  1
10363
  1
Linear Dimension Style : CS_Std Dimension
  1
287436
  1
CS_T Block (landscape) : CS_T Block (landscape)
  1
291181
  1
CS_Lining - Generic Sheet : 9mm
  1
304015
  1
CS_Comment tag : Comment Only
  1
314849
  1
CS_Roof Angle Symbol : CS_Roof Angle Symbol
  1
316249
  1
CS_Line : H3.1 FRAMING
  1
343498
  1
CS_Timber Framing : 90 x 45
  1
385154
  1
CS_Line : Building underlay
  1
397577
  1
CS_Sill Block 2 : CS_Sill Block 2
  1
454333
  1
CS_Mortar Bed : CS_Mortar Bed
  1
504325
  1
CS_Fix_Screw : CS_Fix_Screw
  1
554327
  1
CS_cavity batten : 20x45
  1
564216
  1
CS_Line : Building underlay separation
  1
564786
  1
CS_Flashing - Head Part : CS_Head Flashing
  1
573109
  1
CS_Cavity batten castelated mid small : CS_Cavity batten castelated mid small
  1
614940
  1
CS_Timber Packing : Packer 2
  0
DICTIONARY
  5
443
330
76
100
AcDbDictionary
280
     1
281
     1
  3
ADSK_XREC_LAYOUTTHUMBNAIL
360
444
  0
DICTIONARY
  5
44C
330
7A
100
AcDbDictionary
280
     1
281
     1
  3
ADSK_XREC_LAYOUTTHUMBNAIL
360
44D
  0
DICTIONARY
  5
1A
330
19
100
AcDbDictionary
280
     1
281
     1
  3
BUMPTILE
360
1C
  3
DIFFUSETILE
360
1B
  3
OPACITYTILE
360
1F
  3
REFLECTIONTILE
360
1E
  3
REFRACTIONTILE
360
20
  3
SPECULARTILE
360
1D
  0
DICTIONARY
  5
12
330
11
100
AcDbDictionary
280
     1
281
     1
  3
BUMPTILE
360
14
  3
DIFFUSETILE
360
13
  3
OPACITYTILE
360
17
  3
REFLECTIONTILE
360
16
  3
REFRACTIONTILE
360
18
  3
SPECULARTILE
360
15
  0
DICTIONARY
  5
22
330
21
100
AcDbDictionary
280
     1
281
     1
  3
BUMPTILE
360
24
  3
DIFFUSETILE
360
23
  3
OPACITYTILE
360
27
  3
REFLECTIONTILE
360
26
  3
REFRACTIONTILE
360
28
  3
SPECULARTILE
360
25
  0
DICTIONARY
  5
3EE
330
70
100
AcDbDictionary
280
     1
281
     1
  3
ACAD_ROUNDTRIP_2008_TABLESTYLE_CELLSTYLEMAP
360
4B4
  0
DICTIONARY
  5
4C5
330
2F
100
AcDbDictionary
280
     1
281
     1
  3
ACAD_XREC_ROUNDTRIP
360
4C6
  0
DICTIONARY
  5
4C9
330
31
100
AcDbDictionary
280
     1
281
     1
  3
ACAD_XREC_ROUNDTRIP
360
4CA
  0
DICTIONARY
  5
4C7
330
30
100
AcDbDictionary
280
     1
281
     1
  3
ACAD_XREC_ROUNDTRIP
360
4C8
  0
DICTIONARY
  5
4C3
330
2E
100
AcDbDictionary
280
     1
281
     1
  3
ACAD_XREC_ROUNDTRIP
360
4C4
  0
DICTIONARY
  5
4D1
330
35
100
AcDbDictionary
280
     1
281
     1
  3
ACAD_XREC_ROUNDTRIP
360
4D2
  0
DICTIONARY
  5
4D9
330
39
100
AcDbDictionary
280
     1
281
     1
  3
ACAD_XREC_ROUNDTRIP
360
4DA
  0
DICTIONARY
  5
4CB
330
32
100
AcDbDictionary
280
     1
281
     1
  3
ACAD_XREC_ROUNDTRIP
360
4CC
  0
DICTIONARY
  5
4CF
330
34
100
AcDbDictionary
280
     1
281
     1
  3
ACAD_XREC_ROUNDTRIP
360
4D0
  0
DICTIONARY
  5
4DF
330
3C
100
AcDbDictionary
280
     1
281
     1
  3
ACAD_XREC_ROUNDTRIP
360
4E0
  0
DICTIONARY
  5
4D7
330
38
100
AcDbDictionary
280
     1
281
     1
  3
ACAD_XREC_ROUNDTRIP
360
4D8
  0
DICTIONARY
  5
4BB
330
2A
100
AcDbDictionary
280
     1
281
     1
  3
ACAD_XREC_ROUNDTRIP
360
4BC
  0
DICTIONARY
  5
4BD
330
2B
100
AcDbDictionary
280
     1
281
     1
  3
ACAD_XREC_ROUNDTRIP
360
4BE
  0
DICTIONARY
  5
4BF
330
2C
100
AcDbDictionary
280
     1
281
     1
  3
ACAD_XREC_ROUNDTRIP
360
4C0
  0
DICTIONARY
  5
4C1
330
2D
100
AcDbDictionary
280
     1
281
     1
  3
ACAD_XREC_ROUNDTRIP
360
4C2
  0
DICTIONARY
  5
4EA
330
420
100
AcDbDictionary
280
     1
281
     1
  3
ACAD_XREC_ROUNDTRIP
360
4EB
  0
DICTIONARY
  5
4DB
330
3A
100
AcDbDictionary
280
     1
281
     1
  3
ACAD_XREC_ROUNDTRIP
360
4DC
  0
DICTIONARY
  5
4D5
330
37
100
AcDbDictionary
280
     1
281
     1
  3
ACAD_XREC_ROUNDTRIP
360
4D6
  0
DICTIONARY
  5
4DD
330
3B
100
AcDbDictionary
280
     1
281
     1
  3
ACAD_XREC_ROUNDTRIP
360
4DE
  0
DICTIONARY
  5
4CD
330
33
100
AcDbDictionary
280
     1
281
     1
  3
ACAD_XREC_ROUNDTRIP
360
4CE
  0
DICTIONARY
  5
4F4
330
425
100
AcDbDictionary
280
     1
281
     1
  3
ACAD_XREC_ROUNDTRIP
360
4F5
  0
DICTIONARY
  5
4F2
330
424
100
AcDbDictionary
280
     1
281
     1
  3
ACAD_XREC_ROUNDTRIP
360
4F3
  0
DICTIONARY
  5
4EC
330
421
100
AcDbDictionary
280
     1
281
     1
  3
ACAD_XREC_ROUNDTRIP
360
4ED
  0
DICTIONARY
  5
4EE
330
422
100
AcDbDictionary
280
     1
281
     1
  3
ACAD_XREC_ROUNDTRIP
360
4EF
  0
DICTIONARY
  5
4D3
330
36
100
AcDbDictionary
280
     1
281
     1
  3
ACAD_XREC_ROUNDTRIP
360
4D4
  0
DICTIONARY
  5
4E8
330
41F
100
AcDbDictionary
280
     1
281
     1
  3
ACAD_XREC_ROUNDTRIP
360
4E9
  0
DICTIONARY
  5
4F0
330
423
100
AcDbDictionary
280
     1
281
     1
  3
ACAD_XREC_ROUNDTRIP
360
4F1
  0
XRECORD
  5
444
102
{ACAD_REACTORS
330
443
102
}
330
443
100
AcDbXrecord
280
     1
310
28000000B40000007F00000001000800000000004C590000000000000000000000010000000000000000000000000000C8C8C8000000000000000000000000000000000000000000000000000000000000000000330000006600000099000000CC000000FF00000000330000333300006633000099330000CC330000FF3300
310
0000660000336600006666000099660000CC660000FF66000000990000339900006699000099990000CC990000FF99000000CC000033CC000066CC000099CC0000CCCC0000FFCC000000FF000033FF000066FF000099FF0000CCFF0000FFFF000000003300330033006600330099003300CC003300FF003300003333003333
310
33006633330099333300CC333300FF33330000663300336633006666330099663300CC663300FF66330000993300339933006699330099993300CC993300FF99330000CC330033CC330066CC330099CC3300CCCC3300FFCC330000FF330033FF330066FF330099FF3300CCFF3300FFFF330000006600330066006600660099
310
006600CC006600FF00660000336600333366006633660099336600CC336600FF33660000666600336666006666660099666600CC666600FF66660000996600339966006699660099996600CC996600FF99660000CC660033CC660066CC660099CC6600CCCC6600FFCC660000FF660033FF660066FF660099FF6600CCFF6600
310
FFFF660000009900330099006600990099009900CC009900FF00990000339900333399006633990099339900CC339900FF33990000669900336699006666990099669900CC669900FF66990000999900339999006699990099999900CC999900FF99990000CC990033CC990066CC990099CC9900CCCC9900FFCC990000FF99
310
0033FF990066FF990099FF9900CCFF9900FFFF99000000CC003300CC006600CC009900CC00CC00CC00FF00CC000033CC003333CC006633CC009933CC00CC33CC00FF33CC000066CC003366CC006666CC009966CC00CC66CC00FF66CC000099CC003399CC006699CC009999CC00CC99CC00FF99CC0000CCCC0033CCCC0066CC
310
CC0099CCCC00CCCCCC00FFCCCC0000FFCC0033FFCC0066FFCC0099FFCC00CCFFCC00FFFFCC000000FF003300FF006600FF009900FF00CC00FF00FF00FF000033FF003333FF006633FF009933FF00CC33FF00FF33FF000066FF003366FF006666FF009966FF00CC66FF00FF66FF000099FF003399FF006699FF009999FF00CC
310
99FF00FF99FF0000CCFF0033CCFF0066CCFF0099CCFF00CCCCFF00FFCCFF0000FFFF0033FFFF0066FFFF0099FFFF00CCFFFF00FFFFFF00000000000D0D0D001A1A1A00282828003535350043434300505050005D5D5D006B6B6B00787878008686860093939300A1A1A100AEAEAE00BBBBBB00C9C9C900D6D6D600E4E4E400
310
F1F1F100FFFFFF0000000000000000000000000000000000000000000000000000000000000000000000000000000000F5F5F5F5F5F5F5F5F5F5F5F5F5F5F5F5F5F5F5F5F5F5F5F5F5F5F5F5F5F5F5F5F5F5F5F5F5F5F5F5F5F5F5F5F5F5F5F5F5F5F5F5F5F5F5F5F5F5F5F5F5F5F5F5F5F5F5F5F5F5F5F5F5F5F5F5F5F5F5
310
F5F5F5F5F5F5F5F5F5F5F5F5F5F5F5F5F5F5F5F5F5F5F5F5F5F5F5F5F5F5F5F5F5F5F5F5F5F5F5F5F5F5F5F5F5F5F5F5F5F5F5F5F5F5F5F5F5F5F5F5F5F5F5F5F5F5F5F5F5F5F5F5F5F5F5F5F5F5F5F5F5F5F5F5F5F5F5F5F5F5F5F5F5F5F5F5F5F5F5F5E1F500000000000000000000000000000000000000000000000000
310
00000000000000000000000000000000000000000000000000000000000000000000000000000000000000000000000000000000000000000000000000000000000000000000000000000000000000000000000000000000000000000000000000000000000000000000000000000000000000000000000000000000000000
310
000000000000000000000000000000000000000000000000F5F5E1F5000000000000000000000000000000000000000000000000000000000000000000000000000000000000000000000000000000000000000000000000000000000000000000000000000000000000000000000000000000000000000000000000000000
310
0000000000000000000000000000000000000000000000000000000000000000000000000000000000000000000000000000000000000000000000000000000000000000000000000000000000F5F5E1F50000F5F5F5F5F5F5F5F5F5F5F5000000000000F5F5F5F5F5F5F5F5F5F5F5F5F5F5F5F5000000000000000000F5F5
310
F5F5F5F5F5F5F5F5F5F5F5F5F5000000000000000000F5F5F5F5F5F5F5F5F5F5F5F5F5F5F5F50000000000000000F5F5F5F5F5F5F5F5F5F5F5F5F5F5F5F5000000000000000000F5F5F5F5F5F5F5F5F5F5F5F5F5F5F5000000000000000000F5F5F5F5F5F5F5F5F5F5F5F5F5F5F5F5000000000000000000F5F5F5F5F5F5F5
310
F50000F5F5E1F50000F5F5F5F5F5F5F5F5F5F5F50000000000000000000000000000000000000000000000000000000000000000000000000000000000000000000000000000000000000000000000000000000000000000000000000000000000000000000000000000000000000000000000000000000000000000000000
310
0000000000000000000000000000000000000000000000000000000000000000000000000000000000000000000000000000000000F50000F5F5E1F50000F5F5F5F5F5F5F5F5F5F5F500F5F5F5F5F5F5F5F5F5F5F5F5F5F5F5F5F5F5F5F5F5F5F5F5F5F5F5F5F5F5F5F5F5F5F5F5F5F5F5F5F5F5F5F5F5F5F5F5F5F5F5F5F5
310
F5F5F5F5F5F5F5F5F5F5F5F5F5F5F5F5F5F5F5F5F5F5F5F5F5F5F5F5F5F5F5F5F5F5F5F5F5F5F5F5F5F5F5F5F5F5F5F5F5F5F5F5F5F5F5F5F5F5F5F5F5F5F5F5F5F5F5F5F5F5F5F5F5F5F5F5F5F5F5F5F5F5F5F5F5F5F5F5F5F5F5F5F5F5F5F5F5F5F5F5F5F5F5F5F5F5F50000F5F5E1F50000F5F5F5F5F5F5F5F5F5F5F500
310
F5F5F5F5F500000000F500F5F5F5F5F50000000000F5F5F5F5F5F5000000F5F5F5F5F5F5F5F5F5F5F5F5F5F5F5F5F5F5F5F5F5F5F5F5F5F5F5F5F5F5F5F5F5F5F5F5F5F5F5F5F5F5F5F5F5F5F5F5F5F5F5F5F5F5F5F5F5F5F5F5F5F5F5F500F5F5F5F5F5F5F5F5F5F5F5F5F5F5F5F5F5F5F5F5F5F5F5F5F5F5F5F5F5F5F5F5
310
F5F5F5F5F5F5F5F5F5F5F5F5F5F5F5F500000000000000000000000000000000F50000F5F5E1F50000F5F5F5F5F5F5F5F5F5F5F500F5F5F5F5F500000000F500F5F5F5F5F50000000000F5F5F5F5F5F5000000F5F5F5F5F5F5F5F5F5F5F5F5F5F5F5F5F5F5F5F5F5F5F5F5F5F5F5F5F5F5F5F5F5F5F5F5F5F5F5F5F5F5F5F5
310
F5F5F5F5F5F5F5F5F5F5F5F5F5F5F5F5F5F5F5F500F5F5F5F5F5F5F5F5F5F5F5F5F5F5F5F5F5F5F5F5F5F5F5F5F5F5F5F5F5F5F5F5F5F5F5F5F5F5F5F5F5F5F5F5F5F5F5F500000000000000000000000000000000F50000F5F5E1F50000F5F5F5F5F5F5F5F5F5F5F500F5F5F5000000000000F5F5F5F5F5F5F5F5F5F50000
310
F5F5F5F5F5F5F5F500F500000000000000000000000000000000000000000000000000000000000000000000000000000000000000000000000000000000000000000000000000000000F500000000000000000000000000000000000000000000000000000000000000000000000000000000000000000000000000000000
310
0000000000000000000000F50000F5F5E1F50000F5F5F5F5F5F5F5F5F5F5F500F5F5F5000000000000F5F5F5F5F5F5F5F5F5F50000F5F5F5F5F5F5F5F500F5F5F5F5F5F5F5F5F5F5F5F5F5F5F5F5F5F5F5F5F5F5F5F5F5F5F5F5F5F5F5F5F5F5F5000000000000000000000000000000000000000000000000000000000000
310
F5F5F5F5F5F5F5F5F5F5F5F5F5F5F5F5F5F5F5F5F5F5F5F5F5F5F5F5F5F5F5F5F5F5F5F5F5F5F5F5F5F5F5F5F5F5F5F5F5F5F5F5F5F5F5F5F5F5F5F5F5000000F50000F5F5E1F50000F5F5F5F5F5F5F5F5F5F5F500F5F5F5000000000000F50000000000000000000000F50000000000000000F50000000000000000000000
310
0000000000000000000000000000000000000000000000000000000000000000000000000000000000000000000000000000000000F5000000000000000000000000000000000000000000000000000000000000000000000000000000000000000000000000000000000000000000000000000000F50000F5F5E1F50000F5
310
F5F5F5F5F5F5F5F5F5F5000000000000000000000000000000000000000000000000000000000000000000000000000000000000000000000000000000000000000000000000000000000000000000000000000000000000000000000000000000000000000000000000000000000000000000000000000000000000000000
310
00000000000000000000000000000000000000000000000000000000000000000000000000000000000000000000F5F5E1F50000F5F5F5F5F5F5F5F5F5F5F500F5F5F5F5F5F5F5F5F5F5F5F5F5F5F5F5F5F5F5F5F5F5F5F5F5F5F5F5F5F5F50000000000000000000000000000000000000000000000000000000000000000
310
000000000000000000000000000000000000000000000000000000000000000000000000000000000000000000000000000000000000000000000000000000000000000000000000000000000000000000000000000000000000000000000000000000F5F5E1F50000F5F5F5F5F5F5F5F5F5F5F500F5F5F5F5F5F5F5F5F5F5
310
F5F5F5F5F5F5F5F5F5F5F5F5F5F5F5F5F5F5F5F5F500000000000000000000000000000000000000000000000000000000000000000000000000000000000000000000000000000000000000000000000000000000000000000000000000000000000000000000000000000000000000000000000000000000000000000000
310
00000000000000000000000000000000000000000000000000F5F5E1F50000F5F5F5F5F5F5F5F5F5F5F500F5F5F5F5F5F5F5F5F5F5F5F5F5F5F5F5F5F5F5F5F5F5F5F5F5F5F5F5F5F5F50000000000000000000000000000000000000000000000000000000000000000000000000000000000000000000000000000000000
310
000000000000000000000000000000000000000000000000000000000000000000000000000000000000000000000000000000000000000000000000000000000000000000000000000000000000F5F5E1F50000F5F5F5F5F5F5F5F5F5F5F50000000000000000000000000000000000000000000000000000000000000000
310
00000000000000000000000000000000000000000000000000000000000000000000000000000000000000000000000000000000000000000000000000000000000000000000000000000000000000000000000000000000000000000000000000000000000000000000000000000000000000000000000000000000000000
310
00000000F5F5E1F50000F5F5F5F5F5F5F5F5F5F5F500F5F5F5F5F5F5F5F5F5F5F5F5F5F5F5F5F5F5F5F5F5F5F5F5F5F5F5F5F5F5F5F5F5F5F5F5F5F5F5F5F5F5F5F5F5F5F5F5F5F5F5F5F5F5F5F5F5F5F5F5F5F5F5F5F5F5F5F5F5F5F5F5F5F5F5F5F5F5F5F5F5F5F5F5F5F5F5F5F5F5F5F5F5F5F5F5F5F5F5F5F5F5F5F5F5
310
F5F5F5F5F5F5F5F5F5F5F5F5F5F5F5F5F5F5F5F5F5F5F5F5F5F5F5F5F5F5F5F5F5F5F5F5F5F5F5F5F5F5F5F5F5F5F5F5F5F5F5F5F5F5000000F5F5E1F5000000000000000000000000000000000000000000000000000000000000000000000000000000000000000000000000000000000000000000000000000000000000
310
00000000000000000000000000000000000000000000000000000000000000000000000000000000000000000000000000000000000000000000000000000000000000000000F5F5F5F5F5F5F5F5F5F5F5F5F5F5F5F5F5F5F5F5F5F5F5F5F5F5F5F5F5F5F5F5F5F5F5F5F5000000F5F5E1F500000000000000000000000000
310
000000000000000000000000000000000000000000000000000000000000000000000000000000000000000000000000000000000000000000000000000000000000000000000000000000000000000000000000000000000000000000000000000000000000000000000000000000000000000000000000000000F5F5F5F5
310
F5F5F5F5F5F5F5F5F5F5F5F5F5F5F5F5F5F5F5F5F5F5F5F5F5F5F5F5F5F5F5F5F5000000F5F5E1F5000000000000000000000000000000000000000000000000000000000000000000000000000000000000000000000000000000000000000000000000000000000000000000000000000000000000000000000000000000
310
0000000000000000000000000000000000000000000000000000000000000000000000000000000000000000000000000000000000000000000000000000000000000000000000000000000000000000000000000000000000F5F5E1F50000F500000000000000000000000000000000000000000000000000000000000000
310
00000000000000000000000000000000000000000000000000000000000000000000000000000000000000000000000000000000000000000000000000000000000000000000000000000000000000000000000000000000000000000000000000000000000000000000000000000000000000000000000000000000000000
310
000000000000000000000000F50000F5F5E1F50000F5000000000000000000000000000000000000000000000000000000000000000000000000000000000000000000000000000000000000000000000000000000000000000000000000000000000000000000000000000000000000000000000000000000000000000000
310
0000000000000000000000000000000000000000000000000000000000000000000000000000000000000000000000000000000000000000000000000000000000F50000F5F5E1F50000F500000000000000000000000000000000000000000000000000000000000000000000000000000000000000000000000000000000
310
00000000000000000000000000000000000000000000000000000000000000000000000000000000000000000000000000000000000000000000000000000000000000000000000000000000000000000000000000000000000000000000000000000000000000000000000000000000000000000000F50000F5F5E1F50000
310
F5000000000000000000000000000000000000000000000000000000000000000000000000000000000000000000000000000000000000000000000000000000000000000000000000000000000000000000000000000000000000000000000000000000000000000000000000000000000000000000000000000000000000
310
0000000000000000000000000000000000000000000000000000000000000000000000000000000000000000F50000F5F5E1F50000F500000000000000000000000000000000000000000000000000000000000000000000000000000000000000000000000000000000000000000000000000000000000000000000000000
310
00000000000000000000000000000000000000000000000000000000000000000000000000000000000000000000000000000000000000000000000000000000000000000000000000000000000000000000000000000000000000000000000000F50000F5F5E1F50000F50000000000000000000000000000000000000000
310
00000000000000000000000000000000000000000000000000000000000000000000000000000000000000000000000000000000000000000000000000000000000000000000000000000000000000000000000000000000000000000000000000000000000000000000000000000000000000000000000000000000000000
310
0000000000000000000000000000000000000000000000F50000F5F5E1F50000F500000000000000000000000000000000000000000000000000000000000000000000000000000000000000000000000000000000000000000000000000000000000000000000000000000000000000000000000000000000000000000000
310
00000000000000000000000000000000000000000000000000000000000000000000000000000000000000000000000000000000000000000000000000000000000000000000000000000000F50000F5F5E1F50000F50000000000000000000000000000000000000000000000000000000000000000000000000000000000
310
00000000000000000000000000000000000000000000000000000000000000000000000000000000000000000000000000000000000000000000000000000000000000000000000000000000000000000000000000000000000000000000000000000000000000000000000000000000000000000000000000000000000000
310
0000F50000F5F5E1F50000F500000000000000000000000000000000000000000000000000000000000000000000000000000000000000000000000000000000000000000000000000000000000000000000000000000000000000000000000000000000000000000000000000000000000000000000000000000000000000
310
00000000000000000000000000000000000000000000000000000000000000000000000000000000000000000000000000000000000000F50000F5F5E1F50000F50000000000000000000000000000000000000000000000000000000000000000000000000000000000000000000000000000000000000000000000000000
310
000000000000000000000000000000000000000000000000000000000000000000000000000000000000000000000000000000000000000000000000000000000000000000000000000000000000000000000000000000000000000000000000000000000000000000000000F50000F5F5E1F50000F5000000000000000000
310
00000000000000000000000000000000000000000000000000000000000000000000000000000000000000000000000000000000000000000000000000000000000000000000000000000000000000000000000000000000000000000000000000000000000000000000000000000000000000000000000000000000000000
310
00000000000000000000000000000000000000000000000000000000000000000000F50000F5F5E1F50000F50000000000000000000000000000000000000000000000000000000000000000000000000000000000000000000000000000000000000000000000000000000000000000000000000000000000000000000000
310
000000000000000000000000000000000000000000000000000000000000000000000000000000000000000000000000000000000000000000000000000000000000000000000000000000000000000000000000000000F50000F5F5E1F50000F5000000000000000000000000000000000000000000000000000000000000
310
00000000000000000000000000000000000000000000000000000000000000000000000000000000000000000000000000000000000000000000000000000000000000000000000000000000000000000000000000000000000000000000000000000000000000000000000000000000000000000000000000000000000000
310
00000000000000000000000000F50000F5F5E1F50000F50000000000000000000000000000000000000000000000000000000000000000000000000000000000000000000000000000000000000000000000000000000000000000000000000000000000000000000000000000000000000000000000000000000000000000
310
000000000000000000000000000000000000000000000000000000000000000000000000000000000000000000000000000000000000000000000000000000000000F50000F5F5E1F50000F5000000000000000000000000000000000000000000000000000000000000000000000000000000000000000000000000000000
310
0000000000000000000000000000000000000000000000000000000000000000000000000000000000000000000000000000000000000000000000000000000000000000000000000000000000000000000000000000000000000000000000000000000000000000000000000000000000000000000000F50000F5F5E1F500
310
00000000000000000000000000000000000000000000000000000000000000000000000000000000000000000000000000000000000000000000000000000000000000000000000000000000000000000000000000000000000000000000000000000000000000000000000000000000000000000000000000000000000000
310
000000000000000000000000000000000000000000000000000000000000000000000000000000000000000000000000F5F5E1F5000000000000000000000000000000000000000000000000000000000000000000000000000000000000000000000000000000000000000000000000000000000000000000000000000000
310
0000000000000000000000000000000000000000000000000000000000000000000000000000000000000000000000000000000000000000000000000000000000000000000000000000000000000000000000000000000000000000000000000000000000F5F5E1F500000000000000000000000000000000000000000000
310
00000000000000000000000000000000000000000000000000000000000000000000000000000000000000000000000000000000000000000000000000000000000000000000000000000000000000000000000000000000000000000000000000000000000000000000000000000000000000000000000000000000000000
310
000000000000000000000000000000000000000000000000000000F5F5E1F5000000000000000000000000000000000000000000000000000000000000000000000000000000000000000000000000000000000000000000000000000000000000000000000000000000000000000000000000000000000000000000000000
310
0000000000000000000000000000000000000000000000000000000000000000000000000000000000000000000000000000000000000000000000000000000000000000000000000000000000000000F5F5E1F500000000000000000000000000000000000000000000000000000000000000000000000000000000000000
310
00000000000000000000000000000000000000000000000000000000000000000000000000000000000000000000000000000000000000000000000000000000000000000000000000000000000000000000000000000000000000000000000000000000000000000000000000000000000000000000000000000000000000
310
000000000000F5F5E1F5000000000000000000000000000000000000000000000000000000000000000000000000000000000000000000000000000000000000000000000000000000000000000000000000000000000000000000000000000000000000000000000000000000000000000000000000000000000000000000
310
0000000000000000000000000000000000000000000000000000000000000000000000000000000000000000000000000000000000000000000000F5F5E1F500000000000000000000000000000000000000000000000000000000000000000000000000000000000000000000000000000000000000000000000000000000
310
00000000000000000000000000000000000000000000000000000000000000000000000000000000000000000000000000000000000000000000000000000000000000000000000000000000000000000000000000000000000000000000000000000000000000000000000000000000F5F5E1F50000000000000000000000
310
000000000000000000000000000000000000000000000000000000000000BE0000000000000000000000000000000000000000000000000000000000BEBE00F500000000F500F5F5F5BEF5F5F5F500F5F5F500BE000000000000000000000000F5F5F5F5F5F5F5F5F5F5F5F5F5F5F5F5F5F5F5E2E2E2E2E200000000000000
310
0000000000000000000000000000000000000000000000000000000000000000000000000000F5F5E1F50000000000000000000000000000000000000000000000000000000000000000000000000000000000BE0000000000000000000000000000000000000000000000000000000000BEBEF5F5F5F5F5F5F5F5F5F5F5BE
310
F5F5BEF5BEF5F5F5F5BEF5F5F5F5F5F5F5F5F5F5F5F5F5F5F5F5F5F5F5F5F5F5F5F5F5F5F5F5F5F5F5E2E2E2E2E2000000000000000000000000000000000000000000000000000000000000000000000000000000000000000000F5F5E1F50000F50000000000000000000000000000000000000000000000000000000000
310
000000000000000000BE0000000000000000000000000000000000000000000000000000000000BEBE00F500000000F500F5F5F5BEF500F500F5F5BEBEF5BE000000000000000000000000E2E2E2E2E2E2E2E2E2E2E2E2E2E2E2E2E2E2E2E2E2E2E2E200000000000000000000000000000000000000000000000000000000
310
0000000000000000000000000000F50000F5F5E1F50000F50000000000000000000000000000000000000000000000000000000000000000000000000000BE0000000000000000000000000000000000000000000000000000000000BEBE00F500000000F500F5F5F5BEF5F5BEF500F5F50000F5F5BEBE0000000000000000
310
00000000000000000000000000000000000000000000000000000000000000000000000000000000000000000000000000000000000000000000000000000000000000F50000F5F5E1F50000F50000000000000000000000000000000000000000000000000000000000000000000000000000BE0000000000000000000000
310
000000000000000000000000000000000000BEBE00F500000000F500F5F5F5BEF5F5F500F500F5F50000F5F5BE000000000000000000000000000000000000000000000000000000000000000000000000000000000000000000000000000000000000000000000000000000000000000000000000000000F50000F5F5E1F5
310
0000F50000000000000000000000000000000000000000000000000000000000000000000000000000BE0000000000000000000000000000000000000000000000000000000000BEBE00F500000000F500F5F5F5BEF5F5BEF500F500F5F50000F5F5000000000000000000F5F5F5F5F5F5F5E2E2E2E2E2E2E2E2E2E2E2E2E2
310
E2E2E2E2E2E2E2E2E2E2000000000000000000000000000000000000000000000000000000000000000000000000F50000F5F5E1F50000F50000000000000000000000000000000000000000000000000000000000000000000000000000BE0000000000000000000000000000000000000000000000000000000000BEBE00
310
F500000000F500F5F5F5BEF5F5F500F500F500F5F5F500F5000000000000000000F5F5F5F5F5F5F5E2E2E2E2E2E2E2E2E2E2E2E2E2E2E2E2E2E2E2E2E2E2E2000000000000000000000000000000000000000000000000000000000000000000000000F50000F5F5E1F50000F5000000000000000000000000000000000000
310
0000000000000000000000000000000000000000BE0000000000000000000000000000000000000000000000000000000000BEBE00F500000000F500F5F5F5BEF5F5BEF500F500F500F500F500F50000000000000000F5F5F5F5F5F5F5F5F5F5F5F5F5F5F5F5F5F5F5F5F5F5F5F5F5E2E2E2E2E20000000000000000000000
310
00000000000000000000000000000000000000000000000000F50000F5F5E1F50000F50000000000000000000000000000000000000000000000000000000000000000000000000000BE0000000000000000000000000000000000000000000000000000000000BEBE00F500000000F500F5F5F5BEF5F5F500F500F500F500
310
F500F5BE0000000000000000F5F5F5F5F5F5F5F5F5F5F5F5F5F5F5F5F5F5F5F5F5F5F5F5F5E2E2E2E2E2000000000000000000000000000000000000000000000000000000000000000000000000F50000F5F5E1F50000F50000000000000000000000000000000000000000000000000000000000000000000000000000BE
310
0000000000000000000000000000000000000000000000000000000000BEBEF5F500000000F500F5F5F5BEF5F5BEF500F500F500F500F500F50000000000000000F5F5F5F5F5F5F5F5F5F5F5F5F5F5F5F5F5F5F5F5F5F5F5F5F5F5F5F5F5E20000000000000000000000000000000000000000000000000000000000000000
310
00000000F50000F5F5E1F50000F50000000000000000000000000000000000000000000000000000000000000000000000000000BE0000000000000000000000000000000000000000000000000000000000BEBEF50000000000F500F5F5F5BEF5F5F500F500F500F500F500F5BE0000000000000000F5F5F5F5F5F5F5F5F5
310
F5F5F5F5F5F5F5F5F5F5F5F5F5F5F5F5F5F5F5F5E2000000000000000000000000000000000000000000000000000000000000000000000000F50000F5F5E1F50000F50000000000000000000000000000000000000000000000000000000000000000000000000000BE000000000000000000000000000000000000000000
310
0000000000000000BEBEF50000000000F500F5F5F5BEF5F5BEF500F500F500F500F5F5F5F5F5F5F5F5F5F5F5F5F5F5F5F5F5F5F5F5F5F5F5F5F5F5F5F5F5F5F5F5F5F5F5F5E2E2E2E2E2000000000000000000000000000000000000000000000000000000000000000000000000F50000F5F5E1F50000F500000000000000
310
00000000000000000000000000000000000000000000000000000000000000BE0000000000000000000000000000000000000000000000000000000000BEBEF50000000000F500F5F5F5BEF5F5F500F500F500F500F500F5000000000000000000F5F5F5F5F5F5F5F5F5F5F5F5F5F5F5F5F5F5F5F5F5F5F5F5F5E2E2E2E2E2
310
000000000000000000000000000000000000000000000000000000000000000000000000F50000F5F5E1F50000F50000000000000000000000000000000000000000000000000000000000000000000000000000BE0000000000000000000000000000000000000000000000000000000000BEBEF50000000000F500F5F5F5
310
BEF5F5F5F500F500F5F5F500F5BE000000000000000000F5F5F5F5F5F5F5F5F5F5F5F5F5F5F5F5F5F5F5F5F5F5F5F5F5F5E2E2E2E2000000000000000000000000000000000000000000000000000000000000000000000000F50000F5F5E1F50000F500000000000000000000000000000000000000000000000000000000
310
00000000000000000000BE0000000000000000000000000000000000000000000000000000000000BEBEF50000000000F500F5F5F5BEF5F5BEF5F500F50000F5F500F5000000000000000000F5F5F5F5F5F5F5F5F5F5F5F5F5F5F5F5F5F5F5F5F5F5F5F5F5F5E2E2E2E2000000000000000000000000000000000000000000
310
000000000000000000000000000000F50000F5F5E1F50000F50000000000000000000000000000000000000000000000000000000000000000000000000000BE0000000000000000000000000000000000000000000000000000000000BEBEF50000000000F500F5F5F5BEF5F5F500F5F500F5F500F5F5BE00000000000000
310
0000F5F5F5F5F5F5F5F5F5F5F5F5F5F5F5F5F5F5F5F5F5F5E2E2E2E2E2E2E2E2000000000000000000000000000000000000000000000000000000000000000000000000F50000F5F5E1F50000F50000000000000000000000000000000000000000000000000000000000000000000000000000BE00000000000000000000
310
00000000000000000000000000000000000000BEBEF50000000000F500F5F5F5BEF5F5BEF500F5F5F500F500F5F5BE0000000000000000F5F5F5F5F5F5F5F5F5F5F5F5F5F5F5F5F5F5F5F5F5F5E2E2E2E2E2E2E2E2000000000000000000000000000000000000000000000000000000000000000000000000F50000F5F5E1
310
F50000000000000000000000000000000000000000000000000000000000000000000000000000000000BE0000000000000000000000000000000000000000000000000000000000BEBEF50000000000F500F5F5F5BEF500F500F500F500F500F500F5BE0000000000000000E2E2E2E2E2E2E2E2E2E2E2E2E2E2E2E2E2E2E2
310
E2E2E2E2E2E2E2E2E2E2E2000000000000000000000000000000000000000000000000000000000000000000000000000000F5F5E1F50000000000000000000000000000000000000000000000000000000000000000000000000000000000BE0000000000000000000000000000000000000000000000000000000000BEBE
310
F50000000000F500F5F5F5BEF5F5BEF500F5F50000F500F500F50000000000000000000000000000000000000000000000000000000000000000000000000000000000000000000000000000000000000000000000000000000000000000000000000000000000F5F5E1F50000000000000000000000000000000000000000
310
000000000000000000000000000000000000000000BE0000000000000000000000000000000000000000000000000000000000BEBEF500000000F5F500F5F5F5BEF5F5F500F500F5F50000F500F500000000BE0000000000000000000000000000000000000000000000000000000000000000000000000000000000000000
310
0000000000000000000000000000000000000000000000000000000000F5F5E1F50000000000000000000000000000000000000000000000000000000000000000000000000000000000BE0000000000000000000000000000000000000000000000000000000000BEBEF500000000F50000F5F5F5BEF5F5BEF500F500F5F5
310
0000F5BE000000BE0000000000000000000000000000000000000000000000000000000000000000000000000000000000000000000000000000000000000000000000000000000000000000000000000000F5F5E1F50000000000000000000000000000000000000000000000000000000000000000000000000000000000
310
BE0000000000000000000000000000000000000000000000000000000000BEBEF500000000F50000F5F5F5BEF5F5F500F500F500F5F500BE00000000BE00000000000000F500000000000000000000000000000000000000000000000000000000000000000000000000000000000000000000000000000000000000000000
310
0000000000000000F5F5E1F50000000000000000000000000000000000000000000000000000000000000000000000000000000000BEBEBEBEBEBEBEBEBEBEBEBEBEBEBEBEBEBEBEBEBEBEBEBEBEBEBEBEBEBEBEBEF5ECBEBEBEF5BE00F5F5F5BEF5F5BEF5BEF5BEF5BEF5F500000000BE000000000000F5F5F5F500000000
310
00000000000000000000000000000000000000000000000000000000000000000000000000000000000000000000000000000000000000000000000000F5F5E1F50000000000000000000000000000000000000000000000000000000000000000000000000000000000BEBEBE000000000000000000000000000000000000
310
00000000000000BEBEBEBEBEEC000000ECBE00F5F5F5BEF5F5F5F5F5F5F5F5F5BE0000000000BE0000000000000000F5000000000000000000000000000000000000000000000000000000000000000000000000000000000000000000000000000000000000000000000000000000000000F5F5E1F5000000000000000000
310
0000000000000000000000000000000000000000000000000000000000000000BE0000BEBE000000000000000000000000000000000000000000BEBE0000BEBEBEEC000000ECBE00F5F5F5F5F5F5F5F5F5F5F5F5F5F5BEBEBEBE00BE0000000000000000F50000000000000000000000000000000000000000000000000000
310
00000000000000000000000000000000000000000000000000000000000000000000000000000000F5F5E1F50000000000000000000000000000000000000000000000000000000000000000000000000000000000BE00000000BEBE0000000000000000000000000000000000BEBE00000000BEBEBEEC000000ECBE00F5F5
310
F5F5BE000000000000000000000000BEBEBE0000000000000000F5000000000000000000000000000000000000000000000000000000000000000000000000000000000000000000000000000000000000000000000000000000000000F5F5E1F50000F5000000000000000000000000000000000000000000000000000000
310
0000000000000000000000BE000000000000BEBE00000000000000000000000000BEBE000000000000BEBEBEEC000000ECBE00F5F5F5F500BE0000000000000000000000BEBEBE0000000000000000F50000000000000000000000000000000000000000000000000000000000000000000000000000000000000000000000
310
00000000000000000000000000000000F50000F5F5E1F50000F50000000000000000000000000000000000000000000000000000000000000000000000000000BE0000000000000000BEBE000000000000000000BEBE0000000000000000BEBEBEEC000000ECBE00F5F5F5F50000BE00000000000000000000BEBEBE000000
310
0000000000F5000000000000000000000000000000000000000000000000000000000000000000000000000000000000000000000000000000000000000000000000000000F50000F5F5E1F50000F50000000000000000000000000000000000000000000000000000000000000000000000000000BE000000000000000000
310
00BEBE0000000000BEBE00000000000000000000BEBEBEEC000000ECBE00F5F5F5F5000000BE000000000000000000BEBEBE0000000000000000F5000000000000000000000000000000000000000000000000000000000000000000000000000000000000000000000000000000000000000000000000000000F50000F5F5
310
E1F50000F50000000000000000000000000000000000000000000000000000000000000000000000000000BE000000000000000000000000BEBE00BEBE000000000000000000000000BEBEBEEC000000ECBE00F5F5F5F500000000BE0000000000000000BEBEBE00F500000000F5F5F5000000000000000000000000000000
310
000000000000000000000000000000000000000000000000000000000000000000000000000000000000000000000000F50000F5F5E1F50000F50000000000000000000000000000000000000000000000000000000000000000000000000000BE00000000000000000000000000BEBEBE00000000F5F5F5F5F5F5F5F5F5F5
310
F5BEECF5F5F5ECBEF5F5F5F5F5F5F5F5F5F5F5F5F5F5F5F5F5F5F5BEBEF5F500000000F5F5F5000000000000000000000000000000000000000000000000000000000000000000000000000000000000000000000000000000000000000000000000000000F50000F5F5E1F50000F500000000000000000000000000000000
310
00000000000000000000000000000000000000000000BE0000000000000000000000BEBE000000BEBE000000F5F5F5F5F5F5F5F5F5F5BEECF5F5F5ECBEF5F5F5F5F5F5F5F5F5F5F5F5F5F5F5F5F5F5F5BEBEF5F5000000000000F5000000000000000000000000000000000000000000000000000000000000000000000000
310
000000000000000000000000000000000000000000000000000000F50000F5F5E1F50000F50000000000000000000000000000000000000000000000000000000000000000000000000000BE000000000000000000BEBE00000000000000BEBE000000000000000000BEBEBEEC000000ECBE00F5F5F5F50000000000000000
310
BE00000000BEBEBE00F5000000000000F5000000000000000000000000000000000000000000000000000000000000000000000000000000000000000000000000000000000000000000000000000000F50000F5F5E1F50000F500000000000000000000000000000000000000000000000000000000000000000000000000
310
00BE00000000000000BEBE0000000000000000000000BEBE00000000000000BEBEBEEC000000ECBE00F5F5F5F5000000000000000000BE000000BEBEBE0000000000000000F5000000000000000000000000000000000000000000000000000000000000000000000000000000000000000000000000000000000000000000
310
000000000000F50000F5F5E1F50000F50000000000000000000000000000000000000000000000000000000000000000000000000000BE0000000000BEBE000000000000000000000000000000BEBE0000000000BEBEBEEC000000ECBE00F5F5F5F500000000000000000000BE0000BEBEBE0000000000000000F500000000
310
0000000000000000000000000000000000000000000000000000000000000000000000000000000000000000000000000000000000000000000000F50000F5F5E1F50000F50000000000000000000000000000000000000000000000000000000000000000000000000000BE000000BEBE0000000000000000000000000000
310
0000000000BEBE000000BEBEBEEC000000ECBE00F5F5F5F50000000000000000000000BE00BEBEBE0000000000000000F5000000000000000000000000000000000000000000000000000000000000000000000000000000000000000000000000000000000000000000000000000000F50000F5F5E1F50000F50000000000
310
000000000000000000000000000000000000000000000000000000000000000000BE00BEBE00F5000000000000000000000000000000000000000000BEBE00BEBEBEEC00F5F5ECBE00F5F5F5F500000000000000000000F500BEBEBEBE0000000000000000F500000000000000000000000000000000000000000000000000
310
0000000000000000000000000000000000000000000000000000000000000000000000000000F50000F5F5E1F50000F500000000000000000000000000000000000000000000000000000000000000000000000000BEBEBEBEBEBEBEBEBEBEBEBEBEBEBEBEBEBEBEBEBEBEBEBEBEBEBEBEBEBEBEBEBEBEECBEBEBEECBE00F5
310
F5F5F5BEBEBEBEBEBEBEBEBEBEBEBEBEBEBEBE0000000000000000F5000000000000000000000000000000000000000000000000000000000000000000000000000000000000000000000000000000000000000000000000000000F50000F5F5E1F50000F50000000000000000000000000000000000000000000000000000
310
0000000000000000000000000000000000F500000000000000000000000000000000000000000000000000BE000000F500000000000000BEBEBEBEBEBEBEBEBEBEBEF5BEBEBEBEF500F5F5F5F5F5F5F5F5F5000000000000000000000000000000000000000000000000000000000000000000000000000000000000000000
310
0000000000000000000000000000000000F50000F5F5E1F50000F500000000000000000000000000000000000000000000000000000000000000000000000000000000000000F5000000000000000000000000000000000000000000000000BEBEBEBEBEBEBEBEBEBEBEBEBE0000BEBEBEBEBEBEBEBEBEBE00000000000000
310
0000000000F5F5000000000000000000000000000000000000000000000000000000000000000000000000000000000000000000000000000000000000000000000000000000F50000F5F5E1F50000F500000000000000000000000000000000000000000000000000000000000000000000000000000000000000F5000000
310
00000000000000000000BEBEBEBEBEBEBEBEBEBEBE0000000000BEBEBEBEBEBEBEBEBEBE0000F5000000000000F50000000000000000000000E2E2E2E2E2E2E2E2E2E2E2E2E2E2E2E2E2E2E2E2E2E2E2E2E2E2E2E2E2E2000000000000000000000000000000000000000000000000000000000000000000000000F50000F5
310
F5E1F500000000000000000000000000000000000000000000000000000000000000000000000000000000000000000000F500BEBEBEBEBEBEBEBEBEBEBEBE000000000000BEBEBEBEBEBEBEBEBEBEF50000000000000000000000F5000000000000F50000000000000000000000F5F5F5F5F5F5F5F5F5E2E2E2E2E2E2E2E2
310
E2E2E2E2E2E2E2E2E2E2E2E2E2000000000000000000000000000000000000000000000000000000000000000000000000000000F5F5E1F500000000000000000000000000000000000000000000000000000000000000000000000000000000BEBEBEBEBEBEBEBEBE00000000000000BEBEBEBEBEBEBEBEBEBE0000000000
310
F500000000F50000000000000000000000F5000000000000F50000000000000000000000F5F5F5F5F5F5F5F5F5E2E2E2E2E2E2E2E2E2E2E2E2E2E2E2E2E2E2E2E2E2000000000000000000000000000000000000000000000000000000000000000000000000000000F5F5E1F5000000000000000000000000000000000000
310
00000000000000000000000000000000000000000000000000000000BEBEBEBEBEBEBEBEBEBE000000000000000000000000000000F500000000F50000000000000000000000F5000000000000F50000000000000000000000F5F5F5F5F5F5F5F5F5F5F5F5F5F5F5F5F5F5F5F5F5F5F5F5E2E2E2E2E2E20000000000000000
310
00000000000000000000000000000000000000000000000000000000000000F5F5E1F500000000000000000000000000000000000000000000000000000000000000000000000000000000BEBEBEBEBEBEF500000000000000000000000000F5F5F5F5F5F5F5F5F50000F500000000F50000000000000000000000F5000000
310
000000F50000000000000000000000F5F5F5F5F5F5F5F5F5F5F5F5F5F5F5F5F5F5F5F5F5F5F5F5E2E2E2E2E2E2000000000000000000000000000000000000000000000000000000000000000000000000000000F5F5E1F5000000000000000000000000000000000000000000000000000000000000000000000000000000
310
00000000000000F500000000000000000000000000000000F5F5F50000000000F500000000F50000000000000000000000F5000000000000F5F5F5F5F5F5F5F5F5F5F5F5F5F5F5F5F5F5F5F5F5F5F5F5F5F5F5F5F5F5F5F5F5F5F5F5F5F5F5F5F5E20000000000000000000000000000000000000000000000000000000000
310
00000000000000000000F5F5E1F500000000000000000000000000000000000000000000000000000000000000000000000000000000000000000000F500000000000000000000000000000000F5F5F50000000000F500000000F50000000000000000000000F5000000000000000000000000000000000000F5F5F5F5F5F5
310
F5F5F5F5F5F5F5F5F5F5F5F5F5F5F5F5F5F5F5F5F5F5F5E2000000000000000000000000000000000000000000000000000000000000000000000000000000F5F5E1F500000000000000000000000000000000000000000000000000000000000000000000000000000000000000000000F500000000000000000000000000
310
0000000000000000000000F500000000F50000000000000000000000F5000000000000000000000000000000000000F5F5F5F5F5F5F5F5F5F5F5F5F5F5F5F5F5F5F5F5F5F5F5F5F5F5E2E2E2E2000000000000000000000000000000000000000000000000000000000000000000000000000000F5F5E1F500000000000000
310
000000000000000000000000000000000000000000000000000000000000000000000000000000F5000000000000000000000000000000000000000000000000F500000000F50000000000000000000000F5000000000000000000000000000000000000F5F5F5F5F5F5F5F5F5F5F5F5F5F5F5F5F5F5F5F5F5F5F5F5F5F5E2
310
E2E2E2000000000000000000000000000000000000000000000000000000000000000000000000000000F5F5E1F500000000000000000000000000000000000000000000000000000000000000000000000000000000000000000000F5000000000000000000000000000000000000000000000000F500000000F500000000
310
00000000000000F5000000000000000000000000000000000000E2E2E2E2E2E2E2E2E2E2E2E2E2E2E2E2E2E2E2E2E2E2E2E2E2E2E2E2E2E2000000000000000000000000000000000000000000000000000000000000000000000000000000F5F5E1F50000F500000000000000000000000000000000000000000000000000
310
000000000000000000000000000000000000F5000000000000000000000000000000000000000000000000F500000000F50000000000000000000000F5000000000000000000000000000000000000F5F5F5F5F5F5F5F5F5F5F5F5F5F5F5F5E2E2E2E2E2E2E2E2E2E2E2E2E2E2000000000000000000000000000000000000
310
000000000000000000000000000000000000F50000F5F5E1F50000F500000000000000000000000000000000000000000000000000000000000000000000000000000000000000F5000000000000000000000000000000000000000000000000F500000000F50000000000000000000000F500000000000000000000000000
310
0000000000F5F5F5F5F5F5F5F5F5F5F5F5F5F5F5F5E2E2E2E2E2E2E2E2E2E2E2E2E2E2000000000000000000000000000000000000000000000000000000000000000000000000F50000F5F5E1F50000F500000000000000000000000000000000000000000000000000000000000000000000000000000000000000F50000
310
00000000000000000000000000000000000000000000F500000000F50000000000000000000000F5000000000000000000000000000000000000F5F5F5F5F5F5F5F5F5F5F5F5F5F5F5F5F5F5F5F5F5F5F5F5F5E2E2E2E2E2000000000000000000000000000000000000000000000000000000000000000000000000F50000
310
F5F5E1F50000F500000000000000000000000000000000000000000000000000000000000000000000000000000000000000F5000000000000000000000000000000000000000000000000F500000000F50000000000000000000000F5F5F5F5F5F5F5F5F5F5F5F5F5F5F5F5F5F5F5F5F5F5F5F5F5F5F5F5F5F5F5F5F5F5F5
310
F5F5F5F5F5F5F5F5F5E2E2E2E2E2000000000000000000000000000000000000000000000000000000000000000000000000F50000F5F5E1F50000F500000000000000000000000000000000000000000000000000000000000000000000000000000000000000F50000000000000000000000000000000000000000000000
310
00F500000000F5000000000000000000000000000000000000000000000000000000000000F5F5F5F5F5F5F5F5F5F5F5F5F5F5F5F5F5F5F5E2E2E2E2E2E2E2E2E2E2E2000000000000000000000000000000000000000000000000000000000000000000000000F50000F5F5E1F50000F50000000000000000000000000000
310
0000000000000000000000000000000000000000000000000000000000F5000000000000000000000000000000000000000000000000F500000000F5000000000000000000000000000000000000000000000000000000000000F5F5F5F5F5F5F5F5F5F5F5F5F5F5F5F5F5F5F5E2E2E2E2E2E2E2E2E2E2E200000000000000
310
0000000000000000000000000000000000000000000000000000000000F50000F5F5E1F50000F500000000000000000000000000000000000000000000000000000000000000000000000000000000000000F5000000000000000000000000000000000000000000000000F500000000F50000000000000000000000000000
310
00000000000000000000000000000000E2E2E2E2E2E2E2E2E2E2E2E2E2E2E2E2E2E2E2E2E2E2E2E2E2E2E2E2E2E2000000000000000000000000000000000000000000000000000000000000000000000000F50000F5F5E1F50000F50000000000000000000000000000000000000000000000000000000000000000000000
310
0000000000000000F5000000000000000000000000000000000000000000000000F500000000F500000000000000000000000000000000000000000000000000000000000000000000000000000000000000000000000000000000000000000000000000000000000000000000000000000000000000000000000000000000
310
0000000000000000F50000F5F5E1F50000F500000000000000000000000000000000000000000000000000000000000000000000000000000000000000F5000000000000000000000000000000000000000000000000F500000000F5000000000000000000000000000000000000000000000000000000000000F5F5F5F5F5
310
F5F5F5F5F5F5F5F5F5F5F5F5F5F5F5F5F5F5F5F5E2E2E2E2E2000000000000000000000000000000000000000000000000000000000000000000000000F50000F5F5E1F50000F500000000000000000000000000000000000000000000000000000000000000000000000000000000000000F5000000000000000000000000
310
000000000000000000000000F500000000F5F5F5F5F5F5F5F5F5F5F5F5F5F5F5F5F5F5F5F5F5F5F5F5F5F5F5F5F5F5F5F5F5F5F5F5F5F5F5F5F5F5F5F5F5F5F5F5F5F5F5F5F5F5F5F5E2E2E2E2E2000000000000000000000000000000000000000000000000000000000000000000000000F50000F5F5E1F50000F5000000
310
00000000000000000000000000000000000000000000000000000000000000000000000000000000F5000000000000000000000000000000000000000000000000F50000000000000000000000000000000000000000000000000000000000000000000000E2E2E2E2E2E2E2E2E2E2E2E2E2E2E2E2E2E2E2E2E2E2E2E2E2E2
310
E2E2E2E2000000000000000000000000000000000000000000000000000000000000000000000000F50000F5F5E1F50000F500000000000000000000000000000000000000000000000000000000000000000000000000000000000000F5000000000000000000000000000000000000000000000000F50000000000000000
310
000000000000000000000000000000000000000000000000000000000000000000000000000000000000000000000000000000000000000000000000000000000000000000000000000000000000000000000000000000000000000000F50000F5F5E1F50000F5000000000000000000000000000000000000000000000000
310
00000000000000000000000000000000000000F5000000000000000000000000000000000000000000000000F50000000000000000000000000000000000000000000000000000000000000000000000F5F5F5F5F5F5F5F5F5F5F5F5F5F5F5F5F5F5F5F5F5F5F5F5F5F5F5F5F5E20000000000000000000000000000000000
310
00000000000000000000000000000000000000F50000F5F5E1F50000F500000000000000000000000000000000000000000000000000000000000000000000000000000000000000F5000000000000000000000000000000000000000000000000F50000000000000000000000000000000000000000000000000000000000
310
000000000000F5F5F5F5F5F5F5F5F5F5F5F5F5F5F5F5F5F5F5F5F5F5F5F5F5F5F5F5F5E2000000000000000000000000000000000000000000000000000000000000000000000000F50000F5F5E1F50000F500000000000000000000000000000000000000000000000000000000000000000000000000000000000000F500
310
0000000000000000000000000000000000000000000000F50000000000000000000000000000000000000000000000000000000000000000000000F5F5F5F5F5F5F5F5F5F5F5F5F5F5F5F5F5F5F5F5E2E2E2E2E2E2E2E2E2E2000000000000000000000000000000000000000000000000000000000000000000000000F500
310
00F5F5E1F500000000000000000000000000000000000000000000000000000000000000000000000000000000000000000000F5000000000000000000000000000000000000000000000000F5F5F5F5F5F5F5F5F5F5F5F5F5F5F5F5F5F5F5F5F5F5F5F5F5F5F5F5F5F5F5F5F5F5F5F5F5F5F5F5F5F5F5F5F5F5F5F5F5F5F5
310
F5F5F5F5F5E2E2E2E2E2E2E2E2E2E2000000000000000000000000000000000000000000000000000000000000000000000000000000F5F5E1F500000000000000000000000000000000000000000000000000000000000000000000000000000000000000000000F500000000000000000000000000000000000000000000
310
0000000000000000000000000000000000000000000000000000000000000000000000000000F5F5F5F5F5F5F5F5F5F5F5F5F5F5F5F5F5F5F5F5F5E2E2E2E2E2E2E2E2E2000000000000000000000000000000000000000000000000000000000000000000000000000000F5F5E1F500000000000000000000000000000000
310
000000000000000000000000000000000000000000000000000000000000F5000000000000000000000000000000000000000000000000000000000000000000000000000000000000000000000000000000000000000000000000F5F5F5F5F5F5F5F5F5F5F5F5F5F5F5F5F5F5F5F5F5E2E2E2E2E2E2E2E2E2000000000000
310
000000000000000000000000000000000000000000000000000000000000000000F5F5E1F500000000000000000000000000000000000000000000000000000000000000000000000000000000000000000000F500000000000000000000000000000000000000000000000000000000000000000000000000000000000000
310
0000000000000000000000000000000000E2E2E2E2E2E2E2E2E2E2E2E2E2E2E2E2E2E2E2E2E2E2E2E2E2E2E2E2E2E2000000000000000000000000000000000000000000000000000000000000000000000000000000F5F5E1F500000000000000000000000000000000000000000000000000000000000000000000000000
310
000000000000000000F5000000000000000000000000000000000000000000000000000000000000000000000000000000000000000000000000000000000000000000000000000000000000000000000000000000000000000000000000000000000000000000000000000000000000000000000000000000000000000000
310
000000000000000000000000F5F5E1F500000000000000000000000000000000000000000000000000000000000000000000000000000000000000000000F500000000000000000000000000000000000000000000000000000000000000000000000000000000000000000000000000000000000000000000000000000000
310
0000000000000000000000000000000000000000000000000000000000000000000000000000000000000000000000000000000000000000000000000000000000F5F5E1F500000000000000000000000000000000000000000000000000000000000000000000000000000000000000000000F50000000000000000000000
310
00000000000000000000000000000000000000000000000000000000000000000000000000000000000000000000000000000000000000000000000000000000000000000000000000000000000000000000000000000000000000000000000000000000000000000000000000000000000000000000F5F5E1F50000000000
310
0000000000000000000000000000000000000000000000000000000000000000000000000000000000F5000000000000000000000000000000000000000000000000000000000000000000000000000000000000000000000000000000000000000000000000F5F5F5F5F5F5F5F5F5F5F5F5F5E2E2E2E20000000000000000
310
0000000000000000000000000000000000000000000000000000000000000000000000000000000000000000F5F5E1F500000000000000000000000000000000000000000000000000000000000000000000000000000000000000000000F5F5F5F5F5F5F5F5F5F5F5F5F5F5F5F5F5F5F5F5F5F5F5F5F5F5F5F5F5F5F5F5F5
310
F5F5F5F5F5F5F5F5F5F5F5F5F5F5F5F5F5F5F5F5F5F5F5F5F5F5F5F5F5F5F5F5F5F5F5F5F5F5F5F5F5E2E2E2E200000000000000000000000000000000000000000000000000000000000000000000000000000000000000000000000000000000F5F5E1F50000F50000000000000000000000000000000000000000000000
310
000000000000000000000000000000000000000000000000000000000000000000000000000000000000000000000000000000000000000000000000000000000000000000000000000000000000000000E2E2E2E2E2E2E2E2E2E2E2E2E2E2E2E2E20000000000000000000000000000000000000000000000000000000000
310
0000000000000000000000000000000000000000F50000F5F5E1F50000F500000000000000000000000000000000000000000000000000000000000000000000000000000000000000000000000000000000000000000000000000000000000000000000000000000000000000000000000000000000000000000000000000
310
00000000000000000000000000000000000000000000000000000000000000000000000000000000000000000000000000000000000000000000000000000000000000000000000000F50000F5F5E1F50000F50000000000000000000000000000000000000000000000000000000000000000000000000000000000000000
310
000000000000000000000000000000000000000000000000000000000000000000000000000000000000000000000000000000000000000000000000000000000000000000000000000000000000000000000000000000000000000000000000000000000000000000000000000000000000000000000000000000000000F5
310
0000F5F5E1F50000F500000000000000000000000000000000000000000000000000000000000000000000000000000000000000000000000000000000000000000000000000000000000000000000000000000000000000000000000000000000000000000000000000000000000000000000000000000000000000000000
310
00000000000000000000000000000000000000000000000000000000000000000000000000000000000000000000000000000000F50000F5F5E1F50000F50000000000000000000000000000000000000000000000000000000000000000000000000000000000000000000000000000000000000000000000000000000000
310
000000000000000000000000000000000000000000000000000000000000000000000000000000000000000000000000000000000000000000000000000000000000000000000000000000000000000000000000000000000000000000000000000000000000000000F50000F5F5E1F50000F5000000000000000000000000
310
00000000000000000000000000000000000000000000000000000000000000000000000000000000000000000000000000000000000000000000000000000000000000000000000000000000000000000000000000000000000000000000000000000000000000000000000000000000000000000000000000000000000000
310
00000000000000000000000000000000000000000000000000000000000000F50000F5F5E1F50000F50000000000000000000000000000000000000000000000000000000000000000000000000000000000000000000000000000000000000000000000000000000000000000000000000000000000000000000000000000
310
000000000000000000000000000000000000000000000000000000000000000000000000000000000000000000000000000000000000000000000000000000000000000000000000000000000000000000000000F50000F5F5E1F50000F5F5F5F5F5F5F5F5000000000000000000F5F5F5F5F5F5F5F5F5F5F5F5F5F5F5F500
310
0000000000000000F5F5F5F5F5F5F5F5F5F5F5F5F5F5F5000000000000000000F5F5F5F5F5F5F5F5F5F5F5F5F5F5F5F50000000000000000F5F5F5F5F5F5F5F5F5F5F5F5F5F5F5F5000000000000000000F5F5F5F5F5F5F5F5F5F5F5F5F5F5F5000000000000000000F5F5F5F5F5F5F5F5F5F5F5F5F5F5F5F5000000000000
310
000000F5F5F5F5F5F5F5F50000F5F5E1F50000000000000000000000000000000000000000000000000000000000000000000000000000000000000000000000000000000000000000000000000000000000000000000000000000000000000000000000000000000000000000000000000000000000000000000000000000
310
000000000000000000000000000000000000000000000000000000000000000000000000000000000000000000000000000000000000000000000000000000000000F5F5E1F5000000000000000000000000000000000000000000000000000000000000000000000000000000000000000000000000000000000000000000
310
0000000000000000000000000000000000000000000000000000000000000000000000000000000000000000000000000000000000000000000000000000000000000000000000000000000000000000000000000000000000000000000000000000000000000000000000000000000000000000000000F5E1E1F5F5F5F5F5
310
F5F5F5F5F5F5F5F5F5F5F5F5F5F5F5F5F5F5F5F5F5F5F5F5F5F5F5F5F5F5F5F5F5F5F5F5F5F5F5F5F5F5F5F5F5F5F5F5F5F5F5F5F5F5F5F5F5F5F5F5F5F5F5F5F5F5F5F5F5F5F5F5F5F5F5F5F5F5F5F5F5F5F5F5F5F5F5F5F5F5F5F5F5F5F5F5F5F5F5F5F5F5F5F5F5F5F5F5F5F5F5F5F5F5F5F5F5F5F5F5F5F5F5F5F5F5F5
310
F5F5F5F5F5F5F5F5F5F5F5F5F5F5F5F5F5F5F5F5F5F5F5F5F5F5F5F5F5F5F5F5F5F5F5F5F5F5F5F5F5F5F5F5F5F5E1E1
  0
XRECORD
  5
44D
102
{ACAD_REACTORS
330
44C
102
}
330
44C
100
AcDbXrecord
280
     1
310
280000000001000078000000010008000000000000780000000000000000000000010000000000003028210000000000C8C8C8000000000000000000000000000000000000000000000000000000000000000000330000006600000099000000CC000000FF00000000330000333300006633000099330000CC330000FF3300
310
0000660000336600006666000099660000CC660000FF66000000990000339900006699000099990000CC990000FF99000000CC000033CC000066CC000099CC0000CCCC0000FFCC000000FF000033FF000066FF000099FF0000CCFF0000FFFF000000003300330033006600330099003300CC003300FF003300003333003333
310
33006633330099333300CC333300FF33330000663300336633006666330099663300CC663300FF66330000993300339933006699330099993300CC993300FF99330000CC330033CC330066CC330099CC3300CCCC3300FFCC330000FF330033FF330066FF330099FF3300CCFF3300FFFF330000006600330066006600660099
310
006600CC006600FF00660000336600333366006633660099336600CC336600FF33660000666600336666006666660099666600CC666600FF66660000996600339966006699660099996600CC996600FF99660000CC660033CC660066CC660099CC6600CCCC6600FFCC660000FF660033FF660066FF660099FF6600CCFF6600
310
FFFF660000009900330099006600990099009900CC009900FF00990000339900333399006633990099339900CC339900FF33990000669900336699006666990099669900CC669900FF66990000999900339999006699990099999900CC999900FF99990000CC990033CC990066CC990099CC9900CCCC9900FFCC990000FF99
310
0033FF990066FF990099FF9900CCFF9900FFFF99000000CC003300CC006600CC009900CC00CC00CC00FF00CC000033CC003333CC006633CC009933CC00CC33CC00FF33CC000066CC003366CC006666CC009966CC00CC66CC00FF66CC000099CC003399CC006699CC009999CC00CC99CC00FF99CC0000CCCC0033CCCC0066CC
310
CC0099CCCC00CCCCCC00FFCCCC0000FFCC0033FFCC0066FFCC0099FFCC00CCFFCC00FFFFCC000000FF003300FF006600FF009900FF00CC00FF00FF00FF000033FF003333FF006633FF009933FF00CC33FF00FF33FF000066FF003366FF006666FF009966FF00CC66FF00FF66FF000099FF003399FF006699FF009999FF00CC
310
99FF00FF99FF0000CCFF0033CCFF0066CCFF0099CCFF00CCCCFF00FFCCFF0000FFFF0033FFFF0066FFFF0099FFFF00CCFFFF00FFFFFF00000000000D0D0D001A1A1A00282828003535350043434300505050005D5D5D006B6B6B00787878008686860093939300A1A1A100AEAEAE00BBBBBB00C9C9C900D6D6D600E4E4E400
310
F1F1F100FFFFFF000000000000000000000000000000000000000000000000000000000000000000000000000000000000000000000000000000000000000000000000000000000000000000000000000000000000000000000000000000000000000000000000000000000000000000000000000000000000000000000000
310
00000000000000000000000000000000000000000000000000000000000000000000000000000000000000000000000000000000000000000000000000000000000000000000000000000000000000000000000000000000000000000000000000000000000000000000000000000000000000000000000000000000000000
310
00000000000000000000000000000000000000000000000000000000000000000000000000000000000000000000000000000000000000000000000000000000000000000000000000000000000000000000000000000000000000000000000000000000000000000000000000000000000000000000000000000000000000
310
00000000000000000000000000000000000000000000000000000000000000000000000000000000000000000000000000000000000000000000000000000000000000000000000000000000000000000000000000000000000000000000000000000000000000000000000000000000000000000000000000000000000000
310
00000000000000000000000000000000000000000000000000000000000000000000000000000000000000000000000000000000000000000000000000000000000000000000000000000000000000000000000000000000000000000000000000000000000000000000000000000000000000000000000000000000000000
310
00000000000000000000000000000000000000000000000000000000000000000000000000000000000000000000000000000000000000000000000000000000000000000000000000000000003535353535353535353535353535353535353535353535353535353535353535353535353500000000000000000000000000
310
00000000000000000000000000000000000000000000000000000000000000000000000000000000000000000000000000000000000000000000000000000000000000000000000000000000000000000000000000000000000000000000000000000000000000000000000000000000000000000000000000000000000000
310
00000000000000000000000000000000000000000000000000000000000000000000000000000000000000000000000000000000000000000000000000000000000000000000000000000000000000F5F5F5F5F5F5F5F5F5F5F5F5F5F5F5F5F5F5F5F5F5F5F5F5F5F5F5F5F5F5353535353535350000000000000000000000
310
00000000000000000000000000000000000000000000000000000000000000000000000000000000000000000000000000000000000000000000000000000000000000000000000000000000000000000000000000000000000000000000000000000000000000000000000000000000000000000000000000000000000000
310
0000000000000000000000000000000000000000000000000000F5F5F5F5F5F5F5F5F5F5F5F5F5F5F5F5F5F5F5F5F5F5F5F5F5F5F5F5F5F5F5F5F5F5F5F5F5F5F5F5F5F5F5F5F5F5F5F5F5F5F5F5F5F5F5F5F5F5F5F5F5F5F5F5F5F5F5F5F5F5F5F5F5F5F5F5F5F5F5F5F5F5F5F5F535353535353535000000000000000000
310
00000000000000000000000000000000000000000000000000000000000000000000000000000000000000000000000000000000000000000000000000000000000000000000000000000000000000000000000000000000000000000000000000000000000000000000000000000000000000000000000000000000000000
310
00000000000000000000000000000000000000000000000000000000F5F50000000000000000000000000000000000000000000000000000000000000000000000000000000000000000000000000000000000F5F5F5F5F5F5F5F5F5F5F5F5F5F5F5F5F5F5F5F5F5F5F5F5F5F5F5F5F5F53535353535353500000000000000
310
00000000000000000000000000000000000000000000000000000000000000000000000000000000000000000000000000000000000000000000000000000000000000000000000000000000000000000000000000000000000000000000000000000000000000000000000000000000000000000000000000000000000000
310
00000000000000000000000000000000000000000000000000000000000000000000000000000000000000000000000000000000000000000000000000000000000000000000000000000000000000000000000000353535353535353535353535353535353535353535353535353535353535353535353535350000000000
310
00000000000000000000000000000000000000000000000000000000000000000000000000000000000000000000000000000000000000000000000000000000000000000000000000000000000000000000000000000000000000000000000000000000000000000000000000000000000000000000000000000000000000
310
00000000000000000000000000000000000000000000000000000000000000000000000000000000000000000000000000000000000000000000000000000000000000000000000000000000000000000000000000000000000000000000000000000000000000000000000000000000000000000000000000000000000000
310
00000000000000000000000000000000000000000000000000000000000000000000000000000000000000000000000000000000000000000000000000000000000000000000000000000000000000000000000000000000000000000000000000000000000000000000000000000000000000000000000000000000000000
310
00000000000000000000000000000000000000000000000000000000000000000000000000000000000000000000000000000000000000000000000000000000000000000000000000000000000000000000000000000000000000000000000000000000000000000000000000000000000000000000000000000000000000
310
00000000000000000000000000000000000000000000000000000000000000000000000000000000000000000000000000000000000000000000000000000000000000000000000000000000000000000000000000000000000000000000000000000000000000000000000000000000000000000000000000000000000000
310
00000000000000000000000000000000000000000000000000000000000000000000000000000000000000000000000000000000000000000000000000000000000000000000000000000000000000000000000000000000000000353535353535353535353535353535353535353535353535353535353535353535353535
310
35353535353535353535353535353535353535350000000000000000000000000000000000000000000000000000000000000000000000000000000000000000000000000000000000000000000000000000000000000000000000000000000000000000000000000000000000000000000000000000000000000000000000
310
000000000000000000000000000000000000000000000000000000000000000000000000000000000000000000000000000000000000000000000000000000000000000000000000000000000000000000000000000000000000000000F5F5F5F5F5F5F5F5F5F5F5F535353535353535353535353535353535353535353535
310
35353535353535353535353535353535353535353535000000000000000000000000000000000000000000000000000000000000000000000000000000000000000000000000000000000000000000000000000000000000000000000000000000000000000000000000000000000000000000000000000000000000000000
310
0000000000000000000000000000000000000000000000000000000000000000000000000000000000000000000000000000000000000000000000000000000000000000000000000000000000000000000000000000000000000000000000F5F5F5F5F5F5F5F5F5F5F5F53535353535353535353535353535353535353535
310
35353535353535353535353535353535353535353535353500000000000000000000000000000000000000000000000000000000000000000000000000000000000000000000000000000000000000000000000000000000000000000000000000000000000000000000000000000000000000000000000000000000000000
310
00000000000000000000000000000000000000000000000000000000000000000000000000000000000000000000000000000000000000000000000000000000000000000000000000000000000000000000000000000000000000000000000000F5F5F5F5F5F5F5F5F5F5F5F5353535353535353535353535353535353535
310
35353535353535353535353535353535353535353535353535350000000000000000000000000000000000000000000000000000000000000000000000000000000000000000000000000000000000000000000000000000000000000000000000000000000000000000000000000000000000000000000000000000000000
310
000000000000000000000000000000000000000000000000000000000000000000000000000000000000000000000000000000000000000000000000000000000000000000000000000000000000000000000000000000000000000000000000000000F5F5F5F5F5F5F5F5F5F5F5F5F5F5F5F5F5F5F5F5F5F5F5F5F5F5F5F5
310
F5F5F5F5F5F5F5F5F5F5F53535353535353535353535353535353535000000000000000000000000000000000000000000000000000000000000000000000000000000000000000000000000000000000000000000000000000000000000000000000000000000000000000000000000000000000000000000000000000000
310
0000000000000000000000000000000000000000000000000000000000000000000000000000000000000000000000000000000000000000000000000000000000000000000000000000000000000000000000000000000000000000000000000000000000F5F5F5F5F5F5F5F5F5F5F5F5F5F5F5F5F5F5F5F5F5F5F5F5F5F5
310
F5F5F5F5F5F5F5F5F5F5F5F5F5353535353535353535353535353535353500000000000000000000000000000000000000000000000000000000000000000000000000000000000000000000000000000000000000000000000000000000000000000000000000000000000000000000000000000000000000000000000000
310
00000000000000000000000000000000000000000000000000000000000000000000000000000000000000000000000000000000000000000000000000000000000000000000000000000000000000000000000000000000000000000000000000000000000000F5F5F5F5F5F5F5F5F5F5F5F5F5F5F5F5F5F5F5F5F5F5F5F5
310
F5F5F5F5F5F5F5F5F5F5F5F5F5F5F535353535353535353535353535353535350000000000000000000000000000000000000000000000000000000000000000000000000000000000000000000000000000000000000000000000000000000000000000000000000000000000000000000000000000000000000000000000
310
000000000000000000000000000000000000000000000000000000000000000000000000000000000000000000000000000000000000000000000000000000000000000000000000000000000000000000000000000000000000000000000000000000000000000000F5F5F5F5F5F5F5F5F5F5F5F5F5F5F5F5F5F5F5F5F5F5
310
F5F5F5F5F5F5F5F5F5F5F5F5F5F5F5F5F5F5F5F5F5F5F53535353535353535353535000000000000000000000000000000000000000000000000000000000000000000000000000000000000000000000000000000000000000000000000000000000000000000000000000000000000000000000000000000000000000000
310
0000000000000000000000000000000000000000000000000000000000000000000000000000000000000000000000000000000000000000000000000000000000000000000000000000000000000000000000000000000000000000000000000000000000000000000000F5F5F5F5F5F5F5F5F5F5F5F5F5F5F5F5F5F5F5F5
310
F5F5F5F5F5F5F5F5F5F5F5F5F5F5F5F5F5F5F5F5F5F5F5F5F5353535353535353535353500000000000000000000000000000000000000000000000000000000000000000000000000000000000000000000000000000000000000000000000000000000000000000000000000000000000000000000000000000000000000
310
00000000000000000000000000000000000000000000000000000000000000000000000000000000000000000000000000000000000000000000000000000000000000000000000000000000000000000000000000000000000000000000000000000000000000000000000000F5F5F5F5F5F5F5F5F5F5F5F5F5F5F5F5F5F5
310
F5F5F5F5F5F5F5F5F5F5F5F5F5F5F5F5F5F5F5F5F5F5F5F5F5F5F535353535353535353535350000000000000000000000000000000000000000000000000000000000000000000000000000000000000000000000000000000000000000000000000000000000000000000000000000000000000000000000000000000000
310
000000000000000000000000000000000000000000000000000000000000000000000000000000000000000000000000000000000000000000000000000000000000000000000000000000000000000000000000000000000000000000000000F5F5F5F5F5F5F5F5F5F5F5F5F5F5F5F5F5F5F5F5F5F5F5F5F5F5F5F5F5F5F5
310
F5F5F5F5F5F5F5F5F5F5F5F5F5F5F5F5F5F5F5F5F5F5F5F535353535353535353535353535353535000000000000000000000000000000000000000000000000000000000000000000000000000000000000000000000000000000000000000000000000000000000000000000000000000000000000000000000000000000
310
000000000000000000000000000000000000000000000000000000000000000000000000000000000000000000000000000000000000000000000000000000000000000000000000000000000000000000000000000000000000000000000000000000F500000000000000000000000000F5F5F5F5F5F5F5F5F5F5F5F5F5F5
310
F5F5F5F5F5F5F5F5F5F5F5F5F5F5F5F5F5F5F5F5F5F5F5F5F5F53535353535353535353535353535353500000000000000000000000000000000000000000000000000000000000000000000000000000000000000000000000000000000000000000000000000000000000000000000000000000000000000000000000000
310
00000000000000000000000000000000000000000000000000000000000000000000000000000000000000000000000000000000000000000000000000000000000000000000000000000000000000000000000000000000000000000000000000000000000000000000000000000000000000F5F5F5F5F5F5F5F5F5F5F5F5
310
F5F5F5F5F5F5F5F5F5F5F5F5F5F5F5F5F5F5F5F5F5F5F5F5F5F5F5F5353535353535353535353535353535350000000000000000000000000000000000000000000000000000000000000000000000000000000000000000000000000000000000000000000000000000000000000000000000000000000000000000000000
310
000000000000000000000000000000000000000000000000000000000000000000000000000000000000000000000000000000000000000000000000000000000000000000000000000000000000000000000000000000000000000000000000000000000000000000000000000000000000000000F5F5F5F5F5F5F5F5F5F5
310
F5F5F5F5F5F5F5F5F5F5F5F5F5F5F5F5F5F5F5F5F5F5F5F5F5F5F5F5F5F535353535353535353535353535353535000000000000000000000000000000000000000000000000000000000000000000000000000000000000000000000000000000000000000000000000000000000000000000000000000000000000000000
310
0000000000000000000000000000000000000000000000000000000000000000000000000000000000000000000000000000000000000000000000000000000000000000000000000000000000000000000000000000000000000000000000000000000000000000000000000000000000000000000000F5F5F5F5F5F5F5F5
310
F5F5F5F5F5F5F5F5F5F5F5F5F5F5F5F5F5F5F5F5F5F5F5F5F5F5F5F5F5F5F5F5F535353535353535353535353535353500000000000000000000000000000000000000000000000000000000000000000000000000000000000000000000000000000000000000000000000000000000000000000000000000000000000000
310
00000000000000000000000000000000000000000000000000000000000000000000000000000000000000000000000000000000000000000000000000000000000000000000000000000000000000000000000000000000000000000000000000000000000000000000000000000000000000000000000000F5F5F5F5F5F5
310
F5F5F5F5F5F5F5F5F5F5F5F5F5F5F5F5F5F5F5F5F5F5F5F5F5F5F5F5F5F5F5F5F5F5F53535353535353535353535353535350000000000000000000000000000000000000000000000000000000000000000000000000000000000000000000000000000000000000000000000000000000000000000000000000000000000
310
000000000000000000000000000000000000000000000000000000000000000000000000000000000000000000000000000000000000000000000000000000000000000000000000000000000000000000000000000000000000000000000000000000000000000000000000000000000000000000000000000000F5F5F5F5
310
F5F5F5F5F5F5F5F5F5F5F5F5F5F5F5F5F5F5F5F5F5F5F5F5F5F5F5F5F5F5F5F5F5F5F5F5F5353535353535353535353535353535000000000000000000000000000000000000000000000000000000000000000000000000000000000000000000000000000000000000000000000000000000000000000000000000000000
310
0000000000000000000000000000000000000000000000000000000000000000000000000000000000000000000000000000000000000000000000000000000000000000000000000000000000000000000000000000000000000000000000000000000000000000000000000000000000000000000000000000000000F5F5
310
F5F5F5F5F5F5F5F5F5F5F5F5F5F5F5F5F5F5F5F5F5F5F5F5F5F5F5F5F5F5F5F5F535353535353535353535353535353535353535353500000000000000000000000000000000000000000000000000000000000000000000000000000000000000000000000000000000000000000000000000000000000000000000000000
310
00000000000000000000000000000000000000000000000000000000000000000000000000000000000000000000000000000000000000000000000000000000000000000000000000000000000000000000000000000000000000000000000000000000000000000000000000000000000000000000000000000000000000
310
F5F5F5F5F5F5F5F5F5F5F5F5F5F5F5F5F5F5F5F5F5F5F5F5F5F5F5F5F5F5F5F5F5F5F53535353535353535353535353535353535353535350000000000000000000000000000000000000000000000000000000000000000000000000000000000000000000000000000000000000000000000000000000000000000000000
310
00000000000000000000000000000000000000000000000000000000000000000000000000000000000000000000000000000000000000000000000000000000000000000000000000000000000000000000000000000000000000000000000000000000000000000000000000000000000000000000000000000000000000
310
0000F5F5F5F5F5F5F5F5F5F5F5F5F5F5F5F5F5F5F5F5F5F5F5F5F5F5F5F5F5F5F5F5F5F5F5353535353535353535353535353535353535353535000000000000000000000000000000000000000000000000000000000000000000000000000000000000000000000000000000000000000000000000000000000000000000
310
00000000000000000000000000000000000000000000000000000000000000000000000000000000000000000000000000000000000000000000000000000000000000000000000000000000000000000000000000000000000000000000000000000000000000000000000000000000000000000000000000000000000000
310
00000000353535353535353535353535353535353535353535353535353535353535353535353535353535353535353535353535353535353535353500000000000000000000000000000000000000000000000000000000000000000000000000000000000000000000000000000000000000000000000000000000000000
310
00000000000000000000000000000000000000000000000000000000000000000000000000000000000000000000000000000000000000000000000000000000000000000000000000000000000000000000000000000000000000000000000000000000000000000000000000000000000000000000000000000000000000
310
00000000000000000000000000000000000000000000000000000000000000000000000000000000000000000000000000000000000000000000000000000000000000000000000000000000000000000000000000000000000000000000000000000000000000000000000000000000000000000000000000000000000000
310
00000000000000000000000000000000000000000000000000000000000000000000000000000000000000000000000000000000000000000000000000000000000000000000000000000000000000000000000000000000000000000000000000000000000000000000000000000000000000000000000000000000000000
310
00000000000000000000000000000000000000000000000000000000000000000000000000000000000000000000000000000000000000000000000000000000000000000000000000000000000000000000000000000000000000000000000000000000000000000000000000000000000000000000000000000000000000
310
00000000000000000000000000000000000000000000000000000000000000000000000000000000000000000000000000000000000000000000000000000000000000000000000000000000000000000000000000000000000000000000000000000000000000000000000000000000000000000000000000000000000000
310
00000000000000000000000000000000000000000000000000000000000000000000000000000000000000000000000000000000000000000000000000000000000000000000000000000000000000000000000000000000000000000000000000000000000000000000000000000000000000000000000000000000000000
310
00000000000000000000000000000000000000000000000000000000000000000000000000000000000000000000000000000000000000000000000000000000000000000000000000000000000000000000000000000000000000000000000000000000000000000000000000000000000000000000000000000000000000
310
00000000000000000000000000000000000000000000000000000000000000000000000000000000000000000000000000000000000000000000000000000000000000000000000000000000000000000000000000000000000000000000000000000000000000000000000000000000000000000000000000000000000000
310
00000000000000000000000000000000000000000000000000000000000000000000000000000000000000000000000000000000000000000000000000000000000000000000000000000000000000000000000000000000000000000000000000000000000000000000000000000000000000000000000000000000000000
310
00000000000000000000000000000000000000000000000000000000000000000000000000000000000000000000000000000000000000000000000000000000000000000000000000000000000000000000000000000000000000000000000000000000000000000000000000000000000000000000000000000000000000
310
00000000000000000000000000000000000000000000000000000000000000000000000000000000000000000000000000000000000000000000000000000000000000000000000000000000000000000000000000000000000000000000000000000000000000000000000000000000000000000000000000000000000000
310
00000000000000000000000000000000000000000000000000000000000000000000000000000000000000000000000000000000000000000000000000000000000000000000000000000000000000000000000000000000000000000000000000000000000000000000000000000000000000000000000000000000000000
310
00000000000000000000000000000000000000000000000000000000000000000000000000000000000000000000000000000000000000000000000000000000000000000000000000000000000000000000000000000000000000000000000000000000000000000000000000000000000000000000000000000000000000
310
00000000000000000000000000000000000000000000000000000000000000000000000000000000000000000000000000000000000000000000000000000000000000000000000000000000000000000000000000000000000000000000000000000000000000000000000000000000000000000000000000000000000000
310
00000000000000000000000000000000000000000000000000000000000000000000000000000000000000000000000000000000000000000000000000000000000000000000000000000000000000000000000000000000000000000000000000000000000000000000000000000000000000000000000000000000000000
310
00000000000000000000000000000000000000000000000000000000000000000000000000000000000000000000000000000000000000000000000000000000000000000000000000000000000000000000000000000000000000000000000000000000000000000000000000000000000000000000000000000000000000
310
00000000000000000000000000000000000000000000000000000000000000000000000000000000000000000000000000000000000000000000000000000000000000000000000000000000000000000000000000000000000000000000000000000000000000000000000000000000000000000000000000000000000000
310
00000000000000000000000000000000000000000000000000000000000000000000000000000000000000000000000000000000000000000000000000000000000000000000000000000000000000000000000000000000000000000000000000000000000000000000000000000000000000000000000000000000000000
310
00000000000000000000000000000000000000000000000000000000000000000000000000000000000000000000000000000000000000000000000000000000000000000000000000000000000000000000000000000000000000000000000000000000000000000000000000000000000000000000000000000000000000
310
00000000000000000000000000000000000000000000000000000000000000000000000000000000000000000000000000000000000000000000000000000000000000000000000000000000000000000000000000000000000000000000000000000000000000000000000000000000000000000000000000000000000000
310
00000000000000000000000000000000000000000000000000000000000000000000000000000000000000000000000000000000000000000000000000000000000000000000000000000000000000000000000000000000000000000000000000000000000000000000000000000000000000000000000000000000000000
310
00000000000000000000000000000000000000000000000000000000000000000000000000000000000000000000000000000000000000000000000000000000000000000000000000000000000000000000000000000000000000000000000000000000000000000000000000000000000000000000000000000000000000
310
00000000000000000000000000000000000000000000000000000000000000000000000000000000000000000000000000000000000000000000000000000000000000000000000000000000000000000000000000000000000000000000000000000000000000000000000000000000000000000000000000000000000000
310
00000000000000000000000000000000000000000000000000000000000000000000000000000000000000000000000000000000000000000000000000000000000000000000000000000000000000000000000000000000000000000000000000000000000000000000000000000000000000000000000000000000000000
310
00000000000000000000000000000000000000000000000000000000000000000000000000000000000000000000000000000000000000000000000000000000000000000000000000000000000000000000000000000000000000000000000000000000000000000000000000000000000000000000000000000000000000
310
00000000000000000000000000000000000000000000000000000000000000000000000000000000000000000000000000000000000000000000000000000000000000000000000000000000000000000000000000000000000000000000000000000000000000000000000000000000000000000000000000000000000000
310
00000000000000000000000000000000000000000000000000000000000000000000000000000000000000000000000000000000000000000000000000000000000000000000000000000000000000000000000000000000000000000000000000000000000000000000000000000000000000000000000000000000000000
310
00000000000000000000000000000000000000000000000000000000000000000000000000000000000000000000000000000000000000000000000000000000000000000000000000000000000000000000000000000000000000000000000000000000000000000000000000000000000000000000000000000000000000
310
00000000000000000000000000000000000000000000000000000000000000000000000000000000000000000000000000000000000000000000000000000000000000000000000000000000000000000000000000000000000000000000000000000000000000000000000000000000000000000000000000000000000000
310
00000000000000000000000000000000000000000000000000000000000000000000000000000000000000000000000000000000000000000000000000000000000000000000000000000000000000000000000000000000000000000000000000000000000000000000000000000000000000000000000000000000000000
310
00000000000000000000000000000000000000000000000000000000000000000000000000000000000000000000000000000000000000000000000000000000000000000000000000000000000000000000000000000000000000000000000000000000000000000000000000000000000000000000000000000000000000
310
00000000000000000000000000000000000000000000000000000000000000000000000000000000000000000000000000000000000000000000000000000000000000000000000000000000000000000000000000000000000000000000000000000000000000000000000000000000000000000000000000000000000000
310
00000000000000000000000000000000000000000000000000000000000000000000000000000000000000000000000000000000000000000000000000000000000000000000000000000000000000000000000000000000000000000000000000000000000000000000000000000000000000000000000000000000000000
310
00000000000000000000000000000000000000000000000000000000000000000000000000000000000000000000000000000000000000000000000000000000000000000000000000000000000000000000000000000000000000000000000000000000000000000000000000000000000000000000000000000000000000
310
00000000000000000000000000000000000000000000000000000000000000000000000000000000000000000000000000000000000000000000000000000000000000000000000000000000000000000000000000000000000000000000000000000000000000000000000000000000000000000000000000000000000000
310
00000000000000000000000000000000000000000000000000000000000000000000000000000000000000000000000000000000000000000000000000000000000000000000000000000000000000000000000000000000000000000000000000000000000000000000000000000000000000000000000000000000000000
310
00000000000000000000000000000000000000000000000000000000000000000000000000000000000000000000000000000000000000000000000000000000000000000000000000000000000000000000000000000000000000000000000000000000000000000000000000000000000000000000000000000000000000
310
00000000000000000000000000000000000000000000000000000000000000000000000000000000000000000000000000000000000000000000000000000000000000000000000000000000000000000000000000000000000000000000000000000000000000000000000000000000000000000000000000000000000000
310
00000000000000000000000000000000000000000000000000000000000000000000000000000000000000000000000000000000000000000000000000000000000000000000000000000000000000000000000000000000000000000000000000000000000000000000000000000000000000000000000000000000000000
310
00000000000000000000000000000000000000000000000000000000000000000000000000000000000000000000000000000000000000000000000000000000000000000000000000000000000000000000000000000000000000000000000000000000000000000000000000000000000000000000000000000000000000
310
00000000000000000000000000000000000000000000000000000000000000000000000000000000000000000000000000000000000000000000000000000000000000000000000000000000000000000000000000000000000000000000000000000000000000000000000000000000000000000000000000000000000000
310
00000000000000000000000000000000000000000000000000000000000000000000000000000000000000000000000000000000000000000000000000000000000000000000000000000000000000000000000000000000000000000000000000000000000000000000000000000000000000000000000000000000000000
310
00000000000000000000000000000000000000000000000000000000000000000000000000000000000000000000000000000000000000000000000000000000000000000000000000000000000000000000000000000000000000000000000000000000000000000000000000000000000000000000000000000000000000
310
00000000000000000000000000000000000000000000000000000000000000000000000000000000000000000000000000000000000000000000000000000000000000000000000000000000000000000000000000000000000000000000000000000000000000000000000000000000000000000000000000000000000000
310
00000000000000000000000000000000000000000000000000000000000000000000000000000000000000000000000000000000000000000000000000000000000000000000000000000000000000000000000000000000000000000000000000000000000000000000000000000000000000000000000000000000000000
310
00000000000000000000000000000000000000000000000000000000000000000000000000000000000000000000000000000000000000000000000000000000000000000000000000000000000000000000000000000000000000000000000000000000000000000000000000000000000000000000000000000000000000
310
00000000000000000000000000000000000000000000000000000000000000000000000000000000000000000000000000000000000000000000000000000000000000000000000000000000000000000000000000000000000000000000000000000000000000000000000000000000000000000000000000000000000000
310
00000000000000000000000000000000000000000000000000000000000000000000000000000000000000000000000000000000000000000000000000000000000000000000000000000000000000000000000000000000000000000000000000000000000000000000000000000000000000000000000000000000000000
310
00000000000000000000000000000000000000000000000000000000000000000000000000000000000000000000000000000000000000000000000000000000000000000000000000000000000000000000000000000000000000000000000000000000000000000000000000000000000000000000000000000000000000
310
00000000000000000000000000000000000000000000000000000000000000000000000000000000000000000000000000000000000000000000000000000000000000000000000000000000000000000000000000000000000000000000000000000000000000000000000000000000000000000000000000000000000000
310
00000000000000000000000000000000000000000000000000000000000000000000000000000000000000000000000000000000000000000000000000000000000000000000000000000000000000000000000000000000000000000000000000000000000000000000000000000000000000000000000000000000000000
310
00000000000000000000000000000000000000000000000000000000000000000000000000000000000000000000000000000000000000000000000000000000000000000000000000000000000000000000000000000000000000000000000000000000000000000000000000000000000000000000000000000000000000
310
00000000000000000000000000000000000000000000000000000000000000000000000000000000000000000000000000000000000000000000000000000000000000000000000000000000000000000000000000000000000000000000000000000000000000000000000000000000000000000000000000000000000000
310
00000000000000000000000000000000000000000000000000000000000000000000000000000000000000000000000000000000000000000000000000000000000000000000000000000000000000000000000000000000000000000000000000000000000000000000000000000000000000000000000000000000000000
310
00000000000000000000000000000000000000000000000000000000000000000000000000000000000000000000000000000000000000000000000000000000000000000000000000000000000000000000000000000000000000000000000000000000000000000000000000000000000000000000000000000000000000
310
00000000000000000000000000000000000000000000000000000000000000000000000000000000000000000000000000000000000000000000000000000000000000000000000000000000000000000000000000000000000000000000000000000000000000000000000000000000000000000000000000000000000000
310
0000000000000000000000000000000000000000000000000000000000000000000000000000000000000000000000000000000000000000000000000000000000000000000000000000000000000000000000000000000000000000000000F500000000000000000000000000000000000000000000000000000000000000
310
000000000000000000000000000000F500000000000000000000000000000000000000000000000000000000F500000000000000000000000000000000000000000000000000000000000000000000000000000000000000000000000000000000000000000000000000000000000000000000000000000000000000000000
310
000000000000000000000000000000000000000000000000000000000000000000000000000000000000000000000000000000000000000000000000000000000000000000000000000000000000000000000000000000000000000000000000F5F50000000000000000000000000000000000000000000000000000000000
310
00000000000000000000000000000000F5F5000000000000000000000000000000000000000000000000000000F5F50000000000000000000000000000000000000000000000000000000000000000000000000000000000000000000000000000000000000000000000000000000000000000000000000000000000000000
310
000000000000000000000000000000000000000000000000000000000000000000000000000000000000000000000000000000000000000000000000000000000000000000000000000000000000000000000000000000000000000000000000000000F5000000000000000000000000000000000000000000000000000000
310
00000000000000000000000000000000000000F500000000000000000000000000000000000000000000000000000000F5000000000000000000000000000000000000000000000000000000000000000000000000000000000000000000000000000000000000000000000000000000000000000000000000000000000000
310
0000000000000000000000000000000000000000000000000000000000000000000000000000000000000000000000000000000000000000000000000000000000000000000000000000000000000000000000000000000000000000000000000000000000F500000000000000000000000000000000000000000000000000
310
000000000000000000000000000000000000000000F500000000000000000000000000000000F5F500000000000000000000F500000000000000000000000000000000000000000000000000000000000000000000000000000000000000000000000000000000000000000000000000000000000000000000000000000000
310
00000000000000000000000000000000000000000000000000000000000000000000000000000000000000000000000000000000000000000000000000000000000000000000000000000000000000000000000000000000000000000000000000000000000000F50000000000000000000000000000000000000000000000
310
0000000000000000000000000000000000000000000000F50000000000000000000000000000000000F500000000000000000000F50000000000000000000000000000000000000000000000000000000000000000000000000000000000000000000000000000000000000000000000000000000000000000000000000000
310
000000000000000000000000000000000000000000000000000000000000000000000000000000000000000000000000000000000000000000000000000000000000000000000000000000000000000000000000000000000000000000000000000000000000000000F5000000000000000000000000000000000000000000
310
00000000000000000000000000000000000000000000000000F50000000000000000000000000000000000F500000000000000000000F5000000000000000000000000000000000000000000000000000000000000000000000000000000000000000000000000000000000000000000000000000000000000000000000000
310
0000000000000000000000000000000000000000000000000000000000000000000000000000000000000000000000000000000000000000000000000000000000000000000000000000000000000000000000000000000000000000000000000000000000000000000000F500000000000000000000000000000000000000
310
000000000000000000000000000000000000000000000000000000F50000000000000000000000000000000000F500000000000000000000F500000000000000000000000000000000000000000000000000000000000000000000000000000000000000000000000000000000000000000000000000000000000000000000
310
00000000000000000000000000000000000000000000000000000000000000000000000000000000000000000000000000000000000000000000000000000000000000000000000000000000000000000000000000000000000000000000000000000000000000000000000000F50000000000000000000000000000000000
310
0000000000000000000000000000000000000000F50000000000000000F50000000000000000000000000000000000F500000000000000000000F50000000000000000000000000000000000F5F5F5F5F5F5F5F5F5F5F5F5F5F535353535353535353535353535353535353535353535353535353535353535353535353535
310
353535353500000000000000000000000000000000000000000000000000000000000000000000000000000000000000000000000000000000000000000000000000000000000000000000000000000000000000000000000000000000000000000000000000000000000000000000F5000000000000000000000000000000
310
000000000000000000000000000000000000000000F5F50000000000000000F50000000000000000000000000000000000F500000000000000000000F50000000000000000000000000000000000F5F5F5F5F5F5F5F5F5F5F5F5F5F53535353535353535353535353535353535353535353535353535353535353535353535
310
3535353535353500000000000000000000000000000000000000000000000000000000000000000000000000000000000000000000000000000000000000000000000000000000000000000000000000000000000000000000000000000000000000000000000000000000000000000000F500000000000000000000000000
310
000000000000000000000000000000000000000000000000F50000000000000000F50000000000000000000000000000000000F500000000000000000000F50000000000000000000000000000000000F5F5F5F5F5F5F5F5F5F5F5F5F5F5353535353535353535353535353535353535353535353535353535353535353535
310
35353535353535353500000000000000000000000000000000000000000000000000000000000000000000000000000000000000000000000000000000000000000000000000000000000000000000000000000000000000000000000000000000000000000000000000000000000000000000F50000000000000000000000
310
0000000000000000000000000000000000000000000000000000F50000000000000000F50000000000000000000000000000000000F500000000000000000000F50000000000000000000000000000000000F5F5F5F5F5F5F5F5F5F5F5F5F5F5F5F5F5F5F5F5F5F5F5F5F5F5F5F5F5F5F5F5F5F5F5F5F53535353535353535
310
353535353535353535353500000000000000000000000000000000000000000000000000000000000000000000000000000000000000000000000000000000000000000000000000000000000000000000000000000000000000000000000000000000000000000000000000000000000000000000F5000000000000000000
310
00000000000000000000000000000000000000000000000000000000F50000000000000000F50000000000000000000000000000000000F500000000000000000000F50000000000000000000000000000000000F5F5F5F5F5F5F5F5F5F5F5F5F5F5F5F5F5F5F5F5F5F5F5F5F5F5F5F5F5F5F5F5F5F5F5F5F5353535353535
310
3535353535353535353535353500000000000000000000000000000000000000000000000000000000000000000000000000000000000000000000000000000000000000000000000000000000000000000000000000000000000000000000000000000000000000000000000000000000000000000000F500000000000000
310
000000000000000000000000000000000000000000000000000000000000F50000000000000000F50000000000000000000000000000000000F500000000000000000000F50000000000000000000000000000000000F5F5F5F5F5F5F5F5F5F5F5F5F5F5F5F5F5F5F5F5F5F5F5F5F5F5F5F5F5F5F5F5F5F5F5F5F535353535
310
35353535353535353535353535353500000000000000000000000000000000000000000000000000000000000000000000000000000000000000000000000000000000000000000000000000000000000000000000000000000000000000000000000000000000000000000000000000000000000000000000F50000000000
310
0000000000000000000000000000000000000000000000000000000000000000F50000000000000000F50000000000000000000000000000000000F500000000000000000000F5F5F5F5F5F5F5F5F5F5F5F5F5F5F5F5F5F5F5F5F5F5F5F5F5F5F5F5F5F5F5F5F5F5F5F5F5F5F5F5F5F5F5F5F5F5F5F5F5F5F5F5F5F5F5F5F5
310
F5F5F5F5F5F5F53535353535353535353500000000000000000000000000000000000000000000000000000000000000000000000000000000000000000000000000000000000000000000000000000000000000000000000000000000000000000000000000000000000000000000000000000000000000000000F5000000
310
00000000000000000000000000000000000000000000000000000000000000000000F50000000000000000F50000000000000000000000000000000000F500000000000000000000000000000000000000000000000000000000F5F5F5F5F5F5F5F5F5F5F5F5F5F5F5F5F5F5F5F5F5F5F5F5F5F5F5F5F5F5F5F5F5F5F5F5F5
310
F5F5F5F5F5F5F5F5F53535353535353535353500000000000000000000000000000000000000000000000000000000000000000000000000000000000000000000000000000000000000000000000000000000000000000000000000000000000000000000000000000000000000000000000000000000000000000000F500
310
000000000000000000000000000000000000000000000000000000000000000000000000F50000000000000000F50000000000000000000000000000000000F500000000000000000000000000000000000000000000000000000000F5F5F5F5F5F5F5F5F5F5F5F5F5F5F5F5F5F5F5F5F5F5F5F5F5F5F5F5F5F5F5F5F5F5F5
310
F5F5F5F5F5F5F5F5F5F5F53535353535353535353500000000000000000000000000000000000000000000000000000000000000000000000000000000000000000000000000000000000000000000000000000000000000000000000000000000000000000000000000000000000000000000000000000000000000000000
310
F500000000000000000000000000000000000000000000000000000000000000000000000000F50000000000000000F50000000000000000000000000000000000F500000000000000000000000000000000000000000000000000000000F5F5F5F5F5F5F5F5F5F5F5F5F5F5F5F5F5F5F5F5F5F5F5F5F5F5F5F5F5F5F5F5F5
310
F5F5F5F5F5F5F5F5F5F5F5F5F5353535353535353535350000000000000000000000000000000000000000000000000000000000000000000000000000000000000000000000000000000000000000000000000000000000000000000000000000000000000000000000000000000000000000000000000000000000000000
310
0000F500000000000000000000000000000000000000000000000000000000000000000000000000F50000000000000000F50000000000000000000000000000000000F500000000000000000000000000000000000000000000000000000000F5F5F5F5F5F5F5F5F5F5F5F5F5F5F5F5F5F5F5F5F5F5F5F5F5F5F5F5F5F5F5
310
F5F5F5F5F5F5F5F5F535353535353535353535353535353535000000000000000000000000000000000000000000000000000000000000000000000000000000000000000000000000000000000000000000000000000000000000000000000000000000000000000000000000000000000000000000000000000000000000
310
00000000F500000000000000000000000000000000000000000000000000000000000000000000000000F50000000000000000F50000000000000000000000000000000000F500000000000000000000000000000000000000000000000000000000F5F5F5F5F5F5F5F5F5F5F5F5F5F5F5F5F5F5F5F5F5F5F5F5F5F5F5F5F5
310
F5F5F5F5F5F5F5F5F5F5F53535353535353535353535353535353500000000000000000000000000000000000000000000000000000000000000000000000000000000000000000000000000000000000000000000000000000000000000000000000000000000000000000000000000000000000000000000000000000000
310
000000000000F500000000000000000000000000000000000000000000000000000000000000000000000000F50000000000000000F50000000000000000000000000000000000F500000000000000000000000000000000000000000000000000000000F5F5F5F5F5F5F5F5F5F5F5F5F5F5F5F5F5F5F5F5F5F5F5F5F5F5F5
310
F5F5F5F5F5F5F5F5F5F5F5F5F5353535353535353535353535353535350000000000000000000000000000000000000000000000000000000000000000000000000000000000000000000000000000000000000000000000000000000000000000000000000000000000000000000000000000000000000000000000000000
310
0000000000000000F500000000000000000000000000000000000000000000000000000000000000000000000000F50000000000000000F50000000000000000000000000000000000F50000000000000000000000000000000000000000000000000000000035353535353535353535353535353535353535353535353535
310
35353535353535353535353535353535353535353535353535353535353535000000000000000000000000000000000000000000000000000000000000000000000000000000000000000000000000000000000000000000000000000000000000000000000000000000000000000000000000000000000000000000000000
310
00000000000000000000F500000000000000000000000000000000000000000000000000000000000000000000000000F50000000000000000F50000000000000000000000000000000000F5000000000000000000000000000000000000000000000000000000003535353535353535353535353535353535353535353535
310
35353535353535353535353535353535353535353535353535000000000000000000000000000000000000000000000000000000000000000000000000000000000000000000000000000000000000000000000000000000000000000000000000000000000000000000000000000000000000000000000000000000000000
310
000000000000000000000000F500000000000000000000000000000000000000000000000000000000000000000000000000F50000000000000000F50000000000000000000000000000000000F500000000000000000000000000000000000000000000000000000000F5F5F5F5F5F5F5F5F5F5F5F5F5F5F5F5F5F5F5F5F5
310
F5F5F5F5353535353535353535353535353535353535353535353500000000000000000000000000000000000000000000000000000000000000000000000000000000000000000000000000000000000000000000000000000000000000000000000000000000000000000000000000000000000000000000000000000000
310
0000000000000000000000000000F500000000000000000000000000000000000000000000000000000000000000000000000000F50000000000000000F50000000000000000000000000000000000F500000000000000000000000000000000000000000000000000000000F5F5F5F5F5F5F5F5F5F5F5F5F5F5F5F5F5F5F5
310
F5F5F5F5F5F535353535353535353535353535353535353535353535350000000000000000000000000000000000000000000000000000000000000000000000000000000000000000000000000000000000000000000000000000000000000000000000000000000000000000000000000000000000000000000000000000
310
00000000000000000000000000000000F500000000000000000000000000000000000000000000000000000000000000000000000000F50000000000000000F50000000000000000000000000000000000F500000000000000000000000000000000000000000000000000000000F5F5F5F5F5F5F5F5F5F5F5F5F5F5F5F5F5
310
F5F5F5F5F5F5F5F53535353535353535353535353535353535353535353535000000000000000000000000000000000000000000000000000000000000000000000000000000000000000000000000000000000000000000000000000000000000000000000000000000000000000000000000000000000000000000000000
310
000000000000000000000000000000000000F500000000000000000000000000000000000000000000000000000000000000000000000000F50000000000000000F50000000000000000000000000000000000F500000000000000000000000000000000000000000000000000000000F5F5F5F5F5F5F5F5F5F5F5F5F5F5F5
310
F5F5F5F5F5F5F5F5F5F5F5F5F5F5F5F5F5F5F5F5F5F5F5F535353535353535353500000000000000000000000000000000000000000000000000000000000000000000000000000000000000000000000000000000000000000000000000000000000000000000000000000000000000000000000000000000000000000000
310
0000000000000000000000000000000000000000F500000000000000000000000000000000000000000000000000000000000000000000000000F50000000000000000F50000000000000000000000000000000000F5F5F5F5F5F5F5F5F5F5F5F5F5F5F5F5F5F5F5F5F5F5F5F5F5F5F5F5F5F5F5F5F5F5F5F5F5F5F5F5F5F5
310
F5F5F5F5F5F5F5F5F5F5F5F5F5F5F5F5F5F5F5F5F5F5F5F5F5F53535353535353535350000000000000000000000000000000000000000000000000000000000000000000000000000000000000000000000000000000000000000000000000000000000000000000000000000000000000000000000000000000000000000
310
00000000000000000000000000000000000000000000F500000000000000000000000000000000000000000000000000000000000000000000000000F50000000000000000F500000000000000000000000000000000000000000000000000000000000000000000000000000000000000000000F5F5F5F5F5F5F5F5F5F5F5
310
F5F5F5F5F5F5F5F5F5F5F5F5F5F5F5F5F5F5F5F5F5F5F5F5F5F5F5F5353535353535353535000000000000000000000000000000000000000000000000000000000000000000000000000000000000000000000000000000000000000000000000000000000000000000000000000000000000000000000000000000000000
310
000000000000000000000000000000000000000000000000F500000000000000000000000000000000000000000000000000000000000000000000000000F50000000000000000F500000000000000000000000000000000000000000000000000000000000000000000000000000000000000000000F5F5F5F5F5F5F5F5F5
310
F5F5F5F5F5F5F5F5F5F5F5F5F5F5F5F5F5F5F5F5F535353535353535353535353535353535353500000000000000000000000000000000000000000000000000000000000000000000000000000000000000000000000000000000000000000000000000000000000000000000000000000000000000000000000000000000
310
0000000000000000000000000000000000000000000000000000F500000000000000000000000000000000000000000000000000000000000000000000000000F50000000000000000F500000000000000000000000000000000000000000000000000000000000000000000000000000000000000000000F5F5F5F5F5F5F5
310
F5F5F5F5F5F5F5F5F5F5F5F5F5F5F5F5F5F5F5F5F5F5F53535353535353535353535353535353535350000000000000000000000000000000000000000000000000000000000000000000000000000000000000000000000000000000000000000000000000000000000000000000000000000000000000000000000000000
310
00000000000000000000000000000000000000000000000000000000F500000000000000000000000000000000000000000000000000000000000000000000000000F50000000000000000F500000000000000000000000000000000000000000000000000000000000000000000000000000000000000000000F5F5F5F5F5
310
F5F5F5F5F5F5F5F5F5F5F5F5F5F5F5F5F5F5F5F5F5F5F5F5F5353535353535353535353535353535353535000000000000000000000000000000000000000000000000000000000000000000000000000000000000000000000000000000000000000000000000000000000000000000000000000000000000000000000000
310
000000000000000000000000000000000000000000000000000000000000F500000000000000000000000000000000000000000000000000000000000000000000000000F50000000000000000F500000000000000000000000000000000000000000000000000000000000000000000000000000000000000000000353535
310
35353535353535353535353535353535353535353535353535353535353535353535353535353535353535353500000000000000000000000000000000000000000000000000000000000000000000000000000000000000000000000000000000000000000000000000000000000000000000000000000000000000000000
310
0000000000000000000000000000000000000000000000000000000000000000F500000000000000000000000000000000000000000000000000000000000000000000000000F50000000000000000F50000000000000000000000000000000000000000000000000000000000000000000000000000000000000000000000
310
00000000000000000000000000000000000000000000000000000000000000000000000000000000000000000000000000000000000000000000000000000000000000000000000000000000000000000000000000000000000000000000000000000000000000000000000000000000000000000000000000000000000000
310
00000000000000000000000000000000000000000000000000000000000000000000F500000000000000000000000000000000000000000000000000000000000000000000000000F50000000000000000F5000000000000000000000000000000000000000000000000000000000000000000000000000000000000000000
310
00000000000000000000000000000000000000000000000000000000000000000000000000000000000000000000000000000000000000000000000000000000000000000000000000000000000000000000000000000000000000000000000000000000000000000000000000000000000000000000000000000000000000
310
000000000000000000000000000000000000000000000000000000000000000000000000F500000000000000000000000000000000000000000000000000000000000000000000000000F50000000000000000F500000000000000000000000000000000000000000000000000000000000000000000000000000000000000
310
000000F5F5F5F5F5F5F5F5F5F5F5F5F5F5F5F5F5F5F5F5F5F5F5F5F5F5F5F5F5F5F5F5F5F5F5F5F5F5F535353535353535350000000000000000000000000000000000000000000000000000000000000000000000000000000000000000000000000000000000000000000000000000000000000000000000000000000000
310
0000000000000000000000000000000000000000000000000000000000000000000000000000F500000000000000000000000000000000000000000000000000000000000000000000000000F50000000000000000F50000000000000000000000000000000000000000000000000000000000000000000000000000000000
310
0000000000F5F5F5F5F5F5F5F5F5F5F5F5F5F5F5F5F5F5F5F5F5F5F5F5F5F5F5F5F5F5F5F5F5F5F5F5F5F5F53535353535353535000000000000000000000000000000000000000000000000000000000000000000000000000000000000000000000000000000000000000000000000000000000000000000000000000000
310
00000000000000000000000000000000000000000000000000000000000000000000000000000000F500000000000000000000000000000000000000000000000000000000000000000000000000F50000000000000000F5F5F5F5F5F5F5F5F5F5F5F5F5F5F5F5F5F5F5F5F5F5F5F5F5F5F5F5F5F5F5F5F5F5F5F5F5F5F5F5
310
F5F5F5F5F5F5F5F5F5F5F5F5F5F5F5F5F5F5F5F5F5F5F5F5F5F5F5F5F5F5F5F5F5F5F5F5F5F5F5F5F5F5F5F5F5F5353535353535353500000000000000000000000000000000000000000000000000000000000000000000000000000000000000000000000000000000000000000000000000000000000000000000000000
310
000000000000000000000000000000000000000000000000000000000000000000000000000000000000F500000000000000000000000000000000000000000000000000000000000000000000000000F500000000000000000000000000000000000000000000000000000000000000000000000000000000000000000000
310
00000000000000000035353535353535353535353535353535353535353535353535353535353535353535353535353535353535353535350000000000000000000000000000000000000000000000000000000000000000000000000000000000000000000000000000000000000000000000000000000000000000000000
310
0000000000000000000000000000000000000000000000000000000000000000000000000000000000000000F500000000000000000000000000000000000000000000000000000000000000000000000000F50000000000000000000000000000000000000000000000000000000000000000000000000000000000000000
310
00000000000000000000000000000000000000000000000000000000000000000000000000000000000000000000000000000000000000000000000000000000000000000000000000000000000000000000000000000000000000000000000000000000000000000000000000000000000000000000000000000000000000
310
00000000000000000000000000000000000000000000000000000000000000000000000000000000000000000000F500000000000000000000000000000000000000000000000000000000000000000000000000F5000000000000000000000000000000000000000000000000000000000000000000000000000000000000
310
00000000000000000000000000000000000000000000000000000000000000000000000000000000000000000000000000000000000000000000000000000000000000000000000000000000000000000000000000000000000000000000000000000000000000000000000000000000000000000000000000000000000000
310
000000000000000000000000000000000000000000000000000000000000000000000000000000000000000000000000F500000000000000000000000000000000000000000000000000000000000000000000000000F500000000000000000000000000000000000000000000000000000000000000000000000000000000
310
00000000000000000000000000000035353535353535353535353535353535353535353535353535353535353535353535353535353535353535353535353535353535353535000000000000000000000000000000000000000000000000000000000000000000000000000000000000000000000000000000000000000000
310
0000000000000000000000000000000000000000000000000000000000000000000000000000000000000000000000000000F500000000000000000000000000000000000000000000000000000000000000000000000000F50000000000000000000000000000000000000000000000000000000000000000000000000000
310
0000000000000000000000000000000000F5F5F5F5F5F5F5F5F5F5F5F5F5F5F5F5F5F5F5F5F5F5F5F5F5F5F5F5F5F5F5F5F5F5F5F5F5F5F5F5F5F5F5F5F53535353535353535353500000000000000000000000000000000000000000000000000000000000000000000000000000000000000000000000000000000000000
310
00000000000000000000000000000000000000000000000000000000000000000000000000000000000000000000000000000000F500000000000000000000000000000000000000000000000000000000000000000000000000F5000000000000000000000000000000000000000000000000000000000000000000000000
310
00000000000000000000000000000000000000F5F5F5F5F5F5F5F5F5F5F5F5F5F5F5F5F5F5F5F5F5F5F5F5F5F5F5F5F5F5F5F5F5F5F5F5F5F5F5F5F5F5F5F5F5353535353535353535350000000000000000000000000000000000000000000000000000000000000000000000000000000000000000000000000000000000
310
000000000000000000000000000000000000000000000000000000000000000000000000000000000000000000000000000000000000F500000000000000000000000000000000000000000000000000000000000000000000000000F500000000000000000000000000000000000000000000000000000000000000000000
310
000000000000000000000000000000000000000000F5F5F5F5F5F5F5F5F5F5F5F5F5F5F5F5F5F5F5F5F5F5F5F5F5F5F5F5F5F5F5F5F5F5F5F5F5F5F5F5F5F5F5F5F535353535353535353535000000000000000000000000000000000000000000000000000000000000000000000000000000000000000000000000000000
310
0000000000000000000000000000000000000000000000000000000000000000000000000000000000000000000000000000000000000000F500000000000000000000000000000000000000000000000000000000000000000000000000F50000000000000000000000000000000000000000000000000000000000000000
310
0000000000000000000000000000000000000000000000F5F5F5F5F5F5F5F5F5F5F5F5F5F5F5F5F5F5F5F5F5F5F5F5F5F5F5F5F5F5F535353535353535353535353535353535353535353535353500000000000000000000000000000000000000000000000000000000000000000000000000000000000000000000000000
310
00000000000000000000000000000000000000000000000000000000000000000000000000000000000000000000000000000000000000000000F500000000000000000000000000000000000000000000000000000000000000000000000000F5F5F5F5F5F5F5F5F5F5F5F5F5F5F5F5F5F5F5F5F5F5F5F5F5F5F5F5F5F5F5
310
F5F5F5F5F5F5F5F5F5F5F5F5F5F5F5F5F5F5F5F5F5F5F5F5F5F5F5F5F5F5F5F5F5F5F5F5F5F5F5F5F5F5F5F5F5F5F5F5F5F5F5F5F5F5F5F53535353535353535353535353535353535353535353535350000000000000000000000000000000000000000000000000000000000000000000000000000000000000000000000
310
000000000000000000000000000000000000000000000000000000000000000000000000000000000000000000000000000000000000000000000000F5000000000000000000000000000000000000000000000000000000000000000000000000000000000000000000000000000000000000000000000000000000000000
310
000000000000000000000000000000000000000000000000000000F5F5F5F5F5F5F5F5F5F5F5F5F5F5F5F5F5F5F5F5F5F5F5F5F5F5F5F5F5F5F5353535353535353535353535353535353535353535353535000000000000000000000000000000000000000000000000000000000000000000000000000000000000000000
310
0000000000000000000000000000000000000000000000000000000000000000000000000000000000000000000000000000000000000000000000000000F500000000000000000000000000000000000000000000000000000000000000000000000000000000000000000000000000000000000000000000000000000000
310
0000000000000000000000000000000000000000000000000000000000F5F5F5F5F5F5F5F5F5F5F5F5F5F5F5F5F5F5F5F5F5F5F5F5F5F5F5F5F5F5F5F5F53535353535353535353535353535353535353535353500000000000000000000000000000000000000000000000000000000000000000000000000000000000000
310
00000000000000000000000000000000000000000000000000000000000000000000000000000000000000000000000000000000000000000000000000000000F50000000000000000000000000000000000000000000000000000000000000000000000000000000000000000000000000000000000000000000000000000
310
00000000000000000000000000000000000000000000000000000000000000F5F5F5F5F5F5F5F5F5F5F5F5F5F5F5F5F5F5F5F5F5F5F5F5F5F5F5F5F5F5F5F5F5353535353535353535353535353535353535353535350000000000000000000000000000000000000000000000000000000000000000000000000000000000
310
000000000000000000000000000000000000000000000000000000000000000000000000000000000000000000000000000000000000000000000000000000000000F5000000000000000000000000000000000000000000000000000000000000000000000000000000000000000000000000000000000000000000000000
310
000000000000000000000000000000000000000000000000000000000000000000F5F5F5F5F5F5F5F5F5F5F5F5F5F5F5F5F5F5F5F5F5F5F5F5F5F5F5F5F5F5F5F5F535353535353535353535353535353535353535353535000000000000000000000000000000000000000000000000000000000000000000000000000000
310
0000000000000000000000000000000000000000000000000000000000000000000000000000000000000000000000000000000000000000000000000000000000000000F500000000000000000000000000000000000000000000000000000000000000000000000000000000000000000000000000000000000000000000
310
00000000000000000000000000000000000000000000000000000000000000000000003535353535353535353535353535353535353535353535353535353535353535353535353535353535353535353535353535353535353500000000000000000000000000000000000000000000000000000000000000000000000000
310
00000000000000000000000000000000000000000000000000000000000000000000000000000000000000000000000000000000000000000000000000000000000000000000F50000000000000000000000000000000000000000000000000000000000000000000000000000000000000000000000000000000000000000
310
00000000000000000000000000000000000000000000000000000000000000000000000000000000000000000000000000000000000000000000000000000000000000000000000000000000000000000000000000000000000000000000000000000000000000000000000000000000000000000000000000000000000000
310
000000000000000000000000000000000000000000000000000000000000000000000000000000000000000000000000000000000000000000000000000000000000000000000000F5000000000000000000000000000000000000000000000000000000000000000000000000000000000000000000000000000000000000
310
00000000000000000000000000000000000000000000000000000000000000000000000000000000000000000000000000000000000000000000000000000000000000000000000000000000000000000000000000000000000000000000000000000000000000000000000000000000000000000000000000000000000000
310
0000000000000000000000000000000000000000000000000000000000000000000000000000000000000000000000000000000000000000000000000000000000000000000000000000F500000000000000000000000000000000000000000000000000000000000000000000000000000000000000000000000000000000
310
00000000000000000000000000000000000000000000000000000000000000000000000000000000000000000000000000000000000000000000000000000000000000000000000000000000000000000000000000000000000000000000000000000000000000000000000000000000000000000000000000000000000000
310
00000000000000000000000000000000000000000000000000000000000000000000000000000000000000000000000000000000000000000000000000000000000000000000000000000000F50000000000000000000000000000000000000000000000000000000000000000000000000000000000000000000000000000
310
00000000000000000000000000000000000000000000000000000000000000000000000000000000000000000000000000000000000000000000000000000000000000000000000000000000000000000000000000000000000000000000000000000000000000000000000000000000000000000000000000000000000000
310
000000000000000000000000000000000000000000000000000000000000000000000000000000000000000000000000000000000000000000000000000000000000000000000000000000000000F5000000000000000000000000000000000000000000000000000000000000000000000000000000000000000000000000
310
00000000000000000000000000000000000000000000000000000000000000000000000000000000000000000035353535353535353535353535353535353535353535353535000000000000000000000000000000000000000000000000000000000000000000000000000000000000000000000000000000000000000000
310
0000000000000000000000000000000000000000000000000000000000000000000000000000000000000000000000000000000000000000000000000000000000000000000000000000000000000000F500000000000000000000000000000000000000000000000000000000000000000000000000000000000000000000
310
0000000000000000000000000000000000000000000000000000000000000000000000000000000000000000000000F5F5F5F5F5F5F5F5F5F5F5F5F5F5F5F5F5F5F5F5353535353500000000000000000000000000000000000000000000000000000000000000000000000000000000000000000000000000000000000000
310
00000000000000000000000000000000000000000000000000000000000000000000000000000000000000000000000000000000000000000000000000000000000000000000000000000000000000000000F5F5F5F5F5F5F5F5F5F5F5F5F5F5F5F5F5F5F5F5F5F5F5F5F5F5F5F5F5F5F5F5F5F5F5F5F5F5F5F5F5F5F5F5F5
310
F5F5F5F5F5F5F5F5F5F5F5F5F5F5F5F5F5F5F5F5F5F5F5F5F5F5F5F5F5F5F5F5F5F5F5F5F5F5F5F5F5F5F5F5F5F5F5F5F5F5F5F5F5F5F5F5F5F5F5F5F5F5F5F5F5F5F5F5F535353535350000000000000000000000000000000000000000000000000000000000000000000000000000000000000000000000000000000000
310
00000000000000000000000000000000000000000000000000000000000000000000000000000000000000000000000000000000000000000000000000000000000000000000000000000000000000000000000000000000000000000000000000000000000000000000000000000000000000000000000000000000000000
310
000000000000000000000000000000000000000000000000000000000000000000000000000000000000000000000000000000F5F5F5F5F5F5F5F5F5F5F5F5F5F5F5F5F5F5F5F53535353535000000000000000000000000000000000000000000000000000000000000000000000000000000000000000000000000000000
310
00000000000000000000000000000000000000000000000000000000000000000000000000000000000000000000000000000000000000000000000000000000000000000000000000000000000000000000000000000000000000000000000000000000000000000000000000000000000000000000000000000000000000
310
00000000000000000000000000000000000000000000000000000000000000000000000000000000000000000000000000000000003535353535353535353535353535353535353535353535353500000000000000000000000000000000000000000000000000000000000000000000000000000000000000000000000000
310
00000000000000000000000000000000000000000000000000000000000000000000000000000000000000000000000000000000000000000000000000000000000000000000000000000000000000000000000000000000000000000000000000000000000000000000000000000000000000000000000000000000000000
310
00000000000000000000000000000000000000000000000000000000000000000000000000000000000000000000000000000000000000000000000000000000000000000000000000000000000000000000000000000000000000000000000000000000000000000000000000000000000000000000000000000000000000
310
00000000000000000000000000000000000000000000000000000000000000000000000000000000000000000000000000000000000000000000000000000000000000000000000000000000000000000000000000000000000000000000000000000000000000000000000000000000000000000000000000000000000000
310
00000000000000000000000000000000000000000000000000000000000000000000000000000000000000000000000000000000000000000000000000000000000000000000000000000000000000000000000000000000000000000000000000000000000000000000000000000000000000000000000000000000000000
310
00000000000000000000000000000000000000000000000000000000000000000000
  0
XRECORD
  5
1C
102
{ACAD_REACTORS
330
1A
102
}
330
1A
100
AcDbXrecord
280
     1
270
     1
271
     1
  0
XRECORD
  5
1B
102
{ACAD_REACTORS
330
1A
102
}
330
1A
100
AcDbXrecord
280
     1
270
     1
271
     1
  0
XRECORD
  5
1F
102
{ACAD_REACTORS
330
1A
102
}
330
1A
100
AcDbXrecord
280
     1
270
     1
271
     1
  0
XRECORD
  5
1E
102
{ACAD_REACTORS
330
1A
102
}
330
1A
100
AcDbXrecord
280
     1
270
     1
271
     1
  0
XRECORD
  5
20
102
{ACAD_REACTORS
330
1A
102
}
330
1A
100
AcDbXrecord
280
     1
270
     1
271
     1
  0
XRECORD
  5
1D
102
{ACAD_REACTORS
330
1A
102
}
330
1A
100
AcDbXrecord
280
     1
270
     1
271
     1
  0
XRECORD
  5
14
102
{ACAD_REACTORS
330
12
102
}
330
12
100
AcDbXrecord
280
     1
270
     1
271
     1
  0
XRECORD
  5
13
102
{ACAD_REACTORS
330
12
102
}
330
12
100
AcDbXrecord
280
     1
270
     1
271
     1
  0
XRECORD
  5
17
102
{ACAD_REACTORS
330
12
102
}
330
12
100
AcDbXrecord
280
     1
270
     1
271
     1
  0
XRECORD
  5
16
102
{ACAD_REACTORS
330
12
102
}
330
12
100
AcDbXrecord
280
     1
270
     1
271
     1
  0
XRECORD
  5
18
102
{ACAD_REACTORS
330
12
102
}
330
12
100
AcDbXrecord
280
     1
270
     1
271
     1
  0
XRECORD
  5
15
102
{ACAD_REACTORS
330
12
102
}
330
12
100
AcDbXrecord
280
     1
270
     1
271
     1
  0
XRECORD
  5
24
102
{ACAD_REACTORS
330
22
102
}
330
22
100
AcDbXrecord
280
     1
270
     1
271
     1
  0
XRECORD
  5
23
102
{ACAD_REACTORS
330
22
102
}
330
22
100
AcDbXrecord
280
     1
270
     1
271
     1
  0
XRECORD
  5
27
102
{ACAD_REACTORS
330
22
102
}
330
22
100
AcDbXrecord
280
     1
270
     1
271
     1
  0
XRECORD
  5
26
102
{ACAD_REACTORS
330
22
102
}
330
22
100
AcDbXrecord
280
     1
270
     1
271
     1
  0
XRECORD
  5
28
102
{ACAD_REACTORS
330
22
102
}
330
22
100
AcDbXrecord
280
     1
270
     1
271
     1
  0
XRECORD
  5
25
102
{ACAD_REACTORS
330
22
102
}
330
22
100
AcDbXrecord
280
     1
270
     1
271
     1
  0
ACAD_PROXY_OBJECT
  5
4B4
102
{ACAD_REACTORS
330
3EE
102
}
330
3EE
100
AcDbProxyObject
 90
      499
 91
      507
 95
  6815769
 70
     0
 93
     1044
310
40D054060020000020000003200101A000080002A5058000000C100000000000000340FE901405075F5449544C450041501A8000000C800406800020000A9416000000304000AD7A3703D0AC73FA409014217D2115051115480105406A0000003200101A000080002A5028000000C10002B5E8DC0F42B1CFE903409065F444
310
15441000
340
60
340
60
340
60
 94
        0
  0
XRECORD
  5
4C6
102
{ACAD_REACTORS
330
4C5
102
}
330
4C5
100
AcDbXrecord
280
     1
102
RTVSPropertyOp0
 70
     1
102
RTVSPropertyOp1
 70
     1
102
RTVSPropertyOp2
 70
     1
102
RTVSPropertyOp3
 70
     1
102
RTVSPropertyOp4
 70
     1
102
RTVSPropertyOp5
 70
     1
102
RTVSPropertyOp6
 70
     1
102
RTVSPropertyOp7
 70
     1
102
RTVSPropertyOp8
 70
     1
102
RTVSPropertyOp9
 70
     1
102
RTVSPropertyOp10
 70
     1
102
RTVSPropertyOp11
 70
     1
102
RTVSPropertyOp12
 70
     1
102
RTVSPropertyOp13
 70
     1
102
RTVSPropertyOp14
 70
     1
102
RTVSPropertyOp15
 70
     1
102
RTVSPropertyOp16
 70
     1
102
RTVSPropertyOp17
 70
     1
102
RTVSPropertyOp18
 70
     1
102
RTVSPropertyOp19
 70
     1
102
RTVSPropertyOp20
 70
     1
102
RTVSPropertyOp21
 70
     1
102
RTVSPropertyOp22
 70
     1
102
RTVSPropertyOp23
 70
     1
102
RTVSPropertyOp24
 70
     1
102
RTVSPropertyOp25
 70
     1
102
RTVSPropertyOp26
 70
     1
102
RTVSPropertyOp27
 70
     1
102
RTVSPropertyOp28
 70
     1
102
RTVSPropertyOp29
 70
     1
102
RTVSPropertyOp30
 70
     1
102
RTVSPropertyOp31
 70
     1
102
RTVSPropertyOp32
 70
     1
  0
XRECORD
  5
4CA
102
{ACAD_REACTORS
330
4C9
102
}
330
4C9
100
AcDbXrecord
280
     1
102
RTVSPropertyOp0
 70
     1
102
RTVSPropertyOp1
 70
     1
102
RTVSPropertyOp2
 70
     1
102
RTVSPropertyOp3
 70
     1
102
RTVSPropertyOp4
 70
     1
102
RTVSPropertyOp5
 70
     1
102
RTVSPropertyOp6
 70
     1
102
RTVSPropertyOp7
 70
     1
102
RTVSPropertyOp8
 70
     1
102
RTVSPropertyOp9
 70
     1
102
RTVSPropertyOp10
 70
     1
102
RTVSPropertyOp11
 70
     1
102
RTVSPropertyOp12
 70
     1
102
RTVSPropertyOp13
 70
     1
102
RTVSPropertyOp14
 70
     1
102
RTVSPropertyOp15
 70
     1
102
RTVSPropertyOp16
 70
     1
102
RTVSPropertyOp17
 70
     1
102
RTVSPropertyOp18
 70
     1
102
RTVSPropertyOp19
 70
     1
102
RTVSPropertyOp20
 70
     1
102
RTVSPropertyOp21
 70
     1
102
RTVSPropertyOp22
 70
     1
102
RTVSPropertyOp23
 70
     1
102
RTVSPropertyOp24
 70
     1
102
RTVSPropertyOp25
 70
     1
102
RTVSPropertyOp26
 70
     1
102
RTVSPropertyOp27
 70
     1
102
RTVSPropertyOp28
 70
     1
102
RTVSPropertyOp29
 70
     1
102
RTVSPropertyOp30
 70
     1
102
RTVSPropertyOp31
 70
     1
102
RTVSPropertyOp32
 70
     1
  0
XRECORD
  5
4C8
102
{ACAD_REACTORS
330
4C7
102
}
330
4C7
100
AcDbXrecord
280
     1
102
RTVSPropertyOp0
 70
     1
102
RTVSPropertyOp1
 70
     1
102
RTVSPropertyOp2
 70
     1
102
RTVSPropertyOp3
 70
     1
102
RTVSPropertyOp4
 70
     1
102
RTVSPropertyOp5
 70
     1
102
RTVSPropertyOp6
 70
     1
102
RTVSPropertyOp7
 70
     1
102
RTVSPropertyOp8
 70
     1
102
RTVSPropertyOp9
 70
     1
102
RTVSPropertyOp10
 70
     1
102
RTVSPropertyOp11
 70
     1
102
RTVSPropertyOp12
 70
     1
102
RTVSPropertyOp13
 70
     1
102
RTVSPropertyOp14
 70
     1
102
RTVSPropertyOp15
 70
     1
102
RTVSPropertyOp16
 70
     1
102
RTVSPropertyOp17
 70
     1
102
RTVSPropertyOp18
 70
     1
102
RTVSPropertyOp19
 70
     1
102
RTVSPropertyOp20
 70
     1
102
RTVSPropertyOp21
 70
     1
102
RTVSPropertyOp22
 70
     1
102
RTVSPropertyOp23
 70
     1
102
RTVSPropertyOp24
 70
     1
102
RTVSPropertyOp25
 70
     1
102
RTVSPropertyOp26
 70
     1
102
RTVSPropertyOp27
 70
     1
102
RTVSPropertyOp28
 70
     1
102
RTVSPropertyOp29
 70
     1
102
RTVSPropertyOp30
 70
     1
102
RTVSPropertyOp31
 70
     1
102
RTVSPropertyOp32
 70
     1
  0
XRECORD
  5
4C4
102
{ACAD_REACTORS
330
4C3
102
}
330
4C3
100
AcDbXrecord
280
     1
102
RTVSPropertyOp0
 70
     1
102
RTVSPropertyOp1
 70
     1
102
RTVSPropertyOp2
 70
     1
102
RTVSPropertyOp3
 70
     1
102
RTVSPropertyOp4
 70
     1
102
RTVSPropertyOp5
 70
     1
102
RTVSPropertyOp6
 70
     1
102
RTVSPropertyOp7
 70
     1
102
RTVSPropertyOp8
 70
     1
102
RTVSPropertyOp9
 70
     1
102
RTVSPropertyOp10
 70
     1
102
RTVSPropertyOp11
 70
     1
102
RTVSPropertyOp12
 70
     1
102
RTVSPropertyOp13
 70
     1
102
RTVSPropertyOp14
 70
     1
102
RTVSPropertyOp15
 70
     1
102
RTVSPropertyOp16
 70
     1
102
RTVSPropertyOp17
 70
     1
102
RTVSPropertyOp18
 70
     1
102
RTVSPropertyOp19
 70
     1
102
RTVSPropertyOp20
 70
     1
102
RTVSPropertyOp21
 70
     1
102
RTVSPropertyOp22
 70
     1
102
RTVSPropertyOp23
 70
     1
102
RTVSPropertyOp24
 70
     1
102
RTVSPropertyOp25
 70
     1
102
RTVSPropertyOp26
 70
     1
102
RTVSPropertyOp27
 70
     1
102
RTVSPropertyOp28
 70
     1
102
RTVSPropertyOp29
 70
     1
102
RTVSPropertyOp30
 70
     1
102
RTVSPropertyOp31
 70
     1
102
RTVSPropertyOp32
 70
     1
  0
XRECORD
  5
4D2
102
{ACAD_REACTORS
330
4D1
102
}
330
4D1
100
AcDbXrecord
280
     1
102
RTVSPropertyOp0
 70
     1
102
RTVSPropertyOp1
 70
     1
102
RTVSPropertyOp2
 70
     1
102
RTVSPropertyOp3
 70
     1
102
RTVSPropertyOp4
 70
     1
102
RTVSPropertyOp5
 70
     1
102
RTVSPropertyOp6
 70
     1
102
RTVSPropertyOp7
 70
     1
102
RTVSPropertyOp8
 70
     1
102
RTVSPropertyOp9
 70
     1
102
RTVSPropertyOp10
 70
     1
102
RTVSPropertyOp11
 70
     1
102
RTVSPropertyOp12
 70
     1
102
RTVSPropertyOp13
 70
     1
102
RTVSPropertyOp14
 70
     1
102
RTVSPropertyOp15
 70
     1
102
RTVSPropertyOp16
 70
     1
102
RTVSPropertyOp17
 70
     1
102
RTVSPropertyOp18
 70
     1
102
RTVSPropertyOp19
 70
     1
102
RTVSPropertyOp20
 70
     1
102
RTVSPropertyOp21
 70
     1
102
RTVSPropertyOp22
 70
     1
102
RTVSPropertyOp23
 70
     1
102
RTVSPropertyOp24
 70
     1
102
RTVSPropertyOp25
 70
     1
102
RTVSPropertyOp26
 70
     1
102
RTVSPropertyOp27
 70
     1
102
RTVSPropertyOp28
 70
     1
102
RTVSPropertyOp29
 70
     1
102
RTVSPropertyOp30
 70
     1
102
RTVSPropertyOp31
 70
     1
102
RTVSPropertyOp32
 70
     1
  0
XRECORD
  5
4DA
102
{ACAD_REACTORS
330
4D9
102
}
330
4D9
100
AcDbXrecord
280
     1
102
RTVSPropertyOp0
 70
     1
102
RTVSPropertyOp1
 70
     1
102
RTVSPropertyOp2
 70
     1
102
RTVSPropertyOp3
 70
     1
102
RTVSPropertyOp4
 70
     1
102
RTVSPropertyOp5
 70
     1
102
RTVSPropertyOp6
 70
     1
102
RTVSPropertyOp7
 70
     1
102
RTVSPropertyOp8
 70
     1
102
RTVSPropertyOp9
 70
     1
102
RTVSPropertyOp10
 70
     1
102
RTVSPropertyOp11
 70
     1
102
RTVSPropertyOp12
 70
     1
102
RTVSPropertyOp13
 70
     1
102
RTVSPropertyOp14
 70
     1
102
RTVSPropertyOp15
 70
     1
102
RTVSPropertyOp16
 70
     1
102
RTVSPropertyOp17
 70
     1
102
RTVSPropertyOp18
 70
     1
102
RTVSPropertyOp19
 70
     1
102
RTVSPropertyOp20
 70
     1
102
RTVSPropertyOp21
 70
     1
102
RTVSPropertyOp22
 70
     1
102
RTVSPropertyOp23
 70
     1
102
RTVSPropertyOp24
 70
     1
102
RTVSPropertyOp25
 70
     1
102
RTVSPropertyOp26
 70
     1
102
RTVSPropertyOp27
 70
     1
102
RTVSPropertyOp28
 70
     1
102
RTVSPropertyOp29
 70
     1
102
RTVSPropertyOp30
 70
     1
102
RTVSPropertyOp31
 70
     1
102
RTVSPropertyOp32
 70
     1
  0
XRECORD
  5
4CC
102
{ACAD_REACTORS
330
4CB
102
}
330
4CB
100
AcDbXrecord
280
     1
102
RTVSPropertyOp0
 70
     1
102
RTVSPropertyOp1
 70
     1
102
RTVSPropertyOp2
 70
     1
102
RTVSPropertyOp3
 70
     1
102
RTVSPropertyOp4
 70
     1
102
RTVSPropertyOp5
 70
     1
102
RTVSPropertyOp6
 70
     1
102
RTVSPropertyOp7
 70
     1
102
RTVSPropertyOp8
 70
     1
102
RTVSPropertyOp9
 70
     1
102
RTVSPropertyOp10
 70
     1
102
RTVSPropertyOp11
 70
     1
102
RTVSPropertyOp12
 70
     1
102
RTVSPropertyOp13
 70
     1
102
RTVSPropertyOp14
 70
     1
102
RTVSPropertyOp15
 70
     1
102
RTVSPropertyOp16
 70
     1
102
RTVSPropertyOp17
 70
     1
102
RTVSPropertyOp18
 70
     1
102
RTVSPropertyOp19
 70
     1
102
RTVSPropertyOp20
 70
     1
102
RTVSPropertyOp21
 70
     1
102
RTVSPropertyOp22
 70
     1
102
RTVSPropertyOp23
 70
     1
102
RTVSPropertyOp24
 70
     1
102
RTVSPropertyOp25
 70
     1
102
RTVSPropertyOp26
 70
     1
102
RTVSPropertyOp27
 70
     1
102
RTVSPropertyOp28
 70
     1
102
RTVSPropertyOp29
 70
     1
102
RTVSPropertyOp30
 70
     1
102
RTVSPropertyOp31
 70
     1
102
RTVSPropertyOp32
 70
     1
  0
XRECORD
  5
4D0
102
{ACAD_REACTORS
330
4CF
102
}
330
4CF
100
AcDbXrecord
280
     1
102
RTVSPropertyOp0
 70
     1
102
RTVSPropertyOp1
 70
     1
102
RTVSPropertyOp2
 70
     1
102
RTVSPropertyOp3
 70
     1
102
RTVSPropertyOp4
 70
     1
102
RTVSPropertyOp5
 70
     1
102
RTVSPropertyOp6
 70
     1
102
RTVSPropertyOp7
 70
     1
102
RTVSPropertyOp8
 70
     1
102
RTVSPropertyOp9
 70
     1
102
RTVSPropertyOp10
 70
     1
102
RTVSPropertyOp11
 70
     1
102
RTVSPropertyOp12
 70
     1
102
RTVSPropertyOp13
 70
     1
102
RTVSPropertyOp14
 70
     1
102
RTVSPropertyOp15
 70
     1
102
RTVSPropertyOp16
 70
     1
102
RTVSPropertyOp17
 70
     1
102
RTVSPropertyOp18
 70
     1
102
RTVSPropertyOp19
 70
     1
102
RTVSPropertyOp20
 70
     1
102
RTVSPropertyOp21
 70
     1
102
RTVSPropertyOp22
 70
     1
102
RTVSPropertyOp23
 70
     1
102
RTVSPropertyOp24
 70
     1
102
RTVSPropertyOp25
 70
     1
102
RTVSPropertyOp26
 70
     1
102
RTVSPropertyOp27
 70
     1
102
RTVSPropertyOp28
 70
     1
102
RTVSPropertyOp29
 70
     1
102
RTVSPropertyOp30
 70
     1
102
RTVSPropertyOp31
 70
     1
102
RTVSPropertyOp32
 70
     1
  0
XRECORD
  5
4E0
102
{ACAD_REACTORS
330
4DF
102
}
330
4DF
100
AcDbXrecord
280
     1
102
RTVSPropertyOp0
 70
     0
102
RTVSPropertyOp1
 70
     0
102
RTVSPropertyOp2
 70
     0
102
RTVSPropertyOp3
 70
     0
102
RTVSPropertyOp4
 70
     0
102
RTVSPropertyOp5
 70
     0
102
RTVSPropertyOp6
 70
     0
102
RTVSPropertyOp7
 70
     0
102
RTVSPropertyOp8
 70
     0
102
RTVSPropertyOp9
 70
     0
102
RTVSPropertyOp10
 70
     0
102
RTVSPropertyOp11
 70
     0
102
RTVSPropertyOp12
 70
     0
102
RTVSPropertyOp13
 70
     0
102
RTVSPropertyOp14
 70
     2
102
RTVSPropertyOp15
 70
     0
102
RTVSPropertyOp16
 70
     0
102
RTVSPropertyOp17
 70
     0
102
RTVSPropertyOp18
 70
     0
102
RTVSPropertyOp19
 70
     0
102
RTVSPropertyOp20
 70
     0
102
RTVSPropertyOp21
 70
     0
102
RTVSPropertyOp22
 70
     0
102
RTVSPropertyOp23
 70
     0
102
RTVSPropertyOp24
 70
     0
102
RTVSPropertyOp25
 70
     0
102
RTVSPropertyOp26
 70
     0
102
RTVSPropertyOp27
 70
     0
102
RTVSPropertyOp28
 70
     1
102
RTVSPropertyOp29
 70
     1
102
RTVSPropertyOp30
 70
     1
102
RTVSPropertyOp31
 70
     1
102
RTVSPropertyOp32
 70
     1
  0
XRECORD
  5
4D8
102
{ACAD_REACTORS
330
4D7
102
}
330
4D7
100
AcDbXrecord
280
     1
102
RTVSPropertyOp0
 70
     1
102
RTVSPropertyOp1
 70
     1
102
RTVSPropertyOp2
 70
     1
102
RTVSPropertyOp3
 70
     1
102
RTVSPropertyOp4
 70
     1
102
RTVSPropertyOp5
 70
     1
102
RTVSPropertyOp6
 70
     1
102
RTVSPropertyOp7
 70
     1
102
RTVSPropertyOp8
 70
     1
102
RTVSPropertyOp9
 70
     1
102
RTVSPropertyOp10
 70
     1
102
RTVSPropertyOp11
 70
     1
102
RTVSPropertyOp12
 70
     1
102
RTVSPropertyOp13
 70
     1
102
RTVSPropertyOp14
 70
     1
102
RTVSPropertyOp15
 70
     1
102
RTVSPropertyOp16
 70
     1
102
RTVSPropertyOp17
 70
     1
102
RTVSPropertyOp18
 70
     1
102
RTVSPropertyOp19
 70
     1
102
RTVSPropertyOp20
 70
     1
102
RTVSPropertyOp21
 70
     1
102
RTVSPropertyOp22
 70
     1
102
RTVSPropertyOp23
 70
     1
102
RTVSPropertyOp24
 70
     1
102
RTVSPropertyOp25
 70
     1
102
RTVSPropertyOp26
 70
     1
102
RTVSPropertyOp27
 70
     1
102
RTVSPropertyOp28
 70
     1
102
RTVSPropertyOp29
 70
     1
102
RTVSPropertyOp30
 70
     1
102
RTVSPropertyOp31
 70
     1
102
RTVSPropertyOp32
 70
     1
  0
XRECORD
  5
4BC
102
{ACAD_REACTORS
330
4BB
102
}
330
4BB
100
AcDbXrecord
280
     1
102
RTVSPropertyOp0
 70
     1
102
RTVSPropertyOp1
 70
     1
102
RTVSPropertyOp2
 70
     1
102
RTVSPropertyOp3
 70
     1
102
RTVSPropertyOp4
 70
     1
102
RTVSPropertyOp5
 70
     1
102
RTVSPropertyOp6
 70
     1
102
RTVSPropertyOp7
 70
     1
102
RTVSPropertyOp8
 70
     1
102
RTVSPropertyOp9
 70
     1
102
RTVSPropertyOp10
 70
     1
102
RTVSPropertyOp11
 70
     1
102
RTVSPropertyOp12
 70
     1
102
RTVSPropertyOp13
 70
     1
102
RTVSPropertyOp14
 70
     1
102
RTVSPropertyOp15
 70
     1
102
RTVSPropertyOp16
 70
     1
102
RTVSPropertyOp17
 70
     1
102
RTVSPropertyOp18
 70
     1
102
RTVSPropertyOp19
 70
     1
102
RTVSPropertyOp20
 70
     1
102
RTVSPropertyOp21
 70
     1
102
RTVSPropertyOp22
 70
     1
102
RTVSPropertyOp23
 70
     1
102
RTVSPropertyOp24
 70
     1
102
RTVSPropertyOp25
 70
     1
102
RTVSPropertyOp26
 70
     1
102
RTVSPropertyOp27
 70
     1
102
RTVSPropertyOp28
 70
     1
102
RTVSPropertyOp29
 70
     1
102
RTVSPropertyOp30
 70
     1
102
RTVSPropertyOp31
 70
     1
102
RTVSPropertyOp32
 70
     1
  0
XRECORD
  5
4BE
102
{ACAD_REACTORS
330
4BD
102
}
330
4BD
100
AcDbXrecord
280
     1
102
RTVSPropertyOp0
 70
     1
102
RTVSPropertyOp1
 70
     1
102
RTVSPropertyOp2
 70
     1
102
RTVSPropertyOp3
 70
     1
102
RTVSPropertyOp4
 70
     1
102
RTVSPropertyOp5
 70
     1
102
RTVSPropertyOp6
 70
     1
102
RTVSPropertyOp7
 70
     1
102
RTVSPropertyOp8
 70
     1
102
RTVSPropertyOp9
 70
     1
102
RTVSPropertyOp10
 70
     1
102
RTVSPropertyOp11
 70
     1
102
RTVSPropertyOp12
 70
     1
102
RTVSPropertyOp13
 70
     1
102
RTVSPropertyOp14
 70
     1
102
RTVSPropertyOp15
 70
     1
102
RTVSPropertyOp16
 70
     1
102
RTVSPropertyOp17
 70
     1
102
RTVSPropertyOp18
 70
     1
102
RTVSPropertyOp19
 70
     1
102
RTVSPropertyOp20
 70
     1
102
RTVSPropertyOp21
 70
     1
102
RTVSPropertyOp22
 70
     1
102
RTVSPropertyOp23
 70
     1
102
RTVSPropertyOp24
 70
     1
102
RTVSPropertyOp25
 70
     1
102
RTVSPropertyOp26
 70
     1
102
RTVSPropertyOp27
 70
     1
102
RTVSPropertyOp28
 70
     1
102
RTVSPropertyOp29
 70
     1
102
RTVSPropertyOp30
 70
     1
102
RTVSPropertyOp31
 70
     1
102
RTVSPropertyOp32
 70
     1
  0
XRECORD
  5
4C0
102
{ACAD_REACTORS
330
4BF
102
}
330
4BF
100
AcDbXrecord
280
     1
102
RTVSPropertyOp0
 70
     1
102
RTVSPropertyOp1
 70
     1
102
RTVSPropertyOp2
 70
     1
102
RTVSPropertyOp3
 70
     1
102
RTVSPropertyOp4
 70
     1
102
RTVSPropertyOp5
 70
     1
102
RTVSPropertyOp6
 70
     1
102
RTVSPropertyOp7
 70
     1
102
RTVSPropertyOp8
 70
     1
102
RTVSPropertyOp9
 70
     1
102
RTVSPropertyOp10
 70
     1
102
RTVSPropertyOp11
 70
     1
102
RTVSPropertyOp12
 70
     1
102
RTVSPropertyOp13
 70
     1
102
RTVSPropertyOp14
 70
     1
102
RTVSPropertyOp15
 70
     1
102
RTVSPropertyOp16
 70
     1
102
RTVSPropertyOp17
 70
     1
102
RTVSPropertyOp18
 70
     1
102
RTVSPropertyOp19
 70
     1
102
RTVSPropertyOp20
 70
     1
102
RTVSPropertyOp21
 70
     1
102
RTVSPropertyOp22
 70
     1
102
RTVSPropertyOp23
 70
     1
102
RTVSPropertyOp24
 70
     1
102
RTVSPropertyOp25
 70
     1
102
RTVSPropertyOp26
 70
     1
102
RTVSPropertyOp27
 70
     1
102
RTVSPropertyOp28
 70
     1
102
RTVSPropertyOp29
 70
     1
102
RTVSPropertyOp30
 70
     1
102
RTVSPropertyOp31
 70
     1
102
RTVSPropertyOp32
 70
     1
  0
XRECORD
  5
4C2
102
{ACAD_REACTORS
330
4C1
102
}
330
4C1
100
AcDbXrecord
280
     1
102
RTVSPropertyOp0
 70
     1
102
RTVSPropertyOp1
 70
     1
102
RTVSPropertyOp2
 70
     1
102
RTVSPropertyOp3
 70
     1
102
RTVSPropertyOp4
 70
     1
102
RTVSPropertyOp5
 70
     1
102
RTVSPropertyOp6
 70
     1
102
RTVSPropertyOp7
 70
     1
102
RTVSPropertyOp8
 70
     1
102
RTVSPropertyOp9
 70
     1
102
RTVSPropertyOp10
 70
     1
102
RTVSPropertyOp11
 70
     1
102
RTVSPropertyOp12
 70
     1
102
RTVSPropertyOp13
 70
     1
102
RTVSPropertyOp14
 70
     1
102
RTVSPropertyOp15
 70
     1
102
RTVSPropertyOp16
 70
     1
102
RTVSPropertyOp17
 70
     1
102
RTVSPropertyOp18
 70
     1
102
RTVSPropertyOp19
 70
     1
102
RTVSPropertyOp20
 70
     1
102
RTVSPropertyOp21
 70
     1
102
RTVSPropertyOp22
 70
     1
102
RTVSPropertyOp23
 70
     1
102
RTVSPropertyOp24
 70
     1
102
RTVSPropertyOp25
 70
     1
102
RTVSPropertyOp26
 70
     1
102
RTVSPropertyOp27
 70
     1
102
RTVSPropertyOp28
 70
     1
102
RTVSPropertyOp29
 70
     1
102
RTVSPropertyOp30
 70
     1
102
RTVSPropertyOp31
 70
     1
102
RTVSPropertyOp32
 70
     1
  0
XRECORD
  5
4EB
102
{ACAD_REACTORS
330
4EA
102
}
330
4EA
100
AcDbXrecord
280
     1
102
RTVSPropertyOp0
 70
     1
102
RTVSPropertyOp1
 70
     1
102
RTVSPropertyOp2
 70
     1
102
RTVSPropertyOp3
 70
     1
102
RTVSPropertyOp4
 70
     1
102
RTVSPropertyOp5
 70
     1
102
RTVSPropertyOp6
 70
     1
102
RTVSPropertyOp7
 70
     1
102
RTVSPropertyOp8
 70
     1
102
RTVSPropertyOp9
 70
     1
102
RTVSPropertyOp10
 70
     1
102
RTVSPropertyOp11
 70
     1
102
RTVSPropertyOp12
 70
     1
102
RTVSPropertyOp13
 70
     1
102
RTVSPropertyOp14
 70
     1
102
RTVSPropertyOp15
 70
     1
102
RTVSPropertyOp16
 70
     1
102
RTVSPropertyOp17
 70
     1
102
RTVSPropertyOp18
 70
     1
102
RTVSPropertyOp19
 70
     1
102
RTVSPropertyOp20
 70
     1
102
RTVSPropertyOp21
 70
     1
102
RTVSPropertyOp22
 70
     1
102
RTVSPropertyOp23
 70
     1
102
RTVSPropertyOp24
 70
     1
102
RTVSPropertyOp25
 70
     1
102
RTVSPropertyOp26
 70
     1
102
RTVSPropertyOp27
 70
     1
102
RTVSPropertyOp28
 70
     1
102
RTVSPropertyOp29
 70
     1
102
RTVSPropertyOp30
 70
     1
102
RTVSPropertyOp31
 70
     1
102
RTVSPropertyOp32
 70
     1
  0
XRECORD
  5
4DC
102
{ACAD_REACTORS
330
4DB
102
}
330
4DB
100
AcDbXrecord
280
     1
102
RTVSPropertyOp0
 70
     0
102
RTVSPropertyOp1
 70
     0
102
RTVSPropertyOp2
 70
     0
102
RTVSPropertyOp3
 70
     0
102
RTVSPropertyOp4
 70
     0
102
RTVSPropertyOp5
 70
     0
102
RTVSPropertyOp6
 70
     0
102
RTVSPropertyOp7
 70
     0
102
RTVSPropertyOp8
 70
     0
102
RTVSPropertyOp9
 70
     0
102
RTVSPropertyOp10
 70
     0
102
RTVSPropertyOp11
 70
     0
102
RTVSPropertyOp12
 70
     0
102
RTVSPropertyOp13
 70
     0
102
RTVSPropertyOp14
 70
     2
102
RTVSPropertyOp15
 70
     0
102
RTVSPropertyOp16
 70
     0
102
RTVSPropertyOp17
 70
     0
102
RTVSPropertyOp18
 70
     0
102
RTVSPropertyOp19
 70
     0
102
RTVSPropertyOp20
 70
     0
102
RTVSPropertyOp21
 70
     0
102
RTVSPropertyOp22
 70
     0
102
RTVSPropertyOp23
 70
     0
102
RTVSPropertyOp24
 70
     0
102
RTVSPropertyOp25
 70
     0
102
RTVSPropertyOp26
 70
     0
102
RTVSPropertyOp27
 70
     0
102
RTVSPropertyOp28
 70
     1
102
RTVSPropertyOp29
 70
     1
102
RTVSPropertyOp30
 70
     1
102
RTVSPropertyOp31
 70
     1
102
RTVSPropertyOp32
 70
     1
  0
XRECORD
  5
4D6
102
{ACAD_REACTORS
330
4D5
102
}
330
4D5
100
AcDbXrecord
280
     1
102
RTVSPropertyOp0
 70
     1
102
RTVSPropertyOp1
 70
     1
102
RTVSPropertyOp2
 70
     1
102
RTVSPropertyOp3
 70
     1
102
RTVSPropertyOp4
 70
     1
102
RTVSPropertyOp5
 70
     1
102
RTVSPropertyOp6
 70
     1
102
RTVSPropertyOp7
 70
     1
102
RTVSPropertyOp8
 70
     1
102
RTVSPropertyOp9
 70
     1
102
RTVSPropertyOp10
 70
     1
102
RTVSPropertyOp11
 70
     1
102
RTVSPropertyOp12
 70
     1
102
RTVSPropertyOp13
 70
     1
102
RTVSPropertyOp14
 70
     1
102
RTVSPropertyOp15
 70
     1
102
RTVSPropertyOp16
 70
     1
102
RTVSPropertyOp17
 70
     1
102
RTVSPropertyOp18
 70
     1
102
RTVSPropertyOp19
 70
     1
102
RTVSPropertyOp20
 70
     1
102
RTVSPropertyOp21
 70
     1
102
RTVSPropertyOp22
 70
     1
102
RTVSPropertyOp23
 70
     1
102
RTVSPropertyOp24
 70
     1
102
RTVSPropertyOp25
 70
     1
102
RTVSPropertyOp26
 70
     1
102
RTVSPropertyOp27
 70
     1
102
RTVSPropertyOp28
 70
     1
102
RTVSPropertyOp29
 70
     1
102
RTVSPropertyOp30
 70
     1
102
RTVSPropertyOp31
 70
     1
102
RTVSPropertyOp32
 70
     1
  0
XRECORD
  5
4DE
102
{ACAD_REACTORS
330
4DD
102
}
330
4DD
100
AcDbXrecord
280
     1
102
RTVSPropertyOp0
 70
     0
102
RTVSPropertyOp1
 70
     0
102
RTVSPropertyOp2
 70
     0
102
RTVSPropertyOp3
 70
     0
102
RTVSPropertyOp4
 70
     0
102
RTVSPropertyOp5
 70
     0
102
RTVSPropertyOp6
 70
     0
102
RTVSPropertyOp7
 70
     0
102
RTVSPropertyOp8
 70
     0
102
RTVSPropertyOp9
 70
     0
102
RTVSPropertyOp10
 70
     0
102
RTVSPropertyOp11
 70
     0
102
RTVSPropertyOp12
 70
     0
102
RTVSPropertyOp13
 70
     0
102
RTVSPropertyOp14
 70
     2
102
RTVSPropertyOp15
 70
     0
102
RTVSPropertyOp16
 70
     0
102
RTVSPropertyOp17
 70
     0
102
RTVSPropertyOp18
 70
     0
102
RTVSPropertyOp19
 70
     0
102
RTVSPropertyOp20
 70
     0
102
RTVSPropertyOp21
 70
     0
102
RTVSPropertyOp22
 70
     0
102
RTVSPropertyOp23
 70
     0
102
RTVSPropertyOp24
 70
     0
102
RTVSPropertyOp25
 70
     0
102
RTVSPropertyOp26
 70
     0
102
RTVSPropertyOp27
 70
     0
102
RTVSPropertyOp28
 70
     1
102
RTVSPropertyOp29
 70
     1
102
RTVSPropertyOp30
 70
     1
102
RTVSPropertyOp31
 70
     1
102
RTVSPropertyOp32
 70
     1
  0
XRECORD
  5
4CE
102
{ACAD_REACTORS
330
4CD
102
}
330
4CD
100
AcDbXrecord
280
     1
102
RTVSPropertyOp0
 70
     1
102
RTVSPropertyOp1
 70
     1
102
RTVSPropertyOp2
 70
     1
102
RTVSPropertyOp3
 70
     1
102
RTVSPropertyOp4
 70
     1
102
RTVSPropertyOp5
 70
     1
102
RTVSPropertyOp6
 70
     1
102
RTVSPropertyOp7
 70
     1
102
RTVSPropertyOp8
 70
     1
102
RTVSPropertyOp9
 70
     1
102
RTVSPropertyOp10
 70
     1
102
RTVSPropertyOp11
 70
     1
102
RTVSPropertyOp12
 70
     1
102
RTVSPropertyOp13
 70
     1
102
RTVSPropertyOp14
 70
     1
102
RTVSPropertyOp15
 70
     1
102
RTVSPropertyOp16
 70
     1
102
RTVSPropertyOp17
 70
     1
102
RTVSPropertyOp18
 70
     1
102
RTVSPropertyOp19
 70
     1
102
RTVSPropertyOp20
 70
     1
102
RTVSPropertyOp21
 70
     1
102
RTVSPropertyOp22
 70
     1
102
RTVSPropertyOp23
 70
     1
102
RTVSPropertyOp24
 70
     1
102
RTVSPropertyOp25
 70
     1
102
RTVSPropertyOp26
 70
     1
102
RTVSPropertyOp27
 70
     1
102
RTVSPropertyOp28
 70
     1
102
RTVSPropertyOp29
 70
     1
102
RTVSPropertyOp30
 70
     1
102
RTVSPropertyOp31
 70
     1
102
RTVSPropertyOp32
 70
     1
  0
XRECORD
  5
4F5
102
{ACAD_REACTORS
330
4F4
102
}
330
4F4
100
AcDbXrecord
280
     1
102
RTVSPropertyOp0
 70
     1
102
RTVSPropertyOp1
 70
     1
102
RTVSPropertyOp2
 70
     1
102
RTVSPropertyOp3
 70
     1
102
RTVSPropertyOp4
 70
     1
102
RTVSPropertyOp5
 70
     1
102
RTVSPropertyOp6
 70
     1
102
RTVSPropertyOp7
 70
     1
102
RTVSPropertyOp8
 70
     1
102
RTVSPropertyOp9
 70
     1
102
RTVSPropertyOp10
 70
     1
102
RTVSPropertyOp11
 70
     1
102
RTVSPropertyOp12
 70
     1
102
RTVSPropertyOp13
 70
     1
102
RTVSPropertyOp14
 70
     1
102
RTVSPropertyOp15
 70
     1
102
RTVSPropertyOp16
 70
     1
102
RTVSPropertyOp17
 70
     1
102
RTVSPropertyOp18
 70
     1
102
RTVSPropertyOp19
 70
     1
102
RTVSPropertyOp20
 70
     1
102
RTVSPropertyOp21
 70
     1
102
RTVSPropertyOp22
 70
     1
102
RTVSPropertyOp23
 70
     1
102
RTVSPropertyOp24
 70
     1
102
RTVSPropertyOp25
 70
     1
102
RTVSPropertyOp26
 70
     1
102
RTVSPropertyOp27
 70
     1
102
RTVSPropertyOp28
 70
     1
102
RTVSPropertyOp29
 70
     1
102
RTVSPropertyOp30
 70
     1
102
RTVSPropertyOp31
 70
     1
102
RTVSPropertyOp32
 70
     1
  0
XRECORD
  5
4F3
102
{ACAD_REACTORS
330
4F2
102
}
330
4F2
100
AcDbXrecord
280
     1
102
RTVSPropertyOp0
 70
     1
102
RTVSPropertyOp1
 70
     1
102
RTVSPropertyOp2
 70
     1
102
RTVSPropertyOp3
 70
     1
102
RTVSPropertyOp4
 70
     1
102
RTVSPropertyOp5
 70
     1
102
RTVSPropertyOp6
 70
     1
102
RTVSPropertyOp7
 70
     1
102
RTVSPropertyOp8
 70
     1
102
RTVSPropertyOp9
 70
     1
102
RTVSPropertyOp10
 70
     1
102
RTVSPropertyOp11
 70
     1
102
RTVSPropertyOp12
 70
     1
102
RTVSPropertyOp13
 70
     1
102
RTVSPropertyOp14
 70
     1
102
RTVSPropertyOp15
 70
     1
102
RTVSPropertyOp16
 70
     1
102
RTVSPropertyOp17
 70
     1
102
RTVSPropertyOp18
 70
     1
102
RTVSPropertyOp19
 70
     1
102
RTVSPropertyOp20
 70
     1
102
RTVSPropertyOp21
 70
     1
102
RTVSPropertyOp22
 70
     1
102
RTVSPropertyOp23
 70
     1
102
RTVSPropertyOp24
 70
     1
102
RTVSPropertyOp25
 70
     1
102
RTVSPropertyOp26
 70
     1
102
RTVSPropertyOp27
 70
     1
102
RTVSPropertyOp28
 70
     1
102
RTVSPropertyOp29
 70
     1
102
RTVSPropertyOp30
 70
     1
102
RTVSPropertyOp31
 70
     1
102
RTVSPropertyOp32
 70
     1
  0
XRECORD
  5
4ED
102
{ACAD_REACTORS
330
4EC
102
}
330
4EC
100
AcDbXrecord
280
     1
102
RTVSPropertyOp0
 70
     1
102
RTVSPropertyOp1
 70
     1
102
RTVSPropertyOp2
 70
     1
102
RTVSPropertyOp3
 70
     1
102
RTVSPropertyOp4
 70
     1
102
RTVSPropertyOp5
 70
     1
102
RTVSPropertyOp6
 70
     1
102
RTVSPropertyOp7
 70
     1
102
RTVSPropertyOp8
 70
     1
102
RTVSPropertyOp9
 70
     1
102
RTVSPropertyOp10
 70
     1
102
RTVSPropertyOp11
 70
     1
102
RTVSPropertyOp12
 70
     1
102
RTVSPropertyOp13
 70
     1
102
RTVSPropertyOp14
 70
     1
102
RTVSPropertyOp15
 70
     1
102
RTVSPropertyOp16
 70
     1
102
RTVSPropertyOp17
 70
     1
102
RTVSPropertyOp18
 70
     1
102
RTVSPropertyOp19
 70
     1
102
RTVSPropertyOp20
 70
     1
102
RTVSPropertyOp21
 70
     1
102
RTVSPropertyOp22
 70
     1
102
RTVSPropertyOp23
 70
     1
102
RTVSPropertyOp24
 70
     1
102
RTVSPropertyOp25
 70
     1
102
RTVSPropertyOp26
 70
     1
102
RTVSPropertyOp27
 70
     1
102
RTVSPropertyOp28
 70
     1
102
RTVSPropertyOp29
 70
     1
102
RTVSPropertyOp30
 70
     1
102
RTVSPropertyOp31
 70
     1
102
RTVSPropertyOp32
 70
     1
  0
XRECORD
  5
4EF
102
{ACAD_REACTORS
330
4EE
102
}
330
4EE
100
AcDbXrecord
280
     1
102
RTVSPropertyOp0
 70
     1
102
RTVSPropertyOp1
 70
     1
102
RTVSPropertyOp2
 70
     1
102
RTVSPropertyOp3
 70
     1
102
RTVSPropertyOp4
 70
     1
102
RTVSPropertyOp5
 70
     1
102
RTVSPropertyOp6
 70
     1
102
RTVSPropertyOp7
 70
     1
102
RTVSPropertyOp8
 70
     1
102
RTVSPropertyOp9
 70
     1
102
RTVSPropertyOp10
 70
     1
102
RTVSPropertyOp11
 70
     1
102
RTVSPropertyOp12
 70
     1
102
RTVSPropertyOp13
 70
     1
102
RTVSPropertyOp14
 70
     1
102
RTVSPropertyOp15
 70
     1
102
RTVSPropertyOp16
 70
     1
102
RTVSPropertyOp17
 70
     1
102
RTVSPropertyOp18
 70
     1
102
RTVSPropertyOp19
 70
     1
102
RTVSPropertyOp20
 70
     1
102
RTVSPropertyOp21
 70
     1
102
RTVSPropertyOp22
 70
     1
102
RTVSPropertyOp23
 70
     1
102
RTVSPropertyOp24
 70
     1
102
RTVSPropertyOp25
 70
     1
102
RTVSPropertyOp26
 70
     1
102
RTVSPropertyOp27
 70
     1
102
RTVSPropertyOp28
 70
     1
102
RTVSPropertyOp29
 70
     1
102
RTVSPropertyOp30
 70
     1
102
RTVSPropertyOp31
 70
     1
102
RTVSPropertyOp32
 70
     1
  0
XRECORD
  5
4D4
102
{ACAD_REACTORS
330
4D3
102
}
330
4D3
100
AcDbXrecord
280
     1
102
RTVSPropertyOp0
 70
     1
102
RTVSPropertyOp1
 70
     1
102
RTVSPropertyOp2
 70
     1
102
RTVSPropertyOp3
 70
     1
102
RTVSPropertyOp4
 70
     1
102
RTVSPropertyOp5
 70
     1
102
RTVSPropertyOp6
 70
     1
102
RTVSPropertyOp7
 70
     1
102
RTVSPropertyOp8
 70
     1
102
RTVSPropertyOp9
 70
     1
102
RTVSPropertyOp10
 70
     1
102
RTVSPropertyOp11
 70
     1
102
RTVSPropertyOp12
 70
     1
102
RTVSPropertyOp13
 70
     1
102
RTVSPropertyOp14
 70
     1
102
RTVSPropertyOp15
 70
     1
102
RTVSPropertyOp16
 70
     1
102
RTVSPropertyOp17
 70
     1
102
RTVSPropertyOp18
 70
     1
102
RTVSPropertyOp19
 70
     1
102
RTVSPropertyOp20
 70
     1
102
RTVSPropertyOp21
 70
     1
102
RTVSPropertyOp22
 70
     1
102
RTVSPropertyOp23
 70
     1
102
RTVSPropertyOp24
 70
     1
102
RTVSPropertyOp25
 70
     1
102
RTVSPropertyOp26
 70
     1
102
RTVSPropertyOp27
 70
     1
102
RTVSPropertyOp28
 70
     1
102
RTVSPropertyOp29
 70
     1
102
RTVSPropertyOp30
 70
     1
102
RTVSPropertyOp31
 70
     1
102
RTVSPropertyOp32
 70
     1
  0
XRECORD
  5
4E9
102
{ACAD_REACTORS
330
4E8
102
}
330
4E8
100
AcDbXrecord
280
     1
102
RTVSPropertyOp0
 70
     1
102
RTVSPropertyOp1
 70
     1
102
RTVSPropertyOp2
 70
     1
102
RTVSPropertyOp3
 70
     1
102
RTVSPropertyOp4
 70
     1
102
RTVSPropertyOp5
 70
     1
102
RTVSPropertyOp6
 70
     1
102
RTVSPropertyOp7
 70
     1
102
RTVSPropertyOp8
 70
     1
102
RTVSPropertyOp9
 70
     1
102
RTVSPropertyOp10
 70
     1
102
RTVSPropertyOp11
 70
     1
102
RTVSPropertyOp12
 70
     1
102
RTVSPropertyOp13
 70
     1
102
RTVSPropertyOp14
 70
     1
102
RTVSPropertyOp15
 70
     1
102
RTVSPropertyOp16
 70
     1
102
RTVSPropertyOp17
 70
     1
102
RTVSPropertyOp18
 70
     1
102
RTVSPropertyOp19
 70
     1
102
RTVSPropertyOp20
 70
     1
102
RTVSPropertyOp21
 70
     1
102
RTVSPropertyOp22
 70
     1
102
RTVSPropertyOp23
 70
     1
102
RTVSPropertyOp24
 70
     1
102
RTVSPropertyOp25
 70
     1
102
RTVSPropertyOp26
 70
     1
102
RTVSPropertyOp27
 70
     1
102
RTVSPropertyOp28
 70
     1
102
RTVSPropertyOp29
 70
     1
102
RTVSPropertyOp30
 70
     1
102
RTVSPropertyOp31
 70
     1
102
RTVSPropertyOp32
 70
     1
  0
XRECORD
  5
4F1
102
{ACAD_REACTORS
330
4F0
102
}
330
4F0
100
AcDbXrecord
280
     1
102
RTVSPropertyOp0
 70
     1
102
RTVSPropertyOp1
 70
     1
102
RTVSPropertyOp2
 70
     1
102
RTVSPropertyOp3
 70
     1
102
RTVSPropertyOp4
 70
     1
102
RTVSPropertyOp5
 70
     1
102
RTVSPropertyOp6
 70
     1
102
RTVSPropertyOp7
 70
     1
102
RTVSPropertyOp8
 70
     1
102
RTVSPropertyOp9
 70
     1
102
RTVSPropertyOp10
 70
     1
102
RTVSPropertyOp11
 70
     1
102
RTVSPropertyOp12
 70
     1
102
RTVSPropertyOp13
 70
     1
102
RTVSPropertyOp14
 70
     1
102
RTVSPropertyOp15
 70
     1
102
RTVSPropertyOp16
 70
     1
102
RTVSPropertyOp17
 70
     1
102
RTVSPropertyOp18
 70
     1
102
RTVSPropertyOp19
 70
     1
102
RTVSPropertyOp20
 70
     1
102
RTVSPropertyOp21
 70
     1
102
RTVSPropertyOp22
 70
     1
102
RTVSPropertyOp23
 70
     1
102
RTVSPropertyOp24
 70
     1
102
RTVSPropertyOp25
 70
     1
102
RTVSPropertyOp26
 70
     1
102
RTVSPropertyOp27
 70
     1
102
RTVSPropertyOp28
 70
     1
102
RTVSPropertyOp29
 70
     1
102
RTVSPropertyOp30
 70
     1
102
RTVSPropertyOp31
 70
     1
102
RTVSPropertyOp32
 70
     1
  0
ENDSEC
  0
EOF
