  0
SECTION
  2
HEADER
  9
$ACADVER
  1
AC1018
  9
$ACADMAINTVER
 70
     0
  9
$DWGCODEPAGE
  3
ANSI_1252
  9
$INSBASE
 10
0.0
 20
0.0
 30
0.0
  9
$EXTMIN
 10
1.000000000000000E+20
 20
1.000000000000000E+20
 30
1.000000000000000E+20
  9
$EXTMAX
 10
-1.000000000000000E+20
 20
-1.000000000000000E+20
 30
-1.000000000000000E+20
  9
$LIMMIN
 10
0.0
 20
0.0
  9
$LIMMAX
 10
12.0
 20
9.0
  9
$ORTHOMODE
 70
     0
  9
$REGENMODE
 70
     1
  9
$FILLMODE
 70
     1
  9
$QTEXTMODE
 70
     0
  9
$MIRRTEXT
 70
     1
  9
$LTSCALE
 40
1.0
  9
$ATTMODE
 70
     1
  9
$TEXTSIZE
 40
0.2
  9
$TRACEWID
 40
0.05
  9
$TEXTSTYLE
  7
Standard
  9
$CLAYER
  8
0
  9
$CELTYPE
  6
ByLayer
  9
$CECOLOR
 62
   256
  9
$CELTSCALE
 40
1.0
  9
$DISPSILH
 70
     0
  9
$DIMSCALE
 40
1.0
  9
$DIMASZ
 40
0.18
  9
$DIMEXO
 40
0.0625
  9
$DIMDLI
 40
0.38
  9
$DIMRND
 40
0.0
  9
$DIMDLE
 40
0.0
  9
$DIMEXE
 40
0.18
  9
$DIMTP
 40
0.0
  9
$DIMTM
 40
0.0
  9
$DIMTXT
 40
0.18
  9
$DIMCEN
 40
0.09
  9
$DIMTSZ
 40
0.0
  9
$DIMTOL
 70
     0
  9
$DIMLIM
 70
     0
  9
$DIMTIH
 70
     1
  9
$DIMTOH
 70
     1
  9
$DIMSE1
 70
     0
  9
$DIMSE2
 70
     0
  9
$DIMTAD
 70
     0
  9
$DIMZIN
 70
     0
  9
$DIMBLK
  1

  9
$DIMASO
 70
     1
  9
$DIMSHO
 70
     1
  9
$DIMPOST
  1

  9
$DIMAPOST
  1

  9
$DIMALT
 70
     0
  9
$DIMALTD
 70
     2
  9
$DIMALTF
 40
25.4
  9
$DIMLFAC
 40
1.0
  9
$DIMTOFL
 70
     0
  9
$DIMTVP
 40
0.0
  9
$DIMTIX
 70
     0
  9
$DIMSOXD
 70
     0
  9
$DIMSAH
 70
     0
  9
$DIMBLK1
  1

  9
$DIMBLK2
  1

  9
$DIMSTYLE
  2
Standard
  9
$DIMCLRD
 70
     0
  9
$DIMCLRE
 70
     0
  9
$DIMCLRT
 70
     0
  9
$DIMTFAC
 40
1.0
  9
$DIMGAP
 40
0.09
  9
$DIMJUST
 70
     0
  9
$DIMSD1
 70
     0
  9
$DIMSD2
 70
     0
  9
$DIMTOLJ
 70
     1
  9
$DIMTZIN
 70
     0
  9
$DIMALTZ
 70
     0
  9
$DIMALTTZ
 70
     0
  9
$DIMUPT
 70
     0
  9
$DIMDEC
 70
     4
  9
$DIMTDEC
 70
     4
  9
$DIMALTU
 70
     2
  9
$DIMALTTD
 70
     2
  9
$DIMTXSTY
  7
Standard
  9
$DIMAUNIT
 70
     0
  9
$DIMADEC
 70
     0
  9
$DIMALTRND
 40
0.0
  9
$DIMAZIN
 70
     0
  9
$DIMDSEP
 70
    46
  9
$DIMATFIT
 70
     3
  9
$DIMFRAC
 70
     0
  9
$DIMLDRBLK
  1

  9
$DIMLUNIT
 70
     2
  9
$DIMLWD
 70
    -2
  9
$DIMLWE
 70
    -2
  9
$DIMTMOVE
 70
     0
  9
$LUNITS
 70
     2
  9
$LUPREC
 70
     4
  9
$SKETCHINC
 40
0.1
  9
$FILLETRAD
 40
0.5
  9
$AUNITS
 70
     0
  9
$AUPREC
 70
     0
  9
$MENU
  1
.
  9
$ELEVATION
 40
0.0
  9
$PELEVATION
 40
0.0
  9
$THICKNESS
 40
0.0
  9
$LIMCHECK
 70
     0
  9
$CHAMFERA
 40
0.5
  9
$CHAMFERB
 40
0.5
  9
$CHAMFERC
 40
1.0
  9
$CHAMFERD
 40
0.0
  9
$SKPOLY
 70
     0
  9
$TDCREATE
 40
2457126.433283333
  9
$TDUCREATE
 40
2457125.933283333
  9
$TDUPDATE
 40
2457126.433285648
  9
$TDUUPDATE
 40
2457125.933285648
  9
$TDINDWG
 40
0.0000000116
  9
$TDUSRTIMER
 40
0.0000000116
  9
$USRTIMER
 70
     1
  9
$ANGBASE
 50
0.0
  9
$ANGDIR
 70
     0
  9
$PDMODE
 70
     0
  9
$PDSIZE
 40
0.0
  9
$PLINEWID
 40
0.0
  9
$SPLFRAME
 70
     0
  9
$SPLINETYPE
 70
     6
  9
$SPLINESEGS
 70
     8
  9
$HANDSEED
  5
422
  9
$SURFTAB1
 70
     6
  9
$SURFTAB2
 70
     6
  9
$SURFTYPE
 70
     6
  9
$SURFU
 70
     6
  9
$SURFV
 70
     6
  9
$UCSBASE
  2

  9
$UCSNAME
  2

  9
$UCSORG
 10
0.0
 20
0.0
 30
0.0
  9
$UCSXDIR
 10
1.0
 20
0.0
 30
0.0
  9
$UCSYDIR
 10
0.0
 20
1.0
 30
0.0
  9
$UCSORTHOREF
  2

  9
$UCSORTHOVIEW
 70
     0
  9
$UCSORGTOP
 10
0.0
 20
0.0
 30
0.0
  9
$UCSORGBOTTOM
 10
0.0
 20
0.0
 30
0.0
  9
$UCSORGLEFT
 10
0.0
 20
0.0
 30
0.0
  9
$UCSORGRIGHT
 10
0.0
 20
0.0
 30
0.0
  9
$UCSORGFRONT
 10
0.0
 20
0.0
 30
0.0
  9
$UCSORGBACK
 10
0.0
 20
0.0
 30
0.0
  9
$PUCSBASE
  2

  9
$PUCSNAME
  2

  9
$PUCSORG
 10
0.0
 20
0.0
 30
0.0
  9
$PUCSXDIR
 10
1.0
 20
0.0
 30
0.0
  9
$PUCSYDIR
 10
0.0
 20
1.0
 30
0.0
  9
$PUCSORTHOREF
  2

  9
$PUCSORTHOVIEW
 70
     0
  9
$PUCSORGTOP
 10
0.0
 20
0.0
 30
0.0
  9
$PUCSORGBOTTOM
 10
0.0
 20
0.0
 30
0.0
  9
$PUCSORGLEFT
 10
0.0
 20
0.0
 30
0.0
  9
$PUCSORGRIGHT
 10
0.0
 20
0.0
 30
0.0
  9
$PUCSORGFRONT
 10
0.0
 20
0.0
 30
0.0
  9
$PUCSORGBACK
 10
0.0
 20
0.0
 30
0.0
  9
$USERI1
 70
     0
  9
$USERI2
 70
     0
  9
$USERI3
 70
     0
  9
$USERI4
 70
     0
  9
$USERI5
 70
     0
  9
$USERR1
 40
0.0
  9
$USERR2
 40
0.0
  9
$USERR3
 40
0.0
  9
$USERR4
 40
0.0
  9
$USERR5
 40
0.0
  9
$WORLDVIEW
 70
     1
  9
$SHADEDGE
 70
     3
  9
$SHADEDIF
 70
    70
  9
$TILEMODE
 70
     1
  9
$MAXACTVP
 70
    64
  9
$PINSBASE
 10
0.0
 20
0.0
 30
0.0
  9
$PLIMCHECK
 70
     0
  9
$PEXTMIN
 10
1.000000000000000E+20
 20
1.000000000000000E+20
 30
1.000000000000000E+20
  9
$PEXTMAX
 10
-1.000000000000000E+20
 20
-1.000000000000000E+20
 30
-1.000000000000000E+20
  9
$PLIMMIN
 10
0.0
 20
0.0
  9
$PLIMMAX
 10
12.0
 20
9.0
  9
$UNITMODE
 70
     0
  9
$VISRETAIN
 70
     1
  9
$PLINEGEN
 70
     0
  9
$PSLTSCALE
 70
     1
  9
$TREEDEPTH
 70
  3020
  9
$CMLSTYLE
  2
Standard
  9
$CMLJUST
 70
     0
  9
$CMLSCALE
 40
1.0
  9
$PROXYGRAPHICS
 70
     1
  9
$MEASUREMENT
 70
     0
  9
$CELWEIGHT
370
    -1
  9
$ENDCAPS
280
     0
  9
$JOINSTYLE
280
     0
  9
$LWDISPLAY
290
     1
  9
$INSUNITS
 70
     4
  9
$HYPERLINKBASE
  1

  9
$STYLESHEET
  1

  9
$XEDIT
290
     1
  9
$CEPSNTYPE
380
     0
  9
$PSTYLEMODE
290
     1
  9
$FINGERPRINTGUID
  2
{D0224815-0252-4809-B29C-041343E8B3C3}
  9
$VERSIONGUID
  2
{FAEB1C32-E019-11D5-929B-00C0DF256EC4}
  9
$EXTNAMES
290
     1
  9
$PSVPSCALE
 40
0.0
  9
$OLESTARTUP
290
     0
  9
$SORTENTS
280
   127
  9
$INDEXCTL
280
     0
  9
$HIDETEXT
280
     1
  9
$XCLIPFRAME
290
     0
  9
$HALOGAP
280
     0
  9
$OBSCOLOR
 70
   257
  9
$OBSLTYPE
280
     0
  9
$INTERSECTIONDISPLAY
280
     0
  9
$INTERSECTIONCOLOR
 70
   257
  9
$DIMASSOC
280
     2
  9
$PROJECTNAME
  1

  0
ENDSEC
  0
SECTION
  2
CLASSES
  0
CLASS
  1
ACDBDICTIONARYWDFLT
  2
AcDbDictionaryWithDefault
  3
ObjectDBX Classes
 90
        0
 91
        4
280
     0
281
     0
  0
CLASS
  1
VISUALSTYLE
  2
AcDbVisualStyle
  3
ObjectDBX Classes
 90
     4095
 91
        4
280
     0
281
     0
  0
CLASS
  1
MATERIAL
  2
AcDbMaterial
  3
ObjectDBX Classes
 90
     1153
 91
        4
280
     0
281
     0
  0
CLASS
  1
WIPEOUT
  2
AcDbWipeout
  3
WipeOut|AutoCAD Express Tool|expresstools@autodesk.com
 90
      127
 91
        4
280
     0
281
     1
  0
CLASS
  1
SCALE
  2
AcDbScale
  3
ObjectDBX Classes
 90
     1153
 91
        4
280
     0
281
     0
  0
CLASS
  1
DICTIONARYVAR
  2
AcDbDictionaryVar
  3
ObjectDBX Classes
 90
        0
 91
        4
280
     0
281
     0
  0
ENDSEC
  0
SECTION
  2
TABLES
  0
TABLE
  2
VPORT
  5
8
330
0
100
AcDbSymbolTable
 70
     1
  0
VPORT
  5
29
330
8
100
AcDbSymbolTableRecord
100
AcDbViewportTableRecord
  2
*Active
 70
     0
 10
0.0
 20
0.0
 11
1.0
 21
1.0
 12
169.2121359337955
 22
168.7900791606862
 13
0.0
 23
0.0
 14
0.5
 24
0.5
 15
0.5
 25
0.5
 16
0.0
 26
0.0
 36
1.0
 17
0.0
 27
0.0
 37
0.0
 40
364.8711854810484
 41
1.057887749606886
 42
50.0
 43
0.0
 44
0.0
 50
0.0
 51
0.0
 71
     0
 72
   100
 73
     1
 74
     3
 75
     0
 76
     0
 77
     0
 78
     0
281
     0
 65
     1
110
0.0
120
0.0
130
0.0
111
1.0
121
0.0
131
0.0
112
0.0
122
1.0
132
0.0
 79
     0
146
0.0
  0
ENDTAB
  0
TABLE
  2
LTYPE
  5
5
330
0
100
AcDbSymbolTable
 70
     4
  0
LTYPE
  5
14
330
5
100
AcDbSymbolTableRecord
100
AcDbLinetypeTableRecord
  2
ByBlock
 70
     0
  3

 72
    65
 73
     0
 40
0.0
  0
LTYPE
  5
15
330
5
100
AcDbSymbolTableRecord
100
AcDbLinetypeTableRecord
  2
ByLayer
 70
     0
  3

 72
    65
 73
     0
 40
0.0
  0
LTYPE
  5
16
330
5
100
AcDbSymbolTableRecord
100
AcDbLinetypeTableRecord
  2
Continuous
 70
     0
  3
Solid line
 72
    65
 73
     0
 40
0.0
  0
LTYPE
  5
27B
330
5
100
AcDbSymbolTableRecord
100
AcDbLinetypeTableRecord
  2
Dot & Dashed
 70
     0
  3
- - - - - 
 72
    65
 73
     4
 40
13.4055552482605
 49
7.05555534362793
 74
     0
 49
-3.527777671813965
 74
     0
 49
0.0
 74
     0
 49
-2.822222232818604
 74
     0
  0
LTYPE
  5
34A
330
5
100
AcDbSymbolTableRecord
100
AcDbLinetypeTableRecord
  2
Above
 70
     0
  3
- - - - - 
 72
    65
 73
     2
 40
15.0
 49
10.0
 74
     0
 49
-4.999999999999999
 74
     0
  0
LTYPE
  5
3AE
330
5
100
AcDbSymbolTableRecord
100
AcDbLinetypeTableRecord
  2
Wipeout_Contour
 70
     0
  3
- - - - - 
 72
    65
 73
     2
 40
1000.0
 49
0.0
 74
     0
 49
-1000.0
 74
     0
  0
ENDTAB
  0
TABLE
  2
LAYER
  5
2
330
0
100
AcDbSymbolTable
 70
     4
  0
LAYER
  5
10
330
2
100
AcDbSymbolTableRecord
100
AcDbLayerTableRecord
  2
0
 70
     0
 62
     7
  6
Continuous
370
    -3
390
F
  0
LAYER
  5
40
330
2
100
AcDbSymbolTableRecord
100
AcDbLayerTableRecord
  2
0_Pen_No__146
 70
     0
 62
     9
420
 13290186
  6
Continuous
370
     5
390
F
  0
LAYER
  5
4B
330
2
100
AcDbSymbolTableRecord
100
AcDbLayerTableRecord
  2
0_Pen_No__1
 70
     0
 62
     7
  6
Continuous
370
    13
390
F
  0
LAYER
  5
3AF
330
2
100
AcDbSymbolTableRecord
100
AcDbLayerTableRecord
  2
Key_ Sections_Pen_No__1
 70
     0
 62
     7
  6
Continuous
370
    13
390
F
  0
ENDTAB
  0
TABLE
  2
STYLE
  5
3
330
0
100
AcDbSymbolTable
 70
     2
  0
STYLE
  5
11
330
3
100
AcDbSymbolTableRecord
100
AcDbTextStyleTableRecord
  2
Standard
 70
     0
 40
0.0
 41
1.0
 50
0.0
 71
     0
 42
0.2
  3
txt
  4

  0
STYLE
  5
3A4
330
3
100
AcDbSymbolTableRecord
100
AcDbTextStyleTableRecord
  2
GENERATED_STYLE_1
 70
     0
 40
0.0
 41
1.0
 50
0.0
 71
     0
 42
0.2
  3

  4

1001
ACAD
1000
Arial
1071
       34
  0
ENDTAB
  0
TABLE
  2
VIEW
  5
6
330
0
100
AcDbSymbolTable
 70
     0
  0
ENDTAB
  0
TABLE
  2
UCS
  5
7
330
0
100
AcDbSymbolTable
 70
     0
  0
ENDTAB
  0
TABLE
  2
APPID
  5
9
330
0
100
AcDbSymbolTable
 70
     1
  0
APPID
  5
12
330
9
100
AcDbSymbolTableRecord
100
AcDbRegAppTableRecord
  2
ACAD
 70
     0
  0
ENDTAB
  0
TABLE
  2
DIMSTYLE
  5
A
330
0
100
AcDbSymbolTable
 70
     3
100
AcDbDimStyleTable
  0
DIMSTYLE
105
27
330
A
100
AcDbSymbolTableRecord
100
AcDbDimStyleTableRecord
  2
Standard
 70
     0
178
     0
340
11
  0
DIMSTYLE
105
3A7
102
{ACAD_REACTORS
330
3A6
102
}
330
A
100
AcDbSymbolTableRecord
100
AcDbDimStyleTableRecord
  2
GENERATED_STYLE__1
 70
     0
 41
3.04
 42
100.0
 77
     1
140
5.0
172
     1
176
     7
177
     7
271
     0
178
     7
271
     0
279
     2
288
     1
340
3A4
342
3A8
343
3A8
344
3A8
  0
DIMSTYLE
105
3B2
330
A
100
AcDbSymbolTableRecord
100
AcDbDimStyleTableRecord
  2
GENERATED_STYLE__2
 70
     0
 41
3.648
172
     1
178
     0
340
0
341
3B3
  0
ENDTAB
  0
TABLE
  2
BLOCK_RECORD
  5
1
330
0
100
AcDbSymbolTable
 70
     5
  0
BLOCK_RECORD
  5
1F
330
1
100
AcDbSymbolTableRecord
100
AcDbBlockTableRecord
  2
*Model_Space
340
22
  0
BLOCK_RECORD
  5
1B
330
1
100
AcDbSymbolTableRecord
100
AcDbBlockTableRecord
  2
*Paper_Space
340
1E
  0
BLOCK_RECORD
  5
23
330
1
100
AcDbSymbolTableRecord
100
AcDbBlockTableRecord
  2
*Paper_Space0
340
26
  0
BLOCK_RECORD
  5
39A
330
1
100
AcDbSymbolTableRecord
100
AcDbBlockTableRecord
  2
*D1
340
0
  0
BLOCK_RECORD
  5
3A8
330
1
100
AcDbSymbolTableRecord
100
AcDbBlockTableRecord
  2
ARROWHEAD_2
340
0
  0
BLOCK_RECORD
  5
3B3
330
1
100
AcDbSymbolTableRecord
100
AcDbBlockTableRecord
  2
ARROWHEAD_5
340
0
  0
BLOCK_RECORD
  5
3D0
330
1
100
AcDbSymbolTableRecord
100
AcDbBlockTableRecord
  2
DF-16-R Wall - Non-cantilevered_STORY_MARKER
340
0
  0
ENDTAB
  0
ENDSEC
  0
SECTION
  2
BLOCKS
  0
BLOCK
  5
20
330
1F
100
AcDbEntity
  8
0
100
AcDbBlockBegin
  2
*Model_Space
 70
     0
 10
0.0
 20
0.0
 30
0.0
  3
*Model_Space
  1

  0
ENDBLK
  5
21
330
1F
100
AcDbEntity
  8
0
100
AcDbBlockEnd
  0
BLOCK
  5
1C
330
1B
100
AcDbEntity
 67
     1
  8
0
100
AcDbBlockBegin
  2
*Paper_Space
 70
     0
 10
0.0
 20
0.0
 30
0.0
  3
*Paper_Space
  1

  0
ENDBLK
  5
1D
330
1B
100
AcDbEntity
 67
     1
  8
0
100
AcDbBlockEnd
  0
BLOCK
  5
24
330
23
100
AcDbEntity
  8
0
100
AcDbBlockBegin
  2
*Paper_Space0
 70
     0
 10
0.0
 20
0.0
 30
0.0
  3
*Paper_Space0
  1

  0
ENDBLK
  5
25
330
23
100
AcDbEntity
  8
0
100
AcDbBlockEnd
  0
BLOCK
  5
39B
330
39A
100
AcDbEntity
  8
0
100
AcDbBlockBegin
  2
*D1
 70
     1
 10
0.0
 20
0.0
 30
0.0
  3
*D1
  1

  0
LINE
  5
39D
330
39A
100
AcDbEntity
  8
0_Pen_No__1
  6
Continuous
100
AcDbLine
 10
114.5794217351708
 20
266.4138680791073
 30
0.0
 11
116.5354217351708
 21
266.4138680791073
 31
0.0
  0
LINE
  5
39E
330
39A
100
AcDbEntity
  8
0_Pen_No__1
  6
Continuous
100
AcDbLine
 10
116.5354217351708
 20
266.4138680791073
 30
0.0
 11
128.5354217351708
 21
266.4138680791073
 31
0.0
  0
LINE
  5
39F
330
39A
100
AcDbEntity
  8
0_Pen_No__1
  6
Continuous
100
AcDbLine
 10
117.6901217351708
 20
268.4138680791073
 30
0.0
 11
115.3807217351709
 21
264.4138680791073
 31
0.0
  0
LINE
  5
3A0
330
39A
100
AcDbEntity
  8
0_Pen_No__1
  6
Continuous
100
AcDbLine
 10
127.3807217351708
 20
264.4138680791073
 30
0.0
 11
129.6901217351709
 21
268.4138680791073
 31
0.0
  0
LINE
  5
3A1
330
39A
100
AcDbEntity
  8
0_Pen_No__1
  6
Continuous
100
AcDbLine
 10
128.5354217351708
 20
266.4138680791073
 30
0.0
 11
130.4914217351709
 21
266.4138680791073
 31
0.0
  0
LINE
  5
3A2
330
39A
100
AcDbEntity
  8
0_Pen_No__1
  6
Continuous
100
AcDbLine
 10
116.5354217351708
 20
263.4138680791073
 30
0.0
 11
116.5354217351708
 21
269.4138680791073
 31
0.0
  0
LINE
  5
3A3
330
39A
100
AcDbEntity
  8
0_Pen_No__1
  6
Continuous
100
AcDbLine
 10
128.5354217351708
 20
263.4138680791073
 30
0.0
 11
128.5354217351708
 21
269.4138680791073
 31
0.0
  0
MTEXT
  5
3A5
330
39A
100
AcDbEntity
  8
0_Pen_No__1
100
AcDbMText
 10
129.5354217351708
 20
267.4138680567555
 30
0.0
 40
5.0
 41
0.0
 71
     7
 72
     1
  1
{12mm min gap}
  7
GENERATED_STYLE_1
 73
     1
 44
1.0
  0
ENDBLK
  5
39C
330
39A
100
AcDbEntity
  8
0
100
AcDbBlockEnd
  0
BLOCK
  5
3A9
330
3A8
100
AcDbEntity
  8
0
100
AcDbBlockBegin
  2
ARROWHEAD_2
 70
     0
 10
0.0
 20
0.0
 30
0.0
  3
ARROWHEAD_2
  1

  0
LINE
  5
3AB
330
3A8
100
AcDbEntity
  8
0
  6
Continuous
 62
     0
370
     0
100
AcDbLine
 10
-0.3781315
 20
-0.655
 30
0.0
 11
0.3781315
 21
0.655
 31
0.0
  0
LINE
  5
3AC
330
3A8
100
AcDbEntity
  8
0
  6
Continuous
 62
     0
370
     0
100
AcDbLine
 10
0.0
 20
0.0
 30
0.0
 11
-1.0
 21
0.0
 31
0.0
  0
ENDBLK
  5
3AA
330
3A8
100
AcDbEntity
  8
0
100
AcDbBlockEnd
  0
BLOCK
  5
3B4
330
3B3
100
AcDbEntity
  8
0
100
AcDbBlockBegin
  2
ARROWHEAD_5
 70
     0
 10
0.0
 20
0.0
 30
0.0
  3
ARROWHEAD_5
  1

  0
SOLID
  5
3B6
330
3B3
100
AcDbEntity
  8
0
  6
Continuous
 62
     0
370
     0
100
AcDbTrace
 10
-1.0
 20
0.2679
 30
0.0
 11
0.0
 21
0.0
 31
0.0
 12
-1.0
 22
-0.2679
 32
0.0
 13
-1.0
 23
0.2679
 33
0.0
  0
LINE
  5
3B7
330
3B3
100
AcDbEntity
  8
0
  6
Continuous
 62
     0
370
     0
100
AcDbLine
 10
0.0
 20
0.0
 30
0.0
 11
-1.0
 21
0.0
 31
0.0
  0
ENDBLK
  5
3B5
330
3B3
100
AcDbEntity
  8
0
100
AcDbBlockEnd
  0
BLOCK
  5
3D1
330
3D0
100
AcDbEntity
  8
0
100
AcDbBlockBegin
  2
DF-16-R Wall - Non-cantilevered_STORY_MARKER
 70
     0
 10
0.0
 20
0.0
 30
0.0
  3
DF-16-R Wall - Non-cantilevered_STORY_MARKER
  1

  0
ENDBLK
  5
3D2
330
3D0
100
AcDbEntity
  8
0
100
AcDbBlockEnd
  0
ENDSEC
  0
SECTION
  2
ENTITIES
  0
HATCH
  5
3F
330
1F
100
AcDbEntity
  8
0_Pen_No__146
  6
Continuous
 62
   250
420
  3289650
370
     0
100
AcDbHatch
 10
0.0
 20
0.0
 30
0.0
210
0.0
220
0.0
230
1.0
  2
SOLID
 70
     1
 71
     0
 91
        1
 92
        3
 72
     0
 73
     1
 93
        4
 10
44.99999999999971
 20
77.36897359396843
 10
89.99999999999942
 20
77.36897359396866
 10
89.99999999999942
 20
217.3689735939686
 10
44.99999999999904
 20
217.3689735939683
 97
        0
 75
     0
 76
     1
 98
        0
  0
HATCH
  5
41
330
1F
100
AcDbEntity
  8
0_Pen_No__146
  6
Continuous
 62
   250
420
  3289650
370
     0
100
AcDbHatch
 10
0.0
 20
0.0
 30
0.0
210
0.0
220
0.0
230
1.0
  2
SOLID
 70
     1
 71
     0
 91
        1
 92
        3
 72
     0
 73
     1
 93
        4
 10
132.5354217351706
 20
77.36897359396843
 10
177.5354217351701
 20
77.36897359396866
 10
177.5354217351701
 20
217.3689735939686
 10
132.53542173517
 20
217.3689735939683
 97
        0
 75
     0
 76
     1
 98
        0
  0
HATCH
  5
42
330
1F
100
AcDbEntity
  8
0_Pen_No__146
  6
Continuous
 62
   250
420
  3289650
370
     0
100
AcDbHatch
 10
0.0
 20
0.0
 30
0.0
210
0.0
220
0.0
230
1.0
  2
SOLID
 70
     1
 71
     0
 91
        1
 92
        3
 72
     0
 73
     1
 93
        4
 10
120.6540327980694
 20
217.3689735939683
 10
120.6540327980694
 20
77.36897359396843
 10
132.5354217351706
 20
77.36897359396843
 10
132.5354217351706
 20
217.3689735939683
 97
        0
 75
     0
 76
     1
 98
        0
  0
HATCH
  5
43
330
1F
100
AcDbEntity
  8
0_Pen_No__146
  6
Continuous
 62
   250
420
  3289650
370
     0
100
AcDbHatch
 10
0.0
 20
0.0
 30
0.0
210
0.0
220
0.0
230
1.0
  2
SOLID
 70
     1
 71
     0
 91
        1
 92
        3
 72
     0
 73
     1
 93
        4
 10
94.47822492686231
 20
179.2461050010816
 10
94.47822492686231
 20
115.4918421868552
 10
107.2955404160159
 20
115.4918421868552
 10
107.2955404160159
 20
179.2461050010816
 97
        0
 75
     0
 76
     1
 98
        0
  0
HATCH
  5
44
330
1F
100
AcDbEntity
  8
0_Pen_No__146
  6
Continuous
 62
   250
420
  3289650
370
     0
100
AcDbHatch
 10
0.0
 20
0.0
 30
0.0
210
0.0
220
0.0
230
1.0
  2
SOLID
 70
     1
 71
     0
 91
        1
 92
        3
 72
     0
 73
     1
 93
        4
 10
117.2249868404409
 20
169.1501169875063
 10
117.2249868404409
 20
154.6288929103616
 10
119.6034631979044
 20
154.6288929103616
 10
119.6034631979044
 20
169.1501169875063
 97
        0
 75
     0
 76
     1
 98
        0
  0
HATCH
  5
45
330
1F
100
AcDbEntity
  8
0_Pen_No__146
  6
Continuous
 62
   250
420
  3289650
370
     0
100
AcDbHatch
 10
0.0
 20
0.0
 30
0.0
210
0.0
220
0.0
230
1.0
  2
SOLID
 70
     1
 71
     0
 91
        1
 92
        3
 72
     0
 73
     1
 93
        4
 10
117.2249868404409
 20
125.5878302004305
 10
119.6034631979044
 20
125.5878302004305
 10
119.6034631979044
 20
140.1090542775751
 10
117.2249868404409
 20
140.1090542775751
 97
        0
 75
     0
 76
     1
 98
        0
  0
HATCH
  5
46
330
1F
100
AcDbEntity
  8
0_Pen_No__146
  6
Continuous
100
AcDbHatch
 10
0.0
 20
0.0
 30
0.0
210
0.0
220
0.0
230
1.0
  2
SMALLDOTS
 70
     0
 71
     0
 91
        1
 92
        3
 72
     1
 73
     1
 93
       18
 10
94.53542173517215
 20
104.0545650764471
 42
0.2578442516232813
 10
109.5354217351694
 20
62.39963671483784
 42
0.0
 10
109.5354217351694
 20
0.0
 42
0.0
 10
116.5354217351708
 20
0.0
 42
0.0
 10
116.5354217351708
 20
67.05456507644803
 42
-0.2372885156421136
 10
101.5354217351738
 20
97.05456507644561
 42
0.0
 10
116.5354217351708
 20
97.05456507644561
 42
0.0
 10
116.5354217351708
 20
196.3996367148382
 42
-0.2372885156421206
 10
101.5354217351738
 20
218.683596107867
 42
0.0
 10
101.5354217351705
 20
243.663260630757
 42
0.0
 10
108.2217709060889
 20
243.663260630757
 42
0.0
 10
108.2217709060889
 20
254.899636714838
 42
0.0
 10
103.1845372923001
 20
254.899636714838
 42
0.0
 10
103.1845372923001
 20
249.4786081149178
 42
0.0
 10
94.53542173517215
 20
249.4786081149178
 42
0.0
 10
94.53542173517215
 20
225.6835961078649
 42
0.2578442516232825
 10
109.5354217351694
 20
191.744708353228
 42
0.0
 10
109.5354217351694
 20
104.0545650764471
 42
0.0
 97
        0
 75
     0
 76
     2
 52
0.0
 41
1.0
 77
     0
 78
     2
 53
45.0
 43
0.0
 44
0.0
 45
-4.772970773009195
 46
4.772970773009196
 79
     4
 49
0.0
 49
-4.5
 49
0.0
 49
-6.75
 53
110.0
 43
15.0
 44
0.0
 45
6.34292519030488
 46
2.308635967448266
 79
     4
 49
0.0
 49
-3.3
 49
0.0
 49
-5.700000000000001
 98
        0
  0
HATCH
  5
47
330
1F
100
AcDbEntity
  8
0_Pen_No__146
  6
Continuous
100
AcDbHatch
 10
0.0
 20
0.0
 30
0.0
210
0.0
220
0.0
230
1.0
  2
SMALLDOTS
 70
     0
 71
     0
 91
        1
 92
        3
 72
     1
 73
     1
 93
       14
 10
109.6003861171517
 20
338.0773205490053
 42
0.0
 10
100.1603878617687
 20
338.0773205490053
 42
0.0811068166384647
 10
109.5354217351694
 20
326.6830723921499
 42
0.0
 10
109.5354217351694
 20
264.6830723921489
 42
0.0
 10
94.53542173517215
 20
264.6830723921489
 42
0.0
 10
94.53542173517215
 20
250.8829128296823
 42
0.0
 10
102.5354217351713
 20
250.8829128296823
 42
0.0
 10
102.5354217351713
 20
257.6830723921511
 42
0.0
 10
109.5354217351694
 20
257.6830723921511
 42
0.0
 10
109.5354217351694
 20
237.6830723921479
 42
0.0
 10
102.5354217351713
 20
237.6830723921479
 42
0.0
 10
102.5354217351713
 20
230.68307239215
 42
0.0
 10
116.5354217351708
 20
230.68307239215
 42
0.0
 10
116.5354217351708
 20
331.3380007537603
 42
-0.0650399799797313
 97
        0
 75
     0
 76
     2
 52
0.0
 41
1.0
 77
     0
 78
     2
 53
45.0
 43
0.0
 44
0.0
 45
-4.772970773009195
 46
4.772970773009196
 79
     4
 49
0.0
 49
-4.5
 49
0.0
 49
-6.75
 53
110.0
 43
15.0
 44
0.0
 45
6.34292519030488
 46
2.308635967448266
 79
     4
 49
0.0
 49
-3.3
 49
0.0
 49
-5.700000000000001
 98
        0
  0
HATCH
  5
48
330
1F
100
AcDbEntity
  8
0_Pen_No__146
  6
Continuous
 62
   250
420
  3289650
370
     0
100
AcDbHatch
 10
0.0
 20
0.0
 30
0.0
210
0.0
220
0.0
230
1.0
  2
SOLID
 70
     1
 71
     0
 91
        1
 92
        3
 72
     0
 73
     1
 93
        4
 10
128.5354217351708
 20
217.3689735939686
 10
208.5354217351709
 20
217.3689735939688
 10
208.5354217351705
 20
247.3689735939686
 10
128.5354217351708
 20
247.3689735939686
 97
        0
 75
     0
 76
     1
 98
        0
  0
HATCH
  5
49
330
1F
100
AcDbEntity
  8
0_Pen_No__146
  6
Continuous
 62
   250
420
  3289650
370
     0
100
AcDbHatch
 10
0.0
 20
0.0
 30
0.0
210
0.0
220
0.0
230
1.0
  2
SOLID
 70
     1
 71
     0
 91
        1
 92
        3
 72
     0
 73
     1
 93
        4
 10
213.5354217351706
 20
217.3689735939686
 10
238.8462718675923
 20
217.3689735939686
 10
238.8462718675923
 20
247.3689735939686
 10
213.5354217351706
 20
247.3689735939686
 97
        0
 75
     0
 76
     1
 98
        0
  0
LWPOLYLINE
  5
4A
330
1F
100
AcDbEntity
  8
0_Pen_No__1
  6
Continuous
100
AcDbPolyline
 90
        2
 70
   128
 43
0.0
 10
44.99999999999971
 20
77.36897359396843
 10
44.99999999999904
 20
217.3689735939683
  0
LWPOLYLINE
  5
4C
330
1F
100
AcDbEntity
  8
0_Pen_No__1
  6
Continuous
100
AcDbPolyline
 90
        2
 70
   128
 43
0.0
 10
44.99999999999904
 20
217.3689735939683
 10
89.99999999999942
 20
217.3689735939686
  0
LWPOLYLINE
  5
4D
330
1F
100
AcDbEntity
  8
0_Pen_No__1
  6
Continuous
100
AcDbPolyline
 90
        2
 70
   128
 43
0.0
 10
89.99999999999942
 20
217.3689735939686
 10
89.99999999999942
 20
77.36897359396866
  0
LWPOLYLINE
  5
4E
330
1F
100
AcDbEntity
  8
0_Pen_No__1
  6
Continuous
100
AcDbPolyline
 90
        2
 70
   128
 43
0.0
 10
89.99999999999942
 20
77.36897359396866
 10
44.99999999999971
 20
77.36897359396843
  0
LWPOLYLINE
  5
4F
330
1F
100
AcDbEntity
  8
0_Pen_No__1
  6
Continuous
100
AcDbPolyline
 90
        2
 70
   128
 43
0.0
 10
132.5354217351706
 20
77.36897359396843
 10
132.53542173517
 20
217.3689735939683
  0
LWPOLYLINE
  5
50
330
1F
100
AcDbEntity
  8
0_Pen_No__1
  6
Continuous
100
AcDbPolyline
 90
        2
 70
   128
 43
0.0
 10
132.53542173517
 20
217.3689735939683
 10
177.5354217351701
 20
217.3689735939686
  0
LWPOLYLINE
  5
51
330
1F
100
AcDbEntity
  8
0_Pen_No__1
  6
Continuous
100
AcDbPolyline
 90
        2
 70
   128
 43
0.0
 10
177.5354217351701
 20
217.3689735939686
 10
177.5354217351701
 20
77.36897359396866
  0
LWPOLYLINE
  5
52
330
1F
100
AcDbEntity
  8
0_Pen_No__1
  6
Continuous
100
AcDbPolyline
 90
        2
 70
   128
 43
0.0
 10
177.5354217351701
 20
77.36897359396866
 10
132.5354217351706
 20
77.36897359396843
  0
LWPOLYLINE
  5
53
330
1F
100
AcDbEntity
  8
0_Pen_No__1
  6
Continuous
100
AcDbPolyline
 90
        2
 70
   128
 43
0.0
 10
120.6540327980694
 20
217.3689735939683
 10
132.5354217351706
 20
217.3689735939683
  0
LWPOLYLINE
  5
54
330
1F
100
AcDbEntity
  8
0_Pen_No__1
  6
Continuous
100
AcDbPolyline
 90
        2
 70
   128
 43
0.0
 10
132.5354217351706
 20
217.3689735939683
 10
132.5354217351706
 20
77.36897359396843
  0
LWPOLYLINE
  5
55
330
1F
100
AcDbEntity
  8
0_Pen_No__1
  6
Continuous
100
AcDbPolyline
 90
        2
 70
   128
 43
0.0
 10
132.5354217351706
 20
77.36897359396843
 10
120.6540327980694
 20
77.36897359396843
  0
LWPOLYLINE
  5
56
330
1F
100
AcDbEntity
  8
0_Pen_No__1
  6
Continuous
100
AcDbPolyline
 90
        2
 70
   128
 43
0.0
 10
120.6540327980694
 20
77.36897359396843
 10
120.6540327980694
 20
217.3689735939683
  0
LWPOLYLINE
  5
57
330
1F
100
AcDbEntity
  8
0_Pen_No__1
  6
Continuous
100
AcDbPolyline
 90
        2
 70
   128
 43
0.0
 10
94.47822492686231
 20
179.2461050010816
 10
94.47822492686231
 20
115.4918421868552
  0
LWPOLYLINE
  5
58
330
1F
100
AcDbEntity
  8
0_Pen_No__1
  6
Continuous
100
AcDbPolyline
 90
        2
 70
   128
 43
0.0
 10
94.47822492686231
 20
115.4918421868552
 10
107.2955404160159
 20
115.4918421868552
  0
LWPOLYLINE
  5
59
330
1F
100
AcDbEntity
  8
0_Pen_No__1
  6
Continuous
100
AcDbPolyline
 90
        2
 70
   128
 43
0.0
 10
107.2955404160159
 20
115.4918421868552
 10
107.2955404160159
 20
179.2461050010816
  0
LWPOLYLINE
  5
5A
330
1F
100
AcDbEntity
  8
0_Pen_No__1
  6
Continuous
100
AcDbPolyline
 90
        2
 70
   128
 43
0.0
 10
107.2955404160159
 20
179.2461050010816
 10
94.47822492686231
 20
179.2461050010816
  0
LWPOLYLINE
  5
5B
330
1F
100
AcDbEntity
  8
0_Pen_No__1
  6
Continuous
100
AcDbPolyline
 90
        2
 70
   128
 43
0.0
 10
117.2249868404409
 20
169.1501169875063
 10
119.6034631979044
 20
169.1501169875063
  0
LWPOLYLINE
  5
5C
330
1F
100
AcDbEntity
  8
0_Pen_No__1
  6
Continuous
100
AcDbPolyline
 90
        2
 70
   128
 43
0.0
 10
119.6034631979044
 20
169.1501169875063
 10
119.6034631979044
 20
154.6288929103616
  0
LWPOLYLINE
  5
5D
330
1F
100
AcDbEntity
  8
0_Pen_No__1
  6
Continuous
100
AcDbPolyline
 90
        2
 70
   128
 43
0.0
 10
119.6034631979044
 20
154.6288929103616
 10
117.2249868404409
 20
154.6288929103616
  0
LWPOLYLINE
  5
5E
330
1F
100
AcDbEntity
  8
0_Pen_No__1
  6
Continuous
100
AcDbPolyline
 90
        2
 70
   128
 43
0.0
 10
117.2249868404409
 20
154.6288929103616
 10
117.2249868404409
 20
169.1501169875063
  0
LWPOLYLINE
  5
5F
330
1F
100
AcDbEntity
  8
0_Pen_No__1
  6
Continuous
100
AcDbPolyline
 90
        2
 70
   128
 43
0.0
 10
117.2249868404409
 20
125.5878302004305
 10
119.6034631979044
 20
125.5878302004305
  0
LWPOLYLINE
  5
60
330
1F
100
AcDbEntity
  8
0_Pen_No__1
  6
Continuous
100
AcDbPolyline
 90
        2
 70
   128
 43
0.0
 10
119.6034631979044
 20
125.5878302004305
 10
119.6034631979044
 20
140.1090542775751
  0
LWPOLYLINE
  5
61
330
1F
100
AcDbEntity
  8
0_Pen_No__1
  6
Continuous
100
AcDbPolyline
 90
        2
 70
   128
 43
0.0
 10
119.6034631979044
 20
140.1090542775751
 10
117.2249868404409
 20
140.1090542775751
  0
LWPOLYLINE
  5
62
330
1F
100
AcDbEntity
  8
0_Pen_No__1
  6
Continuous
100
AcDbPolyline
 90
        2
 70
   128
 43
0.0
 10
117.2249868404409
 20
140.1090542775751
 10
117.2249868404409
 20
125.5878302004305
  0
LWPOLYLINE
  5
63
330
1F
100
AcDbEntity
  8
0_Pen_No__1
  6
Continuous
100
AcDbPolyline
 90
        2
 70
   128
 43
0.0
 10
178.5354217351702
 20
169.1501169875063
 10
180.913898092633
 20
169.1501169875063
  0
LWPOLYLINE
  5
64
330
1F
100
AcDbEntity
  8
0_Pen_No__1
  6
Continuous
100
AcDbPolyline
 90
        2
 70
   128
 43
0.0
 10
180.913898092633
 20
169.1501169875063
 10
180.913898092633
 20
154.6288929103616
  0
LWPOLYLINE
  5
65
330
1F
100
AcDbEntity
  8
0_Pen_No__1
  6
Continuous
100
AcDbPolyline
 90
        2
 70
   128
 43
0.0
 10
180.913898092633
 20
154.6288929103616
 10
178.5354217351702
 20
154.6288929103616
  0
LWPOLYLINE
  5
66
330
1F
100
AcDbEntity
  8
0_Pen_No__1
  6
Continuous
100
AcDbPolyline
 90
        2
 70
   128
 43
0.0
 10
178.5354217351702
 20
154.6288929103616
 10
178.5354217351702
 20
169.1501169875063
  0
LWPOLYLINE
  5
67
330
1F
100
AcDbEntity
  8
0_Pen_No__1
  6
Continuous
100
AcDbPolyline
 90
        2
 70
   128
 43
0.0
 10
178.5354217351702
 20
125.5878302004305
 10
180.913898092633
 20
125.5878302004305
  0
LWPOLYLINE
  5
68
330
1F
100
AcDbEntity
  8
0_Pen_No__1
  6
Continuous
100
AcDbPolyline
 90
        2
 70
   128
 43
0.0
 10
180.913898092633
 20
125.5878302004305
 10
180.913898092633
 20
140.1090542775751
  0
LWPOLYLINE
  5
69
330
1F
100
AcDbEntity
  8
0_Pen_No__1
  6
Continuous
100
AcDbPolyline
 90
        2
 70
   128
 43
0.0
 10
180.913898092633
 20
140.1090542775751
 10
178.5354217351702
 20
140.1090542775751
  0
LWPOLYLINE
  5
6A
330
1F
100
AcDbEntity
  8
0_Pen_No__1
  6
Continuous
100
AcDbPolyline
 90
        2
 70
   128
 43
0.0
 10
178.5354217351702
 20
140.1090542775751
 10
178.5354217351702
 20
125.5878302004305
  0
LWPOLYLINE
  5
6B
330
1F
100
AcDbEntity
  8
0_Pen_No__1
  6
Continuous
100
AcDbPolyline
 90
        2
 70
   128
 43
0.0
 10
41.0081862048004
 20
169.1501169875063
 10
43.3866625622632
 20
169.1501169875063
  0
LWPOLYLINE
  5
6C
330
1F
100
AcDbEntity
  8
0_Pen_No__1
  6
Continuous
100
AcDbPolyline
 90
        2
 70
   128
 43
0.0
 10
43.3866625622632
 20
169.1501169875063
 10
43.3866625622632
 20
154.6288929103616
  0
LWPOLYLINE
  5
6D
330
1F
100
AcDbEntity
  8
0_Pen_No__1
  6
Continuous
100
AcDbPolyline
 90
        2
 70
   128
 43
0.0
 10
43.3866625622632
 20
154.6288929103616
 10
41.0081862048004
 20
154.6288929103616
  0
LWPOLYLINE
  5
6E
330
1F
100
AcDbEntity
  8
0_Pen_No__1
  6
Continuous
100
AcDbPolyline
 90
        2
 70
   128
 43
0.0
 10
41.0081862048004
 20
154.6288929103616
 10
41.0081862048004
 20
169.1501169875063
  0
LWPOLYLINE
  5
6F
330
1F
100
AcDbEntity
  8
0_Pen_No__1
  6
Continuous
100
AcDbPolyline
 90
        2
 70
   128
 43
0.0
 10
41.0081862048004
 20
125.5878302004305
 10
43.3866625622632
 20
125.5878302004305
  0
LWPOLYLINE
  5
70
330
1F
100
AcDbEntity
  8
0_Pen_No__1
  6
Continuous
100
AcDbPolyline
 90
        2
 70
   128
 43
0.0
 10
43.3866625622632
 20
125.5878302004305
 10
43.3866625622632
 20
140.1090542775751
  0
LWPOLYLINE
  5
71
330
1F
100
AcDbEntity
  8
0_Pen_No__1
  6
Continuous
100
AcDbPolyline
 90
        2
 70
   128
 43
0.0
 10
43.3866625622632
 20
140.1090542775751
 10
41.0081862048004
 20
140.1090542775751
  0
LWPOLYLINE
  5
72
330
1F
100
AcDbEntity
  8
0_Pen_No__1
  6
Continuous
100
AcDbPolyline
 90
        2
 70
   128
 43
0.0
 10
41.0081862048004
 20
140.1090542775751
 10
41.0081862048004
 20
125.5878302004305
  0
LWPOLYLINE
  5
73
330
1F
100
AcDbEntity
  8
0_Pen_No__1
  6
Continuous
100
AcDbPolyline
 90
        2
 70
   128
 43
0.0
 10
116.5354217351708
 20
97.05456507644561
 10
116.5354217351708
 20
184.4000313036545
  0
LWPOLYLINE
  5
74
330
1F
100
AcDbEntity
  8
0_Pen_No__1
  6
Continuous
100
AcDbPolyline
 90
        2
 70
   128
 43
0.0
 10
116.5354217351708
 20
184.4000313036545
 10
116.5354217351708
 20
191.660312007071
  0
LWPOLYLINE
  5
75
330
1F
100
AcDbEntity
  8
0_Pen_No__1
  6
Continuous
100
AcDbPolyline
 90
        2
 70
   128
 43
0.0
 10
116.5354217351708
 20
191.660312007071
 10
116.5354217351708
 20
196.3996367148382
  0
LWPOLYLINE
  5
76
330
1F
100
AcDbEntity
  8
0_Pen_No__1
  6
Continuous
100
AcDbPolyline
 90
        2
 70
   128
 43
0.0
 10
101.5354217351738
 20
218.683596107867
 10
101.5354217351705
 20
243.663260630757
  0
LWPOLYLINE
  5
77
330
1F
100
AcDbEntity
  8
0_Pen_No__1
  6
Continuous
100
AcDbPolyline
 90
        2
 70
   128
 43
0.0
 10
101.5354217351705
 20
243.663260630757
 10
108.2217709060889
 20
243.663260630757
  0
LWPOLYLINE
  5
78
330
1F
100
AcDbEntity
  8
0_Pen_No__1
  6
Continuous
100
AcDbPolyline
 90
        2
 70
   128
 43
0.0
 10
108.2217709060889
 20
243.663260630757
 10
108.2217709060889
 20
254.899636714838
  0
LWPOLYLINE
  5
79
330
1F
100
AcDbEntity
  8
0_Pen_No__1
  6
Continuous
100
AcDbPolyline
 90
        2
 70
   128
 43
0.0
 10
108.2217709060889
 20
254.899636714838
 10
103.1845372923001
 20
254.899636714838
  0
LWPOLYLINE
  5
7A
330
1F
100
AcDbEntity
  8
0_Pen_No__1
  6
Continuous
100
AcDbPolyline
 90
        2
 70
   128
 43
0.0
 10
103.1845372923001
 20
254.899636714838
 10
103.1845372923001
 20
249.4786081149178
  0
LWPOLYLINE
  5
7B
330
1F
100
AcDbEntity
  8
0_Pen_No__1
  6
Continuous
100
AcDbPolyline
 90
        2
 70
   128
 43
0.0
 10
103.1845372923001
 20
249.4786081149178
 10
94.53542173517215
 20
249.4786081149178
  0
LWPOLYLINE
  5
7C
330
1F
100
AcDbEntity
  8
0_Pen_No__1
  6
Continuous
100
AcDbPolyline
 90
        2
 70
   128
 43
0.0
 10
94.53542173517215
 20
249.4786081149178
 10
94.53542173517215
 20
225.6835961078649
  0
LWPOLYLINE
  5
7D
330
1F
100
AcDbEntity
  8
0_Pen_No__1
  6
Continuous
100
AcDbPolyline
 90
        2
 70
   128
 43
0.0
 10
109.5354217351694
 20
191.744708353228
 10
109.5354217351694
 20
191.660312007071
  0
LWPOLYLINE
  5
7E
330
1F
100
AcDbEntity
  8
0_Pen_No__1
  6
Continuous
100
AcDbPolyline
 90
        2
 70
   128
 43
0.0
 10
109.5354217351694
 20
191.660312007071
 10
109.5354217351694
 20
184.4000313036545
  0
LWPOLYLINE
  5
7F
330
1F
100
AcDbEntity
  8
0_Pen_No__1
  6
Continuous
100
AcDbPolyline
 90
        2
 70
   128
 43
0.0
 10
109.5354217351694
 20
184.4000313036545
 10
109.5354217351694
 20
104.0545650764471
  0
LWPOLYLINE
  5
80
330
1F
100
AcDbEntity
  8
0_Pen_No__1
  6
Continuous
100
AcDbPolyline
 90
        2
 70
   128
 43
0.0
 10
109.5354217351694
 20
104.0545650764471
 10
94.53542173517215
 20
104.0545650764471
  0
LWPOLYLINE
  5
81
330
1F
100
AcDbEntity
  8
0_Pen_No__1
  6
Continuous
100
AcDbPolyline
 90
        2
 70
   128
 43
0.0
 10
109.5354217351694
 20
62.39963671483784
 10
109.5354217351694
 20
0.0
  0
LWPOLYLINE
  5
82
330
1F
100
AcDbEntity
  8
0_Pen_No__1
  6
Continuous
100
AcDbPolyline
 90
        2
 70
   128
 43
0.0
 10
109.5354217351694
 20
0.0
 10
116.5354217351708
 20
0.0
  0
LWPOLYLINE
  5
83
330
1F
100
AcDbEntity
  8
0_Pen_No__1
  6
Continuous
100
AcDbPolyline
 90
        2
 70
   128
 43
0.0
 10
116.5354217351708
 20
0.0
 10
116.5354217351708
 20
67.05456507644803
  0
LWPOLYLINE
  5
84
330
1F
100
AcDbEntity
  8
0_Pen_No__1
  6
Continuous
100
AcDbPolyline
 90
        2
 70
   128
 43
0.0
 10
101.5354217351738
 20
97.05456507644561
 10
116.5354217351708
 20
97.05456507644561
  0
LWPOLYLINE
  5
85
330
1F
100
AcDbEntity
  8
0_Pen_No__1
  6
Continuous
100
AcDbPolyline
 90
        2
 70
   128
 43
0.0
 10
109.6003861171517
 20
338.0773205490053
 10
100.1603878617687
 20
338.0773205490053
  0
LWPOLYLINE
  5
86
330
1F
100
AcDbEntity
  8
0_Pen_No__1
  6
Continuous
100
AcDbPolyline
 90
        2
 70
   128
 43
0.0
 10
109.5354217351694
 20
326.6830723921499
 10
109.5354217351694
 20
264.6830723921489
  0
LWPOLYLINE
  5
87
330
1F
100
AcDbEntity
  8
0_Pen_No__1
  6
Continuous
100
AcDbPolyline
 90
        2
 70
   128
 43
0.0
 10
109.5354217351694
 20
264.6830723921489
 10
94.53542173517215
 20
264.6830723921489
  0
LWPOLYLINE
  5
88
330
1F
100
AcDbEntity
  8
0_Pen_No__1
  6
Continuous
100
AcDbPolyline
 90
        2
 70
   128
 43
0.0
 10
94.53542173517215
 20
264.6830723921489
 10
94.53542173517215
 20
250.8829128296823
  0
LWPOLYLINE
  5
89
330
1F
100
AcDbEntity
  8
0_Pen_No__1
  6
Continuous
100
AcDbPolyline
 90
        2
 70
   128
 43
0.0
 10
94.53542173517215
 20
250.8829128296823
 10
102.5354217351713
 20
250.8829128296823
  0
LWPOLYLINE
  5
8A
330
1F
100
AcDbEntity
  8
0_Pen_No__1
  6
Continuous
100
AcDbPolyline
 90
        2
 70
   128
 43
0.0
 10
102.5354217351713
 20
250.8829128296823
 10
102.5354217351713
 20
257.6830723921511
  0
LWPOLYLINE
  5
8B
330
1F
100
AcDbEntity
  8
0_Pen_No__1
  6
Continuous
100
AcDbPolyline
 90
        2
 70
   128
 43
0.0
 10
102.5354217351713
 20
257.6830723921511
 10
109.5354217351694
 20
257.6830723921511
  0
LWPOLYLINE
  5
8C
330
1F
100
AcDbEntity
  8
0_Pen_No__1
  6
Continuous
100
AcDbPolyline
 90
        2
 70
   128
 43
0.0
 10
109.5354217351694
 20
257.6830723921511
 10
109.5354217351694
 20
237.6830723921479
  0
LWPOLYLINE
  5
8D
330
1F
100
AcDbEntity
  8
0_Pen_No__1
  6
Continuous
100
AcDbPolyline
 90
        2
 70
   128
 43
0.0
 10
109.5354217351694
 20
237.6830723921479
 10
102.5354217351713
 20
237.6830723921479
  0
LWPOLYLINE
  5
8E
330
1F
100
AcDbEntity
  8
0_Pen_No__1
  6
Continuous
100
AcDbPolyline
 90
        2
 70
   128
 43
0.0
 10
102.5354217351713
 20
237.6830723921479
 10
102.5354217351713
 20
230.68307239215
  0
LWPOLYLINE
  5
8F
330
1F
100
AcDbEntity
  8
0_Pen_No__1
  6
Continuous
100
AcDbPolyline
 90
        2
 70
   128
 43
0.0
 10
102.5354217351713
 20
230.68307239215
 10
116.5354217351708
 20
230.68307239215
  0
LWPOLYLINE
  5
90
330
1F
100
AcDbEntity
  8
0_Pen_No__1
  6
Continuous
100
AcDbPolyline
 90
        2
 70
   128
 43
0.0
 10
116.5354217351708
 20
230.68307239215
 10
116.5354217351708
 20
331.3380007537603
  0
LWPOLYLINE
  5
91
330
1F
100
AcDbEntity
  8
0_Pen_No__1
  6
Continuous
100
AcDbPolyline
 90
        2
 70
   128
 43
0.0
 10
128.5354217351708
 20
217.3689735939686
 10
208.5354217351709
 20
217.3689735939688
  0
LWPOLYLINE
  5
92
330
1F
100
AcDbEntity
  8
0_Pen_No__1
  6
Continuous
100
AcDbPolyline
 90
        2
 70
   128
 43
0.0
 10
208.5354217351709
 20
217.3689735939688
 10
208.5354217351705
 20
247.3689735939686
  0
LWPOLYLINE
  5
93
330
1F
100
AcDbEntity
  8
0_Pen_No__1
  6
Continuous
100
AcDbPolyline
 90
        2
 70
   128
 43
0.0
 10
208.5354217351705
 20
247.3689735939686
 10
128.5354217351708
 20
247.3689735939686
  0
LWPOLYLINE
  5
94
330
1F
100
AcDbEntity
  8
0_Pen_No__1
  6
Continuous
100
AcDbPolyline
 90
        2
 70
   128
 43
0.0
 10
128.5354217351708
 20
247.3689735939686
 10
128.5354217351708
 20
217.3689735939686
  0
LWPOLYLINE
  5
95
330
1F
100
AcDbEntity
  8
0_Pen_No__1
  6
Continuous
100
AcDbPolyline
 90
        2
 70
   128
 43
0.0
 10
213.5354217351706
 20
217.3689735939686
 10
238.8462718675923
 20
217.3689735939686
  0
LWPOLYLINE
  5
96
330
1F
100
AcDbEntity
  8
0_Pen_No__1
  6
Continuous
100
AcDbPolyline
 90
        2
 70
   128
 43
0.0
 10
238.8462718675923
 20
217.3689735939686
 10
238.8462718675923
 20
247.3689735939686
  0
LWPOLYLINE
  5
97
330
1F
100
AcDbEntity
  8
0_Pen_No__1
  6
Continuous
100
AcDbPolyline
 90
        2
 70
   128
 43
0.0
 10
238.8462718675923
 20
247.3689735939686
 10
213.5354217351706
 20
247.3689735939686
  0
LWPOLYLINE
  5
98
330
1F
100
AcDbEntity
  8
0_Pen_No__1
  6
Continuous
100
AcDbPolyline
 90
        2
 70
   128
 43
0.0
 10
213.5354217351706
 20
247.3689735939686
 10
213.5354217351706
 20
217.3689735939686
  0
LWPOLYLINE
  5
99
330
1F
100
AcDbEntity
  8
0_Pen_No__1
  6
Continuous
100
AcDbPolyline
 90
        2
 70
   128
 43
0.0
 10
101.5354217351738
 20
218.683596107867
 42
0.2372885156421206
 10
116.5354217351708
 20
196.3996367148382
  0
LWPOLYLINE
  5
9A
330
1F
100
AcDbEntity
  8
0_Pen_No__1
  6
Continuous
100
AcDbPolyline
 90
        2
 70
   128
 43
0.0
 10
94.53542173517215
 20
225.6835961078649
 42
0.2578442516232823
 10
109.5354217351694
 20
191.744708353228
  0
LWPOLYLINE
  5
9B
330
1F
100
AcDbEntity
  8
0_Pen_No__1
  6
Continuous
100
AcDbPolyline
 90
        2
 70
   128
 43
0.0
 10
94.53542173517215
 20
104.0545650764471
 42
0.2578442516232812
 10
109.5354217351694
 20
62.39963671483784
  0
LWPOLYLINE
  5
9C
330
1F
100
AcDbEntity
  8
0_Pen_No__1
  6
Continuous
100
AcDbPolyline
 90
        2
 70
   128
 43
0.0
 10
101.5354217351738
 20
97.05456507644561
 42
0.2372885156421135
 10
116.5354217351708
 20
67.05456507644803
  0
LWPOLYLINE
  5
9D
330
1F
100
AcDbEntity
  8
0_Pen_No__1
  6
Continuous
100
AcDbPolyline
 90
        2
 70
   128
 43
0.0
 10
100.1603878617687
 20
338.0773205490053
 42
0.0811068166384635
 10
109.5354217351692
 20
326.6830723921497
  0
LWPOLYLINE
  5
9E
330
1F
100
AcDbEntity
  8
0_Pen_No__1
  6
Continuous
100
AcDbPolyline
 90
        2
 70
   128
 43
0.0
 10
109.6003861171517
 20
338.0773205490053
 42
0.0650399799797313
 10
116.5354217351708
 20
331.3380007537603
  0
LWPOLYLINE
  5
9F
330
1F
100
AcDbEntity
  8
0_Pen_No__1
  6
Continuous
100
AcDbPolyline
 90
        2
 70
   128
 43
0.0
 10
22.75118640761975
 20
142.2689735939686
 10
22.75118640761975
 20
142.3464540536061
  0
LWPOLYLINE
  5
A0
330
1F
100
AcDbEntity
  8
0_Pen_No__1
  6
Continuous
100
AcDbPolyline
 90
        2
 70
   128
 43
0.0
 10
22.75118640761975
 20
142.3464540536061
 10
22.75118640761975
 20
142.5765412279603
  0
LWPOLYLINE
  5
A1
330
1F
100
AcDbEntity
  8
0_Pen_No__1
  6
Continuous
100
AcDbPolyline
 90
        2
 70
   128
 43
0.0
 10
22.75118640761975
 20
142.5765412279603
 10
22.75118640761975
 20
142.952244034668
  0
LWPOLYLINE
  5
A2
330
1F
100
AcDbEntity
  8
0_Pen_No__1
  6
Continuous
100
AcDbPolyline
 90
        2
 70
   128
 43
0.0
 10
22.75118640761975
 20
142.952244034668
 10
22.75118640761975
 20
143.4621469340618
  0
LWPOLYLINE
  5
A3
330
1F
100
AcDbEntity
  8
0_Pen_No__1
  6
Continuous
100
AcDbPolyline
 90
        2
 70
   128
 43
0.0
 10
22.75118640761975
 20
143.4621469340618
 10
22.75118640761975
 20
144.0907567845671
  0
LWPOLYLINE
  5
A4
330
1F
100
AcDbEntity
  8
0_Pen_No__1
  6
Continuous
100
AcDbPolyline
 90
        2
 70
   128
 43
0.0
 10
22.75118640761975
 20
144.0907567845671
 10
22.75118640761975
 20
144.8189735939687
  0
LWPOLYLINE
  5
A5
330
1F
100
AcDbEntity
  8
0_Pen_No__1
  6
Continuous
100
AcDbPolyline
 90
        2
 70
   128
 43
0.0
 10
22.75118640761975
 20
144.8189735939687
 10
22.75118640761975
 20
145.6246708630076
  0
LWPOLYLINE
  5
A6
330
1F
100
AcDbEntity
  8
0_Pen_No__1
  6
Continuous
100
AcDbPolyline
 90
        2
 70
   128
 43
0.0
 10
22.75118640761975
 20
145.6246708630076
 10
22.75118640761975
 20
146.4833678878672
  0
LWPOLYLINE
  5
A7
330
1F
100
AcDbEntity
  8
0_Pen_No__1
  6
Continuous
100
AcDbPolyline
 90
        2
 70
   128
 43
0.0
 10
22.75118640761975
 20
146.4833678878672
 10
22.75118640761975
 20
147.3689735939685
  0
LWPOLYLINE
  5
A8
330
1F
100
AcDbEntity
  8
0_Pen_No__1
  6
Continuous
100
AcDbPolyline
 90
        2
 70
   128
 43
0.0
 10
22.75118640761975
 20
147.3689735939685
 10
22.75118640761975
 20
148.2545793000696
  0
LWPOLYLINE
  5
A9
330
1F
100
AcDbEntity
  8
0_Pen_No__1
  6
Continuous
100
AcDbPolyline
 90
        2
 70
   128
 43
0.0
 10
22.75118640761975
 20
148.2545793000696
 10
22.75118640761975
 20
149.1132763249294
  0
LWPOLYLINE
  5
AA
330
1F
100
AcDbEntity
  8
0_Pen_No__1
  6
Continuous
100
AcDbPolyline
 90
        2
 70
   128
 43
0.0
 10
22.75118640761975
 20
149.1132763249294
 10
22.75118640761975
 20
149.9189735939686
  0
LWPOLYLINE
  5
AB
330
1F
100
AcDbEntity
  8
0_Pen_No__1
  6
Continuous
100
AcDbPolyline
 90
        2
 70
   128
 43
0.0
 10
22.75118640761975
 20
149.9189735939686
 10
22.75118640761975
 20
150.6471904033699
  0
LWPOLYLINE
  5
AC
330
1F
100
AcDbEntity
  8
0_Pen_No__1
  6
Continuous
100
AcDbPolyline
 90
        2
 70
   128
 43
0.0
 10
22.75118640761975
 20
150.6471904033699
 10
22.75118640761975
 20
151.2758002538754
  0
LWPOLYLINE
  5
AD
330
1F
100
AcDbEntity
  8
0_Pen_No__1
  6
Continuous
100
AcDbPolyline
 90
        2
 70
   128
 43
0.0
 10
22.75118640761975
 20
151.2758002538754
 10
22.75118640761975
 20
151.7857031532692
  0
LWPOLYLINE
  5
AE
330
1F
100
AcDbEntity
  8
0_Pen_No__1
  6
Continuous
100
AcDbPolyline
 90
        2
 70
   128
 43
0.0
 10
22.75118640761975
 20
151.7857031532692
 10
22.75118640761975
 20
152.1614059599767
  0
LWPOLYLINE
  5
AF
330
1F
100
AcDbEntity
  8
0_Pen_No__1
  6
Continuous
100
AcDbPolyline
 90
        2
 70
   128
 43
0.0
 10
22.75118640761975
 20
152.1614059599767
 10
22.75118640761975
 20
152.3914931343309
  0
LWPOLYLINE
  5
B0
330
1F
100
AcDbEntity
  8
0_Pen_No__1
  6
Continuous
100
AcDbPolyline
 90
        2
 70
   128
 43
0.0
 10
22.75118640761975
 20
152.3914931343309
 10
22.75118640761975
 20
152.4689735939686
  0
LWPOLYLINE
  5
B1
330
1F
100
AcDbEntity
  8
0_Pen_No__1
  6
Continuous
100
AcDbPolyline
 90
        2
 70
   128
 43
0.0
 10
22.75118640761975
 20
152.4689735939686
 10
22.75118640761975
 20
152.3914931343309
  0
LWPOLYLINE
  5
B2
330
1F
100
AcDbEntity
  8
0_Pen_No__1
  6
Continuous
100
AcDbPolyline
 90
        2
 70
   128
 43
0.0
 10
22.75118640761975
 20
152.3914931343309
 10
22.75118640761975
 20
152.1614059599767
  0
LWPOLYLINE
  5
B3
330
1F
100
AcDbEntity
  8
0_Pen_No__1
  6
Continuous
100
AcDbPolyline
 90
        2
 70
   128
 43
0.0
 10
22.75118640761975
 20
152.1614059599767
 10
22.75118640761975
 20
151.7857031532692
  0
LWPOLYLINE
  5
B4
330
1F
100
AcDbEntity
  8
0_Pen_No__1
  6
Continuous
100
AcDbPolyline
 90
        2
 70
   128
 43
0.0
 10
22.75118640761975
 20
151.7857031532692
 10
22.75118640761975
 20
151.2758002538754
  0
LWPOLYLINE
  5
B5
330
1F
100
AcDbEntity
  8
0_Pen_No__1
  6
Continuous
100
AcDbPolyline
 90
        2
 70
   128
 43
0.0
 10
22.75118640761975
 20
151.2758002538754
 10
22.75118640761975
 20
150.6471904033699
  0
LWPOLYLINE
  5
B6
330
1F
100
AcDbEntity
  8
0_Pen_No__1
  6
Continuous
100
AcDbPolyline
 90
        2
 70
   128
 43
0.0
 10
22.75118640761975
 20
150.6471904033699
 10
22.75118640761975
 20
149.9189735939686
  0
LWPOLYLINE
  5
B7
330
1F
100
AcDbEntity
  8
0_Pen_No__1
  6
Continuous
100
AcDbPolyline
 90
        2
 70
   128
 43
0.0
 10
22.75118640761975
 20
149.9189735939686
 10
22.75118640761975
 20
149.1132763249294
  0
LWPOLYLINE
  5
B8
330
1F
100
AcDbEntity
  8
0_Pen_No__1
  6
Continuous
100
AcDbPolyline
 90
        2
 70
   128
 43
0.0
 10
22.75118640761975
 20
149.1132763249294
 10
22.75118640761975
 20
148.2545793000696
  0
LWPOLYLINE
  5
B9
330
1F
100
AcDbEntity
  8
0_Pen_No__1
  6
Continuous
100
AcDbPolyline
 90
        2
 70
   128
 43
0.0
 10
22.75118640761975
 20
148.2545793000696
 10
22.75118640761975
 20
147.3689735939685
  0
LWPOLYLINE
  5
BA
330
1F
100
AcDbEntity
  8
0_Pen_No__1
  6
Continuous
100
AcDbPolyline
 90
        2
 70
   128
 43
0.0
 10
22.75118640761975
 20
147.3689735939685
 10
22.75118640761975
 20
146.4833678878672
  0
LWPOLYLINE
  5
BB
330
1F
100
AcDbEntity
  8
0_Pen_No__1
  6
Continuous
100
AcDbPolyline
 90
        2
 70
   128
 43
0.0
 10
22.75118640761975
 20
146.4833678878672
 10
22.75118640761975
 20
145.6246708630076
  0
LWPOLYLINE
  5
BC
330
1F
100
AcDbEntity
  8
0_Pen_No__1
  6
Continuous
100
AcDbPolyline
 90
        2
 70
   128
 43
0.0
 10
22.75118640761975
 20
145.6246708630076
 10
22.75118640761975
 20
144.8189735939687
  0
LWPOLYLINE
  5
BD
330
1F
100
AcDbEntity
  8
0_Pen_No__1
  6
Continuous
100
AcDbPolyline
 90
        2
 70
   128
 43
0.0
 10
22.75118640761975
 20
144.8189735939687
 10
22.75118640761975
 20
144.0907567845671
  0
LWPOLYLINE
  5
BE
330
1F
100
AcDbEntity
  8
0_Pen_No__1
  6
Continuous
100
AcDbPolyline
 90
        2
 70
   128
 43
0.0
 10
22.75118640761975
 20
144.0907567845671
 10
22.75118640761975
 20
143.4621469340618
  0
LWPOLYLINE
  5
BF
330
1F
100
AcDbEntity
  8
0_Pen_No__1
  6
Continuous
100
AcDbPolyline
 90
        2
 70
   128
 43
0.0
 10
22.75118640761975
 20
143.4621469340618
 10
22.75118640761975
 20
142.952244034668
  0
LWPOLYLINE
  5
C0
330
1F
100
AcDbEntity
  8
0_Pen_No__1
  6
Continuous
100
AcDbPolyline
 90
        2
 70
   128
 43
0.0
 10
22.75118640761975
 20
142.952244034668
 10
22.75118640761975
 20
142.5765412279603
  0
LWPOLYLINE
  5
C1
330
1F
100
AcDbEntity
  8
0_Pen_No__1
  6
Continuous
100
AcDbPolyline
 90
        2
 70
   128
 43
0.0
 10
22.75118640761975
 20
142.5765412279603
 10
22.75118640761975
 20
142.3464540536061
  0
LWPOLYLINE
  5
C2
330
1F
100
AcDbEntity
  8
0_Pen_No__1
  6
Continuous
100
AcDbPolyline
 90
        2
 70
   128
 43
0.0
 10
22.75118640761975
 20
142.3464540536061
 10
22.75118640761975
 20
142.2689735939686
  0
LWPOLYLINE
  5
C3
330
1F
100
AcDbEntity
  8
0_Pen_No__1
  6
Continuous
100
AcDbPolyline
 90
        2
 70
   128
 43
0.0
 10
23.65118640761987
 20
141.3689735939685
 10
23.65118640761987
 20
141.4601270758953
  0
LWPOLYLINE
  5
C4
330
1F
100
AcDbEntity
  8
0_Pen_No__1
  6
Continuous
100
AcDbPolyline
 90
        2
 70
   128
 43
0.0
 10
23.65118640761987
 20
141.4601270758953
 10
23.65118640761987
 20
141.7308178692531
  0
LWPOLYLINE
  5
C5
330
1F
100
AcDbEntity
  8
0_Pen_No__1
  6
Continuous
100
AcDbPolyline
 90
        2
 70
   128
 43
0.0
 10
23.65118640761987
 20
153.0071293186841
 10
23.65118640761987
 20
153.2778201120417
  0
LWPOLYLINE
  5
C6
330
1F
100
AcDbEntity
  8
0_Pen_No__1
  6
Continuous
100
AcDbPolyline
 90
        2
 70
   128
 43
0.0
 10
23.65118640761987
 20
153.2778201120417
 10
23.65118640761987
 20
153.3689735939685
  0
LWPOLYLINE
  5
C7
330
1F
100
AcDbEntity
  8
0_Pen_No__1
  6
Continuous
100
AcDbPolyline
 90
        2
 70
   128
 43
0.0
 10
24.90118640762007
 20
141.3689735939685
 10
24.90118640762007
 20
141.4601270758953
  0
LWPOLYLINE
  5
C8
330
1F
100
AcDbEntity
  8
0_Pen_No__1
  6
Continuous
100
AcDbPolyline
 90
        2
 70
   128
 43
0.0
 10
24.90118640762007
 20
141.4601270758953
 10
24.90118640762007
 20
141.7308178692531
  0
LWPOLYLINE
  5
C9
330
1F
100
AcDbEntity
  8
0_Pen_No__1
  6
Continuous
100
AcDbPolyline
 90
        2
 70
   128
 43
0.0
 10
24.90118640762007
 20
153.0071293186841
 10
24.90118640762007
 20
153.2778201120417
  0
LWPOLYLINE
  5
CA
330
1F
100
AcDbEntity
  8
0_Pen_No__1
  6
Continuous
100
AcDbPolyline
 90
        2
 70
   128
 43
0.0
 10
24.90118640762007
 20
153.2778201120417
 10
24.90118640762007
 20
153.3689735939685
  0
LWPOLYLINE
  5
CB
330
1F
100
AcDbEntity
  8
0_Pen_No__1
  6
Continuous
100
AcDbPolyline
 90
        2
 70
   128
 43
0.0
 10
26.15118640761982
 20
141.3689735939685
 10
26.15118640761982
 20
141.4601270758953
  0
LWPOLYLINE
  5
CC
330
1F
100
AcDbEntity
  8
0_Pen_No__1
  6
Continuous
100
AcDbPolyline
 90
        2
 70
   128
 43
0.0
 10
26.15118640761982
 20
141.4601270758953
 10
26.15118640761982
 20
141.7308178692531
  0
LWPOLYLINE
  5
CD
330
1F
100
AcDbEntity
  8
0_Pen_No__1
  6
Continuous
100
AcDbPolyline
 90
        2
 70
   128
 43
0.0
 10
26.15118640761982
 20
153.0071293186841
 10
26.15118640761982
 20
153.2778201120417
  0
LWPOLYLINE
  5
CE
330
1F
100
AcDbEntity
  8
0_Pen_No__1
  6
Continuous
100
AcDbPolyline
 90
        2
 70
   128
 43
0.0
 10
26.15118640761982
 20
153.2778201120417
 10
26.15118640761982
 20
153.3689735939685
  0
LWPOLYLINE
  5
CF
330
1F
100
AcDbEntity
  8
0_Pen_No__1
  6
Continuous
100
AcDbPolyline
 90
        2
 70
   128
 43
0.0
 10
27.40118640762002
 20
141.3689735939685
 10
27.40118640762002
 20
141.4601270758953
  0
LWPOLYLINE
  5
D0
330
1F
100
AcDbEntity
  8
0_Pen_No__1
  6
Continuous
100
AcDbPolyline
 90
        2
 70
   128
 43
0.0
 10
27.40118640762002
 20
141.4601270758953
 10
27.40118640762002
 20
141.7308178692531
  0
LWPOLYLINE
  5
D1
330
1F
100
AcDbEntity
  8
0_Pen_No__1
  6
Continuous
100
AcDbPolyline
 90
        2
 70
   128
 43
0.0
 10
27.40118640762002
 20
153.0071293186841
 10
27.40118640762002
 20
153.2778201120417
  0
LWPOLYLINE
  5
D2
330
1F
100
AcDbEntity
  8
0_Pen_No__1
  6
Continuous
100
AcDbPolyline
 90
        2
 70
   128
 43
0.0
 10
27.40118640762002
 20
153.2778201120417
 10
27.40118640762002
 20
153.3689735939685
  0
LWPOLYLINE
  5
D3
330
1F
100
AcDbEntity
  8
0_Pen_No__1
  6
Continuous
100
AcDbPolyline
 90
        2
 70
   128
 43
0.0
 10
28.65118640761977
 20
141.3689735939685
 10
28.65118640761977
 20
141.4601270758953
  0
LWPOLYLINE
  5
D4
330
1F
100
AcDbEntity
  8
0_Pen_No__1
  6
Continuous
100
AcDbPolyline
 90
        2
 70
   128
 43
0.0
 10
28.65118640761977
 20
141.4601270758953
 10
28.65118640761977
 20
141.7308178692531
  0
LWPOLYLINE
  5
D5
330
1F
100
AcDbEntity
  8
0_Pen_No__1
  6
Continuous
100
AcDbPolyline
 90
        2
 70
   128
 43
0.0
 10
28.65118640761977
 20
153.0071293186841
 10
28.65118640761977
 20
153.2778201120417
  0
LWPOLYLINE
  5
D6
330
1F
100
AcDbEntity
  8
0_Pen_No__1
  6
Continuous
100
AcDbPolyline
 90
        2
 70
   128
 43
0.0
 10
28.65118640761977
 20
153.2778201120417
 10
28.65118640761977
 20
153.3689735939685
  0
LWPOLYLINE
  5
D7
330
1F
100
AcDbEntity
  8
0_Pen_No__1
  6
Continuous
100
AcDbPolyline
 90
        2
 70
   128
 43
0.0
 10
29.90118640761996
 20
141.3689735939685
 10
29.90118640761996
 20
141.4601270758953
  0
LWPOLYLINE
  5
D8
330
1F
100
AcDbEntity
  8
0_Pen_No__1
  6
Continuous
100
AcDbPolyline
 90
        2
 70
   128
 43
0.0
 10
29.90118640761996
 20
141.4601270758953
 10
29.90118640761996
 20
141.7308178692531
  0
LWPOLYLINE
  5
D9
330
1F
100
AcDbEntity
  8
0_Pen_No__1
  6
Continuous
100
AcDbPolyline
 90
        2
 70
   128
 43
0.0
 10
29.90118640761996
 20
153.0071293186841
 10
29.90118640761996
 20
153.2778201120417
  0
LWPOLYLINE
  5
DA
330
1F
100
AcDbEntity
  8
0_Pen_No__1
  6
Continuous
100
AcDbPolyline
 90
        2
 70
   128
 43
0.0
 10
29.90118640761996
 20
153.2778201120417
 10
29.90118640761996
 20
153.3689735939685
  0
LWPOLYLINE
  5
DB
330
1F
100
AcDbEntity
  8
0_Pen_No__1
  6
Continuous
100
AcDbPolyline
 90
        2
 70
   128
 43
0.0
 10
31.15118640761994
 20
141.3689735939685
 10
31.15118640761994
 20
141.4601270758953
  0
LWPOLYLINE
  5
DC
330
1F
100
AcDbEntity
  8
0_Pen_No__1
  6
Continuous
100
AcDbPolyline
 90
        2
 70
   128
 43
0.0
 10
31.15118640761994
 20
141.4601270758953
 10
31.15118640761994
 20
141.7308178692531
  0
LWPOLYLINE
  5
DD
330
1F
100
AcDbEntity
  8
0_Pen_No__1
  6
Continuous
100
AcDbPolyline
 90
        2
 70
   128
 43
0.0
 10
31.15118640761994
 20
153.0071293186841
 10
31.15118640761994
 20
153.2778201120417
  0
LWPOLYLINE
  5
DE
330
1F
100
AcDbEntity
  8
0_Pen_No__1
  6
Continuous
100
AcDbPolyline
 90
        2
 70
   128
 43
0.0
 10
31.15118640761994
 20
153.2778201120417
 10
31.15118640761994
 20
153.3689735939685
  0
LWPOLYLINE
  5
DF
330
1F
100
AcDbEntity
  8
0_Pen_No__1
  6
Continuous
100
AcDbPolyline
 90
        2
 70
   128
 43
0.0
 10
32.40118640761991
 20
141.3689735939685
 10
32.40118640761991
 20
141.4601270758953
  0
LWPOLYLINE
  5
E0
330
1F
100
AcDbEntity
  8
0_Pen_No__1
  6
Continuous
100
AcDbPolyline
 90
        2
 70
   128
 43
0.0
 10
32.40118640761991
 20
141.4601270758953
 10
32.40118640761991
 20
141.7308178692531
  0
LWPOLYLINE
  5
E1
330
1F
100
AcDbEntity
  8
0_Pen_No__1
  6
Continuous
100
AcDbPolyline
 90
        2
 70
   128
 43
0.0
 10
32.40118640761991
 20
153.0071293186841
 10
32.40118640761991
 20
153.2778201120417
  0
LWPOLYLINE
  5
E2
330
1F
100
AcDbEntity
  8
0_Pen_No__1
  6
Continuous
100
AcDbPolyline
 90
        2
 70
   128
 43
0.0
 10
32.40118640761991
 20
153.2778201120417
 10
32.40118640761991
 20
153.3689735939685
  0
LWPOLYLINE
  5
E3
330
1F
100
AcDbEntity
  8
0_Pen_No__1
  6
Continuous
100
AcDbPolyline
 90
        2
 70
   128
 43
0.0
 10
33.6511864076201
 20
141.3689735939685
 10
33.6511864076201
 20
141.4601270758953
  0
LWPOLYLINE
  5
E4
330
1F
100
AcDbEntity
  8
0_Pen_No__1
  6
Continuous
100
AcDbPolyline
 90
        2
 70
   128
 43
0.0
 10
33.6511864076201
 20
141.4601270758953
 10
33.6511864076201
 20
141.7308178692531
  0
LWPOLYLINE
  5
E5
330
1F
100
AcDbEntity
  8
0_Pen_No__1
  6
Continuous
100
AcDbPolyline
 90
        2
 70
   128
 43
0.0
 10
33.6511864076201
 20
153.0071293186841
 10
33.6511864076201
 20
153.2778201120417
  0
LWPOLYLINE
  5
E6
330
1F
100
AcDbEntity
  8
0_Pen_No__1
  6
Continuous
100
AcDbPolyline
 90
        2
 70
   128
 43
0.0
 10
33.6511864076201
 20
153.2778201120417
 10
33.6511864076201
 20
153.3689735939685
  0
LWPOLYLINE
  5
E7
330
1F
100
AcDbEntity
  8
0_Pen_No__1
  6
Continuous
100
AcDbPolyline
 90
        2
 70
   128
 43
0.0
 10
34.90118640761985
 20
141.3689735939685
 10
34.90118640761985
 20
141.4601270758953
  0
LWPOLYLINE
  5
E8
330
1F
100
AcDbEntity
  8
0_Pen_No__1
  6
Continuous
100
AcDbPolyline
 90
        2
 70
   128
 43
0.0
 10
34.90118640761985
 20
141.4601270758953
 10
34.90118640761985
 20
141.7308178692531
  0
LWPOLYLINE
  5
E9
330
1F
100
AcDbEntity
  8
0_Pen_No__1
  6
Continuous
100
AcDbPolyline
 90
        2
 70
   128
 43
0.0
 10
34.90118640761985
 20
153.0071293186841
 10
34.90118640761985
 20
153.2778201120417
  0
LWPOLYLINE
  5
EA
330
1F
100
AcDbEntity
  8
0_Pen_No__1
  6
Continuous
100
AcDbPolyline
 90
        2
 70
   128
 43
0.0
 10
34.90118640761985
 20
153.2778201120417
 10
34.90118640761985
 20
153.3689735939685
  0
LWPOLYLINE
  5
EB
330
1F
100
AcDbEntity
  8
0_Pen_No__1
  6
Continuous
100
AcDbPolyline
 90
        2
 70
   128
 43
0.0
 10
36.15118640762005
 20
141.3689735939685
 10
36.15118640762005
 20
141.4601270758953
  0
LWPOLYLINE
  5
EC
330
1F
100
AcDbEntity
  8
0_Pen_No__1
  6
Continuous
100
AcDbPolyline
 90
        2
 70
   128
 43
0.0
 10
36.15118640762005
 20
141.4601270758953
 10
36.15118640762005
 20
141.7308178692531
  0
LWPOLYLINE
  5
ED
330
1F
100
AcDbEntity
  8
0_Pen_No__1
  6
Continuous
100
AcDbPolyline
 90
        2
 70
   128
 43
0.0
 10
36.15118640762005
 20
153.0071293186841
 10
36.15118640762005
 20
153.2778201120417
  0
LWPOLYLINE
  5
EE
330
1F
100
AcDbEntity
  8
0_Pen_No__1
  6
Continuous
100
AcDbPolyline
 90
        2
 70
   128
 43
0.0
 10
36.15118640762005
 20
153.2778201120417
 10
36.15118640762005
 20
153.3689735939685
  0
LWPOLYLINE
  5
EF
330
1F
100
AcDbEntity
  8
0_Pen_No__1
  6
Continuous
100
AcDbPolyline
 90
        2
 70
   128
 43
0.0
 10
37.4011864076198
 20
141.3689735939685
 10
37.4011864076198
 20
141.4601270758953
  0
LWPOLYLINE
  5
F0
330
1F
100
AcDbEntity
  8
0_Pen_No__1
  6
Continuous
100
AcDbPolyline
 90
        2
 70
   128
 43
0.0
 10
37.4011864076198
 20
141.4601270758953
 10
37.4011864076198
 20
141.7308178692531
  0
LWPOLYLINE
  5
F1
330
1F
100
AcDbEntity
  8
0_Pen_No__1
  6
Continuous
100
AcDbPolyline
 90
        2
 70
   128
 43
0.0
 10
37.4011864076198
 20
153.0071293186841
 10
37.4011864076198
 20
153.2778201120417
  0
LWPOLYLINE
  5
F2
330
1F
100
AcDbEntity
  8
0_Pen_No__1
  6
Continuous
100
AcDbPolyline
 90
        2
 70
   128
 43
0.0
 10
37.4011864076198
 20
153.2778201120417
 10
37.4011864076198
 20
153.3689735939685
  0
LWPOLYLINE
  5
F3
330
1F
100
AcDbEntity
  8
0_Pen_No__1
  6
Continuous
100
AcDbPolyline
 90
        2
 70
   128
 43
0.0
 10
38.65118640762
 20
141.3689735939685
 10
38.65118640762
 20
141.4601270758953
  0
LWPOLYLINE
  5
F4
330
1F
100
AcDbEntity
  8
0_Pen_No__1
  6
Continuous
100
AcDbPolyline
 90
        2
 70
   128
 43
0.0
 10
38.65118640762
 20
141.4601270758953
 10
38.65118640762
 20
141.7308178692531
  0
LWPOLYLINE
  5
F5
330
1F
100
AcDbEntity
  8
0_Pen_No__1
  6
Continuous
100
AcDbPolyline
 90
        2
 70
   128
 43
0.0
 10
38.65118640762
 20
153.0071293186841
 10
38.65118640762
 20
153.2778201120417
  0
LWPOLYLINE
  5
F6
330
1F
100
AcDbEntity
  8
0_Pen_No__1
  6
Continuous
100
AcDbPolyline
 90
        2
 70
   128
 43
0.0
 10
38.65118640762
 20
153.2778201120417
 10
38.65118640762
 20
153.3689735939685
  0
LWPOLYLINE
  5
F7
330
1F
100
AcDbEntity
  8
0_Pen_No__1
  6
Continuous
100
AcDbPolyline
 90
        2
 70
   128
 43
0.0
 10
39.90118640761975
 20
141.3689735939685
 10
39.90118640761975
 20
141.4601270758953
  0
LWPOLYLINE
  5
F8
330
1F
100
AcDbEntity
  8
0_Pen_No__1
  6
Continuous
100
AcDbPolyline
 90
        2
 70
   128
 43
0.0
 10
39.90118640761975
 20
141.4601270758953
 10
39.90118640761975
 20
141.7308178692531
  0
LWPOLYLINE
  5
F9
330
1F
100
AcDbEntity
  8
0_Pen_No__1
  6
Continuous
100
AcDbPolyline
 90
        2
 70
   128
 43
0.0
 10
39.90118640761975
 20
153.0071293186841
 10
39.90118640761975
 20
153.2778201120417
  0
LWPOLYLINE
  5
FA
330
1F
100
AcDbEntity
  8
0_Pen_No__1
  6
Continuous
100
AcDbPolyline
 90
        2
 70
   128
 43
0.0
 10
39.90118640761975
 20
153.2778201120417
 10
39.90118640761975
 20
153.3689735939685
  0
LWPOLYLINE
  5
FB
330
1F
100
AcDbEntity
  8
0_Pen_No__1
  6
Continuous
100
AcDbPolyline
 90
        2
 70
   128
 43
0.0
 10
41.15118640761972
 20
141.3689735939685
 10
41.15118640761972
 20
141.4601270758953
  0
LWPOLYLINE
  5
FC
330
1F
100
AcDbEntity
  8
0_Pen_No__1
  6
Continuous
100
AcDbPolyline
 90
        2
 70
   128
 43
0.0
 10
41.15118640761972
 20
141.4601270758953
 10
41.15118640761972
 20
141.7308178692531
  0
LWPOLYLINE
  5
FD
330
1F
100
AcDbEntity
  8
0_Pen_No__1
  6
Continuous
100
AcDbPolyline
 90
        2
 70
   128
 43
0.0
 10
41.15118640761972
 20
153.0071293186841
 10
41.15118640761972
 20
153.2778201120417
  0
LWPOLYLINE
  5
FE
330
1F
100
AcDbEntity
  8
0_Pen_No__1
  6
Continuous
100
AcDbPolyline
 90
        2
 70
   128
 43
0.0
 10
41.15118640761972
 20
153.2778201120417
 10
41.15118640761972
 20
153.3689735939685
  0
LWPOLYLINE
  5
FF
330
1F
100
AcDbEntity
  8
0_Pen_No__1
  6
Continuous
100
AcDbPolyline
 90
        2
 70
   128
 43
0.0
 10
42.40118640762014
 20
141.3689735939685
 10
42.40118640762014
 20
141.4601270758953
  0
LWPOLYLINE
  5
100
330
1F
100
AcDbEntity
  8
0_Pen_No__1
  6
Continuous
100
AcDbPolyline
 90
        2
 70
   128
 43
0.0
 10
42.40118640762014
 20
141.4601270758953
 10
42.40118640762014
 20
141.7308178692531
  0
LWPOLYLINE
  5
101
330
1F
100
AcDbEntity
  8
0_Pen_No__1
  6
Continuous
100
AcDbPolyline
 90
        2
 70
   128
 43
0.0
 10
42.40118640762014
 20
153.0071293186841
 10
42.40118640762014
 20
153.2778201120417
  0
LWPOLYLINE
  5
102
330
1F
100
AcDbEntity
  8
0_Pen_No__1
  6
Continuous
100
AcDbPolyline
 90
        2
 70
   128
 43
0.0
 10
42.40118640762014
 20
153.2778201120417
 10
42.40118640762014
 20
153.3689735939685
  0
LWPOLYLINE
  5
103
330
1F
100
AcDbEntity
  8
0_Pen_No__1
  6
Continuous
100
AcDbPolyline
 90
        2
 70
   128
 43
0.0
 10
43.65118640761989
 20
141.3689735939685
 10
43.65118640761989
 20
141.4601270758953
  0
LWPOLYLINE
  5
104
330
1F
100
AcDbEntity
  8
0_Pen_No__1
  6
Continuous
100
AcDbPolyline
 90
        2
 70
   128
 43
0.0
 10
43.65118640761989
 20
141.4601270758953
 10
43.65118640761989
 20
141.7308178692531
  0
LWPOLYLINE
  5
105
330
1F
100
AcDbEntity
  8
0_Pen_No__1
  6
Continuous
100
AcDbPolyline
 90
        2
 70
   128
 43
0.0
 10
43.65118640761989
 20
153.0071293186841
 10
43.65118640761989
 20
153.2778201120417
  0
LWPOLYLINE
  5
106
330
1F
100
AcDbEntity
  8
0_Pen_No__1
  6
Continuous
100
AcDbPolyline
 90
        2
 70
   128
 43
0.0
 10
43.65118640761989
 20
153.2778201120417
 10
43.65118640761989
 20
153.3689735939685
  0
LWPOLYLINE
  5
107
330
1F
100
AcDbEntity
  8
0_Pen_No__1
  6
Continuous
100
AcDbPolyline
 90
        2
 70
   128
 43
0.0
 10
44.90118640762009
 20
141.3689735939685
 10
44.90118640762009
 20
141.4601270758953
  0
LWPOLYLINE
  5
108
330
1F
100
AcDbEntity
  8
0_Pen_No__1
  6
Continuous
100
AcDbPolyline
 90
        2
 70
   128
 43
0.0
 10
44.90118640762009
 20
141.4601270758953
 10
44.90118640762009
 20
141.7308178692531
  0
LWPOLYLINE
  5
109
330
1F
100
AcDbEntity
  8
0_Pen_No__1
  6
Continuous
100
AcDbPolyline
 90
        2
 70
   128
 43
0.0
 10
44.90118640762009
 20
153.0071293186841
 10
44.90118640762009
 20
153.2778201120417
  0
LWPOLYLINE
  5
10A
330
1F
100
AcDbEntity
  8
0_Pen_No__1
  6
Continuous
100
AcDbPolyline
 90
        2
 70
   128
 43
0.0
 10
44.90118640762009
 20
153.2778201120417
 10
44.90118640762009
 20
153.3689735939685
  0
LWPOLYLINE
  5
10B
330
1F
100
AcDbEntity
  8
0_Pen_No__1
  6
Continuous
100
AcDbPolyline
 90
        2
 70
   128
 43
0.0
 10
46.15118640761984
 20
141.3689735939685
 10
46.15118640761984
 20
141.4601270758953
  0
LWPOLYLINE
  5
10C
330
1F
100
AcDbEntity
  8
0_Pen_No__1
  6
Continuous
100
AcDbPolyline
 90
        2
 70
   128
 43
0.0
 10
46.15118640761984
 20
141.4601270758953
 10
46.15118640761984
 20
141.7308178692531
  0
LWPOLYLINE
  5
10D
330
1F
100
AcDbEntity
  8
0_Pen_No__1
  6
Continuous
100
AcDbPolyline
 90
        2
 70
   128
 43
0.0
 10
46.15118640761984
 20
153.0071293186841
 10
46.15118640761984
 20
153.2778201120417
  0
LWPOLYLINE
  5
10E
330
1F
100
AcDbEntity
  8
0_Pen_No__1
  6
Continuous
100
AcDbPolyline
 90
        2
 70
   128
 43
0.0
 10
46.15118640761984
 20
153.2778201120417
 10
46.15118640761984
 20
153.3689735939685
  0
LWPOLYLINE
  5
10F
330
1F
100
AcDbEntity
  8
0_Pen_No__1
  6
Continuous
100
AcDbPolyline
 90
        2
 70
   128
 43
0.0
 10
47.40118640762003
 20
141.3689735939685
 10
47.40118640762003
 20
141.4601270758953
  0
LWPOLYLINE
  5
110
330
1F
100
AcDbEntity
  8
0_Pen_No__1
  6
Continuous
100
AcDbPolyline
 90
        2
 70
   128
 43
0.0
 10
47.40118640762003
 20
141.4601270758953
 10
47.40118640762003
 20
141.7308178692531
  0
LWPOLYLINE
  5
111
330
1F
100
AcDbEntity
  8
0_Pen_No__1
  6
Continuous
100
AcDbPolyline
 90
        2
 70
   128
 43
0.0
 10
47.40118640762003
 20
153.0071293186841
 10
47.40118640762003
 20
153.2778201120417
  0
LWPOLYLINE
  5
112
330
1F
100
AcDbEntity
  8
0_Pen_No__1
  6
Continuous
100
AcDbPolyline
 90
        2
 70
   128
 43
0.0
 10
47.40118640762003
 20
153.2778201120417
 10
47.40118640762003
 20
153.3689735939685
  0
LWPOLYLINE
  5
113
330
1F
100
AcDbEntity
  8
0_Pen_No__1
  6
Continuous
100
AcDbPolyline
 90
        2
 70
   128
 43
0.0
 10
48.65118640761978
 20
141.3689735939685
 10
48.65118640761978
 20
141.4601270758953
  0
LWPOLYLINE
  5
114
330
1F
100
AcDbEntity
  8
0_Pen_No__1
  6
Continuous
100
AcDbPolyline
 90
        2
 70
   128
 43
0.0
 10
48.65118640761978
 20
141.4601270758953
 10
48.65118640761978
 20
141.7308178692531
  0
LWPOLYLINE
  5
115
330
1F
100
AcDbEntity
  8
0_Pen_No__1
  6
Continuous
100
AcDbPolyline
 90
        2
 70
   128
 43
0.0
 10
48.65118640761978
 20
153.0071293186841
 10
48.65118640761978
 20
153.2778201120417
  0
LWPOLYLINE
  5
116
330
1F
100
AcDbEntity
  8
0_Pen_No__1
  6
Continuous
100
AcDbPolyline
 90
        2
 70
   128
 43
0.0
 10
48.65118640761978
 20
153.2778201120417
 10
48.65118640761978
 20
153.3689735939685
  0
LWPOLYLINE
  5
117
330
1F
100
AcDbEntity
  8
0_Pen_No__1
  6
Continuous
100
AcDbPolyline
 90
        2
 70
   128
 43
0.0
 10
49.90118640761998
 20
141.3689735939685
 10
49.90118640761998
 20
141.4601270758953
  0
LWPOLYLINE
  5
118
330
1F
100
AcDbEntity
  8
0_Pen_No__1
  6
Continuous
100
AcDbPolyline
 90
        2
 70
   128
 43
0.0
 10
49.90118640761998
 20
141.4601270758953
 10
49.90118640761998
 20
141.7308178692531
  0
LWPOLYLINE
  5
119
330
1F
100
AcDbEntity
  8
0_Pen_No__1
  6
Continuous
100
AcDbPolyline
 90
        2
 70
   128
 43
0.0
 10
49.90118640761998
 20
153.0071293186841
 10
49.90118640761998
 20
153.2778201120417
  0
LWPOLYLINE
  5
11A
330
1F
100
AcDbEntity
  8
0_Pen_No__1
  6
Continuous
100
AcDbPolyline
 90
        2
 70
   128
 43
0.0
 10
49.90118640761998
 20
153.2778201120417
 10
49.90118640761998
 20
153.3689735939685
  0
LWPOLYLINE
  5
11B
330
1F
100
AcDbEntity
  8
0_Pen_No__1
  6
Continuous
100
AcDbPolyline
 90
        2
 70
   128
 43
0.0
 10
51.15118640761973
 20
141.3689735939685
 10
51.15118640761973
 20
141.4601270758953
  0
LWPOLYLINE
  5
11C
330
1F
100
AcDbEntity
  8
0_Pen_No__1
  6
Continuous
100
AcDbPolyline
 90
        2
 70
   128
 43
0.0
 10
51.15118640761973
 20
141.4601270758953
 10
51.15118640761973
 20
141.7308178692531
  0
LWPOLYLINE
  5
11D
330
1F
100
AcDbEntity
  8
0_Pen_No__1
  6
Continuous
100
AcDbPolyline
 90
        2
 70
   128
 43
0.0
 10
51.15118640761973
 20
153.0071293186841
 10
51.15118640761973
 20
153.2778201120417
  0
LWPOLYLINE
  5
11E
330
1F
100
AcDbEntity
  8
0_Pen_No__1
  6
Continuous
100
AcDbPolyline
 90
        2
 70
   128
 43
0.0
 10
51.15118640761973
 20
153.2778201120417
 10
51.15118640761973
 20
153.3689735939685
  0
LWPOLYLINE
  5
11F
330
1F
100
AcDbEntity
  8
0_Pen_No__1
  6
Continuous
100
AcDbPolyline
 90
        2
 70
   128
 43
0.0
 10
52.4011864076197
 20
141.3689735939685
 10
52.4011864076197
 20
141.4601270758953
  0
LWPOLYLINE
  5
120
330
1F
100
AcDbEntity
  8
0_Pen_No__1
  6
Continuous
100
AcDbPolyline
 90
        2
 70
   128
 43
0.0
 10
52.4011864076197
 20
141.4601270758953
 10
52.4011864076197
 20
141.7308178692531
  0
LWPOLYLINE
  5
121
330
1F
100
AcDbEntity
  8
0_Pen_No__1
  6
Continuous
100
AcDbPolyline
 90
        2
 70
   128
 43
0.0
 10
52.4011864076197
 20
153.0071293186841
 10
52.4011864076197
 20
153.2778201120417
  0
LWPOLYLINE
  5
122
330
1F
100
AcDbEntity
  8
0_Pen_No__1
  6
Continuous
100
AcDbPolyline
 90
        2
 70
   128
 43
0.0
 10
52.4011864076197
 20
153.2778201120417
 10
52.4011864076197
 20
153.3689735939685
  0
LWPOLYLINE
  5
123
330
1F
100
AcDbEntity
  8
0_Pen_No__1
  6
Continuous
100
AcDbPolyline
 90
        2
 70
   128
 43
0.0
 10
53.65118640762012
 20
141.3689735939685
 10
53.65118640762012
 20
141.4601270758953
  0
LWPOLYLINE
  5
124
330
1F
100
AcDbEntity
  8
0_Pen_No__1
  6
Continuous
100
AcDbPolyline
 90
        2
 70
   128
 43
0.0
 10
53.65118640762012
 20
141.4601270758953
 10
53.65118640762012
 20
141.7308178692531
  0
LWPOLYLINE
  5
125
330
1F
100
AcDbEntity
  8
0_Pen_No__1
  6
Continuous
100
AcDbPolyline
 90
        2
 70
   128
 43
0.0
 10
53.65118640762012
 20
153.0071293186841
 10
53.65118640762012
 20
153.2778201120417
  0
LWPOLYLINE
  5
126
330
1F
100
AcDbEntity
  8
0_Pen_No__1
  6
Continuous
100
AcDbPolyline
 90
        2
 70
   128
 43
0.0
 10
53.65118640762012
 20
153.2778201120417
 10
53.65118640762012
 20
153.3689735939685
  0
LWPOLYLINE
  5
127
330
1F
100
AcDbEntity
  8
0_Pen_No__1
  6
Continuous
100
AcDbPolyline
 90
        2
 70
   128
 43
0.0
 10
54.90118640761987
 20
141.3689735939685
 10
54.90118640761987
 20
141.4601270758953
  0
LWPOLYLINE
  5
128
330
1F
100
AcDbEntity
  8
0_Pen_No__1
  6
Continuous
100
AcDbPolyline
 90
        2
 70
   128
 43
0.0
 10
54.90118640761987
 20
141.4601270758953
 10
54.90118640761987
 20
141.7308178692531
  0
LWPOLYLINE
  5
129
330
1F
100
AcDbEntity
  8
0_Pen_No__1
  6
Continuous
100
AcDbPolyline
 90
        2
 70
   128
 43
0.0
 10
54.90118640761987
 20
153.0071293186841
 10
54.90118640761987
 20
153.2778201120417
  0
LWPOLYLINE
  5
12A
330
1F
100
AcDbEntity
  8
0_Pen_No__1
  6
Continuous
100
AcDbPolyline
 90
        2
 70
   128
 43
0.0
 10
54.90118640761987
 20
153.2778201120417
 10
54.90118640761987
 20
153.3689735939685
  0
LWPOLYLINE
  5
12B
330
1F
100
AcDbEntity
  8
0_Pen_No__1
  6
Continuous
100
AcDbPolyline
 90
        2
 70
   128
 43
0.0
 10
56.15118640762007
 20
141.3689735939685
 10
56.15118640762007
 20
141.4601270758953
  0
LWPOLYLINE
  5
12C
330
1F
100
AcDbEntity
  8
0_Pen_No__1
  6
Continuous
100
AcDbPolyline
 90
        2
 70
   128
 43
0.0
 10
56.15118640762007
 20
141.4601270758953
 10
56.15118640762007
 20
141.7308178692531
  0
LWPOLYLINE
  5
12D
330
1F
100
AcDbEntity
  8
0_Pen_No__1
  6
Continuous
100
AcDbPolyline
 90
        2
 70
   128
 43
0.0
 10
56.15118640762007
 20
153.0071293186841
 10
56.15118640762007
 20
153.2778201120417
  0
LWPOLYLINE
  5
12E
330
1F
100
AcDbEntity
  8
0_Pen_No__1
  6
Continuous
100
AcDbPolyline
 90
        2
 70
   128
 43
0.0
 10
56.15118640762007
 20
153.2778201120417
 10
56.15118640762007
 20
153.3689735939685
  0
LWPOLYLINE
  5
12F
330
1F
100
AcDbEntity
  8
0_Pen_No__1
  6
Continuous
100
AcDbPolyline
 90
        2
 70
   128
 43
0.0
 10
57.40118640761982
 20
141.3689735939685
 10
57.40118640761982
 20
141.4601270758953
  0
LWPOLYLINE
  5
130
330
1F
100
AcDbEntity
  8
0_Pen_No__1
  6
Continuous
100
AcDbPolyline
 90
        2
 70
   128
 43
0.0
 10
57.40118640761982
 20
141.4601270758953
 10
57.40118640761982
 20
141.7308178692531
  0
LWPOLYLINE
  5
131
330
1F
100
AcDbEntity
  8
0_Pen_No__1
  6
Continuous
100
AcDbPolyline
 90
        2
 70
   128
 43
0.0
 10
57.40118640761982
 20
153.0071293186841
 10
57.40118640761982
 20
153.2778201120417
  0
LWPOLYLINE
  5
132
330
1F
100
AcDbEntity
  8
0_Pen_No__1
  6
Continuous
100
AcDbPolyline
 90
        2
 70
   128
 43
0.0
 10
57.40118640761982
 20
153.2778201120417
 10
57.40118640761982
 20
153.3689735939685
  0
LWPOLYLINE
  5
133
330
1F
100
AcDbEntity
  8
0_Pen_No__1
  6
Continuous
100
AcDbPolyline
 90
        2
 70
   128
 43
0.0
 10
58.65118640762002
 20
141.3689735939685
 10
58.65118640762002
 20
141.4601270758953
  0
LWPOLYLINE
  5
134
330
1F
100
AcDbEntity
  8
0_Pen_No__1
  6
Continuous
100
AcDbPolyline
 90
        2
 70
   128
 43
0.0
 10
58.65118640762002
 20
141.4601270758953
 10
58.65118640762002
 20
141.7308178692531
  0
LWPOLYLINE
  5
135
330
1F
100
AcDbEntity
  8
0_Pen_No__1
  6
Continuous
100
AcDbPolyline
 90
        2
 70
   128
 43
0.0
 10
58.65118640762002
 20
153.0071293186841
 10
58.65118640762002
 20
153.2778201120417
  0
LWPOLYLINE
  5
136
330
1F
100
AcDbEntity
  8
0_Pen_No__1
  6
Continuous
100
AcDbPolyline
 90
        2
 70
   128
 43
0.0
 10
58.65118640762002
 20
153.2778201120417
 10
58.65118640762002
 20
153.3689735939685
  0
LWPOLYLINE
  5
137
330
1F
100
AcDbEntity
  8
0_Pen_No__1
  6
Continuous
100
AcDbPolyline
 90
        2
 70
   128
 43
0.0
 10
189.3703742381308
 20
138.9189735939686
 10
189.3703742381308
 20
139.0473480810155
  0
LWPOLYLINE
  5
138
330
1F
100
AcDbEntity
  8
0_Pen_No__1
  6
Continuous
100
AcDbPolyline
 90
        2
 70
   128
 43
0.0
 10
189.3703742381308
 20
139.0473480810155
 10
189.3703742381308
 20
139.4285709483276
  0
LWPOLYLINE
  5
139
330
1F
100
AcDbEntity
  8
0_Pen_No__1
  6
Continuous
100
AcDbPolyline
 90
        2
 70
   128
 43
0.0
 10
189.3703742381308
 20
139.4285709483276
 10
189.3703742381308
 20
140.0510589319901
  0
LWPOLYLINE
  5
13A
330
1F
100
AcDbEntity
  8
0_Pen_No__1
  6
Continuous
100
AcDbPolyline
 90
        2
 70
   128
 43
0.0
 10
189.3703742381308
 20
140.0510589319901
 10
189.3703742381308
 20
140.8958980496131
  0
LWPOLYLINE
  5
13B
330
1F
100
AcDbEntity
  8
0_Pen_No__1
  6
Continuous
100
AcDbPolyline
 90
        2
 70
   128
 43
0.0
 10
189.3703742381308
 20
140.8958980496131
 10
189.3703742381308
 20
141.9374182921174
  0
LWPOLYLINE
  5
13C
330
1F
100
AcDbEntity
  8
0_Pen_No__1
  6
Continuous
100
AcDbPolyline
 90
        2
 70
   128
 43
0.0
 10
189.3703742381308
 20
141.9374182921174
 10
189.3703742381308
 20
143.1439735939686
  0
LWPOLYLINE
  5
13D
330
1F
100
AcDbEntity
  8
0_Pen_No__1
  6
Continuous
100
AcDbPolyline
 90
        2
 70
   128
 43
0.0
 10
189.3703742381308
 20
143.1439735939686
 10
189.3703742381308
 20
144.4789033828666
  0
LWPOLYLINE
  5
13E
330
1F
100
AcDbEntity
  8
0_Pen_No__1
  6
Continuous
100
AcDbPolyline
 90
        2
 70
   128
 43
0.0
 10
189.3703742381308
 20
144.4789033828666
 10
189.3703742381308
 20
145.901646492683
  0
LWPOLYLINE
  5
13F
330
1F
100
AcDbEntity
  8
0_Pen_No__1
  6
Continuous
100
AcDbPolyline
 90
        2
 70
   128
 43
0.0
 10
189.3703742381308
 20
145.901646492683
 10
189.3703742381308
 20
147.3689735939685
  0
LWPOLYLINE
  5
140
330
1F
100
AcDbEntity
  8
0_Pen_No__1
  6
Continuous
100
AcDbPolyline
 90
        2
 70
   128
 43
0.0
 10
189.3703742381308
 20
147.3689735939685
 10
189.3703742381308
 20
148.836300695254
  0
LWPOLYLINE
  5
141
330
1F
100
AcDbEntity
  8
0_Pen_No__1
  6
Continuous
100
AcDbPolyline
 90
        2
 70
   128
 43
0.0
 10
189.3703742381308
 20
148.836300695254
 10
189.3703742381308
 20
150.2590438050704
  0
LWPOLYLINE
  5
142
330
1F
100
AcDbEntity
  8
0_Pen_No__1
  6
Continuous
100
AcDbPolyline
 90
        2
 70
   128
 43
0.0
 10
189.3703742381308
 20
150.2590438050704
 10
189.3703742381308
 20
151.5939735939684
  0
LWPOLYLINE
  5
143
330
1F
100
AcDbEntity
  8
0_Pen_No__1
  6
Continuous
100
AcDbPolyline
 90
        2
 70
   128
 43
0.0
 10
189.3703742381308
 20
151.5939735939684
 10
189.3703742381308
 20
152.8005288958199
  0
LWPOLYLINE
  5
144
330
1F
100
AcDbEntity
  8
0_Pen_No__1
  6
Continuous
100
AcDbPolyline
 90
        2
 70
   128
 43
0.0
 10
189.3703742381308
 20
152.8005288958199
 10
189.3703742381308
 20
153.8420491383239
  0
LWPOLYLINE
  5
145
330
1F
100
AcDbEntity
  8
0_Pen_No__1
  6
Continuous
100
AcDbPolyline
 90
        2
 70
   128
 43
0.0
 10
189.3703742381308
 20
153.8420491383239
 10
189.3703742381308
 20
154.6868882559471
  0
LWPOLYLINE
  5
146
330
1F
100
AcDbEntity
  8
0_Pen_No__1
  6
Continuous
100
AcDbPolyline
 90
        2
 70
   128
 43
0.0
 10
189.3703742381308
 20
154.6868882559471
 10
189.3703742381308
 20
155.3093762396094
  0
LWPOLYLINE
  5
147
330
1F
100
AcDbEntity
  8
0_Pen_No__1
  6
Continuous
100
AcDbPolyline
 90
        2
 70
   128
 43
0.0
 10
189.3703742381308
 20
155.3093762396094
 10
189.3703742381308
 20
155.6905991069217
  0
LWPOLYLINE
  5
148
330
1F
100
AcDbEntity
  8
0_Pen_No__1
  6
Continuous
100
AcDbPolyline
 90
        2
 70
   128
 43
0.0
 10
189.3703742381308
 20
155.6905991069217
 10
189.3703742381308
 20
155.8189735939686
  0
LWPOLYLINE
  5
149
330
1F
100
AcDbEntity
  8
0_Pen_No__1
  6
Continuous
100
AcDbPolyline
 90
        2
 70
   128
 43
0.0
 10
189.3703742381308
 20
155.8189735939686
 10
189.3703742381308
 20
155.6905991069217
  0
LWPOLYLINE
  5
14A
330
1F
100
AcDbEntity
  8
0_Pen_No__1
  6
Continuous
100
AcDbPolyline
 90
        2
 70
   128
 43
0.0
 10
189.3703742381308
 20
155.6905991069217
 10
189.3703742381308
 20
155.3093762396094
  0
LWPOLYLINE
  5
14B
330
1F
100
AcDbEntity
  8
0_Pen_No__1
  6
Continuous
100
AcDbPolyline
 90
        2
 70
   128
 43
0.0
 10
189.3703742381308
 20
155.3093762396094
 10
189.3703742381308
 20
154.6868882559471
  0
LWPOLYLINE
  5
14C
330
1F
100
AcDbEntity
  8
0_Pen_No__1
  6
Continuous
100
AcDbPolyline
 90
        2
 70
   128
 43
0.0
 10
189.3703742381308
 20
154.6868882559471
 10
189.3703742381308
 20
153.8420491383239
  0
LWPOLYLINE
  5
14D
330
1F
100
AcDbEntity
  8
0_Pen_No__1
  6
Continuous
100
AcDbPolyline
 90
        2
 70
   128
 43
0.0
 10
189.3703742381308
 20
153.8420491383239
 10
189.3703742381308
 20
152.8005288958199
  0
LWPOLYLINE
  5
14E
330
1F
100
AcDbEntity
  8
0_Pen_No__1
  6
Continuous
100
AcDbPolyline
 90
        2
 70
   128
 43
0.0
 10
189.3703742381308
 20
152.8005288958199
 10
189.3703742381308
 20
151.5939735939684
  0
LWPOLYLINE
  5
14F
330
1F
100
AcDbEntity
  8
0_Pen_No__1
  6
Continuous
100
AcDbPolyline
 90
        2
 70
   128
 43
0.0
 10
189.3703742381308
 20
151.5939735939684
 10
189.3703742381308
 20
150.2590438050704
  0
LWPOLYLINE
  5
150
330
1F
100
AcDbEntity
  8
0_Pen_No__1
  6
Continuous
100
AcDbPolyline
 90
        2
 70
   128
 43
0.0
 10
189.3703742381308
 20
150.2590438050704
 10
189.3703742381308
 20
148.836300695254
  0
LWPOLYLINE
  5
151
330
1F
100
AcDbEntity
  8
0_Pen_No__1
  6
Continuous
100
AcDbPolyline
 90
        2
 70
   128
 43
0.0
 10
189.3703742381308
 20
148.836300695254
 10
189.3703742381308
 20
147.3689735939685
  0
LWPOLYLINE
  5
152
330
1F
100
AcDbEntity
  8
0_Pen_No__1
  6
Continuous
100
AcDbPolyline
 90
        2
 70
   128
 43
0.0
 10
189.3703742381308
 20
147.3689735939685
 10
189.3703742381308
 20
145.901646492683
  0
LWPOLYLINE
  5
153
330
1F
100
AcDbEntity
  8
0_Pen_No__1
  6
Continuous
100
AcDbPolyline
 90
        2
 70
   128
 43
0.0
 10
189.3703742381308
 20
145.901646492683
 10
189.3703742381308
 20
144.4789033828666
  0
LWPOLYLINE
  5
154
330
1F
100
AcDbEntity
  8
0_Pen_No__1
  6
Continuous
100
AcDbPolyline
 90
        2
 70
   128
 43
0.0
 10
189.3703742381308
 20
144.4789033828666
 10
189.3703742381308
 20
143.1439735939686
  0
LWPOLYLINE
  5
155
330
1F
100
AcDbEntity
  8
0_Pen_No__1
  6
Continuous
100
AcDbPolyline
 90
        2
 70
   128
 43
0.0
 10
189.3703742381308
 20
143.1439735939686
 10
189.3703742381308
 20
141.9374182921174
  0
LWPOLYLINE
  5
156
330
1F
100
AcDbEntity
  8
0_Pen_No__1
  6
Continuous
100
AcDbPolyline
 90
        2
 70
   128
 43
0.0
 10
189.3703742381308
 20
141.9374182921174
 10
189.3703742381308
 20
140.8958980496131
  0
LWPOLYLINE
  5
157
330
1F
100
AcDbEntity
  8
0_Pen_No__1
  6
Continuous
100
AcDbPolyline
 90
        2
 70
   128
 43
0.0
 10
189.3703742381308
 20
140.8958980496131
 10
189.3703742381308
 20
140.0510589319901
  0
LWPOLYLINE
  5
158
330
1F
100
AcDbEntity
  8
0_Pen_No__1
  6
Continuous
100
AcDbPolyline
 90
        2
 70
   128
 43
0.0
 10
189.3703742381308
 20
140.0510589319901
 10
189.3703742381308
 20
139.4285709483276
  0
LWPOLYLINE
  5
159
330
1F
100
AcDbEntity
  8
0_Pen_No__1
  6
Continuous
100
AcDbPolyline
 90
        2
 70
   128
 43
0.0
 10
189.3703742381308
 20
139.4285709483276
 10
189.3703742381308
 20
139.0473480810155
  0
LWPOLYLINE
  5
15A
330
1F
100
AcDbEntity
  8
0_Pen_No__1
  6
Continuous
100
AcDbPolyline
 90
        2
 70
   128
 43
0.0
 10
189.3703742381308
 20
139.0473480810155
 10
189.3703742381308
 20
138.9189735939686
  0
LWPOLYLINE
  5
15B
330
1F
100
AcDbEntity
  8
0_Pen_No__1
  6
Continuous
100
AcDbPolyline
 90
        2
 70
   128
 43
0.0
 10
22.75118640761975
 20
147.3689735939685
 10
22.75118640761975
 20
142.2689735939686
  0
LWPOLYLINE
  5
15C
330
1F
100
AcDbEntity
  8
0_Pen_No__1
  6
Continuous
100
AcDbPolyline
 90
        2
 70
   128
 43
0.0
 10
22.75118640761975
 20
142.2689735939686
 10
23.65118640761987
 20
141.3689735939685
  0
LWPOLYLINE
  5
15D
330
1F
100
AcDbEntity
  8
0_Pen_No__1
  6
Continuous
100
AcDbPolyline
 90
        2
 70
   128
 43
0.0
 10
23.65118640761987
 20
141.3689735939685
 10
24.27618640761975
 20
142.0455610939686
  0
LWPOLYLINE
  5
15E
330
1F
100
AcDbEntity
  8
0_Pen_No__1
  6
Continuous
100
AcDbPolyline
 90
        2
 70
   128
 43
0.0
 10
24.27618640761975
 20
142.0455610939686
 10
24.90118640762007
 20
141.3689735939685
  0
LWPOLYLINE
  5
15F
330
1F
100
AcDbEntity
  8
0_Pen_No__1
  6
Continuous
100
AcDbPolyline
 90
        2
 70
   128
 43
0.0
 10
24.90118640762007
 20
141.3689735939685
 10
25.52618640761972
 20
142.0455610939686
  0
LWPOLYLINE
  5
160
330
1F
100
AcDbEntity
  8
0_Pen_No__1
  6
Continuous
100
AcDbPolyline
 90
        2
 70
   128
 43
0.0
 10
25.52618640761972
 20
142.0455610939686
 10
26.15118640761982
 20
141.3689735939685
  0
LWPOLYLINE
  5
161
330
1F
100
AcDbEntity
  8
0_Pen_No__1
  6
Continuous
100
AcDbPolyline
 90
        2
 70
   128
 43
0.0
 10
26.15118640761982
 20
141.3689735939685
 10
26.77618640762014
 20
142.0455610939686
  0
LWPOLYLINE
  5
162
330
1F
100
AcDbEntity
  8
0_Pen_No__1
  6
Continuous
100
AcDbPolyline
 90
        2
 70
   128
 43
0.0
 10
26.77618640762014
 20
142.0455610939686
 10
27.40118640762002
 20
141.3689735939685
  0
LWPOLYLINE
  5
163
330
1F
100
AcDbEntity
  8
0_Pen_No__1
  6
Continuous
100
AcDbPolyline
 90
        2
 70
   128
 43
0.0
 10
27.40118640762002
 20
141.3689735939685
 10
28.02618640761989
 20
142.0455610939686
  0
LWPOLYLINE
  5
164
330
1F
100
AcDbEntity
  8
0_Pen_No__1
  6
Continuous
100
AcDbPolyline
 90
        2
 70
   128
 43
0.0
 10
28.02618640761989
 20
142.0455610939686
 10
28.65118640761977
 20
141.3689735939685
  0
LWPOLYLINE
  5
165
330
1F
100
AcDbEntity
  8
0_Pen_No__1
  6
Continuous
100
AcDbPolyline
 90
        2
 70
   128
 43
0.0
 10
28.65118640761977
 20
141.3689735939685
 10
29.27618640762009
 20
142.0455610939686
  0
LWPOLYLINE
  5
166
330
1F
100
AcDbEntity
  8
0_Pen_No__1
  6
Continuous
100
AcDbPolyline
 90
        2
 70
   128
 43
0.0
 10
29.27618640762009
 20
142.0455610939686
 10
29.90118640761996
 20
141.3689735939685
  0
LWPOLYLINE
  5
167
330
1F
100
AcDbEntity
  8
0_Pen_No__1
  6
Continuous
100
AcDbPolyline
 90
        2
 70
   128
 43
0.0
 10
29.90118640761996
 20
141.3689735939685
 10
30.52618640761984
 20
142.0455610939686
  0
LWPOLYLINE
  5
168
330
1F
100
AcDbEntity
  8
0_Pen_No__1
  6
Continuous
100
AcDbPolyline
 90
        2
 70
   128
 43
0.0
 10
30.52618640761984
 20
142.0455610939686
 10
31.15118640761994
 20
141.3689735939685
  0
LWPOLYLINE
  5
169
330
1F
100
AcDbEntity
  8
0_Pen_No__1
  6
Continuous
100
AcDbPolyline
 90
        2
 70
   128
 43
0.0
 10
31.15118640761994
 20
141.3689735939685
 10
31.77618640762003
 20
142.0455610939686
  0
LWPOLYLINE
  5
16A
330
1F
100
AcDbEntity
  8
0_Pen_No__1
  6
Continuous
100
AcDbPolyline
 90
        2
 70
   128
 43
0.0
 10
31.77618640762003
 20
142.0455610939686
 10
32.40118640761991
 20
141.3689735939685
  0
LWPOLYLINE
  5
16B
330
1F
100
AcDbEntity
  8
0_Pen_No__1
  6
Continuous
100
AcDbPolyline
 90
        2
 70
   128
 43
0.0
 10
32.40118640761991
 20
141.3689735939685
 10
33.02618640761978
 20
142.0455610939686
  0
LWPOLYLINE
  5
16C
330
1F
100
AcDbEntity
  8
0_Pen_No__1
  6
Continuous
100
AcDbPolyline
 90
        2
 70
   128
 43
0.0
 10
33.02618640761978
 20
142.0455610939686
 10
33.6511864076201
 20
141.3689735939685
  0
LWPOLYLINE
  5
16D
330
1F
100
AcDbEntity
  8
0_Pen_No__1
  6
Continuous
100
AcDbPolyline
 90
        2
 70
   128
 43
0.0
 10
33.6511864076201
 20
141.3689735939685
 10
34.27618640761998
 20
142.0455610939686
  0
LWPOLYLINE
  5
16E
330
1F
100
AcDbEntity
  8
0_Pen_No__1
  6
Continuous
100
AcDbPolyline
 90
        2
 70
   128
 43
0.0
 10
34.27618640761998
 20
142.0455610939686
 10
34.90118640761985
 20
141.3689735939685
  0
LWPOLYLINE
  5
16F
330
1F
100
AcDbEntity
  8
0_Pen_No__1
  6
Continuous
100
AcDbPolyline
 90
        2
 70
   128
 43
0.0
 10
34.90118640761985
 20
141.3689735939685
 10
35.52618640761973
 20
142.0455610939686
  0
LWPOLYLINE
  5
170
330
1F
100
AcDbEntity
  8
0_Pen_No__1
  6
Continuous
100
AcDbPolyline
 90
        2
 70
   128
 43
0.0
 10
35.52618640761973
 20
142.0455610939686
 10
36.15118640762005
 20
141.3689735939685
  0
LWPOLYLINE
  5
171
330
1F
100
AcDbEntity
  8
0_Pen_No__1
  6
Continuous
100
AcDbPolyline
 90
        2
 70
   128
 43
0.0
 10
36.15118640762005
 20
141.3689735939685
 10
36.7761864076197
 20
142.0455610939686
  0
LWPOLYLINE
  5
172
330
1F
100
AcDbEntity
  8
0_Pen_No__1
  6
Continuous
100
AcDbPolyline
 90
        2
 70
   128
 43
0.0
 10
36.7761864076197
 20
142.0455610939686
 10
37.4011864076198
 20
141.3689735939685
  0
LWPOLYLINE
  5
173
330
1F
100
AcDbEntity
  8
0_Pen_No__1
  6
Continuous
100
AcDbPolyline
 90
        2
 70
   128
 43
0.0
 10
37.4011864076198
 20
141.3689735939685
 10
38.02618640762012
 20
142.0455610939686
  0
LWPOLYLINE
  5
174
330
1F
100
AcDbEntity
  8
0_Pen_No__1
  6
Continuous
100
AcDbPolyline
 90
        2
 70
   128
 43
0.0
 10
38.02618640762012
 20
142.0455610939686
 10
38.65118640762
 20
141.3689735939685
  0
LWPOLYLINE
  5
175
330
1F
100
AcDbEntity
  8
0_Pen_No__1
  6
Continuous
100
AcDbPolyline
 90
        2
 70
   128
 43
0.0
 10
38.65118640762
 20
141.3689735939685
 10
39.27618640761987
 20
142.0455610939686
  0
LWPOLYLINE
  5
176
330
1F
100
AcDbEntity
  8
0_Pen_No__1
  6
Continuous
100
AcDbPolyline
 90
        2
 70
   128
 43
0.0
 10
39.27618640761987
 20
142.0455610939686
 10
39.90118640761975
 20
141.3689735939685
  0
LWPOLYLINE
  5
177
330
1F
100
AcDbEntity
  8
0_Pen_No__1
  6
Continuous
100
AcDbPolyline
 90
        2
 70
   128
 43
0.0
 10
39.90118640761975
 20
141.3689735939685
 10
40.52618640762007
 20
142.0455610939686
  0
LWPOLYLINE
  5
178
330
1F
100
AcDbEntity
  8
0_Pen_No__1
  6
Continuous
100
AcDbPolyline
 90
        2
 70
   128
 43
0.0
 10
40.52618640762007
 20
142.0455610939686
 10
41.15118640761972
 20
141.3689735939685
  0
LWPOLYLINE
  5
179
330
1F
100
AcDbEntity
  8
0_Pen_No__1
  6
Continuous
100
AcDbPolyline
 90
        2
 70
   128
 43
0.0
 10
41.15118640761972
 20
141.3689735939685
 10
41.77618640761982
 20
142.0455610939686
  0
LWPOLYLINE
  5
17A
330
1F
100
AcDbEntity
  8
0_Pen_No__1
  6
Continuous
100
AcDbPolyline
 90
        2
 70
   128
 43
0.0
 10
41.77618640761982
 20
142.0455610939686
 10
42.40118640762014
 20
141.3689735939685
  0
LWPOLYLINE
  5
17B
330
1F
100
AcDbEntity
  8
0_Pen_No__1
  6
Continuous
100
AcDbPolyline
 90
        2
 70
   128
 43
0.0
 10
42.40118640762014
 20
141.3689735939685
 10
43.02618640762002
 20
142.0455610939686
  0
LWPOLYLINE
  5
17C
330
1F
100
AcDbEntity
  8
0_Pen_No__1
  6
Continuous
100
AcDbPolyline
 90
        2
 70
   128
 43
0.0
 10
43.02618640762002
 20
142.0455610939686
 10
43.65118640761989
 20
141.3689735939685
  0
LWPOLYLINE
  5
17D
330
1F
100
AcDbEntity
  8
0_Pen_No__1
  6
Continuous
100
AcDbPolyline
 90
        2
 70
   128
 43
0.0
 10
43.65118640761989
 20
141.3689735939685
 10
44.27618640761977
 20
142.0455610939686
  0
LWPOLYLINE
  5
17E
330
1F
100
AcDbEntity
  8
0_Pen_No__1
  6
Continuous
100
AcDbPolyline
 90
        2
 70
   128
 43
0.0
 10
44.27618640761977
 20
142.0455610939686
 10
44.90118640762009
 20
141.3689735939685
  0
LWPOLYLINE
  5
17F
330
1F
100
AcDbEntity
  8
0_Pen_No__1
  6
Continuous
100
AcDbPolyline
 90
        2
 70
   128
 43
0.0
 10
44.90118640762009
 20
141.3689735939685
 10
45.52618640761996
 20
142.0455610939686
  0
LWPOLYLINE
  5
180
330
1F
100
AcDbEntity
  8
0_Pen_No__1
  6
Continuous
100
AcDbPolyline
 90
        2
 70
   128
 43
0.0
 10
45.52618640761996
 20
142.0455610939686
 10
46.15118640761984
 20
141.3689735939685
  0
LWPOLYLINE
  5
181
330
1F
100
AcDbEntity
  8
0_Pen_No__1
  6
Continuous
100
AcDbPolyline
 90
        2
 70
   128
 43
0.0
 10
46.15118640761984
 20
141.3689735939685
 10
46.77618640761993
 20
142.0455610939686
  0
LWPOLYLINE
  5
182
330
1F
100
AcDbEntity
  8
0_Pen_No__1
  6
Continuous
100
AcDbPolyline
 90
        2
 70
   128
 43
0.0
 10
46.77618640761993
 20
142.0455610939686
 10
47.40118640762003
 20
141.3689735939685
  0
LWPOLYLINE
  5
183
330
1F
100
AcDbEntity
  8
0_Pen_No__1
  6
Continuous
100
AcDbPolyline
 90
        2
 70
   128
 43
0.0
 10
47.40118640762003
 20
141.3689735939685
 10
48.02618640761991
 20
142.0455610939686
  0
LWPOLYLINE
  5
184
330
1F
100
AcDbEntity
  8
0_Pen_No__1
  6
Continuous
100
AcDbPolyline
 90
        2
 70
   128
 43
0.0
 10
48.02618640761991
 20
142.0455610939686
 10
48.65118640761978
 20
141.3689735939685
  0
LWPOLYLINE
  5
185
330
1F
100
AcDbEntity
  8
0_Pen_No__1
  6
Continuous
100
AcDbPolyline
 90
        2
 70
   128
 43
0.0
 10
48.65118640761978
 20
141.3689735939685
 10
49.2761864076201
 20
142.0455610939686
  0
LWPOLYLINE
  5
186
330
1F
100
AcDbEntity
  8
0_Pen_No__1
  6
Continuous
100
AcDbPolyline
 90
        2
 70
   128
 43
0.0
 10
49.2761864076201
 20
142.0455610939686
 10
49.90118640761998
 20
141.3689735939685
  0
LWPOLYLINE
  5
187
330
1F
100
AcDbEntity
  8
0_Pen_No__1
  6
Continuous
100
AcDbPolyline
 90
        2
 70
   128
 43
0.0
 10
49.90118640761998
 20
141.3689735939685
 10
50.52618640761985
 20
142.0455610939686
  0
LWPOLYLINE
  5
188
330
1F
100
AcDbEntity
  8
0_Pen_No__1
  6
Continuous
100
AcDbPolyline
 90
        2
 70
   128
 43
0.0
 10
50.52618640761985
 20
142.0455610939686
 10
51.15118640761973
 20
141.3689735939685
  0
LWPOLYLINE
  5
189
330
1F
100
AcDbEntity
  8
0_Pen_No__1
  6
Continuous
100
AcDbPolyline
 90
        2
 70
   128
 43
0.0
 10
51.15118640761973
 20
141.3689735939685
 10
51.77618640762005
 20
142.0455610939686
  0
LWPOLYLINE
  5
18A
330
1F
100
AcDbEntity
  8
0_Pen_No__1
  6
Continuous
100
AcDbPolyline
 90
        2
 70
   128
 43
0.0
 10
51.77618640762005
 20
142.0455610939686
 10
52.4011864076197
 20
141.3689735939685
  0
LWPOLYLINE
  5
18B
330
1F
100
AcDbEntity
  8
0_Pen_No__1
  6
Continuous
100
AcDbPolyline
 90
        2
 70
   128
 43
0.0
 10
52.4011864076197
 20
141.3689735939685
 10
53.0261864076198
 20
142.0455610939686
  0
LWPOLYLINE
  5
18C
330
1F
100
AcDbEntity
  8
0_Pen_No__1
  6
Continuous
100
AcDbPolyline
 90
        2
 70
   128
 43
0.0
 10
53.0261864076198
 20
142.0455610939686
 10
53.65118640762012
 20
141.3689735939685
  0
LWPOLYLINE
  5
18D
330
1F
100
AcDbEntity
  8
0_Pen_No__1
  6
Continuous
100
AcDbPolyline
 90
        2
 70
   128
 43
0.0
 10
53.65118640762012
 20
141.3689735939685
 10
54.27618640762
 20
142.0455610939686
  0
LWPOLYLINE
  5
18E
330
1F
100
AcDbEntity
  8
0_Pen_No__1
  6
Continuous
100
AcDbPolyline
 90
        2
 70
   128
 43
0.0
 10
54.27618640762
 20
142.0455610939686
 10
54.90118640761987
 20
141.3689735939685
  0
LWPOLYLINE
  5
18F
330
1F
100
AcDbEntity
  8
0_Pen_No__1
  6
Continuous
100
AcDbPolyline
 90
        2
 70
   128
 43
0.0
 10
54.90118640761987
 20
141.3689735939685
 10
55.52618640761975
 20
142.0455610939686
  0
LWPOLYLINE
  5
190
330
1F
100
AcDbEntity
  8
0_Pen_No__1
  6
Continuous
100
AcDbPolyline
 90
        2
 70
   128
 43
0.0
 10
55.52618640761975
 20
142.0455610939686
 10
56.15118640762007
 20
141.3689735939685
  0
LWPOLYLINE
  5
191
330
1F
100
AcDbEntity
  8
0_Pen_No__1
  6
Continuous
100
AcDbPolyline
 90
        2
 70
   128
 43
0.0
 10
56.15118640762007
 20
141.3689735939685
 10
56.77618640761972
 20
142.0455610939686
  0
LWPOLYLINE
  5
192
330
1F
100
AcDbEntity
  8
0_Pen_No__1
  6
Continuous
100
AcDbPolyline
 90
        2
 70
   128
 43
0.0
 10
56.77618640761972
 20
142.0455610939686
 10
57.40118640761982
 20
141.3689735939685
  0
LWPOLYLINE
  5
193
330
1F
100
AcDbEntity
  8
0_Pen_No__1
  6
Continuous
100
AcDbPolyline
 90
        2
 70
   128
 43
0.0
 10
57.40118640761982
 20
141.3689735939685
 10
58.02618640762014
 20
142.0455610939686
  0
LWPOLYLINE
  5
194
330
1F
100
AcDbEntity
  8
0_Pen_No__1
  6
Continuous
100
AcDbPolyline
 90
        2
 70
   128
 43
0.0
 10
58.02618640762014
 20
142.0455610939686
 10
58.65118640762002
 20
141.3689735939685
  0
LWPOLYLINE
  5
195
330
1F
100
AcDbEntity
  8
0_Pen_No__1
  6
Continuous
100
AcDbPolyline
 90
        2
 70
   128
 43
0.0
 10
58.65118640762002
 20
141.3689735939685
 10
181.6903742381306
 20
141.3689735939685
  0
LWPOLYLINE
  5
196
330
1F
100
AcDbEntity
  8
0_Pen_No__1
  6
Continuous
100
AcDbPolyline
 90
        2
 70
   128
 43
0.0
 10
181.6903742381306
 20
136.8189735939686
 10
187.2703742381308
 20
136.8189735939686
  0
LWPOLYLINE
  5
197
330
1F
100
AcDbEntity
  8
0_Pen_No__1
  6
Continuous
100
AcDbPolyline
 90
        2
 70
   128
 43
0.0
 10
187.2703742381308
 20
136.8189735939686
 10
187.6350354112311
 20
136.8508773126429
  0
LWPOLYLINE
  5
198
330
1F
100
AcDbEntity
  8
0_Pen_No__1
  6
Continuous
100
AcDbPolyline
 90
        2
 70
   128
 43
0.0
 10
187.6350354112311
 20
136.8508773126429
 10
187.9886165391145
 20
136.9456190903182
  0
LWPOLYLINE
  5
199
330
1F
100
AcDbEntity
  8
0_Pen_No__1
  6
Continuous
100
AcDbPolyline
 90
        2
 70
   128
 43
0.0
 10
187.9886165391145
 20
136.9456190903182
 10
188.3203742381305
 20
137.1003202460213
  0
LWPOLYLINE
  5
19A
330
1F
100
AcDbEntity
  8
0_Pen_No__1
  6
Continuous
100
AcDbPolyline
 90
        2
 70
   128
 43
0.0
 10
188.3203742381305
 20
137.1003202460213
 10
188.6202282184726
 20
137.3102802634187
  0
LWPOLYLINE
  5
19B
330
1F
100
AcDbEntity
  8
0_Pen_No__1
  6
Continuous
100
AcDbPolyline
 90
        2
 70
   128
 43
0.0
 10
188.6202282184726
 20
137.3102802634187
 10
188.8790675686802
 20
137.5691196136268
  0
LWPOLYLINE
  5
19C
330
1F
100
AcDbEntity
  8
0_Pen_No__1
  6
Continuous
100
AcDbPolyline
 90
        2
 70
   128
 43
0.0
 10
188.8790675686802
 20
137.5691196136268
 10
189.0890275860781
 20
137.8689735939684
  0
LWPOLYLINE
  5
19D
330
1F
100
AcDbEntity
  8
0_Pen_No__1
  6
Continuous
100
AcDbPolyline
 90
        2
 70
   128
 43
0.0
 10
189.0890275860781
 20
137.8689735939684
 10
189.2437287417808
 20
138.2007312929847
  0
LWPOLYLINE
  5
19E
330
1F
100
AcDbEntity
  8
0_Pen_No__1
  6
Continuous
100
AcDbPolyline
 90
        2
 70
   128
 43
0.0
 10
189.2437287417808
 20
138.2007312929847
 10
189.3384705194563
 20
138.5543124208681
  0
LWPOLYLINE
  5
19F
330
1F
100
AcDbEntity
  8
0_Pen_No__1
  6
Continuous
100
AcDbPolyline
 90
        2
 70
   128
 43
0.0
 10
189.3384705194563
 20
138.5543124208681
 10
189.3703742381308
 20
138.9189735939686
  0
LWPOLYLINE
  5
1A0
330
1F
100
AcDbEntity
  8
0_Pen_No__1
  6
Continuous
100
AcDbPolyline
 90
        2
 70
   128
 43
0.0
 10
189.3703742381308
 20
138.9189735939686
 10
189.3703742381308
 20
147.3689735939685
  0
LWPOLYLINE
  5
1A1
330
1F
100
AcDbEntity
  8
0_Pen_No__1
  6
Continuous
100
AcDbPolyline
 90
        2
 70
   128
 43
0.0
 10
22.75118640761975
 20
147.3689735939685
 10
22.75118640761975
 20
142.3464540536061
  0
LWPOLYLINE
  5
1A2
330
1F
100
AcDbEntity
  8
0_Pen_No__1
  6
Continuous
100
AcDbPolyline
 90
        2
 70
   128
 43
0.0
 10
189.3703742381308
 20
139.0473480810155
 10
189.3703742381308
 20
147.3689735939685
  0
LWPOLYLINE
  5
1A3
330
1F
100
AcDbEntity
  8
0_Pen_No__1
  6
Continuous
100
AcDbPolyline
 90
        2
 70
   128
 43
0.0
 10
22.75118640761975
 20
147.3689735939685
 10
22.75118640761975
 20
142.5765412279603
  0
LWPOLYLINE
  5
1A4
330
1F
100
AcDbEntity
  8
0_Pen_No__1
  6
Continuous
100
AcDbPolyline
 90
        2
 70
   128
 43
0.0
 10
189.3703742381308
 20
139.4285709483276
 10
189.3703742381308
 20
147.3689735939685
  0
LWPOLYLINE
  5
1A5
330
1F
100
AcDbEntity
  8
0_Pen_No__1
  6
Continuous
100
AcDbPolyline
 90
        2
 70
   128
 43
0.0
 10
22.75118640761975
 20
147.3689735939685
 10
22.75118640761975
 20
142.952244034668
  0
LWPOLYLINE
  5
1A6
330
1F
100
AcDbEntity
  8
0_Pen_No__1
  6
Continuous
100
AcDbPolyline
 90
        2
 70
   128
 43
0.0
 10
189.3703742381308
 20
140.0510589319901
 10
189.3703742381308
 20
147.3689735939685
  0
LWPOLYLINE
  5
1A7
330
1F
100
AcDbEntity
  8
0_Pen_No__1
  6
Continuous
100
AcDbPolyline
 90
        2
 70
   128
 43
0.0
 10
22.75118640761975
 20
147.3689735939685
 10
22.75118640761975
 20
143.4621469340618
  0
LWPOLYLINE
  5
1A8
330
1F
100
AcDbEntity
  8
0_Pen_No__1
  6
Continuous
100
AcDbPolyline
 90
        2
 70
   128
 43
0.0
 10
189.3703742381308
 20
140.8958980496131
 10
189.3703742381308
 20
147.3689735939685
  0
LWPOLYLINE
  5
1A9
330
1F
100
AcDbEntity
  8
0_Pen_No__1
  6
Continuous
100
AcDbPolyline
 90
        2
 70
   128
 43
0.0
 10
22.75118640761975
 20
147.3689735939685
 10
22.75118640761975
 20
144.0907567845671
  0
LWPOLYLINE
  5
1AA
330
1F
100
AcDbEntity
  8
0_Pen_No__1
  6
Continuous
100
AcDbPolyline
 90
        2
 70
   128
 43
0.0
 10
189.3703742381308
 20
141.9374182921174
 10
189.3703742381308
 20
147.3689735939685
  0
LWPOLYLINE
  5
1AB
330
1F
100
AcDbEntity
  8
0_Pen_No__1
  6
Continuous
100
AcDbPolyline
 90
        2
 70
   128
 43
0.0
 10
22.75118640761975
 20
147.3689735939685
 10
22.75118640761975
 20
144.8189735939687
  0
LWPOLYLINE
  5
1AC
330
1F
100
AcDbEntity
  8
0_Pen_No__1
  6
Continuous
100
AcDbPolyline
 90
        2
 70
   128
 43
0.0
 10
189.3703742381308
 20
143.1439735939686
 10
189.3703742381308
 20
147.3689735939685
  0
LWPOLYLINE
  5
1AD
330
1F
100
AcDbEntity
  8
0_Pen_No__1
  6
Continuous
100
AcDbPolyline
 90
        2
 70
   128
 43
0.0
 10
22.75118640761975
 20
147.3689735939685
 10
22.75118640761975
 20
145.6246708630076
  0
LWPOLYLINE
  5
1AE
330
1F
100
AcDbEntity
  8
0_Pen_No__1
  6
Continuous
100
AcDbPolyline
 90
        2
 70
   128
 43
0.0
 10
189.3703742381308
 20
144.4789033828666
 10
189.3703742381308
 20
147.3689735939685
  0
LWPOLYLINE
  5
1AF
330
1F
100
AcDbEntity
  8
0_Pen_No__1
  6
Continuous
100
AcDbPolyline
 90
        2
 70
   128
 43
0.0
 10
22.75118640761975
 20
147.3689735939685
 10
22.75118640761975
 20
146.4833678878672
  0
LWPOLYLINE
  5
1B0
330
1F
100
AcDbEntity
  8
0_Pen_No__1
  6
Continuous
100
AcDbPolyline
 90
        2
 70
   128
 43
0.0
 10
189.3703742381308
 20
145.901646492683
 10
189.3703742381308
 20
147.3689735939685
  0
LWPOLYLINE
  5
1B1
330
1F
100
AcDbEntity
  8
0_Pen_No__1
  6
Continuous
100
AcDbPolyline
 90
        2
 70
   128
 43
0.0
 10
22.75118640761975
 20
147.3689735939685
 10
22.75118640761975
 20
148.2545793000696
  0
LWPOLYLINE
  5
1B2
330
1F
100
AcDbEntity
  8
0_Pen_No__1
  6
Continuous
100
AcDbPolyline
 90
        2
 70
   128
 43
0.0
 10
189.3703742381308
 20
148.836300695254
 10
189.3703742381308
 20
147.3689735939685
  0
LWPOLYLINE
  5
1B3
330
1F
100
AcDbEntity
  8
0_Pen_No__1
  6
Continuous
100
AcDbPolyline
 90
        2
 70
   128
 43
0.0
 10
22.75118640761975
 20
147.3689735939685
 10
22.75118640761975
 20
149.1132763249294
  0
LWPOLYLINE
  5
1B4
330
1F
100
AcDbEntity
  8
0_Pen_No__1
  6
Continuous
100
AcDbPolyline
 90
        2
 70
   128
 43
0.0
 10
189.3703742381308
 20
150.2590438050704
 10
189.3703742381308
 20
147.3689735939685
  0
LWPOLYLINE
  5
1B5
330
1F
100
AcDbEntity
  8
0_Pen_No__1
  6
Continuous
100
AcDbPolyline
 90
        2
 70
   128
 43
0.0
 10
22.75118640761975
 20
147.3689735939685
 10
22.75118640761975
 20
149.9189735939686
  0
LWPOLYLINE
  5
1B6
330
1F
100
AcDbEntity
  8
0_Pen_No__1
  6
Continuous
100
AcDbPolyline
 90
        2
 70
   128
 43
0.0
 10
189.3703742381308
 20
151.5939735939684
 10
189.3703742381308
 20
147.3689735939685
  0
LWPOLYLINE
  5
1B7
330
1F
100
AcDbEntity
  8
0_Pen_No__1
  6
Continuous
100
AcDbPolyline
 90
        2
 70
   128
 43
0.0
 10
22.75118640761975
 20
147.3689735939685
 10
22.75118640761975
 20
150.6471904033699
  0
LWPOLYLINE
  5
1B8
330
1F
100
AcDbEntity
  8
0_Pen_No__1
  6
Continuous
100
AcDbPolyline
 90
        2
 70
   128
 43
0.0
 10
189.3703742381308
 20
152.8005288958199
 10
189.3703742381308
 20
147.3689735939685
  0
LWPOLYLINE
  5
1B9
330
1F
100
AcDbEntity
  8
0_Pen_No__1
  6
Continuous
100
AcDbPolyline
 90
        2
 70
   128
 43
0.0
 10
22.75118640761975
 20
147.3689735939685
 10
22.75118640761975
 20
151.2758002538754
  0
LWPOLYLINE
  5
1BA
330
1F
100
AcDbEntity
  8
0_Pen_No__1
  6
Continuous
100
AcDbPolyline
 90
        2
 70
   128
 43
0.0
 10
189.3703742381308
 20
153.8420491383239
 10
189.3703742381308
 20
147.3689735939685
  0
LWPOLYLINE
  5
1BB
330
1F
100
AcDbEntity
  8
0_Pen_No__1
  6
Continuous
100
AcDbPolyline
 90
        2
 70
   128
 43
0.0
 10
22.75118640761975
 20
147.3689735939685
 10
22.75118640761975
 20
151.7857031532692
  0
LWPOLYLINE
  5
1BC
330
1F
100
AcDbEntity
  8
0_Pen_No__1
  6
Continuous
100
AcDbPolyline
 90
        2
 70
   128
 43
0.0
 10
189.3703742381308
 20
154.6868882559471
 10
189.3703742381308
 20
147.3689735939685
  0
LWPOLYLINE
  5
1BD
330
1F
100
AcDbEntity
  8
0_Pen_No__1
  6
Continuous
100
AcDbPolyline
 90
        2
 70
   128
 43
0.0
 10
22.75118640761975
 20
147.3689735939685
 10
22.75118640761975
 20
152.1614059599767
  0
LWPOLYLINE
  5
1BE
330
1F
100
AcDbEntity
  8
0_Pen_No__1
  6
Continuous
100
AcDbPolyline
 90
        2
 70
   128
 43
0.0
 10
189.3703742381308
 20
155.3093762396094
 10
189.3703742381308
 20
147.3689735939685
  0
LWPOLYLINE
  5
1BF
330
1F
100
AcDbEntity
  8
0_Pen_No__1
  6
Continuous
100
AcDbPolyline
 90
        2
 70
   128
 43
0.0
 10
22.75118640761975
 20
147.3689735939685
 10
22.75118640761975
 20
152.3914931343309
  0
LWPOLYLINE
  5
1C0
330
1F
100
AcDbEntity
  8
0_Pen_No__1
  6
Continuous
100
AcDbPolyline
 90
        2
 70
   128
 43
0.0
 10
189.3703742381308
 20
155.6905991069217
 10
189.3703742381308
 20
147.3689735939685
  0
LWPOLYLINE
  5
1C1
330
1F
100
AcDbEntity
  8
0_Pen_No__1
  6
Continuous
100
AcDbPolyline
 90
        2
 70
   128
 43
0.0
 10
22.75118640761975
 20
147.3689735939685
 10
22.75118640761975
 20
152.4689735939686
  0
LWPOLYLINE
  5
1C2
330
1F
100
AcDbEntity
  8
0_Pen_No__1
  6
Continuous
100
AcDbPolyline
 90
        2
 70
   128
 43
0.0
 10
22.75118640761975
 20
152.4689735939686
 10
23.65118640761987
 20
153.3689735939685
  0
LWPOLYLINE
  5
1C3
330
1F
100
AcDbEntity
  8
0_Pen_No__1
  6
Continuous
100
AcDbPolyline
 90
        2
 70
   128
 43
0.0
 10
23.65118640761987
 20
153.3689735939685
 10
24.27618640761975
 20
152.6923860939686
  0
LWPOLYLINE
  5
1C4
330
1F
100
AcDbEntity
  8
0_Pen_No__1
  6
Continuous
100
AcDbPolyline
 90
        2
 70
   128
 43
0.0
 10
24.27618640761975
 20
152.6923860939686
 10
24.90118640762007
 20
153.3689735939685
  0
LWPOLYLINE
  5
1C5
330
1F
100
AcDbEntity
  8
0_Pen_No__1
  6
Continuous
100
AcDbPolyline
 90
        2
 70
   128
 43
0.0
 10
24.90118640762007
 20
153.3689735939685
 10
25.52618640761972
 20
152.6923860939686
  0
LWPOLYLINE
  5
1C6
330
1F
100
AcDbEntity
  8
0_Pen_No__1
  6
Continuous
100
AcDbPolyline
 90
        2
 70
   128
 43
0.0
 10
25.52618640761972
 20
152.6923860939686
 10
26.15118640761982
 20
153.3689735939685
  0
LWPOLYLINE
  5
1C7
330
1F
100
AcDbEntity
  8
0_Pen_No__1
  6
Continuous
100
AcDbPolyline
 90
        2
 70
   128
 43
0.0
 10
26.15118640761982
 20
153.3689735939685
 10
26.77618640762014
 20
152.6923860939686
  0
LWPOLYLINE
  5
1C8
330
1F
100
AcDbEntity
  8
0_Pen_No__1
  6
Continuous
100
AcDbPolyline
 90
        2
 70
   128
 43
0.0
 10
26.77618640762014
 20
152.6923860939686
 10
27.40118640762002
 20
153.3689735939685
  0
LWPOLYLINE
  5
1C9
330
1F
100
AcDbEntity
  8
0_Pen_No__1
  6
Continuous
100
AcDbPolyline
 90
        2
 70
   128
 43
0.0
 10
27.40118640762002
 20
153.3689735939685
 10
28.02618640761989
 20
152.6923860939686
  0
LWPOLYLINE
  5
1CA
330
1F
100
AcDbEntity
  8
0_Pen_No__1
  6
Continuous
100
AcDbPolyline
 90
        2
 70
   128
 43
0.0
 10
28.02618640761989
 20
152.6923860939686
 10
28.65118640761977
 20
153.3689735939685
  0
LWPOLYLINE
  5
1CB
330
1F
100
AcDbEntity
  8
0_Pen_No__1
  6
Continuous
100
AcDbPolyline
 90
        2
 70
   128
 43
0.0
 10
28.65118640761977
 20
153.3689735939685
 10
29.27618640762009
 20
152.6923860939686
  0
LWPOLYLINE
  5
1CC
330
1F
100
AcDbEntity
  8
0_Pen_No__1
  6
Continuous
100
AcDbPolyline
 90
        2
 70
   128
 43
0.0
 10
29.27618640762009
 20
152.6923860939686
 10
29.90118640761996
 20
153.3689735939685
  0
LWPOLYLINE
  5
1CD
330
1F
100
AcDbEntity
  8
0_Pen_No__1
  6
Continuous
100
AcDbPolyline
 90
        2
 70
   128
 43
0.0
 10
29.90118640761996
 20
153.3689735939685
 10
30.52618640761984
 20
152.6923860939686
  0
LWPOLYLINE
  5
1CE
330
1F
100
AcDbEntity
  8
0_Pen_No__1
  6
Continuous
100
AcDbPolyline
 90
        2
 70
   128
 43
0.0
 10
30.52618640761984
 20
152.6923860939686
 10
31.15118640761994
 20
153.3689735939685
  0
LWPOLYLINE
  5
1CF
330
1F
100
AcDbEntity
  8
0_Pen_No__1
  6
Continuous
100
AcDbPolyline
 90
        2
 70
   128
 43
0.0
 10
31.15118640761994
 20
153.3689735939685
 10
31.77618640762003
 20
152.6923860939686
  0
LWPOLYLINE
  5
1D0
330
1F
100
AcDbEntity
  8
0_Pen_No__1
  6
Continuous
100
AcDbPolyline
 90
        2
 70
   128
 43
0.0
 10
31.77618640762003
 20
152.6923860939686
 10
32.40118640761991
 20
153.3689735939685
  0
LWPOLYLINE
  5
1D1
330
1F
100
AcDbEntity
  8
0_Pen_No__1
  6
Continuous
100
AcDbPolyline
 90
        2
 70
   128
 43
0.0
 10
32.40118640761991
 20
153.3689735939685
 10
33.02618640761978
 20
152.6923860939686
  0
LWPOLYLINE
  5
1D2
330
1F
100
AcDbEntity
  8
0_Pen_No__1
  6
Continuous
100
AcDbPolyline
 90
        2
 70
   128
 43
0.0
 10
33.02618640761978
 20
152.6923860939686
 10
33.6511864076201
 20
153.3689735939685
  0
LWPOLYLINE
  5
1D3
330
1F
100
AcDbEntity
  8
0_Pen_No__1
  6
Continuous
100
AcDbPolyline
 90
        2
 70
   128
 43
0.0
 10
33.6511864076201
 20
153.3689735939685
 10
34.27618640761998
 20
152.6923860939686
  0
LWPOLYLINE
  5
1D4
330
1F
100
AcDbEntity
  8
0_Pen_No__1
  6
Continuous
100
AcDbPolyline
 90
        2
 70
   128
 43
0.0
 10
34.27618640761998
 20
152.6923860939686
 10
34.90118640761985
 20
153.3689735939685
  0
LWPOLYLINE
  5
1D5
330
1F
100
AcDbEntity
  8
0_Pen_No__1
  6
Continuous
100
AcDbPolyline
 90
        2
 70
   128
 43
0.0
 10
34.90118640761985
 20
153.3689735939685
 10
35.52618640761973
 20
152.6923860939686
  0
LWPOLYLINE
  5
1D6
330
1F
100
AcDbEntity
  8
0_Pen_No__1
  6
Continuous
100
AcDbPolyline
 90
        2
 70
   128
 43
0.0
 10
35.52618640761973
 20
152.6923860939686
 10
36.15118640762005
 20
153.3689735939685
  0
LWPOLYLINE
  5
1D7
330
1F
100
AcDbEntity
  8
0_Pen_No__1
  6
Continuous
100
AcDbPolyline
 90
        2
 70
   128
 43
0.0
 10
36.15118640762005
 20
153.3689735939685
 10
36.7761864076197
 20
152.6923860939686
  0
LWPOLYLINE
  5
1D8
330
1F
100
AcDbEntity
  8
0_Pen_No__1
  6
Continuous
100
AcDbPolyline
 90
        2
 70
   128
 43
0.0
 10
36.7761864076197
 20
152.6923860939686
 10
37.4011864076198
 20
153.3689735939685
  0
LWPOLYLINE
  5
1D9
330
1F
100
AcDbEntity
  8
0_Pen_No__1
  6
Continuous
100
AcDbPolyline
 90
        2
 70
   128
 43
0.0
 10
37.4011864076198
 20
153.3689735939685
 10
38.02618640762012
 20
152.6923860939686
  0
LWPOLYLINE
  5
1DA
330
1F
100
AcDbEntity
  8
0_Pen_No__1
  6
Continuous
100
AcDbPolyline
 90
        2
 70
   128
 43
0.0
 10
38.02618640762012
 20
152.6923860939686
 10
38.65118640762
 20
153.3689735939685
  0
LWPOLYLINE
  5
1DB
330
1F
100
AcDbEntity
  8
0_Pen_No__1
  6
Continuous
100
AcDbPolyline
 90
        2
 70
   128
 43
0.0
 10
38.65118640762
 20
153.3689735939685
 10
39.27618640761987
 20
152.6923860939686
  0
LWPOLYLINE
  5
1DC
330
1F
100
AcDbEntity
  8
0_Pen_No__1
  6
Continuous
100
AcDbPolyline
 90
        2
 70
   128
 43
0.0
 10
39.27618640761987
 20
152.6923860939686
 10
39.90118640761975
 20
153.3689735939685
  0
LWPOLYLINE
  5
1DD
330
1F
100
AcDbEntity
  8
0_Pen_No__1
  6
Continuous
100
AcDbPolyline
 90
        2
 70
   128
 43
0.0
 10
39.90118640761975
 20
153.3689735939685
 10
40.52618640762007
 20
152.6923860939686
  0
LWPOLYLINE
  5
1DE
330
1F
100
AcDbEntity
  8
0_Pen_No__1
  6
Continuous
100
AcDbPolyline
 90
        2
 70
   128
 43
0.0
 10
40.52618640762007
 20
152.6923860939686
 10
41.15118640761972
 20
153.3689735939685
  0
LWPOLYLINE
  5
1DF
330
1F
100
AcDbEntity
  8
0_Pen_No__1
  6
Continuous
100
AcDbPolyline
 90
        2
 70
   128
 43
0.0
 10
41.15118640761972
 20
153.3689735939685
 10
41.77618640761982
 20
152.6923860939686
  0
LWPOLYLINE
  5
1E0
330
1F
100
AcDbEntity
  8
0_Pen_No__1
  6
Continuous
100
AcDbPolyline
 90
        2
 70
   128
 43
0.0
 10
41.77618640761982
 20
152.6923860939686
 10
42.40118640762014
 20
153.3689735939685
  0
LWPOLYLINE
  5
1E1
330
1F
100
AcDbEntity
  8
0_Pen_No__1
  6
Continuous
100
AcDbPolyline
 90
        2
 70
   128
 43
0.0
 10
42.40118640762014
 20
153.3689735939685
 10
43.02618640762002
 20
152.6923860939686
  0
LWPOLYLINE
  5
1E2
330
1F
100
AcDbEntity
  8
0_Pen_No__1
  6
Continuous
100
AcDbPolyline
 90
        2
 70
   128
 43
0.0
 10
43.02618640762002
 20
152.6923860939686
 10
43.65118640761989
 20
153.3689735939685
  0
LWPOLYLINE
  5
1E3
330
1F
100
AcDbEntity
  8
0_Pen_No__1
  6
Continuous
100
AcDbPolyline
 90
        2
 70
   128
 43
0.0
 10
43.65118640761989
 20
153.3689735939685
 10
44.27618640761977
 20
152.6923860939686
  0
LWPOLYLINE
  5
1E4
330
1F
100
AcDbEntity
  8
0_Pen_No__1
  6
Continuous
100
AcDbPolyline
 90
        2
 70
   128
 43
0.0
 10
44.27618640761977
 20
152.6923860939686
 10
44.90118640762009
 20
153.3689735939685
  0
LWPOLYLINE
  5
1E5
330
1F
100
AcDbEntity
  8
0_Pen_No__1
  6
Continuous
100
AcDbPolyline
 90
        2
 70
   128
 43
0.0
 10
44.90118640762009
 20
153.3689735939685
 10
45.52618640761996
 20
152.6923860939686
  0
LWPOLYLINE
  5
1E6
330
1F
100
AcDbEntity
  8
0_Pen_No__1
  6
Continuous
100
AcDbPolyline
 90
        2
 70
   128
 43
0.0
 10
45.52618640761996
 20
152.6923860939686
 10
46.15118640761984
 20
153.3689735939685
  0
LWPOLYLINE
  5
1E7
330
1F
100
AcDbEntity
  8
0_Pen_No__1
  6
Continuous
100
AcDbPolyline
 90
        2
 70
   128
 43
0.0
 10
46.15118640761984
 20
153.3689735939685
 10
46.77618640761993
 20
152.6923860939686
  0
LWPOLYLINE
  5
1E8
330
1F
100
AcDbEntity
  8
0_Pen_No__1
  6
Continuous
100
AcDbPolyline
 90
        2
 70
   128
 43
0.0
 10
46.77618640761993
 20
152.6923860939686
 10
47.40118640762003
 20
153.3689735939685
  0
LWPOLYLINE
  5
1E9
330
1F
100
AcDbEntity
  8
0_Pen_No__1
  6
Continuous
100
AcDbPolyline
 90
        2
 70
   128
 43
0.0
 10
47.40118640762003
 20
153.3689735939685
 10
48.02618640761991
 20
152.6923860939686
  0
LWPOLYLINE
  5
1EA
330
1F
100
AcDbEntity
  8
0_Pen_No__1
  6
Continuous
100
AcDbPolyline
 90
        2
 70
   128
 43
0.0
 10
48.02618640761991
 20
152.6923860939686
 10
48.65118640761978
 20
153.3689735939685
  0
LWPOLYLINE
  5
1EB
330
1F
100
AcDbEntity
  8
0_Pen_No__1
  6
Continuous
100
AcDbPolyline
 90
        2
 70
   128
 43
0.0
 10
48.65118640761978
 20
153.3689735939685
 10
49.2761864076201
 20
152.6923860939686
  0
LWPOLYLINE
  5
1EC
330
1F
100
AcDbEntity
  8
0_Pen_No__1
  6
Continuous
100
AcDbPolyline
 90
        2
 70
   128
 43
0.0
 10
49.2761864076201
 20
152.6923860939686
 10
49.90118640761998
 20
153.3689735939685
  0
LWPOLYLINE
  5
1ED
330
1F
100
AcDbEntity
  8
0_Pen_No__1
  6
Continuous
100
AcDbPolyline
 90
        2
 70
   128
 43
0.0
 10
49.90118640761998
 20
153.3689735939685
 10
50.52618640761985
 20
152.6923860939686
  0
LWPOLYLINE
  5
1EE
330
1F
100
AcDbEntity
  8
0_Pen_No__1
  6
Continuous
100
AcDbPolyline
 90
        2
 70
   128
 43
0.0
 10
50.52618640761985
 20
152.6923860939686
 10
51.15118640761973
 20
153.3689735939685
  0
LWPOLYLINE
  5
1EF
330
1F
100
AcDbEntity
  8
0_Pen_No__1
  6
Continuous
100
AcDbPolyline
 90
        2
 70
   128
 43
0.0
 10
51.15118640761973
 20
153.3689735939685
 10
51.77618640762005
 20
152.6923860939686
  0
LWPOLYLINE
  5
1F0
330
1F
100
AcDbEntity
  8
0_Pen_No__1
  6
Continuous
100
AcDbPolyline
 90
        2
 70
   128
 43
0.0
 10
51.77618640762005
 20
152.6923860939686
 10
52.4011864076197
 20
153.3689735939685
  0
LWPOLYLINE
  5
1F1
330
1F
100
AcDbEntity
  8
0_Pen_No__1
  6
Continuous
100
AcDbPolyline
 90
        2
 70
   128
 43
0.0
 10
52.4011864076197
 20
153.3689735939685
 10
53.0261864076198
 20
152.6923860939686
  0
LWPOLYLINE
  5
1F2
330
1F
100
AcDbEntity
  8
0_Pen_No__1
  6
Continuous
100
AcDbPolyline
 90
        2
 70
   128
 43
0.0
 10
53.0261864076198
 20
152.6923860939686
 10
53.65118640762012
 20
153.3689735939685
  0
LWPOLYLINE
  5
1F3
330
1F
100
AcDbEntity
  8
0_Pen_No__1
  6
Continuous
100
AcDbPolyline
 90
        2
 70
   128
 43
0.0
 10
53.65118640762012
 20
153.3689735939685
 10
54.27618640762
 20
152.6923860939686
  0
LWPOLYLINE
  5
1F4
330
1F
100
AcDbEntity
  8
0_Pen_No__1
  6
Continuous
100
AcDbPolyline
 90
        2
 70
   128
 43
0.0
 10
54.27618640762
 20
152.6923860939686
 10
54.90118640761987
 20
153.3689735939685
  0
LWPOLYLINE
  5
1F5
330
1F
100
AcDbEntity
  8
0_Pen_No__1
  6
Continuous
100
AcDbPolyline
 90
        2
 70
   128
 43
0.0
 10
54.90118640761987
 20
153.3689735939685
 10
55.52618640761975
 20
152.6923860939686
  0
LWPOLYLINE
  5
1F6
330
1F
100
AcDbEntity
  8
0_Pen_No__1
  6
Continuous
100
AcDbPolyline
 90
        2
 70
   128
 43
0.0
 10
55.52618640761975
 20
152.6923860939686
 10
56.15118640762007
 20
153.3689735939685
  0
LWPOLYLINE
  5
1F7
330
1F
100
AcDbEntity
  8
0_Pen_No__1
  6
Continuous
100
AcDbPolyline
 90
        2
 70
   128
 43
0.0
 10
56.15118640762007
 20
153.3689735939685
 10
56.77618640761972
 20
152.6923860939686
  0
LWPOLYLINE
  5
1F8
330
1F
100
AcDbEntity
  8
0_Pen_No__1
  6
Continuous
100
AcDbPolyline
 90
        2
 70
   128
 43
0.0
 10
56.77618640761972
 20
152.6923860939686
 10
57.40118640761982
 20
153.3689735939685
  0
LWPOLYLINE
  5
1F9
330
1F
100
AcDbEntity
  8
0_Pen_No__1
  6
Continuous
100
AcDbPolyline
 90
        2
 70
   128
 43
0.0
 10
57.40118640761982
 20
153.3689735939685
 10
58.02618640762014
 20
152.6923860939686
  0
LWPOLYLINE
  5
1FA
330
1F
100
AcDbEntity
  8
0_Pen_No__1
  6
Continuous
100
AcDbPolyline
 90
        2
 70
   128
 43
0.0
 10
58.02618640762014
 20
152.6923860939686
 10
58.65118640762002
 20
153.3689735939685
  0
LWPOLYLINE
  5
1FB
330
1F
100
AcDbEntity
  8
0_Pen_No__1
  6
Continuous
100
AcDbPolyline
 90
        2
 70
   128
 43
0.0
 10
58.65118640762002
 20
153.3689735939685
 10
181.6903742381306
 20
153.3689735939685
  0
LWPOLYLINE
  5
1FC
330
1F
100
AcDbEntity
  8
0_Pen_No__1
  6
Continuous
100
AcDbPolyline
 90
        2
 70
   128
 43
0.0
 10
181.6903742381306
 20
157.9189735939686
 10
187.2703742381308
 20
157.9189735939686
  0
LWPOLYLINE
  5
1FD
330
1F
100
AcDbEntity
  8
0_Pen_No__1
  6
Continuous
100
AcDbPolyline
 90
        2
 70
   128
 43
0.0
 10
187.2703742381308
 20
157.9189735939686
 10
187.6350354112311
 20
157.8870698752941
  0
LWPOLYLINE
  5
1FE
330
1F
100
AcDbEntity
  8
0_Pen_No__1
  6
Continuous
100
AcDbPolyline
 90
        2
 70
   128
 43
0.0
 10
187.6350354112311
 20
157.8870698752941
 10
187.9886165391145
 20
157.792328097619
  0
LWPOLYLINE
  5
1FF
330
1F
100
AcDbEntity
  8
0_Pen_No__1
  6
Continuous
100
AcDbPolyline
 90
        2
 70
   128
 43
0.0
 10
187.9886165391145
 20
157.792328097619
 10
188.3203742381305
 20
157.6376269419158
  0
LWPOLYLINE
  5
200
330
1F
100
AcDbEntity
  8
0_Pen_No__1
  6
Continuous
100
AcDbPolyline
 90
        2
 70
   128
 43
0.0
 10
188.3203742381305
 20
157.6376269419158
 10
188.6202282184726
 20
157.4276669245185
  0
LWPOLYLINE
  5
201
330
1F
100
AcDbEntity
  8
0_Pen_No__1
  6
Continuous
100
AcDbPolyline
 90
        2
 70
   128
 43
0.0
 10
188.6202282184726
 20
157.4276669245185
 10
188.8790675686802
 20
157.1688275743102
  0
LWPOLYLINE
  5
202
330
1F
100
AcDbEntity
  8
0_Pen_No__1
  6
Continuous
100
AcDbPolyline
 90
        2
 70
   128
 43
0.0
 10
188.8790675686802
 20
157.1688275743102
 10
189.0890275860781
 20
156.8689735939686
  0
LWPOLYLINE
  5
203
330
1F
100
AcDbEntity
  8
0_Pen_No__1
  6
Continuous
100
AcDbPolyline
 90
        2
 70
   128
 43
0.0
 10
189.0890275860781
 20
156.8689735939686
 10
189.2437287417808
 20
156.5372158949525
  0
LWPOLYLINE
  5
204
330
1F
100
AcDbEntity
  8
0_Pen_No__1
  6
Continuous
100
AcDbPolyline
 90
        2
 70
   128
 43
0.0
 10
189.2437287417808
 20
156.5372158949525
 10
189.3384705194563
 20
156.1836347670691
  0
LWPOLYLINE
  5
205
330
1F
100
AcDbEntity
  8
0_Pen_No__1
  6
Continuous
100
AcDbPolyline
 90
        2
 70
   128
 43
0.0
 10
189.3384705194563
 20
156.1836347670691
 10
189.3703742381308
 20
155.8189735939686
  0
LWPOLYLINE
  5
206
330
1F
100
AcDbEntity
  8
0_Pen_No__1
  6
Continuous
100
AcDbPolyline
 90
        2
 70
   128
 43
0.0
 10
189.3703742381308
 20
155.8189735939686
 10
189.3703742381308
 20
147.3689735939685
  0
LWPOLYLINE
  5
207
330
1F
100
AcDbEntity
  8
0_Pen_No__1
  6
Continuous
100
AcDbPolyline
 90
        2
 70
   128
 43
0.0
 10
22.75118640761975
 20
147.3689735939685
 10
22.75118640761975
 20
152.3914931343309
  0
LWPOLYLINE
  5
208
330
1F
100
AcDbEntity
  8
0_Pen_No__1
  6
Continuous
100
AcDbPolyline
 90
        2
 70
   128
 43
0.0
 10
189.3703742381308
 20
155.6905991069217
 10
189.3703742381308
 20
147.3689735939685
  0
LWPOLYLINE
  5
209
330
1F
100
AcDbEntity
  8
0_Pen_No__1
  6
Continuous
100
AcDbPolyline
 90
        2
 70
   128
 43
0.0
 10
22.75118640761975
 20
147.3689735939685
 10
22.75118640761975
 20
152.1614059599767
  0
LWPOLYLINE
  5
20A
330
1F
100
AcDbEntity
  8
0_Pen_No__1
  6
Continuous
100
AcDbPolyline
 90
        2
 70
   128
 43
0.0
 10
189.3703742381308
 20
155.3093762396094
 10
189.3703742381308
 20
147.3689735939685
  0
LWPOLYLINE
  5
20B
330
1F
100
AcDbEntity
  8
0_Pen_No__1
  6
Continuous
100
AcDbPolyline
 90
        2
 70
   128
 43
0.0
 10
22.75118640761975
 20
147.3689735939685
 10
22.75118640761975
 20
151.7857031532692
  0
LWPOLYLINE
  5
20C
330
1F
100
AcDbEntity
  8
0_Pen_No__1
  6
Continuous
100
AcDbPolyline
 90
        2
 70
   128
 43
0.0
 10
189.3703742381308
 20
154.6868882559471
 10
189.3703742381308
 20
147.3689735939685
  0
LWPOLYLINE
  5
20D
330
1F
100
AcDbEntity
  8
0_Pen_No__1
  6
Continuous
100
AcDbPolyline
 90
        2
 70
   128
 43
0.0
 10
22.75118640761975
 20
147.3689735939685
 10
22.75118640761975
 20
151.2758002538754
  0
LWPOLYLINE
  5
20E
330
1F
100
AcDbEntity
  8
0_Pen_No__1
  6
Continuous
100
AcDbPolyline
 90
        2
 70
   128
 43
0.0
 10
189.3703742381308
 20
153.8420491383239
 10
189.3703742381308
 20
147.3689735939685
  0
LWPOLYLINE
  5
20F
330
1F
100
AcDbEntity
  8
0_Pen_No__1
  6
Continuous
100
AcDbPolyline
 90
        2
 70
   128
 43
0.0
 10
22.75118640761975
 20
147.3689735939685
 10
22.75118640761975
 20
150.6471904033699
  0
LWPOLYLINE
  5
210
330
1F
100
AcDbEntity
  8
0_Pen_No__1
  6
Continuous
100
AcDbPolyline
 90
        2
 70
   128
 43
0.0
 10
189.3703742381308
 20
152.8005288958199
 10
189.3703742381308
 20
147.3689735939685
  0
LWPOLYLINE
  5
211
330
1F
100
AcDbEntity
  8
0_Pen_No__1
  6
Continuous
100
AcDbPolyline
 90
        2
 70
   128
 43
0.0
 10
22.75118640761975
 20
147.3689735939685
 10
22.75118640761975
 20
149.9189735939686
  0
LWPOLYLINE
  5
212
330
1F
100
AcDbEntity
  8
0_Pen_No__1
  6
Continuous
100
AcDbPolyline
 90
        2
 70
   128
 43
0.0
 10
189.3703742381308
 20
151.5939735939684
 10
189.3703742381308
 20
147.3689735939685
  0
LWPOLYLINE
  5
213
330
1F
100
AcDbEntity
  8
0_Pen_No__1
  6
Continuous
100
AcDbPolyline
 90
        2
 70
   128
 43
0.0
 10
22.75118640761975
 20
147.3689735939685
 10
22.75118640761975
 20
149.1132763249294
  0
LWPOLYLINE
  5
214
330
1F
100
AcDbEntity
  8
0_Pen_No__1
  6
Continuous
100
AcDbPolyline
 90
        2
 70
   128
 43
0.0
 10
189.3703742381308
 20
150.2590438050704
 10
189.3703742381308
 20
147.3689735939685
  0
LWPOLYLINE
  5
215
330
1F
100
AcDbEntity
  8
0_Pen_No__1
  6
Continuous
100
AcDbPolyline
 90
        2
 70
   128
 43
0.0
 10
22.75118640761975
 20
147.3689735939685
 10
22.75118640761975
 20
148.2545793000696
  0
LWPOLYLINE
  5
216
330
1F
100
AcDbEntity
  8
0_Pen_No__1
  6
Continuous
100
AcDbPolyline
 90
        2
 70
   128
 43
0.0
 10
189.3703742381308
 20
148.836300695254
 10
189.3703742381308
 20
147.3689735939685
  0
LWPOLYLINE
  5
217
330
1F
100
AcDbEntity
  8
0_Pen_No__1
  6
Continuous
100
AcDbPolyline
 90
        2
 70
   128
 43
0.0
 10
22.75118640761975
 20
147.3689735939685
 10
22.75118640761975
 20
146.4833678878672
  0
LWPOLYLINE
  5
218
330
1F
100
AcDbEntity
  8
0_Pen_No__1
  6
Continuous
100
AcDbPolyline
 90
        2
 70
   128
 43
0.0
 10
189.3703742381308
 20
145.901646492683
 10
189.3703742381308
 20
147.3689735939685
  0
LWPOLYLINE
  5
219
330
1F
100
AcDbEntity
  8
0_Pen_No__1
  6
Continuous
100
AcDbPolyline
 90
        2
 70
   128
 43
0.0
 10
22.75118640761975
 20
147.3689735939685
 10
22.75118640761975
 20
145.6246708630076
  0
LWPOLYLINE
  5
21A
330
1F
100
AcDbEntity
  8
0_Pen_No__1
  6
Continuous
100
AcDbPolyline
 90
        2
 70
   128
 43
0.0
 10
189.3703742381308
 20
144.4789033828666
 10
189.3703742381308
 20
147.3689735939685
  0
LWPOLYLINE
  5
21B
330
1F
100
AcDbEntity
  8
0_Pen_No__1
  6
Continuous
100
AcDbPolyline
 90
        2
 70
   128
 43
0.0
 10
22.75118640761975
 20
147.3689735939685
 10
22.75118640761975
 20
144.8189735939687
  0
LWPOLYLINE
  5
21C
330
1F
100
AcDbEntity
  8
0_Pen_No__1
  6
Continuous
100
AcDbPolyline
 90
        2
 70
   128
 43
0.0
 10
189.3703742381308
 20
143.1439735939686
 10
189.3703742381308
 20
147.3689735939685
  0
LWPOLYLINE
  5
21D
330
1F
100
AcDbEntity
  8
0_Pen_No__1
  6
Continuous
100
AcDbPolyline
 90
        2
 70
   128
 43
0.0
 10
22.75118640761975
 20
147.3689735939685
 10
22.75118640761975
 20
144.0907567845671
  0
LWPOLYLINE
  5
21E
330
1F
100
AcDbEntity
  8
0_Pen_No__1
  6
Continuous
100
AcDbPolyline
 90
        2
 70
   128
 43
0.0
 10
189.3703742381308
 20
141.9374182921174
 10
189.3703742381308
 20
147.3689735939685
  0
LWPOLYLINE
  5
21F
330
1F
100
AcDbEntity
  8
0_Pen_No__1
  6
Continuous
100
AcDbPolyline
 90
        2
 70
   128
 43
0.0
 10
22.75118640761975
 20
147.3689735939685
 10
22.75118640761975
 20
143.4621469340618
  0
LWPOLYLINE
  5
220
330
1F
100
AcDbEntity
  8
0_Pen_No__1
  6
Continuous
100
AcDbPolyline
 90
        2
 70
   128
 43
0.0
 10
189.3703742381308
 20
140.8958980496131
 10
189.3703742381308
 20
147.3689735939685
  0
LWPOLYLINE
  5
221
330
1F
100
AcDbEntity
  8
0_Pen_No__1
  6
Continuous
100
AcDbPolyline
 90
        2
 70
   128
 43
0.0
 10
22.75118640761975
 20
147.3689735939685
 10
22.75118640761975
 20
142.952244034668
  0
LWPOLYLINE
  5
222
330
1F
100
AcDbEntity
  8
0_Pen_No__1
  6
Continuous
100
AcDbPolyline
 90
        2
 70
   128
 43
0.0
 10
189.3703742381308
 20
140.0510589319901
 10
189.3703742381308
 20
147.3689735939685
  0
LWPOLYLINE
  5
223
330
1F
100
AcDbEntity
  8
0_Pen_No__1
  6
Continuous
100
AcDbPolyline
 90
        2
 70
   128
 43
0.0
 10
22.75118640761975
 20
147.3689735939685
 10
22.75118640761975
 20
142.5765412279603
  0
LWPOLYLINE
  5
224
330
1F
100
AcDbEntity
  8
0_Pen_No__1
  6
Continuous
100
AcDbPolyline
 90
        2
 70
   128
 43
0.0
 10
189.3703742381308
 20
139.4285709483276
 10
189.3703742381308
 20
147.3689735939685
  0
LWPOLYLINE
  5
225
330
1F
100
AcDbEntity
  8
0_Pen_No__1
  6
Continuous
100
AcDbPolyline
 90
        2
 70
   128
 43
0.0
 10
22.75118640761975
 20
147.3689735939685
 10
22.75118640761975
 20
142.3464540536061
  0
LWPOLYLINE
  5
226
330
1F
100
AcDbEntity
  8
0_Pen_No__1
  6
Continuous
100
AcDbPolyline
 90
        2
 70
   128
 43
0.0
 10
189.3703742381308
 20
139.0473480810155
 10
189.3703742381308
 20
147.3689735939685
  0
LWPOLYLINE
  5
227
330
1F
100
AcDbEntity
  8
0_Pen_No__1
  6
Continuous
100
AcDbPolyline
 90
        2
 70
   128
 43
0.0
 10
181.6903742381306
 20
142.0939735939686
 10
181.6903742381306
 20
144.0435347950067
  0
LWPOLYLINE
  5
228
330
1F
100
AcDbEntity
  8
0_Pen_No__1
  6
Continuous
100
AcDbPolyline
 90
        2
 70
   128
 43
0.0
 10
181.6903742381306
 20
144.0435347950067
 10
181.6903742381306
 20
145.7579501427408
  0
LWPOLYLINE
  5
229
330
1F
100
AcDbEntity
  8
0_Pen_No__1
  6
Continuous
100
AcDbPolyline
 90
        2
 70
   128
 43
0.0
 10
181.6903742381306
 20
145.7579501427408
 10
181.6903742381306
 20
147.3689735939685
  0
LWPOLYLINE
  5
22A
330
1F
100
AcDbEntity
  8
0_Pen_No__1
  6
Continuous
100
AcDbPolyline
 90
        2
 70
   128
 43
0.0
 10
181.6903742381306
 20
147.3689735939685
 10
181.6903742381306
 20
148.9799970451964
  0
LWPOLYLINE
  5
22B
330
1F
100
AcDbEntity
  8
0_Pen_No__1
  6
Continuous
100
AcDbPolyline
 90
        2
 70
   128
 43
0.0
 10
181.6903742381306
 20
148.9799970451964
 10
181.6903742381306
 20
150.6944123929304
  0
LWPOLYLINE
  5
22C
330
1F
100
AcDbEntity
  8
0_Pen_No__1
  6
Continuous
100
AcDbPolyline
 90
        2
 70
   128
 43
0.0
 10
181.6903742381306
 20
150.6944123929304
 10
181.6903742381306
 20
152.6439735939686
  0
LWPOLYLINE
  5
22D
330
1F
100
AcDbEntity
  8
0_Pen_No__1
  6
Continuous
100
AcDbPolyline
 90
        2
 70
   128
 43
0.0
 10
187.2703742381308
 20
142.0939735939686
 10
181.6903742381306
 20
142.0939735939686
  0
LWPOLYLINE
  5
22E
330
1F
100
AcDbEntity
  8
0_Pen_No__1
  6
Continuous
100
AcDbPolyline
 90
        2
 70
   128
 43
0.0
 10
181.6903742381306
 20
152.6439735939686
 10
187.2703742381308
 20
152.6439735939686
  0
LWPOLYLINE
  5
22F
330
1F
100
AcDbEntity
  8
0_Pen_No__1
  6
Continuous
100
AcDbPolyline
 90
        2
 70
   128
 43
0.0
 10
187.6350354112311
 20
142.1691769589673
 10
187.2703742381308
 20
142.0939735939686
  0
LWPOLYLINE
  5
230
330
1F
100
AcDbEntity
  8
0_Pen_No__1
  6
Continuous
100
AcDbPolyline
 90
        2
 70
   128
 43
0.0
 10
187.2703742381308
 20
152.6439735939686
 10
187.6350354112311
 20
152.5687702289695
  0
LWPOLYLINE
  5
231
330
1F
100
AcDbEntity
  8
0_Pen_No__1
  6
Continuous
100
AcDbPolyline
 90
        2
 70
   128
 43
0.0
 10
187.9886165391145
 20
142.3925020377728
 10
187.6350354112311
 20
142.1691769589673
  0
LWPOLYLINE
  5
232
330
1F
100
AcDbEntity
  8
0_Pen_No__1
  6
Continuous
100
AcDbPolyline
 90
        2
 70
   128
 43
0.0
 10
187.6350354112311
 20
152.5687702289695
 10
187.9886165391145
 20
152.3454451501645
  0
LWPOLYLINE
  5
233
330
1F
100
AcDbEntity
  8
0_Pen_No__1
  6
Continuous
100
AcDbPolyline
 90
        2
 70
   128
 43
0.0
 10
188.3203742381305
 20
142.7571632108733
 10
187.9886165391145
 20
142.3925020377728
  0
LWPOLYLINE
  5
234
330
1F
100
AcDbEntity
  8
0_Pen_No__1
  6
Continuous
100
AcDbPolyline
 90
        2
 70
   128
 43
0.0
 10
187.9886165391145
 20
152.3454451501645
 10
188.3203742381305
 20
151.9807839770639
  0
LWPOLYLINE
  5
235
330
1F
100
AcDbEntity
  8
0_Pen_No__1
  6
Continuous
100
AcDbPolyline
 90
        2
 70
   128
 43
0.0
 10
188.6202282184726
 20
143.2520804330517
 10
188.3203742381305
 20
142.7571632108733
  0
LWPOLYLINE
  5
236
330
1F
100
AcDbEntity
  8
0_Pen_No__1
  6
Continuous
100
AcDbPolyline
 90
        2
 70
   128
 43
0.0
 10
188.3203742381305
 20
151.9807839770639
 10
188.6202282184726
 20
151.4858667548853
  0
LWPOLYLINE
  5
237
330
1F
100
AcDbEntity
  8
0_Pen_No__1
  6
Continuous
100
AcDbPolyline
 90
        2
 70
   128
 43
0.0
 10
188.8790675686802
 20
143.8622158949523
 10
188.6202282184726
 20
143.2520804330517
  0
LWPOLYLINE
  5
238
330
1F
100
AcDbEntity
  8
0_Pen_No__1
  6
Continuous
100
AcDbPolyline
 90
        2
 70
   128
 43
0.0
 10
188.6202282184726
 20
151.4858667548853
 10
188.8790675686802
 20
150.8757312929847
  0
LWPOLYLINE
  5
239
330
1F
100
AcDbEntity
  8
0_Pen_No__1
  6
Continuous
100
AcDbPolyline
 90
        2
 70
   128
 43
0.0
 10
188.9329285040324
 20
144.0435347950067
 10
188.8790675686802
 20
143.8622158949523
  0
LWPOLYLINE
  5
23A
330
1F
100
AcDbEntity
  8
0_Pen_No__1
  6
Continuous
100
AcDbPolyline
 90
        2
 70
   128
 43
0.0
 10
189.0890275860781
 20
144.9016025116561
 10
188.9329285040324
 20
144.0435347950067
  0
LWPOLYLINE
  5
23B
330
1F
100
AcDbEntity
  8
0_Pen_No__1
  6
Continuous
100
AcDbPolyline
 90
        2
 70
   128
 43
0.0
 10
188.9329285040324
 20
150.6944123929304
 10
189.0890275860781
 20
149.8363446762812
  0
LWPOLYLINE
  5
23C
330
1F
100
AcDbEntity
  8
0_Pen_No__1
  6
Continuous
100
AcDbPolyline
 90
        2
 70
   128
 43
0.0
 10
188.8790675686802
 20
150.8757312929847
 10
188.9329285040324
 20
150.6944123929304
  0
LWPOLYLINE
  5
23D
330
1F
100
AcDbEntity
  8
0_Pen_No__1
  6
Continuous
100
AcDbPolyline
 90
        2
 70
   128
 43
0.0
 10
189.1927743724791
 20
145.7579501427408
 10
189.0890275860781
 20
144.9016025116561
  0
LWPOLYLINE
  5
23E
330
1F
100
AcDbEntity
  8
0_Pen_No__1
  6
Continuous
100
AcDbPolyline
 90
        2
 70
   128
 43
0.0
 10
189.2437287417808
 20
147.0069347905219
 10
189.1927743724791
 20
145.7579501427408
  0
LWPOLYLINE
  5
23F
330
1F
100
AcDbEntity
  8
0_Pen_No__1
  6
Continuous
100
AcDbPolyline
 90
        2
 70
   128
 43
0.0
 10
189.1927743724791
 20
148.9799970451964
 10
189.2437287417808
 20
147.7310123974152
  0
LWPOLYLINE
  5
240
330
1F
100
AcDbEntity
  8
0_Pen_No__1
  6
Continuous
100
AcDbPolyline
 90
        2
 70
   128
 43
0.0
 10
189.0890275860781
 20
149.8363446762812
 10
189.1927743724791
 20
148.9799970451964
  0
LWPOLYLINE
  5
241
330
1F
100
AcDbEntity
  8
0_Pen_No__1
  6
Continuous
100
AcDbPolyline
 90
        2
 70
   128
 43
0.0
 10
189.252215842491
 20
147.3689735939685
 10
189.2437287417808
 20
147.0069347905219
  0
LWPOLYLINE
  5
242
330
1F
100
AcDbEntity
  8
0_Pen_No__1
  6
Continuous
100
AcDbPolyline
 90
        2
 70
   128
 43
0.0
 10
189.2437287417808
 20
147.7310123974152
 10
189.252215842491
 20
147.3689735939685
  0
LWPOLYLINE
  5
243
330
1F
100
AcDbEntity
  8
0_Pen_No__1
  6
Continuous
100
AcDbPolyline
 90
        2
 70
   128
 43
0.0
 10
181.6903742381306
 20
152.6439735939686
 10
181.6903742381306
 20
153.6187541944878
  0
LWPOLYLINE
  5
244
330
1F
100
AcDbEntity
  8
0_Pen_No__1
  6
Continuous
100
AcDbPolyline
 90
        2
 70
   128
 43
0.0
 10
181.6903742381306
 20
153.6187541944878
 10
181.6903742381306
 20
154.4759618683547
  0
LWPOLYLINE
  5
245
330
1F
100
AcDbEntity
  8
0_Pen_No__1
  6
Continuous
100
AcDbPolyline
 90
        2
 70
   128
 43
0.0
 10
181.6903742381306
 20
154.4759618683547
 10
181.6903742381306
 20
155.2814735939685
  0
LWPOLYLINE
  5
246
330
1F
100
AcDbEntity
  8
0_Pen_No__1
  6
Continuous
100
AcDbPolyline
 90
        2
 70
   128
 43
0.0
 10
181.6903742381306
 20
155.2814735939685
 10
181.6903742381306
 20
156.0869853195821
  0
LWPOLYLINE
  5
247
330
1F
100
AcDbEntity
  8
0_Pen_No__1
  6
Continuous
100
AcDbPolyline
 90
        2
 70
   128
 43
0.0
 10
181.6903742381306
 20
156.0869853195821
 10
181.6903742381306
 20
156.9441929934494
  0
LWPOLYLINE
  5
248
330
1F
100
AcDbEntity
  8
0_Pen_No__1
  6
Continuous
100
AcDbPolyline
 90
        2
 70
   128
 43
0.0
 10
181.6903742381306
 20
156.9441929934494
 10
181.6903742381306
 20
157.9189735939686
  0
LWPOLYLINE
  5
249
330
1F
100
AcDbEntity
  8
0_Pen_No__1
  6
Continuous
100
AcDbPolyline
 90
        2
 70
   128
 43
0.0
 10
187.2703742381308
 20
152.6439735939686
 10
181.6903742381306
 20
152.6439735939686
  0
LWPOLYLINE
  5
24A
330
1F
100
AcDbEntity
  8
0_Pen_No__1
  6
Continuous
100
AcDbPolyline
 90
        2
 70
   128
 43
0.0
 10
181.6903742381306
 20
157.9189735939686
 10
187.2703742381308
 20
157.9189735939686
  0
LWPOLYLINE
  5
24B
330
1F
100
AcDbEntity
  8
0_Pen_No__1
  6
Continuous
100
AcDbPolyline
 90
        2
 70
   128
 43
0.0
 10
187.6350354112311
 20
152.6815752764676
 10
187.2703742381308
 20
152.6439735939686
  0
LWPOLYLINE
  5
24C
330
1F
100
AcDbEntity
  8
0_Pen_No__1
  6
Continuous
100
AcDbPolyline
 90
        2
 70
   128
 43
0.0
 10
187.2703742381308
 20
157.9189735939686
 10
187.6350354112311
 20
157.8813719114691
  0
LWPOLYLINE
  5
24D
330
1F
100
AcDbEntity
  8
0_Pen_No__1
  6
Continuous
100
AcDbPolyline
 90
        2
 70
   128
 43
0.0
 10
187.9886165391145
 20
152.7932378158707
 10
187.6350354112311
 20
152.6815752764676
  0
LWPOLYLINE
  5
24E
330
1F
100
AcDbEntity
  8
0_Pen_No__1
  6
Continuous
100
AcDbPolyline
 90
        2
 70
   128
 43
0.0
 10
187.6350354112311
 20
157.8813719114691
 10
187.9886165391145
 20
157.7697093720665
  0
LWPOLYLINE
  5
24F
330
1F
100
AcDbEntity
  8
0_Pen_No__1
  6
Continuous
100
AcDbPolyline
 90
        2
 70
   128
 43
0.0
 10
188.3203742381305
 20
152.975568402421
 10
187.9886165391145
 20
152.7932378158707
  0
LWPOLYLINE
  5
250
330
1F
100
AcDbEntity
  8
0_Pen_No__1
  6
Continuous
100
AcDbPolyline
 90
        2
 70
   128
 43
0.0
 10
187.9886165391145
 20
157.7697093720665
 10
188.3203742381305
 20
157.5873787855162
  0
LWPOLYLINE
  5
251
330
1F
100
AcDbEntity
  8
0_Pen_No__1
  6
Continuous
100
AcDbPolyline
 90
        2
 70
   128
 43
0.0
 10
188.6202282184726
 20
153.2230270135102
 10
188.3203742381305
 20
152.975568402421
  0
LWPOLYLINE
  5
252
330
1F
100
AcDbEntity
  8
0_Pen_No__1
  6
Continuous
100
AcDbPolyline
 90
        2
 70
   128
 43
0.0
 10
188.3203742381305
 20
157.5873787855162
 10
188.6202282184726
 20
157.339920174427
  0
LWPOLYLINE
  5
253
330
1F
100
AcDbEntity
  8
0_Pen_No__1
  6
Continuous
100
AcDbPolyline
 90
        2
 70
   128
 43
0.0
 10
188.8790675686802
 20
153.5280947444604
 10
188.6202282184726
 20
153.2230270135102
  0
LWPOLYLINE
  5
254
330
1F
100
AcDbEntity
  8
0_Pen_No__1
  6
Continuous
100
AcDbPolyline
 90
        2
 70
   128
 43
0.0
 10
188.6202282184726
 20
157.339920174427
 10
188.8790675686802
 20
157.0348524434766
  0
LWPOLYLINE
  5
255
330
1F
100
AcDbEntity
  8
0_Pen_No__1
  6
Continuous
100
AcDbPolyline
 90
        2
 70
   128
 43
0.0
 10
188.9329285040324
 20
153.6187541944878
 10
188.8790675686802
 20
153.5280947444604
  0
LWPOLYLINE
  5
256
330
1F
100
AcDbEntity
  8
0_Pen_No__1
  6
Continuous
100
AcDbPolyline
 90
        2
 70
   128
 43
0.0
 10
189.0890275860781
 20
154.0477880528124
 10
188.9329285040324
 20
153.6187541944878
  0
LWPOLYLINE
  5
257
330
1F
100
AcDbEntity
  8
0_Pen_No__1
  6
Continuous
100
AcDbPolyline
 90
        2
 70
   128
 43
0.0
 10
188.9329285040324
 20
156.9441929934494
 10
189.0890275860781
 20
156.5151591351248
  0
LWPOLYLINE
  5
258
330
1F
100
AcDbEntity
  8
0_Pen_No__1
  6
Continuous
100
AcDbPolyline
 90
        2
 70
   128
 43
0.0
 10
188.8790675686802
 20
157.0348524434766
 10
188.9329285040324
 20
156.9441929934494
  0
LWPOLYLINE
  5
259
330
1F
100
AcDbEntity
  8
0_Pen_No__1
  6
Continuous
100
AcDbPolyline
 90
        2
 70
   128
 43
0.0
 10
189.1927743724791
 20
154.4759618683547
 10
189.0890275860781
 20
154.0477880528124
  0
LWPOLYLINE
  5
25A
330
1F
100
AcDbEntity
  8
0_Pen_No__1
  6
Continuous
100
AcDbPolyline
 90
        2
 70
   128
 43
0.0
 10
189.2437287417808
 20
155.1004541922452
 10
189.1927743724791
 20
154.4759618683547
  0
LWPOLYLINE
  5
25B
330
1F
100
AcDbEntity
  8
0_Pen_No__1
  6
Continuous
100
AcDbPolyline
 90
        2
 70
   128
 43
0.0
 10
189.1927743724791
 20
156.0869853195821
 10
189.2437287417808
 20
155.4624929956918
  0
LWPOLYLINE
  5
25C
330
1F
100
AcDbEntity
  8
0_Pen_No__1
  6
Continuous
100
AcDbPolyline
 90
        2
 70
   128
 43
0.0
 10
189.0890275860781
 20
156.5151591351248
 10
189.1927743724791
 20
156.0869853195821
  0
LWPOLYLINE
  5
25D
330
1F
100
AcDbEntity
  8
0_Pen_No__1
  6
Continuous
100
AcDbPolyline
 90
        2
 70
   128
 43
0.0
 10
189.252215842491
 20
155.2814735939685
 10
189.2437287417808
 20
155.1004541922452
  0
LWPOLYLINE
  5
25E
330
1F
100
AcDbEntity
  8
0_Pen_No__1
  6
Continuous
100
AcDbPolyline
 90
        2
 70
   128
 43
0.0
 10
189.2437287417808
 20
155.4624929956918
 10
189.252215842491
 20
155.2814735939685
  0
LWPOLYLINE
  5
25F
330
1F
100
AcDbEntity
  8
0_Pen_No__1
  6
Continuous
100
AcDbPolyline
 90
        2
 70
   128
 43
0.0
 10
181.6903742381306
 20
136.8189735939686
 10
181.6903742381306
 20
137.7937541944873
  0
LWPOLYLINE
  5
260
330
1F
100
AcDbEntity
  8
0_Pen_No__1
  6
Continuous
100
AcDbPolyline
 90
        2
 70
   128
 43
0.0
 10
181.6903742381306
 20
137.7937541944873
 10
181.6903742381306
 20
138.6509618683547
  0
LWPOLYLINE
  5
261
330
1F
100
AcDbEntity
  8
0_Pen_No__1
  6
Continuous
100
AcDbPolyline
 90
        2
 70
   128
 43
0.0
 10
181.6903742381306
 20
138.6509618683547
 10
181.6903742381306
 20
139.4564735939683
  0
LWPOLYLINE
  5
262
330
1F
100
AcDbEntity
  8
0_Pen_No__1
  6
Continuous
100
AcDbPolyline
 90
        2
 70
   128
 43
0.0
 10
181.6903742381306
 20
139.4564735939683
 10
181.6903742381306
 20
140.2619853195824
  0
LWPOLYLINE
  5
263
330
1F
100
AcDbEntity
  8
0_Pen_No__1
  6
Continuous
100
AcDbPolyline
 90
        2
 70
   128
 43
0.0
 10
181.6903742381306
 20
140.2619853195824
 10
181.6903742381306
 20
141.1191929934492
  0
LWPOLYLINE
  5
264
330
1F
100
AcDbEntity
  8
0_Pen_No__1
  6
Continuous
100
AcDbPolyline
 90
        2
 70
   128
 43
0.0
 10
181.6903742381306
 20
141.1191929934492
 10
181.6903742381306
 20
142.0939735939686
  0
LWPOLYLINE
  5
265
330
1F
100
AcDbEntity
  8
0_Pen_No__1
  6
Continuous
100
AcDbPolyline
 90
        2
 70
   128
 43
0.0
 10
187.2703742381308
 20
136.8189735939686
 10
181.6903742381306
 20
136.8189735939686
  0
LWPOLYLINE
  5
266
330
1F
100
AcDbEntity
  8
0_Pen_No__1
  6
Continuous
100
AcDbPolyline
 90
        2
 70
   128
 43
0.0
 10
181.6903742381306
 20
142.0939735939686
 10
187.2703742381308
 20
142.0939735939686
  0
LWPOLYLINE
  5
267
330
1F
100
AcDbEntity
  8
0_Pen_No__1
  6
Continuous
100
AcDbPolyline
 90
        2
 70
   128
 43
0.0
 10
187.6350354112311
 20
136.8565752764679
 10
187.2703742381308
 20
136.8189735939686
  0
LWPOLYLINE
  5
268
330
1F
100
AcDbEntity
  8
0_Pen_No__1
  6
Continuous
100
AcDbPolyline
 90
        2
 70
   128
 43
0.0
 10
187.2703742381308
 20
142.0939735939686
 10
187.6350354112311
 20
142.0563719114691
  0
LWPOLYLINE
  5
269
330
1F
100
AcDbEntity
  8
0_Pen_No__1
  6
Continuous
100
AcDbPolyline
 90
        2
 70
   128
 43
0.0
 10
187.9886165391145
 20
136.9682378158705
 10
187.6350354112311
 20
136.8565752764679
  0
LWPOLYLINE
  5
26A
330
1F
100
AcDbEntity
  8
0_Pen_No__1
  6
Continuous
100
AcDbPolyline
 90
        2
 70
   128
 43
0.0
 10
187.6350354112311
 20
142.0563719114691
 10
187.9886165391145
 20
141.9447093720663
  0
LWPOLYLINE
  5
26B
330
1F
100
AcDbEntity
  8
0_Pen_No__1
  6
Continuous
100
AcDbPolyline
 90
        2
 70
   128
 43
0.0
 10
188.3203742381305
 20
137.1505684024208
 10
187.9886165391145
 20
136.9682378158705
  0
LWPOLYLINE
  5
26C
330
1F
100
AcDbEntity
  8
0_Pen_No__1
  6
Continuous
100
AcDbPolyline
 90
        2
 70
   128
 43
0.0
 10
187.9886165391145
 20
141.9447093720663
 10
188.3203742381305
 20
141.7623787855162
  0
LWPOLYLINE
  5
26D
330
1F
100
AcDbEntity
  8
0_Pen_No__1
  6
Continuous
100
AcDbPolyline
 90
        2
 70
   128
 43
0.0
 10
188.6202282184726
 20
137.3980270135102
 10
188.3203742381305
 20
137.1505684024208
  0
LWPOLYLINE
  5
26E
330
1F
100
AcDbEntity
  8
0_Pen_No__1
  6
Continuous
100
AcDbPolyline
 90
        2
 70
   128
 43
0.0
 10
188.3203742381305
 20
141.7623787855162
 10
188.6202282184726
 20
141.514920174427
  0
LWPOLYLINE
  5
26F
330
1F
100
AcDbEntity
  8
0_Pen_No__1
  6
Continuous
100
AcDbPolyline
 90
        2
 70
   128
 43
0.0
 10
188.8790675686802
 20
137.7030947444606
 10
188.6202282184726
 20
137.3980270135102
  0
LWPOLYLINE
  5
270
330
1F
100
AcDbEntity
  8
0_Pen_No__1
  6
Continuous
100
AcDbPolyline
 90
        2
 70
   128
 43
0.0
 10
188.6202282184726
 20
141.514920174427
 10
188.8790675686802
 20
141.2098524434766
  0
LWPOLYLINE
  5
271
330
1F
100
AcDbEntity
  8
0_Pen_No__1
  6
Continuous
100
AcDbPolyline
 90
        2
 70
   128
 43
0.0
 10
188.9329285040324
 20
137.7937541944873
 10
188.8790675686802
 20
137.7030947444606
  0
LWPOLYLINE
  5
272
330
1F
100
AcDbEntity
  8
0_Pen_No__1
  6
Continuous
100
AcDbPolyline
 90
        2
 70
   128
 43
0.0
 10
189.0890275860781
 20
138.2227880528122
 10
188.9329285040324
 20
137.7937541944873
  0
LWPOLYLINE
  5
273
330
1F
100
AcDbEntity
  8
0_Pen_No__1
  6
Continuous
100
AcDbPolyline
 90
        2
 70
   128
 43
0.0
 10
188.9329285040324
 20
141.1191929934492
 10
189.0890275860781
 20
140.6901591351246
  0
LWPOLYLINE
  5
274
330
1F
100
AcDbEntity
  8
0_Pen_No__1
  6
Continuous
100
AcDbPolyline
 90
        2
 70
   128
 43
0.0
 10
188.8790675686802
 20
141.2098524434766
 10
188.9329285040324
 20
141.1191929934492
  0
LWPOLYLINE
  5
275
330
1F
100
AcDbEntity
  8
0_Pen_No__1
  6
Continuous
100
AcDbPolyline
 90
        2
 70
   128
 43
0.0
 10
189.1927743724791
 20
138.6509618683547
 10
189.0890275860781
 20
138.2227880528122
  0
LWPOLYLINE
  5
276
330
1F
100
AcDbEntity
  8
0_Pen_No__1
  6
Continuous
100
AcDbPolyline
 90
        2
 70
   128
 43
0.0
 10
189.2437287417808
 20
139.2754541922452
 10
189.1927743724791
 20
138.6509618683547
  0
LWPOLYLINE
  5
277
330
1F
100
AcDbEntity
  8
0_Pen_No__1
  6
Continuous
100
AcDbPolyline
 90
        2
 70
   128
 43
0.0
 10
189.1927743724791
 20
140.2619853195824
 10
189.2437287417808
 20
139.6374929956918
  0
LWPOLYLINE
  5
278
330
1F
100
AcDbEntity
  8
0_Pen_No__1
  6
Continuous
100
AcDbPolyline
 90
        2
 70
   128
 43
0.0
 10
189.0890275860781
 20
140.6901591351246
 10
189.1927743724791
 20
140.2619853195824
  0
LWPOLYLINE
  5
279
330
1F
100
AcDbEntity
  8
0_Pen_No__1
  6
Continuous
100
AcDbPolyline
 90
        2
 70
   128
 43
0.0
 10
189.252215842491
 20
139.4564735939683
 10
189.2437287417808
 20
139.2754541922452
  0
LWPOLYLINE
  5
27A
330
1F
100
AcDbEntity
  8
0_Pen_No__1
  6
Continuous
100
AcDbPolyline
 90
        2
 70
   128
 43
0.0
 10
189.2437287417808
 20
139.6374929956918
 10
189.252215842491
 20
139.4564735939683
  0
LWPOLYLINE
  5
27C
330
1F
100
AcDbEntity
  8
0_Pen_No__1
  6
Dot & Dashed
100
AcDbPolyline
 90
        2
 70
   128
 43
0.0
 10
214.3703742381307
 20
147.3689735939685
 10
-2.248813592380383
 20
147.3689735939685
  0
LWPOLYLINE
  5
27D
330
1F
100
AcDbEntity
  8
0_Pen_No__1
  6
Continuous
100
AcDbPolyline
 90
        2
 70
   128
 43
0.0
 10
32.53547633495679
 20
156.0037405095433
 10
32.53547633495679
 20
155.8753660224965
  0
LWPOLYLINE
  5
27E
330
1F
100
AcDbEntity
  8
0_Pen_No__1
  6
Continuous
100
AcDbPolyline
 90
        2
 70
   128
 43
0.0
 10
32.53547633495679
 20
155.8753660224965
 10
32.53547633495679
 20
155.494143155184
  0
LWPOLYLINE
  5
27F
330
1F
100
AcDbEntity
  8
0_Pen_No__1
  6
Continuous
100
AcDbPolyline
 90
        2
 70
   128
 43
0.0
 10
32.53547633495679
 20
155.494143155184
 10
32.53547633495679
 20
154.8716551715217
  0
LWPOLYLINE
  5
280
330
1F
100
AcDbEntity
  8
0_Pen_No__1
  6
Continuous
100
AcDbPolyline
 90
        2
 70
   128
 43
0.0
 10
32.53547633495679
 20
154.8716551715217
 10
32.53547633495679
 20
154.0268160538984
  0
LWPOLYLINE
  5
281
330
1F
100
AcDbEntity
  8
0_Pen_No__1
  6
Continuous
100
AcDbPolyline
 90
        2
 70
   128
 43
0.0
 10
32.53547633495679
 20
154.0268160538984
 10
32.53547633495679
 20
152.9852958113944
  0
LWPOLYLINE
  5
282
330
1F
100
AcDbEntity
  8
0_Pen_No__1
  6
Continuous
100
AcDbPolyline
 90
        2
 70
   128
 43
0.0
 10
32.53547633495679
 20
152.9852958113944
 10
32.53547633495679
 20
151.778740509543
  0
LWPOLYLINE
  5
283
330
1F
100
AcDbEntity
  8
0_Pen_No__1
  6
Continuous
100
AcDbPolyline
 90
        2
 70
   128
 43
0.0
 10
32.53547633495679
 20
151.778740509543
 10
32.53547633495679
 20
150.4438107206452
  0
LWPOLYLINE
  5
284
330
1F
100
AcDbEntity
  8
0_Pen_No__1
  6
Continuous
100
AcDbPolyline
 90
        2
 70
   128
 43
0.0
 10
32.53547633495679
 20
150.4438107206452
 10
32.53547633495679
 20
149.0210676108286
  0
LWPOLYLINE
  5
285
330
1F
100
AcDbEntity
  8
0_Pen_No__1
  6
Continuous
100
AcDbPolyline
 90
        2
 70
   128
 43
0.0
 10
32.53547633495679
 20
149.0210676108286
 10
32.53547633495679
 20
147.5537405095431
  0
LWPOLYLINE
  5
286
330
1F
100
AcDbEntity
  8
0_Pen_No__1
  6
Continuous
100
AcDbPolyline
 90
        2
 70
   128
 43
0.0
 10
32.53547633495679
 20
147.5537405095431
 10
32.53547633495679
 20
146.0864134082576
  0
LWPOLYLINE
  5
287
330
1F
100
AcDbEntity
  8
0_Pen_No__1
  6
Continuous
100
AcDbPolyline
 90
        2
 70
   128
 43
0.0
 10
32.53547633495679
 20
146.0864134082576
 10
32.53547633495679
 20
144.6636702984414
  0
LWPOLYLINE
  5
288
330
1F
100
AcDbEntity
  8
0_Pen_No__1
  6
Continuous
100
AcDbPolyline
 90
        2
 70
   128
 43
0.0
 10
32.53547633495679
 20
144.6636702984414
 10
32.53547633495679
 20
143.3287405095431
  0
LWPOLYLINE
  5
289
330
1F
100
AcDbEntity
  8
0_Pen_No__1
  6
Continuous
100
AcDbPolyline
 90
        2
 70
   128
 43
0.0
 10
32.53547633495679
 20
143.3287405095431
 10
32.53547633495679
 20
142.1221852076922
  0
LWPOLYLINE
  5
28A
330
1F
100
AcDbEntity
  8
0_Pen_No__1
  6
Continuous
100
AcDbPolyline
 90
        2
 70
   128
 43
0.0
 10
32.53547633495679
 20
142.1221852076922
 10
32.53547633495679
 20
141.0806649651877
  0
LWPOLYLINE
  5
28B
330
1F
100
AcDbEntity
  8
0_Pen_No__1
  6
Continuous
100
AcDbPolyline
 90
        2
 70
   128
 43
0.0
 10
32.53547633495679
 20
141.0806649651877
 10
32.53547633495679
 20
140.2358258475649
  0
LWPOLYLINE
  5
28C
330
1F
100
AcDbEntity
  8
0_Pen_No__1
  6
Continuous
100
AcDbPolyline
 90
        2
 70
   128
 43
0.0
 10
32.53547633495679
 20
140.2358258475649
 10
32.53547633495679
 20
139.6133378639022
  0
LWPOLYLINE
  5
28D
330
1F
100
AcDbEntity
  8
0_Pen_No__1
  6
Continuous
100
AcDbPolyline
 90
        2
 70
   128
 43
0.0
 10
32.53547633495679
 20
139.6133378639022
 10
32.53547633495679
 20
139.23211499659
  0
LWPOLYLINE
  5
28E
330
1F
100
AcDbEntity
  8
0_Pen_No__1
  6
Continuous
100
AcDbPolyline
 90
        2
 70
   128
 43
0.0
 10
32.53547633495679
 20
139.23211499659
 10
32.53547633495679
 20
139.1037405095432
  0
LWPOLYLINE
  5
28F
330
1F
100
AcDbEntity
  8
0_Pen_No__1
  6
Continuous
100
AcDbPolyline
 90
        2
 70
   128
 43
0.0
 10
32.53547633495679
 20
139.1037405095432
 10
32.53547633495679
 20
139.23211499659
  0
LWPOLYLINE
  5
290
330
1F
100
AcDbEntity
  8
0_Pen_No__1
  6
Continuous
100
AcDbPolyline
 90
        2
 70
   128
 43
0.0
 10
32.53547633495679
 20
139.23211499659
 10
32.53547633495679
 20
139.6133378639022
  0
LWPOLYLINE
  5
291
330
1F
100
AcDbEntity
  8
0_Pen_No__1
  6
Continuous
100
AcDbPolyline
 90
        2
 70
   128
 43
0.0
 10
32.53547633495679
 20
139.6133378639022
 10
32.53547633495679
 20
140.2358258475649
  0
LWPOLYLINE
  5
292
330
1F
100
AcDbEntity
  8
0_Pen_No__1
  6
Continuous
100
AcDbPolyline
 90
        2
 70
   128
 43
0.0
 10
32.53547633495679
 20
140.2358258475649
 10
32.53547633495679
 20
141.0806649651877
  0
LWPOLYLINE
  5
293
330
1F
100
AcDbEntity
  8
0_Pen_No__1
  6
Continuous
100
AcDbPolyline
 90
        2
 70
   128
 43
0.0
 10
32.53547633495679
 20
141.0806649651877
 10
32.53547633495679
 20
142.1221852076922
  0
LWPOLYLINE
  5
294
330
1F
100
AcDbEntity
  8
0_Pen_No__1
  6
Continuous
100
AcDbPolyline
 90
        2
 70
   128
 43
0.0
 10
32.53547633495679
 20
142.1221852076922
 10
32.53547633495679
 20
143.3287405095431
  0
LWPOLYLINE
  5
295
330
1F
100
AcDbEntity
  8
0_Pen_No__1
  6
Continuous
100
AcDbPolyline
 90
        2
 70
   128
 43
0.0
 10
32.53547633495679
 20
143.3287405095431
 10
32.53547633495679
 20
144.6636702984414
  0
LWPOLYLINE
  5
296
330
1F
100
AcDbEntity
  8
0_Pen_No__1
  6
Continuous
100
AcDbPolyline
 90
        2
 70
   128
 43
0.0
 10
32.53547633495679
 20
144.6636702984414
 10
32.53547633495679
 20
146.0864134082576
  0
LWPOLYLINE
  5
297
330
1F
100
AcDbEntity
  8
0_Pen_No__1
  6
Continuous
100
AcDbPolyline
 90
        2
 70
   128
 43
0.0
 10
32.53547633495679
 20
146.0864134082576
 10
32.53547633495679
 20
147.5537405095431
  0
LWPOLYLINE
  5
298
330
1F
100
AcDbEntity
  8
0_Pen_No__1
  6
Continuous
100
AcDbPolyline
 90
        2
 70
   128
 43
0.0
 10
32.53547633495679
 20
147.5537405095431
 10
32.53547633495679
 20
149.0210676108286
  0
LWPOLYLINE
  5
299
330
1F
100
AcDbEntity
  8
0_Pen_No__1
  6
Continuous
100
AcDbPolyline
 90
        2
 70
   128
 43
0.0
 10
32.53547633495679
 20
149.0210676108286
 10
32.53547633495679
 20
150.4438107206452
  0
LWPOLYLINE
  5
29A
330
1F
100
AcDbEntity
  8
0_Pen_No__1
  6
Continuous
100
AcDbPolyline
 90
        2
 70
   128
 43
0.0
 10
32.53547633495679
 20
150.4438107206452
 10
32.53547633495679
 20
151.778740509543
  0
LWPOLYLINE
  5
29B
330
1F
100
AcDbEntity
  8
0_Pen_No__1
  6
Continuous
100
AcDbPolyline
 90
        2
 70
   128
 43
0.0
 10
32.53547633495679
 20
151.778740509543
 10
32.53547633495679
 20
152.9852958113944
  0
LWPOLYLINE
  5
29C
330
1F
100
AcDbEntity
  8
0_Pen_No__1
  6
Continuous
100
AcDbPolyline
 90
        2
 70
   128
 43
0.0
 10
32.53547633495679
 20
152.9852958113944
 10
32.53547633495679
 20
154.0268160538984
  0
LWPOLYLINE
  5
29D
330
1F
100
AcDbEntity
  8
0_Pen_No__1
  6
Continuous
100
AcDbPolyline
 90
        2
 70
   128
 43
0.0
 10
32.53547633495679
 20
154.0268160538984
 10
32.53547633495679
 20
154.8716551715217
  0
LWPOLYLINE
  5
29E
330
1F
100
AcDbEntity
  8
0_Pen_No__1
  6
Continuous
100
AcDbPolyline
 90
        2
 70
   128
 43
0.0
 10
32.53547633495679
 20
154.8716551715217
 10
32.53547633495679
 20
155.494143155184
  0
LWPOLYLINE
  5
29F
330
1F
100
AcDbEntity
  8
0_Pen_No__1
  6
Continuous
100
AcDbPolyline
 90
        2
 70
   128
 43
0.0
 10
32.53547633495679
 20
155.494143155184
 10
32.53547633495679
 20
155.8753660224965
  0
LWPOLYLINE
  5
2A0
330
1F
100
AcDbEntity
  8
0_Pen_No__1
  6
Continuous
100
AcDbPolyline
 90
        2
 70
   128
 43
0.0
 10
32.53547633495679
 20
155.8753660224965
 10
32.53547633495679
 20
156.0037405095433
  0
LWPOLYLINE
  5
2A1
330
1F
100
AcDbEntity
  8
0_Pen_No__1
  6
Continuous
100
AcDbPolyline
 90
        2
 70
   128
 43
0.0
 10
40.21547633495693
 20
158.1037405095431
 10
34.63547633495678
 20
158.1037405095431
  0
LWPOLYLINE
  5
2A2
330
1F
100
AcDbEntity
  8
0_Pen_No__1
  6
Continuous
100
AcDbPolyline
 90
        2
 70
   128
 43
0.0
 10
34.63547633495678
 20
158.1037405095431
 10
34.27081516185626
 20
158.0718367908689
  0
LWPOLYLINE
  5
2A3
330
1F
100
AcDbEntity
  8
0_Pen_No__1
  6
Continuous
100
AcDbPolyline
 90
        2
 70
   128
 43
0.0
 10
34.27081516185626
 20
158.0718367908689
 10
33.91723403397307
 20
157.9770950131938
  0
LWPOLYLINE
  5
2A4
330
1F
100
AcDbEntity
  8
0_Pen_No__1
  6
Continuous
100
AcDbPolyline
 90
        2
 70
   128
 43
0.0
 10
33.91723403397307
 20
157.9770950131938
 10
33.58547633495657
 20
157.8223938574903
  0
LWPOLYLINE
  5
2A5
330
1F
100
AcDbEntity
  8
0_Pen_No__1
  6
Continuous
100
AcDbPolyline
 90
        2
 70
   128
 43
0.0
 10
33.58547633495657
 20
157.8223938574903
 10
33.28562235461496
 20
157.612433840093
  0
LWPOLYLINE
  5
2A6
330
1F
100
AcDbEntity
  8
0_Pen_No__1
  6
Continuous
100
AcDbPolyline
 90
        2
 70
   128
 43
0.0
 10
33.28562235461496
 20
157.612433840093
 10
33.02678300440687
 20
157.3535944898847
  0
LWPOLYLINE
  5
2A7
330
1F
100
AcDbEntity
  8
0_Pen_No__1
  6
Continuous
100
AcDbPolyline
 90
        2
 70
   128
 43
0.0
 10
33.02678300440687
 20
157.3535944898847
 10
32.81682298700916
 20
157.0537405095431
  0
LWPOLYLINE
  5
2A8
330
1F
100
AcDbEntity
  8
0_Pen_No__1
  6
Continuous
100
AcDbPolyline
 90
        2
 70
   128
 43
0.0
 10
32.81682298700916
 20
157.0537405095431
 10
32.66212183130634
 20
156.7219828105271
  0
LWPOLYLINE
  5
2A9
330
1F
100
AcDbEntity
  8
0_Pen_No__1
  6
Continuous
100
AcDbPolyline
 90
        2
 70
   128
 43
0.0
 10
32.66212183130634
 20
156.7219828105271
 10
32.56738005363125
 20
156.3684016826439
  0
LWPOLYLINE
  5
2AA
330
1F
100
AcDbEntity
  8
0_Pen_No__1
  6
Continuous
100
AcDbPolyline
 90
        2
 70
   128
 43
0.0
 10
32.56738005363125
 20
156.3684016826439
 10
32.53547633495679
 20
156.0037405095433
  0
LWPOLYLINE
  5
2AB
330
1F
100
AcDbEntity
  8
0_Pen_No__1
  6
Continuous
100
AcDbPolyline
 90
        2
 70
   128
 43
0.0
 10
32.53547633495679
 20
156.0037405095433
 10
32.53547633495679
 20
147.5537405095431
  0
LWPOLYLINE
  5
2AC
330
1F
100
AcDbEntity
  8
0_Pen_No__1
  6
Continuous
100
AcDbPolyline
 90
        2
 70
   128
 43
0.0
 10
32.53547633495679
 20
155.8753660224965
 10
32.53547633495679
 20
147.5537405095431
  0
LWPOLYLINE
  5
2AD
330
1F
100
AcDbEntity
  8
0_Pen_No__1
  6
Continuous
100
AcDbPolyline
 90
        2
 70
   128
 43
0.0
 10
32.53547633495679
 20
155.494143155184
 10
32.53547633495679
 20
147.5537405095431
  0
LWPOLYLINE
  5
2AE
330
1F
100
AcDbEntity
  8
0_Pen_No__1
  6
Continuous
100
AcDbPolyline
 90
        2
 70
   128
 43
0.0
 10
32.53547633495679
 20
154.8716551715217
 10
32.53547633495679
 20
147.5537405095431
  0
LWPOLYLINE
  5
2AF
330
1F
100
AcDbEntity
  8
0_Pen_No__1
  6
Continuous
100
AcDbPolyline
 90
        2
 70
   128
 43
0.0
 10
32.53547633495679
 20
154.0268160538984
 10
32.53547633495679
 20
147.5537405095431
  0
LWPOLYLINE
  5
2B0
330
1F
100
AcDbEntity
  8
0_Pen_No__1
  6
Continuous
100
AcDbPolyline
 90
        2
 70
   128
 43
0.0
 10
32.53547633495679
 20
152.9852958113944
 10
32.53547633495679
 20
147.5537405095431
  0
LWPOLYLINE
  5
2B1
330
1F
100
AcDbEntity
  8
0_Pen_No__1
  6
Continuous
100
AcDbPolyline
 90
        2
 70
   128
 43
0.0
 10
32.53547633495679
 20
151.778740509543
 10
32.53547633495679
 20
147.5537405095431
  0
LWPOLYLINE
  5
2B2
330
1F
100
AcDbEntity
  8
0_Pen_No__1
  6
Continuous
100
AcDbPolyline
 90
        2
 70
   128
 43
0.0
 10
32.53547633495679
 20
150.4438107206452
 10
32.53547633495679
 20
147.5537405095431
  0
LWPOLYLINE
  5
2B3
330
1F
100
AcDbEntity
  8
0_Pen_No__1
  6
Continuous
100
AcDbPolyline
 90
        2
 70
   128
 43
0.0
 10
32.53547633495679
 20
149.0210676108286
 10
32.53547633495679
 20
147.5537405095431
  0
LWPOLYLINE
  5
2B4
330
1F
100
AcDbEntity
  8
0_Pen_No__1
  6
Continuous
100
AcDbPolyline
 90
        2
 70
   128
 43
0.0
 10
32.53547633495679
 20
146.0864134082576
 10
32.53547633495679
 20
147.5537405095431
  0
LWPOLYLINE
  5
2B5
330
1F
100
AcDbEntity
  8
0_Pen_No__1
  6
Continuous
100
AcDbPolyline
 90
        2
 70
   128
 43
0.0
 10
32.53547633495679
 20
144.6636702984414
 10
32.53547633495679
 20
147.5537405095431
  0
LWPOLYLINE
  5
2B6
330
1F
100
AcDbEntity
  8
0_Pen_No__1
  6
Continuous
100
AcDbPolyline
 90
        2
 70
   128
 43
0.0
 10
32.53547633495679
 20
143.3287405095431
 10
32.53547633495679
 20
147.5537405095431
  0
LWPOLYLINE
  5
2B7
330
1F
100
AcDbEntity
  8
0_Pen_No__1
  6
Continuous
100
AcDbPolyline
 90
        2
 70
   128
 43
0.0
 10
32.53547633495679
 20
142.1221852076922
 10
32.53547633495679
 20
147.5537405095431
  0
LWPOLYLINE
  5
2B8
330
1F
100
AcDbEntity
  8
0_Pen_No__1
  6
Continuous
100
AcDbPolyline
 90
        2
 70
   128
 43
0.0
 10
32.53547633495679
 20
141.0806649651877
 10
32.53547633495679
 20
147.5537405095431
  0
LWPOLYLINE
  5
2B9
330
1F
100
AcDbEntity
  8
0_Pen_No__1
  6
Continuous
100
AcDbPolyline
 90
        2
 70
   128
 43
0.0
 10
32.53547633495679
 20
140.2358258475649
 10
32.53547633495679
 20
147.5537405095431
  0
LWPOLYLINE
  5
2BA
330
1F
100
AcDbEntity
  8
0_Pen_No__1
  6
Continuous
100
AcDbPolyline
 90
        2
 70
   128
 43
0.0
 10
32.53547633495679
 20
139.6133378639022
 10
32.53547633495679
 20
147.5537405095431
  0
LWPOLYLINE
  5
2BB
330
1F
100
AcDbEntity
  8
0_Pen_No__1
  6
Continuous
100
AcDbPolyline
 90
        2
 70
   128
 43
0.0
 10
32.53547633495679
 20
139.23211499659
 10
32.53547633495679
 20
147.5537405095431
  0
LWPOLYLINE
  5
2BC
330
1F
100
AcDbEntity
  8
0_Pen_No__1
  6
Continuous
100
AcDbPolyline
 90
        2
 70
   128
 43
0.0
 10
40.21547633495693
 20
137.003740509543
 10
34.63547633495678
 20
137.003740509543
  0
LWPOLYLINE
  5
2BD
330
1F
100
AcDbEntity
  8
0_Pen_No__1
  6
Continuous
100
AcDbPolyline
 90
        2
 70
   128
 43
0.0
 10
34.63547633495678
 20
137.003740509543
 10
34.27081516185626
 20
137.0356442282177
  0
LWPOLYLINE
  5
2BE
330
1F
100
AcDbEntity
  8
0_Pen_No__1
  6
Continuous
100
AcDbPolyline
 90
        2
 70
   128
 43
0.0
 10
34.27081516185626
 20
137.0356442282177
 10
33.91723403397307
 20
137.1303860058928
  0
LWPOLYLINE
  5
2BF
330
1F
100
AcDbEntity
  8
0_Pen_No__1
  6
Continuous
100
AcDbPolyline
 90
        2
 70
   128
 43
0.0
 10
33.91723403397307
 20
137.1303860058928
 10
33.58547633495657
 20
137.2850871615958
  0
LWPOLYLINE
  5
2C0
330
1F
100
AcDbEntity
  8
0_Pen_No__1
  6
Continuous
100
AcDbPolyline
 90
        2
 70
   128
 43
0.0
 10
33.58547633495657
 20
137.2850871615958
 10
33.28562235461496
 20
137.4950471789933
  0
LWPOLYLINE
  5
2C1
330
1F
100
AcDbEntity
  8
0_Pen_No__1
  6
Continuous
100
AcDbPolyline
 90
        2
 70
   128
 43
0.0
 10
33.28562235461496
 20
137.4950471789933
 10
33.02678300440687
 20
137.7538865292014
  0
LWPOLYLINE
  5
2C2
330
1F
100
AcDbEntity
  8
0_Pen_No__1
  6
Continuous
100
AcDbPolyline
 90
        2
 70
   128
 43
0.0
 10
33.02678300440687
 20
137.7538865292014
 10
32.81682298700916
 20
138.053740509543
  0
LWPOLYLINE
  5
2C3
330
1F
100
AcDbEntity
  8
0_Pen_No__1
  6
Continuous
100
AcDbPolyline
 90
        2
 70
   128
 43
0.0
 10
32.81682298700916
 20
138.053740509543
 10
32.66212183130634
 20
138.3854982085595
  0
LWPOLYLINE
  5
2C4
330
1F
100
AcDbEntity
  8
0_Pen_No__1
  6
Continuous
100
AcDbPolyline
 90
        2
 70
   128
 43
0.0
 10
32.66212183130634
 20
138.3854982085595
 10
32.56738005363125
 20
138.7390793364427
  0
LWPOLYLINE
  5
2C5
330
1F
100
AcDbEntity
  8
0_Pen_No__1
  6
Continuous
100
AcDbPolyline
 90
        2
 70
   128
 43
0.0
 10
32.56738005363125
 20
138.7390793364427
 10
32.53547633495679
 20
139.1037405095432
  0
LWPOLYLINE
  5
2C6
330
1F
100
AcDbEntity
  8
0_Pen_No__1
  6
Continuous
100
AcDbPolyline
 90
        2
 70
   128
 43
0.0
 10
32.53547633495679
 20
139.1037405095432
 10
32.53547633495679
 20
147.5537405095431
  0
LWPOLYLINE
  5
2C7
330
1F
100
AcDbEntity
  8
0_Pen_No__1
  6
Continuous
100
AcDbPolyline
 90
        2
 70
   128
 43
0.0
 10
32.53547633495679
 20
139.23211499659
 10
32.53547633495679
 20
147.5537405095431
  0
LWPOLYLINE
  5
2C8
330
1F
100
AcDbEntity
  8
0_Pen_No__1
  6
Continuous
100
AcDbPolyline
 90
        2
 70
   128
 43
0.0
 10
32.53547633495679
 20
139.6133378639022
 10
32.53547633495679
 20
147.5537405095431
  0
LWPOLYLINE
  5
2C9
330
1F
100
AcDbEntity
  8
0_Pen_No__1
  6
Continuous
100
AcDbPolyline
 90
        2
 70
   128
 43
0.0
 10
32.53547633495679
 20
140.2358258475649
 10
32.53547633495679
 20
147.5537405095431
  0
LWPOLYLINE
  5
2CA
330
1F
100
AcDbEntity
  8
0_Pen_No__1
  6
Continuous
100
AcDbPolyline
 90
        2
 70
   128
 43
0.0
 10
32.53547633495679
 20
141.0806649651877
 10
32.53547633495679
 20
147.5537405095431
  0
LWPOLYLINE
  5
2CB
330
1F
100
AcDbEntity
  8
0_Pen_No__1
  6
Continuous
100
AcDbPolyline
 90
        2
 70
   128
 43
0.0
 10
32.53547633495679
 20
142.1221852076922
 10
32.53547633495679
 20
147.5537405095431
  0
LWPOLYLINE
  5
2CC
330
1F
100
AcDbEntity
  8
0_Pen_No__1
  6
Continuous
100
AcDbPolyline
 90
        2
 70
   128
 43
0.0
 10
32.53547633495679
 20
143.3287405095431
 10
32.53547633495679
 20
147.5537405095431
  0
LWPOLYLINE
  5
2CD
330
1F
100
AcDbEntity
  8
0_Pen_No__1
  6
Continuous
100
AcDbPolyline
 90
        2
 70
   128
 43
0.0
 10
32.53547633495679
 20
144.6636702984414
 10
32.53547633495679
 20
147.5537405095431
  0
LWPOLYLINE
  5
2CE
330
1F
100
AcDbEntity
  8
0_Pen_No__1
  6
Continuous
100
AcDbPolyline
 90
        2
 70
   128
 43
0.0
 10
32.53547633495679
 20
146.0864134082576
 10
32.53547633495679
 20
147.5537405095431
  0
LWPOLYLINE
  5
2CF
330
1F
100
AcDbEntity
  8
0_Pen_No__1
  6
Continuous
100
AcDbPolyline
 90
        2
 70
   128
 43
0.0
 10
32.53547633495679
 20
149.0210676108286
 10
32.53547633495679
 20
147.5537405095431
  0
LWPOLYLINE
  5
2D0
330
1F
100
AcDbEntity
  8
0_Pen_No__1
  6
Continuous
100
AcDbPolyline
 90
        2
 70
   128
 43
0.0
 10
32.53547633495679
 20
150.4438107206452
 10
32.53547633495679
 20
147.5537405095431
  0
LWPOLYLINE
  5
2D1
330
1F
100
AcDbEntity
  8
0_Pen_No__1
  6
Continuous
100
AcDbPolyline
 90
        2
 70
   128
 43
0.0
 10
32.53547633495679
 20
151.778740509543
 10
32.53547633495679
 20
147.5537405095431
  0
LWPOLYLINE
  5
2D2
330
1F
100
AcDbEntity
  8
0_Pen_No__1
  6
Continuous
100
AcDbPolyline
 90
        2
 70
   128
 43
0.0
 10
32.53547633495679
 20
152.9852958113944
 10
32.53547633495679
 20
147.5537405095431
  0
LWPOLYLINE
  5
2D3
330
1F
100
AcDbEntity
  8
0_Pen_No__1
  6
Continuous
100
AcDbPolyline
 90
        2
 70
   128
 43
0.0
 10
32.53547633495679
 20
154.0268160538984
 10
32.53547633495679
 20
147.5537405095431
  0
LWPOLYLINE
  5
2D4
330
1F
100
AcDbEntity
  8
0_Pen_No__1
  6
Continuous
100
AcDbPolyline
 90
        2
 70
   128
 43
0.0
 10
32.53547633495679
 20
154.8716551715217
 10
32.53547633495679
 20
147.5537405095431
  0
LWPOLYLINE
  5
2D5
330
1F
100
AcDbEntity
  8
0_Pen_No__1
  6
Continuous
100
AcDbPolyline
 90
        2
 70
   128
 43
0.0
 10
32.53547633495679
 20
155.494143155184
 10
32.53547633495679
 20
147.5537405095431
  0
LWPOLYLINE
  5
2D6
330
1F
100
AcDbEntity
  8
0_Pen_No__1
  6
Continuous
100
AcDbPolyline
 90
        2
 70
   128
 43
0.0
 10
32.53547633495679
 20
155.8753660224965
 10
32.53547633495679
 20
147.5537405095431
  0
LWPOLYLINE
  5
2D7
330
1F
100
AcDbEntity
  8
0_Pen_No__1
  6
Continuous
100
AcDbPolyline
 90
        2
 70
   128
 43
0.0
 10
40.21547633495693
 20
152.8287405095432
 10
40.21547633495693
 20
150.8791793085049
  0
LWPOLYLINE
  5
2D8
330
1F
100
AcDbEntity
  8
0_Pen_No__1
  6
Continuous
100
AcDbPolyline
 90
        2
 70
   128
 43
0.0
 10
40.21547633495693
 20
150.8791793085049
 10
40.21547633495693
 20
149.1647639607709
  0
LWPOLYLINE
  5
2D9
330
1F
100
AcDbEntity
  8
0_Pen_No__1
  6
Continuous
100
AcDbPolyline
 90
        2
 70
   128
 43
0.0
 10
40.21547633495693
 20
149.1647639607709
 10
40.21547633495693
 20
147.5537405095431
  0
LWPOLYLINE
  5
2DA
330
1F
100
AcDbEntity
  8
0_Pen_No__1
  6
Continuous
100
AcDbPolyline
 90
        2
 70
   128
 43
0.0
 10
40.21547633495693
 20
147.5537405095431
 10
40.21547633495693
 20
145.9427170583152
  0
LWPOLYLINE
  5
2DB
330
1F
100
AcDbEntity
  8
0_Pen_No__1
  6
Continuous
100
AcDbPolyline
 90
        2
 70
   128
 43
0.0
 10
40.21547633495693
 20
145.9427170583152
 10
40.21547633495693
 20
144.2283017105812
  0
LWPOLYLINE
  5
2DC
330
1F
100
AcDbEntity
  8
0_Pen_No__1
  6
Continuous
100
AcDbPolyline
 90
        2
 70
   128
 43
0.0
 10
40.21547633495693
 20
144.2283017105812
 10
40.21547633495693
 20
142.2787405095434
  0
LWPOLYLINE
  5
2DD
330
1F
100
AcDbEntity
  8
0_Pen_No__1
  6
Continuous
100
AcDbPolyline
 90
        2
 70
   128
 43
0.0
 10
34.63547633495678
 20
152.8287405095432
 10
40.21547633495693
 20
152.8287405095432
  0
LWPOLYLINE
  5
2DE
330
1F
100
AcDbEntity
  8
0_Pen_No__1
  6
Continuous
100
AcDbPolyline
 90
        2
 70
   128
 43
0.0
 10
40.21547633495693
 20
142.2787405095434
 10
34.63547633495678
 20
142.2787405095434
  0
LWPOLYLINE
  5
2DF
330
1F
100
AcDbEntity
  8
0_Pen_No__1
  6
Continuous
100
AcDbPolyline
 90
        2
 70
   128
 43
0.0
 10
34.27081516185626
 20
152.7535371445443
 10
34.63547633495678
 20
152.8287405095432
  0
LWPOLYLINE
  5
2E0
330
1F
100
AcDbEntity
  8
0_Pen_No__1
  6
Continuous
100
AcDbPolyline
 90
        2
 70
   128
 43
0.0
 10
34.63547633495678
 20
142.2787405095434
 10
34.27081516185626
 20
142.3539438745416
  0
LWPOLYLINE
  5
2E1
330
1F
100
AcDbEntity
  8
0_Pen_No__1
  6
Continuous
100
AcDbPolyline
 90
        2
 70
   128
 43
0.0
 10
33.91723403397307
 20
152.530212065739
 10
34.27081516185626
 20
152.7535371445443
  0
LWPOLYLINE
  5
2E2
330
1F
100
AcDbEntity
  8
0_Pen_No__1
  6
Continuous
100
AcDbPolyline
 90
        2
 70
   128
 43
0.0
 10
34.27081516185626
 20
142.3539438745416
 10
33.91723403397307
 20
142.5772689533476
  0
LWPOLYLINE
  5
2E3
330
1F
100
AcDbEntity
  8
0_Pen_No__1
  6
Continuous
100
AcDbPolyline
 90
        2
 70
   128
 43
0.0
 10
33.58547633495657
 20
152.1655508926385
 10
33.91723403397307
 20
152.530212065739
  0
LWPOLYLINE
  5
2E4
330
1F
100
AcDbEntity
  8
0_Pen_No__1
  6
Continuous
100
AcDbPolyline
 90
        2
 70
   128
 43
0.0
 10
33.91723403397307
 20
142.5772689533476
 10
33.58547633495657
 20
142.9419301264481
  0
LWPOLYLINE
  5
2E5
330
1F
100
AcDbEntity
  8
0_Pen_No__1
  6
Continuous
100
AcDbPolyline
 90
        2
 70
   128
 43
0.0
 10
33.28562235461496
 20
151.6706336704601
 10
33.58547633495657
 20
152.1655508926385
  0
LWPOLYLINE
  5
2E6
330
1F
100
AcDbEntity
  8
0_Pen_No__1
  6
Continuous
100
AcDbPolyline
 90
        2
 70
   128
 43
0.0
 10
33.58547633495657
 20
142.9419301264481
 10
33.28562235461496
 20
143.4368473486265
  0
LWPOLYLINE
  5
2E7
330
1F
100
AcDbEntity
  8
0_Pen_No__1
  6
Continuous
100
AcDbPolyline
 90
        2
 70
   128
 43
0.0
 10
33.02678300440687
 20
151.0604982085593
 10
33.28562235461496
 20
151.6706336704601
  0
LWPOLYLINE
  5
2E8
330
1F
100
AcDbEntity
  8
0_Pen_No__1
  6
Continuous
100
AcDbPolyline
 90
        2
 70
   128
 43
0.0
 10
33.28562235461496
 20
143.4368473486265
 10
33.02678300440687
 20
144.0469828105273
  0
LWPOLYLINE
  5
2E9
330
1F
100
AcDbEntity
  8
0_Pen_No__1
  6
Continuous
100
AcDbPolyline
 90
        2
 70
   128
 43
0.0
 10
32.97292206905467
 20
150.8791793085049
 10
33.02678300440687
 20
151.0604982085593
  0
LWPOLYLINE
  5
2EA
330
1F
100
AcDbEntity
  8
0_Pen_No__1
  6
Continuous
100
AcDbPolyline
 90
        2
 70
   128
 43
0.0
 10
32.81682298700916
 20
150.0211115918557
 10
32.97292206905467
 20
150.8791793085049
  0
LWPOLYLINE
  5
2EB
330
1F
100
AcDbEntity
  8
0_Pen_No__1
  6
Continuous
100
AcDbPolyline
 90
        2
 70
   128
 43
0.0
 10
32.97292206905467
 20
144.2283017105812
 10
32.81682298700916
 20
145.0863694272309
  0
LWPOLYLINE
  5
2EC
330
1F
100
AcDbEntity
  8
0_Pen_No__1
  6
Continuous
100
AcDbPolyline
 90
        2
 70
   128
 43
0.0
 10
33.02678300440687
 20
144.0469828105273
 10
32.97292206905467
 20
144.2283017105812
  0
LWPOLYLINE
  5
2ED
330
1F
100
AcDbEntity
  8
0_Pen_No__1
  6
Continuous
100
AcDbPolyline
 90
        2
 70
   128
 43
0.0
 10
32.71307620060848
 20
149.1647639607709
 10
32.81682298700916
 20
150.0211115918557
  0
LWPOLYLINE
  5
2EE
330
1F
100
AcDbEntity
  8
0_Pen_No__1
  6
Continuous
100
AcDbPolyline
 90
        2
 70
   128
 43
0.0
 10
32.66212183130634
 20
147.9157793129897
 10
32.71307620060848
 20
149.1647639607709
  0
LWPOLYLINE
  5
2EF
330
1F
100
AcDbEntity
  8
0_Pen_No__1
  6
Continuous
100
AcDbPolyline
 90
        2
 70
   128
 43
0.0
 10
32.71307620060848
 20
145.9427170583152
 10
32.66212183130634
 20
147.1917017060964
  0
LWPOLYLINE
  5
2F0
330
1F
100
AcDbEntity
  8
0_Pen_No__1
  6
Continuous
100
AcDbPolyline
 90
        2
 70
   128
 43
0.0
 10
32.81682298700916
 20
145.0863694272309
 10
32.71307620060848
 20
145.9427170583152
  0
LWPOLYLINE
  5
2F1
330
1F
100
AcDbEntity
  8
0_Pen_No__1
  6
Continuous
100
AcDbPolyline
 90
        2
 70
   128
 43
0.0
 10
32.65363473059657
 20
147.5537405095431
 10
32.66212183130634
 20
147.9157793129897
  0
LWPOLYLINE
  5
2F2
330
1F
100
AcDbEntity
  8
0_Pen_No__1
  6
Continuous
100
AcDbPolyline
 90
        2
 70
   128
 43
0.0
 10
32.66212183130634
 20
147.1917017060964
 10
32.65363473059657
 20
147.5537405095431
  0
LWPOLYLINE
  5
2F3
330
1F
100
AcDbEntity
  8
0_Pen_No__1
  6
Continuous
100
AcDbPolyline
 90
        2
 70
   128
 43
0.0
 10
40.21547633495693
 20
142.2787405095434
 10
40.21547633495693
 20
141.3039599090242
  0
LWPOLYLINE
  5
2F4
330
1F
100
AcDbEntity
  8
0_Pen_No__1
  6
Continuous
100
AcDbPolyline
 90
        2
 70
   128
 43
0.0
 10
40.21547633495693
 20
141.3039599090242
 10
40.21547633495693
 20
140.4467522351569
  0
LWPOLYLINE
  5
2F5
330
1F
100
AcDbEntity
  8
0_Pen_No__1
  6
Continuous
100
AcDbPolyline
 90
        2
 70
   128
 43
0.0
 10
40.21547633495693
 20
140.4467522351569
 10
40.21547633495693
 20
139.6412405095433
  0
LWPOLYLINE
  5
2F6
330
1F
100
AcDbEntity
  8
0_Pen_No__1
  6
Continuous
100
AcDbPolyline
 90
        2
 70
   128
 43
0.0
 10
40.21547633495693
 20
139.6412405095433
 10
40.21547633495693
 20
138.8357287839293
  0
LWPOLYLINE
  5
2F7
330
1F
100
AcDbEntity
  8
0_Pen_No__1
  6
Continuous
100
AcDbPolyline
 90
        2
 70
   128
 43
0.0
 10
40.21547633495693
 20
138.8357287839293
 10
40.21547633495693
 20
137.9785211100624
  0
LWPOLYLINE
  5
2F8
330
1F
100
AcDbEntity
  8
0_Pen_No__1
  6
Continuous
100
AcDbPolyline
 90
        2
 70
   128
 43
0.0
 10
40.21547633495693
 20
137.9785211100624
 10
40.21547633495693
 20
137.003740509543
  0
LWPOLYLINE
  5
2F9
330
1F
100
AcDbEntity
  8
0_Pen_No__1
  6
Continuous
100
AcDbPolyline
 90
        2
 70
   128
 43
0.0
 10
34.63547633495678
 20
142.2787405095434
 10
40.21547633495693
 20
142.2787405095434
  0
LWPOLYLINE
  5
2FA
330
1F
100
AcDbEntity
  8
0_Pen_No__1
  6
Continuous
100
AcDbPolyline
 90
        2
 70
   128
 43
0.0
 10
40.21547633495693
 20
137.003740509543
 10
34.63547633495678
 20
137.003740509543
  0
LWPOLYLINE
  5
2FB
330
1F
100
AcDbEntity
  8
0_Pen_No__1
  6
Continuous
100
AcDbPolyline
 90
        2
 70
   128
 43
0.0
 10
34.27081516185626
 20
142.2411388270435
 10
34.63547633495678
 20
142.2787405095434
  0
LWPOLYLINE
  5
2FC
330
1F
100
AcDbEntity
  8
0_Pen_No__1
  6
Continuous
100
AcDbPolyline
 90
        2
 70
   128
 43
0.0
 10
34.63547633495678
 20
137.003740509543
 10
34.27081516185626
 20
137.0413421920424
  0
LWPOLYLINE
  5
2FD
330
1F
100
AcDbEntity
  8
0_Pen_No__1
  6
Continuous
100
AcDbPolyline
 90
        2
 70
   128
 43
0.0
 10
33.91723403397307
 20
142.1294762876413
 10
34.27081516185626
 20
142.2411388270435
  0
LWPOLYLINE
  5
2FE
330
1F
100
AcDbEntity
  8
0_Pen_No__1
  6
Continuous
100
AcDbPolyline
 90
        2
 70
   128
 43
0.0
 10
34.27081516185626
 20
137.0413421920424
 10
33.91723403397307
 20
137.1530047314453
  0
LWPOLYLINE
  5
2FF
330
1F
100
AcDbEntity
  8
0_Pen_No__1
  6
Continuous
100
AcDbPolyline
 90
        2
 70
   128
 43
0.0
 10
33.58547633495657
 20
141.947145701091
 10
33.91723403397307
 20
142.1294762876413
  0
LWPOLYLINE
  5
300
330
1F
100
AcDbEntity
  8
0_Pen_No__1
  6
Continuous
100
AcDbPolyline
 90
        2
 70
   128
 43
0.0
 10
33.91723403397307
 20
137.1530047314453
 10
33.58547633495657
 20
137.3353353179956
  0
LWPOLYLINE
  5
301
330
1F
100
AcDbEntity
  8
0_Pen_No__1
  6
Continuous
100
AcDbPolyline
 90
        2
 70
   128
 43
0.0
 10
33.28562235461496
 20
141.6996870900016
 10
33.58547633495657
 20
141.947145701091
  0
LWPOLYLINE
  5
302
330
1F
100
AcDbEntity
  8
0_Pen_No__1
  6
Continuous
100
AcDbPolyline
 90
        2
 70
   128
 43
0.0
 10
33.58547633495657
 20
137.3353353179956
 10
33.28562235461496
 20
137.582793929085
  0
LWPOLYLINE
  5
303
330
1F
100
AcDbEntity
  8
0_Pen_No__1
  6
Continuous
100
AcDbPolyline
 90
        2
 70
   128
 43
0.0
 10
33.02678300440687
 20
141.3946193590514
 10
33.28562235461496
 20
141.6996870900016
  0
LWPOLYLINE
  5
304
330
1F
100
AcDbEntity
  8
0_Pen_No__1
  6
Continuous
100
AcDbPolyline
 90
        2
 70
   128
 43
0.0
 10
33.28562235461496
 20
137.582793929085
 10
33.02678300440687
 20
137.8878616600352
  0
LWPOLYLINE
  5
305
330
1F
100
AcDbEntity
  8
0_Pen_No__1
  6
Continuous
100
AcDbPolyline
 90
        2
 70
   128
 43
0.0
 10
32.97292206905467
 20
141.3039599090242
 10
33.02678300440687
 20
141.3946193590514
  0
LWPOLYLINE
  5
306
330
1F
100
AcDbEntity
  8
0_Pen_No__1
  6
Continuous
100
AcDbPolyline
 90
        2
 70
   128
 43
0.0
 10
32.81682298700916
 20
140.8749260506996
 10
32.97292206905467
 20
141.3039599090242
  0
LWPOLYLINE
  5
307
330
1F
100
AcDbEntity
  8
0_Pen_No__1
  6
Continuous
100
AcDbPolyline
 90
        2
 70
   128
 43
0.0
 10
32.97292206905467
 20
137.9785211100624
 10
32.81682298700916
 20
138.407554968387
  0
LWPOLYLINE
  5
308
330
1F
100
AcDbEntity
  8
0_Pen_No__1
  6
Continuous
100
AcDbPolyline
 90
        2
 70
   128
 43
0.0
 10
33.02678300440687
 20
137.8878616600352
 10
32.97292206905467
 20
137.9785211100624
  0
LWPOLYLINE
  5
309
330
1F
100
AcDbEntity
  8
0_Pen_No__1
  6
Continuous
100
AcDbPolyline
 90
        2
 70
   128
 43
0.0
 10
32.71307620060848
 20
140.4467522351569
 10
32.81682298700916
 20
140.8749260506996
  0
LWPOLYLINE
  5
30A
330
1F
100
AcDbEntity
  8
0_Pen_No__1
  6
Continuous
100
AcDbPolyline
 90
        2
 70
   128
 43
0.0
 10
32.66212183130634
 20
139.8222599112666
 10
32.71307620060848
 20
140.4467522351569
  0
LWPOLYLINE
  5
30B
330
1F
100
AcDbEntity
  8
0_Pen_No__1
  6
Continuous
100
AcDbPolyline
 90
        2
 70
   128
 43
0.0
 10
32.71307620060848
 20
138.8357287839293
 10
32.66212183130634
 20
139.46022110782
  0
LWPOLYLINE
  5
30C
330
1F
100
AcDbEntity
  8
0_Pen_No__1
  6
Continuous
100
AcDbPolyline
 90
        2
 70
   128
 43
0.0
 10
32.81682298700916
 20
138.407554968387
 10
32.71307620060848
 20
138.8357287839293
  0
LWPOLYLINE
  5
30D
330
1F
100
AcDbEntity
  8
0_Pen_No__1
  6
Continuous
100
AcDbPolyline
 90
        2
 70
   128
 43
0.0
 10
32.65363473059657
 20
139.6412405095433
 10
32.66212183130634
 20
139.8222599112666
  0
LWPOLYLINE
  5
30E
330
1F
100
AcDbEntity
  8
0_Pen_No__1
  6
Continuous
100
AcDbPolyline
 90
        2
 70
   128
 43
0.0
 10
32.66212183130634
 20
139.46022110782
 10
32.65363473059657
 20
139.6412405095433
  0
LWPOLYLINE
  5
30F
330
1F
100
AcDbEntity
  8
0_Pen_No__1
  6
Continuous
100
AcDbPolyline
 90
        2
 70
   128
 43
0.0
 10
40.21547633495693
 20
158.1037405095431
 10
40.21547633495693
 20
157.1289599090242
  0
LWPOLYLINE
  5
310
330
1F
100
AcDbEntity
  8
0_Pen_No__1
  6
Continuous
100
AcDbPolyline
 90
        2
 70
   128
 43
0.0
 10
40.21547633495693
 20
157.1289599090242
 10
40.21547633495693
 20
156.2717522351569
  0
LWPOLYLINE
  5
311
330
1F
100
AcDbEntity
  8
0_Pen_No__1
  6
Continuous
100
AcDbPolyline
 90
        2
 70
   128
 43
0.0
 10
40.21547633495693
 20
156.2717522351569
 10
40.21547633495693
 20
155.4662405095433
  0
LWPOLYLINE
  5
312
330
1F
100
AcDbEntity
  8
0_Pen_No__1
  6
Continuous
100
AcDbPolyline
 90
        2
 70
   128
 43
0.0
 10
40.21547633495693
 20
155.4662405095433
 10
40.21547633495693
 20
154.6607287839292
  0
LWPOLYLINE
  5
313
330
1F
100
AcDbEntity
  8
0_Pen_No__1
  6
Continuous
100
AcDbPolyline
 90
        2
 70
   128
 43
0.0
 10
40.21547633495693
 20
154.6607287839292
 10
40.21547633495693
 20
153.8035211100623
  0
LWPOLYLINE
  5
314
330
1F
100
AcDbEntity
  8
0_Pen_No__1
  6
Continuous
100
AcDbPolyline
 90
        2
 70
   128
 43
0.0
 10
40.21547633495693
 20
153.8035211100623
 10
40.21547633495693
 20
152.8287405095432
  0
LWPOLYLINE
  5
315
330
1F
100
AcDbEntity
  8
0_Pen_No__1
  6
Continuous
100
AcDbPolyline
 90
        2
 70
   128
 43
0.0
 10
34.63547633495678
 20
158.1037405095431
 10
40.21547633495693
 20
158.1037405095431
  0
LWPOLYLINE
  5
316
330
1F
100
AcDbEntity
  8
0_Pen_No__1
  6
Continuous
100
AcDbPolyline
 90
        2
 70
   128
 43
0.0
 10
40.21547633495693
 20
152.8287405095432
 10
34.63547633495678
 20
152.8287405095432
  0
LWPOLYLINE
  5
317
330
1F
100
AcDbEntity
  8
0_Pen_No__1
  6
Continuous
100
AcDbPolyline
 90
        2
 70
   128
 43
0.0
 10
34.27081516185626
 20
158.0661388270437
 10
34.63547633495678
 20
158.1037405095431
  0
LWPOLYLINE
  5
318
330
1F
100
AcDbEntity
  8
0_Pen_No__1
  6
Continuous
100
AcDbPolyline
 90
        2
 70
   128
 43
0.0
 10
34.63547633495678
 20
152.8287405095432
 10
34.27081516185626
 20
152.8663421920424
  0
LWPOLYLINE
  5
319
330
1F
100
AcDbEntity
  8
0_Pen_No__1
  6
Continuous
100
AcDbPolyline
 90
        2
 70
   128
 43
0.0
 10
33.91723403397307
 20
157.9544762876413
 10
34.27081516185626
 20
158.0661388270437
  0
LWPOLYLINE
  5
31A
330
1F
100
AcDbEntity
  8
0_Pen_No__1
  6
Continuous
100
AcDbPolyline
 90
        2
 70
   128
 43
0.0
 10
34.27081516185626
 20
152.8663421920424
 10
33.91723403397307
 20
152.9780047314453
  0
LWPOLYLINE
  5
31B
330
1F
100
AcDbEntity
  8
0_Pen_No__1
  6
Continuous
100
AcDbPolyline
 90
        2
 70
   128
 43
0.0
 10
33.58547633495657
 20
157.772145701091
 10
33.91723403397307
 20
157.9544762876413
  0
LWPOLYLINE
  5
31C
330
1F
100
AcDbEntity
  8
0_Pen_No__1
  6
Continuous
100
AcDbPolyline
 90
        2
 70
   128
 43
0.0
 10
33.91723403397307
 20
152.9780047314453
 10
33.58547633495657
 20
153.1603353179956
  0
LWPOLYLINE
  5
31D
330
1F
100
AcDbEntity
  8
0_Pen_No__1
  6
Continuous
100
AcDbPolyline
 90
        2
 70
   128
 43
0.0
 10
33.28562235461496
 20
157.5246870900015
 10
33.58547633495657
 20
157.772145701091
  0
LWPOLYLINE
  5
31E
330
1F
100
AcDbEntity
  8
0_Pen_No__1
  6
Continuous
100
AcDbPolyline
 90
        2
 70
   128
 43
0.0
 10
33.58547633495657
 20
153.1603353179956
 10
33.28562235461496
 20
153.407793929085
  0
LWPOLYLINE
  5
31F
330
1F
100
AcDbEntity
  8
0_Pen_No__1
  6
Continuous
100
AcDbPolyline
 90
        2
 70
   128
 43
0.0
 10
33.02678300440687
 20
157.2196193590514
 10
33.28562235461496
 20
157.5246870900015
  0
LWPOLYLINE
  5
320
330
1F
100
AcDbEntity
  8
0_Pen_No__1
  6
Continuous
100
AcDbPolyline
 90
        2
 70
   128
 43
0.0
 10
33.28562235461496
 20
153.407793929085
 10
33.02678300440687
 20
153.7128616600352
  0
LWPOLYLINE
  5
321
330
1F
100
AcDbEntity
  8
0_Pen_No__1
  6
Continuous
100
AcDbPolyline
 90
        2
 70
   128
 43
0.0
 10
32.97292206905467
 20
157.1289599090242
 10
33.02678300440687
 20
157.2196193590514
  0
LWPOLYLINE
  5
322
330
1F
100
AcDbEntity
  8
0_Pen_No__1
  6
Continuous
100
AcDbPolyline
 90
        2
 70
   128
 43
0.0
 10
32.81682298700916
 20
156.6999260506996
 10
32.97292206905467
 20
157.1289599090242
  0
LWPOLYLINE
  5
323
330
1F
100
AcDbEntity
  8
0_Pen_No__1
  6
Continuous
100
AcDbPolyline
 90
        2
 70
   128
 43
0.0
 10
32.97292206905467
 20
153.8035211100623
 10
32.81682298700916
 20
154.2325549683869
  0
LWPOLYLINE
  5
324
330
1F
100
AcDbEntity
  8
0_Pen_No__1
  6
Continuous
100
AcDbPolyline
 90
        2
 70
   128
 43
0.0
 10
33.02678300440687
 20
153.7128616600352
 10
32.97292206905467
 20
153.8035211100623
  0
LWPOLYLINE
  5
325
330
1F
100
AcDbEntity
  8
0_Pen_No__1
  6
Continuous
100
AcDbPolyline
 90
        2
 70
   128
 43
0.0
 10
32.71307620060848
 20
156.2717522351569
 10
32.81682298700916
 20
156.6999260506996
  0
LWPOLYLINE
  5
326
330
1F
100
AcDbEntity
  8
0_Pen_No__1
  6
Continuous
100
AcDbPolyline
 90
        2
 70
   128
 43
0.0
 10
32.66212183130634
 20
155.6472599112666
 10
32.71307620060848
 20
156.2717522351569
  0
LWPOLYLINE
  5
327
330
1F
100
AcDbEntity
  8
0_Pen_No__1
  6
Continuous
100
AcDbPolyline
 90
        2
 70
   128
 43
0.0
 10
32.71307620060848
 20
154.6607287839292
 10
32.66212183130634
 20
155.28522110782
  0
LWPOLYLINE
  5
328
330
1F
100
AcDbEntity
  8
0_Pen_No__1
  6
Continuous
100
AcDbPolyline
 90
        2
 70
   128
 43
0.0
 10
32.81682298700916
 20
154.2325549683869
 10
32.71307620060848
 20
154.6607287839292
  0
LWPOLYLINE
  5
329
330
1F
100
AcDbEntity
  8
0_Pen_No__1
  6
Continuous
100
AcDbPolyline
 90
        2
 70
   128
 43
0.0
 10
32.65363473059657
 20
155.4662405095433
 10
32.66212183130634
 20
155.6472599112666
  0
LWPOLYLINE
  5
32A
330
1F
100
AcDbEntity
  8
0_Pen_No__1
  6
Continuous
100
AcDbPolyline
 90
        2
 70
   128
 43
0.0
 10
32.66212183130634
 20
155.28522110782
 10
32.65363473059657
 20
155.4662405095433
  0
LWPOLYLINE
  5
32B
330
1F
100
AcDbEntity
  8
0_Pen_No__1
  6
Continuous
100
AcDbPolyline
 90
        2
 70
   128
 43
0.0
 10
-20.0
 20
338.0773205490053
 10
60.83178121294175
 20
338.0773205490053
  0
LWPOLYLINE
  5
32C
330
1F
100
AcDbEntity
  8
0_Pen_No__1
  6
Continuous
100
AcDbPolyline
 90
        2
 70
   128
 43
0.0
 10
60.83178121294175
 20
338.0773205490053
 10
62.30267166604686
 20
328.0089754542756
  0
LWPOLYLINE
  5
32D
330
1F
100
AcDbEntity
  8
0_Pen_No__1
  6
Continuous
100
AcDbPolyline
 90
        2
 70
   128
 43
0.0
 10
62.30267166604686
 20
328.0089754542756
 10
64.91072948685294
 20
347.6485034161021
  0
LWPOLYLINE
  5
32E
330
1F
100
AcDbEntity
  8
0_Pen_No__1
  6
Continuous
100
AcDbPolyline
 90
        2
 70
   128
 43
0.0
 10
64.91072948685294
 20
347.6485034161021
 10
66.7631325794238
 20
338.0773205490053
  0
LWPOLYLINE
  5
32F
330
1F
100
AcDbEntity
  8
0_Pen_No__1
  6
Continuous
100
AcDbPolyline
 90
        2
 70
   128
 43
0.0
 10
66.7631325794238
 20
338.0773205490053
 10
180.6043200739287
 20
338.0773205490053
  0
LWPOLYLINE
  5
330
330
1F
100
AcDbEntity
  8
0_Pen_No__1
  6
Continuous
100
AcDbPolyline
 90
        2
 70
   128
 43
0.0
 10
238.8462718675923
 20
275.6487588450252
 10
238.8462718675923
 20
147.7295729169825
  0
LWPOLYLINE
  5
331
330
1F
100
AcDbEntity
  8
0_Pen_No__1
  6
Continuous
100
AcDbPolyline
 90
        2
 70
   128
 43
0.0
 10
238.8462718675923
 20
147.7295729169825
 10
228.7779267728627
 20
146.2586824638774
  0
LWPOLYLINE
  5
332
330
1F
100
AcDbEntity
  8
0_Pen_No__1
  6
Continuous
100
AcDbPolyline
 90
        2
 70
   128
 43
0.0
 10
228.7779267728627
 20
146.2586824638774
 10
248.4174547346891
 20
143.6506246430711
  0
LWPOLYLINE
  5
333
330
1F
100
AcDbEntity
  8
0_Pen_No__1
  6
Continuous
100
AcDbPolyline
 90
        2
 70
   128
 43
0.0
 10
248.4174547346891
 20
143.6506246430711
 10
238.8462718675923
 20
141.7982215505005
  0
LWPOLYLINE
  5
334
330
1F
100
AcDbEntity
  8
0_Pen_No__1
  6
Continuous
100
AcDbPolyline
 90
        2
 70
   128
 43
0.0
 10
238.8462718675923
 20
141.7982215505005
 10
238.8462718675923
 20
27.95703405599536
  0
LWPOLYLINE
  5
335
330
1F
100
AcDbEntity
  8
0_Pen_No__1
  6
Continuous
100
AcDbPolyline
 90
        2
 70
   128
 43
0.0
 10
-20.00000000000002
 20
0.0
 10
60.83178121294175
 20
0.0
  0
LWPOLYLINE
  5
336
330
1F
100
AcDbEntity
  8
0_Pen_No__1
  6
Continuous
100
AcDbPolyline
 90
        2
 70
   128
 43
0.0
 10
60.83178121294175
 20
0.0
 10
62.30267166604686
 20
-10.06834509472965
  0
LWPOLYLINE
  5
337
330
1F
100
AcDbEntity
  8
0_Pen_No__1
  6
Continuous
100
AcDbPolyline
 90
        2
 70
   128
 43
0.0
 10
62.30267166604686
 20
-10.06834509472965
 10
64.91072948685294
 20
9.571182867096795
  0
LWPOLYLINE
  5
338
330
1F
100
AcDbEntity
  8
0_Pen_No__1
  6
Continuous
100
AcDbPolyline
 90
        2
 70
   128
 43
0.0
 10
64.91072948685294
 20
9.571182867096795
 10
66.7631325794238
 20
0.0
  0
LWPOLYLINE
  5
339
330
1F
100
AcDbEntity
  8
0_Pen_No__1
  6
Continuous
100
AcDbPolyline
 90
        2
 70
   128
 43
0.0
 10
66.7631325794238
 20
0.0
 10
180.6043200739287
 20
0.0
  0
LWPOLYLINE
  5
33A
330
1F
100
AcDbEntity
  8
0_Pen_No__1
  6
Continuous
100
AcDbPolyline
 90
        2
 70
   128
 43
0.0
 10
108.2569294616795
 20
253.3162002927118
 10
109.2550088152502
 20
253.4519606151881
  0
LWPOLYLINE
  5
33B
330
1F
100
AcDbEntity
  8
0_Pen_No__1
  6
Continuous
100
AcDbPolyline
 90
        2
 70
   128
 43
0.0
 10
109.2550088152502
 20
253.4519606151881
 10
109.8504988689299
 20
249.074051687209
  0
LWPOLYLINE
  5
33C
330
1F
100
AcDbEntity
  8
0_Pen_No__1
  6
Continuous
100
AcDbPolyline
 90
        2
 70
   128
 43
0.0
 10
107.5861411723842
 20
250.0956835819854
 10
108.2569294616795
 20
253.3162002927118
  0
LWPOLYLINE
  5
33D
330
1F
100
AcDbEntity
  8
0_Pen_No__1
  6
Continuous
100
AcDbPolyline
 90
        2
 70
   128
 43
0.0
 10
68.44458884368576
 20
244.7132798532876
 10
65.26093246136332
 20
243.0089087775638
  0
LWPOLYLINE
  5
33E
330
1F
100
AcDbEntity
  8
0_Pen_No__1
  6
Continuous
100
AcDbPolyline
 90
        2
 70
   128
 43
0.0
 10
107.5861411723842
 20
250.0956835819854
 10
68.44458884368576
 20
244.7132798532876
  0
LWPOLYLINE
  5
33F
330
1F
100
AcDbEntity
  8
0_Pen_No__1
  6
Continuous
100
AcDbPolyline
 90
        2
 70
   128
 43
0.0
 10
109.447909569039
 20
244.5603824367535
 10
110.4459889226099
 20
244.6961427592298
  0
LWPOLYLINE
  5
340
330
1F
100
AcDbEntity
  8
0_Pen_No__1
  6
Continuous
100
AcDbPolyline
 90
        2
 70
   128
 43
0.0
 10
110.4459889226099
 20
244.6961427592298
 10
109.8504988689299
 20
249.074051687209
  0
LWPOLYLINE
  5
341
330
1F
100
AcDbEntity
  8
0_Pen_No__1
  6
Continuous
100
AcDbPolyline
 90
        2
 70
   128
 43
0.0
 10
107.941287940472
 20
247.4847244280154
 10
109.447909569039
 20
244.5603824367535
  0
LWPOLYLINE
  5
342
330
1F
100
AcDbEntity
  8
0_Pen_No__1
  6
Continuous
100
AcDbPolyline
 90
        2
 70
   128
 43
0.0
 10
68.78416140210896
 20
242.2168187855824
 10
65.26093246136332
 20
243.0089087775638
  0
LWPOLYLINE
  5
343
330
1F
100
AcDbEntity
  8
0_Pen_No__1
  6
Continuous
100
AcDbPolyline
 90
        2
 70
   128
 43
0.0
 10
107.941287940472
 20
247.4847244280154
 10
68.78416140210896
 20
242.2168187855824
  0
LWPOLYLINE
  5
344
330
1F
100
AcDbEntity
  8
0_Pen_No__1
  6
Continuous
100
AcDbPolyline
 90
        2
 70
   128
 43
0.0
 10
44.99999999999971
 20
77.36897359396843
 10
89.99999999999942
 20
217.3689735939686
  0
LWPOLYLINE
  5
345
330
1F
100
AcDbEntity
  8
0_Pen_No__1
  6
Continuous
100
AcDbPolyline
 90
        2
 70
   128
 43
0.0
 10
89.99999999999942
 20
77.36897359396866
 10
44.99999999999904
 20
217.3689735939683
  0
LWPOLYLINE
  5
346
330
1F
100
AcDbEntity
  8
0_Pen_No__1
  6
Continuous
100
AcDbPolyline
 90
        2
 70
   128
 43
0.0
 10
132.5354217351706
 20
77.36897359396843
 10
177.5354217351701
 20
217.3689735939686
  0
LWPOLYLINE
  5
347
330
1F
100
AcDbEntity
  8
0_Pen_No__1
  6
Continuous
100
AcDbPolyline
 90
        2
 70
   128
 43
0.0
 10
177.5354217351701
 20
77.36897359396866
 10
132.53542173517
 20
217.3689735939683
  0
LWPOLYLINE
  5
348
330
1F
100
AcDbEntity
  8
0_Pen_No__1
  6
Continuous
100
AcDbPolyline
 90
        2
 70
   128
 43
0.0
 10
89.99999999999942
 20
217.3689735939686
 10
90.00000000000009
 20
338.0773205490053
  0
LWPOLYLINE
  5
349
330
1F
100
AcDbEntity
  8
0_Pen_No__1
  6
Continuous
100
AcDbPolyline
 90
        2
 70
   128
 43
0.0
 10
90.00000000000009
 20
0.0
 10
90.00000000000009
 20
77.36897359396843
  0
LWPOLYLINE
  5
34B
330
1F
100
AcDbEntity
  8
0_Pen_No__1
  6
Above
100
AcDbPolyline
 90
        2
 70
   128
 43
0.0
 10
91.99999999999963
 20
0.0
 10
92.00000000000009
 20
338.0773205490053
  0
LWPOLYLINE
  5
34C
330
1F
100
AcDbEntity
  8
0_Pen_No__1
  6
Continuous
100
AcDbPolyline
 90
        2
 70
   128
 43
0.0
 10
0.0
 20
0.0
 10
0.0
 20
338.0773205490053
  0
LWPOLYLINE
  5
34D
330
1F
100
AcDbEntity
  8
0_Pen_No__1
  6
Continuous
100
AcDbPolyline
 90
        2
 70
   128
 43
0.0
 10
132.5354217351706
 20
77.36897359396843
 10
120.6540327980694
 20
217.3689735939683
  0
LWPOLYLINE
  5
34E
330
1F
100
AcDbEntity
  8
0_Pen_No__1
  6
Continuous
100
AcDbPolyline
 90
        2
 70
   128
 43
0.0
 10
107.2955404160159
 20
115.4918421868552
 10
94.47822492686231
 20
179.2461050010816
  0
LWPOLYLINE
  5
34F
330
1F
100
AcDbEntity
  8
0_Pen_No__1
  6
Continuous
100
AcDbPolyline
 90
        2
 70
   128
 43
0.0
 10
219.0643658087212
 20
77.36897359396866
 10
238.8462718675923
 20
77.36897359396866
  0
LWPOLYLINE
  5
350
330
1F
100
AcDbEntity
  8
0_Pen_No__1
  6
Continuous
100
AcDbPolyline
 90
        2
 70
   128
 43
0.0
 10
208.5354217351709
 20
217.3689735939688
 10
213.5354217351706
 20
217.3689735939688
  0
LWPOLYLINE
  5
351
330
1F
100
AcDbEntity
  8
0_Pen_No__1
  6
Continuous
100
AcDbPolyline
 90
        2
 70
   128
 43
0.0
 10
177.5354217351701
 20
198.8853954459073
 10
207.5354217351701
 20
198.8853954459073
  0
LWPOLYLINE
  5
352
330
1F
100
AcDbEntity
  8
0_Pen_No__1
  6
Continuous
100
AcDbPolyline
 90
        2
 70
   128
 43
0.0
 10
207.5354217351701
 20
198.8853954459073
 10
207.5354217351701
 20
88.89791766751998
  0
LWPOLYLINE
  5
353
330
1F
100
AcDbEntity
  8
0_Pen_No__1
  6
Continuous
100
AcDbPolyline
 90
        2
 70
   128
 43
0.0
 10
207.5354217351701
 20
88.89791766751998
 10
221.0643658087215
 20
75.36897359396866
  0
LWPOLYLINE
  5
354
330
1F
100
AcDbEntity
  8
0_Pen_No__1
  6
Continuous
100
AcDbPolyline
 90
        2
 70
   128
 43
0.0
 10
221.0643658087215
 20
75.36897359396866
 10
177.5354217351701
 20
75.36897359396866
  0
LWPOLYLINE
  5
355
330
1F
100
AcDbEntity
  8
0_Pen_No__1
  6
Continuous
100
AcDbPolyline
 90
        2
 70
   128
 43
0.0
 10
201.1487086974959
 20
193.0187025612704
 10
201.1487086974959
 20
188.881242582146
  0
LWPOLYLINE
  5
356
330
1F
100
AcDbEntity
  8
0_Pen_No__1
  6
Continuous
100
AcDbPolyline
 90
        2
 70
   128
 43
0.0
 10
199.0799787079334
 20
190.9499725717079
 10
203.217438687058
 20
190.9499725717079
  0
LWPOLYLINE
  5
357
330
1F
100
AcDbEntity
  8
0_Pen_No__1
  6
Continuous
100
AcDbPolyline
 90
        2
 70
   128
 43
0.0
 10
193.9988735033749
 20
193.0187025612704
 10
193.9988735033749
 20
188.881242582146
  0
LWPOLYLINE
  5
358
330
1F
100
AcDbEntity
  8
0_Pen_No__1
  6
Continuous
100
AcDbPolyline
 90
        2
 70
   128
 43
0.0
 10
191.9301435138125
 20
190.9499725717079
 10
196.0676034929374
 20
190.9499725717079
  0
LWPOLYLINE
  5
359
330
1F
100
AcDbEntity
  8
0_Pen_No__1
  6
Continuous
100
AcDbPolyline
 90
        2
 70
   128
 43
0.0
 10
186.8490383092543
 20
193.0187025612704
 10
186.8490383092543
 20
188.881242582146
  0
LWPOLYLINE
  5
35A
330
1F
100
AcDbEntity
  8
0_Pen_No__1
  6
Continuous
100
AcDbPolyline
 90
        2
 70
   128
 43
0.0
 10
184.7803083196922
 20
190.9499725717079
 10
188.9177682988164
 20
190.9499725717079
  0
LWPOLYLINE
  5
35B
330
1F
100
AcDbEntity
  8
0_Pen_No__1
  6
Continuous
100
AcDbPolyline
 90
        2
 70
   128
 43
0.0
 10
201.1487086974959
 20
183.0187025612704
 10
201.1487086974959
 20
178.8812425821462
  0
LWPOLYLINE
  5
35C
330
1F
100
AcDbEntity
  8
0_Pen_No__1
  6
Continuous
100
AcDbPolyline
 90
        2
 70
   128
 43
0.0
 10
199.0799787079334
 20
180.9499725717083
 10
203.217438687058
 20
180.9499725717083
  0
LWPOLYLINE
  5
35D
330
1F
100
AcDbEntity
  8
0_Pen_No__1
  6
Continuous
100
AcDbPolyline
 90
        2
 70
   128
 43
0.0
 10
193.9988735033749
 20
183.0187025612704
 10
193.9988735033749
 20
178.8812425821462
  0
LWPOLYLINE
  5
35E
330
1F
100
AcDbEntity
  8
0_Pen_No__1
  6
Continuous
100
AcDbPolyline
 90
        2
 70
   128
 43
0.0
 10
191.9301435138125
 20
180.9499725717083
 10
196.0676034929374
 20
180.9499725717083
  0
LWPOLYLINE
  5
35F
330
1F
100
AcDbEntity
  8
0_Pen_No__1
  6
Continuous
100
AcDbPolyline
 90
        2
 70
   128
 43
0.0
 10
186.8490383092543
 20
183.0187025612704
 10
186.8490383092543
 20
178.8812425821462
  0
LWPOLYLINE
  5
360
330
1F
100
AcDbEntity
  8
0_Pen_No__1
  6
Continuous
100
AcDbPolyline
 90
        2
 70
   128
 43
0.0
 10
184.7803083196922
 20
180.9499725717083
 10
188.9177682988164
 20
180.9499725717083
  0
LWPOLYLINE
  5
361
330
1F
100
AcDbEntity
  8
0_Pen_No__1
  6
Continuous
100
AcDbPolyline
 90
        2
 70
   128
 43
0.0
 10
201.1487086974959
 20
173.0187025612704
 10
201.1487086974959
 20
168.881242582146
  0
LWPOLYLINE
  5
362
330
1F
100
AcDbEntity
  8
0_Pen_No__1
  6
Continuous
100
AcDbPolyline
 90
        2
 70
   128
 43
0.0
 10
199.0799787079334
 20
170.9499725717081
 10
203.217438687058
 20
170.9499725717081
  0
LWPOLYLINE
  5
363
330
1F
100
AcDbEntity
  8
0_Pen_No__1
  6
Continuous
100
AcDbPolyline
 90
        2
 70
   128
 43
0.0
 10
193.9988735033749
 20
173.0187025612704
 10
193.9988735033749
 20
168.881242582146
  0
LWPOLYLINE
  5
364
330
1F
100
AcDbEntity
  8
0_Pen_No__1
  6
Continuous
100
AcDbPolyline
 90
        2
 70
   128
 43
0.0
 10
191.9301435138125
 20
170.9499725717081
 10
196.0676034929374
 20
170.9499725717081
  0
LWPOLYLINE
  5
365
330
1F
100
AcDbEntity
  8
0_Pen_No__1
  6
Continuous
100
AcDbPolyline
 90
        2
 70
   128
 43
0.0
 10
186.8490383092543
 20
173.0187025612704
 10
186.8490383092543
 20
168.881242582146
  0
LWPOLYLINE
  5
366
330
1F
100
AcDbEntity
  8
0_Pen_No__1
  6
Continuous
100
AcDbPolyline
 90
        2
 70
   128
 43
0.0
 10
184.7803083196922
 20
170.9499725717081
 10
188.9177682988164
 20
170.9499725717081
  0
LWPOLYLINE
  5
367
330
1F
100
AcDbEntity
  8
0_Pen_No__1
  6
Continuous
100
AcDbPolyline
 90
        2
 70
   128
 43
0.0
 10
201.1487086974959
 20
163.0187025612704
 10
201.1487086974959
 20
158.8812425821462
  0
LWPOLYLINE
  5
368
330
1F
100
AcDbEntity
  8
0_Pen_No__1
  6
Continuous
100
AcDbPolyline
 90
        2
 70
   128
 43
0.0
 10
199.0799787079334
 20
160.9499725717083
 10
203.217438687058
 20
160.9499725717083
  0
LWPOLYLINE
  5
369
330
1F
100
AcDbEntity
  8
0_Pen_No__1
  6
Continuous
100
AcDbPolyline
 90
        2
 70
   128
 43
0.0
 10
193.9988735033749
 20
163.0187025612704
 10
193.9988735033749
 20
158.8812425821462
  0
LWPOLYLINE
  5
36A
330
1F
100
AcDbEntity
  8
0_Pen_No__1
  6
Continuous
100
AcDbPolyline
 90
        2
 70
   128
 43
0.0
 10
191.9301435138125
 20
160.9499725717083
 10
196.0676034929374
 20
160.9499725717083
  0
LWPOLYLINE
  5
36B
330
1F
100
AcDbEntity
  8
0_Pen_No__1
  6
Continuous
100
AcDbPolyline
 90
        2
 70
   128
 43
0.0
 10
186.8490383092543
 20
163.0187025612704
 10
186.8490383092543
 20
158.8812425821462
  0
LWPOLYLINE
  5
36C
330
1F
100
AcDbEntity
  8
0_Pen_No__1
  6
Continuous
100
AcDbPolyline
 90
        2
 70
   128
 43
0.0
 10
184.7803083196922
 20
160.9499725717083
 10
188.9177682988164
 20
160.9499725717083
  0
LWPOLYLINE
  5
36D
330
1F
100
AcDbEntity
  8
0_Pen_No__1
  6
Continuous
100
AcDbPolyline
 90
        2
 70
   128
 43
0.0
 10
201.1487086974959
 20
153.0187025612704
 10
201.1487086974959
 20
148.881242582146
  0
LWPOLYLINE
  5
36E
330
1F
100
AcDbEntity
  8
0_Pen_No__1
  6
Continuous
100
AcDbPolyline
 90
        2
 70
   128
 43
0.0
 10
199.0799787079334
 20
150.9499725717083
 10
203.217438687058
 20
150.9499725717083
  0
LWPOLYLINE
  5
36F
330
1F
100
AcDbEntity
  8
0_Pen_No__1
  6
Continuous
100
AcDbPolyline
 90
        2
 70
   128
 43
0.0
 10
193.9988735033749
 20
153.0187025612704
 10
193.9988735033749
 20
148.881242582146
  0
LWPOLYLINE
  5
370
330
1F
100
AcDbEntity
  8
0_Pen_No__1
  6
Continuous
100
AcDbPolyline
 90
        2
 70
   128
 43
0.0
 10
191.9301435138125
 20
150.9499725717083
 10
196.0676034929374
 20
150.9499725717083
  0
LWPOLYLINE
  5
371
330
1F
100
AcDbEntity
  8
0_Pen_No__1
  6
Continuous
100
AcDbPolyline
 90
        2
 70
   128
 43
0.0
 10
201.1487086974959
 20
143.0187025612704
 10
201.1487086974959
 20
138.8812425821459
  0
LWPOLYLINE
  5
372
330
1F
100
AcDbEntity
  8
0_Pen_No__1
  6
Continuous
100
AcDbPolyline
 90
        2
 70
   128
 43
0.0
 10
199.0799787079334
 20
140.9499725717083
 10
203.217438687058
 20
140.9499725717083
  0
LWPOLYLINE
  5
373
330
1F
100
AcDbEntity
  8
0_Pen_No__1
  6
Continuous
100
AcDbPolyline
 90
        2
 70
   128
 43
0.0
 10
193.9988735033749
 20
143.0187025612704
 10
193.9988735033749
 20
138.8812425821459
  0
LWPOLYLINE
  5
374
330
1F
100
AcDbEntity
  8
0_Pen_No__1
  6
Continuous
100
AcDbPolyline
 90
        2
 70
   128
 43
0.0
 10
191.9301435138125
 20
140.9499725717083
 10
196.0676034929374
 20
140.9499725717083
  0
LWPOLYLINE
  5
375
330
1F
100
AcDbEntity
  8
0_Pen_No__1
  6
Continuous
100
AcDbPolyline
 90
        2
 70
   128
 43
0.0
 10
201.1487086974959
 20
133.0187025612703
 10
201.1487086974959
 20
128.8812425821457
  0
LWPOLYLINE
  5
376
330
1F
100
AcDbEntity
  8
0_Pen_No__1
  6
Continuous
100
AcDbPolyline
 90
        2
 70
   128
 43
0.0
 10
199.0799787079334
 20
130.9499725717083
 10
203.217438687058
 20
130.9499725717083
  0
LWPOLYLINE
  5
377
330
1F
100
AcDbEntity
  8
0_Pen_No__1
  6
Continuous
100
AcDbPolyline
 90
        2
 70
   128
 43
0.0
 10
193.9988735033749
 20
133.0187025612703
 10
193.9988735033749
 20
128.8812425821457
  0
LWPOLYLINE
  5
378
330
1F
100
AcDbEntity
  8
0_Pen_No__1
  6
Continuous
100
AcDbPolyline
 90
        2
 70
   128
 43
0.0
 10
191.9301435138125
 20
130.9499725717083
 10
196.0676034929374
 20
130.9499725717083
  0
LWPOLYLINE
  5
379
330
1F
100
AcDbEntity
  8
0_Pen_No__1
  6
Continuous
100
AcDbPolyline
 90
        2
 70
   128
 43
0.0
 10
186.8490383092543
 20
133.0187025612703
 10
186.8490383092543
 20
128.8812425821457
  0
LWPOLYLINE
  5
37A
330
1F
100
AcDbEntity
  8
0_Pen_No__1
  6
Continuous
100
AcDbPolyline
 90
        2
 70
   128
 43
0.0
 10
184.7803083196922
 20
130.9499725717083
 10
188.9177682988164
 20
130.9499725717083
  0
LWPOLYLINE
  5
37B
330
1F
100
AcDbEntity
  8
0_Pen_No__1
  6
Continuous
100
AcDbPolyline
 90
        2
 70
   128
 43
0.0
 10
201.1487086974959
 20
123.0187025612703
 10
201.1487086974959
 20
118.8812425821462
  0
LWPOLYLINE
  5
37C
330
1F
100
AcDbEntity
  8
0_Pen_No__1
  6
Continuous
100
AcDbPolyline
 90
        2
 70
   128
 43
0.0
 10
199.0799787079334
 20
120.9499725717083
 10
203.217438687058
 20
120.9499725717083
  0
LWPOLYLINE
  5
37D
330
1F
100
AcDbEntity
  8
0_Pen_No__1
  6
Continuous
100
AcDbPolyline
 90
        2
 70
   128
 43
0.0
 10
193.9988735033749
 20
123.0187025612703
 10
193.9988735033749
 20
118.8812425821462
  0
LWPOLYLINE
  5
37E
330
1F
100
AcDbEntity
  8
0_Pen_No__1
  6
Continuous
100
AcDbPolyline
 90
        2
 70
   128
 43
0.0
 10
191.9301435138125
 20
120.9499725717083
 10
196.0676034929374
 20
120.9499725717083
  0
LWPOLYLINE
  5
37F
330
1F
100
AcDbEntity
  8
0_Pen_No__1
  6
Continuous
100
AcDbPolyline
 90
        2
 70
   128
 43
0.0
 10
186.8490383092543
 20
123.0187025612703
 10
186.8490383092543
 20
118.8812425821462
  0
LWPOLYLINE
  5
380
330
1F
100
AcDbEntity
  8
0_Pen_No__1
  6
Continuous
100
AcDbPolyline
 90
        2
 70
   128
 43
0.0
 10
184.7803083196922
 20
120.9499725717083
 10
188.9177682988164
 20
120.9499725717083
  0
LWPOLYLINE
  5
381
330
1F
100
AcDbEntity
  8
0_Pen_No__1
  6
Continuous
100
AcDbPolyline
 90
        2
 70
   128
 43
0.0
 10
201.1487086974959
 20
113.0187025612703
 10
201.1487086974959
 20
108.8812425821459
  0
LWPOLYLINE
  5
382
330
1F
100
AcDbEntity
  8
0_Pen_No__1
  6
Continuous
100
AcDbPolyline
 90
        2
 70
   128
 43
0.0
 10
199.0799787079334
 20
110.9499725717082
 10
203.217438687058
 20
110.9499725717082
  0
LWPOLYLINE
  5
383
330
1F
100
AcDbEntity
  8
0_Pen_No__1
  6
Continuous
100
AcDbPolyline
 90
        2
 70
   128
 43
0.0
 10
193.9988735033749
 20
113.0187025612703
 10
193.9988735033749
 20
108.8812425821459
  0
LWPOLYLINE
  5
384
330
1F
100
AcDbEntity
  8
0_Pen_No__1
  6
Continuous
100
AcDbPolyline
 90
        2
 70
   128
 43
0.0
 10
191.9301435138125
 20
110.9499725717082
 10
196.0676034929374
 20
110.9499725717082
  0
LWPOLYLINE
  5
385
330
1F
100
AcDbEntity
  8
0_Pen_No__1
  6
Continuous
100
AcDbPolyline
 90
        2
 70
   128
 43
0.0
 10
186.8490383092543
 20
113.0187025612703
 10
186.8490383092543
 20
108.8812425821459
  0
LWPOLYLINE
  5
386
330
1F
100
AcDbEntity
  8
0_Pen_No__1
  6
Continuous
100
AcDbPolyline
 90
        2
 70
   128
 43
0.0
 10
184.7803083196922
 20
110.9499725717082
 10
188.9177682988164
 20
110.9499725717082
  0
LWPOLYLINE
  5
387
330
1F
100
AcDbEntity
  8
0_Pen_No__1
  6
Continuous
100
AcDbPolyline
 90
        2
 70
   128
 43
0.0
 10
201.1487086974959
 20
103.0187025612703
 10
201.1487086974959
 20
98.88124258214614
  0
LWPOLYLINE
  5
388
330
1F
100
AcDbEntity
  8
0_Pen_No__1
  6
Continuous
100
AcDbPolyline
 90
        2
 70
   128
 43
0.0
 10
199.0799787079334
 20
100.9499725717082
 10
203.217438687058
 20
100.9499725717082
  0
LWPOLYLINE
  5
389
330
1F
100
AcDbEntity
  8
0_Pen_No__1
  6
Continuous
100
AcDbPolyline
 90
        2
 70
   128
 43
0.0
 10
193.9988735033749
 20
103.0187025612703
 10
193.9988735033749
 20
98.88124258214614
  0
LWPOLYLINE
  5
38A
330
1F
100
AcDbEntity
  8
0_Pen_No__1
  6
Continuous
100
AcDbPolyline
 90
        2
 70
   128
 43
0.0
 10
191.9301435138125
 20
100.9499725717082
 10
196.0676034929374
 20
100.9499725717082
  0
LWPOLYLINE
  5
38B
330
1F
100
AcDbEntity
  8
0_Pen_No__1
  6
Continuous
100
AcDbPolyline
 90
        2
 70
   128
 43
0.0
 10
186.8490383092543
 20
103.0187025612703
 10
186.8490383092543
 20
98.88124258214614
  0
LWPOLYLINE
  5
38C
330
1F
100
AcDbEntity
  8
0_Pen_No__1
  6
Continuous
100
AcDbPolyline
 90
        2
 70
   128
 43
0.0
 10
184.7803083196922
 20
100.9499725717082
 10
188.9177682988164
 20
100.9499725717082
  0
LWPOLYLINE
  5
38D
330
1F
100
AcDbEntity
  8
0_Pen_No__1
  6
Continuous
100
AcDbPolyline
 90
        2
 70
   128
 43
0.0
 10
201.1487086974959
 20
93.01870256127054
 10
201.1487086974959
 20
88.88124258214614
  0
LWPOLYLINE
  5
38E
330
1F
100
AcDbEntity
  8
0_Pen_No__1
  6
Continuous
100
AcDbPolyline
 90
        2
 70
   128
 43
0.0
 10
199.0799787079334
 20
90.94997257170823
 10
203.217438687058
 20
90.94997257170823
  0
LWPOLYLINE
  5
38F
330
1F
100
AcDbEntity
  8
0_Pen_No__1
  6
Continuous
100
AcDbPolyline
 90
        2
 70
   128
 43
0.0
 10
193.9988735033749
 20
93.01870256127054
 10
193.9988735033749
 20
88.88124258214614
  0
LWPOLYLINE
  5
390
330
1F
100
AcDbEntity
  8
0_Pen_No__1
  6
Continuous
100
AcDbPolyline
 90
        2
 70
   128
 43
0.0
 10
191.9301435138125
 20
90.94997257170823
 10
196.0676034929374
 20
90.94997257170823
  0
LWPOLYLINE
  5
391
330
1F
100
AcDbEntity
  8
0_Pen_No__1
  6
Continuous
100
AcDbPolyline
 90
        2
 70
   128
 43
0.0
 10
186.8490383092543
 20
93.01870256127054
 10
186.8490383092543
 20
88.88124258214614
  0
LWPOLYLINE
  5
392
330
1F
100
AcDbEntity
  8
0_Pen_No__1
  6
Continuous
100
AcDbPolyline
 90
        2
 70
   128
 43
0.0
 10
184.7803083196922
 20
90.94997257170823
 10
188.9177682988164
 20
90.94997257170823
  0
LWPOLYLINE
  5
393
330
1F
100
AcDbEntity
  8
0_Pen_No__1
  6
Continuous
100
AcDbPolyline
 90
        2
 70
   128
 43
0.0
 10
201.1487086974959
 20
83.0187025612703
 10
201.1487086974959
 20
78.88124258214613
  0
LWPOLYLINE
  5
394
330
1F
100
AcDbEntity
  8
0_Pen_No__1
  6
Continuous
100
AcDbPolyline
 90
        2
 70
   128
 43
0.0
 10
199.0799787079334
 20
80.94997257170822
 10
203.217438687058
 20
80.94997257170822
  0
LWPOLYLINE
  5
395
330
1F
100
AcDbEntity
  8
0_Pen_No__1
  6
Continuous
100
AcDbPolyline
 90
        2
 70
   128
 43
0.0
 10
193.9988735033749
 20
83.0187025612703
 10
193.9988735033749
 20
78.88124258214613
  0
LWPOLYLINE
  5
396
330
1F
100
AcDbEntity
  8
0_Pen_No__1
  6
Continuous
100
AcDbPolyline
 90
        2
 70
   128
 43
0.0
 10
191.9301435138125
 20
80.94997257170822
 10
196.0676034929374
 20
80.94997257170822
  0
LWPOLYLINE
  5
397
330
1F
100
AcDbEntity
  8
0_Pen_No__1
  6
Continuous
100
AcDbPolyline
 90
        2
 70
   128
 43
0.0
 10
186.8490383092543
 20
83.0187025612703
 10
186.8490383092543
 20
78.88124258214613
  0
LWPOLYLINE
  5
398
330
1F
100
AcDbEntity
  8
0_Pen_No__1
  6
Continuous
100
AcDbPolyline
 90
        2
 70
   128
 43
0.0
 10
184.7803083196922
 20
80.94997257170822
 10
188.9177682988164
 20
80.94997257170822
  0
LWPOLYLINE
  5
399
330
1F
100
AcDbEntity
  8
0_Pen_No__1
  6
Continuous
100
AcDbPolyline
 90
        2
 70
   128
 43
0.0
 10
177.5354217351701
 20
75.36897359396866
 10
177.5354217351701
 20
77.36897359396866
  0
DIMENSION
  5
3A6
330
1F
100
AcDbEntity
  8
0
  6
Continuous
100
AcDbDimension
  2
*D1
 10
128.5354217351708
 20
266.4138680791073
 30
0.0
 11
152.1639967351709
 21
269.9138680567555
 31
0.0
 70
   160
  1
12mm min gap
 71
     5
 42
-1.0
  3
GENERATED_STYLE__1
100
AcDbAlignedDimension
 13
116.5354217351708
 23
230.68307239215
 33
0.0
 14
128.5354217351708
 24
247.3689735939684
 34
0.0
100
AcDbRotatedDimension
  0
WIPEOUT
  5
3AD
330
1F
100
AcDbEntity
  8
Key_ Sections_Pen_No__1
  6
Wipeout_Contour
 48
1783.061433355453
 92
      296
310
28010000060000000C0000000E000000120000000C00000016000000000000C20C00000014000000010000006C000000070000000400000043AD5E548ACD70401E25F386ACA67440000000000000000051DA10F279C175401E25F386ACA67440000000000000000051DA10F279C175408D3776477766734000000000000000
310
0043AD5E548ACD70408D3776477766734000000000000000000C0000000E0000000700000084000000060000000500000043AD5E548ACD70401E25F386ACA67440000000000000000051DA10F279C175401E25F386ACA67440000000000000000051DA10F279C175408D37764777667340000000000000000043AD5E548ACD
310
70408D37764777667340000000000000000043AD5E548ACD70401E25F386ACA674400000000000000000
100
AcDbWipeout
 90
        0
 10
268.8462718675912
 20
310.4041208856441
 30
0.0
 11
79.24599999999998
 21
0.0
 31
0.0
 12
0.0
 22
20.01299999999998
 32
0.0
 13
1.0
 23
1.0
340
0
 70
    15
280
     1
281
    50
282
    50
283
     0
360
0
 71
     2
 91
        5
 14
-0.5
 24
-0.4999999999999986
 14
0.5
 24
-0.4999999999999986
 14
0.5
 24
0.5000000000000014
 14
-0.5
 24
0.5000000000000014
 14
-0.5
 24
-0.4999999999999986
  0
MTEXT
  5
3B0
102
{ACAD_REACTORS
330
3B1
102
}
330
1F
100
AcDbEntity
  8
Key_ Sections_Pen_No__1
  6
Continuous
100
AcDbMText
 10
270.8462718675912
 20
320.0511151529572
 30
0.0
 40
4.999999999999996
 41
75.246
 71
     4
 72
     1
  1
{Absorbent breather type \Pbuilding underlay }
  7
GENERATED_STYLE_1
 73
     1
 44
0.9578820155126033
  0
LEADER
  5
3B1
330
1F
100
AcDbEntity
  8
Key_ Sections_Pen_No__1
  6
Continuous
100
AcDbLeader
  3
GENERATED_STYLE__2
 72
     1
 73
     0
 74
     0
 40
14.44735012927168
 41
74.58999999999996
 76
     2
 10
91.99999999999963
 20
320.4106208856441
 30
0.0
 10
270.7562718675912
 20
320.0511151529572
 30
0.0
340
3B0
  0
WIPEOUT
  5
3B8
330
1F
100
AcDbEntity
  8
Key_ Sections_Pen_No__1
  6
Wipeout_Contour
 48
1677.930207506941
 92
      296
310
28010000060000000C0000000E000000120000000C00000016000000000000C20C00000014000000010000006C000000070000000400000043AD5E548ACD70405383ADD0B80673400000000000000000AC3E4CD1C9E674405383ADD0B80673400000000000000000AC3E4CD1C9E6744057D9BBFD6A46714000000000000000
310
0043AD5E548ACD704057D9BBFD6A46714000000000000000000C0000000E0000000700000084000000060000000500000043AD5E548ACD70405383ADD0B80673400000000000000000AC3E4CD1C9E674405383ADD0B80673400000000000000000AC3E4CD1C9E6744057D9BBFD6A467140000000000000000043AD5E548ACD
310
704057D9BBFD6A467140000000000000000043AD5E548ACD70405383ADD0B80673400000000000000000
100
AcDbWipeout
 90
        0
 10
268.8462718675912
 20
276.401120885644
 30
0.0
 11
65.57800000000003
 21
0.0
 31
0.0
 12
0.0
 22
28.01900000000001
 32
0.0
 13
1.0
 23
1.0
340
0
 70
    15
280
     1
281
    50
282
    50
283
     0
360
0
 71
     2
 91
        5
 14
-0.5000000000000004
 24
-0.5
 14
0.4999999999999996
 24
-0.5
 14
0.4999999999999996
 24
0.5
 14
-0.5000000000000004
 24
0.5
 14
-0.5000000000000004
 24
-0.5
  0
MTEXT
  5
3B9
102
{ACAD_REACTORS
330
3BA
102
}
330
1F
100
AcDbEntity
  8
Key_ Sections_Pen_No__1
  6
Continuous
100
AcDbMText
 10
270.8462718675912
 20
290.7315379916988
 30
0.0
 40
4.999999999999998
 41
61.578
 71
     4
 72
     1
  1
{Palliside Rusticated \Pweatherboard fixed \Pwith Palliside nails}
  7
GENERATED_STYLE_1
 73
     1
 44
0.9558154610760365
  0
LEADER
  5
3BA
330
1F
100
AcDbEntity
  8
Key_ Sections_Pen_No__1
  6
Continuous
100
AcDbLeader
  3
GENERATED_STYLE__2
 72
     1
 73
     0
 74
     0
 40
21.09150199879206
 41
59.84999999999998
 76
     2
 10
116.5354217351708
 20
290.4106208856441
 30
0.0
 10
270.7562718675912
 20
290.7315379916988
 30
0.0
340
3B9
  0
WIPEOUT
  5
3BB
330
1F
100
AcDbEntity
  8
Key_ Sections_Pen_No__1
  6
Wipeout_Contour
 48
1414.7145299539
 92
      296
310
28010000060000000C0000000E000000120000000C00000016000000000000C20C00000014000000010000006C000000070000000400000043AD5E548ACD7040C3538E4619C66A400000000000000000A5BDB68D3EE87240C3538E4619C66A400000000000000000A5BDB68D3EE87240E4947FAAE545694000000000000000
310
0043AD5E548ACD7040E4947FAAE545694000000000000000000C0000000E0000000700000084000000060000000500000043AD5E548ACD7040C3538E4619C66A400000000000000000A5BDB68D3EE87240C3538E4619C66A400000000000000000A5BDB68D3EE87240E4947FAAE5456940000000000000000043AD5E548ACD
310
7040E4947FAAE5456940000000000000000043AD5E548ACD7040C3538E4619C66A400000000000000000
100
AcDbWipeout
 90
        0
 10
268.8462718675912
 20
202.1842854015187
 30
0.0
 11
33.66899999999998
 21
0.0
 31
0.0
 12
0.0
 22
12.00629999999998
 32
0.0
 13
1.0
 23
1.0
340
0
 70
    15
280
     1
281
    50
282
    50
283
     0
360
0
 71
     2
 91
        5
 14
-0.5
 24
-0.4999999999999988
 14
0.5
 24
-0.4999999999999988
 14
0.5
 24
0.5000000000000012
 14
-0.5
 24
0.5000000000000012
 14
-0.5
 24
-0.4999999999999988
  0
MTEXT
  5
3BC
102
{ACAD_REACTORS
330
3BD
102
}
330
1F
100
AcDbEntity
  8
Key_ Sections_Pen_No__1
  6
Continuous
100
AcDbMText
 10
270.8462718675912
 20
207.8277282586615
 30
0.0
 40
4.999999999999998
 41
29.669
 71
     4
 72
     1
  1
{Deck joist}
  7
GENERATED_STYLE_1
 73
     1
 44
1.0
  0
LEADER
  5
3BD
330
1F
100
AcDbEntity
  8
Key_ Sections_Pen_No__1
  6
Continuous
100
AcDbLeader
  3
GENERATED_STYLE__2
 72
     1
 73
     0
 74
     0
 40
14.79833333333333
 41
15.33499999999999
 76
     2
 10
238.8462718675923
 20
208.1874354015186
 30
0.0
 10
270.7562718675912
 20
207.8277282586615
 30
0.0
340
3BC
  0
WIPEOUT
  5
3BE
330
1F
100
AcDbEntity
  8
Key_ Sections_Pen_No__1
  6
Wipeout_Contour
 48
1582.094688453586
 92
      296
310
28010000060000000C0000000E000000120000000C00000016000000000000C20C00000014000000010000006C000000070000000400000043AD5E548ACD7040724E155715286F400000000000000000AB3E4CD1C9667640724E155715286F400000000000000000AB3E4CD1C96676404F731BD8AAA76C4000000000000000
310
0043AD5E548ACD70404F731BD8AAA76C4000000000000000000C0000000E0000000700000084000000060000000500000043AD5E548ACD7040724E155715286F400000000000000000AB3E4CD1C9667640724E155715286F400000000000000000AB3E4CD1C96676404F731BD8AAA76C40000000000000000043AD5E548ACD
310
70404F731BD8AAA76C40000000000000000043AD5E548ACD7040724E155715286F400000000000000000
100
AcDbWipeout
 90
        0
 10
268.8462718675912
 20
229.2396050010816
 30
0.0
 11
89.57799999999997
 21
0.0
 31
0.0
 12
0.0
 22
20.01300000000001
 32
0.0
 13
1.0
 23
1.0
340
0
 70
    15
280
     1
281
    50
282
    50
283
     0
360
0
 71
     2
 91
        5
 14
-0.5
 24
-0.5000000000000007
 14
0.5
 24
-0.5000000000000007
 14
0.5
 24
0.4999999999999993
 14
-0.5
 24
0.4999999999999993
 14
-0.5
 24
-0.5000000000000007
  0
MTEXT
  5
3BF
102
{ACAD_REACTORS
330
3C0
102
}
330
1F
100
AcDbEntity
  8
Key_ Sections_Pen_No__1
  6
Continuous
100
AcDbMText
 10
270.8462718675912
 20
238.9260278398232
 30
0.0
 40
4.999999999999996
 41
85.578
 71
     4
 72
     1
  1
{H3.1 timber packer behind \Pboard at point of penetration}
  7
GENERATED_STYLE_1
 73
     1
 44
0.4766923181710819
  0
LEADER
  5
3C0
330
1F
100
AcDbEntity
  8
Key_ Sections_Pen_No__1
  6
Continuous
100
AcDbLeader
  3
GENERATED_STYLE__2
 72
     1
 73
     0
 74
     0
 40
14.37992466292599
 41
80.77999999999994
 76
     3
 10
100.8868826714391
 20
179.2461050010816
 30
0.0
 10
110.3909226944274
 20
212.6412257151331
 30
0.0
 10
270.7562718675912
 20
238.9260278398232
 30
0.0
340
3BF
  0
WIPEOUT
  5
3C1
330
1F
100
AcDbEntity
  8
Key_ Sections_Pen_No__1
  6
Wipeout_Contour
 48
1379.413108357144
 92
      296
310
28010000060000000C0000000E000000120000000C00000016000000000000C20C00000014000000010000006C000000070000000400000043AD5E548ACD7040A2D306A6C4FC6540000000000000000068B3DFE9CD2A7540A2D306A6C4FC6540000000000000000068B3DFE9CD2A7540AA7F2300297C624000000000000000
310
0043AD5E548ACD7040AA7F2300297C624000000000000000000C0000000E0000000700000084000000060000000500000043AD5E548ACD7040A2D306A6C4FC6540000000000000000068B3DFE9CD2A7540A2D306A6C4FC6540000000000000000068B3DFE9CD2A7540AA7F2300297C6240000000000000000043AD5E548ACD
310
7040AA7F2300297C6240000000000000000043AD5E548ACD7040A2D306A6C4FC65400000000000000000
100
AcDbWipeout
 90
        0
 10
268.8462718675912
 20
147.880004948934
 30
0.0
 11
69.82900000000001
 21
0.0
 31
0.0
 12
0.0
 22
28.01900000000001
 32
0.0
 13
1.0
 23
1.0
340
0
 70
    15
280
     1
281
    50
282
    50
283
     0
360
0
 71
     2
 91
        5
 14
-0.5000000000000004
 24
-0.5
 14
0.4999999999999996
 24
-0.5
 14
0.4999999999999996
 24
0.5
 14
-0.5000000000000004
 24
0.5
 14
-0.5000000000000004
 24
-0.5
  0
MTEXT
  5
3C2
102
{ACAD_REACTORS
330
3C3
102
}
330
1F
100
AcDbEntity
  8
Key_ Sections_Pen_No__1
  6
Continuous
100
AcDbMText
 10
270.8462718675912
 20
161.5298506264173
 30
0.0
 40
4.999999999999998
 41
65.829
 71
     4
 72
     1
  1
{50x3mm thick EPDM \Pwasher. Hole to be \Ptight fit around bolt}
  7
GENERATED_STYLE_1
 73
     1
 44
0.9533197673736266
  0
LEADER
  5
3C3
330
1F
100
AcDbEntity
  8
Key_ Sections_Pen_No__1
  6
Continuous
100
AcDbLeader
  3
GENERATED_STYLE__2
 72
     1
 73
     0
 74
     0
 40
22.45772918490791
 41
64.33499999999997
 76
     2
 10
119.6034631979044
 20
161.889504948934
 30
0.0
 10
270.7562718675912
 20
161.5298506264173
 30
0.0
340
3C2
  0
WIPEOUT
  5
3C4
330
1F
100
AcDbEntity
  8
Key_ Sections_Pen_No__1
  6
Wipeout_Contour
 48
1300.593512876874
 92
      296
310
28010000060000000C0000000E000000120000000C00000016000000000000C20C00000014000000010000006C000000070000000400000048AD5E548ACD7040F545F084F9FB60400000000000000000695DD1BC1B9F7440F545F084F9FB60400000000000000000695DD1BC1B9F7440A4D5EC0B1EF75C4000000000000000
310
0048AD5E548ACD7040A4D5EC0B1EF75C4000000000000000000C0000000E0000000700000084000000060000000500000048AD5E548ACD7040F545F084F9FB60400000000000000000695DD1BC1B9F7440F545F084F9FB60400000000000000000695DD1BC1B9F7440A4D5EC0B1EF75C40000000000000000048AD5E548ACD
310
7040A4D5EC0B1EF75C40000000000000000048AD5E548ACD7040F545F084F9FB60400000000000000000
100
AcDbWipeout
 90
        0
 10
268.8462718675914
 20
115.8612088978612
 30
0.0
 11
61.09800000000001
 21
0.0
 31
0.0
 12
0.0
 22
20.01300000000001
 32
0.0
 13
1.0
 23
1.0
340
0
 70
    15
280
     1
281
    50
282
    50
283
     0
360
0
 71
     2
 91
        5
 14
-0.4999999999999996
 24
-0.5
 14
0.5000000000000004
 24
-0.5
 14
0.5000000000000004
 24
0.5
 14
-0.4999999999999996
 24
0.5
 14
-0.4999999999999996
 24
-0.5
  0
MTEXT
  5
3C5
102
{ACAD_REACTORS
330
3C6
102
}
330
1F
100
AcDbEntity
  8
Key_ Sections_Pen_No__1
  6
Continuous
100
AcDbMText
 10
270.8462718675915
 20
125.5082031651743
 30
0.0
 40
4.999999999999998
 41
57.09800000000001
 71
     4
 72
     1
  1
{Refer to NZS3604 \Pfor fixing detail}
  7
GENERATED_STYLE_1
 73
     1
 44
0.9387880218479
  0
LEADER
  5
3C6
330
1F
100
AcDbEntity
  8
Key_ Sections_Pen_No__1
  6
Continuous
100
AcDbLeader
  3
GENERATED_STYLE__2
 72
     1
 73
     0
 74
     0
 40
14.45303049725623
 41
55.35999999999998
 76
     3
 10
189.3703742381308
 20
143.1439735939686
 30
0.0
 10
254.1846782080302
 20
127.4244775711186
 30
0.0
 10
270.7562718675915
 20
125.5082031651743
 30
0.0
340
3C5
  0
WIPEOUT
  5
3C7
330
1F
100
AcDbEntity
  8
Key_ Sections_Pen_No__1
  6
Wipeout_Contour
 48
1267.69481998764
 92
      296
310
28010000060000000C0000000E000000120000000C00000016000000000000C20C00000014000000010000006C000000070000000400000041AD5E548ACD7040ED815F4172585A400000000000000000A1922F7765317540ED815F4172585A400000000000000000A1922F776531754061157845C856514000000000000000
310
0041AD5E548ACD704061157845C856514000000000000000000C0000000E0000000700000084000000060000000500000041AD5E548ACD7040ED815F4172585A400000000000000000A1922F7765317540ED815F4172585A400000000000000000A1922F776531754061157845C8565140000000000000000041AD5E548ACD
310
704061157845C8565140000000000000000041AD5E548ACD7040ED815F4172585A400000000000000000
100
AcDbWipeout
 90
        0
 10
268.846271867591
 20
69.35597359396844
 30
0.0
 11
70.24099999999999
 21
0.0
 31
0.0
 12
0.0
 22
36.02600000000001
 32
0.0
 13
1.0
 23
1.0
340
0
 70
    15
280
     1
281
    50
282
    50
283
     0
360
0
 71
     2
 91
        5
 14
-0.5
 24
-0.5
 14
0.5
 24
-0.5
 14
0.5
 24
0.5
 14
-0.5
 24
0.5
 14
-0.5
 24
-0.5
  0
MTEXT
  5
3C8
102
{ACAD_REACTORS
330
3C9
102
}
330
1F
100
AcDbEntity
  8
Key_ Sections_Pen_No__1
  6
Continuous
100
AcDbMText
 10
270.846271867591
 20
87.00967068162204
 30
0.0
 40
4.999999999999999
 41
66.241
 71
     4
 72
     1
  1
{12mm min thick H3.2 \Ptimber packer at bolt \Pfixings. Size to suit \Pstringer}
  7
GENERATED_STYLE_1
 73
     1
 44
0.955785576561024
  0
LEADER
  5
3C9
330
1F
100
AcDbEntity
  8
Key_ Sections_Pen_No__1
  6
Continuous
100
AcDbLeader
  3
GENERATED_STYLE__2
 72
     1
 73
     0
 74
     0
 40
30.4599968995645
 41
64.41499999999999
 76
     2
 10
132.53542173517
 20
87.36897359396845
 30
0.0
 10
270.7562718675911
 20
87.00967068162204
 30
0.0
340
3C8
  0
WIPEOUT
  5
3CA
330
1F
100
AcDbEntity
  8
Key_ Sections_Pen_No__1
  6
Wipeout_Contour
 48
1154.657021900557
 92
      296
310
28010000060000000C0000000E000000120000000C00000016000000000000C20C00000014000000010000006C000000070000000400000043AD5E548ACD70401915F5BEA1AF4F40000000000000000024287302D28C72401915F5BEA1AF4F40000000000000000024287302D28C72409B19BA4ED3AE494000000000000000
310
0043AD5E548ACD70409B19BA4ED3AE494000000000000000000C0000000E0000000700000084000000060000000500000043AD5E548ACD70401915F5BEA1AF4F40000000000000000024287302D28C72401915F5BEA1AF4F40000000000000000024287302D28C72409B19BA4ED3AE4940000000000000000043AD5E548ACD
310
70409B19BA4ED3AE4940000000000000000043AD5E548ACD70401915F5BEA1AF4F400000000000000000
100
AcDbWipeout
 90
        0
 10
268.8462718675912
 20
51.36582359396854
 30
0.0
 11
27.95499999999998
 21
0.0
 31
0.0
 12
0.0
 22
12.0063
 32
0.0
 13
1.0
 23
1.0
340
0
 70
    15
280
     1
281
    50
282
    50
283
     0
360
0
 71
     2
 91
        5
 14
-0.500000000000001
 24
-0.5
 14
0.499999999999999
 24
-0.5
 14
0.499999999999999
 24
0.5
 14
-0.500000000000001
 24
0.5
 14
-0.500000000000001
 24
-0.5
  0
MTEXT
  5
3CB
102
{ACAD_REACTORS
330
3CC
102
}
330
1F
100
AcDbEntity
  8
Key_ Sections_Pen_No__1
  6
Continuous
100
AcDbMText
 10
270.8462718675912
 20
57.00926645111139
 30
0.0
 40
4.999999999999998
 41
23.95500000000001
 71
     4
 72
     1
  1
{Stringer}
  7
GENERATED_STYLE_1
 73
     1
 44
1.0
  0
LEADER
  5
3CC
330
1F
100
AcDbEntity
  8
Key_ Sections_Pen_No__1
  6
Continuous
100
AcDbLeader
  3
GENERATED_STYLE__2
 72
     1
 73
     0
 74
     0
 40
6.549999999999997
 41
24.20999999999999
 76
     3
 10
155.0354217351705
 20
77.36897359396855
 30
0.0
 10
156.7400816703413
 20
67.06941341439209
 30
0.0
 10
270.7562718675912
 20
57.00926645111139
 30
0.0
340
3CB
  0
WIPEOUT
  5
3CD
330
1F
100
AcDbEntity
  8
Key_ Sections_Pen_No__1
  6
Wipeout_Contour
 48
1206.147026151069
 92
      296
310
28010000060000000C0000000E000000120000000C00000016000000000000C20C00000014000000010000006C000000070000000400000043AD5E548ACD70404C3F9ED271B044400000000000000000C898B00CA9B074404C3F9ED271B044400000000000000000C898B00CA9B07440B2BD43EC0CB82A4000000000000000
310
0043AD5E548ACD7040B2BD43EC0CB82A4000000000000000000C0000000E0000000700000084000000060000000500000043AD5E548ACD70404C3F9ED271B044400000000000000000C898B00CA9B074404C3F9ED271B044400000000000000000C898B00CA9B07440B2BD43EC0CB82A40000000000000000043AD5E548ACD
310
7040B2BD43EC0CB82A40000000000000000043AD5E548ACD70404C3F9ED271B044400000000000000000
100
AcDbWipeout
 90
        0
 10
268.8462718675912
 20
13.35947359396855
 30
0.0
 11
62.19499999999999
 21
0.0
 31
0.0
 12
0.0
 22
28.019
 32
0.0
 13
1.0
 23
1.0
340
0
 70
    15
280
     1
281
    50
282
    50
283
     0
360
0
 71
     2
 91
        5
 14
-0.5000000000000004
 24
-0.5000000000000001
 14
0.4999999999999996
 24
-0.5000000000000001
 14
0.4999999999999996
 24
0.4999999999999999
 14
-0.5000000000000004
 24
0.4999999999999999
 14
-0.5000000000000004
 24
-0.5000000000000001
  0
MTEXT
  5
3CE
102
{ACAD_REACTORS
330
3CF
102
}
330
1F
100
AcDbEntity
  8
Key_ Sections_Pen_No__1
  6
Continuous
100
AcDbMText
 10
270.8462718675912
 20
27.04874784288047
 30
0.0
 40
4.999999999999999
 41
58.19499999999999
 71
     4
 72
     1
  1
{Structural blocking \Pto designers \Prequirements}
  7
GENERATED_STYLE_1
 73
     1
 44
0.9545212740378539
  0
LEADER
  5
3CF
330
1F
100
AcDbEntity
  8
Key_ Sections_Pen_No__1
  6
Continuous
100
AcDbLeader
  3
GENERATED_STYLE__2
 72
     1
 73
     0
 74
     0
 40
22.37482220892411
 41
56.61999999999999
 76
     3
 10
67.49999999999956
 20
77.36897359396855
 30
0.0
 10
73.34760598542738
 20
50.91684688429863
 30
0.0
 10
270.7562718675912
 20
27.04874784288047
 30
0.0
340
3CE
  0
ENDSEC
  0
SECTION
  2
OBJECTS
  0
DICTIONARY
  5
C
330
0
100
AcDbDictionary
281
     1
  3
ACAD_GROUP
350
D
  3
ACAD_LAYOUT
350
1A
  3
ACAD_MATERIAL
350
3B
  3
ACAD_MLEADERSTYLE
350
420
  3
ACAD_MLINESTYLE
350
17
  3
ACAD_PLOTSETTINGS
350
19
  3
ACAD_PLOTSTYLENAME
350
E
  3
ACAD_SCALELIST
350
3D3
  3
ACAD_TABLESTYLE
350
41F
  3
ACAD_VISUALSTYLE
350
2A
  3
AcDbVariableDictionary
350
3F7
  3
WATERMARKS
350
3F5
  0
DICTIONARY
  5
D
102
{ACAD_REACTORS
330
C
102
}
330
C
100
AcDbDictionary
281
     1
  0
DICTIONARY
  5
1A
102
{ACAD_REACTORS
330
C
102
}
330
C
100
AcDbDictionary
281
     1
  3
Layout1
350
1E
  3
Layout2
350
26
  3
Model
350
22
  0
DICTIONARY
  5
3B
102
{ACAD_REACTORS
330
C
102
}
330
C
100
AcDbDictionary
281
     1
  3
ByBlock
350
3D
  3
ByLayer
350
3C
  3
Global
350
3E
  0
DICTIONARY
  5
420
102
{ACAD_REACTORS
330
C
102
}
330
C
100
AcDbDictionary
281
     1
  0
DICTIONARY
  5
17
102
{ACAD_REACTORS
330
C
102
}
330
C
100
AcDbDictionary
281
     1
  3
Standard
350
18
  0
DICTIONARY
  5
19
102
{ACAD_REACTORS
330
C
102
}
330
C
100
AcDbDictionary
281
     1
  0
ACDBDICTIONARYWDFLT
  5
E
102
{ACAD_REACTORS
330
C
102
}
330
C
100
AcDbDictionary
281
     1
  3
Normal
350
F
100
AcDbDictionaryWithDefault
340
F
  0
DICTIONARY
  5
3D3
102
{ACAD_REACTORS
330
C
102
}
330
C
100
AcDbDictionary
281
     1
  3
A0
350
3D4
  3
A1
350
3D5
  3
A2
350
3D6
  3
A3
350
3D7
  3
A4
350
3D8
  3
A5
350
3D9
  3
A6
350
3DA
  3
A7
350
3DB
  3
A8
350
3DC
  3
A9
350
3DD
  3
B0
350
3DE
  3
B1
350
3DF
  3
B2
350
3E0
  3
B3
350
3E1
  3
B4
350
3E2
  3
B5
350
3E3
  3
B6
350
3E4
  3
B7
350
3E5
  3
B8
350
3E6
  3
B9
350
3E7
  3
C0
350
3E8
  3
C1
350
3E9
  3
C2
350
3EA
  3
C3
350
3EB
  3
C4
350
3EC
  3
C5
350
3ED
  3
C6
350
3EE
  3
C7
350
3EF
  3
C8
350
3F0
  3
C9
350
3F1
  3
D0
350
3F2
  3
D1
350
3F3
  3
D2
350
3F4
  0
DICTIONARY
  5
41F
102
{ACAD_REACTORS
330
C
102
}
330
C
100
AcDbDictionary
281
     1
  0
DICTIONARY
  5
2A
102
{ACAD_REACTORS
330
C
102
}
330
C
100
AcDbDictionary
281
     1
  3
2dWireframe
350
2F
  3
3D Hidden
350
31
  3
3dWireframe
350
30
  3
Basic
350
32
  3
Brighten
350
36
  3
ColorChange
350
3A
  3
Conceptual
350
34
  3
Dim
350
35
  3
Facepattern
350
39
  3
Flat
350
2B
  3
FlatWithEdges
350
2C
  3
Gouraud
350
2D
  3
GouraudWithEdges
350
2E
  3
Linepattern
350
38
  3
Realistic
350
33
  3
Thicken
350
37
  0
DICTIONARY
  5
3F7
102
{ACAD_REACTORS
330
C
102
}
330
C
100
AcDbDictionary
281
     1
  3
CANNOSCALE
350
3F8
  3
XCLIPFRAME
350
421
  0
DICTIONARY
  5
3F5
102
{ACAD_REACTORS
330
C
102
}
330
C
100
AcDbDictionary
281
     1
  3
AC_WATERMARK
350
3F6
  0
LAYOUT
  5
1E
102
{ACAD_REACTORS
330
1A
102
}
330
1A
100
AcDbPlotSettings
  1

  2
none_device
  4

  6

 40
0.0
 41
0.0
 42
0.0
 43
0.0
 44
0.0
 45
0.0
 46
0.0
 47
0.0
 48
0.0
 49
0.0
140
0.0
141
0.0
142
1.0
143
1.0
 70
   688
 72
     0
 73
     0
 74
     5
  7

 75
    16
 76
     0
 77
     2
 78
   300
147
1.0
148
0.0
149
0.0
100
AcDbLayout
  1
Layout1
 70
     1
 71
     1
 10
0.0
 20
0.0
 11
12.0
 21
9.0
 12
0.0
 22
0.0
 32
0.0
 14
1.000000000000000E+20
 24
1.000000000000000E+20
 34
1.000000000000000E+20
 15
-1.000000000000000E+20
 25
-1.000000000000000E+20
 35
-1.000000000000000E+20
146
0.0
 13
0.0
 23
0.0
 33
0.0
 16
1.0
 26
0.0
 36
0.0
 17
0.0
 27
1.0
 37
0.0
 76
     0
330
1B
  0
LAYOUT
  5
26
102
{ACAD_REACTORS
330
1A
102
}
330
1A
100
AcDbPlotSettings
  1

  2
none_device
  4

  6

 40
0.0
 41
0.0
 42
0.0
 43
0.0
 44
0.0
 45
0.0
 46
0.0
 47
0.0
 48
0.0
 49
0.0
140
0.0
141
0.0
142
1.0
143
1.0
 70
   688
 72
     0
 73
     0
 74
     5
  7

 75
    16
 76
     0
 77
     2
 78
   300
147
1.0
148
0.0
149
0.0
100
AcDbLayout
  1
Layout2
 70
     1
 71
     2
 10
0.0
 20
0.0
 11
0.0
 21
0.0
 12
0.0
 22
0.0
 32
0.0
 14
0.0
 24
0.0
 34
0.0
 15
0.0
 25
0.0
 35
0.0
146
0.0
 13
0.0
 23
0.0
 33
0.0
 16
1.0
 26
0.0
 36
0.0
 17
0.0
 27
1.0
 37
0.0
 76
     0
330
23
  0
LAYOUT
  5
22
102
{ACAD_REACTORS
330
1A
102
}
330
1A
100
AcDbPlotSettings
  1

  2
none_device
  4

  6

 40
0.0
 41
0.0
 42
0.0
 43
0.0
 44
0.0
 45
0.0
 46
0.0
 47
0.0
 48
0.0
 49
0.0
140
0.0
141
0.0
142
1.0
143
1.0
 70
  1712
 72
     0
 73
     0
 74
     0
  7

 75
     0
 76
     0
 77
     2
 78
   300
147
1.0
148
0.0
149
0.0
100
AcDbLayout
  1
Model
 70
     1
 71
     0
 10
0.0
 20
0.0
 11
12.0
 21
9.0
 12
0.0
 22
0.0
 32
0.0
 14
1.000000000000000E+20
 24
1.000000000000000E+20
 34
1.000000000000000E+20
 15
-1.000000000000000E+20
 25
-1.000000000000000E+20
 35
-1.000000000000000E+20
146
0.0
 13
0.0
 23
0.0
 33
0.0
 16
1.0
 26
0.0
 36
0.0
 17
0.0
 27
1.0
 37
0.0
 76
     0
330
1F
331
29
  0
MATERIAL
  5
3D
102
{ACAD_REACTORS
330
3B
102
}
102
{ACAD_XDICTIONARY
360
41B
102
}
330
3B
100
AcDbMaterial
  1
ByBlock
  0
MATERIAL
  5
3C
102
{ACAD_REACTORS
330
3B
102
}
102
{ACAD_XDICTIONARY
360
419
102
}
330
3B
100
AcDbMaterial
  1
ByLayer
  0
MATERIAL
  5
3E
102
{ACAD_REACTORS
330
3B
102
}
102
{ACAD_XDICTIONARY
360
41D
102
}
330
3B
100
AcDbMaterial
  1
Global
  0
MLINESTYLE
  5
18
102
{ACAD_REACTORS
330
17
102
}
330
17
100
AcDbMlineStyle
  2
Standard
 70
     0
  3

 62
   256
 51
90.0
 52
90.0
 71
     2
 49
0.5
 62
   256
  6
BYLAYER
 49
-0.5
 62
   256
  6
BYLAYER
  0
ACDBPLACEHOLDER
  5
F
102
{ACAD_REACTORS
330
E
102
}
330
E
  0
SCALE
  5
3D4
102
{ACAD_REACTORS
330
3D3
102
}
330
3D3
100
AcDbScale
 70
     0
300
1:1
140
1.0
141
1.0
290
     1
  0
SCALE
  5
3D5
102
{ACAD_REACTORS
330
3D3
102
}
330
3D3
100
AcDbScale
 70
     0
300
1:2
140
1.0
141
2.0
290
     0
  0
SCALE
  5
3D6
102
{ACAD_REACTORS
330
3D3
102
}
330
3D3
100
AcDbScale
 70
     0
300
1:4
140
1.0
141
4.0
290
     0
  0
SCALE
  5
3D7
102
{ACAD_REACTORS
330
3D3
102
}
330
3D3
100
AcDbScale
 70
     0
300
1:5
140
1.0
141
5.0
290
     0
  0
SCALE
  5
3D8
102
{ACAD_REACTORS
330
3D3
102
}
330
3D3
100
AcDbScale
 70
     0
300
1:8
140
1.0
141
8.0
290
     0
  0
SCALE
  5
3D9
102
{ACAD_REACTORS
330
3D3
102
}
330
3D3
100
AcDbScale
 70
     0
300
1:10
140
1.0
141
10.0
290
     0
  0
SCALE
  5
3DA
102
{ACAD_REACTORS
330
3D3
102
}
330
3D3
100
AcDbScale
 70
     0
300
1:16
140
1.0
141
16.0
290
     0
  0
SCALE
  5
3DB
102
{ACAD_REACTORS
330
3D3
102
}
330
3D3
100
AcDbScale
 70
     0
300
1:20
140
1.0
141
20.0
290
     0
  0
SCALE
  5
3DC
102
{ACAD_REACTORS
330
3D3
102
}
330
3D3
100
AcDbScale
 70
     0
300
1:30
140
1.0
141
30.0
290
     0
  0
SCALE
  5
3DD
102
{ACAD_REACTORS
330
3D3
102
}
330
3D3
100
AcDbScale
 70
     0
300
1:40
140
1.0
141
40.0
290
     0
  0
SCALE
  5
3DE
102
{ACAD_REACTORS
330
3D3
102
}
330
3D3
100
AcDbScale
 70
     0
300
1:50
140
1.0
141
50.0
290
     0
  0
SCALE
  5
3DF
102
{ACAD_REACTORS
330
3D3
102
}
330
3D3
100
AcDbScale
 70
     0
300
1:100
140
1.0
141
100.0
290
     0
  0
SCALE
  5
3E0
102
{ACAD_REACTORS
330
3D3
102
}
330
3D3
100
AcDbScale
 70
     0
300
2:1
140
2.0
141
1.0
290
     0
  0
SCALE
  5
3E1
102
{ACAD_REACTORS
330
3D3
102
}
330
3D3
100
AcDbScale
 70
     0
300
4:1
140
4.0
141
1.0
290
     0
  0
SCALE
  5
3E2
102
{ACAD_REACTORS
330
3D3
102
}
330
3D3
100
AcDbScale
 70
     0
300
8:1
140
8.0
141
1.0
290
     0
  0
SCALE
  5
3E3
102
{ACAD_REACTORS
330
3D3
102
}
330
3D3
100
AcDbScale
 70
     0
300
10:1
140
10.0
141
1.0
290
     0
  0
SCALE
  5
3E4
102
{ACAD_REACTORS
330
3D3
102
}
330
3D3
100
AcDbScale
 70
     0
300
100:1
140
100.0
141
1.0
290
     0
  0
SCALE
  5
3E5
102
{ACAD_REACTORS
330
3D3
102
}
330
3D3
100
AcDbScale
 70
     0
300
1/128" = 1'-0"
140
0.0078125
141
12.0
290
     0
  0
SCALE
  5
3E6
102
{ACAD_REACTORS
330
3D3
102
}
330
3D3
100
AcDbScale
 70
     0
300
1/64" = 1'-0"
140
0.015625
141
12.0
290
     0
  0
SCALE
  5
3E7
102
{ACAD_REACTORS
330
3D3
102
}
330
3D3
100
AcDbScale
 70
     0
300
1/32" = 1'-0"
140
0.03125
141
12.0
290
     0
  0
SCALE
  5
3E8
102
{ACAD_REACTORS
330
3D3
102
}
330
3D3
100
AcDbScale
 70
     0
300
1/16" = 1'-0"
140
0.0625
141
12.0
290
     0
  0
SCALE
  5
3E9
102
{ACAD_REACTORS
330
3D3
102
}
330
3D3
100
AcDbScale
 70
     0
300
3/32" = 1'-0"
140
0.09375
141
12.0
290
     0
  0
SCALE
  5
3EA
102
{ACAD_REACTORS
330
3D3
102
}
330
3D3
100
AcDbScale
 70
     0
300
1/8" = 1'-0"
140
0.125
141
12.0
290
     0
  0
SCALE
  5
3EB
102
{ACAD_REACTORS
330
3D3
102
}
330
3D3
100
AcDbScale
 70
     0
300
3/16" = 1'-0"
140
0.1875
141
12.0
290
     0
  0
SCALE
  5
3EC
102
{ACAD_REACTORS
330
3D3
102
}
330
3D3
100
AcDbScale
 70
     0
300
1/4" = 1'-0"
140
0.25
141
12.0
290
     0
  0
SCALE
  5
3ED
102
{ACAD_REACTORS
330
3D3
102
}
330
3D3
100
AcDbScale
 70
     0
300
3/8" = 1'-0"
140
0.375
141
12.0
290
     0
  0
SCALE
  5
3EE
102
{ACAD_REACTORS
330
3D3
102
}
330
3D3
100
AcDbScale
 70
     0
300
1/2" = 1'-0"
140
0.5
141
12.0
290
     0
  0
SCALE
  5
3EF
102
{ACAD_REACTORS
330
3D3
102
}
330
3D3
100
AcDbScale
 70
     0
300
3/4" = 1'-0"
140
0.75
141
12.0
290
     0
  0
SCALE
  5
3F0
102
{ACAD_REACTORS
330
3D3
102
}
330
3D3
100
AcDbScale
 70
     0
300
1" = 1'-0"
140
1.0
141
12.0
290
     0
  0
SCALE
  5
3F1
102
{ACAD_REACTORS
330
3D3
102
}
330
3D3
100
AcDbScale
 70
     0
300
1-1/2" = 1'-0"
140
1.5
141
12.0
290
     0
  0
SCALE
  5
3F2
102
{ACAD_REACTORS
330
3D3
102
}
330
3D3
100
AcDbScale
 70
     0
300
3" = 1'-0"
140
3.0
141
12.0
290
     0
  0
SCALE
  5
3F3
102
{ACAD_REACTORS
330
3D3
102
}
330
3D3
100
AcDbScale
 70
     0
300
6" = 1'-0"
140
6.0
141
12.0
290
     0
  0
SCALE
  5
3F4
102
{ACAD_REACTORS
330
3D3
102
}
330
3D3
100
AcDbScale
 70
     0
300
1'-0" = 1'-0"
140
12.0
141
12.0
290
     0
  0
VISUALSTYLE
  5
2F
102
{ACAD_REACTORS
330
2A
102
}
102
{ACAD_XDICTIONARY
360
401
102
}
330
2A
100
AcDbVisualStyle
  2
2dWireframe
 70
     4
 71
     0
 72
     2
 73
     0
 90
        0
 40
-0.6
 41
-30.0
 62
     5
 63
     7
421
 16777215
 74
     1
 91
        4
 64
     7
 65
   257
 75
     1
175
     1
 42
1.0
 92
        0
 66
   257
 43
1.0
 76
     1
 77
     6
 78
     2
 67
     7
 79
     5
170
     0
171
     0
290
     0
174
     0
 93
        1
 44
0.0
173
     0
291
     0
 45
0.0
1001
ACAD
1000
AcDbSavedByObjectVersion
1070
     0
  0
VISUALSTYLE
  5
31
102
{ACAD_REACTORS
330
2A
102
}
102
{ACAD_XDICTIONARY
360
405
102
}
330
2A
100
AcDbVisualStyle
  2
3D Hidden
 70
     6
 71
     1
 72
     2
 73
     2
 90
        0
 40
-0.6
 41
-30.0
 62
     5
 63
     7
421
 16777215
 74
     2
 91
        2
 64
     7
 65
   257
 75
     2
175
     1
 42
40.0
 92
        0
 66
   257
 43
1.0
 76
     1
 77
     6
 78
     2
 67
     7
 79
     3
170
     0
171
     0
290
     0
174
     0
 93
        1
 44
0.0
173
     0
291
     0
 45
0.0
1001
ACAD
1000
AcDbSavedByObjectVersion
1070
     0
  0
VISUALSTYLE
  5
30
102
{ACAD_REACTORS
330
2A
102
}
102
{ACAD_XDICTIONARY
360
403
102
}
330
2A
100
AcDbVisualStyle
  2
3dWireframe
 70
     5
 71
     0
 72
     2
 73
     0
 90
        0
 40
-0.6
 41
-30.0
 62
     5
 63
     7
421
 16777215
 74
     1
 91
        4
 64
     7
 65
   257
 75
     1
175
     1
 42
1.0
 92
        0
 66
   257
 43
1.0
 76
     1
 77
     6
 78
     2
 67
     7
 79
     5
170
     0
171
     0
290
     0
174
     0
 93
        1
 44
0.0
173
     0
291
     0
 45
0.0
1001
ACAD
1000
AcDbSavedByObjectVersion
1070
     0
  0
VISUALSTYLE
  5
32
102
{ACAD_REACTORS
330
2A
102
}
102
{ACAD_XDICTIONARY
360
407
102
}
330
2A
100
AcDbVisualStyle
  2
Basic
 70
     7
 71
     1
 72
     0
 73
     1
 90
        0
 40
-0.6
 41
-30.0
 62
     5
 63
     7
421
 16777215
 74
     0
 91
        4
 64
     7
 65
   257
 75
     1
175
     1
 42
1.0
 92
        8
 66
     7
 43
1.0
 76
     1
 77
     6
 78
     2
 67
     7
 79
     5
170
     0
171
     0
290
     0
174
     0
 93
        1
 44
0.0
173
     0
291
     1
 45
0.0
1001
ACAD
1000
AcDbSavedByObjectVersion
1070
     0
  0
VISUALSTYLE
  5
36
102
{ACAD_REACTORS
330
2A
102
}
102
{ACAD_XDICTIONARY
360
40F
102
}
330
2A
100
AcDbVisualStyle
  2
Brighten
 70
    12
 71
     2
 72
     2
 73
     0
 90
        0
 40
-0.6
 41
-30.0
 62
     5
 63
     7
421
 16777215
 74
     1
 91
        4
 64
     7
 65
   257
 75
     1
175
     1
 42
1.0
 92
        8
 66
     7
 43
1.0
 76
     1
 77
     6
 78
     2
 67
     7
 79
     5
170
     0
171
     0
290
     0
174
     0
 93
        1
 44
50.0
173
     0
291
     1
 45
0.0
1001
ACAD
1000
AcDbSavedByObjectVersion
1070
     0
  0
VISUALSTYLE
  5
3A
102
{ACAD_REACTORS
330
2A
102
}
102
{ACAD_XDICTIONARY
360
417
102
}
330
2A
100
AcDbVisualStyle
  2
ColorChange
 70
    16
 71
     2
 72
     2
 73
     3
 90
        0
 40
-0.6
 41
-30.0
 62
     5
 63
     8
421
  8421504
 74
     1
 91
        4
 64
     7
 65
   257
 75
     1
175
     1
 42
1.0
 92
        8
 66
     8
424
  8421504
 43
1.0
 76
     1
 77
     6
 78
     2
 67
     7
 79
     5
170
     0
171
     0
290
     0
174
     0
 93
        1
 44
0.0
173
     0
291
     1
 45
0.0
1001
ACAD
1000
AcDbSavedByObjectVersion
1070
     0
  0
VISUALSTYLE
  5
34
102
{ACAD_REACTORS
330
2A
102
}
102
{ACAD_XDICTIONARY
360
40B
102
}
330
2A
100
AcDbVisualStyle
  2
Conceptual
 70
     9
 71
     3
 72
     2
 73
     0
 90
        0
 40
-0.6
 41
-30.0
 62
     5
 63
     7
421
 16777215
 74
     2
 91
        2
 64
     7
 65
   257
 75
     1
175
     1
 42
40.0
 92
        8
 66
     7
 43
1.0
 76
     1
 77
     6
 78
     2
 67
     7
 79
     3
170
     0
171
     0
290
     0
174
     0
 93
        1
 44
0.0
173
     0
291
     0
 45
0.0
1001
ACAD
1000
AcDbSavedByObjectVersion
1070
     0
  0
VISUALSTYLE
  5
35
102
{ACAD_REACTORS
330
2A
102
}
102
{ACAD_XDICTIONARY
360
40D
102
}
330
2A
100
AcDbVisualStyle
  2
Dim
 70
    11
 71
     2
 72
     2
 73
     0
 90
        0
 40
-0.6
 41
-30.0
 62
     5
 63
     7
421
 16777215
 74
     1
 91
        4
 64
     7
 65
   257
 75
     1
175
     1
 42
1.0
 92
        8
 66
     7
 43
1.0
 76
     1
 77
     6
 78
     2
 67
     7
 79
     5
170
     0
171
     0
290
     0
174
     0
 93
        1
 44
-50.0
173
     0
291
     1
 45
0.0
1001
ACAD
1000
AcDbSavedByObjectVersion
1070
     0
  0
VISUALSTYLE
  5
39
102
{ACAD_REACTORS
330
2A
102
}
102
{ACAD_XDICTIONARY
360
415
102
}
330
2A
100
AcDbVisualStyle
  2
Facepattern
 70
    15
 71
     2
 72
     2
 73
     0
 90
        0
 40
-0.6
 41
-30.0
 62
     5
 63
     7
421
 16777215
 74
     1
 91
        4
 64
     7
 65
   257
 75
     1
175
     1
 42
1.0
 92
        8
 66
     7
 43
1.0
 76
     1
 77
     6
 78
     2
 67
     7
 79
     5
170
     0
171
     0
290
     0
174
     0
 93
        1
 44
0.0
173
     0
291
     1
 45
0.0
1001
ACAD
1000
AcDbSavedByObjectVersion
1070
     0
  0
VISUALSTYLE
  5
2B
102
{ACAD_REACTORS
330
2A
102
}
102
{ACAD_XDICTIONARY
360
3F9
102
}
330
2A
100
AcDbVisualStyle
  2
Flat
 70
     0
 71
     2
 72
     1
 73
     1
 90
        2
 40
-0.6
 41
30.0
 62
     5
 63
     7
421
 16777215
 74
     0
 91
        4
 64
     7
 65
   257
 75
     1
175
     1
 42
1.0
 92
        8
 66
     7
 43
1.0
 76
     1
 77
     6
 78
     2
 67
     7
 79
     5
170
     0
171
     0
290
     0
174
     0
 93
       13
 44
0.0
173
     0
291
     1
 45
0.0
1001
ACAD
1000
AcDbSavedByObjectVersion
1070
     0
  0
VISUALSTYLE
  5
2C
102
{ACAD_REACTORS
330
2A
102
}
102
{ACAD_XDICTIONARY
360
3FB
102
}
330
2A
100
AcDbVisualStyle
  2
FlatWithEdges
 70
     1
 71
     2
 72
     1
 73
     1
 90
        2
 40
-0.6
 41
30.0
 62
     5
 63
     7
421
 16777215
 74
     1
 91
        4
 64
     7
 65
   257
 75
     1
175
     1
 42
1.0
 92
        0
 66
   257
 43
1.0
 76
     1
 77
     6
 78
     2
 67
     7
 79
     5
170
     0
171
     0
290
     0
174
     0
 93
       13
 44
0.0
173
     0
291
     1
 45
0.0
1001
ACAD
1000
AcDbSavedByObjectVersion
1070
     0
  0
VISUALSTYLE
  5
2D
102
{ACAD_REACTORS
330
2A
102
}
102
{ACAD_XDICTIONARY
360
3FD
102
}
330
2A
100
AcDbVisualStyle
  2
Gouraud
 70
     2
 71
     2
 72
     2
 73
     1
 90
        2
 40
-0.6
 41
30.0
 62
     5
 63
     7
421
 16777215
 74
     0
 91
        4
 64
     7
 65
   257
 75
     1
175
     1
 42
1.0
 92
        0
 66
     7
 43
1.0
 76
     1
 77
     6
 78
     2
 67
     7
 79
     5
170
     0
171
     0
290
     0
174
     0
 93
       13
 44
0.0
173
     0
291
     1
 45
0.0
1001
ACAD
1000
AcDbSavedByObjectVersion
1070
     0
  0
VISUALSTYLE
  5
2E
102
{ACAD_REACTORS
330
2A
102
}
102
{ACAD_XDICTIONARY
360
3FF
102
}
330
2A
100
AcDbVisualStyle
  2
GouraudWithEdges
 70
     3
 71
     2
 72
     2
 73
     1
 90
        2
 40
-0.6
 41
30.0
 62
     5
 63
     7
421
 16777215
 74
     1
 91
        4
 64
     7
 65
   257
 75
     1
175
     1
 42
1.0
 92
        0
 66
   257
 43
1.0
 76
     1
 77
     6
 78
     2
 67
     7
 79
     5
170
     0
171
     0
290
     0
174
     0
 93
       13
 44
0.0
173
     0
291
     1
 45
0.0
1001
ACAD
1000
AcDbSavedByObjectVersion
1070
     0
  0
VISUALSTYLE
  5
38
102
{ACAD_REACTORS
330
2A
102
}
102
{ACAD_XDICTIONARY
360
413
102
}
330
2A
100
AcDbVisualStyle
  2
Linepattern
 70
    14
 71
     2
 72
     2
 73
     0
 90
        0
 40
-0.6
 41
-30.0
 62
     5
 63
     7
421
 16777215
 74
     1
 91
        4
 64
     7
 65
   257
 75
     7
175
     7
 42
1.0
 92
        8
 66
     7
 43
1.0
 76
     1
 77
     6
 78
     2
 67
     7
 79
     5
170
     0
171
     0
290
     0
174
     0
 93
        1
 44
0.0
173
     0
291
     1
 45
0.0
1001
ACAD
1000
AcDbSavedByObjectVersion
1070
     0
  0
VISUALSTYLE
  5
33
102
{ACAD_REACTORS
330
2A
102
}
102
{ACAD_XDICTIONARY
360
409
102
}
330
2A
100
AcDbVisualStyle
  2
Realistic
 70
     8
 71
     2
 72
     2
 73
     0
 90
        0
 40
-0.6
 41
-30.0
 62
     5
 63
     7
421
 16777215
 74
     1
 91
        0
 64
     7
 65
   257
 75
     1
175
     1
 42
1.0
 92
        8
 66
     8
424
  7895160
 43
1.0
 76
     1
 77
     6
 78
     2
 67
     7
 79
     5
170
     0
171
     0
290
     0
174
     0
 93
       13
 44
0.0
173
     0
291
     0
 45
0.0
1001
ACAD
1000
AcDbSavedByObjectVersion
1070
     0
  0
VISUALSTYLE
  5
37
102
{ACAD_REACTORS
330
2A
102
}
102
{ACAD_XDICTIONARY
360
411
102
}
330
2A
100
AcDbVisualStyle
  2
Thicken
 70
    13
 71
     2
 72
     2
 73
     0
 90
        0
 40
-0.6
 41
-30.0
 62
     5
 63
     7
421
 16777215
 74
     1
 91
        4
 64
     7
 65
   257
 75
     1
175
     1
 42
1.0
 92
       12
 66
     7
 43
1.0
 76
     1
 77
     6
 78
     2
 67
     7
 79
     5
170
     0
171
     0
290
     0
174
     0
 93
        1
 44
0.0
173
     0
291
     1
 45
0.0
1001
ACAD
1000
AcDbSavedByObjectVersion
1070
     0
  0
DICTIONARYVAR
  5
3F8
102
{ACAD_REACTORS
330
3F7
102
}
330
3F7
100
DictionaryVariables
280
     0
  1
1:1
  0
DICTIONARYVAR
  5
421
102
{ACAD_REACTORS
330
3F7
102
}
330
3F7
100
DictionaryVariables
280
     0
  1
0
  0
XRECORD
  5
3F6
102
{ACAD_REACTORS
330
3F5
102
}
330
3F5
100
AcDbXrecord
280
     1
1000
This DWG file was created in ArchiCAD(TM)®
  0
DICTIONARY
  5
41B
330
3D
100
AcDbDictionary
280
     1
281
     1
  3
ACAD_XREC_ROUNDTRIP
360
41C
  0
DICTIONARY
  5
419
330
3C
100
AcDbDictionary
280
     1
281
     1
  3
ACAD_XREC_ROUNDTRIP
360
41A
  0
DICTIONARY
  5
41D
330
3E
100
AcDbDictionary
280
     1
281
     1
  3
ACAD_XREC_ROUNDTRIP
360
41E
  0
DICTIONARY
  5
401
330
2F
100
AcDbDictionary
280
     1
281
     1
  3
ACAD_XREC_ROUNDTRIP
360
402
  0
DICTIONARY
  5
405
330
31
100
AcDbDictionary
280
     1
281
     1
  3
ACAD_XREC_ROUNDTRIP
360
406
  0
DICTIONARY
  5
403
330
30
100
AcDbDictionary
280
     1
281
     1
  3
ACAD_XREC_ROUNDTRIP
360
404
  0
DICTIONARY
  5
407
330
32
100
AcDbDictionary
280
     1
281
     1
  3
ACAD_XREC_ROUNDTRIP
360
408
  0
DICTIONARY
  5
40F
330
36
100
AcDbDictionary
280
     1
281
     1
  3
ACAD_XREC_ROUNDTRIP
360
410
  0
DICTIONARY
  5
417
330
3A
100
AcDbDictionary
280
     1
281
     1
  3
ACAD_XREC_ROUNDTRIP
360
418
  0
DICTIONARY
  5
40B
330
34
100
AcDbDictionary
280
     1
281
     1
  3
ACAD_XREC_ROUNDTRIP
360
40C
  0
DICTIONARY
  5
40D
330
35
100
AcDbDictionary
280
     1
281
     1
  3
ACAD_XREC_ROUNDTRIP
360
40E
  0
DICTIONARY
  5
415
330
39
100
AcDbDictionary
280
     1
281
     1
  3
ACAD_XREC_ROUNDTRIP
360
416
  0
DICTIONARY
  5
3F9
330
2B
100
AcDbDictionary
280
     1
281
     1
  3
ACAD_XREC_ROUNDTRIP
360
3FA
  0
DICTIONARY
  5
3FB
330
2C
100
AcDbDictionary
280
     1
281
     1
  3
ACAD_XREC_ROUNDTRIP
360
3FC
  0
DICTIONARY
  5
3FD
330
2D
100
AcDbDictionary
280
     1
281
     1
  3
ACAD_XREC_ROUNDTRIP
360
3FE
  0
DICTIONARY
  5
3FF
330
2E
100
AcDbDictionary
280
     1
281
     1
  3
ACAD_XREC_ROUNDTRIP
360
400
  0
DICTIONARY
  5
413
330
38
100
AcDbDictionary
280
     1
281
     1
  3
ACAD_XREC_ROUNDTRIP
360
414
  0
DICTIONARY
  5
409
330
33
100
AcDbDictionary
280
     1
281
     1
  3
ACAD_XREC_ROUNDTRIP
360
40A
  0
DICTIONARY
  5
411
330
37
100
AcDbDictionary
280
     1
281
     1
  3
ACAD_XREC_ROUNDTRIP
360
412
  0
XRECORD
  5
41C
102
{ACAD_REACTORS
330
41B
102
}
330
41B
100
AcDbXrecord
280
     1
102
MATERIAL
148
0.0
149
0.0
149
0.0
 93
        0
 94
      127
282
     0
 72
     1
 77
     1
171
     1
175
     1
179
     1
273
     0
  0
XRECORD
  5
41A
102
{ACAD_REACTORS
330
419
102
}
330
419
100
AcDbXrecord
280
     1
102
MATERIAL
148
0.0
149
0.0
149
0.0
 93
        0
 94
      127
282
     0
 72
     1
 77
     1
171
     1
175
     1
179
     1
273
     0
  0
XRECORD
  5
41E
102
{ACAD_REACTORS
330
41D
102
}
330
41D
100
AcDbXrecord
280
     1
102
MATERIAL
148
0.0
149
0.0
149
0.0
 93
        0
 94
      127
282
     0
 72
     1
 77
     1
171
     1
175
     1
179
     1
273
     0
  0
XRECORD
  5
402
102
{ACAD_REACTORS
330
401
102
}
330
401
100
AcDbXrecord
280
     1
102
RTVSPropertyOp0
 70
     1
102
RTVSPropertyOp1
 70
     1
102
RTVSPropertyOp2
 70
     1
102
RTVSPropertyOp3
 70
     1
102
RTVSPropertyOp4
 70
     1
102
RTVSPropertyOp5
 70
     1
102
RTVSPropertyOp6
 70
     1
102
RTVSPropertyOp7
 70
     1
102
RTVSPropertyOp8
 70
     1
102
RTVSPropertyOp9
 70
     1
102
RTVSPropertyOp10
 70
     1
102
RTVSPropertyOp11
 70
     1
102
RTVSPropertyOp12
 70
     1
102
RTVSPropertyOp13
 70
     1
102
RTVSPropertyOp14
 70
     1
102
RTVSPropertyOp15
 70
     1
102
RTVSPropertyOp16
 70
     1
102
RTVSPropertyOp17
 70
     1
102
RTVSPropertyOp18
 70
     1
102
RTVSPropertyOp19
 70
     1
102
RTVSPropertyOp20
 70
     1
102
RTVSPropertyOp21
 70
     1
102
RTVSPropertyOp22
 70
     1
102
RTVSPropertyOp23
 70
     1
102
RTVSPropertyOp24
 70
     1
102
RTVSPropertyOp25
 70
     1
102
RTVSPropertyOp26
 70
     1
102
RTVSPropertyOp27
 70
     1
102
RTVSPropertyOp28
 70
     1
102
RTVSPropertyOp29
 70
     1
102
RTVSPropertyOp30
 70
     1
102
RTVSPropertyOp31
 70
     1
102
RTVSPropertyOp32
 70
     1
  0
XRECORD
  5
406
102
{ACAD_REACTORS
330
405
102
}
330
405
100
AcDbXrecord
280
     1
102
RTVSPropertyOp0
 70
     1
102
RTVSPropertyOp1
 70
     1
102
RTVSPropertyOp2
 70
     1
102
RTVSPropertyOp3
 70
     1
102
RTVSPropertyOp4
 70
     1
102
RTVSPropertyOp5
 70
     1
102
RTVSPropertyOp6
 70
     1
102
RTVSPropertyOp7
 70
     1
102
RTVSPropertyOp8
 70
     1
102
RTVSPropertyOp9
 70
     1
102
RTVSPropertyOp10
 70
     1
102
RTVSPropertyOp11
 70
     1
102
RTVSPropertyOp12
 70
     1
102
RTVSPropertyOp13
 70
     1
102
RTVSPropertyOp14
 70
     1
102
RTVSPropertyOp15
 70
     1
102
RTVSPropertyOp16
 70
     1
102
RTVSPropertyOp17
 70
     1
102
RTVSPropertyOp18
 70
     1
102
RTVSPropertyOp19
 70
     1
102
RTVSPropertyOp20
 70
     1
102
RTVSPropertyOp21
 70
     1
102
RTVSPropertyOp22
 70
     1
102
RTVSPropertyOp23
 70
     1
102
RTVSPropertyOp24
 70
     1
102
RTVSPropertyOp25
 70
     1
102
RTVSPropertyOp26
 70
     1
102
RTVSPropertyOp27
 70
     1
102
RTVSPropertyOp28
 70
     1
102
RTVSPropertyOp29
 70
     1
102
RTVSPropertyOp30
 70
     1
102
RTVSPropertyOp31
 70
     1
102
RTVSPropertyOp32
 70
     1
  0
XRECORD
  5
404
102
{ACAD_REACTORS
330
403
102
}
330
403
100
AcDbXrecord
280
     1
102
RTVSPropertyOp0
 70
     1
102
RTVSPropertyOp1
 70
     1
102
RTVSPropertyOp2
 70
     1
102
RTVSPropertyOp3
 70
     1
102
RTVSPropertyOp4
 70
     1
102
RTVSPropertyOp5
 70
     1
102
RTVSPropertyOp6
 70
     1
102
RTVSPropertyOp7
 70
     1
102
RTVSPropertyOp8
 70
     1
102
RTVSPropertyOp9
 70
     1
102
RTVSPropertyOp10
 70
     1
102
RTVSPropertyOp11
 70
     1
102
RTVSPropertyOp12
 70
     1
102
RTVSPropertyOp13
 70
     1
102
RTVSPropertyOp14
 70
     1
102
RTVSPropertyOp15
 70
     1
102
RTVSPropertyOp16
 70
     1
102
RTVSPropertyOp17
 70
     1
102
RTVSPropertyOp18
 70
     1
102
RTVSPropertyOp19
 70
     1
102
RTVSPropertyOp20
 70
     1
102
RTVSPropertyOp21
 70
     1
102
RTVSPropertyOp22
 70
     1
102
RTVSPropertyOp23
 70
     1
102
RTVSPropertyOp24
 70
     1
102
RTVSPropertyOp25
 70
     1
102
RTVSPropertyOp26
 70
     1
102
RTVSPropertyOp27
 70
     1
102
RTVSPropertyOp28
 70
     1
102
RTVSPropertyOp29
 70
     1
102
RTVSPropertyOp30
 70
     1
102
RTVSPropertyOp31
 70
     1
102
RTVSPropertyOp32
 70
     1
  0
XRECORD
  5
408
102
{ACAD_REACTORS
330
407
102
}
330
407
100
AcDbXrecord
280
     1
102
RTVSPropertyOp0
 70
     1
102
RTVSPropertyOp1
 70
     1
102
RTVSPropertyOp2
 70
     1
102
RTVSPropertyOp3
 70
     1
102
RTVSPropertyOp4
 70
     1
102
RTVSPropertyOp5
 70
     1
102
RTVSPropertyOp6
 70
     1
102
RTVSPropertyOp7
 70
     1
102
RTVSPropertyOp8
 70
     1
102
RTVSPropertyOp9
 70
     1
102
RTVSPropertyOp10
 70
     1
102
RTVSPropertyOp11
 70
     1
102
RTVSPropertyOp12
 70
     1
102
RTVSPropertyOp13
 70
     1
102
RTVSPropertyOp14
 70
     1
102
RTVSPropertyOp15
 70
     1
102
RTVSPropertyOp16
 70
     1
102
RTVSPropertyOp17
 70
     1
102
RTVSPropertyOp18
 70
     1
102
RTVSPropertyOp19
 70
     1
102
RTVSPropertyOp20
 70
     1
102
RTVSPropertyOp21
 70
     1
102
RTVSPropertyOp22
 70
     1
102
RTVSPropertyOp23
 70
     1
102
RTVSPropertyOp24
 70
     1
102
RTVSPropertyOp25
 70
     1
102
RTVSPropertyOp26
 70
     1
102
RTVSPropertyOp27
 70
     1
102
RTVSPropertyOp28
 70
     1
102
RTVSPropertyOp29
 70
     1
102
RTVSPropertyOp30
 70
     1
102
RTVSPropertyOp31
 70
     1
102
RTVSPropertyOp32
 70
     1
  0
XRECORD
  5
410
102
{ACAD_REACTORS
330
40F
102
}
330
40F
100
AcDbXrecord
280
     1
102
RTVSPropertyOp0
 70
     1
102
RTVSPropertyOp1
 70
     1
102
RTVSPropertyOp2
 70
     1
102
RTVSPropertyOp3
 70
     1
102
RTVSPropertyOp4
 70
     1
102
RTVSPropertyOp5
 70
     1
102
RTVSPropertyOp6
 70
     1
102
RTVSPropertyOp7
 70
     1
102
RTVSPropertyOp8
 70
     1
102
RTVSPropertyOp9
 70
     1
102
RTVSPropertyOp10
 70
     1
102
RTVSPropertyOp11
 70
     1
102
RTVSPropertyOp12
 70
     1
102
RTVSPropertyOp13
 70
     1
102
RTVSPropertyOp14
 70
     1
102
RTVSPropertyOp15
 70
     1
102
RTVSPropertyOp16
 70
     1
102
RTVSPropertyOp17
 70
     1
102
RTVSPropertyOp18
 70
     1
102
RTVSPropertyOp19
 70
     1
102
RTVSPropertyOp20
 70
     1
102
RTVSPropertyOp21
 70
     1
102
RTVSPropertyOp22
 70
     1
102
RTVSPropertyOp23
 70
     1
102
RTVSPropertyOp24
 70
     1
102
RTVSPropertyOp25
 70
     1
102
RTVSPropertyOp26
 70
     1
102
RTVSPropertyOp27
 70
     1
102
RTVSPropertyOp28
 70
     1
102
RTVSPropertyOp29
 70
     1
102
RTVSPropertyOp30
 70
     1
102
RTVSPropertyOp31
 70
     1
102
RTVSPropertyOp32
 70
     1
  0
XRECORD
  5
418
102
{ACAD_REACTORS
330
417
102
}
330
417
100
AcDbXrecord
280
     1
102
RTVSPropertyOp0
 70
     1
102
RTVSPropertyOp1
 70
     1
102
RTVSPropertyOp2
 70
     1
102
RTVSPropertyOp3
 70
     1
102
RTVSPropertyOp4
 70
     1
102
RTVSPropertyOp5
 70
     1
102
RTVSPropertyOp6
 70
     1
102
RTVSPropertyOp7
 70
     1
102
RTVSPropertyOp8
 70
     1
102
RTVSPropertyOp9
 70
     1
102
RTVSPropertyOp10
 70
     1
102
RTVSPropertyOp11
 70
     1
102
RTVSPropertyOp12
 70
     1
102
RTVSPropertyOp13
 70
     1
102
RTVSPropertyOp14
 70
     1
102
RTVSPropertyOp15
 70
     1
102
RTVSPropertyOp16
 70
     1
102
RTVSPropertyOp17
 70
     1
102
RTVSPropertyOp18
 70
     1
102
RTVSPropertyOp19
 70
     1
102
RTVSPropertyOp20
 70
     1
102
RTVSPropertyOp21
 70
     1
102
RTVSPropertyOp22
 70
     1
102
RTVSPropertyOp23
 70
     1
102
RTVSPropertyOp24
 70
     1
102
RTVSPropertyOp25
 70
     1
102
RTVSPropertyOp26
 70
     1
102
RTVSPropertyOp27
 70
     1
102
RTVSPropertyOp28
 70
     1
102
RTVSPropertyOp29
 70
     1
102
RTVSPropertyOp30
 70
     1
102
RTVSPropertyOp31
 70
     1
102
RTVSPropertyOp32
 70
     1
  0
XRECORD
  5
40C
102
{ACAD_REACTORS
330
40B
102
}
330
40B
100
AcDbXrecord
280
     1
102
RTVSPropertyOp0
 70
     1
102
RTVSPropertyOp1
 70
     1
102
RTVSPropertyOp2
 70
     1
102
RTVSPropertyOp3
 70
     1
102
RTVSPropertyOp4
 70
     1
102
RTVSPropertyOp5
 70
     1
102
RTVSPropertyOp6
 70
     1
102
RTVSPropertyOp7
 70
     1
102
RTVSPropertyOp8
 70
     1
102
RTVSPropertyOp9
 70
     1
102
RTVSPropertyOp10
 70
     1
102
RTVSPropertyOp11
 70
     1
102
RTVSPropertyOp12
 70
     1
102
RTVSPropertyOp13
 70
     1
102
RTVSPropertyOp14
 70
     1
102
RTVSPropertyOp15
 70
     1
102
RTVSPropertyOp16
 70
     1
102
RTVSPropertyOp17
 70
     1
102
RTVSPropertyOp18
 70
     1
102
RTVSPropertyOp19
 70
     1
102
RTVSPropertyOp20
 70
     1
102
RTVSPropertyOp21
 70
     1
102
RTVSPropertyOp22
 70
     1
102
RTVSPropertyOp23
 70
     1
102
RTVSPropertyOp24
 70
     1
102
RTVSPropertyOp25
 70
     1
102
RTVSPropertyOp26
 70
     1
102
RTVSPropertyOp27
 70
     1
102
RTVSPropertyOp28
 70
     1
102
RTVSPropertyOp29
 70
     1
102
RTVSPropertyOp30
 70
     1
102
RTVSPropertyOp31
 70
     1
102
RTVSPropertyOp32
 70
     1
  0
XRECORD
  5
40E
102
{ACAD_REACTORS
330
40D
102
}
330
40D
100
AcDbXrecord
280
     1
102
RTVSPropertyOp0
 70
     1
102
RTVSPropertyOp1
 70
     1
102
RTVSPropertyOp2
 70
     1
102
RTVSPropertyOp3
 70
     1
102
RTVSPropertyOp4
 70
     1
102
RTVSPropertyOp5
 70
     1
102
RTVSPropertyOp6
 70
     1
102
RTVSPropertyOp7
 70
     1
102
RTVSPropertyOp8
 70
     1
102
RTVSPropertyOp9
 70
     1
102
RTVSPropertyOp10
 70
     1
102
RTVSPropertyOp11
 70
     1
102
RTVSPropertyOp12
 70
     1
102
RTVSPropertyOp13
 70
     1
102
RTVSPropertyOp14
 70
     1
102
RTVSPropertyOp15
 70
     1
102
RTVSPropertyOp16
 70
     1
102
RTVSPropertyOp17
 70
     1
102
RTVSPropertyOp18
 70
     1
102
RTVSPropertyOp19
 70
     1
102
RTVSPropertyOp20
 70
     1
102
RTVSPropertyOp21
 70
     1
102
RTVSPropertyOp22
 70
     1
102
RTVSPropertyOp23
 70
     1
102
RTVSPropertyOp24
 70
     1
102
RTVSPropertyOp25
 70
     1
102
RTVSPropertyOp26
 70
     1
102
RTVSPropertyOp27
 70
     1
102
RTVSPropertyOp28
 70
     1
102
RTVSPropertyOp29
 70
     1
102
RTVSPropertyOp30
 70
     1
102
RTVSPropertyOp31
 70
     1
102
RTVSPropertyOp32
 70
     1
  0
XRECORD
  5
416
102
{ACAD_REACTORS
330
415
102
}
330
415
100
AcDbXrecord
280
     1
102
RTVSPropertyOp0
 70
     1
102
RTVSPropertyOp1
 70
     1
102
RTVSPropertyOp2
 70
     1
102
RTVSPropertyOp3
 70
     1
102
RTVSPropertyOp4
 70
     1
102
RTVSPropertyOp5
 70
     1
102
RTVSPropertyOp6
 70
     1
102
RTVSPropertyOp7
 70
     1
102
RTVSPropertyOp8
 70
     1
102
RTVSPropertyOp9
 70
     1
102
RTVSPropertyOp10
 70
     1
102
RTVSPropertyOp11
 70
     1
102
RTVSPropertyOp12
 70
     1
102
RTVSPropertyOp13
 70
     1
102
RTVSPropertyOp14
 70
     1
102
RTVSPropertyOp15
 70
     1
102
RTVSPropertyOp16
 70
     1
102
RTVSPropertyOp17
 70
     1
102
RTVSPropertyOp18
 70
     1
102
RTVSPropertyOp19
 70
     1
102
RTVSPropertyOp20
 70
     1
102
RTVSPropertyOp21
 70
     1
102
RTVSPropertyOp22
 70
     1
102
RTVSPropertyOp23
 70
     1
102
RTVSPropertyOp24
 70
     1
102
RTVSPropertyOp25
 70
     1
102
RTVSPropertyOp26
 70
     1
102
RTVSPropertyOp27
 70
     1
102
RTVSPropertyOp28
 70
     1
102
RTVSPropertyOp29
 70
     1
102
RTVSPropertyOp30
 70
     1
102
RTVSPropertyOp31
 70
     1
102
RTVSPropertyOp32
 70
     1
  0
XRECORD
  5
3FA
102
{ACAD_REACTORS
330
3F9
102
}
330
3F9
100
AcDbXrecord
280
     1
102
RTVSPropertyOp0
 70
     1
102
RTVSPropertyOp1
 70
     1
102
RTVSPropertyOp2
 70
     1
102
RTVSPropertyOp3
 70
     1
102
RTVSPropertyOp4
 70
     1
102
RTVSPropertyOp5
 70
     1
102
RTVSPropertyOp6
 70
     1
102
RTVSPropertyOp7
 70
     1
102
RTVSPropertyOp8
 70
     1
102
RTVSPropertyOp9
 70
     1
102
RTVSPropertyOp10
 70
     1
102
RTVSPropertyOp11
 70
     1
102
RTVSPropertyOp12
 70
     1
102
RTVSPropertyOp13
 70
     1
102
RTVSPropertyOp14
 70
     1
102
RTVSPropertyOp15
 70
     1
102
RTVSPropertyOp16
 70
     1
102
RTVSPropertyOp17
 70
     1
102
RTVSPropertyOp18
 70
     1
102
RTVSPropertyOp19
 70
     1
102
RTVSPropertyOp20
 70
     1
102
RTVSPropertyOp21
 70
     1
102
RTVSPropertyOp22
 70
     1
102
RTVSPropertyOp23
 70
     1
102
RTVSPropertyOp24
 70
     1
102
RTVSPropertyOp25
 70
     1
102
RTVSPropertyOp26
 70
     1
102
RTVSPropertyOp27
 70
     1
102
RTVSPropertyOp28
 70
     1
102
RTVSPropertyOp29
 70
     1
102
RTVSPropertyOp30
 70
     1
102
RTVSPropertyOp31
 70
     1
102
RTVSPropertyOp32
 70
     1
  0
XRECORD
  5
3FC
102
{ACAD_REACTORS
330
3FB
102
}
330
3FB
100
AcDbXrecord
280
     1
102
RTVSPropertyOp0
 70
     1
102
RTVSPropertyOp1
 70
     1
102
RTVSPropertyOp2
 70
     1
102
RTVSPropertyOp3
 70
     1
102
RTVSPropertyOp4
 70
     1
102
RTVSPropertyOp5
 70
     1
102
RTVSPropertyOp6
 70
     1
102
RTVSPropertyOp7
 70
     1
102
RTVSPropertyOp8
 70
     1
102
RTVSPropertyOp9
 70
     1
102
RTVSPropertyOp10
 70
     1
102
RTVSPropertyOp11
 70
     1
102
RTVSPropertyOp12
 70
     1
102
RTVSPropertyOp13
 70
     1
102
RTVSPropertyOp14
 70
     1
102
RTVSPropertyOp15
 70
     1
102
RTVSPropertyOp16
 70
     1
102
RTVSPropertyOp17
 70
     1
102
RTVSPropertyOp18
 70
     1
102
RTVSPropertyOp19
 70
     1
102
RTVSPropertyOp20
 70
     1
102
RTVSPropertyOp21
 70
     1
102
RTVSPropertyOp22
 70
     1
102
RTVSPropertyOp23
 70
     1
102
RTVSPropertyOp24
 70
     1
102
RTVSPropertyOp25
 70
     1
102
RTVSPropertyOp26
 70
     1
102
RTVSPropertyOp27
 70
     1
102
RTVSPropertyOp28
 70
     1
102
RTVSPropertyOp29
 70
     1
102
RTVSPropertyOp30
 70
     1
102
RTVSPropertyOp31
 70
     1
102
RTVSPropertyOp32
 70
     1
  0
XRECORD
  5
3FE
102
{ACAD_REACTORS
330
3FD
102
}
330
3FD
100
AcDbXrecord
280
     1
102
RTVSPropertyOp0
 70
     1
102
RTVSPropertyOp1
 70
     1
102
RTVSPropertyOp2
 70
     1
102
RTVSPropertyOp3
 70
     1
102
RTVSPropertyOp4
 70
     1
102
RTVSPropertyOp5
 70
     1
102
RTVSPropertyOp6
 70
     1
102
RTVSPropertyOp7
 70
     1
102
RTVSPropertyOp8
 70
     1
102
RTVSPropertyOp9
 70
     1
102
RTVSPropertyOp10
 70
     1
102
RTVSPropertyOp11
 70
     1
102
RTVSPropertyOp12
 70
     1
102
RTVSPropertyOp13
 70
     1
102
RTVSPropertyOp14
 70
     1
102
RTVSPropertyOp15
 70
     1
102
RTVSPropertyOp16
 70
     1
102
RTVSPropertyOp17
 70
     1
102
RTVSPropertyOp18
 70
     1
102
RTVSPropertyOp19
 70
     1
102
RTVSPropertyOp20
 70
     1
102
RTVSPropertyOp21
 70
     1
102
RTVSPropertyOp22
 70
     1
102
RTVSPropertyOp23
 70
     1
102
RTVSPropertyOp24
 70
     1
102
RTVSPropertyOp25
 70
     1
102
RTVSPropertyOp26
 70
     1
102
RTVSPropertyOp27
 70
     1
102
RTVSPropertyOp28
 70
     1
102
RTVSPropertyOp29
 70
     1
102
RTVSPropertyOp30
 70
     1
102
RTVSPropertyOp31
 70
     1
102
RTVSPropertyOp32
 70
     1
  0
XRECORD
  5
400
102
{ACAD_REACTORS
330
3FF
102
}
330
3FF
100
AcDbXrecord
280
     1
102
RTVSPropertyOp0
 70
     1
102
RTVSPropertyOp1
 70
     1
102
RTVSPropertyOp2
 70
     1
102
RTVSPropertyOp3
 70
     1
102
RTVSPropertyOp4
 70
     1
102
RTVSPropertyOp5
 70
     1
102
RTVSPropertyOp6
 70
     1
102
RTVSPropertyOp7
 70
     1
102
RTVSPropertyOp8
 70
     1
102
RTVSPropertyOp9
 70
     1
102
RTVSPropertyOp10
 70
     1
102
RTVSPropertyOp11
 70
     1
102
RTVSPropertyOp12
 70
     1
102
RTVSPropertyOp13
 70
     1
102
RTVSPropertyOp14
 70
     1
102
RTVSPropertyOp15
 70
     1
102
RTVSPropertyOp16
 70
     1
102
RTVSPropertyOp17
 70
     1
102
RTVSPropertyOp18
 70
     1
102
RTVSPropertyOp19
 70
     1
102
RTVSPropertyOp20
 70
     1
102
RTVSPropertyOp21
 70
     1
102
RTVSPropertyOp22
 70
     1
102
RTVSPropertyOp23
 70
     1
102
RTVSPropertyOp24
 70
     1
102
RTVSPropertyOp25
 70
     1
102
RTVSPropertyOp26
 70
     1
102
RTVSPropertyOp27
 70
     1
102
RTVSPropertyOp28
 70
     1
102
RTVSPropertyOp29
 70
     1
102
RTVSPropertyOp30
 70
     1
102
RTVSPropertyOp31
 70
     1
102
RTVSPropertyOp32
 70
     1
  0
XRECORD
  5
414
102
{ACAD_REACTORS
330
413
102
}
330
413
100
AcDbXrecord
280
     1
102
RTVSPropertyOp0
 70
     1
102
RTVSPropertyOp1
 70
     1
102
RTVSPropertyOp2
 70
     1
102
RTVSPropertyOp3
 70
     1
102
RTVSPropertyOp4
 70
     1
102
RTVSPropertyOp5
 70
     1
102
RTVSPropertyOp6
 70
     1
102
RTVSPropertyOp7
 70
     1
102
RTVSPropertyOp8
 70
     1
102
RTVSPropertyOp9
 70
     1
102
RTVSPropertyOp10
 70
     1
102
RTVSPropertyOp11
 70
     1
102
RTVSPropertyOp12
 70
     1
102
RTVSPropertyOp13
 70
     1
102
RTVSPropertyOp14
 70
     1
102
RTVSPropertyOp15
 70
     1
102
RTVSPropertyOp16
 70
     1
102
RTVSPropertyOp17
 70
     1
102
RTVSPropertyOp18
 70
     1
102
RTVSPropertyOp19
 70
     1
102
RTVSPropertyOp20
 70
     1
102
RTVSPropertyOp21
 70
     1
102
RTVSPropertyOp22
 70
     1
102
RTVSPropertyOp23
 70
     1
102
RTVSPropertyOp24
 70
     1
102
RTVSPropertyOp25
 70
     1
102
RTVSPropertyOp26
 70
     1
102
RTVSPropertyOp27
 70
     1
102
RTVSPropertyOp28
 70
     1
102
RTVSPropertyOp29
 70
     1
102
RTVSPropertyOp30
 70
     1
102
RTVSPropertyOp31
 70
     1
102
RTVSPropertyOp32
 70
     1
  0
XRECORD
  5
40A
102
{ACAD_REACTORS
330
409
102
}
330
409
100
AcDbXrecord
280
     1
102
RTVSPropertyOp0
 70
     1
102
RTVSPropertyOp1
 70
     1
102
RTVSPropertyOp2
 70
     1
102
RTVSPropertyOp3
 70
     1
102
RTVSPropertyOp4
 70
     1
102
RTVSPropertyOp5
 70
     1
102
RTVSPropertyOp6
 70
     1
102
RTVSPropertyOp7
 70
     1
102
RTVSPropertyOp8
 70
     1
102
RTVSPropertyOp9
 70
     1
102
RTVSPropertyOp10
 70
     1
102
RTVSPropertyOp11
 70
     1
102
RTVSPropertyOp12
 70
     1
102
RTVSPropertyOp13
 70
     1
102
RTVSPropertyOp14
 70
     1
102
RTVSPropertyOp15
 70
     1
102
RTVSPropertyOp16
 70
     1
102
RTVSPropertyOp17
 70
     1
102
RTVSPropertyOp18
 70
     1
102
RTVSPropertyOp19
 70
     1
102
RTVSPropertyOp20
 70
     1
102
RTVSPropertyOp21
 70
     1
102
RTVSPropertyOp22
 70
     1
102
RTVSPropertyOp23
 70
     1
102
RTVSPropertyOp24
 70
     1
102
RTVSPropertyOp25
 70
     1
102
RTVSPropertyOp26
 70
     1
102
RTVSPropertyOp27
 70
     1
102
RTVSPropertyOp28
 70
     1
102
RTVSPropertyOp29
 70
     1
102
RTVSPropertyOp30
 70
     1
102
RTVSPropertyOp31
 70
     1
102
RTVSPropertyOp32
 70
     1
  0
XRECORD
  5
412
102
{ACAD_REACTORS
330
411
102
}
330
411
100
AcDbXrecord
280
     1
102
RTVSPropertyOp0
 70
     1
102
RTVSPropertyOp1
 70
     1
102
RTVSPropertyOp2
 70
     1
102
RTVSPropertyOp3
 70
     1
102
RTVSPropertyOp4
 70
     1
102
RTVSPropertyOp5
 70
     1
102
RTVSPropertyOp6
 70
     1
102
RTVSPropertyOp7
 70
     1
102
RTVSPropertyOp8
 70
     1
102
RTVSPropertyOp9
 70
     1
102
RTVSPropertyOp10
 70
     1
102
RTVSPropertyOp11
 70
     1
102
RTVSPropertyOp12
 70
     1
102
RTVSPropertyOp13
 70
     1
102
RTVSPropertyOp14
 70
     1
102
RTVSPropertyOp15
 70
     1
102
RTVSPropertyOp16
 70
     1
102
RTVSPropertyOp17
 70
     1
102
RTVSPropertyOp18
 70
     1
102
RTVSPropertyOp19
 70
     1
102
RTVSPropertyOp20
 70
     1
102
RTVSPropertyOp21
 70
     1
102
RTVSPropertyOp22
 70
     1
102
RTVSPropertyOp23
 70
     1
102
RTVSPropertyOp24
 70
     1
102
RTVSPropertyOp25
 70
     1
102
RTVSPropertyOp26
 70
     1
102
RTVSPropertyOp27
 70
     1
102
RTVSPropertyOp28
 70
     1
102
RTVSPropertyOp29
 70
     1
102
RTVSPropertyOp30
 70
     1
102
RTVSPropertyOp31
 70
     1
102
RTVSPropertyOp32
 70
     1
  0
ENDSEC
  0
EOF
