  0
SECTION
  2
HEADER
  9
$ACADVER
  1
AC1018
  9
$ACADMAINTVER
 70
     0
  9
$DWGCODEPAGE
  3
ANSI_1252
  9
$INSBASE
 10
0.0
 20
0.0
 30
0.0
  9
$EXTMIN
 10
1.000000000000000E+20
 20
1.000000000000000E+20
 30
1.000000000000000E+20
  9
$EXTMAX
 10
-1.000000000000000E+20
 20
-1.000000000000000E+20
 30
-1.000000000000000E+20
  9
$LIMMIN
 10
0.0
 20
0.0
  9
$LIMMAX
 10
12.0
 20
9.0
  9
$ORTHOMODE
 70
     0
  9
$REGENMODE
 70
     1
  9
$FILLMODE
 70
     1
  9
$QTEXTMODE
 70
     0
  9
$MIRRTEXT
 70
     1
  9
$LTSCALE
 40
1.0
  9
$ATTMODE
 70
     1
  9
$TEXTSIZE
 40
0.2
  9
$TRACEWID
 40
0.05
  9
$TEXTSTYLE
  7
Standard
  9
$CLAYER
  8
0
  9
$CELTYPE
  6
ByLayer
  9
$CECOLOR
 62
   256
  9
$CELTSCALE
 40
1.0
  9
$DISPSILH
 70
     0
  9
$DIMSCALE
 40
1.0
  9
$DIMASZ
 40
0.18
  9
$DIMEXO
 40
0.0625
  9
$DIMDLI
 40
0.38
  9
$DIMRND
 40
0.0
  9
$DIMDLE
 40
0.0
  9
$DIMEXE
 40
0.18
  9
$DIMTP
 40
0.0
  9
$DIMTM
 40
0.0
  9
$DIMTXT
 40
0.18
  9
$DIMCEN
 40
0.09
  9
$DIMTSZ
 40
0.0
  9
$DIMTOL
 70
     0
  9
$DIMLIM
 70
     0
  9
$DIMTIH
 70
     1
  9
$DIMTOH
 70
     1
  9
$DIMSE1
 70
     0
  9
$DIMSE2
 70
     0
  9
$DIMTAD
 70
     0
  9
$DIMZIN
 70
     0
  9
$DIMBLK
  1

  9
$DIMASO
 70
     1
  9
$DIMSHO
 70
     1
  9
$DIMPOST
  1

  9
$DIMAPOST
  1

  9
$DIMALT
 70
     0
  9
$DIMALTD
 70
     2
  9
$DIMALTF
 40
25.4
  9
$DIMLFAC
 40
1.0
  9
$DIMTOFL
 70
     0
  9
$DIMTVP
 40
0.0
  9
$DIMTIX
 70
     0
  9
$DIMSOXD
 70
     0
  9
$DIMSAH
 70
     0
  9
$DIMBLK1
  1

  9
$DIMBLK2
  1

  9
$DIMSTYLE
  2
Standard
  9
$DIMCLRD
 70
     0
  9
$DIMCLRE
 70
     0
  9
$DIMCLRT
 70
     0
  9
$DIMTFAC
 40
1.0
  9
$DIMGAP
 40
0.09
  9
$DIMJUST
 70
     0
  9
$DIMSD1
 70
     0
  9
$DIMSD2
 70
     0
  9
$DIMTOLJ
 70
     1
  9
$DIMTZIN
 70
     0
  9
$DIMALTZ
 70
     0
  9
$DIMALTTZ
 70
     0
  9
$DIMUPT
 70
     0
  9
$DIMDEC
 70
     4
  9
$DIMTDEC
 70
     4
  9
$DIMALTU
 70
     2
  9
$DIMALTTD
 70
     2
  9
$DIMTXSTY
  7
Standard
  9
$DIMAUNIT
 70
     0
  9
$DIMADEC
 70
     0
  9
$DIMALTRND
 40
0.0
  9
$DIMAZIN
 70
     0
  9
$DIMDSEP
 70
    46
  9
$DIMATFIT
 70
     3
  9
$DIMFRAC
 70
     0
  9
$DIMLDRBLK
  1

  9
$DIMLUNIT
 70
     2
  9
$DIMLWD
 70
    -2
  9
$DIMLWE
 70
    -2
  9
$DIMTMOVE
 70
     0
  9
$LUNITS
 70
     2
  9
$LUPREC
 70
     4
  9
$SKETCHINC
 40
0.1
  9
$FILLETRAD
 40
0.5
  9
$AUNITS
 70
     0
  9
$AUPREC
 70
     0
  9
$MENU
  1
.
  9
$ELEVATION
 40
0.0
  9
$PELEVATION
 40
0.0
  9
$THICKNESS
 40
0.0
  9
$LIMCHECK
 70
     0
  9
$CHAMFERA
 40
0.5
  9
$CHAMFERB
 40
0.5
  9
$CHAMFERC
 40
1.0
  9
$CHAMFERD
 40
0.0
  9
$SKPOLY
 70
     0
  9
$TDCREATE
 40
2457126.425458935
  9
$TDUCREATE
 40
2457125.925458935
  9
$TDUPDATE
 40
2457126.425460347
  9
$TDUUPDATE
 40
2457125.925460347
  9
$TDINDWG
 40
0.0000000116
  9
$TDUSRTIMER
 40
0.0000000116
  9
$USRTIMER
 70
     1
  9
$ANGBASE
 50
0.0
  9
$ANGDIR
 70
     0
  9
$PDMODE
 70
     0
  9
$PDSIZE
 40
0.0
  9
$PLINEWID
 40
0.0
  9
$SPLFRAME
 70
     0
  9
$SPLINETYPE
 70
     6
  9
$SPLINESEGS
 70
     8
  9
$HANDSEED
  5
186
  9
$SURFTAB1
 70
     6
  9
$SURFTAB2
 70
     6
  9
$SURFTYPE
 70
     6
  9
$SURFU
 70
     6
  9
$SURFV
 70
     6
  9
$UCSBASE
  2

  9
$UCSNAME
  2

  9
$UCSORG
 10
0.0
 20
0.0
 30
0.0
  9
$UCSXDIR
 10
1.0
 20
0.0
 30
0.0
  9
$UCSYDIR
 10
0.0
 20
1.0
 30
0.0
  9
$UCSORTHOREF
  2

  9
$UCSORTHOVIEW
 70
     0
  9
$UCSORGTOP
 10
0.0
 20
0.0
 30
0.0
  9
$UCSORGBOTTOM
 10
0.0
 20
0.0
 30
0.0
  9
$UCSORGLEFT
 10
0.0
 20
0.0
 30
0.0
  9
$UCSORGRIGHT
 10
0.0
 20
0.0
 30
0.0
  9
$UCSORGFRONT
 10
0.0
 20
0.0
 30
0.0
  9
$UCSORGBACK
 10
0.0
 20
0.0
 30
0.0
  9
$PUCSBASE
  2

  9
$PUCSNAME
  2

  9
$PUCSORG
 10
0.0
 20
0.0
 30
0.0
  9
$PUCSXDIR
 10
1.0
 20
0.0
 30
0.0
  9
$PUCSYDIR
 10
0.0
 20
1.0
 30
0.0
  9
$PUCSORTHOREF
  2

  9
$PUCSORTHOVIEW
 70
     0
  9
$PUCSORGTOP
 10
0.0
 20
0.0
 30
0.0
  9
$PUCSORGBOTTOM
 10
0.0
 20
0.0
 30
0.0
  9
$PUCSORGLEFT
 10
0.0
 20
0.0
 30
0.0
  9
$PUCSORGRIGHT
 10
0.0
 20
0.0
 30
0.0
  9
$PUCSORGFRONT
 10
0.0
 20
0.0
 30
0.0
  9
$PUCSORGBACK
 10
0.0
 20
0.0
 30
0.0
  9
$USERI1
 70
     0
  9
$USERI2
 70
     0
  9
$USERI3
 70
     0
  9
$USERI4
 70
     0
  9
$USERI5
 70
     0
  9
$USERR1
 40
0.0
  9
$USERR2
 40
0.0
  9
$USERR3
 40
0.0
  9
$USERR4
 40
0.0
  9
$USERR5
 40
0.0
  9
$WORLDVIEW
 70
     1
  9
$SHADEDGE
 70
     3
  9
$SHADEDIF
 70
    70
  9
$TILEMODE
 70
     1
  9
$MAXACTVP
 70
    64
  9
$PINSBASE
 10
0.0
 20
0.0
 30
0.0
  9
$PLIMCHECK
 70
     0
  9
$PEXTMIN
 10
1.000000000000000E+20
 20
1.000000000000000E+20
 30
1.000000000000000E+20
  9
$PEXTMAX
 10
-1.000000000000000E+20
 20
-1.000000000000000E+20
 30
-1.000000000000000E+20
  9
$PLIMMIN
 10
0.0
 20
0.0
  9
$PLIMMAX
 10
12.0
 20
9.0
  9
$UNITMODE
 70
     0
  9
$VISRETAIN
 70
     1
  9
$PLINEGEN
 70
     0
  9
$PSLTSCALE
 70
     1
  9
$TREEDEPTH
 70
  3020
  9
$CMLSTYLE
  2
Standard
  9
$CMLJUST
 70
     0
  9
$CMLSCALE
 40
1.0
  9
$PROXYGRAPHICS
 70
     1
  9
$MEASUREMENT
 70
     0
  9
$CELWEIGHT
370
    -1
  9
$ENDCAPS
280
     0
  9
$JOINSTYLE
280
     0
  9
$LWDISPLAY
290
     1
  9
$INSUNITS
 70
     4
  9
$HYPERLINKBASE
  1

  9
$STYLESHEET
  1

  9
$XEDIT
290
     1
  9
$CEPSNTYPE
380
     0
  9
$PSTYLEMODE
290
     1
  9
$FINGERPRINTGUID
  2
{D8ABB88B-BEB0-4E16-A9B1-660D2490FC0A}
  9
$VERSIONGUID
  2
{FAEB1C32-E019-11D5-929B-00C0DF256EC4}
  9
$EXTNAMES
290
     1
  9
$PSVPSCALE
 40
0.0
  9
$OLESTARTUP
290
     0
  9
$SORTENTS
280
   127
  9
$INDEXCTL
280
     0
  9
$HIDETEXT
280
     1
  9
$XCLIPFRAME
290
     0
  9
$HALOGAP
280
     0
  9
$OBSCOLOR
 70
   257
  9
$OBSLTYPE
280
     0
  9
$INTERSECTIONDISPLAY
280
     0
  9
$INTERSECTIONCOLOR
 70
   257
  9
$DIMASSOC
280
     2
  9
$PROJECTNAME
  1

  0
ENDSEC
  0
SECTION
  2
CLASSES
  0
CLASS
  1
ACDBDICTIONARYWDFLT
  2
AcDbDictionaryWithDefault
  3
ObjectDBX Classes
 90
        0
 91
        4
280
     0
281
     0
  0
CLASS
  1
VISUALSTYLE
  2
AcDbVisualStyle
  3
ObjectDBX Classes
 90
     4095
 91
        4
280
     0
281
     0
  0
CLASS
  1
MATERIAL
  2
AcDbMaterial
  3
ObjectDBX Classes
 90
     1153
 91
        4
280
     0
281
     0
  0
CLASS
  1
WIPEOUT
  2
AcDbWipeout
  3
WipeOut|AutoCAD Express Tool|expresstools@autodesk.com
 90
      127
 91
        4
280
     0
281
     1
  0
CLASS
  1
SCALE
  2
AcDbScale
  3
ObjectDBX Classes
 90
     1153
 91
        4
280
     0
281
     0
  0
CLASS
  1
DICTIONARYVAR
  2
AcDbDictionaryVar
  3
ObjectDBX Classes
 90
        0
 91
        4
280
     0
281
     0
  0
ENDSEC
  0
SECTION
  2
TABLES
  0
TABLE
  2
VPORT
  5
8
330
0
100
AcDbSymbolTable
 70
     1
  0
VPORT
  5
29
330
8
100
AcDbSymbolTableRecord
100
AcDbViewportTableRecord
  2
*Active
 70
     0
 10
0.0
 20
0.0
 11
1.0
 21
1.0
 12
102.4404974183154
 22
169.7540029021081
 13
0.0
 23
0.0
 14
0.5
 24
0.5
 15
0.5
 25
0.5
 16
0.0
 26
0.0
 36
1.0
 17
0.0
 27
0.0
 37
0.0
 40
418.021850842494
 41
0.8013711589578628
 42
50.0
 43
0.0
 44
0.0
 50
0.0
 51
0.0
 71
     0
 72
   100
 73
     1
 74
     3
 75
     0
 76
     0
 77
     0
 78
     0
281
     0
 65
     1
110
0.0
120
0.0
130
0.0
111
1.0
121
0.0
131
0.0
112
0.0
122
1.0
132
0.0
 79
     0
146
0.0
  0
ENDTAB
  0
TABLE
  2
LTYPE
  5
5
330
0
100
AcDbSymbolTable
 70
     3
  0
LTYPE
  5
14
330
5
100
AcDbSymbolTableRecord
100
AcDbLinetypeTableRecord
  2
ByBlock
 70
     0
  3

 72
    65
 73
     0
 40
0.0
  0
LTYPE
  5
15
330
5
100
AcDbSymbolTableRecord
100
AcDbLinetypeTableRecord
  2
ByLayer
 70
     0
  3

 72
    65
 73
     0
 40
0.0
  0
LTYPE
  5
16
330
5
100
AcDbSymbolTableRecord
100
AcDbLinetypeTableRecord
  2
Continuous
 70
     0
  3
Solid line
 72
    65
 73
     0
 40
0.0
  0
LTYPE
  5
CC
330
5
100
AcDbSymbolTableRecord
100
AcDbLinetypeTableRecord
  2
Above
 70
     0
  3
- - - - - 
 72
    65
 73
     2
 40
15.0
 49
10.0
 74
     0
 49
-4.999999999999999
 74
     0
  0
LTYPE
  5
110
330
5
100
AcDbSymbolTableRecord
100
AcDbLinetypeTableRecord
  2
Wipeout_Contour
 70
     0
  3
- - - - - 
 72
    65
 73
     2
 40
1000.0
 49
0.0
 74
     0
 49
-1000.0
 74
     0
  0
ENDTAB
  0
TABLE
  2
LAYER
  5
2
330
0
100
AcDbSymbolTable
 70
     4
  0
LAYER
  5
10
330
2
100
AcDbSymbolTableRecord
100
AcDbLayerTableRecord
  2
0
 70
     0
 62
     7
  6
Continuous
370
    -3
390
F
  0
LAYER
  5
40
330
2
100
AcDbSymbolTableRecord
100
AcDbLayerTableRecord
  2
0_Pen_No__146
 70
     0
 62
     9
420
 13290186
  6
Continuous
370
     5
390
F
  0
LAYER
  5
43
330
2
100
AcDbSymbolTableRecord
100
AcDbLayerTableRecord
  2
0_Pen_No__1
 70
     0
 62
     7
  6
Continuous
370
    13
390
F
  0
LAYER
  5
111
330
2
100
AcDbSymbolTableRecord
100
AcDbLayerTableRecord
  2
Key_ Sections_Pen_No__1
 70
     0
 62
     7
  6
Continuous
370
    13
390
F
  0
ENDTAB
  0
TABLE
  2
STYLE
  5
3
330
0
100
AcDbSymbolTable
 70
     2
  0
STYLE
  5
11
330
3
100
AcDbSymbolTableRecord
100
AcDbTextStyleTableRecord
  2
Standard
 70
     0
 40
0.0
 41
1.0
 50
0.0
 71
     0
 42
0.2
  3
txt
  4

  0
STYLE
  5
E0
330
3
100
AcDbSymbolTableRecord
100
AcDbTextStyleTableRecord
  2
GENERATED_STYLE_1
 70
     0
 40
0.0
 41
1.0
 50
0.0
 71
     0
 42
0.2
  3

  4

1001
ACAD
1000
Arial
1071
       34
  0
ENDTAB
  0
TABLE
  2
VIEW
  5
6
330
0
100
AcDbSymbolTable
 70
     0
  0
ENDTAB
  0
TABLE
  2
UCS
  5
7
330
0
100
AcDbSymbolTable
 70
     0
  0
ENDTAB
  0
TABLE
  2
APPID
  5
9
330
0
100
AcDbSymbolTable
 70
     1
  0
APPID
  5
12
330
9
100
AcDbSymbolTableRecord
100
AcDbRegAppTableRecord
  2
ACAD
 70
     0
  0
ENDTAB
  0
TABLE
  2
DIMSTYLE
  5
A
330
0
100
AcDbSymbolTable
 70
     5
100
AcDbDimStyleTable
  0
DIMSTYLE
105
27
330
A
100
AcDbSymbolTableRecord
100
AcDbDimStyleTableRecord
  2
Standard
 70
     0
178
     0
340
11
  0
DIMSTYLE
105
E3
102
{ACAD_REACTORS
330
E2
102
}
330
A
100
AcDbSymbolTableRecord
100
AcDbDimStyleTableRecord
  2
GENERATED_STYLE__1
 70
     0
 41
3.254010026106251
 42
100.0
 77
     1
140
5.0
172
     1
176
     7
177
     7
271
     0
178
     7
271
     0
288
     1
340
E0
342
E4
343
E4
344
E4
  0
DIMSTYLE
105
F5
102
{ACAD_REACTORS
330
F4
102
}
330
A
100
AcDbSymbolTableRecord
100
AcDbDimStyleTableRecord
  2
GENERATED_STYLE__2
 70
     0
 41
3.254010026106251
 42
100.0
 73
     0
 74
     0
 77
     1
140
5.0
172
     1
176
     7
177
     7
271
     0
178
     7
271
     0
288
     1
340
E0
342
E4
343
E4
344
E4
  0
DIMSTYLE
105
102
102
{ACAD_REACTORS
330
101
330
10E
102
}
330
A
100
AcDbSymbolTableRecord
100
AcDbDimStyleTableRecord
  2
GENERATED_STYLE__3
 70
     0
 41
3.254010026106251
 42
100.0
 73
     0
 74
     0
 77
     1
140
5.0
172
     1
176
     7
177
     7
271
     0
178
     7
271
     0
279
     2
288
     1
340
E0
342
E4
343
E4
344
E4
  0
DIMSTYLE
105
114
330
A
100
AcDbSymbolTableRecord
100
AcDbDimStyleTableRecord
  2
GENERATED_STYLE__4
 70
     0
 41
3.648
172
     1
178
     0
340
0
341
115
  0
ENDTAB
  0
TABLE
  2
BLOCK_RECORD
  5
1
330
0
100
AcDbSymbolTable
 70
     8
  0
BLOCK_RECORD
  5
1F
330
1
100
AcDbSymbolTableRecord
100
AcDbBlockTableRecord
  2
*Model_Space
340
22
  0
BLOCK_RECORD
  5
1B
330
1
100
AcDbSymbolTableRecord
100
AcDbBlockTableRecord
  2
*Paper_Space
340
1E
  0
BLOCK_RECORD
  5
23
330
1
100
AcDbSymbolTableRecord
100
AcDbBlockTableRecord
  2
*Paper_Space0
340
26
  0
BLOCK_RECORD
  5
D6
330
1
100
AcDbSymbolTableRecord
100
AcDbBlockTableRecord
  2
*D1
340
0
  0
BLOCK_RECORD
  5
E4
330
1
100
AcDbSymbolTableRecord
100
AcDbBlockTableRecord
  2
ARROWHEAD_2
340
0
  0
BLOCK_RECORD
  5
E9
330
1
100
AcDbSymbolTableRecord
100
AcDbBlockTableRecord
  2
*D3
340
0
  0
BLOCK_RECORD
  5
F6
330
1
100
AcDbSymbolTableRecord
100
AcDbBlockTableRecord
  2
*D4
340
0
  0
BLOCK_RECORD
  5
103
330
1
100
AcDbSymbolTableRecord
100
AcDbBlockTableRecord
  2
*D5
340
0
  0
BLOCK_RECORD
  5
115
330
1
100
AcDbSymbolTableRecord
100
AcDbBlockTableRecord
  2
ARROWHEAD_5
340
0
  0
BLOCK_RECORD
  5
134
330
1
100
AcDbSymbolTableRecord
100
AcDbBlockTableRecord
  2
DF-02-R Window Sill_STORY_MARKER
340
0
  0
ENDTAB
  0
ENDSEC
  0
SECTION
  2
BLOCKS
  0
BLOCK
  5
20
330
1F
100
AcDbEntity
  8
0
100
AcDbBlockBegin
  2
*Model_Space
 70
     0
 10
0.0
 20
0.0
 30
0.0
  3
*Model_Space
  1

  0
ENDBLK
  5
21
330
1F
100
AcDbEntity
  8
0
100
AcDbBlockEnd
  0
BLOCK
  5
1C
330
1B
100
AcDbEntity
 67
     1
  8
0
100
AcDbBlockBegin
  2
*Paper_Space
 70
     0
 10
0.0
 20
0.0
 30
0.0
  3
*Paper_Space
  1

  0
ENDBLK
  5
1D
330
1B
100
AcDbEntity
 67
     1
  8
0
100
AcDbBlockEnd
  0
BLOCK
  5
24
330
23
100
AcDbEntity
  8
0
100
AcDbBlockBegin
  2
*Paper_Space0
 70
     0
 10
0.0
 20
0.0
 30
0.0
  3
*Paper_Space0
  1

  0
ENDBLK
  5
25
330
23
100
AcDbEntity
  8
0
100
AcDbBlockEnd
  0
BLOCK
  5
D7
330
D6
100
AcDbEntity
  8
0
100
AcDbBlockBegin
  2
*D1
 70
     1
 10
0.0
 20
0.0
 30
0.0
  3
*D1
  1

  0
LINE
  5
D9
330
D6
100
AcDbEntity
  8
0_Pen_No__1
  6
Continuous
100
AcDbLine
 10
133.5774149195698
 20
195.8753772923092
 30
0.0
 11
135.6711134758408
 21
195.8753772923092
 31
0.0
  0
LINE
  5
DA
330
D6
100
AcDbEntity
  8
0_Pen_No__1
  6
Continuous
100
AcDbLine
 10
135.6711134758408
 20
195.8753772923092
 30
0.0
 11
143.9256045138368
 21
195.8753772923092
 31
0.0
  0
LINE
  5
DB
330
D6
100
AcDbEntity
  8
0_Pen_No__1
  6
Continuous
100
AcDbLine
 10
136.9071020867437
 20
198.0161733621159
 30
0.0
 11
134.4351248649379
 21
193.7345812225024
 31
0.0
  0
LINE
  5
DC
330
D6
100
AcDbEntity
  8
0_Pen_No__1
  6
Continuous
100
AcDbLine
 10
142.6896159029339
 20
193.7345812225024
 30
0.0
 11
145.1615931247398
 21
198.0161733621159
 31
0.0
  0
LINE
  5
DD
330
D6
100
AcDbEntity
  8
0_Pen_No__1
  6
Continuous
100
AcDbLine
 10
143.9256045138368
 20
195.8753772923092
 30
0.0
 11
146.0193030701079
 21
195.8753772923092
 31
0.0
  0
LINE
  5
DE
330
D6
100
AcDbEntity
  8
0_Pen_No__1
  6
Continuous
100
AcDbLine
 10
135.6711134758408
 20
192.664183187599
 30
0.0
 11
135.6711134758408
 21
199.0865713970193
 31
0.0
  0
LINE
  5
DF
330
D6
100
AcDbEntity
  8
0_Pen_No__1
  6
Continuous
100
AcDbLine
 10
143.9256045138368
 20
192.664183187599
 30
0.0
 11
143.9256045138368
 21
199.0865713970193
 31
0.0
  0
MTEXT
  5
E1
330
D6
100
AcDbEntity
  8
0_Pen_No__1
100
AcDbMText
 10
137.9012139321538
 20
196.8753772699574
 30
0.0
 40
5.0
 41
0.0
 71
     7
 72
     1
  1
{5}
  7
GENERATED_STYLE_1
 73
     1
 44
1.0
  0
ENDBLK
  5
D8
330
D6
100
AcDbEntity
  8
0
100
AcDbBlockEnd
  0
BLOCK
  5
E5
330
E4
100
AcDbEntity
  8
0
100
AcDbBlockBegin
  2
ARROWHEAD_2
 70
     0
 10
0.0
 20
0.0
 30
0.0
  3
ARROWHEAD_2
  1

  0
LINE
  5
E7
330
E4
100
AcDbEntity
  8
0
  6
Continuous
 62
     0
370
     0
100
AcDbLine
 10
-0.3781315
 20
-0.655
 30
0.0
 11
0.3781315
 21
0.655
 31
0.0
  0
LINE
  5
E8
330
E4
100
AcDbEntity
  8
0
  6
Continuous
 62
     0
370
     0
100
AcDbLine
 10
0.0
 20
0.0
 30
0.0
 11
-1.0
 21
0.0
 31
0.0
  0
ENDBLK
  5
E6
330
E4
100
AcDbEntity
  8
0
100
AcDbBlockEnd
  0
BLOCK
  5
EA
330
E9
100
AcDbEntity
  8
0
100
AcDbBlockBegin
  2
*D3
 70
     1
 10
0.0
 20
0.0
 30
0.0
  3
*D3
  1

  0
LINE
  5
EC
330
E9
100
AcDbEntity
  8
0_Pen_No__1
  6
Continuous
100
AcDbLine
 10
-27.00000000000001
 20
223.2785852710259
 30
0.0
 11
-27.00000000000001
 21
225.3722838272969
 31
0.0
  0
LINE
  5
ED
330
E9
100
AcDbEntity
  8
0_Pen_No__1
  6
Continuous
100
AcDbLine
 10
-27.00000000000001
 20
225.3722838272969
 30
0.0
 11
-27.00000000000001
 21
235.3722838272969
 31
0.0
  0
LINE
  5
EE
330
E9
100
AcDbEntity
  8
0_Pen_No__1
  6
Continuous
100
AcDbLine
 10
-29.14079606980675
 20
226.6082724381998
 30
0.0
 11
-24.85920393019327
 21
224.136295216394
 31
0.0
  0
LINE
  5
EF
330
E9
100
AcDbEntity
  8
0_Pen_No__1
  6
Continuous
100
AcDbLine
 10
-24.85920393019327
 20
234.136295216394
 30
0.0
 11
-29.14079606980675
 21
236.6082724381998
 31
0.0
  0
LINE
  5
F0
330
E9
100
AcDbEntity
  8
0_Pen_No__1
  6
Continuous
100
AcDbLine
 10
-27.00000000000001
 20
235.3722838272969
 30
0.0
 11
-27.00000000000001
 21
237.4659823835679
 31
0.0
  0
LINE
  5
F1
330
E9
100
AcDbEntity
  8
0_Pen_No__1
  6
Continuous
100
AcDbLine
 10
-23.78880589528989
 20
225.3722838272969
 30
0.0
 11
-30.21119410471013
 21
225.3722838272969
 31
0.0
  0
LINE
  5
F2
330
E9
100
AcDbEntity
  8
0_Pen_No__1
  6
Continuous
100
AcDbLine
 10
-23.78880589528989
 20
235.3722838272969
 30
0.0
 11
-30.21119410471013
 21
235.3722838272969
 31
0.0
  0
MTEXT
  5
F3
330
E9
100
AcDbEntity
  8
0_Pen_No__1
100
AcDbMText
 10
-27.99999997764827
 20
205.1177529467022
 30
0.0
 40
5.0
 41
0.0
 71
     7
 72
     1
  1
{10mm}
  7
GENERATED_STYLE_1
 11
6.123233995736766E-17
 21
1.0
 31
0.0
 73
     1
 44
1.0
  0
ENDBLK
  5
EB
330
E9
100
AcDbEntity
  8
0
100
AcDbBlockEnd
  0
BLOCK
  5
F7
330
F6
100
AcDbEntity
  8
0
100
AcDbBlockBegin
  2
*D4
 70
     1
 10
0.0
 20
0.0
 30
0.0
  3
*D4
  1

  0
LINE
  5
F9
330
F6
100
AcDbEntity
  8
0_Pen_No__1
  6
Continuous
100
AcDbLine
 10
68.03886282291418
 20
231.2268126352756
 30
0.0
 11
68.03886282291418
 21
233.3205111915466
 31
0.0
  0
LINE
  5
FA
330
F6
100
AcDbEntity
  8
0_Pen_No__1
  6
Continuous
100
AcDbLine
 10
68.03886282291418
 20
233.3205111915466
 30
0.0
 11
68.03886282291418
 21
235.3722838272969
 31
0.0
  0
LINE
  5
FB
330
F6
100
AcDbEntity
  8
0_Pen_No__1
  6
Continuous
100
AcDbLine
 10
70.17965889272094
 20
232.0845225806436
 30
0.0
 11
65.89806675310744
 21
234.5564998024495
 31
0.0
  0
LINE
  5
FC
330
F6
100
AcDbEntity
  8
0_Pen_No__1
  6
Continuous
100
AcDbLine
 10
65.89806675310744
 20
236.6082724381998
 30
0.0
 11
70.17965889272094
 21
234.136295216394
 31
0.0
  0
LINE
  5
FD
330
F6
100
AcDbEntity
  8
0_Pen_No__1
  6
Continuous
100
AcDbLine
 10
68.03886282291418
 20
235.3722838272969
 30
0.0
 11
68.03886282291418
 21
237.4659823835679
 31
0.0
  0
LINE
  5
FE
330
F6
100
AcDbEntity
  8
0_Pen_No__1
  6
Continuous
100
AcDbLine
 10
71.2500569276243
 20
233.3205111915466
 30
0.0
 11
64.82766871820407
 21
233.3205111915466
 31
0.0
  0
LINE
  5
FF
330
F6
100
AcDbEntity
  8
0_Pen_No__1
  6
Continuous
100
AcDbLine
 10
71.2500569276243
 20
235.3722838272969
 30
0.0
 11
64.82766871820407
 21
235.3722838272969
 31
0.0
  0
MTEXT
  5
100
330
F6
100
AcDbEntity
  8
0_Pen_No__1
100
AcDbMText
 10
66.21055198642692
 20
237.0322195824607
 30
0.0
 40
5.0
 41
0.0
 71
     7
 72
     1
  1
{2mm}
  7
GENERATED_STYLE_1
 11
6.123233995736766E-17
 21
1.0
 31
0.0
 73
     1
 44
1.0
  0
ENDBLK
  5
F8
330
F6
100
AcDbEntity
  8
0
100
AcDbBlockEnd
  0
BLOCK
  5
104
330
103
100
AcDbEntity
  8
0
100
AcDbBlockBegin
  2
*D5
 70
     1
 10
0.0
 20
0.0
 30
0.0
  3
*D5
  1

  0
LINE
  5
106
330
103
100
AcDbEntity
  8
0_Pen_No__1
  6
Continuous
100
AcDbLine
 10
167.49732651411
 20
211.378585271026
 30
0.0
 11
167.49732651411
 21
213.472283827297
 31
0.0
  0
LINE
  5
107
330
103
100
AcDbEntity
  8
0_Pen_No__1
  6
Continuous
100
AcDbLine
 10
167.49732651411
 20
213.472283827297
 30
0.0
 11
167.49732651411
 21
223.1207804411335
 31
0.0
  0
LINE
  5
108
330
103
100
AcDbEntity
  8
0_Pen_No__1
  6
Continuous
100
AcDbLine
 10
165.3565304443033
 20
214.7082724381999
 30
0.0
 11
169.6381225839168
 21
212.2362952163941
 31
0.0
  0
LINE
  5
109
330
103
100
AcDbEntity
  8
0_Pen_No__1
  6
Continuous
100
AcDbLine
 10
169.6381225839168
 20
221.8847918302305
 30
0.0
 11
165.3565304443033
 21
224.3567690520364
 31
0.0
  0
LINE
  5
10A
330
103
100
AcDbEntity
  8
0_Pen_No__1
  6
Continuous
100
AcDbLine
 10
167.49732651411
 20
223.1207804411335
 30
0.0
 11
167.49732651411
 21
225.2144789974045
 31
0.0
  0
LINE
  5
10B
330
103
100
AcDbEntity
  8
0_Pen_No__1
  6
Continuous
100
AcDbLine
 10
170.7085206188201
 20
213.472283827297
 30
0.0
 11
164.2861324093999
 21
213.472283827297
 31
0.0
  0
LINE
  5
10C
330
103
100
AcDbEntity
  8
0_Pen_No__1
  6
Continuous
100
AcDbLine
 10
170.7085206188201
 20
223.1207804411335
 30
0.0
 11
164.2861324093999
 21
223.1207804411335
 31
0.0
  0
MTEXT
  5
10D
330
103
100
AcDbEntity
  8
0_Pen_No__1
100
AcDbMText
 10
166.4973265364617
 20
224.5827992772014
 30
0.0
 40
5.0
 41
0.0
 71
     7
 72
     1
  1
{10mm min}
  7
GENERATED_STYLE_1
 11
6.123233995736766E-17
 21
1.0
 31
0.0
 73
     1
 44
1.0
  0
ENDBLK
  5
105
330
103
100
AcDbEntity
  8
0
100
AcDbBlockEnd
  0
BLOCK
  5
116
330
115
100
AcDbEntity
  8
0
100
AcDbBlockBegin
  2
ARROWHEAD_5
 70
     0
 10
0.0
 20
0.0
 30
0.0
  3
ARROWHEAD_5
  1

  0
SOLID
  5
118
330
115
100
AcDbEntity
  8
0
  6
Continuous
 62
     0
370
     0
100
AcDbTrace
 10
-1.0
 20
0.2679
 30
0.0
 11
0.0
 21
0.0
 31
0.0
 12
-1.0
 22
-0.2679
 32
0.0
 13
-1.0
 23
0.2679
 33
0.0
  0
LINE
  5
119
330
115
100
AcDbEntity
  8
0
  6
Continuous
 62
     0
370
     0
100
AcDbLine
 10
0.0
 20
0.0
 30
0.0
 11
-1.0
 21
0.0
 31
0.0
  0
ENDBLK
  5
117
330
115
100
AcDbEntity
  8
0
100
AcDbBlockEnd
  0
BLOCK
  5
135
330
134
100
AcDbEntity
  8
0
100
AcDbBlockBegin
  2
DF-02-R Window Sill_STORY_MARKER
 70
     0
 10
0.0
 20
0.0
 30
0.0
  3
DF-02-R Window Sill_STORY_MARKER
  1

  0
ENDBLK
  5
136
330
134
100
AcDbEntity
  8
0
100
AcDbBlockEnd
  0
ENDSEC
  0
SECTION
  2
ENTITIES
  0
HATCH
  5
3F
330
1F
100
AcDbEntity
  8
0_Pen_No__146
  6
Continuous
100
AcDbHatch
 10
0.0
 20
0.0
 30
0.0
210
0.0
220
0.0
230
1.0
  2
SMALLDOTS
 70
     0
 71
     0
 91
        1
 92
        3
 72
     0
 73
     1
 93
        4
 10
10.498046875
 20
0.0
 10
10.498046875
 20
233.358119420304
 10
0.0
 20
233.3722838272969
 10
0.0
 20
0.0
 97
        0
 75
     0
 76
     2
 52
0.0
 41
1.0
 77
     0
 78
     2
 53
45.0
 43
0.0
 44
0.0
 45
-4.772970773009195
 46
4.772970773009196
 79
     4
 49
0.0
 49
-4.5
 49
0.0
 49
-6.75
 53
110.0
 43
15.0
 44
0.0
 45
6.34292519030488
 46
2.308635967448266
 79
     4
 49
0.0
 49
-3.3
 49
0.0
 49
-5.700000000000001
 98
        0
  0
HATCH
  5
41
330
1F
100
AcDbEntity
  8
0_Pen_No__146
  6
Continuous
 62
   250
420
  3289650
370
     0
100
AcDbHatch
 10
0.0
 20
0.0
 30
0.0
210
0.0
220
0.0
230
1.0
  2
SOLID
 70
     1
 71
     0
 91
        1
 92
        3
 72
     0
 73
     1
 93
        4
 10
30.91438506607735
 20
229.3722838272969
 10
55.91438506607749
 20
229.3722838272969
 10
55.91438506607749
 20
233.3722838272969
 10
30.91438506607735
 20
233.3722838272969
 97
        0
 75
     0
 76
     1
 98
        0
  0
HATCH
  5
42
330
1F
100
AcDbEntity
  8
0_Pen_No__146
  6
Continuous
100
AcDbHatch
 10
0.0
 20
0.0
 30
0.0
210
0.0
220
0.0
230
1.0
  2
SMALLDOTS
 70
     0
 71
     0
 91
        1
 92
        3
 72
     0
 73
     1
 93
        4
 10
-2.000000000000002
 20
253.3722838272969
 10
-12.00000000000001
 20
248.372283827297
 10
-12.00000000000001
 20
218.3722838272968
 10
-2.000000000000002
 20
213.3722838272969
 97
        0
 75
     0
 76
     2
 52
0.0
 41
1.0
 77
     0
 78
     2
 53
45.0
 43
0.0
 44
0.0
 45
-4.772970773009195
 46
4.772970773009196
 79
     4
 49
0.0
 49
-4.5
 49
0.0
 49
-6.75
 53
110.0
 43
15.0
 44
0.0
 45
6.34292519030488
 46
2.308635967448266
 79
     4
 49
0.0
 49
-3.3
 49
0.0
 49
-5.700000000000001
 98
        0
  0
LWPOLYLINE
  5
44
330
1F
100
AcDbEntity
  8
0_Pen_No__1
  6
Continuous
100
AcDbPolyline
 90
        4
 70
   129
 43
0.0
 10
0.0
 20
235.3722838272969
 10
92.49804687500007
 20
235.3722838272969
 10
92.49804687500007
 20
253.3722838272969
 10
0.0
 20
253.3722838272969
  0
HATCH
  5
45
330
1F
100
AcDbEntity
  8
0_Pen_No__146
  6
Continuous
100
AcDbHatch
 10
0.0
 20
0.0
 30
0.0
210
0.0
220
0.0
230
1.0
  2
SMALLDOTS
 70
     0
 71
     0
 91
        1
 92
        3
 72
     0
 73
     1
 93
        8
 10
115.4948998745708
 20
0.0
 10
115.4948998745697
 20
7.863507456393748
 10
122.0829748576058
 20
7.863507456393748
 10
122.082974857606
 20
18.91320618334835
 10
117.1961931502565
 20
18.91320618334835
 10
117.1961931502565
 20
12.67885494055521
 10
109.0928279216838
 20
12.67885494055521
 10
109.0928279216838
 20
0.0
 97
        0
 75
     0
 76
     2
 52
0.0
 41
1.0
 77
     0
 78
     2
 53
45.0
 43
0.0
 44
0.0
 45
-4.772970773009195
 46
4.772970773009196
 79
     4
 49
0.0
 49
-4.5
 49
0.0
 49
-6.75
 53
110.0
 43
15.0
 44
0.0
 45
6.34292519030488
 46
2.308635967448266
 79
     4
 49
0.0
 49
-3.3
 49
0.0
 49
-5.700000000000001
 98
        0
  0
HATCH
  5
46
330
1F
100
AcDbEntity
  8
0_Pen_No__146
  6
Continuous
 62
   250
420
  3289650
370
     0
100
AcDbHatch
 10
0.0
 20
0.0
 30
0.0
210
0.0
220
0.0
230
1.0
  2
SOLID
 70
     1
 71
     0
 91
        1
 92
        3
 72
     0
 73
     1
 93
        5
 10
73.29906163533684
 20
225.3722838272969
 10
12.498046875
 20
225.3722838272969
 10
12.498046875
 20
185.3722838272969
 10
102.4980468750001
 20
185.3722838272969
 10
102.4980468750001
 20
225.3722838272969
 97
        0
 75
     0
 76
     1
 98
        0
  0
HATCH
  5
47
330
1F
100
AcDbEntity
  8
0_Pen_No__146
  6
Continuous
 62
   250
420
  3289650
370
     0
100
AcDbHatch
 10
0.0
 20
0.0
 30
0.0
210
0.0
220
0.0
230
1.0
  2
SOLID
 70
     1
 71
     0
 91
        1
 92
        3
 72
     0
 73
     1
 93
        5
 10
121.5426778728423
 20
223.5759884888291
 10
106.4980468749999
 20
223.5759884888291
 10
106.4980468749999
 20
189.4233505195271
 10
116.3774328483276
 20
189.4233505195271
 10
121.5426778728423
 20
189.6006421073708
 97
        0
 75
     0
 76
     1
 98
        0
  0
HATCH
  5
48
330
1F
100
AcDbEntity
  8
0_Pen_No__146
  6
Continuous
100
AcDbHatch
 10
0.0
 20
0.0
 30
0.0
210
0.0
220
0.0
230
1.0
  2
SMALLDOTS
 70
     0
 71
     0
 91
        1
 92
        3
 72
     1
 73
     1
 93
       19
 10
108.0928279216826
 20
131.2060576275798
 42
0.2578442516232814
 10
123.0928279216794
 20
89.55112926597053
 42
0.0
 10
123.0928279216794
 20
27.55112926596937
 42
0.0
 10
109.0928279216838
 20
27.55112926596937
 42
0.0
 10
109.0928279216838
 20
14.75096970350265
 42
0.0
 10
116.0928279216817
 20
14.75096970350265
 42
0.0
 10
116.0928279216817
 20
20.55112926597147
 42
0.0
 10
123.0928279216794
 20
20.55112926597147
 42
0.0
 10
123.0928279216794
 20
1.715493636331944
 42
0.0
 10
116.0928279216817
 20
1.715493636331944
 42
0.0
 10
116.0928279216817
 20
0.0
 42
0.0
 10
130.0928279216811
 20
0.0
 42
0.0
 10
130.0928279216811
 20
94.20605762758049
 42
-0.2372885156421136
 10
115.0928279216841
 20
124.2060576275783
 42
0.0
 10
130.0928279216811
 20
124.2060576275783
 42
0.0
 10
130.0928279216811
 20
223.1207804411335
 42
0.0
 10
123.3525293094211
 20
223.1207804411335
 42
0.0
 10
123.0928279216794
 20
222.861079053392
 42
0.0
 10
123.0928279216794
 20
131.2060576275798
 42
0.0
 97
        0
 75
     0
 76
     2
 52
0.0
 41
1.0
 77
     0
 78
     2
 53
45.0
 43
0.0
 44
0.0
 45
-4.772970773009195
 46
4.772970773009196
 79
     4
 49
0.0
 49
-4.5
 49
0.0
 49
-6.75
 53
110.0
 43
15.0
 44
0.0
 45
6.34292519030488
 46
2.308635967448266
 79
     4
 49
0.0
 49
-3.3
 49
0.0
 49
-5.700000000000001
 98
        0
  0
LWPOLYLINE
  5
49
330
1F
100
AcDbEntity
  8
0_Pen_No__1
  6
Continuous
100
AcDbPolyline
 90
       88
 70
   129
 43
0.0
 10
148.5540299741204
 20
234.6438577025508
 10
143.8971757246279
 20
239.300711952043
 42
-0.1989123673796377
 10
142.7256028493742
 20
242.1291390767893
 10
142.7256028493742
 20
247.9722838272971
 42
0.414213562373095
 10
142.2256028493742
 20
248.4722838272969
 10
139.6256455618488
 20
248.472283827297
 42
0.1989123673799641
 10
139.4842242056114
 20
248.4137051835343
 10
138.9842247056112
 20
247.9137056835343
 42
0.4142135623729801
 10
138.9842247056112
 20
247.6308629710598
 10
139.5842252056112
 20
247.0308624710597
 42
0.198912367379811
 10
139.7256465618486
 20
246.972283827297
 10
140.0256028493741
 20
246.972283827297
 42
0.414213562373095
 10
140.2256028493742
 20
247.172283827297
 10
140.2256028493742
 20
247.272283827297
 10
141.5256028493741
 20
247.272283827297
 10
141.5256028493741
 20
242.572326827297
 10
125.4256028493741
 20
244.772283827297
 10
125.4256028493741
 20
247.272283827297
 10
127.2256041368998
 20
247.272283827297
 42
0.6681786379196538
 10
127.3670254931369
 20
247.6137051835342
 10
126.9477866775943
 20
248.032943999077
 42
0.1989123673796241
 10
125.8871265058146
 20
248.472283827297
 10
108.9256030072279
 20
248.472283827297
 42
0.1928075209396935
 10
108.3398863647467
 20
249.3329019842157
 42
0.1404257888372866
 10
108.924433898079
 20
251.5713687627396
 42
0.5009125790250734
 10
108.9256028493739
 20
252.3722428131966
 10
108.9256028493739
 20
260.072283827297
 10
110.7256028493742
 20
260.072283827297
 42
0.414213562373095
 10
111.2256028493743
 20
260.5722838272969
 10
111.2256028493741
 20
261.722283827297
 42
0.414213562373095
 10
110.775602849374
 20
262.1722838272971
 42
0.414213562373095
 10
110.325602849374
 20
261.722283827297
 10
110.3256028493742
 20
261.072283827297
 10
108.8256028493741
 20
261.072283827297
 10
108.8256028493741
 20
266.472283827297
 10
110.3256028493742
 20
266.472283827297
 10
110.3256028493742
 20
265.822283827297
 42
0.414213562373095
 10
110.775602849374
 20
265.3722838272969
 42
0.414213562373095
 10
111.2256028493741
 20
265.822283827297
 10
111.2256028493741
 20
266.972283827297
 42
0.414213562373095
 10
110.7256028493742
 20
267.4722838272969
 10
108.2256028493742
 20
267.472283827297
 42
0.414213562373095
 10
107.725602849374
 20
266.972283827297
 10
107.7256028493743
 20
251.472283827297
 42
-0.414213562373095
 10
104.7256028493742
 20
248.472283827297
 10
97.42564384937413
 20
248.472283827297
 42
-0.414213562373095
 10
94.42564384937401
 20
251.4722838272969
 10
94.42564384937401
 20
254.071806827297
 42
0.414213562373095
 10
93.22564384937392
 20
255.271806827297
 10
91.22567884937394
 20
255.271806827297
 42
0.414213562373095
 10
90.22567884937382
 20
254.271806827297
 42
0.414213562373095
 10
90.42567884937402
 20
254.071806827297
 10
93.22564384937415
 20
254.0718068272973
 10
93.22564384937392
 20
251.472283827297
 42
0.1910043624983037
 10
94.36668619840383
 20
248.5943022273608
 42
-0.6059274979907787
 10
94.25024744850296
 20
248.2594023906198
 42
0.3718832980523969
 10
93.22560284937387
 20
247.0722838272971
 10
93.22560284937387
 20
234.6722838272969
 10
83.8256028493738
 20
234.6722838272969
 42
0.9999999999999999
 10
83.8256028493738
 20
233.4722838272972
 10
85.14276013689948
 20
233.472283827297
 42
0.1989123673799131
 10
85.28418149313666
 20
233.5308624710598
 10
85.62560284937382
 20
233.872283827297
 10
88.82560284937391
 20
233.872283827297
 10
89.16670762968093
 20
233.5311800460639
 42
0.1994953901189608
 10
89.30844584937381
 20
233.472283827297
 10
96.82560284937392
 20
233.472283827297
 42
0.414213562373095
 10
97.42560284937407
 20
234.0722838272971
 42
0.414213562373095
 10
96.82560284937392
 20
234.6722838272971
 10
94.42560284937373
 20
234.6722838272969
 10
94.42560284937373
 20
247.0722838272973
 10
124.0256028493743
 20
247.0722838272971
 10
124.0256028493743
 20
244.7731460249641
 42
0.3747899436168348
 10
125.2351646216505
 20
243.3861589012236
 10
141.6212665297443
 20
241.1362892713887
 42
0.1494188041786525
 10
143.0486475872039
 20
238.4521838146192
 10
147.7055018366964
 20
233.7953295651267
 42
-0.1989123673796836
 10
148.5256028493742
 20
231.8154305778044
 10
148.5256028493742
 20
214.672283827297
 10
141.4256028493741
 20
214.672283827297
 10
141.4256028493741
 20
218.872283827297
 42
0.414213562373095
 10
140.8256028493742
 20
219.4722838272969
 42
0.414213562373095
 10
140.225602849374
 20
218.872283827297
 10
140.2256028493742
 20
214.672283827297
 42
0.414213562373095
 10
141.4256028493741
 20
213.4722838272971
 10
148.5256028493742
 20
213.472283827297
 42
0.414213562373095
 10
149.7256028493743
 20
214.672283827297
 10
149.7256028493743
 20
231.8154305778046
 42
0.198912367379681
  0
LWPOLYLINE
  5
4A
330
1F
100
AcDbEntity
  8
0_Pen_No__1
  6
Continuous
100
AcDbPolyline
 90
       38
 70
   129
 43
0.0
 10
139.5256338381352
 20
249.9731460249641
 42
0.1989123673796506
 10
138.5356843444736
 20
249.5630955186253
 10
137.5921814602195
 20
248.6195926343711
 42
-0.1989123673797193
 10
137.2386280696261
 20
248.4731460249643
 10
129.4256997724557
 20
248.4731460249641
 42
0.414213562373095
 10
128.4256997724555
 20
247.473146024964
 10
128.4256997724555
 20
247.2731460249641
 10
126.4256997724191
 20
247.273146024964
 42
0.414213562373095
 10
126.225699772456
 20
247.0731460249826
 42
0.414213562373095
 10
127.0256997724559
 20
246.2731460249641
 10
128.4256997724555
 20
246.2731460249641
 42
0.414213562373095
 10
129.4256997724557
 20
247.273146024964
 10
137.81148822075
 20
247.2731460249642
 10
138.6721144200356
 20
246.4125198256782
 42
0.9999999999998822
 10
139.3792212012224
 20
247.1196266068646
 10
138.7256678106288
 20
247.7731799974582
 10
139.5256338381348
 20
248.5731460249642
 10
142.0255997724578
 20
248.573146024964
 42
0.414213562373095
 10
142.5255997724579
 20
249.073146024964
 10
142.5255997724557
 20
267.0731368833688
 42
0.414213562373095
 10
142.0255997724558
 20
267.5731368833687
 10
139.5255997724556
 20
267.5731368833687
 42
0.414213562373095
 10
139.0255997724556
 20
267.0731368833688
 10
139.0255997724556
 20
265.9231368833688
 42
0.9999999999999999
 10
139.9255997724555
 20
265.9231368833688
 10
139.9255997724555
 20
266.5731368833687
 10
141.4255997724556
 20
266.5731368833687
 10
141.4255997724556
 20
261.1731368833687
 10
139.9255997724555
 20
261.1731368833687
 10
139.9255997724555
 20
261.8231368833688
 42
0.9999999999999999
 10
139.0255997724556
 20
261.8231368833688
 10
139.0255997724556
 20
260.6731368833688
 42
0.414213562373095
 10
139.5255997724556
 20
260.1731368833687
 10
141.1255997724568
 20
260.1731368833687
 10
141.1255997724572
 20
255.5731368833688
 42
0.9999999999999999
 10
141.1255997724572
 20
254.7731368833688
 10
141.1255997724579
 20
250.4731460249641
 42
-0.414213562373095
 10
140.6255997724577
 20
249.9731460249641
  0
LWPOLYLINE
  5
4B
330
1F
100
AcDbEntity
  8
0_Pen_No__1
  6
Continuous
100
AcDbPolyline
 90
       29
 70
   129
 43
0.0
 10
138.7295678668052
 20
262.7188092881059
 42
-0.3394542588632258
 10
138.8778040577847
 20
262.9119944533637
 10
139.1596960401999
 20
262.9875271824047
 42
0.196759151608125
 10
139.9795678668054
 20
262.7542406969517
 10
139.9795678668054
 20
261.3722746857018
 10
140.9795678668053
 20
261.3722746857018
 10
140.9795678668053
 20
262.7472746857017
 10
140.6781250253202
 20
263.8722746857017
 10
140.9795678668053
 20
264.9972746857018
 10
140.9795678668053
 20
266.3722746857017
 10
139.9795678668054
 20
266.3722746857017
 10
139.9795678668054
 20
264.9903086744516
 42
0.1967591516080623
 10
139.1596960401999
 20
264.7570221889987
 10
138.8778040577847
 20
264.8325549180397
 42
-0.3394542588633099
 10
138.7295678668052
 20
265.0257400832976
 10
138.7295678668052
 20
265.6722746857017
 42
0.184890459368309
 10
138.6784287819587
 20
265.8058427505214
 10
137.290224656627
 20
269.8043286272517
 42
0.916780628173348
 10
136.3243167789405
 20
269.5603810028931
 10
137.0573820750662
 20
265.03534194142
 42
-0.4267557320472761
 10
137.2070836414181
 20
264.7883624141881
 10
136.9754887452048
 20
263.9240384951852
 42
0.1316524975873602
 10
136.9754887451917
 20
263.8205108771442
 10
137.2070836414312
 20
262.9561869571663
 42
-0.4267557319722642
 10
137.0573820750662
 20
262.7092074299834
 10
136.3243167789405
 20
258.1841683685104
 42
0.9167806281733522
 10
137.290224656627
 20
257.9402207441517
 10
138.6784287819587
 20
261.938706620882
 42
0.1848904593682824
 10
138.7295678668052
 20
262.0722746857018
  0
LWPOLYLINE
  5
4C
330
1F
100
AcDbEntity
  8
0_Pen_No__1
  6
Continuous
100
AcDbPolyline
 90
        4
 70
   129
 43
0.0
 10
131.0487932916626
 20
254.4730771848992
 10
135.5487932916626
 20
254.4730771848992
 10
135.5487932916626
 20
364.5983297889932
 10
131.0487932916626
 20
364.5983297889932
  0
LWPOLYLINE
  5
4D
330
1F
100
AcDbEntity
  8
0_Pen_No__1
  6
Continuous
100
AcDbPolyline
 90
        4
 70
   129
 43
0.0
 10
120.0487932916627
 20
254.4730771848992
 10
120.0487932916627
 20
364.5983297889932
 10
115.5487932916628
 20
364.5983297889932
 10
115.5487932916628
 20
254.4730771848992
  0
LWPOLYLINE
  5
4E
330
1F
100
AcDbEntity
  8
0_Pen_No__1
  6
Continuous
100
AcDbPolyline
 90
        4
 70
   129
 43
0.0
 10
120.0487932916627
 20
264.4735649984591
 10
120.0487932916627
 20
254.4730771848992
 10
131.0487932916626
 20
254.4730771848992
 10
131.0487932916626
 20
264.4735649984591
  0
LWPOLYLINE
  5
4F
330
1F
100
AcDbEntity
  8
0_Pen_No__1
  6
Continuous
100
AcDbPolyline
 90
       26
 70
   129
 43
0.0
 10
113.2256495490069
 20
265.3919511636177
 10
113.2256495490069
 20
265.437979731833
 10
114.46348971565
 20
267.4478871246888
 42
0.5868586327353583
 10
113.6120156418852
 20
268.972283827297
 10
111.0256495490067
 20
268.972283827297
 42
0.414213562373095
 10
110.0256495490068
 20
267.972283827297
 10
110.0256495490068
 20
267.4722838272969
 10
110.2256495490068
 20
267.4722838272969
 10
110.7256028493742
 20
267.4722838272969
 42
-0.414213562373095
 10
111.2256028493741
 20
266.972283827297
 10
111.2256028493741
 20
265.822283827297
 42
-0.1681110981155437
 10
111.1293777752778
 20
265.5441771898322
 42
-0.2898292516286058
 10
110.2256495490068
 20
264.9722838272968
 10
110.0182334517468
 20
264.9722838272968
 10
112.0313567353501
 20
260.4801500259739
 42
0.4752500831739775
 10
113.529107637127
 20
260.078214437968
 10
114.8108462519164
 20
261.0032078912039
 42
0.2409239523204168
 10
115.2256495490069
 20
261.8140992642645
 10
115.2256495490069
 20
262.3354835899704
 10
113.2256495490069
 20
261.6202066234328
 10
113.2256495490069
 20
262.0834992028414
 42
-0.2915728128662111
 10
113.8033634154978
 20
262.9899617897395
 10
114.6479356825159
 20
263.383415598273
 42
0.29157281286621
 10
115.2256495490069
 20
264.289878185171
 10
115.2256495490069
 20
264.6875607938346
 10
114.5623998004159
 20
264.4503571597201
 42
-0.5187881916065269
  0
LWPOLYLINE
  5
50
330
1F
100
AcDbEntity
  8
0_Pen_No__1
  6
Continuous
100
AcDbPolyline
 90
        2
 70
   128
 43
0.0
 10
10.498046875
 20
0.0
 10
10.498046875
 20
233.358119420304
  0
LWPOLYLINE
  5
51
330
1F
100
AcDbEntity
  8
0_Pen_No__1
  6
Continuous
100
AcDbPolyline
 90
        2
 70
   128
 43
0.0
 10
10.498046875
 20
233.358119420304
 10
0.0
 20
233.3722838272969
  0
LWPOLYLINE
  5
52
330
1F
100
AcDbEntity
  8
0_Pen_No__1
  6
Continuous
100
AcDbPolyline
 90
        2
 70
   128
 43
0.0
 10
0.0
 20
233.3722838272969
 10
0.0
 20
0.0
  0
LWPOLYLINE
  5
53
330
1F
100
AcDbEntity
  8
0_Pen_No__1
  6
Continuous
100
AcDbPolyline
 90
        2
 70
   128
 43
0.0
 10
0.0
 20
0.0
 10
10.498046875
 20
0.0
  0
LWPOLYLINE
  5
54
330
1F
100
AcDbEntity
  8
0_Pen_No__1
  6
Continuous
100
AcDbPolyline
 90
        2
 70
   128
 43
0.0
 10
30.91438506607735
 20
229.3722838272969
 10
55.91438506607749
 20
229.3722838272969
  0
LWPOLYLINE
  5
55
330
1F
100
AcDbEntity
  8
0_Pen_No__1
  6
Continuous
100
AcDbPolyline
 90
        2
 70
   128
 43
0.0
 10
55.91438506607749
 20
229.3722838272969
 10
55.91438506607749
 20
233.3722838272969
  0
LWPOLYLINE
  5
56
330
1F
100
AcDbEntity
  8
0_Pen_No__1
  6
Continuous
100
AcDbPolyline
 90
        2
 70
   128
 43
0.0
 10
55.91438506607749
 20
233.3722838272969
 10
30.91438506607735
 20
233.3722838272969
  0
LWPOLYLINE
  5
57
330
1F
100
AcDbEntity
  8
0_Pen_No__1
  6
Continuous
100
AcDbPolyline
 90
        2
 70
   128
 43
0.0
 10
30.91438506607735
 20
233.3722838272969
 10
30.91438506607735
 20
229.3722838272969
  0
LWPOLYLINE
  5
58
330
1F
100
AcDbEntity
  8
0_Pen_No__1
  6
Continuous
100
AcDbPolyline
 90
        2
 70
   128
 43
0.0
 10
-2.000000000000002
 20
253.3722838272969
 10
-12.00000000000001
 20
248.372283827297
  0
LWPOLYLINE
  5
59
330
1F
100
AcDbEntity
  8
0_Pen_No__1
  6
Continuous
100
AcDbPolyline
 90
        2
 70
   128
 43
0.0
 10
-12.00000000000001
 20
248.372283827297
 10
-12.00000000000001
 20
218.3722838272968
  0
LWPOLYLINE
  5
5A
330
1F
100
AcDbEntity
  8
0_Pen_No__1
  6
Continuous
100
AcDbPolyline
 90
        2
 70
   128
 43
0.0
 10
-12.00000000000001
 20
218.3722838272968
 10
-2.000000000000002
 20
213.3722838272969
  0
LWPOLYLINE
  5
5B
330
1F
100
AcDbEntity
  8
0_Pen_No__1
  6
Continuous
100
AcDbPolyline
 90
        2
 70
   128
 43
0.0
 10
-2.000000000000002
 20
213.3722838272969
 10
-2.000000000000002
 20
253.3722838272969
  0
LWPOLYLINE
  5
5C
330
1F
100
AcDbEntity
  8
0_Pen_No__1
  6
Continuous
100
AcDbPolyline
 90
        2
 70
   128
 43
0.0
 10
0.0
 20
235.3722838272969
 10
92.49804687500007
 20
235.3722838272969
  0
LWPOLYLINE
  5
5D
330
1F
100
AcDbEntity
  8
0_Pen_No__1
  6
Continuous
100
AcDbPolyline
 90
        2
 70
   128
 43
0.0
 10
92.49804687500007
 20
235.3722838272969
 10
92.49804687500007
 20
253.3722838272969
  0
LWPOLYLINE
  5
5E
330
1F
100
AcDbEntity
  8
0_Pen_No__1
  6
Continuous
100
AcDbPolyline
 90
        2
 70
   128
 43
0.0
 10
92.49804687500007
 20
253.3722838272969
 10
0.0
 20
253.3722838272969
  0
LWPOLYLINE
  5
5F
330
1F
100
AcDbEntity
  8
0_Pen_No__1
  6
Continuous
100
AcDbPolyline
 90
        2
 70
   128
 43
0.0
 10
0.0
 20
253.3722838272969
 10
0.0
 20
235.3722838272969
  0
LWPOLYLINE
  5
60
330
1F
100
AcDbEntity
  8
0_Pen_No__1
  6
Continuous
100
AcDbPolyline
 90
        2
 70
   128
 43
0.0
 10
115.4948998745708
 20
0.0
 10
115.4948998745697
 20
7.863507456393748
  0
LWPOLYLINE
  5
61
330
1F
100
AcDbEntity
  8
0_Pen_No__1
  6
Continuous
100
AcDbPolyline
 90
        2
 70
   128
 43
0.0
 10
115.4948998745697
 20
7.863507456393748
 10
122.0829748576058
 20
7.863507456393748
  0
LWPOLYLINE
  5
62
330
1F
100
AcDbEntity
  8
0_Pen_No__1
  6
Continuous
100
AcDbPolyline
 90
        2
 70
   128
 43
0.0
 10
122.0829748576058
 20
7.863507456393748
 10
122.082974857606
 20
18.91320618334835
  0
LWPOLYLINE
  5
63
330
1F
100
AcDbEntity
  8
0_Pen_No__1
  6
Continuous
100
AcDbPolyline
 90
        2
 70
   128
 43
0.0
 10
122.082974857606
 20
18.91320618334835
 10
117.1961931502565
 20
18.91320618334835
  0
LWPOLYLINE
  5
64
330
1F
100
AcDbEntity
  8
0_Pen_No__1
  6
Continuous
100
AcDbPolyline
 90
        2
 70
   128
 43
0.0
 10
117.1961931502565
 20
18.91320618334835
 10
117.1961931502565
 20
12.67885494055521
  0
LWPOLYLINE
  5
65
330
1F
100
AcDbEntity
  8
0_Pen_No__1
  6
Continuous
100
AcDbPolyline
 90
        2
 70
   128
 43
0.0
 10
117.1961931502565
 20
12.67885494055521
 10
109.0928279216838
 20
12.67885494055521
  0
LWPOLYLINE
  5
66
330
1F
100
AcDbEntity
  8
0_Pen_No__1
  6
Continuous
100
AcDbPolyline
 90
        2
 70
   128
 43
0.0
 10
109.0928279216838
 20
12.67885494055521
 10
109.0928279216838
 20
0.0
  0
LWPOLYLINE
  5
67
330
1F
100
AcDbEntity
  8
0_Pen_No__1
  6
Continuous
100
AcDbPolyline
 90
        2
 70
   128
 43
0.0
 10
109.0928279216838
 20
0.0
 10
115.4948998745708
 20
0.0
  0
LWPOLYLINE
  5
68
330
1F
100
AcDbEntity
  8
0_Pen_No__1
  6
Continuous
100
AcDbPolyline
 90
        2
 70
   128
 43
0.0
 10
73.29906163533684
 20
225.3722838272969
 10
12.498046875
 20
225.3722838272969
  0
LWPOLYLINE
  5
69
330
1F
100
AcDbEntity
  8
0_Pen_No__1
  6
Continuous
100
AcDbPolyline
 90
        2
 70
   128
 43
0.0
 10
12.498046875
 20
225.3722838272969
 10
12.498046875
 20
185.3722838272969
  0
LWPOLYLINE
  5
6A
330
1F
100
AcDbEntity
  8
0_Pen_No__1
  6
Continuous
100
AcDbPolyline
 90
        2
 70
   128
 43
0.0
 10
12.498046875
 20
185.3722838272969
 10
102.4980468750001
 20
185.3722838272969
  0
LWPOLYLINE
  5
6B
330
1F
100
AcDbEntity
  8
0_Pen_No__1
  6
Continuous
100
AcDbPolyline
 90
        2
 70
   128
 43
0.0
 10
102.4980468750001
 20
185.3722838272969
 10
102.4980468750001
 20
225.3722838272969
  0
LWPOLYLINE
  5
6C
330
1F
100
AcDbEntity
  8
0_Pen_No__1
  6
Continuous
100
AcDbPolyline
 90
        2
 70
   128
 43
0.0
 10
102.4980468750001
 20
225.3722838272969
 10
73.29906163533684
 20
225.3722838272969
  0
LWPOLYLINE
  5
6D
330
1F
100
AcDbEntity
  8
0_Pen_No__1
  6
Continuous
100
AcDbPolyline
 90
        2
 70
   128
 43
0.0
 10
60.96799933327701
 20
233.3722841684489
 10
60.74365084341204
 20
228.2339565026472
  0
LWPOLYLINE
  5
6E
330
1F
100
AcDbEntity
  8
0_Pen_No__1
  6
Continuous
100
AcDbPolyline
 90
        2
 70
   128
 43
0.0
 10
60.74365084341204
 20
228.2339565026472
 10
133.4464312215597
 20
228.233957127799
  0
LWPOLYLINE
  5
6F
330
1F
100
AcDbEntity
  8
0_Pen_No__1
  6
Continuous
100
AcDbPolyline
 90
        2
 70
   128
 43
0.0
 10
133.4464312215597
 20
228.233957127799
 10
132.9541104644465
 20
211.4677095230133
  0
LWPOLYLINE
  5
70
330
1F
100
AcDbEntity
  8
0_Pen_No__1
  6
Continuous
100
AcDbPolyline
 90
        2
 70
   128
 43
0.0
 10
132.9541104644465
 20
211.4677095230133
 10
134.9065951649693
 20
209.5123484874997
  0
LWPOLYLINE
  5
71
330
1F
100
AcDbEntity
  8
0_Pen_No__1
  6
Continuous
100
AcDbPolyline
 90
        2
 70
   128
 43
0.0
 10
134.9065951649693
 20
209.5123484874997
 10
132.8193075120487
 20
207.5644199689559
  0
LWPOLYLINE
  5
72
330
1F
100
AcDbEntity
  8
0_Pen_No__1
  6
Continuous
100
AcDbPolyline
 90
        2
 70
   128
 43
0.0
 10
132.8193075120487
 20
207.5644199689559
 10
133.8421428114784
 20
206.468408759537
  0
LWPOLYLINE
  5
73
330
1F
100
AcDbEntity
  8
0_Pen_No__1
  6
Continuous
100
AcDbPolyline
 90
        2
 70
   128
 43
0.0
 10
133.8421428114784
 20
206.468408759537
 10
137.0315351912274
 20
209.4448592572173
  0
LWPOLYLINE
  5
74
330
1F
100
AcDbEntity
  8
0_Pen_No__1
  6
Continuous
100
AcDbPolyline
 90
        2
 70
   128
 43
0.0
 10
137.0315351912274
 20
209.4448592572173
 10
134.4795829276273
 20
212.1793838560138
  0
LWPOLYLINE
  5
75
330
1F
100
AcDbEntity
  8
0_Pen_No__1
  6
Continuous
100
AcDbPolyline
 90
        2
 70
   128
 43
0.0
 10
134.4795829276273
 20
212.1793838560138
 10
134.9455374835007
 20
228.1821843993688
  0
LWPOLYLINE
  5
76
330
1F
100
AcDbEntity
  8
0_Pen_No__1
  6
Continuous
100
AcDbPolyline
 90
        2
 70
   128
 43
0.0
 10
134.9455374835007
 20
228.1821843993688
 10
134.9525435179568
 20
228.3850477686165
  0
LWPOLYLINE
  5
77
330
1F
100
AcDbEntity
  8
0_Pen_No__1
  6
Continuous
100
AcDbPolyline
 90
        2
 70
   128
 43
0.0
 10
134.9525435179568
 20
228.3850477686165
 10
134.9874786746357
 20
229.396613388728
  0
LWPOLYLINE
  5
78
330
1F
100
AcDbEntity
  8
0_Pen_No__1
  6
Continuous
100
AcDbPolyline
 90
        2
 70
   128
 43
0.0
 10
134.9874786746357
 20
229.396613388728
 10
134.9973102119311
 20
229.6812906613097
  0
LWPOLYLINE
  5
79
330
1F
100
AcDbEntity
  8
0_Pen_No__1
  6
Continuous
100
AcDbPolyline
 90
        2
 70
   128
 43
0.0
 10
134.9973102119311
 20
229.6812906613097
 10
62.29452983378359
 20
229.681290036158
  0
LWPOLYLINE
  5
7A
330
1F
100
AcDbEntity
  8
0_Pen_No__1
  6
Continuous
100
AcDbPolyline
 90
        2
 70
   128
 43
0.0
 10
62.29452983378359
 20
229.681290036158
 10
62.46710559521817
 20
233.3205114400185
  0
LWPOLYLINE
  5
7B
330
1F
100
AcDbEntity
  8
0_Pen_No__1
  6
Continuous
100
AcDbPolyline
 90
        2
 70
   128
 43
0.0
 10
62.46710559521817
 20
233.3205114400185
 10
60.96799933327701
 20
233.3722841684489
  0
LWPOLYLINE
  5
7C
330
1F
100
AcDbEntity
  8
0_Pen_No__1
  6
Continuous
100
AcDbPolyline
 90
        2
 70
   128
 43
0.0
 10
121.5426778728423
 20
223.5759884888291
 10
106.4980468749999
 20
223.5759884888291
  0
LWPOLYLINE
  5
7D
330
1F
100
AcDbEntity
  8
0_Pen_No__1
  6
Continuous
100
AcDbPolyline
 90
        2
 70
   128
 43
0.0
 10
106.4980468749999
 20
223.5759884888291
 10
106.4980468749999
 20
189.4233505195271
  0
LWPOLYLINE
  5
7E
330
1F
100
AcDbEntity
  8
0_Pen_No__1
  6
Continuous
100
AcDbPolyline
 90
        2
 70
   128
 43
0.0
 10
106.4980468749999
 20
189.4233505195271
 10
116.3774328483276
 20
189.4233505195271
  0
LWPOLYLINE
  5
7F
330
1F
100
AcDbEntity
  8
0_Pen_No__1
  6
Continuous
100
AcDbPolyline
 90
        2
 70
   128
 43
0.0
 10
116.3774328483276
 20
189.4233505195271
 10
121.5426778728423
 20
189.6006421073708
  0
LWPOLYLINE
  5
80
330
1F
100
AcDbEntity
  8
0_Pen_No__1
  6
Continuous
100
AcDbPolyline
 90
        2
 70
   128
 43
0.0
 10
121.5426778728423
 20
189.6006421073708
 10
121.5426778728423
 20
223.5759884888291
  0
LWPOLYLINE
  5
81
330
1F
100
AcDbEntity
  8
0_Pen_No__1
  6
Continuous
100
AcDbPolyline
 90
        2
 70
   128
 43
0.0
 10
131.0405634512066
 20
220.2371709704403
 10
130.7122590151914
 20
223.1758139004727
  0
LWPOLYLINE
  5
82
330
1F
100
AcDbEntity
  8
0_Pen_No__1
  6
Continuous
100
AcDbPolyline
 90
        2
 70
   128
 43
0.0
 10
130.7122590151914
 20
223.1758139004727
 10
130.0567405969522
 20
223.8259349521279
  0
LWPOLYLINE
  5
83
330
1F
100
AcDbEntity
  8
0_Pen_No__1
  6
Continuous
100
AcDbPolyline
 90
        2
 70
   128
 43
0.0
 10
130.0567405969522
 20
223.8259349521279
 10
130.0567405969522
 20
224.2175039991909
  0
LWPOLYLINE
  5
84
330
1F
100
AcDbEntity
  8
0_Pen_No__1
  6
Continuous
100
AcDbPolyline
 90
        2
 70
   128
 43
0.0
 10
130.0567405969522
 20
224.2175039991909
 10
130.5266234534277
 20
224.8440144744923
  0
LWPOLYLINE
  5
85
330
1F
100
AcDbEntity
  8
0_Pen_No__1
  6
Continuous
100
AcDbPolyline
 90
        2
 70
   128
 43
0.0
 10
130.5266234534277
 20
224.8440144744923
 10
131.6230167852048
 20
225.0789559027302
  0
LWPOLYLINE
  5
86
330
1F
100
AcDbEntity
  8
0_Pen_No__1
  6
Continuous
100
AcDbPolyline
 90
        2
 70
   128
 43
0.0
 10
131.6230167852048
 20
225.0789559027302
 10
132.5461959907712
 20
225.0470732353598
  0
LWPOLYLINE
  5
87
330
1F
100
AcDbEntity
  8
0_Pen_No__1
  6
Continuous
100
AcDbPolyline
 90
        2
 70
   128
 43
0.0
 10
132.5461959907712
 20
225.0470732353598
 10
132.3713511853015
 20
219.984351012789
  0
LWPOLYLINE
  5
88
330
1F
100
AcDbEntity
  8
0_Pen_No__1
  6
Continuous
100
AcDbPolyline
 90
        2
 70
   128
 43
0.0
 10
132.3713511853015
 20
219.984351012789
 10
131.0405634512066
 20
220.2371709704403
  0
LWPOLYLINE
  5
89
330
1F
100
AcDbEntity
  8
0_Pen_No__1
  6
Continuous
100
AcDbPolyline
 90
        2
 70
   128
 43
0.0
 10
130.0928279216811
 20
124.2060576275783
 10
130.0928279216811
 20
211.5515238547871
  0
LWPOLYLINE
  5
8A
330
1F
100
AcDbEntity
  8
0_Pen_No__1
  6
Continuous
100
AcDbPolyline
 90
        2
 70
   128
 43
0.0
 10
130.0928279216811
 20
211.5515238547871
 10
130.0928279216811
 20
222.5166117224162
  0
LWPOLYLINE
  5
8B
330
1F
100
AcDbEntity
  8
0_Pen_No__1
  6
Continuous
100
AcDbPolyline
 90
        2
 70
   128
 43
0.0
 10
130.0928279216811
 20
222.5166117224162
 10
130.0928279216811
 20
223.1207804411335
  0
LWPOLYLINE
  5
8C
330
1F
100
AcDbEntity
  8
0_Pen_No__1
  6
Continuous
100
AcDbPolyline
 90
        2
 70
   128
 43
0.0
 10
130.0928279216811
 20
223.1207804411335
 10
123.3525293094211
 20
223.1207804411335
  0
LWPOLYLINE
  5
8D
330
1F
100
AcDbEntity
  8
0_Pen_No__1
  6
Continuous
100
AcDbPolyline
 90
        2
 70
   128
 43
0.0
 10
123.3525293094211
 20
223.1207804411335
 10
123.0928279216794
 20
222.861079053392
  0
LWPOLYLINE
  5
8E
330
1F
100
AcDbEntity
  8
0_Pen_No__1
  6
Continuous
100
AcDbPolyline
 90
        2
 70
   128
 43
0.0
 10
123.0928279216794
 20
222.861079053392
 10
123.0928279216794
 20
222.776682707235
  0
LWPOLYLINE
  5
8F
330
1F
100
AcDbEntity
  8
0_Pen_No__1
  6
Continuous
100
AcDbPolyline
 90
        2
 70
   128
 43
0.0
 10
123.0928279216794
 20
222.776682707235
 10
123.0928279216794
 20
211.5515238547871
  0
LWPOLYLINE
  5
90
330
1F
100
AcDbEntity
  8
0_Pen_No__1
  6
Continuous
100
AcDbPolyline
 90
        2
 70
   128
 43
0.0
 10
123.0928279216794
 20
211.5515238547871
 10
123.0928279216794
 20
131.2060576275798
  0
LWPOLYLINE
  5
91
330
1F
100
AcDbEntity
  8
0_Pen_No__1
  6
Continuous
100
AcDbPolyline
 90
        2
 70
   128
 43
0.0
 10
123.0928279216794
 20
131.2060576275798
 10
108.0928279216826
 20
131.2060576275798
  0
LWPOLYLINE
  5
92
330
1F
100
AcDbEntity
  8
0_Pen_No__1
  6
Continuous
100
AcDbPolyline
 90
        2
 70
   128
 43
0.0
 10
123.0928279216794
 20
89.55112926597053
 10
123.0928279216794
 20
27.55112926596937
  0
LWPOLYLINE
  5
93
330
1F
100
AcDbEntity
  8
0_Pen_No__1
  6
Continuous
100
AcDbPolyline
 90
        2
 70
   128
 43
0.0
 10
123.0928279216794
 20
27.55112926596937
 10
109.0928279216838
 20
27.55112926596937
  0
LWPOLYLINE
  5
94
330
1F
100
AcDbEntity
  8
0_Pen_No__1
  6
Continuous
100
AcDbPolyline
 90
        2
 70
   128
 43
0.0
 10
109.0928279216838
 20
27.55112926596937
 10
109.0928279216838
 20
14.75096970350265
  0
LWPOLYLINE
  5
95
330
1F
100
AcDbEntity
  8
0_Pen_No__1
  6
Continuous
100
AcDbPolyline
 90
        2
 70
   128
 43
0.0
 10
109.0928279216838
 20
14.75096970350265
 10
116.0928279216817
 20
14.75096970350265
  0
LWPOLYLINE
  5
96
330
1F
100
AcDbEntity
  8
0_Pen_No__1
  6
Continuous
100
AcDbPolyline
 90
        2
 70
   128
 43
0.0
 10
116.0928279216817
 20
14.75096970350265
 10
116.0928279216817
 20
20.55112926597147
  0
LWPOLYLINE
  5
97
330
1F
100
AcDbEntity
  8
0_Pen_No__1
  6
Continuous
100
AcDbPolyline
 90
        2
 70
   128
 43
0.0
 10
116.0928279216817
 20
20.55112926597147
 10
123.0928279216794
 20
20.55112926597147
  0
LWPOLYLINE
  5
98
330
1F
100
AcDbEntity
  8
0_Pen_No__1
  6
Continuous
100
AcDbPolyline
 90
        2
 70
   128
 43
0.0
 10
123.0928279216794
 20
20.55112926597147
 10
123.0928279216794
 20
1.715493636331944
  0
LWPOLYLINE
  5
99
330
1F
100
AcDbEntity
  8
0_Pen_No__1
  6
Continuous
100
AcDbPolyline
 90
        2
 70
   128
 43
0.0
 10
123.0928279216794
 20
1.715493636331944
 10
116.0928279216817
 20
1.715493636331944
  0
LWPOLYLINE
  5
9A
330
1F
100
AcDbEntity
  8
0_Pen_No__1
  6
Continuous
100
AcDbPolyline
 90
        2
 70
   128
 43
0.0
 10
116.0928279216817
 20
1.715493636331944
 10
116.0928279216817
 20
0.0
  0
LWPOLYLINE
  5
9B
330
1F
100
AcDbEntity
  8
0_Pen_No__1
  6
Continuous
100
AcDbPolyline
 90
        2
 70
   128
 43
0.0
 10
116.0928279216817
 20
0.0
 10
130.0928279216811
 20
0.0
  0
LWPOLYLINE
  5
9C
330
1F
100
AcDbEntity
  8
0_Pen_No__1
  6
Continuous
100
AcDbPolyline
 90
        2
 70
   128
 43
0.0
 10
130.0928279216811
 20
0.0
 10
130.0928279216811
 20
94.20605762758049
  0
LWPOLYLINE
  5
9D
330
1F
100
AcDbEntity
  8
0_Pen_No__1
  6
Continuous
100
AcDbPolyline
 90
        2
 70
   128
 43
0.0
 10
115.0928279216841
 20
124.2060576275783
 10
130.0928279216811
 20
124.2060576275783
  0
LWPOLYLINE
  5
9E
330
1F
100
AcDbEntity
  8
0_Pen_No__1
  6
Continuous
100
AcDbPolyline
 90
        2
 70
   128
 43
0.0
 10
108.0928279216826
 20
131.2060576275798
 42
0.2578442516232812
 10
123.0928279216794
 20
89.55112926597053
  0
LWPOLYLINE
  5
9F
330
1F
100
AcDbEntity
  8
0_Pen_No__1
  6
Continuous
100
AcDbPolyline
 90
        2
 70
   128
 43
0.0
 10
115.0928279216841
 20
124.2060576275783
 42
0.2372885156421135
 10
130.0928279216811
 20
94.20605762758049
  0
LWPOLYLINE
  5
A0
330
1F
100
AcDbEntity
  8
0_Pen_No__1
  6
Continuous
100
AcDbPolyline
 90
        2
 70
   128
 43
0.0
 10
-51.7706080127438
 20
0.0
 10
69.771262167037
 20
0.0
  0
LWPOLYLINE
  5
A1
330
1F
100
AcDbEntity
  8
0_Pen_No__1
  6
Continuous
100
AcDbPolyline
 90
        2
 70
   128
 43
0.0
 10
69.771262167037
 20
0.0
 10
71.16882247202926
 20
10.06834509472943
  0
LWPOLYLINE
  5
A2
330
1F
100
AcDbEntity
  8
0_Pen_No__1
  6
Continuous
100
AcDbPolyline
 90
        2
 70
   128
 43
0.0
 10
71.16882247202926
 20
10.06834509472943
 10
73.6468575124971
 20
-9.571182867096795
  0
LWPOLYLINE
  5
A3
330
1F
100
AcDbEntity
  8
0_Pen_No__1
  6
Continuous
100
AcDbPolyline
 90
        2
 70
   128
 43
0.0
 10
73.6468575124971
 20
-9.571182867096795
 10
75.40691042844117
 20
0.0
  0
LWPOLYLINE
  5
A4
330
1F
100
AcDbEntity
  8
0_Pen_No__1
  6
Continuous
100
AcDbPolyline
 90
        2
 70
   128
 43
0.0
 10
75.40691042844117
 20
0.0
 10
183.5726303021785
 20
0.0
  0
LWPOLYLINE
  5
A5
330
1F
100
AcDbEntity
  8
0_Pen_No__1
  6
Continuous
100
AcDbPolyline
 90
        2
 70
   128
 43
0.0
 10
-61.77060801274359
 20
364.5983297889932
 10
59.77126216703699
 20
364.5983297889932
  0
LWPOLYLINE
  5
A6
330
1F
100
AcDbEntity
  8
0_Pen_No__1
  6
Continuous
100
AcDbPolyline
 90
        2
 70
   128
 43
0.0
 10
59.77126216703699
 20
364.5983297889932
 10
61.16882247202926
 20
374.6666748837229
  0
LWPOLYLINE
  5
A7
330
1F
100
AcDbEntity
  8
0_Pen_No__1
  6
Continuous
100
AcDbPolyline
 90
        2
 70
   128
 43
0.0
 10
61.16882247202926
 20
374.6666748837229
 10
63.6468575124971
 20
355.0271469218964
  0
LWPOLYLINE
  5
A8
330
1F
100
AcDbEntity
  8
0_Pen_No__1
  6
Continuous
100
AcDbPolyline
 90
        2
 70
   128
 43
0.0
 10
63.6468575124971
 20
355.0271469218964
 10
65.40691042844115
 20
364.5983297889932
  0
LWPOLYLINE
  5
A9
330
1F
100
AcDbEntity
  8
0_Pen_No__1
  6
Continuous
100
AcDbPolyline
 90
        2
 70
   128
 43
0.0
 10
65.40691042844115
 20
364.5983297889932
 10
173.5726303021785
 20
364.5983297889932
  0
LWPOLYLINE
  5
AA
330
1F
100
AcDbEntity
  8
0_Pen_No__1
  6
Continuous
100
AcDbPolyline
 90
        2
 70
   128
 43
0.0
 10
130.4898823625669
 20
214.9933102998123
 10
131.3852336538273
 20
214.9933102998123
  0
LWPOLYLINE
  5
AB
330
1F
100
AcDbEntity
  8
0_Pen_No__1
  6
Continuous
100
AcDbPolyline
 90
        2
 70
   128
 43
0.0
 10
131.3852336538273
 20
214.9933102998123
 10
131.3852336538273
 20
210.9931735818797
  0
LWPOLYLINE
  5
AC
330
1F
100
AcDbEntity
  8
0_Pen_No__1
  6
Continuous
100
AcDbPolyline
 90
        2
 70
   128
 43
0.0
 10
129.5132331740132
 20
212.1860025960152
 10
130.4898823625669
 20
214.9933102998123
  0
LWPOLYLINE
  5
AD
330
1F
100
AcDbEntity
  8
0_Pen_No__1
  6
Continuous
100
AcDbPolyline
 90
        2
 70
   128
 43
0.0
 10
94.39336871794013
 20
212.1336936048355
 10
91.38508164493864
 20
210.9931735818797
  0
LWPOLYLINE
  5
AE
330
1F
100
AcDbEntity
  8
0_Pen_No__1
  6
Continuous
100
AcDbPolyline
 90
        2
 70
   128
 43
0.0
 10
129.5132331740132
 20
212.1860025960152
 10
94.39336871794013
 20
212.1336936048355
  0
LWPOLYLINE
  5
AF
330
1F
100
AcDbEntity
  8
0_Pen_No__1
  6
Continuous
100
AcDbPolyline
 90
        2
 70
   128
 43
0.0
 10
130.4898823625669
 20
206.9930368639477
 10
131.3852336538275
 20
206.9930368639477
  0
LWPOLYLINE
  5
B0
330
1F
100
AcDbEntity
  8
0_Pen_No__1
  6
Continuous
100
AcDbPolyline
 90
        2
 70
   128
 43
0.0
 10
131.3852336538275
 20
206.9930368639477
 10
131.3852336538273
 20
210.9931735818797
  0
LWPOLYLINE
  5
B1
330
1F
100
AcDbEntity
  8
0_Pen_No__1
  6
Continuous
100
AcDbPolyline
 90
        2
 70
   128
 43
0.0
 10
129.5132331740132
 20
209.8003445678027
 10
130.4898823625669
 20
206.9930368639477
  0
LWPOLYLINE
  5
B2
330
1F
100
AcDbEntity
  8
0_Pen_No__1
  6
Continuous
100
AcDbPolyline
 90
        2
 70
   128
 43
0.0
 10
94.39336871794013
 20
209.8526535589826
 10
91.38508164493864
 20
210.9931735818797
  0
LWPOLYLINE
  5
B3
330
1F
100
AcDbEntity
  8
0_Pen_No__1
  6
Continuous
100
AcDbPolyline
 90
        2
 70
   128
 43
0.0
 10
129.5132331740132
 20
209.8003445678027
 10
94.39336871794013
 20
209.8526535589826
  0
LWPOLYLINE
  5
B4
330
1F
100
AcDbEntity
  8
0_Pen_No__1
  6
Continuous
100
AcDbPolyline
 90
        2
 70
   128
 43
0.0
 10
121.8185761984763
 20
16.0798853740638
 10
122.7099880726752
 20
16.16378296222365
  0
LWPOLYLINE
  5
B5
330
1F
100
AcDbEntity
  8
0_Pen_No__1
  6
Continuous
100
AcDbPolyline
 90
        2
 70
   128
 43
0.0
 10
122.7099880726752
 20
16.16378296222365
 10
123.0848150553581
 20
12.18124627121853
  0
LWPOLYLINE
  5
B6
330
1F
100
AcDbEntity
  8
0_Pen_No__1
  6
Continuous
100
AcDbPolyline
 90
        2
 70
   128
 43
0.0
 10
121.1092788039998
 20
13.19341393171625
 10
121.8185761984763
 20
16.0798853740638
  0
LWPOLYLINE
  5
B7
330
1F
100
AcDbEntity
  8
0_Pen_No__1
  6
Continuous
100
AcDbPolyline
 90
        2
 70
   128
 43
0.0
 10
86.14883824425834
 20
9.850479365755893
 10
83.26065796916437
 20
8.433090310165037
  0
LWPOLYLINE
  5
B8
330
1F
100
AcDbEntity
  8
0_Pen_No__1
  6
Continuous
100
AcDbPolyline
 90
        2
 70
   128
 43
0.0
 10
121.1092788039998
 20
13.19341393171625
 10
86.14883824425834
 20
9.850479365755893
  0
LWPOLYLINE
  5
B9
330
1F
100
AcDbEntity
  8
0_Pen_No__1
  6
Continuous
100
AcDbPolyline
 90
        2
 70
   128
 43
0.0
 10
122.568230163842
 20
8.114811992053328
 10
123.4596420380409
 20
8.198709580213182
  0
LWPOLYLINE
  5
BA
330
1F
100
AcDbEntity
  8
0_Pen_No__1
  6
Continuous
100
AcDbPolyline
 90
        2
 70
   128
 43
0.0
 10
123.4596420380409
 20
8.198709580213182
 10
123.0848150553581
 20
12.18124627121853
  0
LWPOLYLINE
  5
BB
330
1F
100
AcDbEntity
  8
0_Pen_No__1
  6
Continuous
100
AcDbPolyline
 90
        2
 70
   128
 43
0.0
 10
121.3328234134676
 20
10.81825245612045
 10
122.568230163842
 20
8.114811992053328
  0
LWPOLYLINE
  5
BC
330
1F
100
AcDbEntity
  8
0_Pen_No__1
  6
Continuous
100
AcDbPolyline
 90
        2
 70
   128
 43
0.0
 10
86.36257977812446
 20
7.579475568426197
 10
83.26065796916437
 20
8.433090310165037
  0
LWPOLYLINE
  5
BD
330
1F
100
AcDbEntity
  8
0_Pen_No__1
  6
Continuous
100
AcDbPolyline
 90
        2
 70
   128
 43
0.0
 10
121.3328234134676
 20
10.81825245612045
 10
86.36257977812446
 20
7.579475568426197
  0
LWPOLYLINE
  5
BE
330
1F
100
AcDbEntity
  8
0_Pen_No__1
  6
Continuous
100
AcDbPolyline
 90
        2
 70
   128
 43
0.0
 10
84.62951506958949
 20
229.8880029141479
 10
84.62951506958949
 20
230.6714352940005
  0
LWPOLYLINE
  5
BF
330
1F
100
AcDbEntity
  8
0_Pen_No__1
  6
Continuous
100
AcDbPolyline
 90
        2
 70
   128
 43
0.0
 10
84.62951506958949
 20
230.6714352940005
 10
88.12963469778023
 20
230.6714352940005
  0
LWPOLYLINE
  5
C0
330
1F
100
AcDbEntity
  8
0_Pen_No__1
  6
Continuous
100
AcDbPolyline
 90
        2
 70
   128
 43
0.0
 10
87.08590931041171
 20
229.0334348741632
 10
84.62951506958949
 20
229.8880029141479
  0
LWPOLYLINE
  5
C1
330
1F
100
AcDbEntity
  8
0_Pen_No__1
  6
Continuous
100
AcDbPolyline
 90
        2
 70
   128
 43
0.0
 10
87.13167967769397
 20
198.3035534750994
 10
88.12963469778
 20
195.6713022862231
  0
LWPOLYLINE
  5
C2
330
1F
100
AcDbEntity
  8
0_Pen_No__1
  6
Continuous
100
AcDbPolyline
 90
        2
 70
   128
 43
0.0
 10
87.08590931041171
 20
229.0334348741632
 10
87.13167967769397
 20
198.3035534750994
  0
LWPOLYLINE
  5
C3
330
1F
100
AcDbEntity
  8
0_Pen_No__1
  6
Continuous
100
AcDbPolyline
 90
        2
 70
   128
 43
0.0
 10
91.62975432597098
 20
230.6714352940005
 10
88.12963469778023
 20
230.6714352940005
  0
LWPOLYLINE
  5
C4
330
1F
100
AcDbEntity
  8
0_Pen_No__1
  6
Continuous
100
AcDbPolyline
 90
        2
 70
   128
 43
0.0
 10
89.17336008509768
 20
229.0334348741632
 10
91.62975432597098
 20
229.8880029141477
  0
LWPOLYLINE
  5
C5
330
1F
100
AcDbEntity
  8
0_Pen_No__1
  6
Continuous
100
AcDbPolyline
 90
        2
 70
   128
 43
0.0
 10
89.12758971781498
 20
198.3035534750994
 10
88.12963469778
 20
195.6713022862231
  0
LWPOLYLINE
  5
C6
330
1F
100
AcDbEntity
  8
0_Pen_No__1
  6
Continuous
100
AcDbPolyline
 90
        2
 70
   128
 43
0.0
 10
89.17336008509768
 20
229.0334348741632
 10
89.12758971781498
 20
198.3035534750994
  0
LWPOLYLINE
  5
C7
330
1F
100
AcDbEntity
  8
0_Pen_No__1
  6
Continuous
100
AcDbPolyline
 90
        2
 70
   128
 43
0.0
 10
91.62975432597098
 20
229.8880029141477
 10
91.62975432597098
 20
230.6714352940005
  0
LWPOLYLINE
  5
C8
330
1F
100
AcDbEntity
  8
0_Pen_No__1
  6
Continuous
100
AcDbPolyline
 90
        2
 70
   128
 43
0.0
 10
12.498046875
 20
225.3722838272969
 10
102.4980468750001
 20
185.3722838272969
  0
LWPOLYLINE
  5
C9
330
1F
100
AcDbEntity
  8
0_Pen_No__1
  6
Continuous
100
AcDbPolyline
 90
        2
 70
   128
 43
0.0
 10
12.498046875
 20
185.3722838272969
 10
12.498046875
 20
0.0
  0
LWPOLYLINE
  5
CA
330
1F
100
AcDbEntity
  8
0_Pen_No__1
  6
Continuous
100
AcDbPolyline
 90
        2
 70
   128
 43
0.0
 10
102.4980468750001
 20
185.3722838272969
 10
102.4980468750001
 20
0.0
  0
LWPOLYLINE
  5
CB
330
1F
100
AcDbEntity
  8
0_Pen_No__1
  6
Continuous
100
AcDbPolyline
 90
        2
 70
   128
 43
0.0
 10
30.91438506607735
 20
233.3722838272969
 10
55.91438506607749
 20
229.3722838272969
  0
LWPOLYLINE
  5
CD
330
1F
100
AcDbEntity
  8
0_Pen_No__1
  6
Above
100
AcDbPolyline
 90
        2
 70
   128
 43
0.0
 10
12.498046875
 20
227.3722838272969
 10
104.4980468749999
 20
227.3722838272971
  0
LWPOLYLINE
  5
CE
330
1F
100
AcDbEntity
  8
0_Pen_No__1
  6
Continuous
100
AcDbPolyline
 90
        2
 70
   128
 43
0.0
 10
-12.00000000000001
 20
248.372283827297
 10
-12.00000000000001
 20
364.5983297889932
  0
LWPOLYLINE
  5
CF
330
1F
100
AcDbEntity
  8
0_Pen_No__1
  6
Continuous
100
AcDbPolyline
 90
        2
 70
   128
 43
0.0
 10
0.0
 20
253.3722838272969
 10
0.0
 20
364.5983297889932
  0
LWPOLYLINE
  5
D0
330
1F
100
AcDbEntity
  8
0_Pen_No__1
  6
Continuous
100
AcDbPolyline
 90
        2
 70
   128
 43
0.0
 10
90.12560451382635
 20
254.0354386627641
 10
90.12560451382635
 20
364.5983297889932
  0
LWPOLYLINE
  5
D1
330
1F
100
AcDbEntity
  8
0_Pen_No__1
  6
Above
100
AcDbPolyline
 90
        2
 70
   128
 43
0.0
 10
104.4980468749999
 20
227.3722838272971
 10
104.4980468750001
 20
0.0
  0
LWPOLYLINE
  5
D2
330
1F
100
AcDbEntity
  8
0_Pen_No__1
  6
Continuous
100
AcDbPolyline
 90
        2
 70
   128
 43
0.0
 10
102.4980468750001
 20
225.3722838272969
 10
12.498046875
 20
185.3722838272969
  0
LWPOLYLINE
  5
D3
330
1F
100
AcDbEntity
  8
0_Pen_No__1
  6
Continuous
100
AcDbPolyline
 90
        2
 70
   128
 43
0.0
 10
106.4980468749999
 20
189.4233505195271
 10
121.5426778728423
 20
223.5759884888291
  0
LWPOLYLINE
  5
D4
330
1F
100
AcDbEntity
  8
0_Pen_No__1
  6
Continuous
100
AcDbPolyline
 90
        2
 70
   128
 43
0.0
 10
121.5426778728423
 20
189.6006421073708
 10
106.4980468749999
 20
223.5759884888291
  0
ELLIPSE
  5
D5
330
1F
100
AcDbEntity
  8
0_Pen_No__1
  6
Continuous
100
AcDbEllipse
 10
22.21147516434141
 20
231.238778880084
 30
0.0
 11
4.259248965766405
 21
0.0
 31
0.0
210
0.0
220
0.0
230
1.0
 40
0.6574786677996285
 41
0.0
 42
6.283185307179586
  0
DIMENSION
  5
E2
330
1F
100
AcDbEntity
  8
0
  6
Continuous
100
AcDbDimension
  2
*D1
 10
143.9256045138368
 20
195.8753772923092
 30
0.0
 11
139.7983589321538
 21
199.3753772699574
 31
0.0
 70
   160
  1
5
 71
     5
 42
-1.0
  3
GENERATED_STYLE__1
100
AcDbAlignedDimension
 13
135.6711134758408
 23
217.0357172584869
 33
0.0
 14
143.9256045138368
 24
202.6421480530125
 34
0.0
100
AcDbRotatedDimension
  0
DIMENSION
  5
F4
330
1F
100
AcDbEntity
  8
0
  6
Continuous
100
AcDbDimension
  2
*D3
 10
-27.00000000000001
 20
235.3722838272969
 30
0.0
 11
-30.49999997764827
 21
214.6263279467022
 31
0.0
 70
   160
  1
10mm
 71
     5
 42
-1.0
 53
90.0
  3
GENERATED_STYLE__2
100
AcDbAlignedDimension
 13
12.498046875
 23
225.3722838272969
 33
0.0
 14
0.0
 24
235.3722838272969
 34
0.0
 50
90.0
100
AcDbRotatedDimension
  0
DIMENSION
  5
101
330
1F
100
AcDbEntity
  8
0
  6
Continuous
100
AcDbDimension
  2
*D4
 10
68.03886282291418
 20
235.3722838272969
 30
0.0
 11
63.71055198642691
 21
270.4494695824607
 31
0.0
 70
   160
  1
<MeasuredValue>mm
 71
     5
 42
-1.0
 53
90.0
  3
GENERATED_STYLE__3
100
AcDbAlignedDimension
 13
62.46710706723534
 23
233.3205111915466
 33
0.0
 14
62.30461537464391
 24
235.3722838272969
 34
0.0
 50
90.0
100
AcDbRotatedDimension
  0
DIMENSION
  5
10E
330
1F
100
AcDbEntity
  8
0
  6
Continuous
100
AcDbDimension
  2
*D5
 10
167.49732651411
 20
223.1207804411335
 30
0.0
 11
163.9973265364617
 21
240.5599492772014
 31
0.0
 70
   160
  1
10mm min
 71
     5
 42
-1.0
 53
90.0
  3
GENERATED_STYLE__3
100
AcDbAlignedDimension
 13
148.5256028493742
 23
213.472283827297
 33
0.0
 14
130.0928279216811
 24
223.1207804411335
 34
0.0
 50
90.0
100
AcDbRotatedDimension
  0
WIPEOUT
  5
10F
330
1F
100
AcDbEntity
  8
Key_ Sections_Pen_No__1
  6
Wipeout_Contour
 48
1623.380910650771
 92
      296
310
28010000060000000C0000000E000000120000000C00000016000000000000C20C00000014000000010000006C00000007000000040000004F7E7723387766403423B33CADE07540000000000000000054D48550EADC6E403423B33CADE07540000000000000000054D48550EADC6E40C4C3AB6E9320754000000000000000
310
004F7E772338776640C4C3AB6E9320754000000000000000000C0000000E000000070000008400000006000000050000004F7E7723387766403423B33CADE07540000000000000000054D48550EADC6E403423B33CADE07540000000000000000054D48550EADC6E40C4C3AB6E9320754000000000000000004F7E77233877
310
6640C4C3AB6E9320754000000000000000004F7E7723387766403423B33CADE075400000000000000000
100
AcDbWipeout
 90
        0
 10
179.7256028493743
 20
338.0359942159232
 30
0.0
 11
67.17800000000003
 21
0.0
 31
0.0
 12
0.0
 22
12.00630000000001
 32
0.0
 13
1.0
 23
1.0
340
0
 70
    15
280
     1
281
    50
282
    50
283
     0
360
0
 71
     2
 91
        5
 14
-0.5000000000000002
 24
-0.5
 14
0.4999999999999998
 24
-0.5
 14
0.4999999999999998
 24
0.5
 14
-0.5000000000000002
 24
0.5
 14
-0.5000000000000002
 24
-0.5
  0
MTEXT
  5
112
102
{ACAD_REACTORS
330
113
102
}
330
1F
100
AcDbEntity
  8
Key_ Sections_Pen_No__1
  6
Continuous
100
AcDbMText
 10
181.7256028493743
 20
344.3600085016375
 30
0.0
 40
5.0
 41
63.178
 71
     4
 72
     1
  1
{Airseal over PEF rod}
  7
GENERATED_STYLE_1
 73
     1
 44
1.0
  0
LEADER
  5
113
330
1F
100
AcDbEntity
  8
Key_ Sections_Pen_No__1
  6
Continuous
100
AcDbLeader
  3
GENERATED_STYLE__4
 72
     1
 73
     0
 74
     0
 40
13.41333333333333
 41
52.05
 76
     3
 10
22.21147516434141
 20
234.0391442159232
 30
0.0
 10
48.02947540928825
 20
307.0691461508798
 30
0.0
 10
181.6356028493743
 20
344.3600085016375
 30
0.0
340
112
  0
WIPEOUT
  5
11A
330
1F
100
AcDbEntity
  8
Key_ Sections_Pen_No__1
  6
Wipeout_Contour
 48
1578.470576627659
 92
      296
310
28010000060000000C0000000E000000120000000C00000016000000000000C20C00000014000000010000006C00000007000000040000004F7E7723387766403F76CE31ADD374400000000000000000B1001CF76CAA70403F76CE31ADD374400000000000000000B1001CF76CAA7040026CF78D3C98734000000000000000
310
004F7E772338776640026CF78D3C98734000000000000000000C0000000E000000070000008400000006000000050000004F7E7723387766403F76CE31ADD374400000000000000000B1001CF76CAA70403F76CE31ADD374400000000000000000B1001CF76CAA7040026CF78D3C98734000000000000000004F7E77233877
310
6640026CF78D3C98734000000000000000004F7E7723387766403F76CE31ADD374400000000000000000
100
AcDbWipeout
 90
        0
 10
179.7256028493743
 20
313.514783827297
 30
0.0
 11
86.92600000000002
 21
0.0
 31
0.0
 12
0.0
 22
19.71499999999997
 32
0.0
 13
1.0
 23
1.0
340
0
 70
    15
280
     1
281
    50
282
    50
283
     0
360
0
 71
     2
 91
        5
 14
-0.4999999999999998
 24
-0.5000000000000014
 14
0.5000000000000001
 24
-0.5000000000000014
 14
0.5000000000000001
 24
0.4999999999999986
 14
-0.4999999999999998
 24
0.4999999999999986
 14
-0.4999999999999998
 24
-0.5000000000000014
  0
MTEXT
  5
11B
102
{ACAD_REACTORS
330
11C
102
}
330
1F
100
AcDbEntity
  8
Key_ Sections_Pen_No__1
  6
Continuous
100
AcDbMText
 10
181.7256028493743
 20
322.977783827297
 30
0.0
 40
5.0
 41
82.926
 71
     4
 72
     1
  1
{H3.1 timber (or equivalent) \Ppacker to suit}
  7
GENERATED_STYLE_1
 73
     1
 44
0.9312510935145418
  0
LEADER
  5
11C
330
1F
100
AcDbEntity
  8
Key_ Sections_Pen_No__1
  6
Continuous
100
AcDbLeader
  3
GENERATED_STYLE__4
 72
     1
 73
     0
 74
     0
 40
14.21992586676901
 41
81.80499999999999
 76
     3
 10
42.99315685916627
 20
233.372283827297
 30
0.0
 10
63.65935066523511
 20
291.9751812893916
 30
0.0
 10
181.6356028493743
 20
322.977783827297
 30
0.0
340
11B
  0
WIPEOUT
  5
11D
330
1F
100
AcDbEntity
  8
Key_ Sections_Pen_No__1
  6
Wipeout_Contour
 48
1430.0560174904
 92
      296
310
28010000060000000C0000000E000000120000000C00000016000000000000C20C00000014000000010000006C00000007000000040000004F7E772338776640BE8645C8BEC972400000000000000000F744C35AC1446D40BE8645C8BEC972400000000000000000F744C35AC1446D402D99C8888989714000000000000000
310
004F7E7723387766402D99C8888989714000000000000000000C0000000E000000070000008400000006000000050000004F7E772338776640BE8645C8BEC972400000000000000000F744C35AC1446D40BE8645C8BEC972400000000000000000F744C35AC1446D402D99C8888989714000000000000000004F7E77233877
310
66402D99C8888989714000000000000000004F7E772338776640BE8645C8BEC972400000000000000000
100
AcDbWipeout
 90
        0
 10
179.7256028493743
 20
280.5960777126191
 30
0.0
 11
54.423
 21
0.0
 31
0.0
 12
0.0
 22
20.01299999999998
 32
0.0
 13
1.0
 23
1.0
340
0
 70
    15
280
     1
281
    50
282
    50
283
     0
360
0
 71
     2
 91
        5
 14
-0.5
 24
-0.4999999999999986
 14
0.5
 24
-0.4999999999999986
 14
0.5
 24
0.5000000000000014
 14
-0.5
 24
0.5000000000000014
 14
-0.5
 24
-0.4999999999999986
  0
MTEXT
  5
11E
102
{ACAD_REACTORS
330
11F
102
}
330
1F
100
AcDbEntity
  8
Key_ Sections_Pen_No__1
  6
Continuous
100
AcDbMText
 10
181.7256028493743
 20
290.2825005513608
 30
0.0
 40
4.999999999999999
 41
50.423
 71
     4
 72
     1
  1
{Flat sill tray with \P8mm upstand}
  7
GENERATED_STYLE_1
 73
     1
 44
0.9557258131368606
  0
LEADER
  5
11F
330
1F
100
AcDbEntity
  8
Key_ Sections_Pen_No__1
  6
Continuous
100
AcDbLeader
  3
GENERATED_STYLE__4
 72
     1
 73
     0
 74
     0
 40
14.3693817761405
 41
48.58999999999998
 76
     3
 10
110.7117730573532
 20
229.6812899594505
 30
0.0
 10
140.0448187011045
 20
277.999151035303
 30
0.0
 10
181.6356028493743
 20
290.2825005513608
 30
0.0
340
11E
  0
WIPEOUT
  5
120
330
1F
100
AcDbEntity
  8
Key_ Sections_Pen_No__1
  6
Wipeout_Contour
 48
853.8563354779199
 92
      296
310
28010000060000000C0000000E000000120000000C00000016000000000000C20C00000014000000010000006C00000007000000040000004F7E772338776640BE9F1A2FDD043C40000000000000000020A1521DB7A96E40BE9F1A2FDD043C40000000000000000020A1521DB7A96E40000000000000000000000000000000
310
004F7E772338776640000000000000000000000000000000000C0000000E000000070000008400000006000000050000004F7E772338776640BE9F1A2FDD043C40000000000000000020A1521DB7A96E40BE9F1A2FDD043C40000000000000000020A1521DB7A96E40000000000000000000000000000000004F7E77233877
310
6640000000000000000000000000000000004F7E772338776640BE9F1A2FDD043C400000000000000000
100
AcDbWipeout
 90
        0
 10
179.7256028493743
 20
0.0
 30
0.0
 11
65.578
 21
0.0
 31
0.0
 12
0.0
 22
28.019
 32
0.0
 13
1.0
 23
1.0
340
0
 70
    15
280
     1
281
    50
282
    50
283
     0
360
0
 71
     2
 91
        5
 14
-0.5000000000000002
 24
-0.5
 14
0.4999999999999998
 24
-0.5
 14
0.4999999999999998
 24
0.5
 14
-0.5000000000000002
 24
0.5
 14
-0.5000000000000002
 24
-0.5
  0
MTEXT
  5
121
102
{ACAD_REACTORS
330
122
102
}
330
1F
100
AcDbEntity
  8
Key_ Sections_Pen_No__1
  6
Continuous
100
AcDbMText
 10
181.7256028493743
 20
14.33041710605477
 30
0.0
 40
5.0
 41
61.578
 71
     4
 72
     1
  1
{Palliside Rusticated \Pweatherboard fixed \Pwith Palliside nails}
  7
GENERATED_STYLE_1
 73
     1
 44
0.955815461076037
  0
LEADER
  5
122
330
1F
100
AcDbEntity
  8
Key_ Sections_Pen_No__1
  6
Continuous
100
AcDbLeader
  3
GENERATED_STYLE__4
 72
     1
 73
     0
 74
     0
 40
21.09150199879208
 41
59.85000000000001
 76
     2
 10
130.0928279216811
 20
14.0095
 30
0.0
 10
181.6356028493743
 20
14.33041710605477
 30
0.0
340
121
  0
WIPEOUT
  5
123
330
1F
100
AcDbEntity
  8
Key_ Sections_Pen_No__1
  6
Wipeout_Contour
 48
918.447757901722
 92
      296
310
28010000060000000C0000000E000000120000000C00000016000000000000C20C00000014000000010000006C00000007000000040000004F7E772338776640F3CAA048688D5640000000000000000036EC6DAF8B2F7040F3CAA048688D5640000000000000000036EC6DAF8B2F7040E4D9CA031C2A3E4000000000000000
310
004F7E772338776640E4D9CA031C2A3E4000000000000000000C0000000E000000070000008400000006000000050000004F7E772338776640F3CAA048688D5640000000000000000036EC6DAF8B2F7040F3CAA048688D5640000000000000000036EC6DAF8B2F7040E4D9CA031C2A3E4000000000000000004F7E77233877
310
6640E4D9CA031C2A3E4000000000000000004F7E772338776640F3CAA048688D56400000000000000000
100
AcDbWipeout
 90
        0
 10
179.7256028493743
 20
30.16448997213764
 30
0.0
 11
79.24600000000001
 21
0.0
 31
0.0
 12
0.0
 22
60.04499999999999
 32
0.0
 13
1.0
 23
1.0
340
0
 70
    15
280
     1
281
    50
282
    50
283
     0
360
0
 71
     2
 91
        5
 14
-0.5000000000000002
 24
-0.5
 14
0.4999999999999998
 24
-0.5
 14
0.4999999999999998
 24
0.5
 14
-0.5000000000000002
 24
0.5
 14
-0.5000000000000002
 24
-0.5
  0
MTEXT
  5
124
102
{ACAD_REACTORS
330
125
102
}
330
1F
100
AcDbEntity
  8
Key_ Sections_Pen_No__1
  6
Continuous
100
AcDbMText
 10
181.7256028493743
 20
59.82774129030198
 30
0.0
 40
5.0
 41
75.246
 71
     4
 72
     1
  1
{Absorbent breather type \Pbuilding underlay and \Pflexible flashing tape \Pcontinuous across sill \P100mm min up jambs \Pand 50mm onto face of \Pbuilding underlay}
  7
GENERATED_STYLE_1
 73
     1
 44
0.956642100526875
  0
LEADER
  5
125
330
1F
100
AcDbEntity
  8
Key_ Sections_Pen_No__1
  6
Continuous
100
AcDbLeader
  3
GENERATED_STYLE__4
 72
     1
 73
     0
 74
     0
 40
54.47886702544386
 41
74.59
 76
     3
 10
63.94503676599772
 20
227.1869899721377
 30
0.0
 10
103.0426453850233
 20
87.2932370285274
 30
0.0
 10
181.6356028493743
 20
59.82774129030198
 30
0.0
340
124
  0
WIPEOUT
  5
126
330
1F
100
AcDbEntity
  8
Key_ Sections_Pen_No__1
  6
Wipeout_Contour
 48
999.5950687217837
 92
      296
310
28010000060000000C0000000E000000120000000C00000016000000000000C20C00000014000000010000006C00000007000000040000004F7E7723387766401AB95DD69D7D61400000000000000000149F2796A0AC6E401AB95DD69D7D61400000000000000000149F2796A0AC6E40EEBBC7AE66FA5D4000000000000000
310
004F7E772338776640EEBBC7AE66FA5D4000000000000000000C0000000E000000070000008400000006000000050000004F7E7723387766401AB95DD69D7D61400000000000000000149F2796A0AC6E401AB95DD69D7D61400000000000000000149F2796A0AC6E40EEBBC7AE66FA5D4000000000000000004F7E77233877
310
6640EEBBC7AE66FA5D4000000000000000004F7E7723387766401AB95DD69D7D61400000000000000000
100
AcDbWipeout
 90
        0
 10
179.7256028493743
 20
119.9125172567871
 30
0.0
 11
65.66900000000001
 21
0.0
 31
0.0
 12
0.0
 22
20.01300000000001
 32
0.0
 13
1.0
 23
1.0
340
0
 70
    15
280
     1
281
    50
282
    50
283
     0
360
0
 71
     2
 91
        5
 14
-0.5000000000000002
 24
-0.5000000000000007
 14
0.4999999999999998
 24
-0.5000000000000007
 14
0.4999999999999998
 24
0.4999999999999993
 14
-0.5000000000000002
 24
0.4999999999999993
 14
-0.5000000000000002
 24
-0.5000000000000007
  0
MTEXT
  5
127
102
{ACAD_REACTORS
330
128
102
}
330
1F
100
AcDbEntity
  8
Key_ Sections_Pen_No__1
  6
Continuous
100
AcDbMText
 10
181.7256028493743
 20
129.5989400955288
 30
0.0
 40
5.000000000000001
 41
61.669
 71
     4
 72
     1
  1
{Continuous H3.1 \Ptimber packer to suit}
  7
GENERATED_STYLE_1
 73
     1
 44
0.5175194633507335
  0
LEADER
  5
128
330
1F
100
AcDbEntity
  8
Key_ Sections_Pen_No__1
  6
Continuous
100
AcDbLeader
  3
GENERATED_STYLE__4
 72
     1
 73
     0
 74
     0
 40
13.74931354356371
 41
50.35000000000002
 76
     3
 10
116.5411189256497
 20
189.9190172567871
 30
0.0
 10
131.5210835623902
 20
145.694039502922
 30
0.0
 10
181.6356028493743
 20
129.5989400955288
 30
0.0
340
127
  0
WIPEOUT
  5
129
330
1F
100
AcDbEntity
  8
Key_ Sections_Pen_No__1
  6
Wipeout_Contour
 48
1080.665440933864
 92
      296
310
28010000060000000C0000000E000000120000000C00000016000000000000C20C00000014000000010000006C00000007000000040000004F7E772338776640630E8D66014866400000000000000000344F9AFE31826F40630E8D66014866400000000000000000344F9AFE31826F401D5899682CC7614000000000000000
310
004F7E7723387766401D5899682CC7614000000000000000000C0000000E000000070000008400000006000000050000004F7E772338776640630E8D66014866400000000000000000344F9AFE31826F40630E8D66014866400000000000000000344F9AFE31826F401D5899682CC7614000000000000000004F7E77233877
310
66401D5899682CC7614000000000000000004F7E772338776640630E8D66014866400000000000000000
100
AcDbWipeout
 90
        0
 10
179.7256028493743
 20
142.2241709704403
 30
0.0
 11
72.34299999999999
 21
0.0
 31
0.0
 12
0.0
 22
36.02600000000001
 32
0.0
 13
1.0
 23
1.0
340
0
 70
    15
280
     1
281
    50
282
    50
283
     0
360
0
 71
     2
 91
        5
 14
-0.5000000000000002
 24
-0.5
 14
0.4999999999999998
 24
-0.5
 14
0.4999999999999998
 24
0.5
 14
-0.5000000000000002
 24
0.5
 14
-0.5000000000000002
 24
-0.5
  0
MTEXT
  5
12A
102
{ACAD_REACTORS
330
12B
102
}
330
1F
100
AcDbEntity
  8
Key_ Sections_Pen_No__1
  6
Continuous
100
AcDbMText
 10
181.7256028493743
 20
159.8778680580939
 30
0.0
 40
4.999999999999999
 41
68.343
 71
     4
 72
     1
  1
{Application of sealant \Pcement prior to fitting \Psill tray to seal sill tray \Pto face of cladding.}
  7
GENERATED_STYLE_1
 73
     1
 44
0.9501143804975685
  0
LEADER
  5
12B
330
1F
100
AcDbEntity
  8
Key_ Sections_Pen_No__1
  6
Continuous
100
AcDbLeader
  3
GENERATED_STYLE__4
 72
     1
 73
     0
 74
     0
 40
30.46437895712379
 41
67.59499999999998
 76
     3
 10
131.0405634512066
 20
220.2371709704403
 30
0.0
 10
145.7188967789631
 20
172.1474249097946
 30
0.0
 10
181.6356028493743
 20
159.8778680580939
 30
0.0
340
12A
  0
WIPEOUT
  5
12C
330
1F
100
AcDbEntity
  8
Key_ Sections_Pen_No__1
  6
Wipeout_Contour
 48
1143.490290034973
 92
      296
310
28010000060000000C0000000E000000120000000C00000016000000000000C20C00000014000000010000006C00000007000000040000004F7E772338776640B131BA5638BC69400000000000000000620138EED9546D40B131BA5638BC69400000000000000000620138EED9546D408E56C0D7CD3B674000000000000000
310
004F7E7723387766408E56C0D7CD3B674000000000000000000C0000000E000000070000008400000006000000050000004F7E772338776640B131BA5638BC69400000000000000000620138EED9546D40B131BA5638BC69400000000000000000620138EED9546D408E56C0D7CD3B674000000000000000004F7E77233877
310
66408E56C0D7CD3B674000000000000000004F7E772338776640B131BA5638BC69400000000000000000
100
AcDbWipeout
 90
        0
 10
179.7256028493743
 20
185.8688772923092
 30
0.0
 11
54.92600000000002
 21
0.0
 31
0.0
 12
0.0
 22
20.01300000000001
 32
0.0
 13
1.0
 23
1.0
340
0
 70
    15
280
     1
281
    50
282
    50
283
     0
360
0
 71
     2
 91
        5
 14
-0.4999999999999997
 24
-0.4999999999999993
 14
0.5000000000000002
 24
-0.4999999999999993
 14
0.5000000000000002
 24
0.5000000000000007
 14
-0.4999999999999997
 24
0.5000000000000007
 14
-0.4999999999999997
 24
-0.4999999999999993
  0
MTEXT
  5
12D
102
{ACAD_REACTORS
330
12E
102
}
330
1F
100
AcDbEntity
  8
Key_ Sections_Pen_No__1
  6
Continuous
100
AcDbMText
 10
181.7256028493743
 20
196.1964429881937
 30
0.0
 40
5.0
 41
50.926
 71
     4
 72
     1
  1
{5mm min gap \Pmaintained at sill}
  7
GENERATED_STYLE_1
 73
     1
 44
0.4803448928440612
  0
LEADER
  5
12E
330
1F
100
AcDbEntity
  8
Key_ Sections_Pen_No__1
  6
Continuous
100
AcDbLeader
  3
GENERATED_STYLE__4
 72
     1
 73
     0
 74
     0
 40
13.08574821406769
 41
41.70500000000001
 76
     2
 10
149.7256028493743
 20
195.8753772923092
 30
0.0
 10
181.6356028493743
 20
196.1964429881937
 30
0.0
340
12D
  0
WIPEOUT
  5
12F
330
1F
100
AcDbEntity
  8
Key_ Sections_Pen_No__1
  6
Wipeout_Contour
 48
1219.140105528617
 92
      296
310
28010000060000000C0000000E000000120000000C00000016000000000000C20C00000014000000010000006C00000007000000040000004F7E77233877664032180656A8C76C4000000000000000007A058EFC06136E4032180656A8C76C4000000000000000007A058EFC06136E40F40D2FB237166A4000000000000000
310
004F7E772338776640F40D2FB237166A4000000000000000000C0000000E000000070000008400000006000000050000004F7E77233877664032180656A8C76C4000000000000000007A058EFC06136E4032180656A8C76C4000000000000000007A058EFC06136E40F40D2FB237166A4000000000000000004F7E77233877
310
6640F40D2FB237166A4000000000000000004F7E77233877664032180656A8C76C400000000000000000
100
AcDbWipeout
 90
        0
 10
179.7256028493743
 20
208.6942988318475
 30
0.0
 11
60.869
 21
0.0
 31
0.0
 12
0.0
 22
21.54500000000002
 32
0.0
 13
1.0
 23
1.0
340
0
 70
    15
280
     1
281
    50
282
    50
283
     0
360
0
 71
     2
 91
        5
 14
-0.4999999999999998
 24
-0.5
 14
0.5000000000000002
 24
-0.5
 14
0.5000000000000002
 24
0.5
 14
-0.4999999999999998
 24
0.5
 14
-0.4999999999999998
 24
-0.5
  0
MTEXT
  5
130
102
{ACAD_REACTORS
330
131
102
}
330
1F
100
AcDbEntity
  8
Key_ Sections_Pen_No__1
  6
Continuous
100
AcDbMText
 10
181.7256028493743
 20
220.1708885125067
 30
0.0
 40
5.0
 41
56.869
 71
     4
 72
     1
  1
{10mm min flange \Pover weatherboard}
  7
GENERATED_STYLE_1
 73
     1
 44
0.52362854108995
  0
LEADER
  5
131
330
1F
100
AcDbEntity
  8
Key_ Sections_Pen_No__1
  6
Continuous
100
AcDbLeader
  3
GENERATED_STYLE__4
 72
     1
 73
     0
 74
     0
 40
13.85165077749181
 41
52.475
 76
     2
 10
167.49732651411
 20
219.4667988318475
 30
0.0
 10
181.6356028493743
 20
220.1708885125067
 30
0.0
340
130
  0
LWPOLYLINE
  5
132
330
1F
100
AcDbEntity
  8
0_Pen_No__1
  6
Continuous
100
AcDbPolyline
 90
        4
 70
   129
 43
0.0
 10
133.7462783516271
 20
-14.29057656663274
 10
238.5920319989728
 20
-14.29057656663274
 10
238.5920319989728
 20
-35.15866907950659
 10
133.7462783516271
 20
-35.15866907950659
  0
MTEXT
  5
133
330
1F
100
AcDbEntity
  8
0_Pen_No__1
  6
Continuous
100
AcDbMText
 10
135.7462783516271
 20
-24.87044544929496
 30
0.0
 40
5.0
 41
0.0
 71
     4
 72
     1
  1
{When window support is required\P refer to diagram 72a of E2AS1}
  7
GENERATED_STYLE_1
 73
     1
 44
0.998897372239655
  0
ENDSEC
  0
SECTION
  2
OBJECTS
  0
DICTIONARY
  5
C
330
0
100
AcDbDictionary
281
     1
  3
ACAD_GROUP
350
D
  3
ACAD_LAYOUT
350
1A
  3
ACAD_MATERIAL
350
3B
  3
ACAD_MLEADERSTYLE
350
184
  3
ACAD_MLINESTYLE
350
17
  3
ACAD_PLOTSETTINGS
350
19
  3
ACAD_PLOTSTYLENAME
350
E
  3
ACAD_SCALELIST
350
137
  3
ACAD_TABLESTYLE
350
183
  3
ACAD_VISUALSTYLE
350
2A
  3
AcDbVariableDictionary
350
15B
  3
WATERMARKS
350
159
  0
DICTIONARY
  5
D
102
{ACAD_REACTORS
330
C
102
}
330
C
100
AcDbDictionary
281
     1
  0
DICTIONARY
  5
1A
102
{ACAD_REACTORS
330
C
102
}
330
C
100
AcDbDictionary
281
     1
  3
Layout1
350
1E
  3
Layout2
350
26
  3
Model
350
22
  0
DICTIONARY
  5
3B
102
{ACAD_REACTORS
330
C
102
}
330
C
100
AcDbDictionary
281
     1
  3
ByBlock
350
3D
  3
ByLayer
350
3C
  3
Global
350
3E
  0
DICTIONARY
  5
184
102
{ACAD_REACTORS
330
C
102
}
330
C
100
AcDbDictionary
281
     1
  0
DICTIONARY
  5
17
102
{ACAD_REACTORS
330
C
102
}
330
C
100
AcDbDictionary
281
     1
  3
Standard
350
18
  0
DICTIONARY
  5
19
102
{ACAD_REACTORS
330
C
102
}
330
C
100
AcDbDictionary
281
     1
  0
ACDBDICTIONARYWDFLT
  5
E
102
{ACAD_REACTORS
330
C
102
}
330
C
100
AcDbDictionary
281
     1
  3
Normal
350
F
100
AcDbDictionaryWithDefault
340
F
  0
DICTIONARY
  5
137
102
{ACAD_REACTORS
330
C
102
}
330
C
100
AcDbDictionary
281
     1
  3
A0
350
138
  3
A1
350
139
  3
A2
350
13A
  3
A3
350
13B
  3
A4
350
13C
  3
A5
350
13D
  3
A6
350
13E
  3
A7
350
13F
  3
A8
350
140
  3
A9
350
141
  3
B0
350
142
  3
B1
350
143
  3
B2
350
144
  3
B3
350
145
  3
B4
350
146
  3
B5
350
147
  3
B6
350
148
  3
B7
350
149
  3
B8
350
14A
  3
B9
350
14B
  3
C0
350
14C
  3
C1
350
14D
  3
C2
350
14E
  3
C3
350
14F
  3
C4
350
150
  3
C5
350
151
  3
C6
350
152
  3
C7
350
153
  3
C8
350
154
  3
C9
350
155
  3
D0
350
156
  3
D1
350
157
  3
D2
350
158
  0
DICTIONARY
  5
183
102
{ACAD_REACTORS
330
C
102
}
330
C
100
AcDbDictionary
281
     1
  0
DICTIONARY
  5
2A
102
{ACAD_REACTORS
330
C
102
}
330
C
100
AcDbDictionary
281
     1
  3
2dWireframe
350
2F
  3
3D Hidden
350
31
  3
3dWireframe
350
30
  3
Basic
350
32
  3
Brighten
350
36
  3
ColorChange
350
3A
  3
Conceptual
350
34
  3
Dim
350
35
  3
Facepattern
350
39
  3
Flat
350
2B
  3
FlatWithEdges
350
2C
  3
Gouraud
350
2D
  3
GouraudWithEdges
350
2E
  3
Linepattern
350
38
  3
Realistic
350
33
  3
Thicken
350
37
  0
DICTIONARY
  5
15B
102
{ACAD_REACTORS
330
C
102
}
330
C
100
AcDbDictionary
281
     1
  3
CANNOSCALE
350
15C
  3
XCLIPFRAME
350
185
  0
DICTIONARY
  5
159
102
{ACAD_REACTORS
330
C
102
}
330
C
100
AcDbDictionary
281
     1
  3
AC_WATERMARK
350
15A
  0
LAYOUT
  5
1E
102
{ACAD_REACTORS
330
1A
102
}
330
1A
100
AcDbPlotSettings
  1

  2
none_device
  4

  6

 40
0.0
 41
0.0
 42
0.0
 43
0.0
 44
0.0
 45
0.0
 46
0.0
 47
0.0
 48
0.0
 49
0.0
140
0.0
141
0.0
142
1.0
143
1.0
 70
   688
 72
     0
 73
     0
 74
     5
  7

 75
    16
 76
     0
 77
     2
 78
   300
147
1.0
148
0.0
149
0.0
100
AcDbLayout
  1
Layout1
 70
     1
 71
     1
 10
0.0
 20
0.0
 11
12.0
 21
9.0
 12
0.0
 22
0.0
 32
0.0
 14
1.000000000000000E+20
 24
1.000000000000000E+20
 34
1.000000000000000E+20
 15
-1.000000000000000E+20
 25
-1.000000000000000E+20
 35
-1.000000000000000E+20
146
0.0
 13
0.0
 23
0.0
 33
0.0
 16
1.0
 26
0.0
 36
0.0
 17
0.0
 27
1.0
 37
0.0
 76
     0
330
1B
  0
LAYOUT
  5
26
102
{ACAD_REACTORS
330
1A
102
}
330
1A
100
AcDbPlotSettings
  1

  2
none_device
  4

  6

 40
0.0
 41
0.0
 42
0.0
 43
0.0
 44
0.0
 45
0.0
 46
0.0
 47
0.0
 48
0.0
 49
0.0
140
0.0
141
0.0
142
1.0
143
1.0
 70
   688
 72
     0
 73
     0
 74
     5
  7

 75
    16
 76
     0
 77
     2
 78
   300
147
1.0
148
0.0
149
0.0
100
AcDbLayout
  1
Layout2
 70
     1
 71
     2
 10
0.0
 20
0.0
 11
0.0
 21
0.0
 12
0.0
 22
0.0
 32
0.0
 14
0.0
 24
0.0
 34
0.0
 15
0.0
 25
0.0
 35
0.0
146
0.0
 13
0.0
 23
0.0
 33
0.0
 16
1.0
 26
0.0
 36
0.0
 17
0.0
 27
1.0
 37
0.0
 76
     0
330
23
  0
LAYOUT
  5
22
102
{ACAD_REACTORS
330
1A
102
}
330
1A
100
AcDbPlotSettings
  1

  2
none_device
  4

  6

 40
0.0
 41
0.0
 42
0.0
 43
0.0
 44
0.0
 45
0.0
 46
0.0
 47
0.0
 48
0.0
 49
0.0
140
0.0
141
0.0
142
1.0
143
1.0
 70
  1712
 72
     0
 73
     0
 74
     0
  7

 75
     0
 76
     0
 77
     2
 78
   300
147
1.0
148
0.0
149
0.0
100
AcDbLayout
  1
Model
 70
     1
 71
     0
 10
0.0
 20
0.0
 11
12.0
 21
9.0
 12
0.0
 22
0.0
 32
0.0
 14
1.000000000000000E+20
 24
1.000000000000000E+20
 34
1.000000000000000E+20
 15
-1.000000000000000E+20
 25
-1.000000000000000E+20
 35
-1.000000000000000E+20
146
0.0
 13
0.0
 23
0.0
 33
0.0
 16
1.0
 26
0.0
 36
0.0
 17
0.0
 27
1.0
 37
0.0
 76
     0
330
1F
331
29
  0
MATERIAL
  5
3D
102
{ACAD_REACTORS
330
3B
102
}
102
{ACAD_XDICTIONARY
360
17F
102
}
330
3B
100
AcDbMaterial
  1
ByBlock
  0
MATERIAL
  5
3C
102
{ACAD_REACTORS
330
3B
102
}
102
{ACAD_XDICTIONARY
360
17D
102
}
330
3B
100
AcDbMaterial
  1
ByLayer
  0
MATERIAL
  5
3E
102
{ACAD_REACTORS
330
3B
102
}
102
{ACAD_XDICTIONARY
360
181
102
}
330
3B
100
AcDbMaterial
  1
Global
  0
MLINESTYLE
  5
18
102
{ACAD_REACTORS
330
17
102
}
330
17
100
AcDbMlineStyle
  2
Standard
 70
     0
  3

 62
   256
 51
90.0
 52
90.0
 71
     2
 49
0.5
 62
   256
  6
BYLAYER
 49
-0.5
 62
   256
  6
BYLAYER
  0
ACDBPLACEHOLDER
  5
F
102
{ACAD_REACTORS
330
E
102
}
330
E
  0
SCALE
  5
138
102
{ACAD_REACTORS
330
137
102
}
330
137
100
AcDbScale
 70
     0
300
1:1
140
1.0
141
1.0
290
     1
  0
SCALE
  5
139
102
{ACAD_REACTORS
330
137
102
}
330
137
100
AcDbScale
 70
     0
300
1:2
140
1.0
141
2.0
290
     0
  0
SCALE
  5
13A
102
{ACAD_REACTORS
330
137
102
}
330
137
100
AcDbScale
 70
     0
300
1:4
140
1.0
141
4.0
290
     0
  0
SCALE
  5
13B
102
{ACAD_REACTORS
330
137
102
}
330
137
100
AcDbScale
 70
     0
300
1:5
140
1.0
141
5.0
290
     0
  0
SCALE
  5
13C
102
{ACAD_REACTORS
330
137
102
}
330
137
100
AcDbScale
 70
     0
300
1:8
140
1.0
141
8.0
290
     0
  0
SCALE
  5
13D
102
{ACAD_REACTORS
330
137
102
}
330
137
100
AcDbScale
 70
     0
300
1:10
140
1.0
141
10.0
290
     0
  0
SCALE
  5
13E
102
{ACAD_REACTORS
330
137
102
}
330
137
100
AcDbScale
 70
     0
300
1:16
140
1.0
141
16.0
290
     0
  0
SCALE
  5
13F
102
{ACAD_REACTORS
330
137
102
}
330
137
100
AcDbScale
 70
     0
300
1:20
140
1.0
141
20.0
290
     0
  0
SCALE
  5
140
102
{ACAD_REACTORS
330
137
102
}
330
137
100
AcDbScale
 70
     0
300
1:30
140
1.0
141
30.0
290
     0
  0
SCALE
  5
141
102
{ACAD_REACTORS
330
137
102
}
330
137
100
AcDbScale
 70
     0
300
1:40
140
1.0
141
40.0
290
     0
  0
SCALE
  5
142
102
{ACAD_REACTORS
330
137
102
}
330
137
100
AcDbScale
 70
     0
300
1:50
140
1.0
141
50.0
290
     0
  0
SCALE
  5
143
102
{ACAD_REACTORS
330
137
102
}
330
137
100
AcDbScale
 70
     0
300
1:100
140
1.0
141
100.0
290
     0
  0
SCALE
  5
144
102
{ACAD_REACTORS
330
137
102
}
330
137
100
AcDbScale
 70
     0
300
2:1
140
2.0
141
1.0
290
     0
  0
SCALE
  5
145
102
{ACAD_REACTORS
330
137
102
}
330
137
100
AcDbScale
 70
     0
300
4:1
140
4.0
141
1.0
290
     0
  0
SCALE
  5
146
102
{ACAD_REACTORS
330
137
102
}
330
137
100
AcDbScale
 70
     0
300
8:1
140
8.0
141
1.0
290
     0
  0
SCALE
  5
147
102
{ACAD_REACTORS
330
137
102
}
330
137
100
AcDbScale
 70
     0
300
10:1
140
10.0
141
1.0
290
     0
  0
SCALE
  5
148
102
{ACAD_REACTORS
330
137
102
}
330
137
100
AcDbScale
 70
     0
300
100:1
140
100.0
141
1.0
290
     0
  0
SCALE
  5
149
102
{ACAD_REACTORS
330
137
102
}
330
137
100
AcDbScale
 70
     0
300
1/128" = 1'-0"
140
0.0078125
141
12.0
290
     0
  0
SCALE
  5
14A
102
{ACAD_REACTORS
330
137
102
}
330
137
100
AcDbScale
 70
     0
300
1/64" = 1'-0"
140
0.015625
141
12.0
290
     0
  0
SCALE
  5
14B
102
{ACAD_REACTORS
330
137
102
}
330
137
100
AcDbScale
 70
     0
300
1/32" = 1'-0"
140
0.03125
141
12.0
290
     0
  0
SCALE
  5
14C
102
{ACAD_REACTORS
330
137
102
}
330
137
100
AcDbScale
 70
     0
300
1/16" = 1'-0"
140
0.0625
141
12.0
290
     0
  0
SCALE
  5
14D
102
{ACAD_REACTORS
330
137
102
}
330
137
100
AcDbScale
 70
     0
300
3/32" = 1'-0"
140
0.09375
141
12.0
290
     0
  0
SCALE
  5
14E
102
{ACAD_REACTORS
330
137
102
}
330
137
100
AcDbScale
 70
     0
300
1/8" = 1'-0"
140
0.125
141
12.0
290
     0
  0
SCALE
  5
14F
102
{ACAD_REACTORS
330
137
102
}
330
137
100
AcDbScale
 70
     0
300
3/16" = 1'-0"
140
0.1875
141
12.0
290
     0
  0
SCALE
  5
150
102
{ACAD_REACTORS
330
137
102
}
330
137
100
AcDbScale
 70
     0
300
1/4" = 1'-0"
140
0.25
141
12.0
290
     0
  0
SCALE
  5
151
102
{ACAD_REACTORS
330
137
102
}
330
137
100
AcDbScale
 70
     0
300
3/8" = 1'-0"
140
0.375
141
12.0
290
     0
  0
SCALE
  5
152
102
{ACAD_REACTORS
330
137
102
}
330
137
100
AcDbScale
 70
     0
300
1/2" = 1'-0"
140
0.5
141
12.0
290
     0
  0
SCALE
  5
153
102
{ACAD_REACTORS
330
137
102
}
330
137
100
AcDbScale
 70
     0
300
3/4" = 1'-0"
140
0.75
141
12.0
290
     0
  0
SCALE
  5
154
102
{ACAD_REACTORS
330
137
102
}
330
137
100
AcDbScale
 70
     0
300
1" = 1'-0"
140
1.0
141
12.0
290
     0
  0
SCALE
  5
155
102
{ACAD_REACTORS
330
137
102
}
330
137
100
AcDbScale
 70
     0
300
1-1/2" = 1'-0"
140
1.5
141
12.0
290
     0
  0
SCALE
  5
156
102
{ACAD_REACTORS
330
137
102
}
330
137
100
AcDbScale
 70
     0
300
3" = 1'-0"
140
3.0
141
12.0
290
     0
  0
SCALE
  5
157
102
{ACAD_REACTORS
330
137
102
}
330
137
100
AcDbScale
 70
     0
300
6" = 1'-0"
140
6.0
141
12.0
290
     0
  0
SCALE
  5
158
102
{ACAD_REACTORS
330
137
102
}
330
137
100
AcDbScale
 70
     0
300
1'-0" = 1'-0"
140
12.0
141
12.0
290
     0
  0
VISUALSTYLE
  5
2F
102
{ACAD_REACTORS
330
2A
102
}
102
{ACAD_XDICTIONARY
360
165
102
}
330
2A
100
AcDbVisualStyle
  2
2dWireframe
 70
     4
 71
     0
 72
     2
 73
     0
 90
        0
 40
-0.6
 41
-30.0
 62
     5
 63
     7
421
 16777215
 74
     1
 91
        4
 64
     7
 65
   257
 75
     1
175
     1
 42
1.0
 92
        0
 66
   257
 43
1.0
 76
     1
 77
     6
 78
     2
 67
     7
 79
     5
170
     0
171
     0
290
     0
174
     0
 93
        1
 44
0.0
173
     0
291
     0
 45
0.0
1001
ACAD
1000
AcDbSavedByObjectVersion
1070
     0
  0
VISUALSTYLE
  5
31
102
{ACAD_REACTORS
330
2A
102
}
102
{ACAD_XDICTIONARY
360
169
102
}
330
2A
100
AcDbVisualStyle
  2
3D Hidden
 70
     6
 71
     1
 72
     2
 73
     2
 90
        0
 40
-0.6
 41
-30.0
 62
     5
 63
     7
421
 16777215
 74
     2
 91
        2
 64
     7
 65
   257
 75
     2
175
     1
 42
40.0
 92
        0
 66
   257
 43
1.0
 76
     1
 77
     6
 78
     2
 67
     7
 79
     3
170
     0
171
     0
290
     0
174
     0
 93
        1
 44
0.0
173
     0
291
     0
 45
0.0
1001
ACAD
1000
AcDbSavedByObjectVersion
1070
     0
  0
VISUALSTYLE
  5
30
102
{ACAD_REACTORS
330
2A
102
}
102
{ACAD_XDICTIONARY
360
167
102
}
330
2A
100
AcDbVisualStyle
  2
3dWireframe
 70
     5
 71
     0
 72
     2
 73
     0
 90
        0
 40
-0.6
 41
-30.0
 62
     5
 63
     7
421
 16777215
 74
     1
 91
        4
 64
     7
 65
   257
 75
     1
175
     1
 42
1.0
 92
        0
 66
   257
 43
1.0
 76
     1
 77
     6
 78
     2
 67
     7
 79
     5
170
     0
171
     0
290
     0
174
     0
 93
        1
 44
0.0
173
     0
291
     0
 45
0.0
1001
ACAD
1000
AcDbSavedByObjectVersion
1070
     0
  0
VISUALSTYLE
  5
32
102
{ACAD_REACTORS
330
2A
102
}
102
{ACAD_XDICTIONARY
360
16B
102
}
330
2A
100
AcDbVisualStyle
  2
Basic
 70
     7
 71
     1
 72
     0
 73
     1
 90
        0
 40
-0.6
 41
-30.0
 62
     5
 63
     7
421
 16777215
 74
     0
 91
        4
 64
     7
 65
   257
 75
     1
175
     1
 42
1.0
 92
        8
 66
     7
 43
1.0
 76
     1
 77
     6
 78
     2
 67
     7
 79
     5
170
     0
171
     0
290
     0
174
     0
 93
        1
 44
0.0
173
     0
291
     1
 45
0.0
1001
ACAD
1000
AcDbSavedByObjectVersion
1070
     0
  0
VISUALSTYLE
  5
36
102
{ACAD_REACTORS
330
2A
102
}
102
{ACAD_XDICTIONARY
360
173
102
}
330
2A
100
AcDbVisualStyle
  2
Brighten
 70
    12
 71
     2
 72
     2
 73
     0
 90
        0
 40
-0.6
 41
-30.0
 62
     5
 63
     7
421
 16777215
 74
     1
 91
        4
 64
     7
 65
   257
 75
     1
175
     1
 42
1.0
 92
        8
 66
     7
 43
1.0
 76
     1
 77
     6
 78
     2
 67
     7
 79
     5
170
     0
171
     0
290
     0
174
     0
 93
        1
 44
50.0
173
     0
291
     1
 45
0.0
1001
ACAD
1000
AcDbSavedByObjectVersion
1070
     0
  0
VISUALSTYLE
  5
3A
102
{ACAD_REACTORS
330
2A
102
}
102
{ACAD_XDICTIONARY
360
17B
102
}
330
2A
100
AcDbVisualStyle
  2
ColorChange
 70
    16
 71
     2
 72
     2
 73
     3
 90
        0
 40
-0.6
 41
-30.0
 62
     5
 63
     8
421
  8421504
 74
     1
 91
        4
 64
     7
 65
   257
 75
     1
175
     1
 42
1.0
 92
        8
 66
     8
424
  8421504
 43
1.0
 76
     1
 77
     6
 78
     2
 67
     7
 79
     5
170
     0
171
     0
290
     0
174
     0
 93
        1
 44
0.0
173
     0
291
     1
 45
0.0
1001
ACAD
1000
AcDbSavedByObjectVersion
1070
     0
  0
VISUALSTYLE
  5
34
102
{ACAD_REACTORS
330
2A
102
}
102
{ACAD_XDICTIONARY
360
16F
102
}
330
2A
100
AcDbVisualStyle
  2
Conceptual
 70
     9
 71
     3
 72
     2
 73
     0
 90
        0
 40
-0.6
 41
-30.0
 62
     5
 63
     7
421
 16777215
 74
     2
 91
        2
 64
     7
 65
   257
 75
     1
175
     1
 42
40.0
 92
        8
 66
     7
 43
1.0
 76
     1
 77
     6
 78
     2
 67
     7
 79
     3
170
     0
171
     0
290
     0
174
     0
 93
        1
 44
0.0
173
     0
291
     0
 45
0.0
1001
ACAD
1000
AcDbSavedByObjectVersion
1070
     0
  0
VISUALSTYLE
  5
35
102
{ACAD_REACTORS
330
2A
102
}
102
{ACAD_XDICTIONARY
360
171
102
}
330
2A
100
AcDbVisualStyle
  2
Dim
 70
    11
 71
     2
 72
     2
 73
     0
 90
        0
 40
-0.6
 41
-30.0
 62
     5
 63
     7
421
 16777215
 74
     1
 91
        4
 64
     7
 65
   257
 75
     1
175
     1
 42
1.0
 92
        8
 66
     7
 43
1.0
 76
     1
 77
     6
 78
     2
 67
     7
 79
     5
170
     0
171
     0
290
     0
174
     0
 93
        1
 44
-50.0
173
     0
291
     1
 45
0.0
1001
ACAD
1000
AcDbSavedByObjectVersion
1070
     0
  0
VISUALSTYLE
  5
39
102
{ACAD_REACTORS
330
2A
102
}
102
{ACAD_XDICTIONARY
360
179
102
}
330
2A
100
AcDbVisualStyle
  2
Facepattern
 70
    15
 71
     2
 72
     2
 73
     0
 90
        0
 40
-0.6
 41
-30.0
 62
     5
 63
     7
421
 16777215
 74
     1
 91
        4
 64
     7
 65
   257
 75
     1
175
     1
 42
1.0
 92
        8
 66
     7
 43
1.0
 76
     1
 77
     6
 78
     2
 67
     7
 79
     5
170
     0
171
     0
290
     0
174
     0
 93
        1
 44
0.0
173
     0
291
     1
 45
0.0
1001
ACAD
1000
AcDbSavedByObjectVersion
1070
     0
  0
VISUALSTYLE
  5
2B
102
{ACAD_REACTORS
330
2A
102
}
102
{ACAD_XDICTIONARY
360
15D
102
}
330
2A
100
AcDbVisualStyle
  2
Flat
 70
     0
 71
     2
 72
     1
 73
     1
 90
        2
 40
-0.6
 41
30.0
 62
     5
 63
     7
421
 16777215
 74
     0
 91
        4
 64
     7
 65
   257
 75
     1
175
     1
 42
1.0
 92
        8
 66
     7
 43
1.0
 76
     1
 77
     6
 78
     2
 67
     7
 79
     5
170
     0
171
     0
290
     0
174
     0
 93
       13
 44
0.0
173
     0
291
     1
 45
0.0
1001
ACAD
1000
AcDbSavedByObjectVersion
1070
     0
  0
VISUALSTYLE
  5
2C
102
{ACAD_REACTORS
330
2A
102
}
102
{ACAD_XDICTIONARY
360
15F
102
}
330
2A
100
AcDbVisualStyle
  2
FlatWithEdges
 70
     1
 71
     2
 72
     1
 73
     1
 90
        2
 40
-0.6
 41
30.0
 62
     5
 63
     7
421
 16777215
 74
     1
 91
        4
 64
     7
 65
   257
 75
     1
175
     1
 42
1.0
 92
        0
 66
   257
 43
1.0
 76
     1
 77
     6
 78
     2
 67
     7
 79
     5
170
     0
171
     0
290
     0
174
     0
 93
       13
 44
0.0
173
     0
291
     1
 45
0.0
1001
ACAD
1000
AcDbSavedByObjectVersion
1070
     0
  0
VISUALSTYLE
  5
2D
102
{ACAD_REACTORS
330
2A
102
}
102
{ACAD_XDICTIONARY
360
161
102
}
330
2A
100
AcDbVisualStyle
  2
Gouraud
 70
     2
 71
     2
 72
     2
 73
     1
 90
        2
 40
-0.6
 41
30.0
 62
     5
 63
     7
421
 16777215
 74
     0
 91
        4
 64
     7
 65
   257
 75
     1
175
     1
 42
1.0
 92
        0
 66
     7
 43
1.0
 76
     1
 77
     6
 78
     2
 67
     7
 79
     5
170
     0
171
     0
290
     0
174
     0
 93
       13
 44
0.0
173
     0
291
     1
 45
0.0
1001
ACAD
1000
AcDbSavedByObjectVersion
1070
     0
  0
VISUALSTYLE
  5
2E
102
{ACAD_REACTORS
330
2A
102
}
102
{ACAD_XDICTIONARY
360
163
102
}
330
2A
100
AcDbVisualStyle
  2
GouraudWithEdges
 70
     3
 71
     2
 72
     2
 73
     1
 90
        2
 40
-0.6
 41
30.0
 62
     5
 63
     7
421
 16777215
 74
     1
 91
        4
 64
     7
 65
   257
 75
     1
175
     1
 42
1.0
 92
        0
 66
   257
 43
1.0
 76
     1
 77
     6
 78
     2
 67
     7
 79
     5
170
     0
171
     0
290
     0
174
     0
 93
       13
 44
0.0
173
     0
291
     1
 45
0.0
1001
ACAD
1000
AcDbSavedByObjectVersion
1070
     0
  0
VISUALSTYLE
  5
38
102
{ACAD_REACTORS
330
2A
102
}
102
{ACAD_XDICTIONARY
360
177
102
}
330
2A
100
AcDbVisualStyle
  2
Linepattern
 70
    14
 71
     2
 72
     2
 73
     0
 90
        0
 40
-0.6
 41
-30.0
 62
     5
 63
     7
421
 16777215
 74
     1
 91
        4
 64
     7
 65
   257
 75
     7
175
     7
 42
1.0
 92
        8
 66
     7
 43
1.0
 76
     1
 77
     6
 78
     2
 67
     7
 79
     5
170
     0
171
     0
290
     0
174
     0
 93
        1
 44
0.0
173
     0
291
     1
 45
0.0
1001
ACAD
1000
AcDbSavedByObjectVersion
1070
     0
  0
VISUALSTYLE
  5
33
102
{ACAD_REACTORS
330
2A
102
}
102
{ACAD_XDICTIONARY
360
16D
102
}
330
2A
100
AcDbVisualStyle
  2
Realistic
 70
     8
 71
     2
 72
     2
 73
     0
 90
        0
 40
-0.6
 41
-30.0
 62
     5
 63
     7
421
 16777215
 74
     1
 91
        0
 64
     7
 65
   257
 75
     1
175
     1
 42
1.0
 92
        8
 66
     8
424
  7895160
 43
1.0
 76
     1
 77
     6
 78
     2
 67
     7
 79
     5
170
     0
171
     0
290
     0
174
     0
 93
       13
 44
0.0
173
     0
291
     0
 45
0.0
1001
ACAD
1000
AcDbSavedByObjectVersion
1070
     0
  0
VISUALSTYLE
  5
37
102
{ACAD_REACTORS
330
2A
102
}
102
{ACAD_XDICTIONARY
360
175
102
}
330
2A
100
AcDbVisualStyle
  2
Thicken
 70
    13
 71
     2
 72
     2
 73
     0
 90
        0
 40
-0.6
 41
-30.0
 62
     5
 63
     7
421
 16777215
 74
     1
 91
        4
 64
     7
 65
   257
 75
     1
175
     1
 42
1.0
 92
       12
 66
     7
 43
1.0
 76
     1
 77
     6
 78
     2
 67
     7
 79
     5
170
     0
171
     0
290
     0
174
     0
 93
        1
 44
0.0
173
     0
291
     1
 45
0.0
1001
ACAD
1000
AcDbSavedByObjectVersion
1070
     0
  0
DICTIONARYVAR
  5
15C
102
{ACAD_REACTORS
330
15B
102
}
330
15B
100
DictionaryVariables
280
     0
  1
1:1
  0
DICTIONARYVAR
  5
185
102
{ACAD_REACTORS
330
15B
102
}
330
15B
100
DictionaryVariables
280
     0
  1
0
  0
XRECORD
  5
15A
102
{ACAD_REACTORS
330
159
102
}
330
159
100
AcDbXrecord
280
     1
1000
This DWG file was created in ArchiCAD(TM)®
  0
DICTIONARY
  5
17F
330
3D
100
AcDbDictionary
280
     1
281
     1
  3
ACAD_XREC_ROUNDTRIP
360
180
  0
DICTIONARY
  5
17D
330
3C
100
AcDbDictionary
280
     1
281
     1
  3
ACAD_XREC_ROUNDTRIP
360
17E
  0
DICTIONARY
  5
181
330
3E
100
AcDbDictionary
280
     1
281
     1
  3
ACAD_XREC_ROUNDTRIP
360
182
  0
DICTIONARY
  5
165
330
2F
100
AcDbDictionary
280
     1
281
     1
  3
ACAD_XREC_ROUNDTRIP
360
166
  0
DICTIONARY
  5
169
330
31
100
AcDbDictionary
280
     1
281
     1
  3
ACAD_XREC_ROUNDTRIP
360
16A
  0
DICTIONARY
  5
167
330
30
100
AcDbDictionary
280
     1
281
     1
  3
ACAD_XREC_ROUNDTRIP
360
168
  0
DICTIONARY
  5
16B
330
32
100
AcDbDictionary
280
     1
281
     1
  3
ACAD_XREC_ROUNDTRIP
360
16C
  0
DICTIONARY
  5
173
330
36
100
AcDbDictionary
280
     1
281
     1
  3
ACAD_XREC_ROUNDTRIP
360
174
  0
DICTIONARY
  5
17B
330
3A
100
AcDbDictionary
280
     1
281
     1
  3
ACAD_XREC_ROUNDTRIP
360
17C
  0
DICTIONARY
  5
16F
330
34
100
AcDbDictionary
280
     1
281
     1
  3
ACAD_XREC_ROUNDTRIP
360
170
  0
DICTIONARY
  5
171
330
35
100
AcDbDictionary
280
     1
281
     1
  3
ACAD_XREC_ROUNDTRIP
360
172
  0
DICTIONARY
  5
179
330
39
100
AcDbDictionary
280
     1
281
     1
  3
ACAD_XREC_ROUNDTRIP
360
17A
  0
DICTIONARY
  5
15D
330
2B
100
AcDbDictionary
280
     1
281
     1
  3
ACAD_XREC_ROUNDTRIP
360
15E
  0
DICTIONARY
  5
15F
330
2C
100
AcDbDictionary
280
     1
281
     1
  3
ACAD_XREC_ROUNDTRIP
360
160
  0
DICTIONARY
  5
161
330
2D
100
AcDbDictionary
280
     1
281
     1
  3
ACAD_XREC_ROUNDTRIP
360
162
  0
DICTIONARY
  5
163
330
2E
100
AcDbDictionary
280
     1
281
     1
  3
ACAD_XREC_ROUNDTRIP
360
164
  0
DICTIONARY
  5
177
330
38
100
AcDbDictionary
280
     1
281
     1
  3
ACAD_XREC_ROUNDTRIP
360
178
  0
DICTIONARY
  5
16D
330
33
100
AcDbDictionary
280
     1
281
     1
  3
ACAD_XREC_ROUNDTRIP
360
16E
  0
DICTIONARY
  5
175
330
37
100
AcDbDictionary
280
     1
281
     1
  3
ACAD_XREC_ROUNDTRIP
360
176
  0
XRECORD
  5
180
102
{ACAD_REACTORS
330
17F
102
}
330
17F
100
AcDbXrecord
280
     1
102
MATERIAL
148
0.0
149
0.0
149
0.0
 93
        0
 94
      127
282
     0
 72
     1
 77
     1
171
     1
175
     1
179
     1
273
     0
  0
XRECORD
  5
17E
102
{ACAD_REACTORS
330
17D
102
}
330
17D
100
AcDbXrecord
280
     1
102
MATERIAL
148
0.0
149
0.0
149
0.0
 93
        0
 94
      127
282
     0
 72
     1
 77
     1
171
     1
175
     1
179
     1
273
     0
  0
XRECORD
  5
182
102
{ACAD_REACTORS
330
181
102
}
330
181
100
AcDbXrecord
280
     1
102
MATERIAL
148
0.0
149
0.0
149
0.0
 93
        0
 94
      127
282
     0
 72
     1
 77
     1
171
     1
175
     1
179
     1
273
     0
  0
XRECORD
  5
166
102
{ACAD_REACTORS
330
165
102
}
330
165
100
AcDbXrecord
280
     1
102
RTVSPropertyOp0
 70
     1
102
RTVSPropertyOp1
 70
     1
102
RTVSPropertyOp2
 70
     1
102
RTVSPropertyOp3
 70
     1
102
RTVSPropertyOp4
 70
     1
102
RTVSPropertyOp5
 70
     1
102
RTVSPropertyOp6
 70
     1
102
RTVSPropertyOp7
 70
     1
102
RTVSPropertyOp8
 70
     1
102
RTVSPropertyOp9
 70
     1
102
RTVSPropertyOp10
 70
     1
102
RTVSPropertyOp11
 70
     1
102
RTVSPropertyOp12
 70
     1
102
RTVSPropertyOp13
 70
     1
102
RTVSPropertyOp14
 70
     1
102
RTVSPropertyOp15
 70
     1
102
RTVSPropertyOp16
 70
     1
102
RTVSPropertyOp17
 70
     1
102
RTVSPropertyOp18
 70
     1
102
RTVSPropertyOp19
 70
     1
102
RTVSPropertyOp20
 70
     1
102
RTVSPropertyOp21
 70
     1
102
RTVSPropertyOp22
 70
     1
102
RTVSPropertyOp23
 70
     1
102
RTVSPropertyOp24
 70
     1
102
RTVSPropertyOp25
 70
     1
102
RTVSPropertyOp26
 70
     1
102
RTVSPropertyOp27
 70
     1
102
RTVSPropertyOp28
 70
     1
102
RTVSPropertyOp29
 70
     1
102
RTVSPropertyOp30
 70
     1
102
RTVSPropertyOp31
 70
     1
102
RTVSPropertyOp32
 70
     1
  0
XRECORD
  5
16A
102
{ACAD_REACTORS
330
169
102
}
330
169
100
AcDbXrecord
280
     1
102
RTVSPropertyOp0
 70
     1
102
RTVSPropertyOp1
 70
     1
102
RTVSPropertyOp2
 70
     1
102
RTVSPropertyOp3
 70
     1
102
RTVSPropertyOp4
 70
     1
102
RTVSPropertyOp5
 70
     1
102
RTVSPropertyOp6
 70
     1
102
RTVSPropertyOp7
 70
     1
102
RTVSPropertyOp8
 70
     1
102
RTVSPropertyOp9
 70
     1
102
RTVSPropertyOp10
 70
     1
102
RTVSPropertyOp11
 70
     1
102
RTVSPropertyOp12
 70
     1
102
RTVSPropertyOp13
 70
     1
102
RTVSPropertyOp14
 70
     1
102
RTVSPropertyOp15
 70
     1
102
RTVSPropertyOp16
 70
     1
102
RTVSPropertyOp17
 70
     1
102
RTVSPropertyOp18
 70
     1
102
RTVSPropertyOp19
 70
     1
102
RTVSPropertyOp20
 70
     1
102
RTVSPropertyOp21
 70
     1
102
RTVSPropertyOp22
 70
     1
102
RTVSPropertyOp23
 70
     1
102
RTVSPropertyOp24
 70
     1
102
RTVSPropertyOp25
 70
     1
102
RTVSPropertyOp26
 70
     1
102
RTVSPropertyOp27
 70
     1
102
RTVSPropertyOp28
 70
     1
102
RTVSPropertyOp29
 70
     1
102
RTVSPropertyOp30
 70
     1
102
RTVSPropertyOp31
 70
     1
102
RTVSPropertyOp32
 70
     1
  0
XRECORD
  5
168
102
{ACAD_REACTORS
330
167
102
}
330
167
100
AcDbXrecord
280
     1
102
RTVSPropertyOp0
 70
     1
102
RTVSPropertyOp1
 70
     1
102
RTVSPropertyOp2
 70
     1
102
RTVSPropertyOp3
 70
     1
102
RTVSPropertyOp4
 70
     1
102
RTVSPropertyOp5
 70
     1
102
RTVSPropertyOp6
 70
     1
102
RTVSPropertyOp7
 70
     1
102
RTVSPropertyOp8
 70
     1
102
RTVSPropertyOp9
 70
     1
102
RTVSPropertyOp10
 70
     1
102
RTVSPropertyOp11
 70
     1
102
RTVSPropertyOp12
 70
     1
102
RTVSPropertyOp13
 70
     1
102
RTVSPropertyOp14
 70
     1
102
RTVSPropertyOp15
 70
     1
102
RTVSPropertyOp16
 70
     1
102
RTVSPropertyOp17
 70
     1
102
RTVSPropertyOp18
 70
     1
102
RTVSPropertyOp19
 70
     1
102
RTVSPropertyOp20
 70
     1
102
RTVSPropertyOp21
 70
     1
102
RTVSPropertyOp22
 70
     1
102
RTVSPropertyOp23
 70
     1
102
RTVSPropertyOp24
 70
     1
102
RTVSPropertyOp25
 70
     1
102
RTVSPropertyOp26
 70
     1
102
RTVSPropertyOp27
 70
     1
102
RTVSPropertyOp28
 70
     1
102
RTVSPropertyOp29
 70
     1
102
RTVSPropertyOp30
 70
     1
102
RTVSPropertyOp31
 70
     1
102
RTVSPropertyOp32
 70
     1
  0
XRECORD
  5
16C
102
{ACAD_REACTORS
330
16B
102
}
330
16B
100
AcDbXrecord
280
     1
102
RTVSPropertyOp0
 70
     1
102
RTVSPropertyOp1
 70
     1
102
RTVSPropertyOp2
 70
     1
102
RTVSPropertyOp3
 70
     1
102
RTVSPropertyOp4
 70
     1
102
RTVSPropertyOp5
 70
     1
102
RTVSPropertyOp6
 70
     1
102
RTVSPropertyOp7
 70
     1
102
RTVSPropertyOp8
 70
     1
102
RTVSPropertyOp9
 70
     1
102
RTVSPropertyOp10
 70
     1
102
RTVSPropertyOp11
 70
     1
102
RTVSPropertyOp12
 70
     1
102
RTVSPropertyOp13
 70
     1
102
RTVSPropertyOp14
 70
     1
102
RTVSPropertyOp15
 70
     1
102
RTVSPropertyOp16
 70
     1
102
RTVSPropertyOp17
 70
     1
102
RTVSPropertyOp18
 70
     1
102
RTVSPropertyOp19
 70
     1
102
RTVSPropertyOp20
 70
     1
102
RTVSPropertyOp21
 70
     1
102
RTVSPropertyOp22
 70
     1
102
RTVSPropertyOp23
 70
     1
102
RTVSPropertyOp24
 70
     1
102
RTVSPropertyOp25
 70
     1
102
RTVSPropertyOp26
 70
     1
102
RTVSPropertyOp27
 70
     1
102
RTVSPropertyOp28
 70
     1
102
RTVSPropertyOp29
 70
     1
102
RTVSPropertyOp30
 70
     1
102
RTVSPropertyOp31
 70
     1
102
RTVSPropertyOp32
 70
     1
  0
XRECORD
  5
174
102
{ACAD_REACTORS
330
173
102
}
330
173
100
AcDbXrecord
280
     1
102
RTVSPropertyOp0
 70
     1
102
RTVSPropertyOp1
 70
     1
102
RTVSPropertyOp2
 70
     1
102
RTVSPropertyOp3
 70
     1
102
RTVSPropertyOp4
 70
     1
102
RTVSPropertyOp5
 70
     1
102
RTVSPropertyOp6
 70
     1
102
RTVSPropertyOp7
 70
     1
102
RTVSPropertyOp8
 70
     1
102
RTVSPropertyOp9
 70
     1
102
RTVSPropertyOp10
 70
     1
102
RTVSPropertyOp11
 70
     1
102
RTVSPropertyOp12
 70
     1
102
RTVSPropertyOp13
 70
     1
102
RTVSPropertyOp14
 70
     1
102
RTVSPropertyOp15
 70
     1
102
RTVSPropertyOp16
 70
     1
102
RTVSPropertyOp17
 70
     1
102
RTVSPropertyOp18
 70
     1
102
RTVSPropertyOp19
 70
     1
102
RTVSPropertyOp20
 70
     1
102
RTVSPropertyOp21
 70
     1
102
RTVSPropertyOp22
 70
     1
102
RTVSPropertyOp23
 70
     1
102
RTVSPropertyOp24
 70
     1
102
RTVSPropertyOp25
 70
     1
102
RTVSPropertyOp26
 70
     1
102
RTVSPropertyOp27
 70
     1
102
RTVSPropertyOp28
 70
     1
102
RTVSPropertyOp29
 70
     1
102
RTVSPropertyOp30
 70
     1
102
RTVSPropertyOp31
 70
     1
102
RTVSPropertyOp32
 70
     1
  0
XRECORD
  5
17C
102
{ACAD_REACTORS
330
17B
102
}
330
17B
100
AcDbXrecord
280
     1
102
RTVSPropertyOp0
 70
     1
102
RTVSPropertyOp1
 70
     1
102
RTVSPropertyOp2
 70
     1
102
RTVSPropertyOp3
 70
     1
102
RTVSPropertyOp4
 70
     1
102
RTVSPropertyOp5
 70
     1
102
RTVSPropertyOp6
 70
     1
102
RTVSPropertyOp7
 70
     1
102
RTVSPropertyOp8
 70
     1
102
RTVSPropertyOp9
 70
     1
102
RTVSPropertyOp10
 70
     1
102
RTVSPropertyOp11
 70
     1
102
RTVSPropertyOp12
 70
     1
102
RTVSPropertyOp13
 70
     1
102
RTVSPropertyOp14
 70
     1
102
RTVSPropertyOp15
 70
     1
102
RTVSPropertyOp16
 70
     1
102
RTVSPropertyOp17
 70
     1
102
RTVSPropertyOp18
 70
     1
102
RTVSPropertyOp19
 70
     1
102
RTVSPropertyOp20
 70
     1
102
RTVSPropertyOp21
 70
     1
102
RTVSPropertyOp22
 70
     1
102
RTVSPropertyOp23
 70
     1
102
RTVSPropertyOp24
 70
     1
102
RTVSPropertyOp25
 70
     1
102
RTVSPropertyOp26
 70
     1
102
RTVSPropertyOp27
 70
     1
102
RTVSPropertyOp28
 70
     1
102
RTVSPropertyOp29
 70
     1
102
RTVSPropertyOp30
 70
     1
102
RTVSPropertyOp31
 70
     1
102
RTVSPropertyOp32
 70
     1
  0
XRECORD
  5
170
102
{ACAD_REACTORS
330
16F
102
}
330
16F
100
AcDbXrecord
280
     1
102
RTVSPropertyOp0
 70
     1
102
RTVSPropertyOp1
 70
     1
102
RTVSPropertyOp2
 70
     1
102
RTVSPropertyOp3
 70
     1
102
RTVSPropertyOp4
 70
     1
102
RTVSPropertyOp5
 70
     1
102
RTVSPropertyOp6
 70
     1
102
RTVSPropertyOp7
 70
     1
102
RTVSPropertyOp8
 70
     1
102
RTVSPropertyOp9
 70
     1
102
RTVSPropertyOp10
 70
     1
102
RTVSPropertyOp11
 70
     1
102
RTVSPropertyOp12
 70
     1
102
RTVSPropertyOp13
 70
     1
102
RTVSPropertyOp14
 70
     1
102
RTVSPropertyOp15
 70
     1
102
RTVSPropertyOp16
 70
     1
102
RTVSPropertyOp17
 70
     1
102
RTVSPropertyOp18
 70
     1
102
RTVSPropertyOp19
 70
     1
102
RTVSPropertyOp20
 70
     1
102
RTVSPropertyOp21
 70
     1
102
RTVSPropertyOp22
 70
     1
102
RTVSPropertyOp23
 70
     1
102
RTVSPropertyOp24
 70
     1
102
RTVSPropertyOp25
 70
     1
102
RTVSPropertyOp26
 70
     1
102
RTVSPropertyOp27
 70
     1
102
RTVSPropertyOp28
 70
     1
102
RTVSPropertyOp29
 70
     1
102
RTVSPropertyOp30
 70
     1
102
RTVSPropertyOp31
 70
     1
102
RTVSPropertyOp32
 70
     1
  0
XRECORD
  5
172
102
{ACAD_REACTORS
330
171
102
}
330
171
100
AcDbXrecord
280
     1
102
RTVSPropertyOp0
 70
     1
102
RTVSPropertyOp1
 70
     1
102
RTVSPropertyOp2
 70
     1
102
RTVSPropertyOp3
 70
     1
102
RTVSPropertyOp4
 70
     1
102
RTVSPropertyOp5
 70
     1
102
RTVSPropertyOp6
 70
     1
102
RTVSPropertyOp7
 70
     1
102
RTVSPropertyOp8
 70
     1
102
RTVSPropertyOp9
 70
     1
102
RTVSPropertyOp10
 70
     1
102
RTVSPropertyOp11
 70
     1
102
RTVSPropertyOp12
 70
     1
102
RTVSPropertyOp13
 70
     1
102
RTVSPropertyOp14
 70
     1
102
RTVSPropertyOp15
 70
     1
102
RTVSPropertyOp16
 70
     1
102
RTVSPropertyOp17
 70
     1
102
RTVSPropertyOp18
 70
     1
102
RTVSPropertyOp19
 70
     1
102
RTVSPropertyOp20
 70
     1
102
RTVSPropertyOp21
 70
     1
102
RTVSPropertyOp22
 70
     1
102
RTVSPropertyOp23
 70
     1
102
RTVSPropertyOp24
 70
     1
102
RTVSPropertyOp25
 70
     1
102
RTVSPropertyOp26
 70
     1
102
RTVSPropertyOp27
 70
     1
102
RTVSPropertyOp28
 70
     1
102
RTVSPropertyOp29
 70
     1
102
RTVSPropertyOp30
 70
     1
102
RTVSPropertyOp31
 70
     1
102
RTVSPropertyOp32
 70
     1
  0
XRECORD
  5
17A
102
{ACAD_REACTORS
330
179
102
}
330
179
100
AcDbXrecord
280
     1
102
RTVSPropertyOp0
 70
     1
102
RTVSPropertyOp1
 70
     1
102
RTVSPropertyOp2
 70
     1
102
RTVSPropertyOp3
 70
     1
102
RTVSPropertyOp4
 70
     1
102
RTVSPropertyOp5
 70
     1
102
RTVSPropertyOp6
 70
     1
102
RTVSPropertyOp7
 70
     1
102
RTVSPropertyOp8
 70
     1
102
RTVSPropertyOp9
 70
     1
102
RTVSPropertyOp10
 70
     1
102
RTVSPropertyOp11
 70
     1
102
RTVSPropertyOp12
 70
     1
102
RTVSPropertyOp13
 70
     1
102
RTVSPropertyOp14
 70
     1
102
RTVSPropertyOp15
 70
     1
102
RTVSPropertyOp16
 70
     1
102
RTVSPropertyOp17
 70
     1
102
RTVSPropertyOp18
 70
     1
102
RTVSPropertyOp19
 70
     1
102
RTVSPropertyOp20
 70
     1
102
RTVSPropertyOp21
 70
     1
102
RTVSPropertyOp22
 70
     1
102
RTVSPropertyOp23
 70
     1
102
RTVSPropertyOp24
 70
     1
102
RTVSPropertyOp25
 70
     1
102
RTVSPropertyOp26
 70
     1
102
RTVSPropertyOp27
 70
     1
102
RTVSPropertyOp28
 70
     1
102
RTVSPropertyOp29
 70
     1
102
RTVSPropertyOp30
 70
     1
102
RTVSPropertyOp31
 70
     1
102
RTVSPropertyOp32
 70
     1
  0
XRECORD
  5
15E
102
{ACAD_REACTORS
330
15D
102
}
330
15D
100
AcDbXrecord
280
     1
102
RTVSPropertyOp0
 70
     1
102
RTVSPropertyOp1
 70
     1
102
RTVSPropertyOp2
 70
     1
102
RTVSPropertyOp3
 70
     1
102
RTVSPropertyOp4
 70
     1
102
RTVSPropertyOp5
 70
     1
102
RTVSPropertyOp6
 70
     1
102
RTVSPropertyOp7
 70
     1
102
RTVSPropertyOp8
 70
     1
102
RTVSPropertyOp9
 70
     1
102
RTVSPropertyOp10
 70
     1
102
RTVSPropertyOp11
 70
     1
102
RTVSPropertyOp12
 70
     1
102
RTVSPropertyOp13
 70
     1
102
RTVSPropertyOp14
 70
     1
102
RTVSPropertyOp15
 70
     1
102
RTVSPropertyOp16
 70
     1
102
RTVSPropertyOp17
 70
     1
102
RTVSPropertyOp18
 70
     1
102
RTVSPropertyOp19
 70
     1
102
RTVSPropertyOp20
 70
     1
102
RTVSPropertyOp21
 70
     1
102
RTVSPropertyOp22
 70
     1
102
RTVSPropertyOp23
 70
     1
102
RTVSPropertyOp24
 70
     1
102
RTVSPropertyOp25
 70
     1
102
RTVSPropertyOp26
 70
     1
102
RTVSPropertyOp27
 70
     1
102
RTVSPropertyOp28
 70
     1
102
RTVSPropertyOp29
 70
     1
102
RTVSPropertyOp30
 70
     1
102
RTVSPropertyOp31
 70
     1
102
RTVSPropertyOp32
 70
     1
  0
XRECORD
  5
160
102
{ACAD_REACTORS
330
15F
102
}
330
15F
100
AcDbXrecord
280
     1
102
RTVSPropertyOp0
 70
     1
102
RTVSPropertyOp1
 70
     1
102
RTVSPropertyOp2
 70
     1
102
RTVSPropertyOp3
 70
     1
102
RTVSPropertyOp4
 70
     1
102
RTVSPropertyOp5
 70
     1
102
RTVSPropertyOp6
 70
     1
102
RTVSPropertyOp7
 70
     1
102
RTVSPropertyOp8
 70
     1
102
RTVSPropertyOp9
 70
     1
102
RTVSPropertyOp10
 70
     1
102
RTVSPropertyOp11
 70
     1
102
RTVSPropertyOp12
 70
     1
102
RTVSPropertyOp13
 70
     1
102
RTVSPropertyOp14
 70
     1
102
RTVSPropertyOp15
 70
     1
102
RTVSPropertyOp16
 70
     1
102
RTVSPropertyOp17
 70
     1
102
RTVSPropertyOp18
 70
     1
102
RTVSPropertyOp19
 70
     1
102
RTVSPropertyOp20
 70
     1
102
RTVSPropertyOp21
 70
     1
102
RTVSPropertyOp22
 70
     1
102
RTVSPropertyOp23
 70
     1
102
RTVSPropertyOp24
 70
     1
102
RTVSPropertyOp25
 70
     1
102
RTVSPropertyOp26
 70
     1
102
RTVSPropertyOp27
 70
     1
102
RTVSPropertyOp28
 70
     1
102
RTVSPropertyOp29
 70
     1
102
RTVSPropertyOp30
 70
     1
102
RTVSPropertyOp31
 70
     1
102
RTVSPropertyOp32
 70
     1
  0
XRECORD
  5
162
102
{ACAD_REACTORS
330
161
102
}
330
161
100
AcDbXrecord
280
     1
102
RTVSPropertyOp0
 70
     1
102
RTVSPropertyOp1
 70
     1
102
RTVSPropertyOp2
 70
     1
102
RTVSPropertyOp3
 70
     1
102
RTVSPropertyOp4
 70
     1
102
RTVSPropertyOp5
 70
     1
102
RTVSPropertyOp6
 70
     1
102
RTVSPropertyOp7
 70
     1
102
RTVSPropertyOp8
 70
     1
102
RTVSPropertyOp9
 70
     1
102
RTVSPropertyOp10
 70
     1
102
RTVSPropertyOp11
 70
     1
102
RTVSPropertyOp12
 70
     1
102
RTVSPropertyOp13
 70
     1
102
RTVSPropertyOp14
 70
     1
102
RTVSPropertyOp15
 70
     1
102
RTVSPropertyOp16
 70
     1
102
RTVSPropertyOp17
 70
     1
102
RTVSPropertyOp18
 70
     1
102
RTVSPropertyOp19
 70
     1
102
RTVSPropertyOp20
 70
     1
102
RTVSPropertyOp21
 70
     1
102
RTVSPropertyOp22
 70
     1
102
RTVSPropertyOp23
 70
     1
102
RTVSPropertyOp24
 70
     1
102
RTVSPropertyOp25
 70
     1
102
RTVSPropertyOp26
 70
     1
102
RTVSPropertyOp27
 70
     1
102
RTVSPropertyOp28
 70
     1
102
RTVSPropertyOp29
 70
     1
102
RTVSPropertyOp30
 70
     1
102
RTVSPropertyOp31
 70
     1
102
RTVSPropertyOp32
 70
     1
  0
XRECORD
  5
164
102
{ACAD_REACTORS
330
163
102
}
330
163
100
AcDbXrecord
280
     1
102
RTVSPropertyOp0
 70
     1
102
RTVSPropertyOp1
 70
     1
102
RTVSPropertyOp2
 70
     1
102
RTVSPropertyOp3
 70
     1
102
RTVSPropertyOp4
 70
     1
102
RTVSPropertyOp5
 70
     1
102
RTVSPropertyOp6
 70
     1
102
RTVSPropertyOp7
 70
     1
102
RTVSPropertyOp8
 70
     1
102
RTVSPropertyOp9
 70
     1
102
RTVSPropertyOp10
 70
     1
102
RTVSPropertyOp11
 70
     1
102
RTVSPropertyOp12
 70
     1
102
RTVSPropertyOp13
 70
     1
102
RTVSPropertyOp14
 70
     1
102
RTVSPropertyOp15
 70
     1
102
RTVSPropertyOp16
 70
     1
102
RTVSPropertyOp17
 70
     1
102
RTVSPropertyOp18
 70
     1
102
RTVSPropertyOp19
 70
     1
102
RTVSPropertyOp20
 70
     1
102
RTVSPropertyOp21
 70
     1
102
RTVSPropertyOp22
 70
     1
102
RTVSPropertyOp23
 70
     1
102
RTVSPropertyOp24
 70
     1
102
RTVSPropertyOp25
 70
     1
102
RTVSPropertyOp26
 70
     1
102
RTVSPropertyOp27
 70
     1
102
RTVSPropertyOp28
 70
     1
102
RTVSPropertyOp29
 70
     1
102
RTVSPropertyOp30
 70
     1
102
RTVSPropertyOp31
 70
     1
102
RTVSPropertyOp32
 70
     1
  0
XRECORD
  5
178
102
{ACAD_REACTORS
330
177
102
}
330
177
100
AcDbXrecord
280
     1
102
RTVSPropertyOp0
 70
     1
102
RTVSPropertyOp1
 70
     1
102
RTVSPropertyOp2
 70
     1
102
RTVSPropertyOp3
 70
     1
102
RTVSPropertyOp4
 70
     1
102
RTVSPropertyOp5
 70
     1
102
RTVSPropertyOp6
 70
     1
102
RTVSPropertyOp7
 70
     1
102
RTVSPropertyOp8
 70
     1
102
RTVSPropertyOp9
 70
     1
102
RTVSPropertyOp10
 70
     1
102
RTVSPropertyOp11
 70
     1
102
RTVSPropertyOp12
 70
     1
102
RTVSPropertyOp13
 70
     1
102
RTVSPropertyOp14
 70
     1
102
RTVSPropertyOp15
 70
     1
102
RTVSPropertyOp16
 70
     1
102
RTVSPropertyOp17
 70
     1
102
RTVSPropertyOp18
 70
     1
102
RTVSPropertyOp19
 70
     1
102
RTVSPropertyOp20
 70
     1
102
RTVSPropertyOp21
 70
     1
102
RTVSPropertyOp22
 70
     1
102
RTVSPropertyOp23
 70
     1
102
RTVSPropertyOp24
 70
     1
102
RTVSPropertyOp25
 70
     1
102
RTVSPropertyOp26
 70
     1
102
RTVSPropertyOp27
 70
     1
102
RTVSPropertyOp28
 70
     1
102
RTVSPropertyOp29
 70
     1
102
RTVSPropertyOp30
 70
     1
102
RTVSPropertyOp31
 70
     1
102
RTVSPropertyOp32
 70
     1
  0
XRECORD
  5
16E
102
{ACAD_REACTORS
330
16D
102
}
330
16D
100
AcDbXrecord
280
     1
102
RTVSPropertyOp0
 70
     1
102
RTVSPropertyOp1
 70
     1
102
RTVSPropertyOp2
 70
     1
102
RTVSPropertyOp3
 70
     1
102
RTVSPropertyOp4
 70
     1
102
RTVSPropertyOp5
 70
     1
102
RTVSPropertyOp6
 70
     1
102
RTVSPropertyOp7
 70
     1
102
RTVSPropertyOp8
 70
     1
102
RTVSPropertyOp9
 70
     1
102
RTVSPropertyOp10
 70
     1
102
RTVSPropertyOp11
 70
     1
102
RTVSPropertyOp12
 70
     1
102
RTVSPropertyOp13
 70
     1
102
RTVSPropertyOp14
 70
     1
102
RTVSPropertyOp15
 70
     1
102
RTVSPropertyOp16
 70
     1
102
RTVSPropertyOp17
 70
     1
102
RTVSPropertyOp18
 70
     1
102
RTVSPropertyOp19
 70
     1
102
RTVSPropertyOp20
 70
     1
102
RTVSPropertyOp21
 70
     1
102
RTVSPropertyOp22
 70
     1
102
RTVSPropertyOp23
 70
     1
102
RTVSPropertyOp24
 70
     1
102
RTVSPropertyOp25
 70
     1
102
RTVSPropertyOp26
 70
     1
102
RTVSPropertyOp27
 70
     1
102
RTVSPropertyOp28
 70
     1
102
RTVSPropertyOp29
 70
     1
102
RTVSPropertyOp30
 70
     1
102
RTVSPropertyOp31
 70
     1
102
RTVSPropertyOp32
 70
     1
  0
XRECORD
  5
176
102
{ACAD_REACTORS
330
175
102
}
330
175
100
AcDbXrecord
280
     1
102
RTVSPropertyOp0
 70
     1
102
RTVSPropertyOp1
 70
     1
102
RTVSPropertyOp2
 70
     1
102
RTVSPropertyOp3
 70
     1
102
RTVSPropertyOp4
 70
     1
102
RTVSPropertyOp5
 70
     1
102
RTVSPropertyOp6
 70
     1
102
RTVSPropertyOp7
 70
     1
102
RTVSPropertyOp8
 70
     1
102
RTVSPropertyOp9
 70
     1
102
RTVSPropertyOp10
 70
     1
102
RTVSPropertyOp11
 70
     1
102
RTVSPropertyOp12
 70
     1
102
RTVSPropertyOp13
 70
     1
102
RTVSPropertyOp14
 70
     1
102
RTVSPropertyOp15
 70
     1
102
RTVSPropertyOp16
 70
     1
102
RTVSPropertyOp17
 70
     1
102
RTVSPropertyOp18
 70
     1
102
RTVSPropertyOp19
 70
     1
102
RTVSPropertyOp20
 70
     1
102
RTVSPropertyOp21
 70
     1
102
RTVSPropertyOp22
 70
     1
102
RTVSPropertyOp23
 70
     1
102
RTVSPropertyOp24
 70
     1
102
RTVSPropertyOp25
 70
     1
102
RTVSPropertyOp26
 70
     1
102
RTVSPropertyOp27
 70
     1
102
RTVSPropertyOp28
 70
     1
102
RTVSPropertyOp29
 70
     1
102
RTVSPropertyOp30
 70
     1
102
RTVSPropertyOp31
 70
     1
102
RTVSPropertyOp32
 70
     1
  0
ENDSEC
  0
EOF
