  0
SECTION
  2
HEADER
  9
$ACADVER
  1
AC1018
  9
$ACADMAINTVER
 70
     0
  9
$DWGCODEPAGE
  3
ANSI_1252
  9
$INSBASE
 10
0.0
 20
0.0
 30
0.0
  9
$EXTMIN
 10
1.000000000000000E+20
 20
1.000000000000000E+20
 30
1.000000000000000E+20
  9
$EXTMAX
 10
-1.000000000000000E+20
 20
-1.000000000000000E+20
 30
-1.000000000000000E+20
  9
$LIMMIN
 10
0.0
 20
0.0
  9
$LIMMAX
 10
12.0
 20
9.0
  9
$ORTHOMODE
 70
     0
  9
$REGENMODE
 70
     1
  9
$FILLMODE
 70
     1
  9
$QTEXTMODE
 70
     0
  9
$MIRRTEXT
 70
     1
  9
$LTSCALE
 40
1.0
  9
$ATTMODE
 70
     1
  9
$TEXTSIZE
 40
0.2
  9
$TRACEWID
 40
0.05
  9
$TEXTSTYLE
  7
Standard
  9
$CLAYER
  8
0
  9
$CELTYPE
  6
ByLayer
  9
$CECOLOR
 62
   256
  9
$CELTSCALE
 40
1.0
  9
$DISPSILH
 70
     0
  9
$DIMSCALE
 40
1.0
  9
$DIMASZ
 40
0.18
  9
$DIMEXO
 40
0.0625
  9
$DIMDLI
 40
0.38
  9
$DIMRND
 40
0.0
  9
$DIMDLE
 40
0.0
  9
$DIMEXE
 40
0.18
  9
$DIMTP
 40
0.0
  9
$DIMTM
 40
0.0
  9
$DIMTXT
 40
0.18
  9
$DIMCEN
 40
0.09
  9
$DIMTSZ
 40
0.0
  9
$DIMTOL
 70
     0
  9
$DIMLIM
 70
     0
  9
$DIMTIH
 70
     1
  9
$DIMTOH
 70
     1
  9
$DIMSE1
 70
     0
  9
$DIMSE2
 70
     0
  9
$DIMTAD
 70
     0
  9
$DIMZIN
 70
     0
  9
$DIMBLK
  1

  9
$DIMASO
 70
     1
  9
$DIMSHO
 70
     1
  9
$DIMPOST
  1

  9
$DIMAPOST
  1

  9
$DIMALT
 70
     0
  9
$DIMALTD
 70
     2
  9
$DIMALTF
 40
25.4
  9
$DIMLFAC
 40
1.0
  9
$DIMTOFL
 70
     0
  9
$DIMTVP
 40
0.0
  9
$DIMTIX
 70
     0
  9
$DIMSOXD
 70
     0
  9
$DIMSAH
 70
     0
  9
$DIMBLK1
  1

  9
$DIMBLK2
  1

  9
$DIMSTYLE
  2
Standard
  9
$DIMCLRD
 70
     0
  9
$DIMCLRE
 70
     0
  9
$DIMCLRT
 70
     0
  9
$DIMTFAC
 40
1.0
  9
$DIMGAP
 40
0.09
  9
$DIMJUST
 70
     0
  9
$DIMSD1
 70
     0
  9
$DIMSD2
 70
     0
  9
$DIMTOLJ
 70
     1
  9
$DIMTZIN
 70
     0
  9
$DIMALTZ
 70
     0
  9
$DIMALTTZ
 70
     0
  9
$DIMUPT
 70
     0
  9
$DIMDEC
 70
     4
  9
$DIMTDEC
 70
     4
  9
$DIMALTU
 70
     2
  9
$DIMALTTD
 70
     2
  9
$DIMTXSTY
  7
Standard
  9
$DIMAUNIT
 70
     0
  9
$DIMADEC
 70
     0
  9
$DIMALTRND
 40
0.0
  9
$DIMAZIN
 70
     0
  9
$DIMDSEP
 70
    46
  9
$DIMATFIT
 70
     3
  9
$DIMFRAC
 70
     0
  9
$DIMLDRBLK
  1

  9
$DIMLUNIT
 70
     2
  9
$DIMLWD
 70
    -2
  9
$DIMLWE
 70
    -2
  9
$DIMTMOVE
 70
     0
  9
$LUNITS
 70
     2
  9
$LUPREC
 70
     4
  9
$SKETCHINC
 40
0.1
  9
$FILLETRAD
 40
0.5
  9
$AUNITS
 70
     0
  9
$AUPREC
 70
     0
  9
$MENU
  1
.
  9
$ELEVATION
 40
0.0
  9
$PELEVATION
 40
0.0
  9
$THICKNESS
 40
0.0
  9
$LIMCHECK
 70
     0
  9
$CHAMFERA
 40
0.5
  9
$CHAMFERB
 40
0.5
  9
$CHAMFERC
 40
1.0
  9
$CHAMFERD
 40
0.0
  9
$SKPOLY
 70
     0
  9
$TDCREATE
 40
2457126.39916022
  9
$TDUCREATE
 40
2457125.89916022
  9
$TDUPDATE
 40
2457126.399162627
  9
$TDUUPDATE
 40
2457125.899162627
  9
$TDINDWG
 40
0.0000000116
  9
$TDUSRTIMER
 40
0.0000000116
  9
$USRTIMER
 70
     1
  9
$ANGBASE
 50
0.0
  9
$ANGDIR
 70
     0
  9
$PDMODE
 70
     0
  9
$PDSIZE
 40
0.0
  9
$PLINEWID
 40
0.0
  9
$SPLFRAME
 70
     0
  9
$SPLINETYPE
 70
     6
  9
$SPLINESEGS
 70
     8
  9
$HANDSEED
  5
326
  9
$SURFTAB1
 70
     6
  9
$SURFTAB2
 70
     6
  9
$SURFTYPE
 70
     6
  9
$SURFU
 70
     6
  9
$SURFV
 70
     6
  9
$UCSBASE
  2

  9
$UCSNAME
  2

  9
$UCSORG
 10
0.0
 20
0.0
 30
0.0
  9
$UCSXDIR
 10
1.0
 20
0.0
 30
0.0
  9
$UCSYDIR
 10
0.0
 20
1.0
 30
0.0
  9
$UCSORTHOREF
  2

  9
$UCSORTHOVIEW
 70
     0
  9
$UCSORGTOP
 10
0.0
 20
0.0
 30
0.0
  9
$UCSORGBOTTOM
 10
0.0
 20
0.0
 30
0.0
  9
$UCSORGLEFT
 10
0.0
 20
0.0
 30
0.0
  9
$UCSORGRIGHT
 10
0.0
 20
0.0
 30
0.0
  9
$UCSORGFRONT
 10
0.0
 20
0.0
 30
0.0
  9
$UCSORGBACK
 10
0.0
 20
0.0
 30
0.0
  9
$PUCSBASE
  2

  9
$PUCSNAME
  2

  9
$PUCSORG
 10
0.0
 20
0.0
 30
0.0
  9
$PUCSXDIR
 10
1.0
 20
0.0
 30
0.0
  9
$PUCSYDIR
 10
0.0
 20
1.0
 30
0.0
  9
$PUCSORTHOREF
  2

  9
$PUCSORTHOVIEW
 70
     0
  9
$PUCSORGTOP
 10
0.0
 20
0.0
 30
0.0
  9
$PUCSORGBOTTOM
 10
0.0
 20
0.0
 30
0.0
  9
$PUCSORGLEFT
 10
0.0
 20
0.0
 30
0.0
  9
$PUCSORGRIGHT
 10
0.0
 20
0.0
 30
0.0
  9
$PUCSORGFRONT
 10
0.0
 20
0.0
 30
0.0
  9
$PUCSORGBACK
 10
0.0
 20
0.0
 30
0.0
  9
$USERI1
 70
     0
  9
$USERI2
 70
     0
  9
$USERI3
 70
     0
  9
$USERI4
 70
     0
  9
$USERI5
 70
     0
  9
$USERR1
 40
0.0
  9
$USERR2
 40
0.0
  9
$USERR3
 40
0.0
  9
$USERR4
 40
0.0
  9
$USERR5
 40
0.0
  9
$WORLDVIEW
 70
     1
  9
$SHADEDGE
 70
     3
  9
$SHADEDIF
 70
    70
  9
$TILEMODE
 70
     1
  9
$MAXACTVP
 70
    64
  9
$PINSBASE
 10
0.0
 20
0.0
 30
0.0
  9
$PLIMCHECK
 70
     0
  9
$PEXTMIN
 10
1.000000000000000E+20
 20
1.000000000000000E+20
 30
1.000000000000000E+20
  9
$PEXTMAX
 10
-1.000000000000000E+20
 20
-1.000000000000000E+20
 30
-1.000000000000000E+20
  9
$PLIMMIN
 10
0.0
 20
0.0
  9
$PLIMMAX
 10
12.0
 20
9.0
  9
$UNITMODE
 70
     0
  9
$VISRETAIN
 70
     1
  9
$PLINEGEN
 70
     0
  9
$PSLTSCALE
 70
     1
  9
$TREEDEPTH
 70
  3020
  9
$CMLSTYLE
  2
Standard
  9
$CMLJUST
 70
     0
  9
$CMLSCALE
 40
1.0
  9
$PROXYGRAPHICS
 70
     1
  9
$MEASUREMENT
 70
     0
  9
$CELWEIGHT
370
    -1
  9
$ENDCAPS
280
     0
  9
$JOINSTYLE
280
     0
  9
$LWDISPLAY
290
     1
  9
$INSUNITS
 70
     4
  9
$HYPERLINKBASE
  1

  9
$STYLESHEET
  1

  9
$XEDIT
290
     1
  9
$CEPSNTYPE
380
     0
  9
$PSTYLEMODE
290
     1
  9
$FINGERPRINTGUID
  2
{31A20920-D023-4AA7-A676-6365FCBB9D46}
  9
$VERSIONGUID
  2
{FAEB1C32-E019-11D5-929B-00C0DF256EC4}
  9
$EXTNAMES
290
     1
  9
$PSVPSCALE
 40
0.0
  9
$OLESTARTUP
290
     0
  9
$SORTENTS
280
   127
  9
$INDEXCTL
280
     0
  9
$HIDETEXT
280
     1
  9
$XCLIPFRAME
290
     0
  9
$HALOGAP
280
     0
  9
$OBSCOLOR
 70
   257
  9
$OBSLTYPE
280
     0
  9
$INTERSECTIONDISPLAY
280
     0
  9
$INTERSECTIONCOLOR
 70
   257
  9
$DIMASSOC
280
     2
  9
$PROJECTNAME
  1

  0
ENDSEC
  0
SECTION
  2
CLASSES
  0
CLASS
  1
ACDBDICTIONARYWDFLT
  2
AcDbDictionaryWithDefault
  3
ObjectDBX Classes
 90
        0
 91
        4
280
     0
281
     0
  0
CLASS
  1
VISUALSTYLE
  2
AcDbVisualStyle
  3
ObjectDBX Classes
 90
     4095
 91
        4
280
     0
281
     0
  0
CLASS
  1
MATERIAL
  2
AcDbMaterial
  3
ObjectDBX Classes
 90
     1153
 91
        4
280
     0
281
     0
  0
CLASS
  1
WIPEOUT
  2
AcDbWipeout
  3
WipeOut|AutoCAD Express Tool|expresstools@autodesk.com
 90
      127
 91
        4
280
     0
281
     1
  0
CLASS
  1
SCALE
  2
AcDbScale
  3
ObjectDBX Classes
 90
     1153
 91
        4
280
     0
281
     0
  0
CLASS
  1
DICTIONARYVAR
  2
AcDbDictionaryVar
  3
ObjectDBX Classes
 90
        0
 91
        4
280
     0
281
     0
  0
ENDSEC
  0
SECTION
  2
TABLES
  0
TABLE
  2
VPORT
  5
8
330
0
100
AcDbSymbolTable
 70
     1
  0
VPORT
  5
29
330
8
100
AcDbSymbolTableRecord
100
AcDbViewportTableRecord
  2
*Active
 70
     0
 10
0.0
 20
0.0
 11
1.0
 21
1.0
 12
449.7198507117301
 22
559.9985197558584
 13
0.0
 23
0.0
 14
0.5
 24
0.5
 15
0.5
 25
0.5
 16
0.0
 26
0.0
 36
1.0
 17
0.0
 27
0.0
 37
0.0
 40
1305.603019397168
 41
0.7348110339014358
 42
50.0
 43
0.0
 44
0.0
 50
0.0
 51
0.0
 71
     0
 72
   100
 73
     1
 74
     3
 75
     0
 76
     0
 77
     0
 78
     0
281
     0
 65
     1
110
0.0
120
0.0
130
0.0
111
1.0
121
0.0
131
0.0
112
0.0
122
1.0
132
0.0
 79
     0
146
0.0
  0
ENDTAB
  0
TABLE
  2
LTYPE
  5
5
330
0
100
AcDbSymbolTable
 70
     5
  0
LTYPE
  5
14
330
5
100
AcDbSymbolTableRecord
100
AcDbLinetypeTableRecord
  2
ByBlock
 70
     0
  3

 72
    65
 73
     0
 40
0.0
  0
LTYPE
  5
15
330
5
100
AcDbSymbolTableRecord
100
AcDbLinetypeTableRecord
  2
ByLayer
 70
     0
  3

 72
    65
 73
     0
 40
0.0
  0
LTYPE
  5
16
330
5
100
AcDbSymbolTableRecord
100
AcDbLinetypeTableRecord
  2
Continuous
 70
     0
  3
Solid line
 72
    65
 73
     0
 40
0.0
  0
LTYPE
  5
172
330
5
100
AcDbSymbolTableRecord
100
AcDbLinetypeTableRecord
  2
Above
 70
     0
  3
- - - - - 
 72
    65
 73
     2
 40
15.0
 49
10.0
 74
     0
 49
-4.999999999999999
 74
     0
  0
LTYPE
  5
1BC
330
5
100
AcDbSymbolTableRecord
100
AcDbLinetypeTableRecord
  2
HIDDEN
 70
     0
  3
- - - - - 
 72
    65
 73
     2
 40
1.875
 49
1.25
 74
     0
 49
-0.6249999999999999
 74
     0
  0
LTYPE
  5
1FD
330
5
100
AcDbSymbolTableRecord
100
AcDbLinetypeTableRecord
  2
DASHED2
 70
     0
  3
- - - - - 
 72
    65
 73
     2
 40
7.5
 49
5.0
 74
     0
 49
-2.5
 74
     0
  0
LTYPE
  5
29A
330
5
100
AcDbSymbolTableRecord
100
AcDbLinetypeTableRecord
  2
Wipeout_Contour
 70
     0
  3
- - - - - 
 72
    65
 73
     2
 40
1000.0
 49
0.0
 74
     0
 49
-1000.0
 74
     0
  0
ENDTAB
  0
TABLE
  2
LAYER
  5
2
330
0
100
AcDbSymbolTable
 70
     4
  0
LAYER
  5
10
330
2
100
AcDbSymbolTableRecord
100
AcDbLayerTableRecord
  2
0
 70
     0
 62
     7
  6
Continuous
370
    -3
390
F
  0
LAYER
  5
40
330
2
100
AcDbSymbolTableRecord
100
AcDbLayerTableRecord
  2
0_Pen_No__146
 70
     0
 62
     9
420
 13290186
  6
Continuous
370
     5
390
F
  0
LAYER
  5
53
330
2
100
AcDbSymbolTableRecord
100
AcDbLayerTableRecord
  2
0_Pen_No__1
 70
     0
 62
     7
  6
Continuous
370
    13
390
F
  0
LAYER
  5
29B
330
2
100
AcDbSymbolTableRecord
100
AcDbLayerTableRecord
  2
Key_ Sections_Pen_No__1
 70
     0
 62
     7
  6
Continuous
370
    13
390
F
  0
ENDTAB
  0
TABLE
  2
STYLE
  5
3
330
0
100
AcDbSymbolTable
 70
     2
  0
STYLE
  5
11
330
3
100
AcDbSymbolTableRecord
100
AcDbTextStyleTableRecord
  2
Standard
 70
     0
 40
0.0
 41
1.0
 50
0.0
 71
     0
 42
0.2
  3
txt
  4

  0
STYLE
  5
27B
330
3
100
AcDbSymbolTableRecord
100
AcDbTextStyleTableRecord
  2
GENERATED_STYLE_1
 70
     0
 40
0.0
 41
1.0
 50
0.0
 71
     0
 42
0.2
  3

  4

1001
ACAD
1000
Arial
1071
       34
  0
ENDTAB
  0
TABLE
  2
VIEW
  5
6
330
0
100
AcDbSymbolTable
 70
     0
  0
ENDTAB
  0
TABLE
  2
UCS
  5
7
330
0
100
AcDbSymbolTable
 70
     0
  0
ENDTAB
  0
TABLE
  2
APPID
  5
9
330
0
100
AcDbSymbolTable
 70
     1
  0
APPID
  5
12
330
9
100
AcDbSymbolTableRecord
100
AcDbRegAppTableRecord
  2
ACAD
 70
     0
  0
ENDTAB
  0
TABLE
  2
DIMSTYLE
  5
A
330
0
100
AcDbSymbolTable
 70
     4
100
AcDbDimStyleTable
  0
DIMSTYLE
105
27
330
A
100
AcDbSymbolTableRecord
100
AcDbDimStyleTableRecord
  2
Standard
 70
     0
178
     0
340
11
  0
DIMSTYLE
105
27E
102
{ACAD_REACTORS
330
27D
330
28D
102
}
330
A
100
AcDbSymbolTableRecord
100
AcDbDimStyleTableRecord
  2
GENERATED_STYLE__1
 70
     0
 41
10.23882825346851
 42
0.0
 73
     0
 74
     0
 75
     1
 76
     1
 77
     1
140
12.5
172
     1
176
     7
177
     7
271
     0
178
     7
271
     0
279
     2
288
     1
340
27B
342
27F
343
27F
344
27F
  0
DIMSTYLE
105
298
102
{ACAD_REACTORS
330
297
102
}
330
A
100
AcDbSymbolTableRecord
100
AcDbDimStyleTableRecord
  2
GENERATED_STYLE__2
 70
     0
 41
10.23882825346851
 42
0.0
 73
     0
 74
     0
 75
     1
 76
     1
 77
     1
140
12.5
172
     1
176
     7
177
     7
271
     0
178
     7
271
     0
288
     1
340
27B
342
27F
343
27F
344
27F
  0
DIMSTYLE
105
29E
330
A
100
AcDbSymbolTableRecord
100
AcDbDimStyleTableRecord
  2
GENERATED_STYLE__3
 70
     0
 41
9.12
172
     1
178
     0
340
0
341
29F
  0
ENDTAB
  0
TABLE
  2
BLOCK_RECORD
  5
1
330
0
100
AcDbSymbolTable
 70
     7
  0
BLOCK_RECORD
  5
1F
330
1
100
AcDbSymbolTableRecord
100
AcDbBlockTableRecord
  2
*Model_Space
340
22
  0
BLOCK_RECORD
  5
1B
330
1
100
AcDbSymbolTableRecord
100
AcDbBlockTableRecord
  2
*Paper_Space
340
1E
  0
BLOCK_RECORD
  5
23
330
1
100
AcDbSymbolTableRecord
100
AcDbBlockTableRecord
  2
*Paper_Space0
340
26
  0
BLOCK_RECORD
  5
273
330
1
100
AcDbSymbolTableRecord
100
AcDbBlockTableRecord
  2
*D1
340
0
  0
BLOCK_RECORD
  5
27F
330
1
100
AcDbSymbolTableRecord
100
AcDbBlockTableRecord
  2
ARROWHEAD_2
340
0
  0
BLOCK_RECORD
  5
284
330
1
100
AcDbSymbolTableRecord
100
AcDbBlockTableRecord
  2
*D3
340
0
  0
BLOCK_RECORD
  5
28E
330
1
100
AcDbSymbolTableRecord
100
AcDbBlockTableRecord
  2
*D4
340
0
  0
BLOCK_RECORD
  5
29F
330
1
100
AcDbSymbolTableRecord
100
AcDbBlockTableRecord
  2
ARROWHEAD_5
340
0
  0
BLOCK_RECORD
  5
2D4
330
1
100
AcDbSymbolTableRecord
100
AcDbBlockTableRecord
  2
DC-24-T Balustrade   Wall Junct_STORY_MARKER
340
0
  0
ENDTAB
  0
ENDSEC
  0
SECTION
  2
BLOCKS
  0
BLOCK
  5
20
330
1F
100
AcDbEntity
  8
0
100
AcDbBlockBegin
  2
*Model_Space
 70
     0
 10
0.0
 20
0.0
 30
0.0
  3
*Model_Space
  1

  0
ENDBLK
  5
21
330
1F
100
AcDbEntity
  8
0
100
AcDbBlockEnd
  0
BLOCK
  5
1C
330
1B
100
AcDbEntity
 67
     1
  8
0
100
AcDbBlockBegin
  2
*Paper_Space
 70
     0
 10
0.0
 20
0.0
 30
0.0
  3
*Paper_Space
  1

  0
ENDBLK
  5
1D
330
1B
100
AcDbEntity
 67
     1
  8
0
100
AcDbBlockEnd
  0
BLOCK
  5
24
330
23
100
AcDbEntity
  8
0
100
AcDbBlockBegin
  2
*Paper_Space0
 70
     0
 10
0.0
 20
0.0
 30
0.0
  3
*Paper_Space0
  1

  0
ENDBLK
  5
25
330
23
100
AcDbEntity
  8
0
100
AcDbBlockEnd
  0
BLOCK
  5
274
330
273
100
AcDbEntity
  8
0
100
AcDbBlockBegin
  2
*D1
 70
     1
 10
0.0
 20
0.0
 30
0.0
  3
*D1
  1

  0
LINE
  5
276
330
273
100
AcDbEntity
  8
0_Pen_No__1
  6
Continuous
100
AcDbLine
 10
637.1269786654935
 20
378.2699478962839
 30
0.0
 11
642.832248063402
 21
381.5638867333598
 31
0.0
  0
LINE
  5
277
330
273
100
AcDbEntity
  8
0_Pen_No__1
  6
Continuous
100
AcDbLine
 10
642.832248063402
 20
381.5638867333598
 30
0.0
 11
686.1335182526237
 21
406.5638868426066
 31
0.0
  0
LINE
  5
278
330
273
100
AcDbEntity
  8
0_Pen_No__1
  6
Continuous
100
AcDbLine
 10
642.8322464783371
 20
389.3420308903069
 30
0.0
 11
642.8322496484669
 21
373.7857425764126
 31
0.0
  0
LINE
  5
279
330
273
100
AcDbEntity
  8
0_Pen_No__1
  6
Continuous
100
AcDbLine
 10
686.1335198376887
 20
398.7857426856595
 30
0.0
 11
686.1335166675588
 21
414.3420309995537
 31
0.0
  0
LINE
  5
27A
330
273
100
AcDbEntity
  8
0_Pen_No__1
  6
Continuous
100
AcDbLine
 10
686.1335182526237
 20
406.5638868426066
 30
0.0
 11
691.8387876505321
 21
409.8578256796825
 31
0.0
  0
MTEXT
  5
27C
330
273
100
AcDbEntity
  8
0_Pen_No__1
100
AcDbMText
 10
644.3368890900557
 20
356.4518293815622
 30
0.0
 40
12.5
 41
0.0
 71
     7
 72
     1
  1
{50mm min}
  7
GENERATED_STYLE_1
 11
0.866025402838332
 21
0.5000000016387049
 31
0.0
 73
     1
 44
1.0
  0
ENDBLK
  5
275
330
273
100
AcDbEntity
  8
0
100
AcDbBlockEnd
  0
BLOCK
  5
280
330
27F
100
AcDbEntity
  8
0
100
AcDbBlockBegin
  2
ARROWHEAD_2
 70
     0
 10
0.0
 20
0.0
 30
0.0
  3
ARROWHEAD_2
  1

  0
LINE
  5
282
330
27F
100
AcDbEntity
  8
0
  6
Continuous
 62
     0
370
     0
100
AcDbLine
 10
-0.3781315
 20
-0.655
 30
0.0
 11
0.3781315
 21
0.655
 31
0.0
  0
LINE
  5
283
330
27F
100
AcDbEntity
  8
0
  6
Continuous
 62
     0
370
     0
100
AcDbLine
 10
0.0
 20
0.0
 30
0.0
 11
-1.0
 21
0.0
 31
0.0
  0
ENDBLK
  5
281
330
27F
100
AcDbEntity
  8
0
100
AcDbBlockEnd
  0
BLOCK
  5
285
330
284
100
AcDbEntity
  8
0
100
AcDbBlockBegin
  2
*D3
 70
     1
 10
0.0
 20
0.0
 30
0.0
  3
*D3
  1

  0
LINE
  5
287
330
284
100
AcDbEntity
  8
0_Pen_No__1
  6
Continuous
100
AcDbLine
 10
747.5493649526979
 20
640.4344653348094
 30
0.0
 11
747.5493649526979
 21
647.02234298737
 31
0.0
  0
LINE
  5
288
330
284
100
AcDbEntity
  8
0_Pen_No__1
  6
Continuous
100
AcDbLine
 10
747.5493649526979
 20
647.02234298737
 30
0.0
 11
747.5493649526979
 21
697.0223429873706
 31
0.0
  0
LINE
  5
289
330
284
100
AcDbEntity
  8
0_Pen_No__1
  6
Continuous
100
AcDbLine
 10
740.8132937333108
 20
650.9114137058832
 30
0.0
 11
754.2854361720852
 21
643.1332722688569
 31
0.0
  0
LINE
  5
28A
330
284
100
AcDbEntity
  8
0_Pen_No__1
  6
Continuous
100
AcDbLine
 10
754.2854361720852
 20
693.1332722688575
 30
0.0
 11
740.8132937333108
 21
700.9114137058839
 31
0.0
  0
LINE
  5
28B
330
284
100
AcDbEntity
  8
0_Pen_No__1
  6
Continuous
100
AcDbLine
 10
747.5493649526979
 20
697.0223429873706
 30
0.0
 11
747.5493649526979
 21
703.6102206399313
 31
0.0
  0
MTEXT
  5
28C
330
284
100
AcDbEntity
  8
0_Pen_No__1
100
AcDbMText
 10
770.049364915445
 20
630.5833473523469
 30
0.0
 40
12.5
 41
0.0
 71
     7
 72
     1
  1
{50mm min}
  7
GENERATED_STYLE_1
 11
6.123233995736766E-17
 21
1.0
 31
0.0
 73
     1
 44
1.0
  0
ENDBLK
  5
286
330
284
100
AcDbEntity
  8
0
100
AcDbBlockEnd
  0
BLOCK
  5
28F
330
28E
100
AcDbEntity
  8
0
100
AcDbBlockBegin
  2
*D4
 70
     1
 10
0.0
 20
0.0
 30
0.0
  3
*D4
  1

  0
LINE
  5
291
330
28E
100
AcDbEntity
  8
0_Pen_No__1
  6
Continuous
100
AcDbLine
 10
507.2231684406385
 20
434.8578259042882
 30
0.0
 11
512.9284378385466
 21
431.5638870672118
 31
0.0
  0
LINE
  5
292
330
28E
100
AcDbEntity
  8
0_Pen_No__1
  6
Continuous
100
AcDbLine
 10
512.9284378385466
 20
431.5638870672118
 30
0.0
 11
599.5309780674653
 21
381.5638869350362
 31
0.0
  0
LINE
  5
293
330
28E
100
AcDbEntity
  8
0_Pen_No__1
  6
Continuous
100
AcDbLine
 10
519.6645074949462
 20
435.452960492899
 30
0.0
 11
506.1923681821472
 21
427.6748136415246
 31
0.0
  0
LINE
  5
294
330
28E
100
AcDbEntity
  8
0_Pen_No__1
  6
Continuous
100
AcDbLine
 10
592.7949084110658
 20
377.674813509349
 30
0.0
 11
606.2670477238647
 21
385.4529603607234
 31
0.0
  0
LINE
  5
295
330
28E
100
AcDbEntity
  8
0_Pen_No__1
  6
Continuous
100
AcDbLine
 10
599.5309780674653
 20
381.5638869350362
 30
0.0
 11
605.2362474653734
 21
378.2699480979598
 31
0.0
  0
MTEXT
  5
296
330
28E
100
AcDbEntity
  8
0_Pen_No__1
100
AcDbMText
 10
518.7807122918583
 20
431.0718262135729
 30
0.0
 40
12.5
 41
0.0
 71
     7
 72
     1
  1
{100mm min}
  7
GENERATED_STYLE_1
 11
0.8660254028382881
 21
-0.5000000016387808
 31
0.0
 73
     1
 44
1.0
  0
ENDBLK
  5
290
330
28E
100
AcDbEntity
  8
0
100
AcDbBlockEnd
  0
BLOCK
  5
2A0
330
29F
100
AcDbEntity
  8
0
100
AcDbBlockBegin
  2
ARROWHEAD_5
 70
     0
 10
0.0
 20
0.0
 30
0.0
  3
ARROWHEAD_5
  1

  0
SOLID
  5
2A2
330
29F
100
AcDbEntity
  8
0
  6
Continuous
 62
     0
370
     0
100
AcDbTrace
 10
-1.0
 20
0.2679
 30
0.0
 11
0.0
 21
0.0
 31
0.0
 12
-1.0
 22
-0.2679
 32
0.0
 13
-1.0
 23
0.2679
 33
0.0
  0
LINE
  5
2A3
330
29F
100
AcDbEntity
  8
0
  6
Continuous
 62
     0
370
     0
100
AcDbLine
 10
0.0
 20
0.0
 30
0.0
 11
-1.0
 21
0.0
 31
0.0
  0
ENDBLK
  5
2A1
330
29F
100
AcDbEntity
  8
0
100
AcDbBlockEnd
  0
BLOCK
  5
2D5
330
2D4
100
AcDbEntity
  8
0
100
AcDbBlockBegin
  2
DC-24-T Balustrade   Wall Junct_STORY_MARKER
 70
     0
 10
0.0
 20
0.0
 30
0.0
  3
DC-24-T Balustrade   Wall Junct_STORY_MARKER
  1

  0
ENDBLK
  5
2D6
330
2D4
100
AcDbEntity
  8
0
100
AcDbBlockEnd
  0
ENDSEC
  0
SECTION
  2
ENTITIES
  0
HATCH
  5
3F
330
1F
100
AcDbEntity
  8
0_Pen_No__146
  6
Continuous
 62
   250
420
  3289650
370
     0
100
AcDbHatch
 10
0.0
 20
0.0
 30
0.0
210
0.0
220
0.0
230
1.0
  2
SOLID
 70
     1
 71
     0
 91
        1
 92
        3
 72
     0
 73
     1
 93
       17
 10
349.3708800459959
 20
110.3559652049411
 10
342.9867336680029
 20
106.6700765589537
 10
337.9283911753847
 20
50.65196802082597
 10
350.918772175384
 20
58.1519680208247
 10
337.9283911753851
 20
-80.00296034079254
 10
350.0527467753919
 20
-73.00296034078887
 10
350.0527467753919
 20
-66.00296034079031
 10
344.7263651611266
 20
-69.07814821303046
 10
346.7148674186163
 20
-47.93008589436318
 10
350.0527467753919
 20
-46.00296034078519
 10
350.0527467753919
 20
-51.8031199032549
 10
356.1149245753831
 20
-48.30311990326017
 10
356.1149245753831
 20
-35.50296034079234
 10
347.4108432087445
 20
-40.52826408282903
 10
356.8555551152167
 20
59.91786577554461
 10
356.9809499753877
 20
68.65196802082576
 10
344.7263651611266
 20
61.57678014858806
 97
        0
 75
     0
 76
     1
 98
        0
  0
HATCH
  5
41
330
1F
100
AcDbEntity
  8
0_Pen_No__146
  6
Continuous
 62
   250
420
  3289650
370
     0
100
AcDbHatch
 10
0.0
 20
0.0
 30
0.0
210
0.0
220
0.0
230
1.0
  2
SOLID
 70
     1
 71
     0
 91
        1
 92
        3
 72
     0
 73
     1
 93
        4
 10
297.9898500114641
 20
418.4133616867971
 10
305.5287278684345
 20
419.3180270296337
 10
307.9061589529121
 20
420.3986775225777
 10
297.9898500114641
 20
424.1096923684094
 97
        0
 75
     0
 76
     1
 98
        0
  0
HATCH
  5
42
330
1F
100
AcDbEntity
  8
0_Pen_No__146
  6
Continuous
 62
   250
420
  3289650
370
     0
100
AcDbHatch
 10
0.0
 20
0.0
 30
0.0
210
0.0
220
0.0
230
1.0
  2
SOLID
 70
     1
 71
     0
 91
        1
 92
        3
 72
     0
 73
     1
 93
        4
 10
360.3888592933727
 20
97.97320905547305
 10
464.3119076339727
 20
157.9732092521176
 10
464.3119076339727
 20
197.9732092521176
 10
360.3888592933727
 20
117.9732090554731
 97
        0
 75
     0
 76
     1
 98
        0
  0
HATCH
  5
43
330
1F
100
AcDbEntity
  8
0_Pen_No__146
  6
Continuous
 62
   250
420
  3289650
370
     0
100
AcDbHatch
 10
0.0
 20
0.0
 30
0.0
210
0.0
220
0.0
230
1.0
  2
SOLID
 70
     1
 71
     0
 91
        1
 92
        3
 72
     0
 73
     1
 93
        4
 10
352.0485917836183
 20
111.7877174028031
 10
348.2379938352994
 20
74.15619254024233
 10
358.4327381616122
 20
80.0421309470796
 10
358.4327381616122
 20
115.4736060487909
 97
        0
 75
     0
 76
     1
 98
        0
  0
HATCH
  5
44
330
1F
100
AcDbEntity
  8
0_Pen_No__146
  6
Continuous
 62
   250
420
  3289650
370
     0
100
AcDbHatch
 10
0.0
 20
0.0
 30
0.0
210
0.0
220
0.0
230
1.0
  2
SOLID
 70
     1
 71
     0
 91
        1
 92
        3
 72
     0
 73
     1
 93
       17
 10
473.3418377466768
 20
201.1796389580387
 10
480.3204713601471
 20
135.9312434975011
 10
468.0658865458878
 20
128.8560556252629
 10
468.0996664794986
 20
122.2166646603995
 10
477.6359933125293
 20
30.7264310056872
 10
468.931911945892
 20
25.70112726365051
 10
468.931911945892
 20
12.9009677011829
 10
474.9940897458828
 20
16.40096770117741
 10
474.9940897458828
 20
22.20112726364712
 10
478.3319691026583
 20
24.12825281722467
 10
480.3204713601476
 20
5.276315135882586
 10
474.9940897458828
 20
2.201127263641994
 10
474.9940897458828
 20
-4.798872736355681
 10
487.1184453458895
 20
2.201127263646657
 10
474.1280643458911
 20
125.3560556252667
 10
487.1184453458895
 20
132.856055625265
 10
479.6765711855241
 20
203.4085266494854
 97
        0
 75
     0
 76
     1
 98
        0
  0
HATCH
  5
45
330
1F
100
AcDbEntity
  8
0_Pen_No__146
  6
Continuous
 62
   250
420
  3289650
370
     0
100
AcDbHatch
 10
0.0
 20
0.0
 30
0.0
210
0.0
220
0.0
230
1.0
  2
SOLID
 70
     1
 71
     0
 91
        1
 92
        3
 72
     0
 73
     1
 93
        4
 10
471.3634019982939
 20
199.4341003480833
 10
465.3711626926741
 20
195.974479356817
 10
465.371162692675
 20
160.9433136116261
 10
474.547584939239
 20
166.2413234890297
 97
        0
 75
     0
 76
     1
 98
        0
  0
HATCH
  5
46
330
1F
100
AcDbEntity
  8
0_Pen_No__146
  6
Continuous
 62
   250
420
  3289650
370
     0
100
AcDbHatch
 10
0.0
 20
0.0
 30
0.0
210
0.0
220
0.0
230
1.0
  2
SOLID
 70
     1
 71
     0
 91
        1
 92
        3
 72
     0
 73
     1
 93
        4
 10
377.7093673501398
 20
64.55882771752377
 10
446.991399577206
 20
104.5588278486198
 10
446.991399577206
 20
144.5588278486199
 10
377.7093673501398
 20
104.5588277175238
 97
        0
 75
     0
 76
     1
 98
        0
  0
HATCH
  5
47
330
1F
100
AcDbEntity
  8
0_Pen_No__146
  6
Continuous
 62
   250
420
  3289650
370
     0
100
AcDbHatch
 10
0.0
 20
0.0
 30
0.0
210
0.0
220
0.0
230
1.0
  2
SOLID
 70
     1
 71
     0
 91
        1
 92
        3
 72
     0
 73
     1
 93
       19
 10
12.95588334914344
 20
982.1000058990695
 10
-17.32051032845749
 20
936.4691809743148
 10
-8.829637017211844
 20
880.3295773061271
 10
-2.12639579856333
 20
845.9754879624045
 10
17.98330973171236
 20
826.7036838082787
 10
26.36235370266071
 20
800.7286444773944
 10
43.95834906259699
 20
774.7536051465102
 10
72.48431660565069
 20
764.9947204003803
 10
72.48431660565069
 20
1003.411419164385
 10
107.1253292591895
 20
1023.41141605772
 10
122.7137858595658
 20
1014.41141685153
 10
122.7137858595658
 20
987.1100787633701
 10
247.7603766026041
 20
1078.745278119281
 10
247.7603766468416
 20
1103.705519061813
 10
229.9967731747444
 20
1100.458701823825
 10
189.7537443665448
 20
1090.189694270916
 10
129.9038100642805
 20
1050.808178544625
 10
84.17777220692801
 20
1029.022664220159
 10
54.85110924577441
 20
1015.616187824753
 97
        0
 75
     0
 76
     1
 98
        0
  0
HATCH
  5
48
330
1F
100
AcDbEntity
  8
0_Pen_No__146
  6
Continuous
 62
   250
420
  3289650
370
     0
100
AcDbHatch
 10
0.0
 20
0.0
 30
0.0
210
0.0
220
0.0
230
1.0
  2
SOLID
 70
     1
 71
     0
 91
        1
 92
        3
 72
     0
 73
     1
 93
       10
 10
297.9898500114641
 20
1008.616477411181
 10
335.494416478418
 20
986.9632066309041
 10
350.6314173398429
 20
1000.149926068288
 10
357.3346541618288
 20
1031.990298555848
 10
366.5516035836228
 20
1078.912953892876
 10
367.0901095448443
 20
1101.53023084979
 10
354.9686632761902
 20
1117.203634992648
 10
342.8975145581913
 20
1127.854648283016
 10
313.784745542354
 20
1119.925797001015
 10
297.9898500114641
 20
1113.111033036707
 97
        0
 75
     0
 76
     1
 98
        0
  0
HATCH
  5
49
330
1F
100
AcDbEntity
  8
0_Pen_No__146
  6
Continuous
 62
   250
420
  3289650
370
     0
100
AcDbHatch
 10
0.0
 20
0.0
 30
0.0
210
0.0
220
0.0
230
1.0
  2
SOLID
 70
     1
 71
     0
 91
        1
 92
        3
 72
     0
 73
     1
 93
        4
 10
359.2331737244104
 20
93.18165896209132
 10
359.2331737244109
 20
54.23749184590057
 10
376.5798462204203
 20
64.25259792478103
 10
376.5798462204203
 20
103.196765040972
 97
        0
 75
     0
 76
     1
 98
        0
  0
HATCH
  5
4A
330
1F
100
AcDbEntity
  8
0_Pen_No__146
  6
Continuous
 62
   250
420
  3289650
370
     0
100
AcDbHatch
 10
0.0
 20
0.0
 30
0.0
210
0.0
220
0.0
230
1.0
  2
SOLID
 70
     1
 71
     0
 91
        1
 92
        3
 72
     0
 73
     1
 93
        4
 10
448.5699712462367
 20
145.2929412213795
 10
448.5699712462371
 20
105.668572795993
 10
465.916643742246
 20
115.683678874873
 10
465.916643742246
 20
155.30804730026
 97
        0
 75
     0
 76
     1
 98
        0
  0
HATCH
  5
4B
330
1F
100
AcDbEntity
  8
0_Pen_No__146
  6
Continuous
 62
   250
420
  3289650
370
     0
100
AcDbHatch
 10
0.0
 20
0.0
 30
0.0
210
0.0
220
0.0
230
1.0
  2
SOLID
 70
     1
 71
     0
 91
        1
 92
        3
 72
     0
 73
     1
 93
        6
 10
224.9030005209519
 20
800.5562446732227
 10
249.2449663465072
 20
792.1301795797611
 10
377.7093673501394
 20
731.3211951861377
 10
377.7093673501394
 20
790.3464498563166
 10
360.3888592933732
 20
780.3464498235425
 10
224.9030005209519
 20
858.5692471990275
 97
        0
 75
     0
 76
     1
 98
        0
  0
HATCH
  5
4C
330
1F
100
AcDbEntity
  8
0_Pen_No__146
  6
Continuous
 62
   250
420
  3289650
370
     0
100
AcDbHatch
 10
0.0
 20
0.0
 30
0.0
210
0.0
220
0.0
230
1.0
  2
SOLID
 70
     1
 71
     0
 91
        1
 92
        3
 72
     0
 73
     1
 93
        5
 10
446.991399577206
 20
822.590393039833
 10
390.2389689261313
 20
789.8243617830857
 10
405.2060916544938
 20
781.9799396265904
 10
429.3377426786677
 20
772.9305704925252
 10
446.991399577206
 20
759.8592595210981
 97
        0
 75
     0
 76
     1
 98
        0
  0
HATCH
  5
4D
330
1F
100
AcDbEntity
  8
0_Pen_No__146
  6
Continuous
 62
   250
420
  3289650
370
     0
100
AcDbHatch
 10
0.0
 20
0.0
 30
0.0
210
0.0
220
0.0
230
1.0
  2
SOLID
 70
     1
 71
     0
 91
        1
 92
        3
 72
     0
 73
     1
 93
        4
 10
147.1821355620356
 20
812.3687536992984
 10
174.6735271563294
 20
809.7771691812658
 10
174.6735271563294
 20
879.813190346498
 10
147.0206113135516
 20
895.7786088219744
 97
        0
 75
     0
 76
     1
 98
        0
  0
HATCH
  5
4E
330
1F
100
AcDbEntity
  8
0_Pen_No__146
  6
Continuous
 62
   250
420
  3289650
370
     0
100
AcDbHatch
 10
0.0
 20
0.0
 30
0.0
210
0.0
220
0.0
230
1.0
  2
SOLID
 70
     1
 71
     0
 91
        1
 92
        3
 72
     0
 73
     1
 93
        6
 10
122.7137879075099
 20
796.2683242314147
 10
147.1821355620356
 20
812.3687536992984
 10
147.2243184825123
 20
869.4377824638119
 10
147.0206113135516
 20
895.7786088219744
 10
129.9038104257452
 20
905.6609984654015
 10
122.7137879075099
 20
901.5098370108786
 97
        0
 75
     0
 76
     1
 98
        0
  0
HATCH
  5
4F
330
1F
100
AcDbEntity
  8
0_Pen_No__146
  6
Continuous
 62
   250
420
  3289650
370
     0
100
AcDbHatch
 10
0.0
 20
0.0
 30
0.0
210
0.0
220
0.0
230
1.0
  2
SOLID
 70
     1
 71
     0
 91
        1
 92
        3
 72
     0
 73
     1
 93
       34
 10
-20.56029857653918
 20
280.5053169541218
 10
-17.32051019727932
 20
221.8519990784276
 10
-8.829635001400327
 20
165.7123923307607
 10
-2.12639950448823
 20
131.3583053146865
 10
17.98331280841925
 20
112.0865025332932
 10
26.36235572401624
 20
86.11145843281601
 10
38.59720775229203
 20
68.05049276774025
 10
51.22009007960715
 20
65.12253992221088
 10
44.74163117811614
 20
134.022100393209
 10
44.70206951919708
 20
141.8433384734784
 10
55.6795303436326
 20
148.1811802761895
 10
44.70206951919708
 20
264.1630681155652
 10
44.70206951919708
 20
287.267379677188
 10
45.75222050975958
 20
287.8736890276667
 10
45.56809431942676
 20
300.7801518878687
 10
53.37580167190703
 20
305.2879336462289
 10
52.99358772272189
 20
309.7533707474415
 10
67.65609335430366
 20
331.2696499558483
 10
72.48431581664939
 20
334.127166164203
 10
72.48431581664939
 20
358.7942360302754
 10
107.1253311145258
 20
378.7942353335188
 10
122.7137891630042
 20
369.7942344826248
 10
123.0413620277221
 20
352.5716732336859
 10
143.6333248495715
 20
353.281745334018
 10
200.4387260793105
 20
373.8737023336953
 10
243.7528505574899
 20
398.0160023685178
 10
247.7603738288309
 20
399.7612158999286
 10
247.7603738288309
 20
445.9005726425767
 10
229.9967697778283
 20
455.8415180033353
 10
189.7537420666179
 20
445.5725107154085
 10
129.9038106408664
 20
406.1909956211074
 10
84.17776989036818
 20
384.4054817116867
 10
54.85111095252115
 20
370.9990048956908
 10
12.95588473019249
 20
337.4828215889593
 97
        0
 75
     0
 76
     1
 98
        0
  0
HATCH
  5
50
330
1F
100
AcDbEntity
  8
0_Pen_No__146
  6
Continuous
 62
   250
420
  3289650
370
     0
100
AcDbHatch
 10
0.0
 20
0.0
 30
0.0
210
0.0
220
0.0
230
1.0
  2
SOLID
 70
     1
 71
     0
 91
        1
 92
        3
 72
     0
 73
     1
 93
       16
 10
55.47439887368766
 20
282.9690037863282
 10
55.68877011514761
 20
282.8452364918239
 10
55.68877011514761
 20
280.6891288922184
 10
56.95665431412289
 20
267.2049631328845
 10
51.6302726998581
 20
270.2801510051249
 10
51.6302726998581
 20
263.2801510051266
 10
63.75462829986522
 20
256.280151005122
 10
59.0557644251879
 20
306.2533736524848
 10
52.99358662518428
 20
309.7533736524878
 10
53.37580274886644
 20
305.2879332530214
 10
54.27217626650594
 20
295.7548472630864
 10
45.56809489986735
 20
300.7801510051231
 10
45.75221966405918
 20
287.8736869600198
 10
51.6302726998581
 20
284.4799914426605
 10
51.6302726998581
 20
290.2801510051294
 10
54.96815205663408
 20
288.3530254515518
 97
        0
 75
     0
 76
     1
 98
        0
  0
HATCH
  5
51
330
1F
100
AcDbEntity
  8
0_Pen_No__146
  6
Continuous
 62
   250
420
  3289650
370
     0
100
AcDbHatch
 10
0.0
 20
0.0
 30
0.0
210
0.0
220
0.0
230
1.0
  2
SOLID
 70
     1
 71
     0
 91
        1
 92
        3
 72
     0
 73
     1
 93
       25
 10
44.70206949986277
 20
264.1630656806737
 10
55.67953148781601
 20
148.1811801021231
 10
56.95665431412378
 20
134.7681515666422
 10
44.70206949986233
 20
141.8433394388803
 10
44.74163003569976
 20
134.0220999440685
 10
54.27217626650594
 20
32.66310733522551
 10
45.56809489986735
 20
37.6884110772622
 10
45.56809489986735
 20
24.88825151479415
 10
51.6302726998581
 20
21.38825151479942
 10
51.6302726998581
 20
27.18841107726891
 10
54.96815205663408
 20
25.26128552369092
 10
56.95665431412333
 20
4.113223205023192
 10
51.6302726998581
 20
7.188411077264006
 10
51.6302726998581
 20
0.1884110772656655
 10
63.75462829986478
 20
-6.811588922738671
 10
50.7642472998664
 20
131.343339438879
 10
63.75462829986478
 20
123.8433394388801
 10
50.7642472998664
 20
261.998267800498
 10
50.7642472998664
 20
278.9520349932024
 10
55.68877011514761
 20
276.1088604077453
 10
55.68877011514761
 20
280.6891288922184
 10
55.47439887368766
 20
282.9690037863282
 10
53.05844865986708
 20
284.3638532987209
 10
53.05844865986708
 20
282.4428246988044
 10
44.70206949986321
 20
287.2673824773661
 97
        0
 75
     0
 76
     1
 98
        0
  0
LINE
  5
52
330
1F
100
AcDbEntity
  8
0_Pen_No__1
  6
Continuous
100
AcDbLine
 10
471.3634019982939
 20
199.4341003480833
 30
0.0
 11
465.3711626926741
 21
195.974479356817
 31
0.0
  0
LINE
  5
54
330
1F
100
AcDbEntity
  8
0_Pen_No__1
  6
Continuous
100
AcDbLine
 10
465.371162692675
 20
160.9433136116261
 30
0.0
 11
474.547584939239
 21
166.2413234890297
 31
0.0
  0
LINE
  5
55
330
1F
100
AcDbEntity
  8
0_Pen_No__1
  6
Continuous
100
AcDbLine
 10
474.547584939239
 20
166.2413234890297
 30
0.0
 11
471.3634019982939
 21
199.4341003480833
 31
0.0
  0
LINE
  5
56
330
1F
100
AcDbEntity
  8
0_Pen_No__1
  6
Continuous
100
AcDbLine
 10
479.6765711855241
 20
203.4085266494854
 30
0.0
 11
473.3418377466768
 21
201.1796389580387
 31
0.0
  0
LINE
  5
57
330
1F
100
AcDbEntity
  8
0_Pen_No__1
  6
Continuous
100
AcDbLine
 10
358.4327381616122
 20
115.4736060487909
 30
0.0
 11
352.0485917836188
 21
111.7877174028035
 31
0.0
  0
LINE
  5
58
330
1F
100
AcDbEntity
  8
0_Pen_No__1
  6
Continuous
100
AcDbLine
 10
347.842673664226
 20
73.92795433205949
 30
0.0
 11
358.4327381616122
 21
80.0421309470796
 31
0.0
  0
LINE
  5
59
330
1F
100
AcDbEntity
  8
0_Pen_No__1
  6
Continuous
100
AcDbLine
 10
348.2379938352994
 20
74.15619254024233
 30
0.0
 11
352.0485917836183
 21
111.7877174028031
 31
0.0
  0
LINE
  5
5A
330
1F
100
AcDbEntity
  8
0_Pen_No__1
  6
Continuous
100
AcDbLine
 10
349.3708800459959
 20
110.3559652049411
 30
0.0
 11
342.9867336680029
 21
106.6700765589537
 31
0.0
  0
LINE
  5
5B
330
1F
100
AcDbEntity
  8
0_Pen_No__1
  6
Continuous
100
AcDbLine
 10
59.0557644251879
 20
306.2533736524848
 30
0.0
 11
52.99358662518472
 21
309.7533736524878
 31
0.0
  0
LINE
  5
5C
330
1F
100
AcDbEntity
  8
0_Pen_No__1
  6
Continuous
100
AcDbLine
 10
52.96049404957736
 20
309.7048124498678
 30
0.0
 11
67.65609348092904
 21
331.2696489279894
 31
0.0
  0
LINE
  5
5D
330
1F
100
AcDbEntity
  8
0_Pen_No__1
  6
Continuous
100
AcDbLine
 10
297.9898500114641
 20
1008.616478232777
 30
0.0
 11
334.053788938926
 21
987.7949532939764
 31
0.0
  0
LINE
  5
5E
330
1F
100
AcDbEntity
  8
0_Pen_No__1
  6
Continuous
100
AcDbLine
 10
334.053788938926
 20
987.7949532939764
 30
0.0
 11
335.4944164120977
 21
986.9632066309041
 31
0.0
  0
LINE
  5
5F
330
1F
100
AcDbEntity
  8
0_Pen_No__1
  6
Continuous
100
AcDbLine
 10
335.4944164120977
 20
986.9632066309041
 30
0.0
 11
350.6314168300121
 21
1000.149926217096
 31
0.0
  0
LINE
  5
60
330
1F
100
AcDbEntity
  8
0_Pen_No__1
  6
Continuous
100
AcDbLine
 10
350.6314168300121
 20
1000.149926217096
 30
0.0
 11
357.3346532256155
 21
1031.990299096213
 31
0.0
  0
LINE
  5
61
330
1F
100
AcDbEntity
  8
0_Pen_No__1
  6
Continuous
100
AcDbLine
 10
357.3346532256155
 20
1031.990299096213
 30
0.0
 11
366.5516032695705
 21
1078.912953865439
 31
0.0
  0
LINE
  5
62
330
1F
100
AcDbEntity
  8
0_Pen_No__1
  6
Continuous
100
AcDbLine
 10
366.5516032695705
 20
1078.912953865439
 30
0.0
 11
367.0901098755682
 21
1101.530231317343
 31
0.0
  0
LINE
  5
63
330
1F
100
AcDbEntity
  8
0_Pen_No__1
  6
Continuous
100
AcDbLine
 10
367.0901098755682
 20
1101.530231317343
 30
0.0
 11
354.9686638668449
 21
1117.203634423637
 31
0.0
  0
LINE
  5
64
330
1F
100
AcDbEntity
  8
0_Pen_No__1
  6
Continuous
100
AcDbLine
 10
354.9686638668449
 20
1117.203634423637
 30
0.0
 11
342.8975152561352
 21
1127.854647903675
 31
0.0
  0
LINE
  5
65
330
1F
100
AcDbEntity
  8
0_Pen_No__1
  6
Continuous
100
AcDbLine
 10
342.8975152561352
 20
1127.854647903675
 30
0.0
 11
313.784745077366
 21
1119.925796514384
 31
0.0
  0
LINE
  5
66
330
1F
100
AcDbEntity
  8
0_Pen_No__1
  6
Continuous
100
AcDbLine
 10
313.784745077366
 20
1119.925796514384
 30
0.0
 11
297.9898500114641
 21
1113.111033036707
 31
0.0
  0
LINE
  5
67
330
1F
100
AcDbEntity
  8
0_Pen_No__1
  6
Continuous
100
AcDbLine
 10
297.9898500114641
 20
1113.111033036707
 30
0.0
 11
297.9898500114641
 21
1008.616478232777
 31
0.0
  0
LINE
  5
68
330
1F
100
AcDbEntity
  8
0_Pen_No__1
  6
Continuous
100
AcDbLine
 10
446.991399577206
 20
822.590393039833
 30
0.0
 11
446.991399577206
 21
759.8592595210981
 31
0.0
  0
LINE
  5
69
330
1F
100
AcDbEntity
  8
0_Pen_No__1
  6
Continuous
100
AcDbLine
 10
446.991399577206
 20
759.8592595210981
 30
0.0
 11
429.3377426786677
 21
772.9305704925252
 31
0.0
  0
LINE
  5
6A
330
1F
100
AcDbEntity
  8
0_Pen_No__1
  6
Continuous
100
AcDbLine
 10
429.3377426786677
 20
772.9305704925252
 30
0.0
 11
405.2060916544938
 21
781.9799396265904
 31
0.0
  0
LINE
  5
6B
330
1F
100
AcDbEntity
  8
0_Pen_No__1
  6
Continuous
100
AcDbLine
 10
405.2060916544938
 20
781.9799396265904
 30
0.0
 11
390.2389689261313
 21
789.8243617830857
 31
0.0
  0
LINE
  5
6C
330
1F
100
AcDbEntity
  8
0_Pen_No__1
  6
Continuous
100
AcDbLine
 10
390.2389689261313
 20
789.8243617830857
 30
0.0
 11
446.991399577206
 21
822.590393039833
 31
0.0
  0
LINE
  5
6D
330
1F
100
AcDbEntity
  8
0_Pen_No__1
  6
Continuous
100
AcDbLine
 10
122.7137879075099
 20
796.2683242314147
 30
0.0
 11
147.1821355620356
 21
812.3687536992984
 31
0.0
  0
LINE
  5
6E
330
1F
100
AcDbEntity
  8
0_Pen_No__1
  6
Continuous
100
AcDbLine
 10
147.2243184825123
 20
790.5858243951584
 30
0.0
 11
147.2243184825123
 21
869.4377824638119
 31
0.0
  0
LINE
  5
6F
330
1F
100
AcDbEntity
  8
0_Pen_No__1
  6
Continuous
100
AcDbLine
 10
147.2243184825123
 20
869.4377824638119
 30
0.0
 11
147.0206113135516
 21
895.7786088219744
 31
0.0
  0
LINE
  5
70
330
1F
100
AcDbEntity
  8
0_Pen_No__1
  6
Continuous
100
AcDbLine
 10
147.0206113135516
 20
895.7786088219744
 30
0.0
 11
129.9038104257452
 21
905.6609984654015
 31
0.0
  0
LINE
  5
71
330
1F
100
AcDbEntity
  8
0_Pen_No__1
  6
Continuous
100
AcDbLine
 10
129.9038104257452
 20
905.6609984654015
 30
0.0
 11
122.7137879075099
 21
901.5098370108786
 31
0.0
  0
LINE
  5
72
330
1F
100
AcDbEntity
  8
0_Pen_No__1
  6
Continuous
100
AcDbLine
 10
122.7137879075099
 20
901.5098370108786
 30
0.0
 11
122.7137879075099
 21
786.2393595207706
 31
0.0
  0
LINE
  5
73
330
1F
100
AcDbEntity
  8
0_Pen_No__1
  6
Continuous
100
AcDbLine
 10
147.1821355620356
 20
812.3687536992984
 30
0.0
 11
174.6735271563294
 21
809.7771691812658
 31
0.0
  0
LINE
  5
74
330
1F
100
AcDbEntity
  8
0_Pen_No__1
  6
Continuous
100
AcDbLine
 10
174.6735271563294
 20
778.7327570132828
 30
0.0
 11
174.6735271563294
 21
879.813190346498
 31
0.0
  0
LINE
  5
75
330
1F
100
AcDbEntity
  8
0_Pen_No__1
  6
Continuous
100
AcDbLine
 10
174.6735271563294
 20
879.813190346498
 30
0.0
 11
147.0206113135516
 21
895.7786088219744
 31
0.0
  0
LINE
  5
76
330
1F
100
AcDbEntity
  8
0_Pen_No__1
  6
Continuous
100
AcDbLine
 10
122.7137879075099
 20
987.1100777415847
 30
0.0
 11
247.7603766468416
 21
1078.745276783646
 31
0.0
  0
LINE
  5
77
330
1F
100
AcDbEntity
  8
0_Pen_No__1
  6
Continuous
100
AcDbLine
 10
247.7603766468416
 20
1078.745276783646
 30
0.0
 11
247.7603766468416
 21
1103.705519061813
 31
0.0
  0
LINE
  5
78
330
1F
100
AcDbEntity
  8
0_Pen_No__1
  6
Continuous
100
AcDbLine
 10
247.7603766468416
 20
1103.705519061813
 30
0.0
 11
229.9967723677371
 21
1100.458701823825
 31
0.0
  0
LINE
  5
79
330
1F
100
AcDbEntity
  8
0_Pen_No__1
  6
Continuous
100
AcDbLine
 10
229.9967723677371
 20
1100.458701823825
 30
0.0
 11
189.7537433355246
 21
1090.189695162133
 31
0.0
  0
LINE
  5
7A
330
1F
100
AcDbEntity
  8
0_Pen_No__1
  6
Continuous
100
AcDbLine
 10
189.7537433355246
 20
1090.189695162133
 30
0.0
 11
129.9038104257452
 21
1050.808181337962
 31
0.0
  0
LINE
  5
7B
330
1F
100
AcDbEntity
  8
0_Pen_No__1
  6
Continuous
100
AcDbLine
 10
129.9038104257452
 20
1050.808181337962
 30
0.0
 11
84.17777010476735
 21
1029.02266305225
 31
0.0
  0
LINE
  5
7C
330
1F
100
AcDbEntity
  8
0_Pen_No__1
  6
Continuous
100
AcDbLine
 10
84.17777010476735
 20
1029.02266305225
 30
0.0
 11
54.85111087400174
 21
1015.616190261043
 31
0.0
  0
LINE
  5
7D
330
1F
100
AcDbEntity
  8
0_Pen_No__1
  6
Continuous
100
AcDbLine
 10
54.85111087400174
 20
1015.616190261043
 30
0.0
 11
12.95588340147935
 21
982.1000082830243
 31
0.0
  0
LINE
  5
7E
330
1F
100
AcDbEntity
  8
0_Pen_No__1
  6
Continuous
100
AcDbLine
 10
12.95588340147935
 20
982.1000082830243
 30
0.0
 11
-17.32051032845749
 21
936.4691809743148
 31
0.0
  0
LINE
  5
7F
330
1F
100
AcDbEntity
  8
0_Pen_No__1
  6
Continuous
100
AcDbLine
 10
-17.3205080567671
 20
936.4691804588615
 30
0.0
 11
-8.829634884232718
 21
880.329575645681
 31
0.0
  0
LINE
  5
80
330
1F
100
AcDbEntity
  8
0_Pen_No__1
  6
Continuous
100
AcDbLine
 10
-8.829634884232718
 20
880.329575645681
 30
0.0
 11
-2.126398488628833
 21
845.9754891182122
 31
0.0
  0
LINE
  5
81
330
1F
100
AcDbEntity
  8
0_Pen_No__1
  6
Continuous
100
AcDbLine
 10
-2.126398488628833
 20
845.9754891182122
 30
0.0
 11
17.98331069818193
 21
826.7036844808516
 31
0.0
  0
LINE
  5
82
330
1F
100
AcDbEntity
  8
0_Pen_No__1
  6
Continuous
100
AcDbLine
 10
17.98331069818193
 20
826.7036844808516
 30
0.0
 11
26.36235619268623
 21
800.7286434478876
 31
0.0
  0
LINE
  5
83
330
1F
100
AcDbEntity
  8
0_Pen_No__1
  6
Continuous
100
AcDbLine
 10
26.36235619268623
 20
800.7286434478876
 30
0.0
 11
43.95835173114592
 21
774.7536024149234
 31
0.0
  0
LINE
  5
84
330
1F
100
AcDbEntity
  8
0_Pen_No__1
  6
Continuous
100
AcDbLine
 10
43.95835173114592
 20
774.7536024149234
 30
0.0
 11
72.48431454288739
 21
764.9947204003803
 31
0.0
  0
LINE
  5
85
330
1F
100
AcDbEntity
  8
0_Pen_No__1
  6
Continuous
100
AcDbLine
 10
72.48431454288739
 20
764.9947204003803
 30
0.0
 11
72.48431454288739
 21
1003.411418415112
 31
0.0
  0
LINE
  5
86
330
1F
100
AcDbEntity
  8
0_Pen_No__1
  6
Continuous
100
AcDbLine
 10
72.48431454288739
 20
1003.411418415112
 30
0.0
 11
107.1253306564207
 21
1023.41141848066
 31
0.0
  0
LINE
  5
87
330
1F
100
AcDbEntity
  8
0_Pen_No__1
  6
Continuous
100
AcDbLine
 10
107.1253306564207
 20
1023.41141848066
 30
0.0
 11
122.7137879075099
 21
1014.411418451162
 31
0.0
  0
LINE
  5
88
330
1F
100
AcDbEntity
  8
0_Pen_No__1
  6
Continuous
100
AcDbLine
 10
122.7137879075099
 20
1014.411418451162
 30
0.0
 11
122.7137879075099
 21
987.1100777415847
 31
0.0
  0
LINE
  5
89
330
1F
100
AcDbEntity
  8
0_Pen_No__1
  6
Continuous
100
AcDbLine
 10
224.9030005209519
 20
800.5562446732227
 30
0.0
 11
249.2449663465072
 21
792.1301795797611
 31
0.0
  0
LINE
  5
8A
330
1F
100
AcDbEntity
  8
0_Pen_No__1
  6
Continuous
100
AcDbLine
 10
249.2449663465072
 20
792.1301795797611
 30
0.0
 11
377.7093673501394
 21
731.3211951861377
 31
0.0
  0
LINE
  5
8B
330
1F
100
AcDbEntity
  8
0_Pen_No__1
  6
Continuous
100
AcDbLine
 10
377.7093673501394
 20
731.3211951861377
 30
0.0
 11
377.7093673501394
 21
790.3464498563166
 31
0.0
  0
LINE
  5
8C
330
1F
100
AcDbEntity
  8
0_Pen_No__1
  6
Continuous
100
AcDbLine
 10
377.7093673501394
 20
790.3464498563166
 30
0.0
 11
360.3888592933732
 21
780.3464498235425
 31
0.0
  0
LINE
  5
8D
330
1F
100
AcDbEntity
  8
0_Pen_No__1
  6
Continuous
100
AcDbLine
 10
360.3888592933732
 20
780.3464498235425
 30
0.0
 11
224.9030005209519
 21
858.5692471990275
 31
0.0
  0
LINE
  5
8E
330
1F
100
AcDbEntity
  8
0_Pen_No__1
  6
Continuous
100
AcDbLine
 10
224.9030005209519
 20
858.5692471990275
 30
0.0
 11
224.9030005209519
 21
800.5562446732227
 31
0.0
  0
LINE
  5
8F
330
1F
100
AcDbEntity
  8
0_Pen_No__1
  6
Continuous
100
AcDbLine
 10
38.59720558436486
 20
68.05049147777845
 30
0.0
 11
51.22009262860017
 21
65.12253992221088
 31
0.0
  0
LINE
  5
90
330
1F
100
AcDbEntity
  8
0_Pen_No__1
  6
Continuous
100
AcDbLine
 10
247.760376646842
 20
445.2544292648053
 30
0.0
 11
247.760376646842
 21
445.9005720886333
 31
0.0
  0
LINE
  5
91
330
1F
100
AcDbEntity
  8
0_Pen_No__1
  6
Continuous
100
AcDbLine
 10
247.760376646842
 20
445.9005720886333
 30
0.0
 11
229.9967723677371
 21
455.8415180033353
 31
0.0
  0
LINE
  5
92
330
1F
100
AcDbEntity
  8
0_Pen_No__1
  6
Continuous
100
AcDbLine
 10
229.9967723677371
 20
455.8415180033353
 30
0.0
 11
189.7537433355251
 21
445.5725113416436
 31
0.0
  0
LINE
  5
93
330
1F
100
AcDbEntity
  8
0_Pen_No__1
  6
Continuous
100
AcDbLine
 10
189.7537433355251
 20
445.5725113416436
 30
0.0
 11
129.9038104257456
 21
406.1909975174722
 31
0.0
  0
LINE
  5
94
330
1F
100
AcDbEntity
  8
0_Pen_No__1
  6
Continuous
100
AcDbLine
 10
129.9038104257456
 20
406.1909975174722
 30
0.0
 11
84.17777010476779
 21
384.4054792317602
 31
0.0
  0
LINE
  5
95
330
1F
100
AcDbEntity
  8
0_Pen_No__1
  6
Continuous
100
AcDbLine
 10
84.17777010476779
 20
384.4054792317602
 30
0.0
 11
54.85111087400174
 21
370.9990064405533
 31
0.0
  0
LINE
  5
96
330
1F
100
AcDbEntity
  8
0_Pen_No__1
  6
Continuous
100
AcDbLine
 10
54.85111087400174
 20
370.9990064405533
 30
0.0
 11
12.9558834014798
 21
337.4828244625352
 31
0.0
  0
LINE
  5
97
330
1F
100
AcDbEntity
  8
0_Pen_No__1
  6
Continuous
100
AcDbLine
 10
12.9558834014798
 20
337.4828244625352
 30
0.0
 11
-20.56029857653918
 21
280.5053150999042
 31
0.0
  0
LINE
  5
98
330
1F
100
AcDbEntity
  8
0_Pen_No__1
  6
Continuous
100
AcDbLine
 10
-20.56029857653918
 20
280.5053150999042
 30
0.0
 11
-17.3205080567671
 21
221.8519966383723
 31
0.0
  0
LINE
  5
99
330
1F
100
AcDbEntity
  8
0_Pen_No__1
  6
Continuous
100
AcDbLine
 10
-17.3205080567671
 20
221.8519966383723
 30
0.0
 11
-8.829634884232718
 21
165.7123918251915
 31
0.0
  0
LINE
  5
9A
330
1F
100
AcDbEntity
  8
0_Pen_No__1
  6
Continuous
100
AcDbLine
 10
-8.829634884232718
 20
165.7123918251915
 30
0.0
 11
-2.126398488628389
 21
131.3583052977232
 31
0.0
  0
LINE
  5
9B
330
1F
100
AcDbEntity
  8
0_Pen_No__1
  6
Continuous
100
AcDbLine
 10
-2.126398488628389
 20
131.3583052977232
 30
0.0
 11
17.98331069818193
 21
112.0865006603627
 31
0.0
  0
LINE
  5
9C
330
1F
100
AcDbEntity
  8
0_Pen_No__1
  6
Continuous
100
AcDbLine
 10
17.98331069818193
 20
112.0865006603627
 30
0.0
 11
26.36235619268668
 21
86.11145962739822
 31
0.0
  0
LINE
  5
9D
330
1F
100
AcDbEntity
  8
0_Pen_No__1
  6
Continuous
100
AcDbLine
 10
26.36235619268668
 20
86.11145962739822
 30
0.0
 11
38.59720558436486
 21
68.05049147777845
 31
0.0
  0
LINE
  5
9E
330
1F
100
AcDbEntity
  8
0_Pen_No__1
  6
Continuous
100
AcDbLine
 10
67.65609348092904
 20
331.2696489279894
 30
0.0
 11
72.48431454288784
 21
334.1271675156796
 31
0.0
  0
LINE
  5
9F
330
1F
100
AcDbEntity
  8
0_Pen_No__1
  6
Continuous
100
AcDbLine
 10
72.48431454288784
 20
334.1271675156796
 30
0.0
 11
72.48431454288784
 21
358.7942345946225
 31
0.0
  0
LINE
  5
A0
330
1F
100
AcDbEntity
  8
0_Pen_No__1
  6
Continuous
100
AcDbLine
 10
72.48431454288784
 20
358.7942345946225
 30
0.0
 11
107.1253306564212
 21
378.7942346601707
 31
0.0
  0
LINE
  5
A1
330
1F
100
AcDbEntity
  8
0_Pen_No__1
  6
Continuous
100
AcDbLine
 10
107.1253306564212
 20
378.7942346601707
 30
0.0
 11
122.7137879075099
 21
369.7942346306729
 31
0.0
  0
LINE
  5
A2
330
1F
100
AcDbEntity
  8
0_Pen_No__1
  6
Continuous
100
AcDbLine
 10
122.7137879075099
 20
369.7942346306729
 30
0.0
 11
123.0413635771245
 21
352.5716758880648
 31
0.0
  0
LINE
  5
A3
330
1F
100
AcDbEntity
  8
0_Pen_No__1
  6
Continuous
100
AcDbLine
 10
123.0413635771245
 20
352.5716758880648
 30
0.0
 11
143.6333229718641
 21
353.281743453401
 31
0.0
  0
LINE
  5
A4
330
1F
100
AcDbEntity
  8
0_Pen_No__1
  6
Continuous
100
AcDbLine
 10
143.6333229718641
 20
353.281743453401
 30
0.0
 11
200.4387281987298
 21
373.8737028481394
 31
0.0
  0
LINE
  5
A5
330
1F
100
AcDbEntity
  8
0_Pen_No__1
  6
Continuous
100
AcDbLine
 10
200.4387281987298
 20
373.8737028481394
 30
0.0
 11
243.7528496842177
 21
398.0160000695594
 31
0.0
  0
LINE
  5
A6
330
1F
100
AcDbEntity
  8
0_Pen_No__1
  6
Continuous
100
AcDbLine
 10
243.7528496842177
 20
398.0160000695594
 30
0.0
 11
247.760376646842
 21
399.7612134242505
 31
0.0
  0
LINE
  5
A7
330
1F
100
AcDbEntity
  8
0_Pen_No__1
  6
Continuous
100
AcDbLine
 10
247.760376646842
 20
399.7612134242505
 30
0.0
 11
247.760376646842
 21
445.2544292648053
 31
0.0
  0
LINE
  5
A8
330
1F
100
AcDbEntity
  8
0_Pen_No__1
  6
Continuous
100
AcDbLine
 10
297.9898500114641
 20
418.4133616867971
 30
0.0
 11
305.5287278684345
 21
419.3180270296337
 31
0.0
  0
LINE
  5
A9
330
1F
100
AcDbEntity
  8
0_Pen_No__1
  6
Continuous
100
AcDbLine
 10
305.5287278684345
 20
419.3180270296337
 30
0.0
 11
307.9061589529121
 21
420.3986775225777
 31
0.0
  0
LINE
  5
AA
330
1F
100
AcDbEntity
  8
0_Pen_No__1
  6
Continuous
100
AcDbLine
 10
307.9061589529121
 20
420.3986775225777
 30
0.0
 11
297.9898500114641
 21
424.1096923684094
 31
0.0
  0
LINE
  5
AB
330
1F
100
AcDbEntity
  8
0_Pen_No__1
  6
Continuous
100
AcDbLine
 10
297.9898500114641
 20
424.1096923684094
 30
0.0
 11
297.9898500114641
 21
418.4133616867971
 31
0.0
  0
LINE
  5
AC
330
1F
100
AcDbEntity
  8
0_Pen_No__1
  6
Continuous
100
AcDbLine
 10
360.3888592933727
 20
97.97320905547305
 30
0.0
 11
464.3119076339727
 21
157.9732092521176
 31
0.0
  0
LINE
  5
AD
330
1F
100
AcDbEntity
  8
0_Pen_No__1
  6
Continuous
100
AcDbLine
 10
464.3119076339727
 20
157.9732092521176
 30
0.0
 11
464.3119076339727
 21
197.9732092521176
 31
0.0
  0
LINE
  5
AE
330
1F
100
AcDbEntity
  8
0_Pen_No__1
  6
Continuous
100
AcDbLine
 10
464.3119076339727
 20
197.9732092521176
 30
0.0
 11
360.3888592933727
 21
117.9732090554731
 31
0.0
  0
LINE
  5
AF
330
1F
100
AcDbEntity
  8
0_Pen_No__1
  6
Continuous
100
AcDbLine
 10
360.3888592933727
 20
117.9732090554731
 30
0.0
 11
360.3888592933727
 21
97.97320905547305
 31
0.0
  0
LINE
  5
B0
330
1F
100
AcDbEntity
  8
0_Pen_No__1
  6
Continuous
100
AcDbLine
 10
358.4327381616122
 20
80.0421309470796
 30
0.0
 11
358.4327381616122
 21
115.4736060487909
 31
0.0
  0
LINE
  5
B1
330
1F
100
AcDbEntity
  8
0_Pen_No__1
  6
Continuous
100
AcDbLine
 10
377.7093673501398
 20
64.55882771752377
 30
0.0
 11
446.991399577206
 21
104.5588278486198
 31
0.0
  0
LINE
  5
B2
330
1F
100
AcDbEntity
  8
0_Pen_No__1
  6
Continuous
100
AcDbLine
 10
446.991399577206
 20
104.5588278486198
 30
0.0
 11
446.991399577206
 21
144.5588278486199
 31
0.0
  0
LINE
  5
B3
330
1F
100
AcDbEntity
  8
0_Pen_No__1
  6
Continuous
100
AcDbLine
 10
446.991399577206
 20
144.5588278486199
 30
0.0
 11
377.7093673501398
 21
104.5588277175238
 31
0.0
  0
LINE
  5
B4
330
1F
100
AcDbEntity
  8
0_Pen_No__1
  6
Continuous
100
AcDbLine
 10
377.7093673501398
 20
104.5588277175238
 30
0.0
 11
377.7093673501398
 21
64.55882771752377
 31
0.0
  0
LINE
  5
B5
330
1F
100
AcDbEntity
  8
0_Pen_No__1
  6
Continuous
100
AcDbLine
 10
465.3711626926741
 20
195.974479356817
 30
0.0
 11
465.371162692675
 21
160.9433136116261
 31
0.0
  0
LINE
  5
B6
330
1F
100
AcDbEntity
  8
0_Pen_No__1
  6
Continuous
100
AcDbLine
 10
359.2331737244104
 20
93.18165896209132
 30
0.0
 11
359.2331737244109
 21
54.23749184590057
 31
0.0
  0
LINE
  5
B7
330
1F
100
AcDbEntity
  8
0_Pen_No__1
  6
Continuous
100
AcDbLine
 10
359.2331737244109
 20
54.23749184590057
 30
0.0
 11
376.5798462204203
 21
64.25259792478103
 31
0.0
  0
LINE
  5
B8
330
1F
100
AcDbEntity
  8
0_Pen_No__1
  6
Continuous
100
AcDbLine
 10
376.5798462204203
 20
64.25259792478103
 30
0.0
 11
376.5798462204203
 21
103.196765040972
 31
0.0
  0
LINE
  5
B9
330
1F
100
AcDbEntity
  8
0_Pen_No__1
  6
Continuous
100
AcDbLine
 10
376.5798462204203
 20
103.196765040972
 30
0.0
 11
359.2331737244104
 21
93.18165896209132
 31
0.0
  0
LINE
  5
BA
330
1F
100
AcDbEntity
  8
0_Pen_No__1
  6
Continuous
100
AcDbLine
 10
448.5699712462367
 20
145.2929412213795
 30
0.0
 11
448.5699712462371
 21
105.668572795993
 31
0.0
  0
LINE
  5
BB
330
1F
100
AcDbEntity
  8
0_Pen_No__1
  6
Continuous
100
AcDbLine
 10
448.5699712462371
 20
105.668572795993
 30
0.0
 11
465.916643742246
 21
115.683678874873
 31
0.0
  0
LINE
  5
BC
330
1F
100
AcDbEntity
  8
0_Pen_No__1
  6
Continuous
100
AcDbLine
 10
465.916643742246
 20
115.683678874873
 30
0.0
 11
465.916643742246
 21
155.30804730026
 31
0.0
  0
LINE
  5
BD
330
1F
100
AcDbEntity
  8
0_Pen_No__1
  6
Continuous
100
AcDbLine
 10
465.916643742246
 20
155.30804730026
 30
0.0
 11
448.5699712462367
 21
145.2929412213795
 31
0.0
  0
LINE
  5
BE
330
1F
100
AcDbEntity
  8
0_Pen_No__1
  6
Continuous
100
AcDbLine
 10
50.7642472998664
 20
131.343339438879
 30
0.0
 11
63.75462829986522
 21
123.8433394388801
 31
0.0
  0
LINE
  5
BF
330
1F
100
AcDbEntity
  8
0_Pen_No__1
  6
Continuous
100
AcDbLine
 10
63.75462829986478
 20
-6.811588922738671
 30
0.0
 11
109.7225144467767
 21
19.7279826342345
 31
0.0
  0
LINE
  5
C0
330
1F
100
AcDbEntity
  8
0_Pen_No__1
  6
Continuous
100
AcDbLine
 10
63.75462829986522
 20
123.8433394388801
 30
0.0
 11
50.7642472998664
 21
261.9982678004984
 31
0.0
  0
LINE
  5
C1
330
1F
100
AcDbEntity
  8
0_Pen_No__1
  6
Continuous
100
AcDbLine
 10
50.7642472998664
 20
261.9982678004984
 30
0.0
 11
50.7642472998664
 21
278.9520349932024
 31
0.0
  0
LINE
  5
C2
330
1F
100
AcDbEntity
  8
0_Pen_No__1
  6
Continuous
100
AcDbLine
 10
50.7642472998664
 20
278.9520349932024
 30
0.0
 11
55.68877011514761
 21
276.1088604077453
 31
0.0
  0
LINE
  5
C3
330
1F
100
AcDbEntity
  8
0_Pen_No__1
  6
Continuous
100
AcDbLine
 10
55.68877011514761
 20
276.1088604077453
 30
0.0
 11
55.68877011514761
 21
282.8452364918239
 31
0.0
  0
LINE
  5
C4
330
1F
100
AcDbEntity
  8
0_Pen_No__1
  6
Continuous
100
AcDbLine
 10
55.68877011514761
 20
282.8452364918239
 30
0.0
 11
53.05844865986708
 21
284.3638532987214
 31
0.0
  0
LINE
  5
C5
330
1F
100
AcDbEntity
  8
0_Pen_No__1
  6
Continuous
100
AcDbLine
 10
53.05844865986708
 20
284.3638532987214
 30
0.0
 11
53.05844865986708
 21
282.4428246988044
 31
0.0
  0
LINE
  5
C6
330
1F
100
AcDbEntity
  8
0_Pen_No__1
  6
Continuous
100
AcDbLine
 10
53.05844865986708
 20
282.4428246988044
 30
0.0
 11
44.70206949986321
 21
287.2673824773661
 31
0.0
  0
LINE
  5
C7
330
1F
100
AcDbEntity
  8
0_Pen_No__1
  6
Continuous
100
AcDbLine
 10
44.70206949986321
 20
287.2673824773661
 30
0.0
 11
44.70206949986321
 21
263.4723704703079
 31
0.0
  0
LINE
  5
C8
330
1F
100
AcDbEntity
  8
0_Pen_No__1
  6
Continuous
100
AcDbLine
 10
44.70206949986321
 20
263.4723704703079
 30
0.0
 11
56.95665431412333
 21
134.7681515666422
 31
0.0
  0
LINE
  5
C9
330
1F
100
AcDbEntity
  8
0_Pen_No__1
  6
Continuous
100
AcDbLine
 10
56.95665431412333
 20
134.7681515666422
 30
0.0
 11
44.70206949986277
 21
141.8433394388799
 31
0.0
  0
LINE
  5
CA
330
1F
100
AcDbEntity
  8
0_Pen_No__1
  6
Continuous
100
AcDbLine
 10
44.70206949986277
 20
141.8433394388799
 30
0.0
 11
44.74163003569976
 21
134.0220999440645
 31
0.0
  0
LINE
  5
CB
330
1F
100
AcDbEntity
  8
0_Pen_No__1
  6
Continuous
100
AcDbLine
 10
44.74163003569976
 20
134.0220999440645
 30
0.0
 11
54.27217626650594
 21
32.66310733522551
 31
0.0
  0
LINE
  5
CC
330
1F
100
AcDbEntity
  8
0_Pen_No__1
  6
Continuous
100
AcDbLine
 10
54.27217626650594
 20
32.66310733522551
 30
0.0
 11
45.56809489986735
 21
37.6884110772622
 31
0.0
  0
LINE
  5
CD
330
1F
100
AcDbEntity
  8
0_Pen_No__1
  6
Continuous
100
AcDbLine
 10
45.56809489986735
 20
37.6884110772622
 30
0.0
 11
45.56809489986735
 21
24.8882515147946
 31
0.0
  0
LINE
  5
CE
330
1F
100
AcDbEntity
  8
0_Pen_No__1
  6
Continuous
100
AcDbLine
 10
45.56809489986735
 20
24.8882515147946
 30
0.0
 11
51.6302726998581
 21
21.38825151479942
 31
0.0
  0
LINE
  5
CF
330
1F
100
AcDbEntity
  8
0_Pen_No__1
  6
Continuous
100
AcDbLine
 10
51.6302726998581
 20
21.38825151479942
 30
0.0
 11
51.6302726998581
 21
27.18841107726891
 31
0.0
  0
LINE
  5
D0
330
1F
100
AcDbEntity
  8
0_Pen_No__1
  6
Continuous
100
AcDbLine
 10
51.6302726998581
 20
27.18841107726891
 30
0.0
 11
54.96815205663408
 21
25.26128552369092
 31
0.0
  0
LINE
  5
D1
330
1F
100
AcDbEntity
  8
0_Pen_No__1
  6
Continuous
100
AcDbLine
 10
54.96815205663408
 20
25.26128552369092
 30
0.0
 11
56.95665431412333
 21
4.113223205023636
 31
0.0
  0
LINE
  5
D2
330
1F
100
AcDbEntity
  8
0_Pen_No__1
  6
Continuous
100
AcDbLine
 10
56.95665431412333
 20
4.113223205023636
 30
0.0
 11
51.6302726998581
 21
7.188411077264006
 31
0.0
  0
LINE
  5
D3
330
1F
100
AcDbEntity
  8
0_Pen_No__1
  6
Continuous
100
AcDbLine
 10
51.6302726998581
 20
7.188411077264006
 30
0.0
 11
51.6302726998581
 21
0.1884110772656655
 31
0.0
  0
LINE
  5
D4
330
1F
100
AcDbEntity
  8
0_Pen_No__1
  6
Continuous
100
AcDbLine
 10
350.918772175384
 20
58.1519680208247
 30
0.0
 11
337.9283911753847
 21
50.65196802082597
 31
0.0
  0
LINE
  5
D5
330
1F
100
AcDbEntity
  8
0_Pen_No__1
  6
Continuous
100
AcDbLine
 10
344.7263651611266
 20
61.57678014858806
 30
0.0
 11
356.9809499753877
 21
68.65196802082576
 31
0.0
  0
LINE
  5
D6
330
1F
100
AcDbEntity
  8
0_Pen_No__1
  6
Continuous
100
AcDbLine
 10
356.9809499753877
 20
68.65196802082576
 30
0.0
 11
356.9413894395502
 21
60.83072852600993
 31
0.0
  0
LINE
  5
D7
330
1F
100
AcDbEntity
  8
0_Pen_No__1
  6
Continuous
100
AcDbLine
 10
356.9413894395502
 20
60.83072852600993
 30
0.0
 11
347.4108432087445
 21
-40.52826408282903
 31
0.0
  0
LINE
  5
D8
330
1F
100
AcDbEntity
  8
0_Pen_No__1
  6
Continuous
100
AcDbLine
 10
347.4108432087445
 20
-40.52826408282903
 30
0.0
 11
356.1149245753831
 21
-35.50296034079234
 31
0.0
  0
LINE
  5
D9
330
1F
100
AcDbEntity
  8
0_Pen_No__1
  6
Continuous
100
AcDbLine
 10
356.1149245753831
 20
-35.50296034079234
 30
0.0
 11
356.1149245753831
 21
-48.30311990326017
 31
0.0
  0
LINE
  5
DA
330
1F
100
AcDbEntity
  8
0_Pen_No__1
  6
Continuous
100
AcDbLine
 10
356.1149245753831
 20
-48.30311990326017
 30
0.0
 11
350.0527467753919
 21
-51.8031199032549
 31
0.0
  0
LINE
  5
DB
330
1F
100
AcDbEntity
  8
0_Pen_No__1
  6
Continuous
100
AcDbLine
 10
350.0527467753919
 20
-51.8031199032549
 30
0.0
 11
350.0527467753919
 21
-46.00296034078519
 31
0.0
  0
LINE
  5
DC
330
1F
100
AcDbEntity
  8
0_Pen_No__1
  6
Continuous
100
AcDbLine
 10
350.0527467753919
 20
-46.00296034078519
 30
0.0
 11
346.7148674186163
 21
-47.93008589436318
 31
0.0
  0
LINE
  5
DD
330
1F
100
AcDbEntity
  8
0_Pen_No__1
  6
Continuous
100
AcDbLine
 10
346.7148674186163
 20
-47.93008589436318
 30
0.0
 11
344.7263651611266
 21
-69.07814821303046
 31
0.0
  0
LINE
  5
DE
330
1F
100
AcDbEntity
  8
0_Pen_No__1
  6
Continuous
100
AcDbLine
 10
344.7263651611266
 20
-69.07814821303046
 30
0.0
 11
350.0527467753919
 21
-66.00296034079031
 31
0.0
  0
LINE
  5
DF
330
1F
100
AcDbEntity
  8
0_Pen_No__1
  6
Continuous
100
AcDbLine
 10
350.0527467753919
 20
-66.00296034079031
 30
0.0
 11
350.0527467753919
 21
-73.00296034078887
 31
0.0
  0
LINE
  5
E0
330
1F
100
AcDbEntity
  8
0_Pen_No__1
  6
Continuous
100
AcDbLine
 10
350.0527467753919
 20
-73.00296034078887
 30
0.0
 11
337.9283911753851
 21
-80.00296034079254
 31
0.0
  0
LINE
  5
E1
330
1F
100
AcDbEntity
  8
0_Pen_No__1
  6
Continuous
100
AcDbLine
 10
337.9283911753851
 20
-80.00296034079254
 30
0.0
 11
350.918772175384
 21
58.1519680208247
 31
0.0
  0
LINE
  5
E2
330
1F
100
AcDbEntity
  8
0_Pen_No__1
  6
Continuous
100
AcDbLine
 10
356.9809499753877
 20
68.65196802082576
 30
0.0
 11
346.0034879872737
 21
74.98980868237796
 31
0.0
  0
LINE
  5
E3
330
1F
100
AcDbEntity
  8
0_Pen_No__1
  6
Continuous
100
AcDbLine
 10
356.1149245753831
 20
-35.50296034079234
 30
0.0
 11
348.3072167264031
 21
-30.99517809273108
 31
0.0
  0
LINE
  5
E4
330
1F
100
AcDbEntity
  8
0_Pen_No__1
  6
Continuous
100
AcDbLine
 10
350.0527467753919
 20
-51.8031199032549
 30
0.0
 11
346.5413196196571
 21
-49.77579648079231
 31
0.0
  0
LINE
  5
E5
330
1F
100
AcDbEntity
  8
0_Pen_No__1
  6
Continuous
100
AcDbLine
 10
350.0527467753919
 20
-66.00296034079031
 30
0.0
 11
345.2748925958863
 21
-63.24446493204935
 31
0.0
  0
LINE
  5
E6
330
1F
100
AcDbEntity
  8
0_Pen_No__1
  6
Continuous
100
AcDbLine
 10
158.5739328743462
 20
23.54738489217414
 30
0.0
 11
337.9283911753851
 21
-80.00296034079254
 31
0.0
  0
LINE
  5
E7
330
1F
100
AcDbEntity
  8
0_Pen_No__1
  6
Continuous
100
AcDbLine
 10
51.6302726998581
 20
0.1884110772656655
 30
0.0
 11
63.75462829986478
 21
-6.811588922738671
 31
0.0
  0
LINE
  5
E8
330
1F
100
AcDbEntity
  8
0_Pen_No__1
  6
Continuous
100
AcDbLine
 10
474.1280643458911
 20
125.3560556252667
 30
0.0
 11
487.1184453458895
 21
132.856055625265
 31
0.0
  0
LINE
  5
E9
330
1F
100
AcDbEntity
  8
0_Pen_No__1
  6
Continuous
100
AcDbLine
 10
480.3204713601471
 20
135.9312434975011
 30
0.0
 11
468.0658865458878
 21
128.8560556252629
 31
0.0
  0
LINE
  5
EA
330
1F
100
AcDbEntity
  8
0_Pen_No__1
  6
Continuous
100
AcDbLine
 10
468.0658865458878
 20
128.8560556252629
 30
0.0
 11
468.1054470817235
 21
121.0804967026758
 31
0.0
  0
LINE
  5
EB
330
1F
100
AcDbEntity
  8
0_Pen_No__1
  6
Continuous
100
AcDbLine
 10
468.1054470817235
 20
121.0804967026758
 30
0.0
 11
477.6359933125293
 21
30.7264310056872
 31
0.0
  0
LINE
  5
EC
330
1F
100
AcDbEntity
  8
0_Pen_No__1
  6
Continuous
100
AcDbLine
 10
477.6359933125293
 20
30.7264310056872
 30
0.0
 11
468.931911945892
 21
25.70112726365051
 31
0.0
  0
LINE
  5
ED
330
1F
100
AcDbEntity
  8
0_Pen_No__1
  6
Continuous
100
AcDbLine
 10
468.931911945892
 20
25.70112726365051
 30
0.0
 11
468.931911945892
 21
12.9009677011829
 31
0.0
  0
LINE
  5
EE
330
1F
100
AcDbEntity
  8
0_Pen_No__1
  6
Continuous
100
AcDbLine
 10
468.931911945892
 20
12.9009677011829
 30
0.0
 11
474.9940897458828
 21
16.40096770117741
 31
0.0
  0
LINE
  5
EF
330
1F
100
AcDbEntity
  8
0_Pen_No__1
  6
Continuous
100
AcDbLine
 10
474.9940897458828
 20
16.40096770117741
 30
0.0
 11
474.9940897458828
 21
22.20112726364712
 31
0.0
  0
LINE
  5
F0
330
1F
100
AcDbEntity
  8
0_Pen_No__1
  6
Continuous
100
AcDbLine
 10
474.9940897458828
 20
22.20112726364712
 30
0.0
 11
478.3319691026583
 21
24.12825281722467
 31
0.0
  0
LINE
  5
F1
330
1F
100
AcDbEntity
  8
0_Pen_No__1
  6
Continuous
100
AcDbLine
 10
478.3319691026583
 20
24.12825281722467
 30
0.0
 11
480.3204713601476
 21
5.276315135882586
 31
0.0
  0
LINE
  5
F2
330
1F
100
AcDbEntity
  8
0_Pen_No__1
  6
Continuous
100
AcDbLine
 10
480.3204713601476
 20
5.276315135882586
 30
0.0
 11
474.9940897458828
 21
2.201127263641994
 31
0.0
  0
LINE
  5
F3
330
1F
100
AcDbEntity
  8
0_Pen_No__1
  6
Continuous
100
AcDbLine
 10
474.9940897458828
 20
2.201127263641994
 30
0.0
 11
474.9940897458828
 21
-4.798872736355681
 31
0.0
  0
LINE
  5
F4
330
1F
100
AcDbEntity
  8
0_Pen_No__1
  6
Continuous
100
AcDbLine
 10
474.9940897458828
 20
-4.798872736355681
 30
0.0
 11
487.1184453458895
 21
2.201127263646657
 31
0.0
  0
LINE
  5
F5
330
1F
100
AcDbEntity
  8
0_Pen_No__1
  6
Continuous
100
AcDbLine
 10
487.1184453458895
 20
2.201127263646657
 30
0.0
 11
474.1280643458911
 21
125.3560556252667
 31
0.0
  0
LINE
  5
F6
330
1F
100
AcDbEntity
  8
0_Pen_No__1
  6
Continuous
100
AcDbLine
 10
473.3404690101736
 20
201.1791573655653
 30
0.0
 11
480.3204713601471
 21
135.9312434975011
 31
0.0
  0
LINE
  5
F7
330
1F
100
AcDbEntity
  8
0_Pen_No__1
  6
Continuous
100
AcDbLine
 10
487.1184453458895
 20
132.856055625265
 30
0.0
 11
479.6765711855241
 21
203.4085266494854
 31
0.0
  0
LINE
  5
F8
330
1F
100
AcDbEntity
  8
0_Pen_No__1
  6
Continuous
100
AcDbLine
 10
63.75462829986478
 20
-6.811588922738671
 30
0.0
 11
50.7642472998664
 21
131.343339438879
 31
0.0
  0
LINE
  5
F9
330
1F
100
AcDbEntity
  8
0_Pen_No__1
  6
Continuous
100
AcDbLine
 10
50.7642472998664
 20
261.9982678004984
 30
0.0
 11
52.3074034148987
 21
262.8892094028075
 31
0.0
  0
LINE
  5
FA
330
1F
100
AcDbEntity
  8
0_Pen_No__1
  6
Continuous
100
AcDbLine
 10
55.68877011514761
 20
276.1088604077453
 30
0.0
 11
56.09726595778363
 21
276.3447055934849
 31
0.0
  0
LINE
  5
FB
330
1F
100
AcDbEntity
  8
0_Pen_No__1
  6
Continuous
100
AcDbLine
 10
53.05844865986708
 20
284.3638532987214
 30
0.0
 11
55.22559676575511
 21
285.6150568464968
 31
0.0
  0
LINE
  5
FC
330
1F
100
AcDbEntity
  8
0_Pen_No__1
  6
Continuous
100
AcDbLine
 10
44.70206949986321
 20
287.2673824773661
 30
0.0
 11
45.75221966405918
 21
287.8736869600034
 31
0.0
  0
LINE
  5
FD
330
1F
100
AcDbEntity
  8
0_Pen_No__1
  6
Continuous
100
AcDbLine
 10
44.70206949986277
 20
141.8433394388799
 30
0.0
 11
55.679531487975
 21
148.1811801004307
 31
0.0
  0
LINE
  5
FE
330
1F
100
AcDbEntity
  8
0_Pen_No__1
  6
Continuous
100
AcDbLine
 10
45.56809489986735
 20
37.6884110772622
 30
0.0
 11
53.37580274884868
 21
42.19619332532434
 31
0.0
  0
LINE
  5
FF
330
1F
100
AcDbEntity
  8
0_Pen_No__1
  6
Continuous
100
AcDbLine
 10
51.6302726998581
 20
21.38825151479942
 30
0.0
 11
55.14169985559292
 21
23.41557493726157
 31
0.0
  0
LINE
  5
100
330
1F
100
AcDbEntity
  8
0_Pen_No__1
  6
Continuous
100
AcDbLine
 10
51.6302726998581
 20
7.188411077264006
 30
0.0
 11
56.40812687936103
 21
9.94690648600341
 31
0.0
  0
LINE
  5
101
330
1F
100
AcDbEntity
  8
0_Pen_No__1
  6
Continuous
100
AcDbLine
 10
54.27217626650594
 20
295.7548472630864
 30
0.0
 11
45.56809489986735
 21
300.7801510051231
 31
0.0
  0
LINE
  5
102
330
1F
100
AcDbEntity
  8
0_Pen_No__1
  6
Continuous
100
AcDbLine
 10
45.56809489986735
 20
300.7801510051231
 30
0.0
 11
45.56809489986735
 21
287.9799914426555
 31
0.0
  0
LINE
  5
103
330
1F
100
AcDbEntity
  8
0_Pen_No__1
  6
Continuous
100
AcDbLine
 10
45.56809489986735
 20
287.9799914426555
 30
0.0
 11
51.6302726998581
 21
284.4799914426605
 31
0.0
  0
LINE
  5
104
330
1F
100
AcDbEntity
  8
0_Pen_No__1
  6
Continuous
100
AcDbLine
 10
51.6302726998581
 20
284.4799914426605
 30
0.0
 11
51.6302726998581
 21
290.2801510051298
 31
0.0
  0
LINE
  5
105
330
1F
100
AcDbEntity
  8
0_Pen_No__1
  6
Continuous
100
AcDbLine
 10
51.6302726998581
 20
290.2801510051298
 30
0.0
 11
54.96815205663408
 21
288.3530254515518
 31
0.0
  0
LINE
  5
106
330
1F
100
AcDbEntity
  8
0_Pen_No__1
  6
Continuous
100
AcDbLine
 10
349.3708800459959
 20
110.3559652049413
 30
0.0
 11
344.7263651611266
 21
61.57678014858806
 31
0.0
  0
LINE
  5
107
330
1F
100
AcDbEntity
  8
0_Pen_No__1
  6
Continuous
100
AcDbLine
 10
337.9283911753847
 20
50.65196802082597
 30
0.0
 11
343.2076333192849
 21
106.7976130326432
 31
0.0
  0
LINE
  5
108
330
1F
100
AcDbEntity
  8
0_Pen_No__1
  6
Continuous
100
AcDbLine
 10
54.96815205663408
 20
288.3530254515518
 30
0.0
 11
56.95665431412333
 21
267.2049631328845
 31
0.0
  0
LINE
  5
109
330
1F
100
AcDbEntity
  8
0_Pen_No__1
  6
Continuous
100
AcDbLine
 10
364.2548298237845
 20
368.2801215710087
 30
0.0
 11
363.313503424778
 21
378.2912891587529
 31
0.0
  0
LINE
  5
10A
330
1F
100
AcDbEntity
  8
0_Pen_No__1
  6
Continuous
100
AcDbLine
 10
56.95665431412333
 20
267.2049631328845
 30
0.0
 11
51.6302726998581
 21
270.2801510051249
 31
0.0
  0
LINE
  5
10B
330
1F
100
AcDbEntity
  8
0_Pen_No__1
  6
Continuous
100
AcDbLine
 10
51.6302726998581
 20
270.2801510051249
 30
0.0
 11
51.6302726998581
 21
263.2801510051266
 31
0.0
  0
LINE
  5
10C
330
1F
100
AcDbEntity
  8
0_Pen_No__1
  6
Continuous
100
AcDbLine
 10
51.6302726998581
 20
263.2801510051266
 30
0.0
 11
63.75462829986478
 21
256.2801510051225
 31
0.0
  0
LINE
  5
10D
330
1F
100
AcDbEntity
  8
0_Pen_No__1
  6
Continuous
100
AcDbLine
 10
45.56809489986735
 20
300.7801510051231
 30
0.0
 11
53.37580274885045
 21
305.2879332531862
 31
0.0
  0
LINE
  5
10E
330
1F
100
AcDbEntity
  8
0_Pen_No__1
  6
Continuous
100
AcDbLine
 10
51.6302726998581
 20
284.4799914426605
 30
0.0
 11
55.14169985560314
 21
286.5073148651289
 31
0.0
  0
LINE
  5
10F
330
1F
100
AcDbEntity
  8
0_Pen_No__1
  6
Continuous
100
AcDbLine
 10
51.6302726998581
 20
270.2801510051249
 30
0.0
 11
56.40812687937125
 21
273.0386464138701
 31
0.0
  0
LINE
  5
110
330
1F
100
AcDbEntity
  8
0_Pen_No__1
  6
Continuous
100
AcDbLine
 10
63.75462829986522
 20
123.8433394388801
 30
0.0
 11
111.4545652524538
 21
151.3829109991298
 31
0.0
  0
LINE
  5
111
330
1F
100
AcDbEntity
  8
0_Pen_No__1
  6
Continuous
100
AcDbLine
 10
63.75462829986478
 20
256.2801510051225
 30
0.0
 11
59.0557644251879
 21
306.2533736524848
 31
0.0
  0
LINE
  5
112
330
1F
100
AcDbEntity
  8
0_Pen_No__1
  6
Continuous
100
AcDbLine
 10
52.96049404957736
 20
309.7048124498687
 30
0.0
 11
54.27217626650594
 21
295.7548472630864
 31
0.0
  0
LINE
  5
113
330
1F
100
AcDbEntity
  8
0_Pen_No__1
  6
Continuous
100
AcDbLine
 10
63.75462829986478
 20
256.2801510051225
 30
0.0
 11
352.1467955683864
 21
422.7834471373826
 31
0.0
  0
LINE
  5
114
330
1F
100
AcDbEntity
  8
0_Pen_No__1
  6
Continuous
100
AcDbLine
 10
88.07277179397744
 20
-35.487725293464
 30
0.0
 11
88.07277179397744
 21
6.458196855747805
 31
0.0
  0
LINE
  5
115
330
1F
100
AcDbEntity
  8
0_Pen_No__1
  6
Continuous
100
AcDbLine
 10
346.0846177683833
 20
426.2834471373851
 30
0.0
 11
352.1467955683864
 21
422.7834471373826
 31
0.0
  0
LINE
  5
116
330
1F
100
AcDbEntity
  8
0_Pen_No__1
  6
Continuous
100
AcDbLine
 10
344.0661420865951
 20
418.1180796540551
 30
0.0
 11
363.313503424778
 21
378.2912891587529
 31
0.0
  0
LINE
  5
117
330
1F
100
AcDbEntity
  8
0_Pen_No__1
  6
Continuous
100
AcDbLine
 10
158.5739328743462
 20
1.610709079708617
 30
0.0
 11
156.84188206867
 21
0.6107090764306822
 31
0.0
  0
LINE
  5
118
330
1F
100
AcDbEntity
  8
0_Pen_No__1
  6
Continuous
100
AcDbLine
 10
109.7225144467772
 20
-0.1849113159115845
 30
0.0
 11
109.7225144467772
 21
199.144184754744
 31
0.0
  0
LINE
  5
119
330
1F
100
AcDbEntity
  8
0_Pen_No__1
  6
Continuous
100
AcDbLine
 10
158.5739328743462
 20
1.610709079708617
 30
0.0
 11
158.5739328743462
 21
152.3131909675482
 31
0.0
  0
LINE
  5
11A
330
1F
100
AcDbEntity
  8
0_Pen_No__1
  6
Continuous
100
AcDbLine
 10
135.7032765319274
 20
12.81508872669468
 30
0.0
 11
111.4545652524538
 21
-1.184911319189297
 31
0.0
  0
LINE
  5
11B
330
1F
100
AcDbEntity
  8
0_Pen_No__1
  6
Continuous
100
AcDbLine
 10
156.84188206867
 20
0.6107090764313483
 30
0.0
 11
135.7032765319274
 21
12.81508872669423
 31
0.0
  0
LINE
  5
11C
330
1F
100
AcDbEntity
  8
0_Pen_No__1
  6
Continuous
100
AcDbLine
 10
111.4545652524538
 20
-1.184911319189297
 30
0.0
 11
111.4545652524538
 21
198.3437270203856
 31
0.0
  0
LINE
  5
11D
330
1F
100
AcDbEntity
  8
0_Pen_No__1
  6
Continuous
100
AcDbLine
 10
135.7032765319274
 20
12.81508872669468
 30
0.0
 11
135.7032765319274
 21
212.3437270662692
 31
0.0
  0
LINE
  5
11E
330
1F
100
AcDbEntity
  8
0_Pen_No__1
  6
Continuous
100
AcDbLine
 10
109.7225144467772
 20
-0.1849113159115845
 30
0.0
 11
111.4545652524538
 21
-1.184911319189297
 31
0.0
  0
LINE
  5
11F
330
1F
100
AcDbEntity
  8
0_Pen_No__1
  6
Continuous
100
AcDbLine
 10
156.84188206867
 20
0.6107090764313483
 30
0.0
 11
156.84188206867
 21
153.3131909708261
 31
0.0
  0
LINE
  5
120
330
1F
100
AcDbEntity
  8
0_Pen_No__1
  6
Continuous
100
AcDbLine
 10
359.8659730907991
 20
303.2190331845428
 30
0.0
 11
358.9085462369067
 21
294.6894738921482
 31
0.0
  0
LINE
  5
121
330
1F
100
AcDbEntity
  8
0_Pen_No__1
  6
Continuous
100
AcDbLine
 10
72.48431454288784
 20
-26.48772526396614
 30
0.0
 11
72.48431454288784
 21
-1.771502198363056
 31
0.0
  0
LINE
  5
122
330
1F
100
AcDbEntity
  8
0_Pen_No__1
  6
Continuous
100
AcDbLine
 10
122.7137879075103
 20
-15.48772522791575
 30
0.0
 11
122.7137879075103
 21
5.315603939979763
 31
0.0
  0
LINE
  5
123
330
1F
100
AcDbEntity
  8
0_Pen_No__1
  6
Continuous
100
AcDbLine
 10
480.3204713601476
 20
5.276315135882586
 30
0.0
 11
447.1850273756023
 21
24.40707272368495
 31
0.0
  0
LINE
  5
124
330
1F
100
AcDbEntity
  8
0_Pen_No__1
  6
Continuous
100
AcDbLine
 10
336.9505086330439
 20
50.76295888527096
 30
0.0
 11
334.2985257668957
 21
52.29408191361931
 31
0.0
  0
LINE
  5
125
330
1F
100
AcDbEntity
  8
0_Pen_No__1
  6
Continuous
100
AcDbLine
 10
342.9867336680029
 20
106.6700765589537
 30
0.0
 11
338.7536969295145
 21
109.1140214700901
 31
0.0
  0
LINE
  5
126
330
1F
100
AcDbEntity
  8
0_Pen_No__1
  6
Continuous
100
AcDbLine
 10
349.3708800459959
 20
110.3559652049411
 30
0.0
 11
344.3651905849853
 21
113.2460013753643
 31
0.0
  0
LINE
  5
127
330
1F
100
AcDbEntity
  8
0_Pen_No__1
  6
Continuous
100
AcDbLine
 10
352.0485917836183
 20
111.7877174028031
 30
0.0
 11
346.7111494288532
 21
114.8692911965776
 31
0.0
  0
LINE
  5
128
330
1F
100
AcDbEntity
  8
0_Pen_No__1
  6
Continuous
100
AcDbLine
 10
468.0658865458878
 20
128.8560556252629
 30
0.0
 11
465.916643742246
 21
130.0969215419223
 31
0.0
  0
LINE
  5
129
330
1F
100
AcDbEntity
  8
0_Pen_No__1
  6
Continuous
100
AcDbLine
 10
480.3204713601471
 20
135.9312434975011
 30
0.0
 11
466.2213145268151
 21
144.0713955261473
 31
0.0
  0
LINE
  5
12A
330
1F
100
AcDbEntity
  8
0_Pen_No__1
  6
Continuous
100
AcDbLine
 10
474.9940897458828
 20
-4.798872736355681
 30
0.0
 11
446.991399577206
 21
11.36848804121995
 31
0.0
  0
LINE
  5
12B
330
1F
100
AcDbEntity
  8
0_Pen_No__1
  6
Continuous
100
AcDbLine
 10
474.9940897458828
 20
2.201127263641994
 30
0.0
 11
446.991399577206
 21
18.36848804121785
 31
0.0
  0
LINE
  5
12C
330
1F
100
AcDbEntity
  8
0_Pen_No__1
  6
Continuous
100
AcDbLine
 10
468.931911945892
 20
12.9009677011829
 30
0.0
 11
446.991399577206
 21
25.33772264717008
 31
0.0
  0
LINE
  5
12D
330
1F
100
AcDbEntity
  8
0_Pen_No__1
  6
Continuous
100
AcDbLine
 10
468.931911945892
 20
25.70112726365051
 30
0.0
 11
446.991399577206
 21
38.36848804122964
 31
0.0
  0
LINE
  5
12E
330
1F
100
AcDbEntity
  8
0_Pen_No__1
  6
Continuous
100
AcDbLine
 10
477.6359933125293
 20
30.7264310056872
 30
0.0
 11
446.991399577206
 21
48.41909552530546
 31
0.0
  0
LINE
  5
12F
330
1F
100
AcDbEntity
  8
0_Pen_No__1
  6
Continuous
100
AcDbLine
 10
471.3634019982939
 20
199.4341003480833
 30
0.0
 11
465.9204212417557
 21
161.2604281841783
 31
0.0
  0
LINE
  5
130
330
1F
100
AcDbEntity
  8
0_Pen_No__1
  6
Continuous
100
AcDbLine
 10
474.547584939239
 20
166.2413234890297
 30
0.0
 11
465.3711626926741
 21
195.974479356817
 31
0.0
  0
LINE
  5
131
330
1F
100
AcDbEntity
  8
0_Pen_No__1
  6
Continuous
100
AcDbLine
 10
357.4774608196324
 20
281.9401679065261
 30
0.0
 11
357.2604281985593
 21
280.0066597724045
 31
0.0
  0
LINE
  5
132
330
1F
100
AcDbEntity
  8
0_Pen_No__1
  6
Continuous
100
AcDbLine
 10
359.2331737244109
 20
54.23749184590057
 30
0.0
 11
356.471372563833
 21
55.83201849637656
 31
0.0
  0
LINE
  5
133
330
1F
100
AcDbEntity
  8
0_Pen_No__1
  6
Continuous
100
AcDbLine
 10
488.3300453212057
 20
166.5864768203716
 30
0.0
 11
483.2512688341265
 21
169.5187098051561
 31
0.0
  0
LINE
  5
134
330
1F
100
AcDbEntity
  8
0_Pen_No__1
  6
Continuous
100
AcDbLine
 10
491.3375639584768
 20
160.161428582021
 30
0.0
 11
484.1887041712657
 21
164.288824722604
 31
0.0
  0
LINE
  5
135
330
1F
100
AcDbEntity
  8
0_Pen_No__1
  6
Continuous
100
AcDbLine
 10
328.9609575245168
 20
429.969040509671
 30
0.0
 11
346.0846177683833
 21
426.2834471373851
 31
0.0
  0
LINE
  5
136
330
1F
100
AcDbEntity
  8
0_Pen_No__1
  6
Continuous
100
AcDbLine
 10
479.6765711855241
 20
203.4085266494854
 30
0.0
 11
473.3746637460093
 21
207.0469346219977
 31
0.0
  0
LINE
  5
137
330
1F
100
AcDbEntity
  8
0_Pen_No__1
  6
Continuous
100
AcDbLine
 10
473.3404690101736
 20
201.1791573655653
 30
0.0
 11
467.9839708114873
 21
204.2717330560056
 31
0.0
  0
LINE
  5
138
330
1F
100
AcDbEntity
  8
0_Pen_No__1
  6
Continuous
100
AcDbLine
 10
471.3634019982939
 20
199.4341003480833
 30
0.0
 11
465.7867160276118
 21
202.6538015085131
 31
0.0
  0
LINE
  5
139
330
1F
100
AcDbEntity
  8
0_Pen_No__1
  6
Continuous
100
AcDbLine
 10
345.6237593547206
 20
62.09489093009204
 30
0.0
 11
344.9875412887721
 21
62.46221160333623
 31
0.0
  0
LINE
  5
13A
330
1F
100
AcDbEntity
  8
0_Pen_No__1
  6
Continuous
100
AcDbLine
 10
358.4327381616122
 20
115.4736060487909
 30
0.0
 11
347.842673664226
 21
73.92795433205949
 31
0.0
  0
LINE
  5
13B
330
1F
100
AcDbEntity
  8
0_Pen_No__1
  6
Continuous
100
AcDbLine
 10
351.9992953074421
 20
111.3008905073843
 30
0.0
 11
358.4327381616122
 21
80.0421309470796
 31
0.0
  0
LINE
  5
13C
330
1F
100
AcDbEntity
  8
0_Pen_No__1
  6
Continuous
100
AcDbLine
 10
52.96049404957736
 20
309.7048124498678
 30
0.0
 11
67.6560934809286
 21
331.2696489279898
 31
0.0
  0
LINE
  5
13D
330
1F
100
AcDbEntity
  8
0_Pen_No__1
  6
Continuous
100
AcDbLine
 10
59.0557644251879
 20
306.2533736524848
 30
0.0
 11
73.71827128093223
 21
327.7696489279869
 31
0.0
  0
LINE
  5
13E
330
1F
100
AcDbEntity
  8
0_Pen_No__1
  6
Continuous
100
AcDbLine
 10
251.1473668231122
 20
1134.999999639471
 30
0.0
 11
285.7883829366451
 21
1154.999999705019
 31
0.0
  0
LINE
  5
13F
330
1F
100
AcDbEntity
  8
0_Pen_No__1
  6
Continuous
100
AcDbLine
 10
335.02313532452
 20
426.4690405096685
 30
0.0
 11
352.1467955683864
 21
422.7834471373826
 31
0.0
  0
LINE
  5
140
330
1F
100
AcDbEntity
  8
0_Pen_No__1
  6
Continuous
100
AcDbLine
 10
207.8460966811994
 20
1199.99999985251
 30
0.0
 11
285.7883829366451
 21
1154.999999705019
 31
0.0
  0
LINE
  5
141
330
1F
100
AcDbEntity
  8
0_Pen_No__1
  6
Continuous
100
AcDbLine
 10
207.8460966811994
 20
1199.99999985251
 30
0.0
 11
173.205080567666
 21
1179.999999786962
 31
0.0
  0
LINE
  5
142
330
1F
100
AcDbEntity
  8
0_Pen_No__1
  6
Continuous
100
AcDbLine
 10
216.506350709574
 20
915.6609983670733
 30
0.0
 11
360.3888593614947
 21
832.5903929021829
 31
0.0
  0
LINE
  5
143
330
1F
100
AcDbEntity
  8
0_Pen_No__1
  6
Continuous
100
AcDbLine
 10
377.7093673501394
 20
782.5903929087365
 30
0.0
 11
446.991399577206
 21
862.590393039833
 31
0.0
  0
LINE
  5
144
330
1F
100
AcDbEntity
  8
0_Pen_No__1
  6
Continuous
100
AcDbLine
 10
377.7093673501394
 20
822.5903929087365
 30
0.0
 11
446.991399577206
 21
822.590393039833
 31
0.0
  0
LINE
  5
145
330
1F
100
AcDbEntity
  8
0_Pen_No__1
  6
Continuous
100
AcDbLine
 10
268.4678748798784
 20
779.6171840335137
 30
0.0
 11
268.4678748798784
 21
783.0309619297856
 31
0.0
  0
LINE
  5
146
330
1F
100
AcDbEntity
  8
0_Pen_No__1
  6
Continuous
100
AcDbLine
 10
69.28203222706608
 20
1119.999999590318
 30
0.0
 11
103.9230483405994
 21
1139.999999655866
 31
0.0
  0
LINE
  5
147
330
1F
100
AcDbEntity
  8
0_Pen_No__1
  6
Continuous
100
AcDbLine
 10
69.28203222706608
 20
1119.999999590318
 30
0.0
 11
147.2243184825123
 21
1074.999999442827
 31
0.0
  0
LINE
  5
148
330
1F
100
AcDbEntity
  8
0_Pen_No__1
  6
Continuous
100
AcDbLine
 10
181.8653345960452
 20
1094.999999508375
 30
0.0
 11
216.5063507095785
 21
1114.999999573923
 31
0.0
  0
LINE
  5
149
330
1F
100
AcDbEntity
  8
0_Pen_No__1
  6
Continuous
100
AcDbLine
 10
147.2243184825123
 20
1074.999999442827
 30
0.0
 11
181.8653345960452
 21
1094.999999508375
 31
0.0
  0
LINE
  5
14A
330
1F
100
AcDbEntity
  8
0_Pen_No__1
  6
Continuous
100
AcDbLine
 10
360.3888592933727
 20
812.5903928759625
 30
0.0
 11
464.3119076339722
 21
912.5903930726071
 31
0.0
  0
LINE
  5
14B
330
1F
100
AcDbEntity
  8
0_Pen_No__1
  6
Continuous
100
AcDbLine
 10
360.3888592933727
 20
832.5903928759625
 30
0.0
 11
464.3119076339722
 21
872.590393072607
 31
0.0
  0
LINE
  5
14C
330
1F
100
AcDbEntity
  8
0_Pen_No__1
  6
Continuous
100
AcDbLine
 10
129.9038104257452
 20
905.6609984654015
 30
0.0
 11
199.767696828307
 21
865.3250646679775
 31
0.0
  0
LINE
  5
14D
330
1F
100
AcDbEntity
  8
0_Pen_No__1
  6
Continuous
100
AcDbLine
 10
360.3888592933727
 20
832.5903928759625
 30
0.0
 11
129.9038103770868
 21
965.6609984934942
 31
0.0
  0
LINE
  5
14E
330
1F
100
AcDbEntity
  8
0_Pen_No__1
  6
Continuous
100
AcDbLine
 10
464.3119076339722
 20
912.5903930726071
 30
0.0
 11
464.3119076339722
 21
872.590393072607
 31
0.0
  0
LINE
  5
14F
330
1F
100
AcDbEntity
  8
0_Pen_No__1
  6
Continuous
100
AcDbLine
 10
360.3888592933727
 20
812.5903928759625
 30
0.0
 11
464.3119076339722
 21
872.590393072607
 31
0.0
  0
LINE
  5
150
330
1F
100
AcDbEntity
  8
0_Pen_No__1
  6
Continuous
100
AcDbLine
 10
103.9230483405994
 20
1139.999999655866
 30
0.0
 11
181.8653345960452
 21
1094.999999508375
 31
0.0
  0
LINE
  5
151
330
1F
100
AcDbEntity
  8
0_Pen_No__1
  6
Continuous
100
AcDbLine
 10
88.07277179397698
 20
994.4114183856142
 30
0.0
 11
72.48431454288739
 21
1003.411418415112
 31
0.0
  0
LINE
  5
152
330
1F
100
AcDbEntity
  8
0_Pen_No__1
  6
Continuous
100
AcDbLine
 10
377.7093673501394
 20
782.5903929087365
 30
0.0
 11
446.991399577206
 21
822.590393039833
 31
0.0
  0
LINE
  5
153
330
1F
100
AcDbEntity
  8
0_Pen_No__1
  6
Continuous
100
AcDbLine
 10
282.4013927603754
 20
1124.607100561089
 30
0.0
 11
247.7603766468416
 21
1104.607100495541
 31
0.0
  0
LINE
  5
154
330
1F
100
AcDbEntity
  8
0_Pen_No__1
  6
Continuous
100
AcDbLine
 10
263.3488338979307
 20
1095.607100466043
 30
0.0
 11
247.7603766468416
 21
1104.607100495541
 31
0.0
  0
LINE
  5
155
330
1F
100
AcDbEntity
  8
0_Pen_No__1
  6
Continuous
100
AcDbLine
 10
377.7093673501394
 20
822.5903929087365
 30
0.0
 11
377.7093673501394
 21
782.5903929087365
 31
0.0
  0
LINE
  5
156
330
1F
100
AcDbEntity
  8
0_Pen_No__1
  6
Continuous
100
AcDbLine
 10
446.991399577206
 20
862.590393039833
 30
0.0
 11
446.991399577206
 21
822.590393039833
 31
0.0
  0
LINE
  5
157
330
1F
100
AcDbEntity
  8
0_Pen_No__1
  6
Continuous
100
AcDbLine
 10
173.205080567666
 20
1179.999999786962
 30
0.0
 11
173.205080567666
 21
1139.999999655861
 31
0.0
  0
LINE
  5
158
330
1F
100
AcDbEntity
  8
0_Pen_No__1
  6
Continuous
100
AcDbLine
 10
69.28203222706608
 20
1079.999999459217
 30
0.0
 11
69.28203222706608
 21
1119.999999590317
 31
0.0
  0
LINE
  5
159
330
1F
100
AcDbEntity
  8
0_Pen_No__1
  6
Continuous
100
AcDbLine
 10
233.8268587663451
 20
1045.660998727596
 30
0.0
 11
129.9038104257452
 21
965.6609985309518
 31
0.0
  0
LINE
  5
15A
330
1F
100
AcDbEntity
  8
0_Pen_No__1
  6
Continuous
100
AcDbLine
 10
147.2243184825123
 20
764.653053476836
 30
0.0
 11
147.2243184825123
 21
790.5858243951584
 31
0.0
  0
LINE
  5
15B
330
1F
100
AcDbEntity
  8
0_Pen_No__1
  6
Continuous
100
AcDbLine
 10
34.64101611353287
 20
1099.999999524769
 30
0.0
 11
77.9422862554452
 21
1034.999999311731
 31
0.0
  0
LINE
  5
15C
330
1F
100
AcDbEntity
  8
0_Pen_No__1
  6
Continuous
100
AcDbLine
 10
-0.0000000000004441
 20
1079.999999459221
 30
0.0
 11
112.5833023689785
 21
1054.999999377279
 31
0.0
  0
LINE
  5
15D
330
1F
100
AcDbEntity
  8
0_Pen_No__1
  6
Continuous
100
AcDbLine
 10
138.5640644541327
 20
1159.999999721414
 30
0.0
 11
181.8653345960452
 21
1094.999999508375
 31
0.0
  0
LINE
  5
15E
330
1F
100
AcDbEntity
  8
0_Pen_No__1
  6
Continuous
100
AcDbLine
 10
103.9230483405994
 20
1139.999999655866
 30
0.0
 11
216.5063507095785
 21
1114.999999573923
 31
0.0
  0
LINE
  5
15F
330
1F
100
AcDbEntity
  8
0_Pen_No__1
  6
Continuous
100
AcDbLine
 10
103.9230483405994
 20
1139.999999655866
 30
0.0
 11
147.2243184825123
 21
1074.999999442827
 31
0.0
  0
LINE
  5
160
330
1F
100
AcDbEntity
  8
0_Pen_No__1
  6
Continuous
100
AcDbLine
 10
69.28203222706608
 20
1119.999999590318
 30
0.0
 11
181.8653345960452
 21
1094.999999508375
 31
0.0
  0
LINE
  5
161
330
1F
100
AcDbEntity
  8
0_Pen_No__1
  6
Continuous
100
AcDbLine
 10
207.8460966811989
 20
1199.99999985251
 30
0.0
 11
251.1473668231122
 21
1134.999999639471
 31
0.0
  0
LINE
  5
162
330
1F
100
AcDbEntity
  8
0_Pen_No__1
  6
Continuous
100
AcDbLine
 10
173.205080567666
 20
1179.999999786962
 30
0.0
 11
285.7883829366451
 21
1154.999999705019
 31
0.0
  0
LINE
  5
163
330
1F
100
AcDbEntity
  8
0_Pen_No__1
  6
Continuous
100
AcDbLine
 10
-0.0000000000004441
 20
769.6530534932299
 30
0.0
 11
77.9422862554452
 21
724.6530533457395
 31
0.0
  0
LINE
  5
164
330
1F
100
AcDbEntity
  8
0_Pen_No__1
  6
Continuous
100
AcDbLine
 10
112.5833023689785
 20
744.6530534112879
 30
0.0
 11
77.9422862554452
 21
724.6530533457395
 31
0.0
  0
LINE
  5
165
330
1F
100
AcDbEntity
  8
0_Pen_No__1
  6
Continuous
100
AcDbLine
 10
129.9038104257452
 20
905.6609984654015
 30
0.0
 11
129.9038104257452
 21
965.6609985309518
 31
0.0
  0
LINE
  5
166
330
1F
100
AcDbEntity
  8
0_Pen_No__1
  6
Continuous
100
AcDbLine
 10
-0.0000000000004441
 20
769.6530534932299
 30
0.0
 11
-0.0000000000004441
 21
843.93769056661
 31
0.0
  0
LINE
  5
167
330
1F
100
AcDbEntity
  8
0_Pen_No__1
  6
Continuous
100
AcDbLine
 10
-0.0000000000004441
 20
962.5736497832914
 30
0.0
 11
-0.0000000000004441
 21
1079.999999459221
 31
0.0
  0
LINE
  5
168
330
1F
100
AcDbEntity
  8
0_Pen_No__1
  6
Continuous
100
AcDbLine
 10
282.4013927603754
 20
1124.607100561089
 30
0.0
 11
263.3488338979307
 21
1095.607100466043
 31
0.0
  0
LINE
  5
169
330
1F
100
AcDbEntity
  8
0_Pen_No__1
  6
Continuous
100
AcDbLine
 10
247.7603766468416
 20
1104.607100495541
 30
0.0
 11
297.9898500114641
 21
1115.607100531591
 31
0.0
  0
LINE
  5
16A
330
1F
100
AcDbEntity
  8
0_Pen_No__1
  6
Continuous
100
AcDbLine
 10
107.1253306564207
 20
1023.41141848066
 30
0.0
 11
88.07277179397698
 21
994.4114183856142
 31
0.0
  0
LINE
  5
16B
330
1F
100
AcDbEntity
  8
0_Pen_No__1
  6
Continuous
100
AcDbLine
 10
72.48431454288739
 20
1003.411418415112
 30
0.0
 11
122.7137879075099
 21
1014.411418451162
 31
0.0
  0
LINE
  5
16C
330
1F
100
AcDbEntity
  8
0_Pen_No__1
  6
Continuous
100
AcDbLine
 10
216.5063507095785
 20
1097.016286250043
 30
0.0
 11
216.5063507095785
 21
1114.999999573923
 31
0.0
  0
LINE
  5
16D
330
1F
100
AcDbEntity
  8
0_Pen_No__1
  6
Continuous
100
AcDbLine
 10
251.1473668231118
 20
1106.562580194098
 30
0.0
 11
251.1473668231122
 21
1134.999999639471
 31
0.0
  0
LINE
  5
16E
330
1F
100
AcDbEntity
  8
0_Pen_No__1
  6
Continuous
100
AcDbLine
 10
285.7883829366451
 20
1122.651620862531
 30
0.0
 11
285.7883829366451
 21
1154.999999705019
 31
0.0
  0
LINE
  5
16F
330
1F
100
AcDbEntity
  8
0_Pen_No__1
  6
Continuous
100
AcDbLine
 10
247.7603766468416
 20
1037.616478327828
 30
0.0
 11
247.7603766468416
 21
1104.607100495541
 31
0.0
  0
LINE
  5
170
330
1F
100
AcDbEntity
  8
0_Pen_No__1
  6
Continuous
100
AcDbLine
 10
263.3488338979307
 20
1028.616478298329
 30
0.0
 11
263.3488338979307
 21
1095.607100466043
 31
0.0
  0
LINE
  5
171
330
1F
100
AcDbEntity
  8
0_Pen_No__1
  6
Continuous
100
AcDbLine
 10
297.9898500114641
 20
1008.616478232777
 30
0.0
 11
297.9898500114641
 21
1115.607100531591
 31
0.0
  0
LINE
  5
173
330
1F
100
AcDbEntity
  8
0_Pen_No__1
  6
Above
100
AcDbLine
 10
129.9038104257452
 20
905.6609984654015
 30
0.0
 11
108.253175354787
 21
893.1609984244336
 31
0.0
  0
LINE
  5
174
330
1F
100
AcDbEntity
  8
0_Pen_No__1
  6
Continuous
100
AcDbLine
 10
174.6735271563294
 20
765.4649919870683
 30
0.0
 11
209.3145432698637
 21
745.4649919215158
 31
0.0
  0
LINE
  5
175
330
1F
100
AcDbEntity
  8
0_Pen_No__1
  6
Continuous
100
AcDbLine
 10
209.3145432698637
 20
745.4649919215158
 30
0.0
 11
224.9030005209519
 21
754.4649919510122
 31
0.0
  0
LINE
  5
176
330
1F
100
AcDbEntity
  8
0_Pen_No__1
  6
Continuous
100
AcDbLine
 10
209.3145432698632
 20
745.4649919215158
 30
0.0
 11
209.3145432698637
 21
899.8131902809455
 31
0.0
  0
LINE
  5
177
330
1F
100
AcDbEntity
  8
0_Pen_No__1
  6
Continuous
100
AcDbLine
 10
174.6735271563294
 20
765.4649919870683
 30
0.0
 11
174.6735271563299
 21
879.813190346498
 31
0.0
  0
LINE
  5
178
330
1F
100
AcDbEntity
  8
0_Pen_No__1
  6
Above
100
AcDbLine
 10
108.253175354787
 20
977.0184287372302
 30
0.0
 11
122.7137879075099
 21
987.1100777415847
 31
0.0
  0
LINE
  5
179
330
1F
100
AcDbEntity
  8
0_Pen_No__1
  6
Above
100
AcDbLine
 10
108.253175354787
 20
977.0184287372302
 30
0.0
 11
108.253175354787
 21
893.1609984244336
 31
0.0
  0
LINE
  5
17A
330
1F
100
AcDbEntity
  8
0_Pen_No__1
  6
Continuous
100
AcDbLine
 10
147.2243184825123
 20
764.653053476836
 30
0.0
 11
174.6735271563294
 21
780.5008615629597
 31
0.0
  0
LINE
  5
17B
330
1F
100
AcDbEntity
  8
0_Pen_No__1
  6
Continuous
100
AcDbLine
 10
224.9030005209519
 20
784.7693760162188
 30
0.0
 11
251.1473668231122
 21
769.6171840007396
 31
0.0
  0
LINE
  5
17C
330
1F
100
AcDbEntity
  8
0_Pen_No__1
  6
Continuous
100
AcDbLine
 10
251.1473668231122
 20
769.6171840007396
 30
0.0
 11
251.1473668231122
 21
791.2296729803571
 31
0.0
  0
LINE
  5
17D
330
1F
100
AcDbEntity
  8
0_Pen_No__1
  6
Continuous
100
AcDbLine
 10
271.7169163798831
 20
781.4930190263468
 30
0.0
 11
251.1473668231122
 21
769.6171840007396
 31
0.0
  0
LINE
  5
17E
330
1F
100
AcDbEntity
  8
0_Pen_No__1
  6
Continuous
100
AcDbLine
 10
77.9422862554452
 20
1026.172156149703
 30
0.0
 11
77.9422862554452
 21
1034.999999311731
 31
0.0
  0
LINE
  5
17F
330
1F
100
AcDbEntity
  8
0_Pen_No__1
  6
Continuous
100
AcDbLine
 10
112.5833023689785
 20
1042.556072860172
 30
0.0
 11
112.5833023689785
 21
1054.999999377279
 31
0.0
  0
LINE
  5
180
330
1F
100
AcDbEntity
  8
0_Pen_No__1
  6
Continuous
100
AcDbLine
 10
147.2243184825123
 20
1062.205150295429
 30
0.0
 11
147.2243184825123
 21
1074.999999442827
 31
0.0
  0
LINE
  5
181
330
1F
100
AcDbEntity
  8
0_Pen_No__1
  6
Continuous
100
AcDbLine
 10
181.8653345960452
 20
1084.999088210362
 30
0.0
 11
181.8653345960452
 21
1094.999999508375
 31
0.0
  0
LINE
  5
182
330
1F
100
AcDbEntity
  8
0_Pen_No__1
  6
Continuous
100
AcDbLine
 10
112.5833023689785
 20
744.6530534112879
 30
0.0
 11
112.5833023689785
 21
748.316489687063
 31
0.0
  0
LINE
  5
183
330
1F
100
AcDbEntity
  8
0_Pen_No__1
  6
Continuous
100
AcDbLine
 10
72.48431454288739
 20
743.1653282292642
 30
0.0
 11
72.48431454288739
 21
1003.411418415112
 31
0.0
  0
LINE
  5
184
330
1F
100
AcDbEntity
  8
0_Pen_No__1
  6
Continuous
100
AcDbLine
 10
88.07277179397744
 20
734.1653281997661
 30
0.0
 11
88.07277179397698
 21
994.4114183856142
 31
0.0
  0
LINE
  5
185
330
1F
100
AcDbEntity
  8
0_Pen_No__1
  6
Continuous
100
AcDbLine
 10
122.7137879075103
 20
754.1653282653141
 30
0.0
 11
122.7137879075099
 21
1014.411418451162
 31
0.0
  0
LINE
  5
186
330
1F
100
AcDbEntity
  8
0_Pen_No__1
  6
Continuous
100
AcDbLine
 10
88.07277179397744
 20
734.1653281997661
 30
0.0
 11
72.48431454288739
 21
743.1653282292642
 31
0.0
  0
LINE
  5
187
330
1F
100
AcDbEntity
  8
0_Pen_No__1
  6
Continuous
100
AcDbLine
 10
88.07277179397744
 20
734.1653281997661
 30
0.0
 11
122.7137879075103
 21
754.1653282653141
 31
0.0
  0
LINE
  5
188
330
1F
100
AcDbEntity
  8
0_Pen_No__1
  6
Continuous
100
AcDbLine
 10
77.9422862554452
 20
724.6530533457395
 30
0.0
 11
77.9422862554452
 21
740.014166778019
 31
0.0
  0
LINE
  5
189
330
1F
100
AcDbEntity
  8
0_Pen_No__1
  6
Continuous
100
AcDbLine
 10
122.7137879075103
 20
778.8042149641351
 30
0.0
 11
147.2243184825123
 21
764.653053476836
 31
0.0
  0
LINE
  5
18A
330
1F
100
AcDbEntity
  8
0_Pen_No__1
  6
Continuous
100
AcDbLine
 10
173.205080567666
 20
1179.999999786962
 30
0.0
 11
251.1473668231122
 21
1134.999999639471
 31
0.0
  0
LINE
  5
18B
330
1F
100
AcDbEntity
  8
0_Pen_No__1
  6
Continuous
100
AcDbLine
 10
34.64101611353287
 20
1099.999999524769
 30
0.0
 11
112.5833023689785
 21
1054.999999377279
 31
0.0
  0
LINE
  5
18C
330
1F
100
AcDbEntity
  8
0_Pen_No__1
  6
Continuous
100
AcDbLine
 10
-0.0000000000004441
 20
1079.999999459221
 30
0.0
 11
34.64101611353287
 21
1099.999999524769
 31
0.0
  0
LINE
  5
18D
330
1F
100
AcDbEntity
  8
0_Pen_No__1
  6
Continuous
100
AcDbLine
 10
-0.0000000000004441
 20
1079.999999459221
 30
0.0
 11
77.9422862554452
 21
1034.999999311731
 31
0.0
  0
LINE
  5
18E
330
1F
100
AcDbEntity
  8
0_Pen_No__1
  6
Continuous
100
AcDbLine
 10
77.9422862554452
 20
1034.999999311731
 30
0.0
 11
112.5833023689785
 21
1054.999999377279
 31
0.0
  0
LINE
  5
18F
330
1F
100
AcDbEntity
  8
0_Pen_No__1
  6
Continuous
100
AcDbLine
 10
107.1253306564207
 20
1023.41141848066
 30
0.0
 11
72.48431454288739
 21
1003.411418415112
 31
0.0
  0
LINE
  5
190
330
1F
100
AcDbEntity
  8
0_Pen_No__1
  6
Continuous
100
AcDbLine
 10
88.07277179397698
 20
994.4114183856142
 30
0.0
 11
122.7137879075099
 21
1014.411418451162
 31
0.0
  0
LINE
  5
191
330
1F
100
AcDbEntity
  8
0_Pen_No__1
  6
Continuous
100
AcDbLine
 10
122.7137879075099
 20
1014.411418451162
 30
0.0
 11
107.1253306564207
 21
1023.41141848066
 31
0.0
  0
LINE
  5
192
330
1F
100
AcDbEntity
  8
0_Pen_No__1
  6
Continuous
100
AcDbLine
 10
233.8268587176863
 20
1045.660998690139
 30
0.0
 11
464.3119076339722
 21
912.5903930726071
 31
0.0
  0
LINE
  5
193
330
1F
100
AcDbEntity
  8
0_Pen_No__1
  6
Continuous
100
AcDbLine
 10
303.1088909934073
 20
1005.660998530944
 30
0.0
 11
199.1858426528074
 21
925.6609983342993
 31
0.0
  0
LINE
  5
194
330
1F
100
AcDbEntity
  8
0_Pen_No__1
  6
Continuous
100
AcDbLine
 10
199.1858426528074
 20
925.6609983342993
 30
0.0
 11
199.1858426528074
 21
865.6609983342992
 31
0.0
  0
LINE
  5
195
330
1F
100
AcDbEntity
  8
0_Pen_No__1
  6
Continuous
100
AcDbLine
 10
464.3119076339722
 20
912.5903930726071
 30
0.0
 11
360.3888592933727
 21
832.5903928759625
 31
0.0
  0
LINE
  5
196
330
1F
100
AcDbEntity
  8
0_Pen_No__1
  6
Continuous
100
AcDbLine
 10
297.9898500114641
 20
1115.607100531591
 30
0.0
 11
282.4013927603754
 21
1124.607100561089
 31
0.0
  0
LINE
  5
197
330
1F
100
AcDbEntity
  8
0_Pen_No__1
  6
Continuous
100
AcDbLine
 10
263.3488338979307
 20
1095.607100466043
 30
0.0
 11
297.9898500114641
 21
1115.607100531591
 31
0.0
  0
LINE
  5
198
330
1F
100
AcDbEntity
  8
0_Pen_No__1
  6
Continuous
100
AcDbLine
 10
138.5640644541327
 20
1159.999999721414
 30
0.0
 11
103.9230483405994
 21
1139.999999655866
 31
0.0
  0
LINE
  5
199
330
1F
100
AcDbEntity
  8
0_Pen_No__1
  6
Continuous
100
AcDbLine
 10
138.5640644541327
 20
1159.999999721414
 30
0.0
 11
216.5063507095785
 21
1114.999999573923
 31
0.0
  0
LINE
  5
19A
330
1F
100
AcDbEntity
  8
0_Pen_No__1
  6
Above
100
AcDbLine
 10
199.1858426528074
 20
905.6609983342993
 30
0.0
 11
129.9038104257452
 21
945.6609984654013
 31
0.0
  0
LINE
  5
19B
330
1F
100
AcDbEntity
  8
0_Pen_No__1
  6
Above
100
AcDbLine
 10
174.6735271563294
 20
879.813190346498
 30
0.0
 11
174.6735271563294
 21
919.813190346498
 31
0.0
  0
LINE
  5
19C
330
1F
100
AcDbEntity
  8
0_Pen_No__1
  6
Above
100
AcDbLine
 10
233.8268587663451
 20
1045.660998727596
 30
0.0
 11
233.8268587663451
 21
994.4474829334931
 31
0.0
  0
LINE
  5
19D
330
1F
100
AcDbEntity
  8
0_Pen_No__1
  6
Above
100
AcDbLine
 10
233.8268587663451
 20
994.4474829334931
 30
0.0
 11
303.1088909934073
 21
954.4474828023913
 31
0.0
  0
LINE
  5
19E
330
1F
100
AcDbEntity
  8
0_Pen_No__1
  6
Above
100
AcDbLine
 10
303.1088909934073
 20
1005.660998530944
 30
0.0
 11
303.1088909934073
 21
954.4474828023913
 31
0.0
  0
LINE
  5
19F
330
1F
100
AcDbEntity
  8
0_Pen_No__1
  6
Above
100
AcDbLine
 10
233.8268587663451
 20
994.4474829334931
 30
0.0
 11
247.9501321134284
 21
1002.601558637903
 31
0.0
  0
LINE
  5
1A0
330
1F
100
AcDbEntity
  8
0_Pen_No__1
  6
Above
100
AcDbLine
 10
247.9501321134284
 20
1002.601558637903
 30
0.0
 11
247.9501321134284
 21
1037.616478327828
 31
0.0
  0
LINE
  5
1A1
330
1F
100
AcDbEntity
  8
0_Pen_No__1
  6
Continuous
100
AcDbLine
 10
209.3145432698632
 20
867.5692472285258
 30
0.0
 11
360.3888592933727
 21
780.3464498235425
 31
0.0
  0
LINE
  5
1A2
330
1F
100
AcDbEntity
  8
0_Pen_No__1
  6
Continuous
100
AcDbLine
 10
360.3888592933727
 20
780.3464498235425
 30
0.0
 11
376.7789792772763
 21
789.8092900496508
 31
0.0
  0
LINE
  5
1A3
330
1F
100
AcDbEntity
  8
0_Pen_No__1
  6
Continuous
100
AcDbLine
 10
376.7789792772763
 20
789.8092900496508
 30
0.0
 11
376.7789792772763
 21
820.4132602612767
 31
0.0
  0
LINE
  5
1A4
330
1F
100
AcDbEntity
  8
0_Pen_No__1
  6
Continuous
100
AcDbLine
 10
376.7789792772763
 20
820.4132602612767
 30
0.0
 11
360.3888592933732
 21
810.9504200351683
 31
0.0
  0
LINE
  5
1A5
330
1F
100
AcDbEntity
  8
0_Pen_No__1
  6
Continuous
100
AcDbLine
 10
360.3888592933727
 20
780.3464498235425
 30
0.0
 11
376.7789792772763
 21
820.4132602612767
 31
0.0
  0
LINE
  5
1A6
330
1F
100
AcDbEntity
  8
0_Pen_No__1
  6
Continuous
100
AcDbLine
 10
360.3888592933732
 20
810.9504200351683
 30
0.0
 11
376.7789792772763
 21
789.8092900496508
 31
0.0
  0
LINE
  5
1A7
330
1F
100
AcDbEntity
  8
0_Pen_No__1
  6
Continuous
100
AcDbLine
 10
224.9030005209519
 20
754.4649919510122
 30
0.0
 11
224.9030005209519
 21
858.5692471990277
 31
0.0
  0
LINE
  5
1A8
330
1F
100
AcDbEntity
  8
0_Pen_No__1
  6
Continuous
100
AcDbLine
 10
360.3888592933727
 20
812.590392875962
 30
0.0
 11
199.1858426528074
 21
905.6609983342993
 31
0.0
  0
LINE
  5
1A9
330
1F
100
AcDbEntity
  8
0_Pen_No__1
  6
Continuous
100
AcDbLine
 10
360.3888592933727
 20
832.5903928759625
 30
0.0
 11
360.3888592933727
 21
812.590392875962
 31
0.0
  0
LINE
  5
1AA
330
1F
100
AcDbEntity
  8
0_Pen_No__1
  6
Continuous
100
AcDbLine
 10
360.3888592933732
 20
810.9504200351683
 30
0.0
 11
209.3145432698637
 21
898.1732174401519
 31
0.0
  0
LINE
  5
1AB
330
1F
100
AcDbEntity
  8
0_Pen_No__1
  6
Continuous
100
AcDbLine
 10
360.3888592933727
 20
780.3464498235425
 30
0.0
 11
360.3888592933727
 21
810.9504200351688
 31
0.0
  0
LINE
  5
1AC
330
1F
100
AcDbEntity
  8
0_Pen_No__1
  6
Continuous
100
AcDbLine
 10
447.9217876500691
 20
830.8836097940784
 30
0.0
 11
464.3119076339722
 21
840.346450020187
 31
0.0
  0
LINE
  5
1AD
330
1F
100
AcDbEntity
  8
0_Pen_No__1
  6
Continuous
100
AcDbLine
 10
464.3119076339722
 20
870.9504202318129
 30
0.0
 11
447.9217876500691
 21
861.4875800057046
 31
0.0
  0
LINE
  5
1AE
330
1F
100
AcDbEntity
  8
0_Pen_No__1
  6
Continuous
100
AcDbLine
 10
447.9217876500691
 20
830.8836097940784
 30
0.0
 11
464.3119076339722
 21
870.9504202318129
 31
0.0
  0
LINE
  5
1AF
330
1F
100
AcDbEntity
  8
0_Pen_No__1
  6
Continuous
100
AcDbLine
 10
447.9217876500691
 20
861.4875800057046
 30
0.0
 11
464.3119076339722
 21
840.346450020187
 31
0.0
  0
LINE
  5
1B0
330
1F
100
AcDbEntity
  8
0_Pen_No__1
  6
Continuous
100
AcDbLine
 10
447.9217876500691
 20
830.8836097940784
 30
0.0
 11
447.9217876500691
 21
861.487580005705
 31
0.0
  0
LINE
  5
1B1
330
1F
100
AcDbEntity
  8
0_Pen_No__1
  6
Continuous
100
AcDbLine
 10
464.3119076339722
 20
840.346450020187
 30
0.0
 11
464.3119076339722
 21
870.9504202318129
 31
0.0
  0
LINE
  5
1B2
330
1F
100
AcDbEntity
  8
0_Pen_No__1
  6
Continuous
100
AcDbLine
 10
769.2
 20
559.5223426869337
 30
0.0
 11
769.2
 21
479.5223426869336
 31
0.0
  0
LINE
  5
1B3
330
1F
100
AcDbEntity
  8
0_Pen_No__1
  6
Continuous
100
AcDbLine
 10
725.8987298580871
 20
584.5223427688716
 30
0.0
 11
725.8987298580871
 21
684.5223429327473
 31
0.0
  0
LINE
  5
1B4
330
1F
100
AcDbEntity
  8
0_Pen_No__1
  6
Above
100
AcDbLine
 10
725.8987298580871
 20
554.5223429327474
 30
0.0
 11
725.8987298580871
 21
584.5223427688716
 31
0.0
  0
LINE
  5
1B5
330
1F
100
AcDbEntity
  8
0_Pen_No__1
  6
Above
100
AcDbLine
 10
725.8987298580871
 20
554.5223429327474
 30
0.0
 11
682.5974597161711
 21
529.5223428508122
 31
0.0
  0
LINE
  5
1B6
330
1F
100
AcDbEntity
  8
0_Pen_No__1
  6
Continuous
100
AcDbLine
 10
682.5974597161711
 20
609.5223428508117
 30
0.0
 11
769.2
 21
559.5223426869337
 31
0.0
  0
LINE
  5
1B7
330
1F
100
AcDbEntity
  8
0_Pen_No__1
  6
Continuous
100
AcDbLine
 10
767.4679491943234
 20
556.0223426836565
 30
0.0
 11
767.4679491943234
 21
478.5223426836563
 31
0.0
  0
LINE
  5
1B8
330
1F
100
AcDbEntity
  8
0_Pen_No__1
  6
Continuous
100
AcDbLine
 10
712.0423235579971
 20
510.5223427046356
 30
0.0
 11
767.4679491943234
 21
478.5223426836563
 31
0.0
  0
LINE
  5
1B9
330
1F
100
AcDbEntity
  8
0_Pen_No__1
  6
Continuous
100
AcDbLine
 10
769.2
 20
479.5223426869336
 30
0.0
 11
767.4679491943234
 21
478.5223426836563
 31
0.0
  0
LINE
  5
1BA
330
1F
100
AcDbEntity
  8
0_Pen_No__1
  6
Above
100
AcDbLine
 10
680.8654089104945
 20
528.5223428475344
 30
0.0
 11
712.0423235579971
 21
510.5223427046356
 31
0.0
  0
LINE
  5
1BB
330
1F
100
AcDbEntity
  8
0_Pen_No__1
  6
Above
100
AcDbLine
 10
680.8654089104945
 20
528.5223428475344
 30
0.0
 11
680.8654089104945
 21
608.0223428475348
 31
0.0
  0
LINE
  5
1BD
330
1F
100
AcDbEntity
  8
0_Pen_No__1
  6
HIDDEN
100
AcDbLine
 10
689.0766281131055
 20
605.7815932163696
 30
0.0
 11
689.0766281131055
 21
523.7815932098146
 31
0.0
  0
LINE
  5
1BE
330
1F
100
AcDbEntity
  8
0_Pen_No__1
  6
HIDDEN
100
AcDbLine
 10
758.5688013214188
 20
565.6602681326442
 30
0.0
 11
758.5688013214188
 21
483.6602681260892
 31
0.0
  0
LINE
  5
1BF
330
1F
100
AcDbEntity
  8
0_Pen_No__1
  6
Continuous
100
AcDbLine
 10
682.5974597161711
 20
609.5223428508117
 30
0.0
 11
577.8803429308973
 21
529.0638870218766
 31
0.0
  0
LINE
  5
1C0
330
1F
100
AcDbEntity
  8
0_Pen_No__1
  6
Continuous
100
AcDbLine
 10
577.8803429308973
 20
469.0638870218765
 30
0.0
 11
534.5790727889809
 21
444.0638869399417
 31
0.0
  0
LINE
  5
1C1
330
1F
100
AcDbEntity
  8
0_Pen_No__1
  6
Continuous
100
AcDbLine
 10
664.4828832147261
 20
479.0638868579985
 30
0.0
 11
577.8803429308973
 21
529.0638870218766
 31
0.0
  0
LINE
  5
1C2
330
1F
100
AcDbEntity
  8
0_Pen_No__1
  6
Continuous
100
AcDbLine
 10
577.8803429308973
 20
469.0638870218765
 30
0.0
 11
664.4828832147261
 21
419.0638868579985
 31
0.0
  0
LINE
  5
1C3
330
1F
100
AcDbEntity
  8
0_Pen_No__1
  6
Continuous
100
AcDbLine
 10
577.8803429308973
 20
469.0638870218765
 30
0.0
 11
577.8803429308973
 21
529.0638870218766
 31
0.0
  0
LINE
  5
1C4
330
1F
100
AcDbEntity
  8
0_Pen_No__1
  6
Continuous
100
AcDbLine
 10
769.2
 20
559.5223426869337
 30
0.0
 11
664.4828832147261
 21
479.0638868579985
 31
0.0
  0
LINE
  5
1C5
330
1F
100
AcDbEntity
  8
0_Pen_No__1
  6
Continuous
100
AcDbLine
 10
664.4828832147261
 20
479.0638868579985
 30
0.0
 11
664.4828832147261
 21
419.0638868579985
 31
0.0
  0
LINE
  5
1C6
330
1F
100
AcDbEntity
  8
0_Pen_No__1
  6
Continuous
100
AcDbLine
 10
534.5790727889809
 20
574.0638869399415
 30
0.0
 11
725.8987298580871
 21
684.5223429327473
 31
0.0
  0
LINE
  5
1C7
330
1F
100
AcDbEntity
  8
0_Pen_No__1
  6
Continuous
100
AcDbLine
 10
534.5790727889809
 20
444.0638869399417
 30
0.0
 11
534.5790727889809
 21
574.0638869399415
 31
0.0
  0
LINE
  5
1C8
330
1F
100
AcDbEntity
  8
0_Pen_No__1
  6
Continuous
100
AcDbLine
 10
532.8470219833042
 20
575.0638869432189
 30
0.0
 11
724.1666790524105
 21
685.522342936025
 31
0.0
  0
LINE
  5
1C9
330
1F
100
AcDbEntity
  8
0_Pen_No__1
  6
Continuous
100
AcDbLine
 10
532.8470219833042
 20
445.063886943219
 30
0.0
 11
532.8470219833042
 21
575.0638869432189
 31
0.0
  0
LINE
  5
1CA
330
1F
100
AcDbEntity
  8
0_Pen_No__1
  6
Continuous
100
AcDbLine
 10
767.4679491943234
 20
556.0223426836565
 30
0.0
 11
666.2149340204028
 21
478.5638868612757
 31
0.0
  0
LINE
  5
1CB
330
1F
100
AcDbEntity
  8
0_Pen_No__1
  6
Continuous
100
AcDbLine
 10
666.2149340204028
 20
478.5638868612757
 30
0.0
 11
666.2149340204028
 21
420.0638868612757
 31
0.0
  0
LINE
  5
1CC
330
1F
100
AcDbEntity
  8
0_Pen_No__1
  6
Continuous
100
AcDbLine
 10
666.2149340204028
 20
420.0638868612757
 30
0.0
 11
664.4828832147261
 21
419.0638868579985
 31
0.0
  0
LINE
  5
1CD
330
1F
100
AcDbEntity
  8
0_Pen_No__1
  6
HIDDEN
100
AcDbLine
 10
584.3595113278316
 20
525.3231373874344
 30
0.0
 11
689.0766281131055
 21
605.7815932163696
 31
0.0
  0
LINE
  5
1CE
330
1F
100
AcDbEntity
  8
0_Pen_No__1
  6
HIDDEN
100
AcDbLine
 10
584.3595113278316
 20
465.3231373874344
 30
0.0
 11
584.3595113278316
 21
525.3231373874344
 31
0.0
  0
LINE
  5
1CF
330
1F
100
AcDbEntity
  8
0_Pen_No__1
  6
HIDDEN
100
AcDbLine
 10
653.8516845361459
 20
485.2018123037091
 30
0.0
 11
758.5688013214188
 21
565.6602681326442
 31
0.0
  0
LINE
  5
1D0
330
1F
100
AcDbEntity
  8
0_Pen_No__1
  6
HIDDEN
100
AcDbLine
 10
653.8516845361459
 20
425.201812303709
 30
0.0
 11
653.8516845361459
 21
485.2018123037091
 31
0.0
  0
LINE
  5
1D1
330
1F
100
AcDbEntity
  8
0_Pen_No__1
  6
Continuous
100
AcDbLine
 10
649.3274385501014
 20
377.8138868055586
 30
0.0
 11
636.337057493335
 21
385.3138868055587
 31
0.0
  0
LINE
  5
1D2
330
1F
100
AcDbEntity
  8
0_Pen_No__1
  6
Continuous
100
AcDbLine
 10
251.1473668231122
 20
505.3828158189817
 30
0.0
 11
285.7883829366451
 21
525.3828158845297
 31
0.0
  0
LINE
  5
1D3
330
1F
100
AcDbEntity
  8
0_Pen_No__1
  6
Continuous
100
AcDbLine
 10
207.8460966811994
 20
570.3828160320202
 30
0.0
 11
285.7883829366451
 21
525.3828158845297
 31
0.0
  0
LINE
  5
1D4
330
1F
100
AcDbEntity
  8
0_Pen_No__1
  6
Continuous
100
AcDbLine
 10
207.8460966811994
 20
570.3828160320202
 30
0.0
 11
173.2050805676665
 21
550.3828159664721
 31
0.0
  0
LINE
  5
1D5
330
1F
100
AcDbEntity
  8
0_Pen_No__1
  6
Continuous
100
AcDbLine
 10
69.28203222706652
 20
490.3828157698276
 30
0.0
 11
103.9230483405998
 21
510.3828158353761
 31
0.0
  0
LINE
  5
1D6
330
1F
100
AcDbEntity
  8
0_Pen_No__1
  6
Continuous
100
AcDbLine
 10
69.28203222706652
 20
490.3828157698276
 30
0.0
 11
147.2243184825123
 21
445.3828156223371
 31
0.0
  0
LINE
  5
1D7
330
1F
100
AcDbEntity
  8
0_Pen_No__1
  6
Continuous
100
AcDbLine
 10
181.8653345960452
 20
465.3828156878852
 30
0.0
 11
216.5063507095785
 21
485.3828157534335
 31
0.0
  0
LINE
  5
1D8
330
1F
100
AcDbEntity
  8
0_Pen_No__1
  6
Continuous
100
AcDbLine
 10
147.2243184825123
 20
445.3828156223371
 30
0.0
 11
181.8653345960452
 21
465.3828156878852
 31
0.0
  0
LINE
  5
1D9
330
1F
100
AcDbEntity
  8
0_Pen_No__1
  6
Continuous
100
AcDbLine
 10
360.3888592933727
 20
97.97320905547305
 30
0.0
 11
464.3119076339727
 21
197.9732092521176
 31
0.0
  0
LINE
  5
1DA
330
1F
100
AcDbEntity
  8
0_Pen_No__1
  6
Continuous
100
AcDbLine
 10
360.3888592933727
 20
117.9732090554731
 30
0.0
 11
464.3119076339727
 21
157.9732092521176
 31
0.0
  0
LINE
  5
1DB
330
1F
100
AcDbEntity
  8
0_Pen_No__1
  6
Continuous
100
AcDbLine
 10
360.3888592933727
 20
97.97320905547305
 30
0.0
 11
464.3119076339727
 21
157.9732092521176
 31
0.0
  0
LINE
  5
1DC
330
1F
100
AcDbEntity
  8
0_Pen_No__1
  6
Continuous
100
AcDbLine
 10
103.9230483405998
 20
510.3828158353761
 30
0.0
 11
181.8653345960452
 21
465.3828156878852
 31
0.0
  0
LINE
  5
1DD
330
1F
100
AcDbEntity
  8
0_Pen_No__1
  6
Continuous
100
AcDbLine
 10
360.3888592933727
 20
117.9732090554731
 30
0.0
 11
360.3888592933727
 21
97.97320905547305
 31
0.0
  0
LINE
  5
1DE
330
1F
100
AcDbEntity
  8
0_Pen_No__1
  6
Continuous
100
AcDbLine
 10
173.2050805676665
 20
550.3828159664721
 30
0.0
 11
173.2050805676665
 21
510.3828158353716
 31
0.0
  0
LINE
  5
1DF
330
1F
100
AcDbEntity
  8
0_Pen_No__1
  6
Continuous
100
AcDbLine
 10
69.28203222706652
 20
450.382815638727
 30
0.0
 11
69.28203222706652
 21
490.3828157698276
 31
0.0
  0
LINE
  5
1E0
330
1F
100
AcDbEntity
  8
0_Pen_No__1
  6
Continuous
100
AcDbLine
 10
34.64101611353332
 20
470.3828157042796
 30
0.0
 11
77.9422862554452
 21
405.3828154912411
 31
0.0
  0
LINE
  5
1E1
330
1F
100
AcDbEntity
  8
0_Pen_No__1
  6
Continuous
100
AcDbLine
 10
0.0
 20
450.3828156387313
 30
0.0
 11
112.5833023689785
 21
425.3828155567891
 31
0.0
  0
LINE
  5
1E2
330
1F
100
AcDbEntity
  8
0_Pen_No__1
  6
Continuous
100
AcDbLine
 10
138.5640644541332
 20
530.382815900924
 30
0.0
 11
181.8653345960452
 21
465.3828156878852
 31
0.0
  0
LINE
  5
1E3
330
1F
100
AcDbEntity
  8
0_Pen_No__1
  6
Continuous
100
AcDbLine
 10
103.9230483405998
 20
510.3828158353761
 30
0.0
 11
216.5063507095785
 21
485.3828157534335
 31
0.0
  0
LINE
  5
1E4
330
1F
100
AcDbEntity
  8
0_Pen_No__1
  6
Continuous
100
AcDbLine
 10
103.9230483405998
 20
510.3828158353761
 30
0.0
 11
147.2243184825123
 21
445.3828156223371
 31
0.0
  0
LINE
  5
1E5
330
1F
100
AcDbEntity
  8
0_Pen_No__1
  6
Continuous
100
AcDbLine
 10
69.28203222706652
 20
490.3828157698276
 30
0.0
 11
181.8653345960452
 21
465.3828156878852
 31
0.0
  0
LINE
  5
1E6
330
1F
100
AcDbEntity
  8
0_Pen_No__1
  6
Continuous
100
AcDbLine
 10
207.8460966811989
 20
570.3828160320202
 30
0.0
 11
251.1473668231122
 21
505.3828158189817
 31
0.0
  0
LINE
  5
1E7
330
1F
100
AcDbEntity
  8
0_Pen_No__1
  6
Continuous
100
AcDbLine
 10
173.2050805676665
 20
550.3828159664721
 30
0.0
 11
285.7883829366451
 21
525.3828158845297
 31
0.0
  0
LINE
  5
1E8
330
1F
100
AcDbEntity
  8
0_Pen_No__1
  6
Continuous
100
AcDbLine
 10
112.5833023689785
 20
-25.00000008194236
 30
0.0
 11
77.9422862554452
 21
-45.0000001474904
 31
0.0
  0
LINE
  5
1E9
330
1F
100
AcDbEntity
  8
0_Pen_No__1
  6
Continuous
100
AcDbLine
 10
0.0
 20
0.0
 30
0.0
 11
0.0
 21
129.320506746121
 31
0.0
  0
LINE
  5
1EA
330
1F
100
AcDbEntity
  8
0_Pen_No__1
  6
Continuous
100
AcDbLine
 10
0.0
 20
315.4578226800195
 30
0.0
 11
0.0
 21
450.3828156387313
 31
0.0
  0
LINE
  5
1EB
330
1F
100
AcDbEntity
  8
0_Pen_No__1
  6
Continuous
100
AcDbLine
 10
216.5063507095785
 20
452.3991024295531
 30
0.0
 11
216.5063507095785
 21
485.3828157534335
 31
0.0
  0
LINE
  5
1EC
330
1F
100
AcDbEntity
  8
0_Pen_No__1
  6
Continuous
100
AcDbLine
 10
77.9422862554452
 20
381.5549723292131
 30
0.0
 11
77.9422862554452
 21
405.3828154912411
 31
0.0
  0
LINE
  5
1ED
330
1F
100
AcDbEntity
  8
0_Pen_No__1
  6
Continuous
100
AcDbLine
 10
112.5833023689785
 20
397.9388890396822
 30
0.0
 11
112.5833023689785
 21
425.3828155567891
 31
0.0
  0
LINE
  5
1EE
330
1F
100
AcDbEntity
  8
0_Pen_No__1
  6
Continuous
100
AcDbLine
 10
147.2243184825123
 20
417.5879664749389
 30
0.0
 11
147.2243184825123
 21
445.3828156223371
 31
0.0
  0
LINE
  5
1EF
330
1F
100
AcDbEntity
  8
0_Pen_No__1
  6
Continuous
100
AcDbLine
 10
181.8653345960452
 20
440.3819043898727
 30
0.0
 11
181.8653345960452
 21
465.3828156878852
 31
0.0
  0
LINE
  5
1F0
330
1F
100
AcDbEntity
  8
0_Pen_No__1
  6
Continuous
100
AcDbLine
 10
112.5833023689785
 20
-25.00000008194236
 30
0.0
 11
112.5833023689785
 21
-21.33656380616689
 31
0.0
  0
LINE
  5
1F1
330
1F
100
AcDbEntity
  8
0_Pen_No__1
  6
Continuous
100
AcDbLine
 10
88.07277179397744
 20
-35.487725293464
 30
0.0
 11
72.48431454288784
 21
-26.48772526396614
 31
0.0
  0
LINE
  5
1F2
330
1F
100
AcDbEntity
  8
0_Pen_No__1
  6
Continuous
100
AcDbLine
 10
77.9422862554452
 20
-45.0000001474904
 30
0.0
 11
77.9422862554452
 21
-29.63888671521131
 31
0.0
  0
LINE
  5
1F3
330
1F
100
AcDbEntity
  8
0_Pen_No__1
  6
Continuous
100
AcDbLine
 10
356.3963177631945
 20
120.2783040582962
 30
0.0
 11
360.3888593614947
 21
117.9732090816932
 31
0.0
  0
LINE
  5
1F4
330
1F
100
AcDbEntity
  8
0_Pen_No__1
  6
Continuous
100
AcDbLine
 10
173.2050805676665
 20
550.3828159664721
 30
0.0
 11
251.1473668231122
 21
505.3828158189817
 31
0.0
  0
LINE
  5
1F5
330
1F
100
AcDbEntity
  8
0_Pen_No__1
  6
Continuous
100
AcDbLine
 10
34.64101611353332
 20
470.3828157042796
 30
0.0
 11
112.5833023689785
 21
425.3828155567891
 31
0.0
  0
LINE
  5
1F6
330
1F
100
AcDbEntity
  8
0_Pen_No__1
  6
Continuous
100
AcDbLine
 10
0.0
 20
450.3828156387313
 30
0.0
 11
34.64101611353332
 21
470.3828157042796
 31
0.0
  0
LINE
  5
1F7
330
1F
100
AcDbEntity
  8
0_Pen_No__1
  6
Continuous
100
AcDbLine
 10
0.0
 20
450.3828156387313
 30
0.0
 11
77.9422862554452
 21
405.3828154912411
 31
0.0
  0
LINE
  5
1F8
330
1F
100
AcDbEntity
  8
0_Pen_No__1
  6
Continuous
100
AcDbLine
 10
77.9422862554452
 20
405.3828154912411
 30
0.0
 11
112.5833023689785
 21
425.3828155567891
 31
0.0
  0
LINE
  5
1F9
330
1F
100
AcDbEntity
  8
0_Pen_No__1
  6
Continuous
100
AcDbLine
 10
464.3119076339727
 20
197.9732092521176
 30
0.0
 11
360.3888592933727
 21
117.9732090554731
 31
0.0
  0
LINE
  5
1FA
330
1F
100
AcDbEntity
  8
0_Pen_No__1
  6
Continuous
100
AcDbLine
 10
138.5640644541332
 20
530.382815900924
 30
0.0
 11
103.9230483405998
 21
510.3828158353761
 31
0.0
  0
LINE
  5
1FB
330
1F
100
AcDbEntity
  8
0_Pen_No__1
  6
Continuous
100
AcDbLine
 10
138.5640644541332
 20
530.382815900924
 30
0.0
 11
216.5063507095785
 21
485.3828157534335
 31
0.0
  0
LINE
  5
1FC
330
1F
100
AcDbEntity
  8
0_Pen_No__1
  6
Above
100
AcDbLine
 10
174.6735271563294
 20
165.1960065260088
 30
0.0
 11
174.6735271563294
 21
165.5873790692688
 31
0.0
  0
LINE
  5
1FE
330
1F
100
AcDbEntity
  8
0_Pen_No__1
  6
DASHED2
100
AcDbLine
 10
152.8116516699239
 20
180.3283424612756
 30
0.0
 11
109.5103815280075
 21
155.3283423793413
 31
0.0
  0
LINE
  5
1FF
330
1F
100
AcDbEntity
  8
0_Pen_No__1
  6
DASHED2
100
AcDbLine
 10
109.5103815280075
 20
155.3283423793413
 30
0.0
 11
109.5103815280075
 21
269.2756963105376
 31
0.0
  0
LINE
  5
200
330
1F
100
AcDbEntity
  8
0_Pen_No__1
  6
DASHED2
100
AcDbLine
 10
318.4192549664265
 20
389.8892911533745
 30
0.0
 11
109.5103815280075
 21
269.2756963105376
 31
0.0
  0
LINE
  5
201
330
1F
100
AcDbEntity
  8
0_Pen_No__1
  6
DASHED2
100
AcDbLine
 10
318.4192549664274
 20
286.0837912898675
 30
0.0
 11
275.1179848245097
 21
261.0837912079331
 31
0.0
  0
LINE
  5
202
330
1F
100
AcDbEntity
  8
0_Pen_No__1
  6
DASHED2
100
AcDbLine
 10
318.4192549664265
 20
389.8892911533745
 30
0.0
 11
318.4192549664274
 21
286.0837912898675
 31
0.0
  0
LINE
  5
203
330
1F
100
AcDbEntity
  8
0_Pen_No__1
  6
Continuous
100
AcDbLine
 10
67.6560934809286
 20
331.2696489279898
 30
0.0
 11
102.4494041823844
 21
351.8616083227291
 31
0.0
  0
LINE
  5
204
330
1F
100
AcDbEntity
  8
0_Pen_No__1
  6
Continuous
100
AcDbLine
 10
102.4494041823844
 20
351.8616083227291
 30
0.0
 11
143.6333229718637
 21
353.2817434534006
 31
0.0
  0
LINE
  5
205
330
1F
100
AcDbEntity
  8
0_Pen_No__1
  6
Continuous
100
AcDbLine
 10
143.6333229718637
 20
353.2817434534006
 30
0.0
 11
200.4387281987302
 21
373.8737028481398
 31
0.0
  0
LINE
  5
206
330
1F
100
AcDbEntity
  8
0_Pen_No__1
  6
Continuous
100
AcDbLine
 10
200.4387281987302
 20
373.8737028481398
 30
0.0
 11
243.7528496842164
 21
398.0160000695583
 31
0.0
  0
LINE
  5
207
330
1F
100
AcDbEntity
  8
0_Pen_No__1
  6
Continuous
100
AcDbLine
 10
243.7528496842164
 20
398.0160000695583
 30
0.0
 11
287.7770387350383
 21
417.187824333626
 31
0.0
  0
LINE
  5
208
330
1F
100
AcDbEntity
  8
0_Pen_No__1
  6
Continuous
100
AcDbLine
 10
287.7770387350383
 20
417.187824333626
 30
0.0
 11
305.5287278684341
 21
419.3180270296337
 31
0.0
  0
LINE
  5
209
330
1F
100
AcDbEntity
  8
0_Pen_No__1
  6
Continuous
100
AcDbLine
 10
305.5287278684341
 20
419.3180270296337
 30
0.0
 11
328.9609575245168
 21
429.969040509671
 31
0.0
  0
LINE
  5
20A
330
1F
100
AcDbEntity
  8
0_Pen_No__1
  6
Continuous
100
AcDbLine
 10
73.71827128093223
 20
327.7696489279869
 30
0.0
 11
108.511581982388
 21
348.3616083227266
 31
0.0
  0
LINE
  5
20B
330
1F
100
AcDbEntity
  8
0_Pen_No__1
  6
Continuous
100
AcDbLine
 10
108.511581982388
 20
348.3616083227266
 30
0.0
 11
149.6955007718673
 21
349.7817434533981
 31
0.0
  0
LINE
  5
20C
330
1F
100
AcDbEntity
  8
0_Pen_No__1
  6
Continuous
100
AcDbLine
 10
149.6955007718673
 20
349.7817434533981
 30
0.0
 11
206.5009059987338
 21
370.3737028481373
 31
0.0
  0
LINE
  5
20D
330
1F
100
AcDbEntity
  8
0_Pen_No__1
  6
Continuous
100
AcDbLine
 10
206.5009059987338
 20
370.3737028481373
 30
0.0
 11
249.81502748422
 21
394.5160000695558
 31
0.0
  0
LINE
  5
20E
330
1F
100
AcDbEntity
  8
0_Pen_No__1
  6
Continuous
100
AcDbLine
 10
249.81502748422
 20
394.5160000695558
 30
0.0
 11
293.8392165350415
 21
413.6878243336235
 31
0.0
  0
LINE
  5
20F
330
1F
100
AcDbEntity
  8
0_Pen_No__1
  6
Continuous
100
AcDbLine
 10
293.8392165350415
 20
413.6878243336235
 30
0.0
 11
311.5909056684377
 21
415.8180270296308
 31
0.0
  0
LINE
  5
210
330
1F
100
AcDbEntity
  8
0_Pen_No__1
  6
Continuous
100
AcDbLine
 10
311.5909056684377
 20
415.8180270296308
 30
0.0
 11
335.02313532452
 21
426.4690405096685
 31
0.0
  0
LINE
  5
211
330
1F
100
AcDbEntity
  8
0_Pen_No__1
  6
Continuous
100
AcDbLine
 10
328.9609575245168
 20
429.969040509671
 30
0.0
 11
335.02313532452
 21
426.4690405096685
 31
0.0
  0
LINE
  5
212
330
1F
100
AcDbEntity
  8
0_Pen_No__1
  6
Continuous
100
AcDbLine
 10
364.2548298237845
 20
368.2801215710087
 30
0.0
 11
361.9128301512829
 21
340.6801978063934
 31
0.0
  0
LINE
  5
213
330
1F
100
AcDbEntity
  8
0_Pen_No__1
  6
Continuous
100
AcDbLine
 10
361.9128301512829
 20
340.6801978063934
 30
0.0
 11
360.8932699156487
 21
319.6557823821315
 31
0.0
  0
LINE
  5
214
330
1F
100
AcDbEntity
  8
0_Pen_No__1
  6
Continuous
100
AcDbLine
 10
360.8932699156487
 20
319.6557823821315
 30
0.0
 11
359.8659730907991
 21
303.2190331845428
 31
0.0
  0
LINE
  5
215
330
1F
100
AcDbEntity
  8
0_Pen_No__1
  6
Continuous
100
AcDbLine
 10
122.7128954467725
 20
206.6441847547411
 30
0.0
 11
124.4449462524492
 21
205.8437270203828
 31
0.0
  0
LINE
  5
216
330
1F
100
AcDbEntity
  8
0_Pen_No__1
  6
Continuous
100
AcDbLine
 10
103.6031531856149
 20
-26.52125537720185
 30
0.0
 11
105.3341442521053
 21
-20.36662020598579
 31
0.0
  0
LINE
  5
217
330
1F
100
AcDbEntity
  8
0_Pen_No__1
  6
Continuous
100
AcDbLine
 10
105.3341442521053
 20
-20.36662020598579
 30
0.0
 11
105.3341442521053
 21
-31.69574282388199
 31
0.0
  0
LINE
  5
218
330
1F
100
AcDbEntity
  8
0_Pen_No__1
  6
Continuous
100
AcDbLine
 10
105.3341442521053
 20
-31.69574282388199
 30
0.0
 11
107.088104546936
 21
-24.50921776183801
 31
0.0
  0
LINE
  5
219
330
1F
100
AcDbEntity
  8
0_Pen_No__1
  6
Continuous
100
AcDbLine
 10
88.07277179397744
 20
-35.487725293464
 30
0.0
 11
103.6031531856153
 21
-26.52125537720185
 31
0.0
  0
LINE
  5
21A
330
1F
100
AcDbEntity
  8
0_Pen_No__1
  6
Continuous
100
AcDbLine
 10
107.0881045469355
 20
-24.50921776183801
 30
0.0
 11
122.7137879075107
 21
-15.48772522791575
 31
0.0
  0
LINE
  5
21B
330
1F
100
AcDbEntity
  8
0_Pen_No__1
  6
Continuous
100
AcDbLine
 10
30.84052556015937
 20
-17.80578581192049
 30
0.0
 11
31.69484723578186
 21
-13.9365776390723
 31
0.0
  0
LINE
  5
21C
330
1F
100
AcDbEntity
  8
0_Pen_No__1
  6
Continuous
100
AcDbLine
 10
31.69484723578186
 20
-13.9365776390723
 30
0.0
 11
31.69484723578186
 21
-23.12235273466356
 31
0.0
  0
LINE
  5
21D
330
1F
100
AcDbEntity
  8
0_Pen_No__1
  6
Continuous
100
AcDbLine
 10
31.69484723578186
 20
-23.12235273466356
 30
0.0
 11
32.84579192855608
 21
-18.96352689457115
 31
0.0
  0
LINE
  5
21E
330
1F
100
AcDbEntity
  8
0_Pen_No__1
  6
Continuous
100
AcDbLine
 10
32.84579192855608
 20
-18.96352689457048
 30
0.0
 11
77.9422862554452
 21
-45.0000001474904
 31
0.0
  0
LINE
  5
21F
330
1F
100
AcDbEntity
  8
0_Pen_No__1
  6
Continuous
100
AcDbLine
 10
0.0
 20
0.0
 30
0.0
 11
30.84052556015937
 21
-17.80578581192049
 31
0.0
  0
LINE
  5
220
330
1F
100
AcDbEntity
  8
0_Pen_No__1
  6
Continuous
100
AcDbLine
 10
88.07277179397698
 20
349.7942345651248
 30
0.0
 11
72.48431454288784
 21
358.7942345946225
 31
0.0
  0
LINE
  5
221
330
1F
100
AcDbEntity
  8
0_Pen_No__1
  6
Continuous
100
AcDbLine
 10
282.4013927603758
 20
479.9899167405992
 30
0.0
 11
247.760376646842
 21
459.9899166750512
 31
0.0
  0
LINE
  5
222
330
1F
100
AcDbEntity
  8
0_Pen_No__1
  6
Continuous
100
AcDbLine
 10
282.4013927603758
 20
479.9899167405992
 30
0.0
 11
263.3488338979307
 21
450.9899166455529
 31
0.0
  0
LINE
  5
223
330
1F
100
AcDbEntity
  8
0_Pen_No__1
  6
Continuous
100
AcDbLine
 10
247.760376646842
 20
459.9899166750512
 30
0.0
 11
297.9898500114641
 21
470.9899167111012
 31
0.0
  0
LINE
  5
224
330
1F
100
AcDbEntity
  8
0_Pen_No__1
  6
Continuous
100
AcDbLine
 10
107.1253306564212
 20
378.7942346601707
 30
0.0
 11
88.07277179397698
 21
349.7942345651248
 31
0.0
  0
LINE
  5
225
330
1F
100
AcDbEntity
  8
0_Pen_No__1
  6
Continuous
100
AcDbLine
 10
72.48431454288784
 20
358.7942345946229
 30
0.0
 11
122.7137879075099
 21
369.7942346306729
 31
0.0
  0
LINE
  5
226
330
1F
100
AcDbEntity
  8
0_Pen_No__1
  6
Continuous
100
AcDbLine
 10
307.9061589529116
 20
420.3986775225779
 30
0.0
 11
297.9898500114641
 21
424.1096923684094
 31
0.0
  0
LINE
  5
227
330
1F
100
AcDbEntity
  8
0_Pen_No__1
  6
Continuous
100
AcDbLine
 10
107.1253306564212
 20
378.7942346601707
 30
0.0
 11
72.48431454288784
 21
358.7942345946229
 31
0.0
  0
LINE
  5
228
330
1F
100
AcDbEntity
  8
0_Pen_No__1
  6
Continuous
100
AcDbLine
 10
88.07277179397698
 20
349.7942345651248
 30
0.0
 11
122.7137879075099
 21
369.7942346306729
 31
0.0
  0
LINE
  5
229
330
1F
100
AcDbEntity
  8
0_Pen_No__1
  6
Continuous
100
AcDbLine
 10
122.7137879075099
 20
369.7942346306729
 30
0.0
 11
107.1253306564212
 21
378.7942346601707
 31
0.0
  0
LINE
  5
22A
330
1F
100
AcDbEntity
  8
0_Pen_No__1
  6
Continuous
100
AcDbLine
 10
297.9898500114641
 20
470.9899167111012
 30
0.0
 11
282.4013927603758
 21
479.9899167405992
 31
0.0
  0
LINE
  5
22B
330
1F
100
AcDbEntity
  8
0_Pen_No__1
  6
Continuous
100
AcDbLine
 10
263.3488338979307
 20
450.9899166455529
 30
0.0
 11
297.9898500114641
 21
470.9899167111012
 31
0.0
  0
LINE
  5
22C
330
1F
100
AcDbEntity
  8
0_Pen_No__1
  6
Continuous
100
AcDbLine
 10
247.760376646842
 20
399.7612134242499
 30
0.0
 11
247.760376646842
 21
459.9899166750507
 31
0.0
  0
LINE
  5
22D
330
1F
100
AcDbEntity
  8
0_Pen_No__1
  6
Continuous
100
AcDbLine
 10
263.3488338979307
 20
406.5497351303695
 30
0.0
 11
263.3488338979307
 21
450.9899166455529
 31
0.0
  0
LINE
  5
22E
330
1F
100
AcDbEntity
  8
0_Pen_No__1
  6
Continuous
100
AcDbLine
 10
297.9898500114641
 20
418.4133616867971
 30
0.0
 11
297.9898500114641
 21
470.9899167111012
 31
0.0
  0
LINE
  5
22F
330
1F
100
AcDbEntity
  8
0_Pen_No__1
  6
Continuous
100
AcDbLine
 10
72.48431454288784
 20
334.1271675156796
 30
0.0
 11
72.48431454288784
 21
358.7942345946225
 31
0.0
  0
LINE
  5
230
330
1F
100
AcDbEntity
  8
0_Pen_No__1
  6
Continuous
100
AcDbLine
 10
122.7137879075099
 20
352.5603801753197
 30
0.0
 11
122.7137879075099
 21
369.7942346306729
 31
0.0
  0
LINE
  5
231
330
1F
100
AcDbEntity
  8
0_Pen_No__1
  6
Continuous
100
AcDbLine
 10
88.07277179397698
 20
343.3529891540794
 30
0.0
 11
88.07277179397698
 21
349.7942345651248
 31
0.0
  0
LINE
  5
232
330
1F
100
AcDbEntity
  8
0_Pen_No__1
  6
Continuous
100
AcDbLine
 10
263.3488338979307
 20
450.9899166455529
 30
0.0
 11
247.760376646842
 21
459.9899166750512
 31
0.0
  0
LINE
  5
233
330
1F
100
AcDbEntity
  8
0_Pen_No__1
  6
Continuous
100
AcDbLine
 10
285.7883829366451
 20
478.0344370420413
 30
0.0
 11
285.7883829366451
 21
525.3828158845297
 31
0.0
  0
LINE
  5
234
330
1F
100
AcDbEntity
  8
0_Pen_No__1
  6
Continuous
100
AcDbLine
 10
251.1473668231122
 20
461.9453963736082
 30
0.0
 11
251.1473668231122
 21
505.3828158189817
 31
0.0
  0
LINE
  5
235
330
1F
100
AcDbEntity
  8
0_Pen_No__1
  6
Continuous
100
AcDbLine
 10
333.809770644513
 20
51.14073241714048
 30
0.0
 11
141.5344064921235
 21
162.1509661541807
 31
0.0
  0
LINE
  5
236
330
1F
100
AcDbEntity
  8
0_Pen_No__1
  6
Continuous
100
AcDbLine
 10
336.2733806226233
 20
57.28765976177599
 30
0.0
 11
143.9980164702338
 21
168.2978934988158
 31
0.0
  0
LINE
  5
237
330
1F
100
AcDbEntity
  8
0_Pen_No__1
  6
Continuous
100
AcDbLine
 10
143.9980164702338
 20
218.2978934988158
 30
0.0
 11
336.2733806226233
 21
107.2876597617758
 31
0.0
  0
LINE
  5
238
330
1F
100
AcDbEntity
  8
0_Pen_No__1
  6
Continuous
100
AcDbLine
 10
135.7032765319274
 20
214.144184803905
 30
0.0
 11
109.7234069075145
 21
199.1447000171936
 31
0.0
  0
LINE
  5
239
330
1F
100
AcDbEntity
  8
0_Pen_No__1
  6
DASHED2
100
AcDbLine
 10
158.5739328743462
 20
152.3131909675482
 30
0.0
 11
158.5739328743462
 21
200.9398051503624
 31
0.0
  0
LINE
  5
23A
330
1F
100
AcDbEntity
  8
0_Pen_No__1
  6
Continuous
100
AcDbLine
 10
143.9980164702338
 20
209.3552144467377
 30
0.0
 11
135.7032765319274
 21
214.144184803905
 31
0.0
  0
LINE
  5
23B
330
1F
100
AcDbEntity
  8
0_Pen_No__1
  6
DASHED2
100
AcDbLine
 10
158.5739328743462
 20
200.9398051503619
 30
0.0
 11
143.9980164702338
 21
209.3552144467377
 31
0.0
  0
LINE
  5
23C
330
1F
100
AcDbEntity
  8
0_Pen_No__1
  6
Continuous
100
AcDbLine
 10
143.9980164702338
 20
207.5547567091016
 30
0.0
 11
135.7032765319274
 21
212.3437270662692
 31
0.0
  0
LINE
  5
23D
330
1F
100
AcDbEntity
  8
0_Pen_No__1
  6
Continuous
100
AcDbLine
 10
135.7032765319274
 20
212.3437270662692
 30
0.0
 11
111.4545652524538
 21
198.3437270203856
 31
0.0
  0
LINE
  5
23E
330
1F
100
AcDbEntity
  8
0_Pen_No__1
  6
Continuous
100
AcDbLine
 10
336.2733806226233
 20
107.2876597617758
 30
0.0
 11
336.2733806226233
 21
57.28765976177599
 31
0.0
  0
LINE
  5
23F
330
1F
100
AcDbEntity
  8
0_Pen_No__1
  6
Continuous
100
AcDbLine
 10
336.2733806226233
 20
57.28765976177599
 30
0.0
 11
333.809770644513
 21
51.14073241714048
 31
0.0
  0
LINE
  5
240
330
1F
100
AcDbEntity
  8
0_Pen_No__1
  6
Continuous
100
AcDbLine
 10
143.9980164702338
 20
168.2978934988158
 30
0.0
 11
141.5344064921235
 21
162.1509661541807
 31
0.0
  0
LINE
  5
241
330
1F
100
AcDbEntity
  8
0_Pen_No__1
  6
Continuous
100
AcDbLine
 10
143.9980164702338
 20
218.2978934988158
 30
0.0
 11
143.9980164702338
 21
168.2978934988158
 31
0.0
  0
LINE
  5
242
330
1F
100
AcDbEntity
  8
0_Pen_No__1
  6
Continuous
100
AcDbLine
 10
360.3888592933727
 20
117.9732090554731
 30
0.0
 11
354.7876218215897
 21
121.2070850317346
 31
0.0
  0
LINE
  5
243
330
1F
100
AcDbEntity
  8
0_Pen_No__1
  6
Continuous
100
AcDbLine
 10
488.8739539803665
 20
166.3083559266565
 30
0.0
 11
491.3375639584768
 21
160.161428582021
 31
0.0
  0
LINE
  5
244
330
1F
100
AcDbEntity
  8
0_Pen_No__1
  6
Continuous
100
AcDbLine
 10
488.8739539803665
 20
219.6539104182107
 30
0.0
 11
488.8739539803665
 21
166.3083559266565
 31
0.0
  0
LINE
  5
245
330
1F
100
AcDbEntity
  8
0_Pen_No__1
  6
Continuous
100
AcDbLine
 10
488.8739539803665
 20
219.6539104182107
 30
0.0
 11
336.2733806226233
 21
107.2876597617758
 31
0.0
  0
LINE
  5
246
330
1F
100
AcDbEntity
  8
0_Pen_No__1
  6
Continuous
100
AcDbLine
 10
488.8739539803665
 20
219.6539104182107
 30
0.0
 11
292.9084678501058
 21
332.7946370818271
 31
0.0
  0
LINE
  5
247
330
1F
100
AcDbEntity
  8
0_Pen_No__1
  6
Continuous
100
AcDbLine
 10
292.9084678501058
 20
332.7946370818271
 30
0.0
 11
143.9980164702338
 21
218.2978934988158
 31
0.0
  0
LINE
  5
248
330
1F
100
AcDbEntity
  8
0_Pen_No__1
  6
DASHED2
100
AcDbLine
 10
284.8904468424188
 20
331.3447151634894
 30
0.0
 11
284.8904468424192
 21
268.5978042773378
 31
0.0
  0
LINE
  5
249
330
1F
100
AcDbEntity
  8
0_Pen_No__1
  6
Continuous
100
AcDbLine
 10
290.1583132207576
 20
328.3033110786096
 30
0.0
 11
284.8904468424188
 21
331.3447151634894
 31
0.0
  0
LINE
  5
24A
330
1F
100
AcDbEntity
  8
0_Pen_No__1
  6
DASHED2
100
AcDbLine
 10
290.1583132207576
 20
328.3033110786096
 30
0.0
 11
371.4929871262481
 21
281.3447149996109
 31
0.0
  0
LINE
  5
24B
330
1F
100
AcDbEntity
  8
0_Pen_No__1
  6
DASHED2
100
AcDbLine
 10
371.4929871262481
 20
281.3447149996109
 30
0.0
 11
371.4929871262481
 21
218.5978041134587
 31
0.0
  0
LINE
  5
24C
330
1F
100
AcDbEntity
  8
0_Pen_No__1
  6
DASHED2
100
AcDbLine
 10
371.4929871262481
 20
218.5978041134587
 30
0.0
 11
284.8904468424192
 21
268.5978042773378
 31
0.0
  0
LINE
  5
24D
330
1F
100
AcDbEntity
  8
0_Pen_No__1
  6
HIDDEN
100
AcDbLine
 10
363.042382023603
 20
286.2236741517598
 30
0.0
 11
363.042382023603
 21
223.4767632656079
 31
0.0
  0
LINE
  5
24E
330
1F
100
AcDbEntity
  8
0_Pen_No__1
  6
HIDDEN
100
AcDbLine
 10
295.4541049020432
 20
325.2457843124854
 30
0.0
 11
295.4541049020432
 21
262.4988734263338
 31
0.0
  0
LINE
  5
24F
330
1F
100
AcDbEntity
  8
0_Pen_No__1
  6
Continuous
100
AcDbLine
 10
146.7045091701314
 20
224.9834813391019
 30
0.0
 11
146.7045091701314
 21
175.6325812011084
 31
0.0
  0
LINE
  5
250
330
1F
100
AcDbEntity
  8
0_Pen_No__1
  6
DASHED2
100
AcDbLine
 10
151.9723755484698
 20
221.9420772542223
 30
0.0
 11
233.3070494539608
 21
174.9834811752236
 31
0.0
  0
LINE
  5
251
330
1F
100
AcDbEntity
  8
0_Pen_No__1
  6
DASHED2
100
AcDbLine
 10
233.3070494539608
 20
125.6325810372303
 30
0.0
 11
146.7045091701323
 21
175.6325812011084
 31
0.0
  0
LINE
  5
252
330
1F
100
AcDbEntity
  8
0_Pen_No__1
  6
Continuous
100
AcDbLine
 10
284.8904468424188
 20
331.3447151634894
 30
0.0
 11
146.7045091701314
 21
224.9834813391019
 31
0.0
  0
LINE
  5
253
330
1F
100
AcDbEntity
  8
0_Pen_No__1
  6
Continuous
100
AcDbLine
 10
146.7045091701314
 20
224.9834813391019
 30
0.0
 11
151.9723755484698
 21
221.9420772542223
 31
0.0
  0
LINE
  5
254
330
1F
100
AcDbEntity
  8
0_Pen_No__1
  6
DASHED2
100
AcDbLine
 10
233.3070494539608
 20
174.9779619303862
 30
0.0
 11
361.720525108339
 21
273.8307019302067
 31
0.0
  0
LINE
  5
255
330
1F
100
AcDbEntity
  8
0_Pen_No__1
  6
DASHED2
100
AcDbLine
 10
233.3070494539608
 20
125.6325810372303
 30
0.0
 11
233.3070494539608
 21
174.9779619303862
 31
0.0
  0
LINE
  5
256
330
1F
100
AcDbEntity
  8
0_Pen_No__1
  6
HIDDEN
100
AcDbLine
 10
224.856444351316
 20
179.857329449453
 30
0.0
 11
363.042382023603
 21
286.2236741517598
 31
0.0
  0
LINE
  5
257
330
1F
100
AcDbEntity
  8
0_Pen_No__1
  6
HIDDEN
100
AcDbLine
 10
224.8564443513156
 20
130.5115401893793
 30
0.0
 11
224.856444351316
 21
179.857329449453
 31
0.0
  0
LINE
  5
258
330
1F
100
AcDbEntity
  8
0_Pen_No__1
  6
HIDDEN
100
AcDbLine
 10
156.1770466517228
 20
218.0394912486699
 30
0.0
 11
295.4541049020432
 21
325.2457843124854
 31
0.0
  0
LINE
  5
259
330
1F
100
AcDbEntity
  8
0_Pen_No__1
  6
HIDDEN
100
AcDbLine
 10
156.1770466517228
 20
170.1636091123034
 30
0.0
 11
156.1770466517228
 21
218.0394912486699
 31
0.0
  0
LINE
  5
25A
330
1F
100
AcDbEntity
  8
0_Pen_No__1
  6
Continuous
100
AcDbLine
 10
360.3888592933727
 20
97.97320905547305
 30
0.0
 11
358.4327381616127
 21
99.1025761223974
 31
0.0
  0
LINE
  5
25B
330
1F
100
AcDbEntity
  8
0_Pen_No__1
  6
Continuous
100
AcDbLine
 10
358.4327381616122
 20
115.4736060487909
 30
0.0
 11
352.2433712553491
 21
119.0470387138518
 31
0.0
  0
LINE
  5
25C
330
1F
100
AcDbEntity
  8
0_Pen_No__1
  6
Continuous
100
AcDbLine
 10
377.7093673501398
 20
64.55882771752377
 30
0.0
 11
446.991399577206
 21
144.5588278486199
 31
0.0
  0
LINE
  5
25D
330
1F
100
AcDbEntity
  8
0_Pen_No__1
  6
Continuous
100
AcDbLine
 10
377.7093673501398
 20
104.5588277175238
 30
0.0
 11
446.991399577206
 21
104.5588278486198
 31
0.0
  0
LINE
  5
25E
330
1F
100
AcDbEntity
  8
0_Pen_No__1
  6
Continuous
100
AcDbLine
 10
377.7093673501398
 20
106.1962726489079
 30
0.0
 11
377.7093673501398
 21
67.97320908824724
 31
0.0
  0
LINE
  5
25F
330
1F
100
AcDbEntity
  8
0_Pen_No__1
  6
DASHED2
100
AcDbLine
 10
377.7093673501398
 20
106.1962726489079
 30
0.0
 11
446.991399577206
 21
146.1962727800042
 31
0.0
  0
LINE
  5
260
330
1F
100
AcDbEntity
  8
0_Pen_No__1
  6
Continuous
100
AcDbLine
 10
446.991399577206
 20
146.1962727800042
 30
0.0
 11
446.991399577206
 21
107.9732092193435
 31
0.0
  0
LINE
  5
261
330
1F
100
AcDbEntity
  8
0_Pen_No__1
  6
DASHED2
100
AcDbLine
 10
446.991399577206
 20
107.9732092193435
 30
0.0
 11
446.991399577206
 21
-40.00296038449158
 31
0.0
  0
LINE
  5
262
330
1F
100
AcDbEntity
  8
0_Pen_No__1
  6
DASHED2
100
AcDbLine
 10
377.7093673501398
 20
67.97320908824724
 30
0.0
 11
377.7093673501398
 21
-80.00296034079254
 31
0.0
  0
LINE
  5
263
330
1F
100
AcDbEntity
  8
0_Pen_No__1
  6
Continuous
100
AcDbLine
 10
376.5798462204203
 20
103.196765040972
 30
0.0
 11
359.2331737244109
 21
54.23749184590057
 31
0.0
  0
LINE
  5
264
330
1F
100
AcDbEntity
  8
0_Pen_No__1
  6
Continuous
100
AcDbLine
 10
359.2331737244104
 20
93.18165896209132
 30
0.0
 11
376.5798462204203
 21
64.25259792478103
 31
0.0
  0
LINE
  5
265
330
1F
100
AcDbEntity
  8
0_Pen_No__1
  6
Continuous
100
AcDbLine
 10
448.5699712462367
 20
145.2929412213795
 30
0.0
 11
465.916643742246
 21
115.683678874873
 31
0.0
  0
LINE
  5
266
330
1F
100
AcDbEntity
  8
0_Pen_No__1
  6
Continuous
100
AcDbLine
 10
465.916643742246
 20
155.30804730026
 30
0.0
 11
448.5699712462371
 21
105.668572795993
 31
0.0
  0
LINE
  5
267
330
1F
100
AcDbEntity
  8
0_Pen_No__1
  6
Continuous
100
AcDbLine
 10
534.5790727889809
 20
444.0638869399417
 30
0.0
 11
532.8470219833042
 21
445.063886943219
 31
0.0
  0
LINE
  5
268
330
1F
100
AcDbEntity
  8
0_Pen_No__1
  6
Continuous
100
AcDbLine
 10
534.5790727889809
 20
574.0638869399415
 30
0.0
 11
532.8470219833042
 21
575.0638869432189
 31
0.0
  0
LINE
  5
269
330
1F
100
AcDbEntity
  8
0_Pen_No__1
  6
Continuous
100
AcDbLine
 10
725.8987298580871
 20
684.5223429327473
 30
0.0
 11
724.1666790524105
 21
685.522342936025
 31
0.0
  0
LINE
  5
26A
330
1F
100
AcDbEntity
  8
0_Pen_No__1
  6
Continuous
100
AcDbLine
 10
692.628708786628
 20
402.8138868328704
 30
0.0
 11
679.6383277298615
 21
410.3138868328704
 31
0.0
  0
LINE
  5
26B
330
1F
100
AcDbEntity
  8
0_Pen_No__1
  6
Continuous
100
AcDbLine
 10
741.0541744243145
 20
693.2723429873706
 30
0.0
 11
754.0445554810809
 21
700.7723429873706
 31
0.0
  0
LINE
  5
26C
330
1F
100
AcDbEntity
  8
0_Pen_No__1
  6
Continuous
100
AcDbLine
 10
741.0541744243145
 20
643.27234298737
 30
0.0
 11
754.0445554810809
 21
650.77234298737
 31
0.0
  0
ELLIPSE
  5
26D
330
1F
100
AcDbEntity
  8
0_Pen_No__1
  6
Continuous
100
AcDbEllipse
 10
276.2783000446757
 20
301.6115085763764
 30
0.0
 11
-5.482931648389762
 21
-3.169819859225479
 31
0.0
210
0.0
220
0.0
230
1.0
 40
0.6666666666666661
 41
0.0
 42
6.283185307179586
  0
ELLIPSE
  5
26E
330
1F
100
AcDbEntity
  8
0_Pen_No__1
  6
Continuous
100
AcDbEllipse
 10
230.9357396357051
 20
262.3436992608803
 30
0.0
 11
-5.482931648389762
 21
-3.169819859225479
 31
0.0
210
0.0
220
0.0
230
1.0
 40
0.6666666666666661
 41
0.0
 42
6.283185307179586
  0
ELLIPSE
  5
26F
330
1F
100
AcDbEntity
  8
0_Pen_No__1
  6
Continuous
100
AcDbEllipse
 10
189.6231288651417
 20
226.5659287196553
 30
0.0
 11
-5.482931648389762
 21
-3.169819859225479
 31
0.0
210
0.0
220
0.0
230
1.0
 40
0.6666666666666661
 41
0.0
 42
6.283185307179586
  0
ELLIPSE
  5
270
330
1F
100
AcDbEntity
  8
0_Pen_No__1
  6
Continuous
100
AcDbEllipse
 10
276.2783000446757
 20
301.6115085763764
 30
0.0
 11
-3.197192412115692
 21
-1.848376863254227
 31
0.0
210
0.0
220
0.0
230
1.0
 40
0.6666666666666671
 41
0.0
 42
6.283185307179586
  0
ELLIPSE
  5
271
330
1F
100
AcDbEntity
  8
0_Pen_No__1
  6
Continuous
100
AcDbEllipse
 10
189.6231288651417
 20
226.5659287196553
 30
0.0
 11
-3.197192412115692
 21
-1.848376863254227
 31
0.0
210
0.0
220
0.0
230
1.0
 40
0.6666666666666671
 41
0.0
 42
6.283185307179586
  0
ELLIPSE
  5
272
330
1F
100
AcDbEntity
  8
0_Pen_No__1
  6
Continuous
100
AcDbEllipse
 10
230.9357396357051
 20
262.3436992608803
 30
0.0
 11
-3.197192412115692
 21
-1.848376863254227
 31
0.0
210
0.0
220
0.0
230
1.0
 40
0.6666666666666671
 41
0.0
 42
6.283185307179586
  0
DIMENSION
  5
27D
330
1F
100
AcDbEntity
  8
0
  6
Continuous
100
AcDbDimension
  2
*D1
 10
686.1335182526237
 20
406.5638868426066
 30
0.0
 11
675.8034334922099
 21
381.8359257147563
 31
0.0
 70
   160
  1
50mm min
 71
     5
 42
-1.0
 53
30.00000010841584
  3
GENERATED_STYLE__1
100
AcDbAlignedDimension
 13
642.832248021718
 23
381.5638868055586
 33
0.0
 14
686.133518258245
 24
406.5638868328704
 34
0.0
 50
30.00000010841584
100
AcDbRotatedDimension
  0
DIMENSION
  5
28D
330
1F
100
AcDbEntity
  8
0
  6
Continuous
100
AcDbDimension
  2
*D3
 10
747.5493649526979
 20
697.0223429873706
 30
0.0
 11
763.799364915445
 21
670.526222352347
 31
0.0
 70
   160
  1
50mm min
 71
     5
 42
-1.0
 53
90.0
  3
GENERATED_STYLE__1
100
AcDbAlignedDimension
 13
747.5493649526979
 23
647.02234298737
 33
0.0
 14
747.5493649526979
 24
697.0223429873706
 34
0.0
 50
90.0
100
AcDbRotatedDimension
  0
DIMENSION
  5
297
330
1F
100
AcDbEntity
  8
0
  6
Continuous
100
AcDbDimension
  2
*D4
 10
599.5309780674653
 20
381.5638869350362
 30
0.0
 11
560.6047069469818
 21
414.1416099080821
 31
0.0
 70
   160
  1
100mm min
 71
     5
 42
-1.0
 53
329.9999998915791
  3
GENERATED_STYLE__2
100
AcDbAlignedDimension
 13
512.9284377486488
 23
431.563886911504
 33
0.0
 14
599.5309780728187
 24
381.5638869443088
 34
0.0
 50
329.9999998915791
100
AcDbRotatedDimension
  0
WIPEOUT
  5
299
330
1F
100
AcDbEntity
  8
Key_ Sections_Pen_No__1
  6
Wipeout_Contour
 48
2546.29250304106
 92
      296
310
28010000060000000C0000000E000000120000000C00000016000000000000C20C00000014000000010000006C0000000700000004000000BA8E7C3C72918040E0FDE1D47B7C1640000000000000000020F5E2A2D81D8740E0FDE1D47B7C1640000000000000000020F5E2A2D81D87402210F11CDF924FC000000000000000
310
00BA8E7C3C729180402210F11CDF924FC000000000000000000C0000000E00000007000000840000000600000005000000BA8E7C3C72918040E0FDE1D47B7C1640000000000000000020F5E2A2D81D8740E0FDE1D47B7C1640000000000000000020F5E2A2D81D87402210F11CDF924FC00000000000000000BA8E7C3C7291
310
80402210F11CDF924FC00000000000000000BA8E7C3C72918040E0FDE1D47B7C16400000000000000000
100
AcDbWipeout
 90
        0
 10
530.1807794314439
 20
-63.1474338700357
 30
0.0
 11
209.55
 21
0.0
 31
0.0
 12
0.0
 22
68.76899999999999
 32
0.0
 13
1.0
 23
1.0
340
0
 70
    15
280
     1
281
    50
282
    50
283
     0
360
0
 71
     2
 91
        5
 14
-0.5
 24
-0.5
 14
0.5
 24
-0.5
 14
0.5
 24
0.5
 14
-0.5
 24
0.5
 14
-0.5
 24
-0.5
  0
MTEXT
  5
29C
102
{ACAD_REACTORS
330
29D
102
}
330
1F
100
AcDbEntity
  8
Key_ Sections_Pen_No__1
  6
Continuous
100
AcDbMText
 10
535.1807794314439
 20
-29.84851750582365
 30
0.0
 40
12.49999999999999
 41
199.55
 71
     4
 72
     1
  1
{Palliside Traditional Bevel \PBack weatherboard fixed \Pusing Palliside nails}
  7
GENERATED_STYLE_1
 73
     1
 44
0.934134531295805
  0
LEADER
  5
29D
330
1F
100
AcDbEntity
  8
Key_ Sections_Pen_No__1
  6
Continuous
100
AcDbLeader
  3
GENERATED_STYLE__3
 72
     1
 73
     0
 74
     0
 40
55.28327572522554
 41
197.1749999999999
 76
     2
 10
348.517109368536
 20
-28.76293387003569
 30
0.0
 10
535.0907794314438
 20
-29.84851750582365
 30
0.0
340
29C
  0
WIPEOUT
  5
2A4
330
1F
100
AcDbEntity
  8
Key_ Sections_Pen_No__1
  6
Wipeout_Contour
 48
2554.258072571326
 92
      296
310
28010000060000000C0000000E000000120000000C00000016000000000000C20C00000014000000010000006C00000007000000040000002238DEEB7D9E804010A107DED4EA524000000000000000009D4C8C335F25874010A107DED4EA524000000000000000009D4C8C335F258740003C01F7267C164000000000000000
310
002238DEEB7D9E8040003C01F7267C164000000000000000000C0000000E000000070000008400000006000000050000002238DEEB7D9E804010A107DED4EA524000000000000000009D4C8C335F25874010A107DED4EA524000000000000000009D4C8C335F258740003C01F7267C164000000000000000002238DEEB7D9E
310
8040003C01F7267C164000000000000000002238DEEB7D9E804010A107DED4EA52400000000000000000
100
AcDbWipeout
 90
        0
 10
531.8114850388413
 20
5.621242389154762
 30
0.0
 11
208.86
 21
0.0
 31
0.0
 12
0.0
 22
70.048
 32
0.0
 13
1.0
 23
1.0
340
0
 70
    15
280
     1
281
    50
282
    50
283
     0
360
0
 71
     2
 91
        5
 14
-0.5000000000000002
 24
-0.5
 14
0.4999999999999997
 24
-0.5
 14
0.4999999999999997
 24
0.5
 14
-0.5000000000000002
 24
0.5
 14
-0.5000000000000002
 24
-0.5
  0
MTEXT
  5
2A5
102
{ACAD_REACTORS
330
2A6
102
}
330
1F
100
AcDbEntity
  8
Key_ Sections_Pen_No__1
  6
Continuous
100
AcDbMText
 10
536.8114850388413
 20
39.84492801143457
 30
0.0
 40
12.49999999999999
 41
198.86
 71
     4
 72
     1
  1
{2 piece Palliside internal \Pcorner. Base fixed to stud \Pwith palliside nails}
  7
GENERATED_STYLE_1
 73
     1
 44
0.9533846363421641
  0
LEADER
  5
2A6
330
1F
100
AcDbEntity
  8
Key_ Sections_Pen_No__1
  6
Continuous
100
AcDbLeader
  3
GENERATED_STYLE__3
 72
     1
 73
     0
 74
     0
 40
55.93712331462997
 41
195.8874999999999
 76
     2
 10
158.5739328743462
 20
40.64524238915482
 30
0.0
 10
536.7214850388413
 20
39.84492801143457
 30
0.0
340
2A5
  0
WIPEOUT
  5
2A7
330
1F
100
AcDbEntity
  8
Key_ Sections_Pen_No__1
  6
Wipeout_Contour
 48
2762.531813429748
 92
      296
310
28010000060000000C0000000E000000120000000C00000016000000000000C20C00000014000000010000006C00000007000000040000002238DEEB7D9E8040723653BE934F61400000000000000000C6A81BF654E68940723653BE934F61400000000000000000C6A81BF654E68940AE0EEC321B1D564000000000000000
310
002238DEEB7D9E8040AE0EEC321B1D564000000000000000000C0000000E000000070000008400000006000000050000002238DEEB7D9E8040723653BE934F61400000000000000000C6A81BF654E68940723653BE934F61400000000000000000C6A81BF654E68940AE0EEC321B1D564000000000000000002238DEEB7D9E
310
8040AE0EEC321B1D564000000000000000002238DEEB7D9E8040723653BE934F61400000000000000000
100
AcDbWipeout
 90
        0
 10
531.8114850388413
 20
88.45478508999324
 30
0.0
 11
296.98
 21
0.0
 31
0.0
 12
0.0
 22
50.03200000000001
 32
0.0
 13
1.0
 23
1.0
340
0
 70
    15
280
     1
281
    50
282
    50
283
     0
360
0
 71
     2
 91
        5
 14
-0.5
 24
-0.5
 14
0.5
 24
-0.5
 14
0.5
 24
0.5
 14
-0.5
 24
0.5
 14
-0.5
 24
-0.5
  0
MTEXT
  5
2A8
102
{ACAD_REACTORS
330
2A9
102
}
330
1F
100
AcDbEntity
  8
Key_ Sections_Pen_No__1
  6
Continuous
100
AcDbMText
 10
536.8114850388413
 20
112.571770758276
 30
0.0
 40
12.49999999999999
 41
286.98
 71
     4
 72
     1
  1
{Capping flashing. 5 degree min slope \Pover underlay isolation layer}
  7
GENERATED_STYLE_1
 73
     1
 44
0.9482389079738854
  0
LEADER
  5
2A9
330
1F
100
AcDbEntity
  8
Key_ Sections_Pen_No__1
  6
Continuous
100
AcDbLeader
  3
GENERATED_STYLE__3
 72
     1
 73
     0
 74
     0
 40
36.11897801740039
 41
286.4249999999999
 76
     3
 10
412.5736673014949
 20
163.4707850899933
 30
0.0
 10
501.6163879194551
 20
119.2900204229074
 30
0.0
 10
536.7214850388413
 20
112.571770758276
 30
0.0
340
2A8
  0
WIPEOUT
  5
2AA
330
1F
100
AcDbEntity
  8
Key_ Sections_Pen_No__1
  6
Wipeout_Contour
 48
2676.712006228826
 92
      296
310
28010000060000000C0000000E000000120000000C00000016000000000000C20C00000014000000010000006C00000007000000040000002238DEEB7D9E8040A359F5A453B86B400000000000000000C6A81BF654708740A359F5A453B86B400000000000000000C6A81BF654708740FB92A96DCAF6624000000000000000
310
002238DEEB7D9E8040FB92A96DCAF6624000000000000000000C0000000E000000070000008400000006000000050000002238DEEB7D9E8040A359F5A453B86B400000000000000000C6A81BF654708740A359F5A453B86B400000000000000000C6A81BF654708740FB92A96DCAF6624000000000000000002238DEEB7D9E
310
8040FB92A96DCAF6624000000000000000002238DEEB7D9E8040A359F5A453B86B400000000000000000
100
AcDbWipeout
 90
        0
 10
531.8114850388413
 20
151.7122104942317
 30
0.0
 11
218.23
 21
0.0
 31
0.0
 12
0.0
 22
70.048
 32
0.0
 13
1.0
 23
1.0
340
0
 70
    15
280
     1
281
    50
282
    50
283
     0
360
0
 71
     2
 91
        5
 14
-0.5
 24
-0.5
 14
0.5
 24
-0.5
 14
0.5
 24
0.5
 14
-0.5
 24
0.5
 14
-0.5
 24
-0.5
  0
MTEXT
  5
2AB
102
{ACAD_REACTORS
330
2AC
102
}
330
1F
100
AcDbEntity
  8
Key_ Sections_Pen_No__1
  6
Continuous
100
AcDbMText
 10
536.8114850388413
 20
185.8373246879401
 30
0.0
 40
12.49999999999999
 41
208.23
 71
     4
 72
     1
  1
{Rivets through sealant and \P2 lines of sealant capping \Pto saddle flashing}
  7
GENERATED_STYLE_1
 73
     1
 44
0.9496448171979252
  0
LEADER
  5
2AC
330
1F
100
AcDbEntity
  8
Key_ Sections_Pen_No__1
  6
Continuous
100
AcDbLeader
  3
GENERATED_STYLE__3
 72
     1
 73
     0
 74
     0
 40
56.14533357356809
 41
204.8999999999999
 76
     3
 10
236.1682357207852
 20
261.7362104942318
 30
0.0
 10
371.0827150822416
 20
206.487815873603
 30
0.0
 10
536.7214850388413
 20
185.8373246879401
 30
0.0
340
2AB
  0
WIPEOUT
  5
2AD
330
1F
100
AcDbEntity
  8
Key_ Sections_Pen_No__1
  6
Wipeout_Contour
 48
2729.030836345657
 92
      296
310
28010000060000000C0000000E000000120000000C00000016000000000000C20C00000014000000010000006C00000007000000040000002238DEEB7D9E8040F2A1452D2BA07240000000000000000074F0FC70699A8640F2A1452D2BA07240000000000000000074F0FC70699A86403D7D3F23CD7E6C4000000000000000
310
002238DEEB7D9E80403D7D3F23CD7E6C4000000000000000000C0000000E000000070000008400000006000000050000002238DEEB7D9E8040F2A1452D2BA07240000000000000000074F0FC70699A8640F2A1452D2BA07240000000000000000074F0FC70699A86403D7D3F23CD7E6C4000000000000000002238DEEB7D9E
310
80403D7D3F23CD7E6C4000000000000000002238DEEB7D9E8040F2A1452D2BA072400000000000000000
100
AcDbWipeout
 90
        0
 10
531.8114850388413
 20
227.9625412216209
 30
0.0
 11
191.49
 21
0.0
 31
0.0
 12
0.0
 22
70.04799999999997
 32
0.0
 13
1.0
 23
1.0
340
0
 70
    15
280
     1
281
    50
282
    50
283
     0
360
0
 71
     2
 91
        5
 14
-0.5
 24
-0.5000000000000002
 14
0.5
 24
-0.5000000000000002
 14
0.5
 24
0.4999999999999998
 14
-0.5
 24
0.4999999999999998
 14
-0.5
 24
-0.5000000000000002
  0
MTEXT
  5
2AE
102
{ACAD_REACTORS
330
2AF
102
}
330
1F
100
AcDbEntity
  8
Key_ Sections_Pen_No__1
  6
Continuous
100
AcDbMText
 10
536.8114850388413
 20
263.7890839867578
 30
0.0
 40
12.5
 41
181.49
 71
     4
 72
     1
  1
{Line of saddle flashing \Pbehind cladding in front \Pof battens}
  7
GENERATED_STYLE_1
 73
     1
 44
0.9462137085919519
  0
LEADER
  5
2AF
330
1F
100
AcDbEntity
  8
Key_ Sections_Pen_No__1
  6
Continuous
100
AcDbLeader
  3
GENERATED_STYLE__3
 72
     1
 73
     0
 74
     0
 40
52.7402120174829
 41
179.1249999999999
 76
     3
 10
318.419254966427
 20
337.986541221621
 30
0.0
 10
452.9126955384242
 20
276.0450929793751
 30
0.0
 10
536.7214850388413
 20
263.7890839867578
 30
0.0
340
2AE
  0
WIPEOUT
  5
2B0
330
1F
100
AcDbEntity
  8
Key_ Sections_Pen_No__1
  6
Wipeout_Contour
 48
2818.425085968106
 92
      296
310
28010000060000000C0000000E000000120000000C00000016000000000000C20C00000014000000010000006C00000007000000040000002238DEEB7D9E804029C320AFE800764000000000000000009D4C8C335F45864029C320AFE800764000000000000000009D4C8C335F4586409B2BB29C65E0724000000000000000
310
002238DEEB7D9E80409B2BB29C65E0724000000000000000000C0000000E000000070000008400000006000000050000002238DEEB7D9E804029C320AFE800764000000000000000009D4C8C335F45864029C320AFE800764000000000000000009D4C8C335F4586409B2BB29C65E0724000000000000000002238DEEB7D9E
310
80409B2BB29C65E0724000000000000000002238DEEB7D9E804029C320AFE80076400000000000000000
100
AcDbWipeout
 90
        0
 10
531.8114850388413
 20
302.0248076400546
 30
0.0
 11
180.86
 21
0.0
 31
0.0
 12
0.0
 22
50.03200000000004
 32
0.0
 13
1.0
 23
1.0
340
0
 70
    15
280
     1
281
    50
282
    50
283
     0
360
0
 71
     2
 91
        5
 14
-0.5000000000000003
 24
-0.5
 14
0.4999999999999997
 24
-0.5
 14
0.4999999999999997
 24
0.5
 14
-0.5000000000000003
 24
0.5
 14
-0.5000000000000003
 24
-0.5
  0
MTEXT
  5
2B1
102
{ACAD_REACTORS
330
2B2
102
}
330
1F
100
AcDbEntity
  8
Key_ Sections_Pen_No__1
  6
Continuous
100
AcDbMText
 10
536.8114850388413
 20
326.1417933083374
 30
0.0
 40
12.49999999999999
 41
170.86
 71
     4
 72
     1
  1
{Breather type building \Punderlay}
  7
GENERATED_STYLE_1
 73
     1
 44
0.9578820155126029
  0
LEADER
  5
2B2
330
1F
100
AcDbEntity
  8
Key_ Sections_Pen_No__1
  6
Continuous
100
AcDbLeader
  3
GENERATED_STYLE__3
 72
     1
 73
     0
 74
     0
 40
36.11837532317922
 41
167.2749999999999
 76
     3
 10
233.8745678002442
 20
427.0408076400547
 30
0.0
 10
413.3941354716517
 20
345.8539952926096
 30
0.0
 10
536.7214850388413
 20
326.1417933083374
 30
0.0
340
2B1
  0
WIPEOUT
  5
2B3
330
1F
100
AcDbEntity
  8
Key_ Sections_Pen_No__1
  6
Wipeout_Contour
 48
3982.852555930798
 92
      296
310
28010000060000000C0000000E000000120000000C00000016000000000000C20C00000014000000010000006C00000007000000040000002238DEEB7D9E8040701D9054CE3C8940000000000000000003B3F299C50B8740701D9054CE3C8940000000000000000003B3F299C50B874041406B4E4D6C864000000000000000
310
002238DEEB7D9E804041406B4E4D6C864000000000000000000C0000000E000000070000008400000006000000050000002238DEEB7D9E8040701D9054CE3C8940000000000000000003B3F299C50B8740701D9054CE3C8940000000000000000003B3F299C50B874041406B4E4D6C864000000000000000002238DEEB7D9E
310
804041406B4E4D6C864000000000000000002238DEEB7D9E8040701D9054CE3C89400000000000000000
100
AcDbWipeout
 90
        0
 10
531.8114850388413
 20
717.5377472285255
 30
0.0
 11
205.66
 21
0.0
 31
0.0
 12
0.0
 22
90.06299999999999
 32
0.0
 13
1.0
 23
1.0
340
0
 70
    15
280
     1
281
    50
282
    50
283
     0
360
0
 71
     2
 91
        5
 14
-0.4999999999999997
 24
-0.5000000000000007
 14
0.5000000000000002
 24
-0.5000000000000007
 14
0.5000000000000002
 24
0.4999999999999994
 14
-0.4999999999999997
 24
0.4999999999999994
 14
-0.4999999999999997
 24
-0.5000000000000007
  0
MTEXT
  5
2B4
102
{ACAD_REACTORS
330
2B5
102
}
330
1F
100
AcDbEntity
  8
Key_ Sections_Pen_No__1
  6
Continuous
100
AcDbMText
 10
536.8114850388413
 20
761.6699899476595
 30
0.0
 40
12.49999999999999
 41
195.66
 71
     4
 72
     1
  1
{Cavity battens positioned \Pto form clear channel \Pbetween sloped timber \Pcapping and batten}
  7
GENERATED_STYLE_1
 73
     1
 44
0.9533197673736268
  0
LEADER
  5
2B5
330
1F
100
AcDbEntity
  8
Key_ Sections_Pen_No__1
  6
Continuous
100
AcDbLeader
  3
GENERATED_STYLE__3
 72
     1
 73
     0
 74
     0
 40
76.15014636198543
 41
192.7874999999999
 76
     3
 10
209.3145432698632
 20
827.5692472285256
 30
0.0
 10
325.9950972026634
 20
782.8977250642793
 30
0.0
 10
536.7214850388413
 20
761.6699899476595
 30
0.0
340
2B4
  0
WIPEOUT
  5
2B6
330
1F
100
AcDbEntity
  8
Key_ Sections_Pen_No__1
  6
Wipeout_Contour
 48
4941.571129436085
 92
      296
310
28010000060000000C0000000E000000120000000C00000016000000000000C20C00000014000000010000006C00000007000000040000002238DEEB7D9E8040633A93584FB09040000000000000000018613A7B403C8840633A93584FB09040000000000000000018613A7B403C8840FF28EF275DD08F4000000000000000
310
002238DEEB7D9E8040FF28EF275DD08F4000000000000000000C0000000E000000070000008400000006000000050000002238DEEB7D9E8040633A93584FB09040000000000000000018613A7B403C8840633A93584FB09040000000000000000018613A7B403C8840FF28EF275DD08F4000000000000000002238DEEB7D9E
310
8040FF28EF275DD08F4000000000000000002238DEEB7D9E8040633A93584FB090400000000000000000
100
AcDbWipeout
 90
        0
 10
531.8114850388413
 20
1018.045486324729
 30
0.0
 11
243.72
 21
0.0
 31
0.0
 12
0.0
 22
50.03200000000004
 32
0.0
 13
1.0
 23
1.0
340
0
 70
    15
280
     1
281
    50
282
    50
283
     0
360
0
 71
     2
 91
        5
 14
-0.5
 24
-0.5000000000000011
 14
0.5
 24
-0.5000000000000011
 14
0.5
 24
0.4999999999999989
 14
-0.5
 24
0.4999999999999989
 14
-0.5
 24
-0.5000000000000011
  0
MTEXT
  5
2B7
102
{ACAD_REACTORS
330
2B8
102
}
330
1F
100
AcDbEntity
  8
Key_ Sections_Pen_No__1
  6
Continuous
100
AcDbMText
 10
536.8114850388413
 20
1043.859614850154
 30
0.0
 40
12.49999999999999
 41
233.72
 71
     4
 72
     1
  1
{Flexible flashing tape dressed \P50mm min down face of batten}
  7
GENERATED_STYLE_1
 73
     1
 44
0.475592016261646
  0
LEADER
  5
2B8
330
1F
100
AcDbEntity
  8
Key_ Sections_Pen_No__1
  6
Continuous
100
AcDbLeader
  3
GENERATED_STYLE__3
 72
     1
 73
     0
 74
     0
 40
32.71846061781311
 41
228.0999999999999
 76
     3
 10
199.1858426528074
 20
885.6609983342993
 30
0.0
 10
477.3001597188327
 20
1031.46257729599
 30
0.0
 10
536.7214850388413
 20
1043.859614850154
 30
0.0
340
2B7
  0
WIPEOUT
  5
2B9
330
1F
100
AcDbEntity
  8
Key_ Sections_Pen_No__1
  6
Wipeout_Contour
 48
4276.819729951682
 92
      296
310
28010000060000000C0000000E000000120000000C00000016000000000000C20C00000014000000010000006C00000007000000040000002238DEEB7D9E80409B25569679468B400000000000000000EE04ABB84AB187409B25569679468B400000000000000000EE04ABB84AB18740D4D91E0D38B6894000000000000000
310
002238DEEB7D9E8040D4D91E0D38B6894000000000000000000C0000000E000000070000008400000006000000050000002238DEEB7D9E80409B25569679468B400000000000000000EE04ABB84AB187409B25569679468B400000000000000000EE04ABB84AB18740D4D91E0D38B6894000000000000000002238DEEB7D9E
310
8040D4D91E0D38B6894000000000000000002238DEEB7D9E80409B25569679468B400000000000000000
100
AcDbWipeout
 90
        0
 10
531.8114850388413
 20
822.7773687753893
 30
0.0
 11
226.3499999999999
 21
0.0
 31
0.0
 12
0.0
 22
50.03200000000004
 32
0.0
 13
1.0
 23
1.0
340
0
 70
    15
280
     1
281
    50
282
    50
283
     0
360
0
 71
     2
 91
        5
 14
-0.5
 24
-0.4999999999999989
 14
0.5
 24
-0.4999999999999989
 14
0.5
 24
0.5000000000000011
 14
-0.5
 24
0.5000000000000011
 14
-0.5
 24
-0.4999999999999989
  0
MTEXT
  5
2BA
102
{ACAD_REACTORS
330
2BB
102
}
330
1F
100
AcDbEntity
  8
Key_ Sections_Pen_No__1
  6
Continuous
100
AcDbMText
 10
536.8114850388413
 20
846.894354443672
 30
0.0
 40
12.49999999999999
 41
216.35
 71
     4
 72
     1
  1
{Absorbent building underlay \Pbetween packer and framing}
  7
GENERATED_STYLE_1
 73
     1
 44
0.4772281251535571
  0
LEADER
  5
2BB
330
1F
100
AcDbEntity
  8
Key_ Sections_Pen_No__1
  6
Continuous
100
AcDbLeader
  3
GENERATED_STYLE__3
 72
     1
 73
     0
 74
     0
 40
36.25950521473153
 41
216.1374999999999
 76
     3
 10
446.991399577206
 20
791.2248262804654
 30
0.0
 10
507.9086553025239
 20
841.2728149201569
 30
0.0
 10
536.7214850388413
 20
846.894354443672
 30
0.0
340
2BA
  0
WIPEOUT
  5
2BC
330
1F
100
AcDbEntity
  8
Key_ Sections_Pen_No__1
  6
Wipeout_Contour
 48
4533.643335782308
 92
      296
310
28010000060000000C0000000E000000120000000C00000016000000000000C20C00000014000000010000006C00000007000000040000002238DEEB7D9E804080828FE4D9C48D400000000000000000E52D07480DA9874080828FE4D9C48D400000000000000000E52D07480DA98740BA36585B98348C4000000000000000
310
002238DEEB7D9E8040BA36585B98348C4000000000000000000C0000000E000000070000008400000006000000050000002238DEEB7D9E804080828FE4D9C48D400000000000000000E52D07480DA9874080828FE4D9C48D400000000000000000E52D07480DA98740BA36585B98348C4000000000000000002238DEEB7D9E
310
8040BA36585B98348C4000000000000000002238DEEB7D9E804080828FE4D9C48D400000000000000000
100
AcDbWipeout
 90
        0
 10
531.8114850388413
 20
902.5743929759694
 30
0.0
 11
225.3200000000001
 21
0.0
 31
0.0
 12
0.0
 22
50.03199999999993
 32
0.0
 13
1.0
 23
1.0
340
0
 70
    15
280
     1
281
    50
282
    50
283
     0
360
0
 71
     2
 91
        5
 14
-0.5000000000000002
 24
-0.5
 14
0.4999999999999997
 24
-0.5
 14
0.4999999999999997
 24
0.5
 14
-0.5000000000000002
 24
0.5
 14
-0.5000000000000002
 24
-0.5
  0
MTEXT
  5
2BD
102
{ACAD_REACTORS
330
2BE
102
}
330
1F
100
AcDbEntity
  8
Key_ Sections_Pen_No__1
  6
Continuous
100
AcDbMText
 10
536.8114850388413
 20
926.6913786442522
 30
0.0
 40
12.49999999999999
 41
215.32
 71
     4
 72
     1
  1
{Sloped packer to extend \Pacross cavity at wall junction}
  7
GENERATED_STYLE_1
 73
     1
 44
0.4772281251535569
  0
LEADER
  5
2BE
330
1F
100
AcDbEntity
  8
Key_ Sections_Pen_No__1
  6
Continuous
100
AcDbLeader
  3
GENERATED_STYLE__3
 72
     1
 73
     0
 74
     0
 40
36.14841619132666
 41
186.0874999999999
 76
     3
 10
317.0875892195805
 20
857.5903929841219
 30
0.0
 10
442.8213087837444
 20
913.816888853774
 30
0.0
 10
536.7214850388413
 20
926.6913786442522
 30
0.0
340
2BD
  0
WIPEOUT
  5
2BF
330
1F
100
AcDbEntity
  8
Key_ Sections_Pen_No__1
  6
Wipeout_Contour
 48
4674.813593771925
 92
      296
310
28010000060000000C0000000E000000120000000C00000016000000000000C20C00000014000000010000006C00000007000000040000002238DEEB7D9E8040F9C6AAE4D9908F40000000000000000036E625CDF85E8640F9C6AAE4D9908F40000000000000000036E625CDF85E8640337B735B98008E4000000000000000
310
002238DEEB7D9E8040337B735B98008E4000000000000000000C0000000E000000070000008400000006000000050000002238DEEB7D9E8040F9C6AAE4D9908F40000000000000000036E625CDF85E8640F9C6AAE4D9908F40000000000000000036E625CDF85E8640337B735B98008E4000000000000000002238DEEB7D9E
310
8040337B735B98008E4000000000000000002238DEEB7D9E8040F9C6AAE4D9908F400000000000000000
100
AcDbWipeout
 90
        0
 10
531.8114850388413
 20
960.0743931791279
 30
0.0
 11
184.0599999999999
 21
0.0
 31
0.0
 12
0.0
 22
50.03199999999993
 32
0.0
 13
1.0
 23
1.0
340
0
 70
    15
280
     1
281
    50
282
    50
283
     0
360
0
 71
     2
 91
        5
 14
-0.5
 24
-0.5
 14
0.5
 24
-0.5
 14
0.5
 24
0.5
 14
-0.5
 24
0.5
 14
-0.5
 24
-0.5
  0
MTEXT
  5
2C0
102
{ACAD_REACTORS
330
2C1
102
}
330
1F
100
AcDbEntity
  8
Key_ Sections_Pen_No__1
  6
Continuous
100
AcDbMText
 10
536.8114850388413
 20
984.1913788474106
 30
0.0
 40
12.49999999999999
 41
174.06
 71
     4
 72
     1
  1
{Sloped H3.1 packer at \P5 degree min slope}
  7
GENERATED_STYLE_1
 73
     1
 44
0.9482389079738854
  0
LEADER
  5
2C1
330
1F
100
AcDbEntity
  8
Key_ Sections_Pen_No__1
  6
Continuous
100
AcDbLeader
  3
GENERATED_STYLE__3
 72
     1
 73
     0
 74
     0
 40
36.11897801740039
 41
171.6999999999999
 76
     3
 10
408.0202564494834
 20
945.0903931791278
 30
0.0
 10
479.8789057331917
 20
977.1163286372174
 30
0.0
 10
536.7214850388413
 20
984.1913788474106
 30
0.0
340
2C0
  0
WIPEOUT
  5
2C2
330
1F
100
AcDbEntity
  8
Key_ Sections_Pen_No__1
  6
Wipeout_Contour
 48
5060.736491306662
 92
      296
310
28010000060000000C0000000E000000120000000C00000016000000000000C20C00000014000000010000006C0000000700000004000000B461DCEB7D9E8040F1042AC1CC8E914000000000000000002F768A335F458640F1042AC1CC8E914000000000000000002F768A335F4586400E5F8EFCABC6904000000000000000
310
00B461DCEB7D9E80400E5F8EFCABC6904000000000000000000C0000000E00000007000000840000000600000005000000B461DCEB7D9E8040F1042AC1CC8E914000000000000000002F768A335F458640F1042AC1CC8E914000000000000000002F768A335F4586400E5F8EFCABC690400000000000000000B461DCEB7D9E
310
80400E5F8EFCABC690400000000000000000B461DCEB7D9E8040F1042AC1CC8E91400000000000000000
100
AcDbWipeout
 90
        0
 10
531.81148502515
 20
1073.667955612709
 30
0.0
 11
180.86
 21
0.0
 31
0.0
 12
0.0
 22
50.03199999999993
 32
0.0
 13
1.0
 23
1.0
340
0
 70
    15
280
     1
281
    50
282
    50
283
     0
360
0
 71
     2
 91
        5
 14
-0.5000000000000003
 24
-0.4999999999999977
 14
0.4999999999999997
 24
-0.4999999999999977
 14
0.4999999999999997
 24
0.5000000000000022
 14
-0.5000000000000003
 24
0.5000000000000022
 14
-0.5000000000000003
 24
-0.4999999999999977
  0
MTEXT
  5
2C3
102
{ACAD_REACTORS
330
2C4
102
}
330
1F
100
AcDbEntity
  8
Key_ Sections_Pen_No__1
  6
Continuous
100
AcDbMText
 10
536.81148502515
 20
1097.784941280992
 30
0.0
 40
12.49999999999999
 41
170.86
 71
     4
 72
     1
  1
{Breather type building \Punderlay}
  7
GENERATED_STYLE_1
 73
     1
 44
0.9578820155126029
  0
LEADER
  5
2C4
330
1F
100
AcDbEntity
  8
Key_ Sections_Pen_No__1
  6
Continuous
100
AcDbLeader
  3
GENERATED_STYLE__3
 72
     1
 73
     0
 74
     0
 40
36.11837532317922
 41
167.2749999999999
 76
     3
 10
357.3346541618288
 20
1031.990298555848
 30
0.0
 10
475.6360914940977
 20
1088.678428169034
 30
0.0
 10
536.72148502515
 20
1097.784941280992
 30
0.0
340
2C3
  0
WIPEOUT
  5
2C5
330
1F
100
AcDbEntity
  8
Key_ Sections_Pen_No__1
  6
Wipeout_Contour
 48
5316.121771307324
 92
      296
310
28010000060000000C0000000E000000120000000C00000016000000000000C20C00000014000000010000006C0000000700000004000000975D753AD8A88040B6E88E1A68B992400000000000000000A13419AB15178740B6E88E1A68B992400000000000000000A13419AB15178740E16FA5F336A1914000000000000000
310
00975D753AD8A88040E16FA5F336A1914000000000000000000C0000000E00000007000000840000000600000005000000975D753AD8A88040B6E88E1A68B992400000000000000000A13419AB15178740B6E88E1A68B992400000000000000000A13419AB15178740E16FA5F336A191400000000000000000975D753AD8A8
310
8040E16FA5F336A191400000000000000000975D753AD8A88040B6E88E1A68B992400000000000000000
100
AcDbWipeout
 90
        0
 10
533.1055802506625
 20
1128.303663811639
 30
0.0
 11
205.78
 21
0.0
 31
0.0
 12
0.0
 22
70.048
 32
0.0
 13
1.0
 23
1.0
340
0
 70
    15
280
     1
281
    50
282
    50
283
     0
360
0
 71
     2
 91
        5
 14
-0.5
 24
-0.4999999999999984
 14
0.5
 24
-0.4999999999999984
 14
0.5
 24
0.5000000000000017
 14
-0.5
 24
0.5000000000000017
 14
-0.5
 24
-0.4999999999999984
  0
MTEXT
  5
2C6
102
{ACAD_REACTORS
330
2C7
102
}
330
1F
100
AcDbEntity
  8
Key_ Sections_Pen_No__1
  6
Continuous
100
AcDbMText
 10
538.1055802506625
 20
1162.428778005348
 30
0.0
 40
12.5
 41
195.78
 71
     4
 72
     1
  1
{Flexible flashing tape \Pdressed up and adherred \Pto building wrap}
  7
GENERATED_STYLE_1
 73
     1
 44
0.9544562503071138
  0
LEADER
  5
2C7
330
1F
100
AcDbEntity
  8
Key_ Sections_Pen_No__1
  6
Continuous
100
AcDbLeader
  3
GENERATED_STYLE__3
 72
     1
 73
     0
 74
     0
 40
56.13433238265333
 41
193.0874999999999
 76
     3
 10
185.2370822771759
 20
1032.927677262615
 30
0.0
 10
239.4545866278207
 20
1111.902521855832
 30
0.0
 10
538.0155802506624
 20
1162.428778005348
 30
0.0
340
2C6
  0
WIPEOUT
  5
2C8
330
1F
100
AcDbEntity
  8
Key_ Sections_Pen_No__1
  6
Wipeout_Contour
 48
4055.917127195494
 92
      296
310
28010000060000000C0000000E000000120000000C00000016000000000000C20C00000014000000010000006C00000007000000040000009699999999E9894050DF9E864EFC80400000000000000000876CE7FBA9838C4050DF9E864EFC80400000000000000000876CE7FBA9838C401227CFFA19D87E4000000000000000
310
009699999999E989401227CFFA19D87E4000000000000000000C0000000E000000070000008400000006000000050000009699999999E9894050DF9E864EFC80400000000000000000876CE7FBA9838C4050DF9E864EFC80400000000000000000876CE7FBA9838C401227CFFA19D87E4000000000000000009699999999E9
310
89401227CFFA19D87E4000000000000000009699999999E9894050DF9E864EFC80400000000000000000
100
AcDbWipeout
 90
        0
 10
829.1999999999996
 20
493.5063427059077
 30
0.0
 11
83.25799999999992
 21
0.0
 31
0.0
 12
0.0
 22
50.03200000000004
 32
0.0
 13
1.0
 23
1.0
340
0
 70
    15
280
     1
281
    50
282
    50
283
     0
360
0
 71
     2
 91
        5
 14
-0.4999999999999993
 24
-0.5000000000000011
 14
0.5000000000000007
 24
-0.5000000000000011
 14
0.5000000000000007
 24
0.4999999999999989
 14
-0.4999999999999993
 24
0.4999999999999989
 14
-0.4999999999999993
 24
-0.5000000000000011
  0
MTEXT
  5
2C9
102
{ACAD_REACTORS
330
2CA
102
}
330
1F
100
AcDbEntity
  8
Key_ Sections_Pen_No__1
  6
Continuous
100
AcDbMText
 10
834.1999999999996
 20
519.324756945619
 30
0.0
 40
12.5
 41
73.25800000000001
 71
     4
 72
     1
  1
{2 lines of \Psealant}
  7
GENERATED_STYLE_1
 73
     1
 44
0.9509258056594946
  0
LEADER
  5
2CA
330
1F
100
AcDbEntity
  8
Key_ Sections_Pen_No__1
  6
Continuous
100
AcDbLeader
  3
GENERATED_STYLE__3
 72
     1
 73
     0
 74
     0
 40
32.71302601827544
 41
69.91249999999998
 76
     3
 10
758.5688013214188
 20
524.6602681293667
 30
0.0
 10
769.424855725899
 20
521.1098340478449
 30
0.0
 10
834.1099999999996
 20
519.324756945619
 30
0.0
340
2C9
  0
WIPEOUT
  5
2CB
330
1F
100
AcDbEntity
  8
Key_ Sections_Pen_No__1
  6
Wipeout_Contour
 48
4261.378474230512
 92
      296
310
28010000060000000C0000000E000000120000000C00000016000000000000C20C00000014000000010000006C00000007000000040000009699999999E989407E09A34226C383400000000000000000FCFFFFFFFFBF8C407E09A34226C383400000000000000000FCFFFFFFFFBF8C40B8BD6BB9E432824000000000000000
310
009699999999E98940B8BD6BB9E432824000000000000000000C0000000E000000070000008400000006000000050000009699999999E989407E09A34226C383400000000000000000FCFFFFFFFFBF8C407E09A34226C383400000000000000000FCFFFFFFFFBF8C40B8BD6BB9E432824000000000000000009699999999E9
310
8940B8BD6BB9E432824000000000000000009699999999E989407E09A34226C383400000000000000000
100
AcDbWipeout
 90
        0
 10
829.1999999999996
 20
582.3616817872307
 30
0.0
 11
90.79999999999995
 21
0.0
 31
0.0
 12
0.0
 22
50.03199999999993
 32
0.0
 13
1.0
 23
1.0
340
0
 70
    15
280
     1
281
    50
282
    50
283
     0
360
0
 71
     2
 91
        5
 14
-0.5
 24
-0.5
 14
0.5
 24
-0.5
 14
0.5
 24
0.5
 14
-0.5
 24
0.5
 14
-0.5
 24
-0.5
  0
MTEXT
  5
2CC
102
{ACAD_REACTORS
330
2CD
102
}
330
1F
100
AcDbEntity
  8
Key_ Sections_Pen_No__1
  6
Continuous
100
AcDbMText
 10
834.1999999999996
 20
606.5772388840847
 30
0.0
 40
12.5
 41
80.8
 71
     4
 72
     1
  1
{5 degrees \Pmin slope}
  7
GENERATED_STYLE_1
 73
     1
 44
0.9580130071785892
  0
LEADER
  5
2CD
330
1F
100
AcDbEntity
  8
Key_ Sections_Pen_No__1
  6
Continuous
100
AcDbLeader
  3
GENERATED_STYLE__3
 72
     1
 73
     0
 74
     0
 40
35.9211043162206
 41
76.18749999999999
 76
     3
 10
747.5493649290427
 20
572.022342727903
 30
0.0
 10
786.5595221249475
 20
598.9371398532486
 30
0.0
 10
834.1099999999996
 20
606.5772388840847
 30
0.0
340
2CC
  0
WIPEOUT
  5
2CE
330
1F
100
AcDbEntity
  8
Key_ Sections_Pen_No__1
  6
Wipeout_Contour
 48
3778.053777165866
 92
      296
310
28010000060000000C0000000E000000120000000C00000016000000000000C20C00000014000000010000006C00000007000000040000001E38DEEB7D9E8040D416A73C4D94864000000000000000005B42B58FEE3F8640D416A73C4D94864000000000000000005B42B58FEE3F8640F0700B782CA4854000000000000000
310
001E38DEEB7D9E8040F0700B782CA4854000000000000000000C0000000E000000070000008400000006000000050000001E38DEEB7D9E8040D416A73C4D94864000000000000000005B42B58FEE3F8640D416A73C4D94864000000000000000005B42B58FEE3F8640F0700B782CA4854000000000000000001E38DEEB7D9E
310
8040F0700B782CA4854000000000000000001E38DEEB7D9E8040D416A73C4D9486400000000000000000
100
AcDbWipeout
 90
        0
 10
531.8114850388408
 20
692.5217133420792
 30
0.0
 11
180.1799999999999
 21
0.0
 31
0.0
 12
0.0
 22
30.01600000000008
 32
0.0
 13
1.0
 23
1.0
340
0
 70
    15
280
     1
281
    50
282
    50
283
     0
360
0
 71
     2
 91
        5
 14
-0.4999999999999997
 24
-0.5
 14
0.5000000000000003
 24
-0.5
 14
0.5000000000000003
 24
0.5
 14
-0.4999999999999997
 24
0.5
 14
-0.4999999999999997
 24
-0.5
  0
MTEXT
  5
2CF
102
{ACAD_REACTORS
330
2D0
102
}
330
1F
100
AcDbEntity
  8
Key_ Sections_Pen_No__1
  6
Continuous
100
AcDbMText
 10
536.8114850388408
 20
708.331999056365
 30
0.0
 40
12.49999999999999
 41
170.18
 71
     4
 72
     1
  1
{Drain formed in corner}
  7
GENERATED_STYLE_1
 73
     1
 44
1.0
  0
LEADER
  5
2D0
330
1F
100
AcDbEntity
  8
Key_ Sections_Pen_No__1
  6
Continuous
100
AcDbLeader
  3
GENERATED_STYLE__3
 72
     1
 73
     0
 74
     0
 40
33.74583333333332
 41
116.7125
 76
     3
 10
134.9690531950108
 20
837.5297133420795
 30
0.0
 10
154.1985706387169
 20
766.2303938462611
 30
0.0
 10
536.7214850388408
 20
708.331999056365
 30
0.0
340
2CF
  0
MTEXT
  5
2D1
330
1F
100
AcDbEntity
  8
0_Pen_No__1
  6
Continuous
100
AcDbMText
 10
716.8414416073631
 20
446.4359376296089
 30
0.0
 40
12.50015
 41
0.0
 71
     1
 72
     1
  1
{B. Saddle flashing}
  7
GENERATED_STYLE_1
 73
     1
 44
1.0
  0
MTEXT
  5
2D2
330
1F
100
AcDbEntity
  8
0_Pen_No__1
  6
Continuous
100
AcDbMText
 10
0.0
 20
-63.2170438015902
 30
0.0
 40
12.50015
 41
0.0
 71
     1
 72
     1
  1
{C. Saddle flashing installation}
  7
GENERATED_STYLE_1
 73
     1
 44
1.0
  0
MTEXT
  5
2D3
330
1F
100
AcDbEntity
  8
0_Pen_No__1
  6
Continuous
100
AcDbMText
 10
-0.0000000000004441
 20
714.4940896594815
 30
0.0
 40
12.50015
 41
0.0
 71
     1
 72
     1
  1
{A. Flexible flashing tape installation}
  7
GENERATED_STYLE_1
 73
     1
 44
1.0
  0
ENDSEC
  0
SECTION
  2
OBJECTS
  0
DICTIONARY
  5
C
330
0
100
AcDbDictionary
281
     1
  3
ACAD_GROUP
350
D
  3
ACAD_LAYOUT
350
1A
  3
ACAD_MATERIAL
350
3B
  3
ACAD_MLEADERSTYLE
350
324
  3
ACAD_MLINESTYLE
350
17
  3
ACAD_PLOTSETTINGS
350
19
  3
ACAD_PLOTSTYLENAME
350
E
  3
ACAD_SCALELIST
350
2D7
  3
ACAD_TABLESTYLE
350
323
  3
ACAD_VISUALSTYLE
350
2A
  3
AcDbVariableDictionary
350
2FB
  3
WATERMARKS
350
2F9
  0
DICTIONARY
  5
D
102
{ACAD_REACTORS
330
C
102
}
330
C
100
AcDbDictionary
281
     1
  0
DICTIONARY
  5
1A
102
{ACAD_REACTORS
330
C
102
}
330
C
100
AcDbDictionary
281
     1
  3
Layout1
350
1E
  3
Layout2
350
26
  3
Model
350
22
  0
DICTIONARY
  5
3B
102
{ACAD_REACTORS
330
C
102
}
330
C
100
AcDbDictionary
281
     1
  3
ByBlock
350
3D
  3
ByLayer
350
3C
  3
Global
350
3E
  0
DICTIONARY
  5
324
102
{ACAD_REACTORS
330
C
102
}
330
C
100
AcDbDictionary
281
     1
  0
DICTIONARY
  5
17
102
{ACAD_REACTORS
330
C
102
}
330
C
100
AcDbDictionary
281
     1
  3
Standard
350
18
  0
DICTIONARY
  5
19
102
{ACAD_REACTORS
330
C
102
}
330
C
100
AcDbDictionary
281
     1
  0
ACDBDICTIONARYWDFLT
  5
E
102
{ACAD_REACTORS
330
C
102
}
330
C
100
AcDbDictionary
281
     1
  3
Normal
350
F
100
AcDbDictionaryWithDefault
340
F
  0
DICTIONARY
  5
2D7
102
{ACAD_REACTORS
330
C
102
}
330
C
100
AcDbDictionary
281
     1
  3
A0
350
2D8
  3
A1
350
2D9
  3
A2
350
2DA
  3
A3
350
2DB
  3
A4
350
2DC
  3
A5
350
2DD
  3
A6
350
2DE
  3
A7
350
2DF
  3
A8
350
2E0
  3
A9
350
2E1
  3
B0
350
2E2
  3
B1
350
2E3
  3
B2
350
2E4
  3
B3
350
2E5
  3
B4
350
2E6
  3
B5
350
2E7
  3
B6
350
2E8
  3
B7
350
2E9
  3
B8
350
2EA
  3
B9
350
2EB
  3
C0
350
2EC
  3
C1
350
2ED
  3
C2
350
2EE
  3
C3
350
2EF
  3
C4
350
2F0
  3
C5
350
2F1
  3
C6
350
2F2
  3
C7
350
2F3
  3
C8
350
2F4
  3
C9
350
2F5
  3
D0
350
2F6
  3
D1
350
2F7
  3
D2
350
2F8
  0
DICTIONARY
  5
323
102
{ACAD_REACTORS
330
C
102
}
330
C
100
AcDbDictionary
281
     1
  0
DICTIONARY
  5
2A
102
{ACAD_REACTORS
330
C
102
}
330
C
100
AcDbDictionary
281
     1
  3
2dWireframe
350
2F
  3
3D Hidden
350
31
  3
3dWireframe
350
30
  3
Basic
350
32
  3
Brighten
350
36
  3
ColorChange
350
3A
  3
Conceptual
350
34
  3
Dim
350
35
  3
Facepattern
350
39
  3
Flat
350
2B
  3
FlatWithEdges
350
2C
  3
Gouraud
350
2D
  3
GouraudWithEdges
350
2E
  3
Linepattern
350
38
  3
Realistic
350
33
  3
Thicken
350
37
  0
DICTIONARY
  5
2FB
102
{ACAD_REACTORS
330
C
102
}
330
C
100
AcDbDictionary
281
     1
  3
CANNOSCALE
350
2FC
  3
XCLIPFRAME
350
325
  0
DICTIONARY
  5
2F9
102
{ACAD_REACTORS
330
C
102
}
330
C
100
AcDbDictionary
281
     1
  3
AC_WATERMARK
350
2FA
  0
LAYOUT
  5
1E
102
{ACAD_REACTORS
330
1A
102
}
330
1A
100
AcDbPlotSettings
  1

  2
none_device
  4

  6

 40
0.0
 41
0.0
 42
0.0
 43
0.0
 44
0.0
 45
0.0
 46
0.0
 47
0.0
 48
0.0
 49
0.0
140
0.0
141
0.0
142
1.0
143
1.0
 70
   688
 72
     0
 73
     0
 74
     5
  7

 75
    16
 76
     0
 77
     2
 78
   300
147
1.0
148
0.0
149
0.0
100
AcDbLayout
  1
Layout1
 70
     1
 71
     1
 10
0.0
 20
0.0
 11
12.0
 21
9.0
 12
0.0
 22
0.0
 32
0.0
 14
1.000000000000000E+20
 24
1.000000000000000E+20
 34
1.000000000000000E+20
 15
-1.000000000000000E+20
 25
-1.000000000000000E+20
 35
-1.000000000000000E+20
146
0.0
 13
0.0
 23
0.0
 33
0.0
 16
1.0
 26
0.0
 36
0.0
 17
0.0
 27
1.0
 37
0.0
 76
     0
330
1B
  0
LAYOUT
  5
26
102
{ACAD_REACTORS
330
1A
102
}
330
1A
100
AcDbPlotSettings
  1

  2
none_device
  4

  6

 40
0.0
 41
0.0
 42
0.0
 43
0.0
 44
0.0
 45
0.0
 46
0.0
 47
0.0
 48
0.0
 49
0.0
140
0.0
141
0.0
142
1.0
143
1.0
 70
   688
 72
     0
 73
     0
 74
     5
  7

 75
    16
 76
     0
 77
     2
 78
   300
147
1.0
148
0.0
149
0.0
100
AcDbLayout
  1
Layout2
 70
     1
 71
     2
 10
0.0
 20
0.0
 11
0.0
 21
0.0
 12
0.0
 22
0.0
 32
0.0
 14
0.0
 24
0.0
 34
0.0
 15
0.0
 25
0.0
 35
0.0
146
0.0
 13
0.0
 23
0.0
 33
0.0
 16
1.0
 26
0.0
 36
0.0
 17
0.0
 27
1.0
 37
0.0
 76
     0
330
23
  0
LAYOUT
  5
22
102
{ACAD_REACTORS
330
1A
102
}
330
1A
100
AcDbPlotSettings
  1

  2
none_device
  4

  6

 40
0.0
 41
0.0
 42
0.0
 43
0.0
 44
0.0
 45
0.0
 46
0.0
 47
0.0
 48
0.0
 49
0.0
140
0.0
141
0.0
142
1.0
143
1.0
 70
  1712
 72
     0
 73
     0
 74
     0
  7

 75
     0
 76
     0
 77
     2
 78
   300
147
1.0
148
0.0
149
0.0
100
AcDbLayout
  1
Model
 70
     1
 71
     0
 10
0.0
 20
0.0
 11
12.0
 21
9.0
 12
0.0
 22
0.0
 32
0.0
 14
1.000000000000000E+20
 24
1.000000000000000E+20
 34
1.000000000000000E+20
 15
-1.000000000000000E+20
 25
-1.000000000000000E+20
 35
-1.000000000000000E+20
146
0.0
 13
0.0
 23
0.0
 33
0.0
 16
1.0
 26
0.0
 36
0.0
 17
0.0
 27
1.0
 37
0.0
 76
     0
330
1F
331
29
  0
MATERIAL
  5
3D
102
{ACAD_REACTORS
330
3B
102
}
102
{ACAD_XDICTIONARY
360
31F
102
}
330
3B
100
AcDbMaterial
  1
ByBlock
  0
MATERIAL
  5
3C
102
{ACAD_REACTORS
330
3B
102
}
102
{ACAD_XDICTIONARY
360
31D
102
}
330
3B
100
AcDbMaterial
  1
ByLayer
  0
MATERIAL
  5
3E
102
{ACAD_REACTORS
330
3B
102
}
102
{ACAD_XDICTIONARY
360
321
102
}
330
3B
100
AcDbMaterial
  1
Global
  0
MLINESTYLE
  5
18
102
{ACAD_REACTORS
330
17
102
}
330
17
100
AcDbMlineStyle
  2
Standard
 70
     0
  3

 62
   256
 51
90.0
 52
90.0
 71
     2
 49
0.5
 62
   256
  6
BYLAYER
 49
-0.5
 62
   256
  6
BYLAYER
  0
ACDBPLACEHOLDER
  5
F
102
{ACAD_REACTORS
330
E
102
}
330
E
  0
SCALE
  5
2D8
102
{ACAD_REACTORS
330
2D7
102
}
330
2D7
100
AcDbScale
 70
     0
300
1:1
140
1.0
141
1.0
290
     1
  0
SCALE
  5
2D9
102
{ACAD_REACTORS
330
2D7
102
}
330
2D7
100
AcDbScale
 70
     0
300
1:2
140
1.0
141
2.0
290
     0
  0
SCALE
  5
2DA
102
{ACAD_REACTORS
330
2D7
102
}
330
2D7
100
AcDbScale
 70
     0
300
1:4
140
1.0
141
4.0
290
     0
  0
SCALE
  5
2DB
102
{ACAD_REACTORS
330
2D7
102
}
330
2D7
100
AcDbScale
 70
     0
300
1:5
140
1.0
141
5.0
290
     0
  0
SCALE
  5
2DC
102
{ACAD_REACTORS
330
2D7
102
}
330
2D7
100
AcDbScale
 70
     0
300
1:8
140
1.0
141
8.0
290
     0
  0
SCALE
  5
2DD
102
{ACAD_REACTORS
330
2D7
102
}
330
2D7
100
AcDbScale
 70
     0
300
1:10
140
1.0
141
10.0
290
     0
  0
SCALE
  5
2DE
102
{ACAD_REACTORS
330
2D7
102
}
330
2D7
100
AcDbScale
 70
     0
300
1:16
140
1.0
141
16.0
290
     0
  0
SCALE
  5
2DF
102
{ACAD_REACTORS
330
2D7
102
}
330
2D7
100
AcDbScale
 70
     0
300
1:20
140
1.0
141
20.0
290
     0
  0
SCALE
  5
2E0
102
{ACAD_REACTORS
330
2D7
102
}
330
2D7
100
AcDbScale
 70
     0
300
1:30
140
1.0
141
30.0
290
     0
  0
SCALE
  5
2E1
102
{ACAD_REACTORS
330
2D7
102
}
330
2D7
100
AcDbScale
 70
     0
300
1:40
140
1.0
141
40.0
290
     0
  0
SCALE
  5
2E2
102
{ACAD_REACTORS
330
2D7
102
}
330
2D7
100
AcDbScale
 70
     0
300
1:50
140
1.0
141
50.0
290
     0
  0
SCALE
  5
2E3
102
{ACAD_REACTORS
330
2D7
102
}
330
2D7
100
AcDbScale
 70
     0
300
1:100
140
1.0
141
100.0
290
     0
  0
SCALE
  5
2E4
102
{ACAD_REACTORS
330
2D7
102
}
330
2D7
100
AcDbScale
 70
     0
300
2:1
140
2.0
141
1.0
290
     0
  0
SCALE
  5
2E5
102
{ACAD_REACTORS
330
2D7
102
}
330
2D7
100
AcDbScale
 70
     0
300
4:1
140
4.0
141
1.0
290
     0
  0
SCALE
  5
2E6
102
{ACAD_REACTORS
330
2D7
102
}
330
2D7
100
AcDbScale
 70
     0
300
8:1
140
8.0
141
1.0
290
     0
  0
SCALE
  5
2E7
102
{ACAD_REACTORS
330
2D7
102
}
330
2D7
100
AcDbScale
 70
     0
300
10:1
140
10.0
141
1.0
290
     0
  0
SCALE
  5
2E8
102
{ACAD_REACTORS
330
2D7
102
}
330
2D7
100
AcDbScale
 70
     0
300
100:1
140
100.0
141
1.0
290
     0
  0
SCALE
  5
2E9
102
{ACAD_REACTORS
330
2D7
102
}
330
2D7
100
AcDbScale
 70
     0
300
1/128" = 1'-0"
140
0.0078125
141
12.0
290
     0
  0
SCALE
  5
2EA
102
{ACAD_REACTORS
330
2D7
102
}
330
2D7
100
AcDbScale
 70
     0
300
1/64" = 1'-0"
140
0.015625
141
12.0
290
     0
  0
SCALE
  5
2EB
102
{ACAD_REACTORS
330
2D7
102
}
330
2D7
100
AcDbScale
 70
     0
300
1/32" = 1'-0"
140
0.03125
141
12.0
290
     0
  0
SCALE
  5
2EC
102
{ACAD_REACTORS
330
2D7
102
}
330
2D7
100
AcDbScale
 70
     0
300
1/16" = 1'-0"
140
0.0625
141
12.0
290
     0
  0
SCALE
  5
2ED
102
{ACAD_REACTORS
330
2D7
102
}
330
2D7
100
AcDbScale
 70
     0
300
3/32" = 1'-0"
140
0.09375
141
12.0
290
     0
  0
SCALE
  5
2EE
102
{ACAD_REACTORS
330
2D7
102
}
330
2D7
100
AcDbScale
 70
     0
300
1/8" = 1'-0"
140
0.125
141
12.0
290
     0
  0
SCALE
  5
2EF
102
{ACAD_REACTORS
330
2D7
102
}
330
2D7
100
AcDbScale
 70
     0
300
3/16" = 1'-0"
140
0.1875
141
12.0
290
     0
  0
SCALE
  5
2F0
102
{ACAD_REACTORS
330
2D7
102
}
330
2D7
100
AcDbScale
 70
     0
300
1/4" = 1'-0"
140
0.25
141
12.0
290
     0
  0
SCALE
  5
2F1
102
{ACAD_REACTORS
330
2D7
102
}
330
2D7
100
AcDbScale
 70
     0
300
3/8" = 1'-0"
140
0.375
141
12.0
290
     0
  0
SCALE
  5
2F2
102
{ACAD_REACTORS
330
2D7
102
}
330
2D7
100
AcDbScale
 70
     0
300
1/2" = 1'-0"
140
0.5
141
12.0
290
     0
  0
SCALE
  5
2F3
102
{ACAD_REACTORS
330
2D7
102
}
330
2D7
100
AcDbScale
 70
     0
300
3/4" = 1'-0"
140
0.75
141
12.0
290
     0
  0
SCALE
  5
2F4
102
{ACAD_REACTORS
330
2D7
102
}
330
2D7
100
AcDbScale
 70
     0
300
1" = 1'-0"
140
1.0
141
12.0
290
     0
  0
SCALE
  5
2F5
102
{ACAD_REACTORS
330
2D7
102
}
330
2D7
100
AcDbScale
 70
     0
300
1-1/2" = 1'-0"
140
1.5
141
12.0
290
     0
  0
SCALE
  5
2F6
102
{ACAD_REACTORS
330
2D7
102
}
330
2D7
100
AcDbScale
 70
     0
300
3" = 1'-0"
140
3.0
141
12.0
290
     0
  0
SCALE
  5
2F7
102
{ACAD_REACTORS
330
2D7
102
}
330
2D7
100
AcDbScale
 70
     0
300
6" = 1'-0"
140
6.0
141
12.0
290
     0
  0
SCALE
  5
2F8
102
{ACAD_REACTORS
330
2D7
102
}
330
2D7
100
AcDbScale
 70
     0
300
1'-0" = 1'-0"
140
12.0
141
12.0
290
     0
  0
VISUALSTYLE
  5
2F
102
{ACAD_REACTORS
330
2A
102
}
102
{ACAD_XDICTIONARY
360
305
102
}
330
2A
100
AcDbVisualStyle
  2
2dWireframe
 70
     4
 71
     0
 72
     2
 73
     0
 90
        0
 40
-0.6
 41
-30.0
 62
     5
 63
     7
421
 16777215
 74
     1
 91
        4
 64
     7
 65
   257
 75
     1
175
     1
 42
1.0
 92
        0
 66
   257
 43
1.0
 76
     1
 77
     6
 78
     2
 67
     7
 79
     5
170
     0
171
     0
290
     0
174
     0
 93
        1
 44
0.0
173
     0
291
     0
 45
0.0
1001
ACAD
1000
AcDbSavedByObjectVersion
1070
     0
  0
VISUALSTYLE
  5
31
102
{ACAD_REACTORS
330
2A
102
}
102
{ACAD_XDICTIONARY
360
309
102
}
330
2A
100
AcDbVisualStyle
  2
3D Hidden
 70
     6
 71
     1
 72
     2
 73
     2
 90
        0
 40
-0.6
 41
-30.0
 62
     5
 63
     7
421
 16777215
 74
     2
 91
        2
 64
     7
 65
   257
 75
     2
175
     1
 42
40.0
 92
        0
 66
   257
 43
1.0
 76
     1
 77
     6
 78
     2
 67
     7
 79
     3
170
     0
171
     0
290
     0
174
     0
 93
        1
 44
0.0
173
     0
291
     0
 45
0.0
1001
ACAD
1000
AcDbSavedByObjectVersion
1070
     0
  0
VISUALSTYLE
  5
30
102
{ACAD_REACTORS
330
2A
102
}
102
{ACAD_XDICTIONARY
360
307
102
}
330
2A
100
AcDbVisualStyle
  2
3dWireframe
 70
     5
 71
     0
 72
     2
 73
     0
 90
        0
 40
-0.6
 41
-30.0
 62
     5
 63
     7
421
 16777215
 74
     1
 91
        4
 64
     7
 65
   257
 75
     1
175
     1
 42
1.0
 92
        0
 66
   257
 43
1.0
 76
     1
 77
     6
 78
     2
 67
     7
 79
     5
170
     0
171
     0
290
     0
174
     0
 93
        1
 44
0.0
173
     0
291
     0
 45
0.0
1001
ACAD
1000
AcDbSavedByObjectVersion
1070
     0
  0
VISUALSTYLE
  5
32
102
{ACAD_REACTORS
330
2A
102
}
102
{ACAD_XDICTIONARY
360
30B
102
}
330
2A
100
AcDbVisualStyle
  2
Basic
 70
     7
 71
     1
 72
     0
 73
     1
 90
        0
 40
-0.6
 41
-30.0
 62
     5
 63
     7
421
 16777215
 74
     0
 91
        4
 64
     7
 65
   257
 75
     1
175
     1
 42
1.0
 92
        8
 66
     7
 43
1.0
 76
     1
 77
     6
 78
     2
 67
     7
 79
     5
170
     0
171
     0
290
     0
174
     0
 93
        1
 44
0.0
173
     0
291
     1
 45
0.0
1001
ACAD
1000
AcDbSavedByObjectVersion
1070
     0
  0
VISUALSTYLE
  5
36
102
{ACAD_REACTORS
330
2A
102
}
102
{ACAD_XDICTIONARY
360
313
102
}
330
2A
100
AcDbVisualStyle
  2
Brighten
 70
    12
 71
     2
 72
     2
 73
     0
 90
        0
 40
-0.6
 41
-30.0
 62
     5
 63
     7
421
 16777215
 74
     1
 91
        4
 64
     7
 65
   257
 75
     1
175
     1
 42
1.0
 92
        8
 66
     7
 43
1.0
 76
     1
 77
     6
 78
     2
 67
     7
 79
     5
170
     0
171
     0
290
     0
174
     0
 93
        1
 44
50.0
173
     0
291
     1
 45
0.0
1001
ACAD
1000
AcDbSavedByObjectVersion
1070
     0
  0
VISUALSTYLE
  5
3A
102
{ACAD_REACTORS
330
2A
102
}
102
{ACAD_XDICTIONARY
360
31B
102
}
330
2A
100
AcDbVisualStyle
  2
ColorChange
 70
    16
 71
     2
 72
     2
 73
     3
 90
        0
 40
-0.6
 41
-30.0
 62
     5
 63
     8
421
  8421504
 74
     1
 91
        4
 64
     7
 65
   257
 75
     1
175
     1
 42
1.0
 92
        8
 66
     8
424
  8421504
 43
1.0
 76
     1
 77
     6
 78
     2
 67
     7
 79
     5
170
     0
171
     0
290
     0
174
     0
 93
        1
 44
0.0
173
     0
291
     1
 45
0.0
1001
ACAD
1000
AcDbSavedByObjectVersion
1070
     0
  0
VISUALSTYLE
  5
34
102
{ACAD_REACTORS
330
2A
102
}
102
{ACAD_XDICTIONARY
360
30F
102
}
330
2A
100
AcDbVisualStyle
  2
Conceptual
 70
     9
 71
     3
 72
     2
 73
     0
 90
        0
 40
-0.6
 41
-30.0
 62
     5
 63
     7
421
 16777215
 74
     2
 91
        2
 64
     7
 65
   257
 75
     1
175
     1
 42
40.0
 92
        8
 66
     7
 43
1.0
 76
     1
 77
     6
 78
     2
 67
     7
 79
     3
170
     0
171
     0
290
     0
174
     0
 93
        1
 44
0.0
173
     0
291
     0
 45
0.0
1001
ACAD
1000
AcDbSavedByObjectVersion
1070
     0
  0
VISUALSTYLE
  5
35
102
{ACAD_REACTORS
330
2A
102
}
102
{ACAD_XDICTIONARY
360
311
102
}
330
2A
100
AcDbVisualStyle
  2
Dim
 70
    11
 71
     2
 72
     2
 73
     0
 90
        0
 40
-0.6
 41
-30.0
 62
     5
 63
     7
421
 16777215
 74
     1
 91
        4
 64
     7
 65
   257
 75
     1
175
     1
 42
1.0
 92
        8
 66
     7
 43
1.0
 76
     1
 77
     6
 78
     2
 67
     7
 79
     5
170
     0
171
     0
290
     0
174
     0
 93
        1
 44
-50.0
173
     0
291
     1
 45
0.0
1001
ACAD
1000
AcDbSavedByObjectVersion
1070
     0
  0
VISUALSTYLE
  5
39
102
{ACAD_REACTORS
330
2A
102
}
102
{ACAD_XDICTIONARY
360
319
102
}
330
2A
100
AcDbVisualStyle
  2
Facepattern
 70
    15
 71
     2
 72
     2
 73
     0
 90
        0
 40
-0.6
 41
-30.0
 62
     5
 63
     7
421
 16777215
 74
     1
 91
        4
 64
     7
 65
   257
 75
     1
175
     1
 42
1.0
 92
        8
 66
     7
 43
1.0
 76
     1
 77
     6
 78
     2
 67
     7
 79
     5
170
     0
171
     0
290
     0
174
     0
 93
        1
 44
0.0
173
     0
291
     1
 45
0.0
1001
ACAD
1000
AcDbSavedByObjectVersion
1070
     0
  0
VISUALSTYLE
  5
2B
102
{ACAD_REACTORS
330
2A
102
}
102
{ACAD_XDICTIONARY
360
2FD
102
}
330
2A
100
AcDbVisualStyle
  2
Flat
 70
     0
 71
     2
 72
     1
 73
     1
 90
        2
 40
-0.6
 41
30.0
 62
     5
 63
     7
421
 16777215
 74
     0
 91
        4
 64
     7
 65
   257
 75
     1
175
     1
 42
1.0
 92
        8
 66
     7
 43
1.0
 76
     1
 77
     6
 78
     2
 67
     7
 79
     5
170
     0
171
     0
290
     0
174
     0
 93
       13
 44
0.0
173
     0
291
     1
 45
0.0
1001
ACAD
1000
AcDbSavedByObjectVersion
1070
     0
  0
VISUALSTYLE
  5
2C
102
{ACAD_REACTORS
330
2A
102
}
102
{ACAD_XDICTIONARY
360
2FF
102
}
330
2A
100
AcDbVisualStyle
  2
FlatWithEdges
 70
     1
 71
     2
 72
     1
 73
     1
 90
        2
 40
-0.6
 41
30.0
 62
     5
 63
     7
421
 16777215
 74
     1
 91
        4
 64
     7
 65
   257
 75
     1
175
     1
 42
1.0
 92
        0
 66
   257
 43
1.0
 76
     1
 77
     6
 78
     2
 67
     7
 79
     5
170
     0
171
     0
290
     0
174
     0
 93
       13
 44
0.0
173
     0
291
     1
 45
0.0
1001
ACAD
1000
AcDbSavedByObjectVersion
1070
     0
  0
VISUALSTYLE
  5
2D
102
{ACAD_REACTORS
330
2A
102
}
102
{ACAD_XDICTIONARY
360
301
102
}
330
2A
100
AcDbVisualStyle
  2
Gouraud
 70
     2
 71
     2
 72
     2
 73
     1
 90
        2
 40
-0.6
 41
30.0
 62
     5
 63
     7
421
 16777215
 74
     0
 91
        4
 64
     7
 65
   257
 75
     1
175
     1
 42
1.0
 92
        0
 66
     7
 43
1.0
 76
     1
 77
     6
 78
     2
 67
     7
 79
     5
170
     0
171
     0
290
     0
174
     0
 93
       13
 44
0.0
173
     0
291
     1
 45
0.0
1001
ACAD
1000
AcDbSavedByObjectVersion
1070
     0
  0
VISUALSTYLE
  5
2E
102
{ACAD_REACTORS
330
2A
102
}
102
{ACAD_XDICTIONARY
360
303
102
}
330
2A
100
AcDbVisualStyle
  2
GouraudWithEdges
 70
     3
 71
     2
 72
     2
 73
     1
 90
        2
 40
-0.6
 41
30.0
 62
     5
 63
     7
421
 16777215
 74
     1
 91
        4
 64
     7
 65
   257
 75
     1
175
     1
 42
1.0
 92
        0
 66
   257
 43
1.0
 76
     1
 77
     6
 78
     2
 67
     7
 79
     5
170
     0
171
     0
290
     0
174
     0
 93
       13
 44
0.0
173
     0
291
     1
 45
0.0
1001
ACAD
1000
AcDbSavedByObjectVersion
1070
     0
  0
VISUALSTYLE
  5
38
102
{ACAD_REACTORS
330
2A
102
}
102
{ACAD_XDICTIONARY
360
317
102
}
330
2A
100
AcDbVisualStyle
  2
Linepattern
 70
    14
 71
     2
 72
     2
 73
     0
 90
        0
 40
-0.6
 41
-30.0
 62
     5
 63
     7
421
 16777215
 74
     1
 91
        4
 64
     7
 65
   257
 75
     7
175
     7
 42
1.0
 92
        8
 66
     7
 43
1.0
 76
     1
 77
     6
 78
     2
 67
     7
 79
     5
170
     0
171
     0
290
     0
174
     0
 93
        1
 44
0.0
173
     0
291
     1
 45
0.0
1001
ACAD
1000
AcDbSavedByObjectVersion
1070
     0
  0
VISUALSTYLE
  5
33
102
{ACAD_REACTORS
330
2A
102
}
102
{ACAD_XDICTIONARY
360
30D
102
}
330
2A
100
AcDbVisualStyle
  2
Realistic
 70
     8
 71
     2
 72
     2
 73
     0
 90
        0
 40
-0.6
 41
-30.0
 62
     5
 63
     7
421
 16777215
 74
     1
 91
        0
 64
     7
 65
   257
 75
     1
175
     1
 42
1.0
 92
        8
 66
     8
424
  7895160
 43
1.0
 76
     1
 77
     6
 78
     2
 67
     7
 79
     5
170
     0
171
     0
290
     0
174
     0
 93
       13
 44
0.0
173
     0
291
     0
 45
0.0
1001
ACAD
1000
AcDbSavedByObjectVersion
1070
     0
  0
VISUALSTYLE
  5
37
102
{ACAD_REACTORS
330
2A
102
}
102
{ACAD_XDICTIONARY
360
315
102
}
330
2A
100
AcDbVisualStyle
  2
Thicken
 70
    13
 71
     2
 72
     2
 73
     0
 90
        0
 40
-0.6
 41
-30.0
 62
     5
 63
     7
421
 16777215
 74
     1
 91
        4
 64
     7
 65
   257
 75
     1
175
     1
 42
1.0
 92
       12
 66
     7
 43
1.0
 76
     1
 77
     6
 78
     2
 67
     7
 79
     5
170
     0
171
     0
290
     0
174
     0
 93
        1
 44
0.0
173
     0
291
     1
 45
0.0
1001
ACAD
1000
AcDbSavedByObjectVersion
1070
     0
  0
DICTIONARYVAR
  5
2FC
102
{ACAD_REACTORS
330
2FB
102
}
330
2FB
100
DictionaryVariables
280
     0
  1
1:1
  0
DICTIONARYVAR
  5
325
102
{ACAD_REACTORS
330
2FB
102
}
330
2FB
100
DictionaryVariables
280
     0
  1
0
  0
XRECORD
  5
2FA
102
{ACAD_REACTORS
330
2F9
102
}
330
2F9
100
AcDbXrecord
280
     1
1000
This DWG file was created in ArchiCAD(TM)®
  0
DICTIONARY
  5
31F
330
3D
100
AcDbDictionary
280
     1
281
     1
  3
ACAD_XREC_ROUNDTRIP
360
320
  0
DICTIONARY
  5
31D
330
3C
100
AcDbDictionary
280
     1
281
     1
  3
ACAD_XREC_ROUNDTRIP
360
31E
  0
DICTIONARY
  5
321
330
3E
100
AcDbDictionary
280
     1
281
     1
  3
ACAD_XREC_ROUNDTRIP
360
322
  0
DICTIONARY
  5
305
330
2F
100
AcDbDictionary
280
     1
281
     1
  3
ACAD_XREC_ROUNDTRIP
360
306
  0
DICTIONARY
  5
309
330
31
100
AcDbDictionary
280
     1
281
     1
  3
ACAD_XREC_ROUNDTRIP
360
30A
  0
DICTIONARY
  5
307
330
30
100
AcDbDictionary
280
     1
281
     1
  3
ACAD_XREC_ROUNDTRIP
360
308
  0
DICTIONARY
  5
30B
330
32
100
AcDbDictionary
280
     1
281
     1
  3
ACAD_XREC_ROUNDTRIP
360
30C
  0
DICTIONARY
  5
313
330
36
100
AcDbDictionary
280
     1
281
     1
  3
ACAD_XREC_ROUNDTRIP
360
314
  0
DICTIONARY
  5
31B
330
3A
100
AcDbDictionary
280
     1
281
     1
  3
ACAD_XREC_ROUNDTRIP
360
31C
  0
DICTIONARY
  5
30F
330
34
100
AcDbDictionary
280
     1
281
     1
  3
ACAD_XREC_ROUNDTRIP
360
310
  0
DICTIONARY
  5
311
330
35
100
AcDbDictionary
280
     1
281
     1
  3
ACAD_XREC_ROUNDTRIP
360
312
  0
DICTIONARY
  5
319
330
39
100
AcDbDictionary
280
     1
281
     1
  3
ACAD_XREC_ROUNDTRIP
360
31A
  0
DICTIONARY
  5
2FD
330
2B
100
AcDbDictionary
280
     1
281
     1
  3
ACAD_XREC_ROUNDTRIP
360
2FE
  0
DICTIONARY
  5
2FF
330
2C
100
AcDbDictionary
280
     1
281
     1
  3
ACAD_XREC_ROUNDTRIP
360
300
  0
DICTIONARY
  5
301
330
2D
100
AcDbDictionary
280
     1
281
     1
  3
ACAD_XREC_ROUNDTRIP
360
302
  0
DICTIONARY
  5
303
330
2E
100
AcDbDictionary
280
     1
281
     1
  3
ACAD_XREC_ROUNDTRIP
360
304
  0
DICTIONARY
  5
317
330
38
100
AcDbDictionary
280
     1
281
     1
  3
ACAD_XREC_ROUNDTRIP
360
318
  0
DICTIONARY
  5
30D
330
33
100
AcDbDictionary
280
     1
281
     1
  3
ACAD_XREC_ROUNDTRIP
360
30E
  0
DICTIONARY
  5
315
330
37
100
AcDbDictionary
280
     1
281
     1
  3
ACAD_XREC_ROUNDTRIP
360
316
  0
XRECORD
  5
320
102
{ACAD_REACTORS
330
31F
102
}
330
31F
100
AcDbXrecord
280
     1
102
MATERIAL
148
0.0
149
0.0
149
0.0
 93
        0
 94
      127
282
     0
 72
     1
 77
     1
171
     1
175
     1
179
     1
273
     0
  0
XRECORD
  5
31E
102
{ACAD_REACTORS
330
31D
102
}
330
31D
100
AcDbXrecord
280
     1
102
MATERIAL
148
0.0
149
0.0
149
0.0
 93
        0
 94
      127
282
     0
 72
     1
 77
     1
171
     1
175
     1
179
     1
273
     0
  0
XRECORD
  5
322
102
{ACAD_REACTORS
330
321
102
}
330
321
100
AcDbXrecord
280
     1
102
MATERIAL
148
0.0
149
0.0
149
0.0
 93
        0
 94
      127
282
     0
 72
     1
 77
     1
171
     1
175
     1
179
     1
273
     0
  0
XRECORD
  5
306
102
{ACAD_REACTORS
330
305
102
}
330
305
100
AcDbXrecord
280
     1
102
RTVSPropertyOp0
 70
     1
102
RTVSPropertyOp1
 70
     1
102
RTVSPropertyOp2
 70
     1
102
RTVSPropertyOp3
 70
     1
102
RTVSPropertyOp4
 70
     1
102
RTVSPropertyOp5
 70
     1
102
RTVSPropertyOp6
 70
     1
102
RTVSPropertyOp7
 70
     1
102
RTVSPropertyOp8
 70
     1
102
RTVSPropertyOp9
 70
     1
102
RTVSPropertyOp10
 70
     1
102
RTVSPropertyOp11
 70
     1
102
RTVSPropertyOp12
 70
     1
102
RTVSPropertyOp13
 70
     1
102
RTVSPropertyOp14
 70
     1
102
RTVSPropertyOp15
 70
     1
102
RTVSPropertyOp16
 70
     1
102
RTVSPropertyOp17
 70
     1
102
RTVSPropertyOp18
 70
     1
102
RTVSPropertyOp19
 70
     1
102
RTVSPropertyOp20
 70
     1
102
RTVSPropertyOp21
 70
     1
102
RTVSPropertyOp22
 70
     1
102
RTVSPropertyOp23
 70
     1
102
RTVSPropertyOp24
 70
     1
102
RTVSPropertyOp25
 70
     1
102
RTVSPropertyOp26
 70
     1
102
RTVSPropertyOp27
 70
     1
102
RTVSPropertyOp28
 70
     1
102
RTVSPropertyOp29
 70
     1
102
RTVSPropertyOp30
 70
     1
102
RTVSPropertyOp31
 70
     1
102
RTVSPropertyOp32
 70
     1
  0
XRECORD
  5
30A
102
{ACAD_REACTORS
330
309
102
}
330
309
100
AcDbXrecord
280
     1
102
RTVSPropertyOp0
 70
     1
102
RTVSPropertyOp1
 70
     1
102
RTVSPropertyOp2
 70
     1
102
RTVSPropertyOp3
 70
     1
102
RTVSPropertyOp4
 70
     1
102
RTVSPropertyOp5
 70
     1
102
RTVSPropertyOp6
 70
     1
102
RTVSPropertyOp7
 70
     1
102
RTVSPropertyOp8
 70
     1
102
RTVSPropertyOp9
 70
     1
102
RTVSPropertyOp10
 70
     1
102
RTVSPropertyOp11
 70
     1
102
RTVSPropertyOp12
 70
     1
102
RTVSPropertyOp13
 70
     1
102
RTVSPropertyOp14
 70
     1
102
RTVSPropertyOp15
 70
     1
102
RTVSPropertyOp16
 70
     1
102
RTVSPropertyOp17
 70
     1
102
RTVSPropertyOp18
 70
     1
102
RTVSPropertyOp19
 70
     1
102
RTVSPropertyOp20
 70
     1
102
RTVSPropertyOp21
 70
     1
102
RTVSPropertyOp22
 70
     1
102
RTVSPropertyOp23
 70
     1
102
RTVSPropertyOp24
 70
     1
102
RTVSPropertyOp25
 70
     1
102
RTVSPropertyOp26
 70
     1
102
RTVSPropertyOp27
 70
     1
102
RTVSPropertyOp28
 70
     1
102
RTVSPropertyOp29
 70
     1
102
RTVSPropertyOp30
 70
     1
102
RTVSPropertyOp31
 70
     1
102
RTVSPropertyOp32
 70
     1
  0
XRECORD
  5
308
102
{ACAD_REACTORS
330
307
102
}
330
307
100
AcDbXrecord
280
     1
102
RTVSPropertyOp0
 70
     1
102
RTVSPropertyOp1
 70
     1
102
RTVSPropertyOp2
 70
     1
102
RTVSPropertyOp3
 70
     1
102
RTVSPropertyOp4
 70
     1
102
RTVSPropertyOp5
 70
     1
102
RTVSPropertyOp6
 70
     1
102
RTVSPropertyOp7
 70
     1
102
RTVSPropertyOp8
 70
     1
102
RTVSPropertyOp9
 70
     1
102
RTVSPropertyOp10
 70
     1
102
RTVSPropertyOp11
 70
     1
102
RTVSPropertyOp12
 70
     1
102
RTVSPropertyOp13
 70
     1
102
RTVSPropertyOp14
 70
     1
102
RTVSPropertyOp15
 70
     1
102
RTVSPropertyOp16
 70
     1
102
RTVSPropertyOp17
 70
     1
102
RTVSPropertyOp18
 70
     1
102
RTVSPropertyOp19
 70
     1
102
RTVSPropertyOp20
 70
     1
102
RTVSPropertyOp21
 70
     1
102
RTVSPropertyOp22
 70
     1
102
RTVSPropertyOp23
 70
     1
102
RTVSPropertyOp24
 70
     1
102
RTVSPropertyOp25
 70
     1
102
RTVSPropertyOp26
 70
     1
102
RTVSPropertyOp27
 70
     1
102
RTVSPropertyOp28
 70
     1
102
RTVSPropertyOp29
 70
     1
102
RTVSPropertyOp30
 70
     1
102
RTVSPropertyOp31
 70
     1
102
RTVSPropertyOp32
 70
     1
  0
XRECORD
  5
30C
102
{ACAD_REACTORS
330
30B
102
}
330
30B
100
AcDbXrecord
280
     1
102
RTVSPropertyOp0
 70
     1
102
RTVSPropertyOp1
 70
     1
102
RTVSPropertyOp2
 70
     1
102
RTVSPropertyOp3
 70
     1
102
RTVSPropertyOp4
 70
     1
102
RTVSPropertyOp5
 70
     1
102
RTVSPropertyOp6
 70
     1
102
RTVSPropertyOp7
 70
     1
102
RTVSPropertyOp8
 70
     1
102
RTVSPropertyOp9
 70
     1
102
RTVSPropertyOp10
 70
     1
102
RTVSPropertyOp11
 70
     1
102
RTVSPropertyOp12
 70
     1
102
RTVSPropertyOp13
 70
     1
102
RTVSPropertyOp14
 70
     1
102
RTVSPropertyOp15
 70
     1
102
RTVSPropertyOp16
 70
     1
102
RTVSPropertyOp17
 70
     1
102
RTVSPropertyOp18
 70
     1
102
RTVSPropertyOp19
 70
     1
102
RTVSPropertyOp20
 70
     1
102
RTVSPropertyOp21
 70
     1
102
RTVSPropertyOp22
 70
     1
102
RTVSPropertyOp23
 70
     1
102
RTVSPropertyOp24
 70
     1
102
RTVSPropertyOp25
 70
     1
102
RTVSPropertyOp26
 70
     1
102
RTVSPropertyOp27
 70
     1
102
RTVSPropertyOp28
 70
     1
102
RTVSPropertyOp29
 70
     1
102
RTVSPropertyOp30
 70
     1
102
RTVSPropertyOp31
 70
     1
102
RTVSPropertyOp32
 70
     1
  0
XRECORD
  5
314
102
{ACAD_REACTORS
330
313
102
}
330
313
100
AcDbXrecord
280
     1
102
RTVSPropertyOp0
 70
     1
102
RTVSPropertyOp1
 70
     1
102
RTVSPropertyOp2
 70
     1
102
RTVSPropertyOp3
 70
     1
102
RTVSPropertyOp4
 70
     1
102
RTVSPropertyOp5
 70
     1
102
RTVSPropertyOp6
 70
     1
102
RTVSPropertyOp7
 70
     1
102
RTVSPropertyOp8
 70
     1
102
RTVSPropertyOp9
 70
     1
102
RTVSPropertyOp10
 70
     1
102
RTVSPropertyOp11
 70
     1
102
RTVSPropertyOp12
 70
     1
102
RTVSPropertyOp13
 70
     1
102
RTVSPropertyOp14
 70
     1
102
RTVSPropertyOp15
 70
     1
102
RTVSPropertyOp16
 70
     1
102
RTVSPropertyOp17
 70
     1
102
RTVSPropertyOp18
 70
     1
102
RTVSPropertyOp19
 70
     1
102
RTVSPropertyOp20
 70
     1
102
RTVSPropertyOp21
 70
     1
102
RTVSPropertyOp22
 70
     1
102
RTVSPropertyOp23
 70
     1
102
RTVSPropertyOp24
 70
     1
102
RTVSPropertyOp25
 70
     1
102
RTVSPropertyOp26
 70
     1
102
RTVSPropertyOp27
 70
     1
102
RTVSPropertyOp28
 70
     1
102
RTVSPropertyOp29
 70
     1
102
RTVSPropertyOp30
 70
     1
102
RTVSPropertyOp31
 70
     1
102
RTVSPropertyOp32
 70
     1
  0
XRECORD
  5
31C
102
{ACAD_REACTORS
330
31B
102
}
330
31B
100
AcDbXrecord
280
     1
102
RTVSPropertyOp0
 70
     1
102
RTVSPropertyOp1
 70
     1
102
RTVSPropertyOp2
 70
     1
102
RTVSPropertyOp3
 70
     1
102
RTVSPropertyOp4
 70
     1
102
RTVSPropertyOp5
 70
     1
102
RTVSPropertyOp6
 70
     1
102
RTVSPropertyOp7
 70
     1
102
RTVSPropertyOp8
 70
     1
102
RTVSPropertyOp9
 70
     1
102
RTVSPropertyOp10
 70
     1
102
RTVSPropertyOp11
 70
     1
102
RTVSPropertyOp12
 70
     1
102
RTVSPropertyOp13
 70
     1
102
RTVSPropertyOp14
 70
     1
102
RTVSPropertyOp15
 70
     1
102
RTVSPropertyOp16
 70
     1
102
RTVSPropertyOp17
 70
     1
102
RTVSPropertyOp18
 70
     1
102
RTVSPropertyOp19
 70
     1
102
RTVSPropertyOp20
 70
     1
102
RTVSPropertyOp21
 70
     1
102
RTVSPropertyOp22
 70
     1
102
RTVSPropertyOp23
 70
     1
102
RTVSPropertyOp24
 70
     1
102
RTVSPropertyOp25
 70
     1
102
RTVSPropertyOp26
 70
     1
102
RTVSPropertyOp27
 70
     1
102
RTVSPropertyOp28
 70
     1
102
RTVSPropertyOp29
 70
     1
102
RTVSPropertyOp30
 70
     1
102
RTVSPropertyOp31
 70
     1
102
RTVSPropertyOp32
 70
     1
  0
XRECORD
  5
310
102
{ACAD_REACTORS
330
30F
102
}
330
30F
100
AcDbXrecord
280
     1
102
RTVSPropertyOp0
 70
     1
102
RTVSPropertyOp1
 70
     1
102
RTVSPropertyOp2
 70
     1
102
RTVSPropertyOp3
 70
     1
102
RTVSPropertyOp4
 70
     1
102
RTVSPropertyOp5
 70
     1
102
RTVSPropertyOp6
 70
     1
102
RTVSPropertyOp7
 70
     1
102
RTVSPropertyOp8
 70
     1
102
RTVSPropertyOp9
 70
     1
102
RTVSPropertyOp10
 70
     1
102
RTVSPropertyOp11
 70
     1
102
RTVSPropertyOp12
 70
     1
102
RTVSPropertyOp13
 70
     1
102
RTVSPropertyOp14
 70
     1
102
RTVSPropertyOp15
 70
     1
102
RTVSPropertyOp16
 70
     1
102
RTVSPropertyOp17
 70
     1
102
RTVSPropertyOp18
 70
     1
102
RTVSPropertyOp19
 70
     1
102
RTVSPropertyOp20
 70
     1
102
RTVSPropertyOp21
 70
     1
102
RTVSPropertyOp22
 70
     1
102
RTVSPropertyOp23
 70
     1
102
RTVSPropertyOp24
 70
     1
102
RTVSPropertyOp25
 70
     1
102
RTVSPropertyOp26
 70
     1
102
RTVSPropertyOp27
 70
     1
102
RTVSPropertyOp28
 70
     1
102
RTVSPropertyOp29
 70
     1
102
RTVSPropertyOp30
 70
     1
102
RTVSPropertyOp31
 70
     1
102
RTVSPropertyOp32
 70
     1
  0
XRECORD
  5
312
102
{ACAD_REACTORS
330
311
102
}
330
311
100
AcDbXrecord
280
     1
102
RTVSPropertyOp0
 70
     1
102
RTVSPropertyOp1
 70
     1
102
RTVSPropertyOp2
 70
     1
102
RTVSPropertyOp3
 70
     1
102
RTVSPropertyOp4
 70
     1
102
RTVSPropertyOp5
 70
     1
102
RTVSPropertyOp6
 70
     1
102
RTVSPropertyOp7
 70
     1
102
RTVSPropertyOp8
 70
     1
102
RTVSPropertyOp9
 70
     1
102
RTVSPropertyOp10
 70
     1
102
RTVSPropertyOp11
 70
     1
102
RTVSPropertyOp12
 70
     1
102
RTVSPropertyOp13
 70
     1
102
RTVSPropertyOp14
 70
     1
102
RTVSPropertyOp15
 70
     1
102
RTVSPropertyOp16
 70
     1
102
RTVSPropertyOp17
 70
     1
102
RTVSPropertyOp18
 70
     1
102
RTVSPropertyOp19
 70
     1
102
RTVSPropertyOp20
 70
     1
102
RTVSPropertyOp21
 70
     1
102
RTVSPropertyOp22
 70
     1
102
RTVSPropertyOp23
 70
     1
102
RTVSPropertyOp24
 70
     1
102
RTVSPropertyOp25
 70
     1
102
RTVSPropertyOp26
 70
     1
102
RTVSPropertyOp27
 70
     1
102
RTVSPropertyOp28
 70
     1
102
RTVSPropertyOp29
 70
     1
102
RTVSPropertyOp30
 70
     1
102
RTVSPropertyOp31
 70
     1
102
RTVSPropertyOp32
 70
     1
  0
XRECORD
  5
31A
102
{ACAD_REACTORS
330
319
102
}
330
319
100
AcDbXrecord
280
     1
102
RTVSPropertyOp0
 70
     1
102
RTVSPropertyOp1
 70
     1
102
RTVSPropertyOp2
 70
     1
102
RTVSPropertyOp3
 70
     1
102
RTVSPropertyOp4
 70
     1
102
RTVSPropertyOp5
 70
     1
102
RTVSPropertyOp6
 70
     1
102
RTVSPropertyOp7
 70
     1
102
RTVSPropertyOp8
 70
     1
102
RTVSPropertyOp9
 70
     1
102
RTVSPropertyOp10
 70
     1
102
RTVSPropertyOp11
 70
     1
102
RTVSPropertyOp12
 70
     1
102
RTVSPropertyOp13
 70
     1
102
RTVSPropertyOp14
 70
     1
102
RTVSPropertyOp15
 70
     1
102
RTVSPropertyOp16
 70
     1
102
RTVSPropertyOp17
 70
     1
102
RTVSPropertyOp18
 70
     1
102
RTVSPropertyOp19
 70
     1
102
RTVSPropertyOp20
 70
     1
102
RTVSPropertyOp21
 70
     1
102
RTVSPropertyOp22
 70
     1
102
RTVSPropertyOp23
 70
     1
102
RTVSPropertyOp24
 70
     1
102
RTVSPropertyOp25
 70
     1
102
RTVSPropertyOp26
 70
     1
102
RTVSPropertyOp27
 70
     1
102
RTVSPropertyOp28
 70
     1
102
RTVSPropertyOp29
 70
     1
102
RTVSPropertyOp30
 70
     1
102
RTVSPropertyOp31
 70
     1
102
RTVSPropertyOp32
 70
     1
  0
XRECORD
  5
2FE
102
{ACAD_REACTORS
330
2FD
102
}
330
2FD
100
AcDbXrecord
280
     1
102
RTVSPropertyOp0
 70
     1
102
RTVSPropertyOp1
 70
     1
102
RTVSPropertyOp2
 70
     1
102
RTVSPropertyOp3
 70
     1
102
RTVSPropertyOp4
 70
     1
102
RTVSPropertyOp5
 70
     1
102
RTVSPropertyOp6
 70
     1
102
RTVSPropertyOp7
 70
     1
102
RTVSPropertyOp8
 70
     1
102
RTVSPropertyOp9
 70
     1
102
RTVSPropertyOp10
 70
     1
102
RTVSPropertyOp11
 70
     1
102
RTVSPropertyOp12
 70
     1
102
RTVSPropertyOp13
 70
     1
102
RTVSPropertyOp14
 70
     1
102
RTVSPropertyOp15
 70
     1
102
RTVSPropertyOp16
 70
     1
102
RTVSPropertyOp17
 70
     1
102
RTVSPropertyOp18
 70
     1
102
RTVSPropertyOp19
 70
     1
102
RTVSPropertyOp20
 70
     1
102
RTVSPropertyOp21
 70
     1
102
RTVSPropertyOp22
 70
     1
102
RTVSPropertyOp23
 70
     1
102
RTVSPropertyOp24
 70
     1
102
RTVSPropertyOp25
 70
     1
102
RTVSPropertyOp26
 70
     1
102
RTVSPropertyOp27
 70
     1
102
RTVSPropertyOp28
 70
     1
102
RTVSPropertyOp29
 70
     1
102
RTVSPropertyOp30
 70
     1
102
RTVSPropertyOp31
 70
     1
102
RTVSPropertyOp32
 70
     1
  0
XRECORD
  5
300
102
{ACAD_REACTORS
330
2FF
102
}
330
2FF
100
AcDbXrecord
280
     1
102
RTVSPropertyOp0
 70
     1
102
RTVSPropertyOp1
 70
     1
102
RTVSPropertyOp2
 70
     1
102
RTVSPropertyOp3
 70
     1
102
RTVSPropertyOp4
 70
     1
102
RTVSPropertyOp5
 70
     1
102
RTVSPropertyOp6
 70
     1
102
RTVSPropertyOp7
 70
     1
102
RTVSPropertyOp8
 70
     1
102
RTVSPropertyOp9
 70
     1
102
RTVSPropertyOp10
 70
     1
102
RTVSPropertyOp11
 70
     1
102
RTVSPropertyOp12
 70
     1
102
RTVSPropertyOp13
 70
     1
102
RTVSPropertyOp14
 70
     1
102
RTVSPropertyOp15
 70
     1
102
RTVSPropertyOp16
 70
     1
102
RTVSPropertyOp17
 70
     1
102
RTVSPropertyOp18
 70
     1
102
RTVSPropertyOp19
 70
     1
102
RTVSPropertyOp20
 70
     1
102
RTVSPropertyOp21
 70
     1
102
RTVSPropertyOp22
 70
     1
102
RTVSPropertyOp23
 70
     1
102
RTVSPropertyOp24
 70
     1
102
RTVSPropertyOp25
 70
     1
102
RTVSPropertyOp26
 70
     1
102
RTVSPropertyOp27
 70
     1
102
RTVSPropertyOp28
 70
     1
102
RTVSPropertyOp29
 70
     1
102
RTVSPropertyOp30
 70
     1
102
RTVSPropertyOp31
 70
     1
102
RTVSPropertyOp32
 70
     1
  0
XRECORD
  5
302
102
{ACAD_REACTORS
330
301
102
}
330
301
100
AcDbXrecord
280
     1
102
RTVSPropertyOp0
 70
     1
102
RTVSPropertyOp1
 70
     1
102
RTVSPropertyOp2
 70
     1
102
RTVSPropertyOp3
 70
     1
102
RTVSPropertyOp4
 70
     1
102
RTVSPropertyOp5
 70
     1
102
RTVSPropertyOp6
 70
     1
102
RTVSPropertyOp7
 70
     1
102
RTVSPropertyOp8
 70
     1
102
RTVSPropertyOp9
 70
     1
102
RTVSPropertyOp10
 70
     1
102
RTVSPropertyOp11
 70
     1
102
RTVSPropertyOp12
 70
     1
102
RTVSPropertyOp13
 70
     1
102
RTVSPropertyOp14
 70
     1
102
RTVSPropertyOp15
 70
     1
102
RTVSPropertyOp16
 70
     1
102
RTVSPropertyOp17
 70
     1
102
RTVSPropertyOp18
 70
     1
102
RTVSPropertyOp19
 70
     1
102
RTVSPropertyOp20
 70
     1
102
RTVSPropertyOp21
 70
     1
102
RTVSPropertyOp22
 70
     1
102
RTVSPropertyOp23
 70
     1
102
RTVSPropertyOp24
 70
     1
102
RTVSPropertyOp25
 70
     1
102
RTVSPropertyOp26
 70
     1
102
RTVSPropertyOp27
 70
     1
102
RTVSPropertyOp28
 70
     1
102
RTVSPropertyOp29
 70
     1
102
RTVSPropertyOp30
 70
     1
102
RTVSPropertyOp31
 70
     1
102
RTVSPropertyOp32
 70
     1
  0
XRECORD
  5
304
102
{ACAD_REACTORS
330
303
102
}
330
303
100
AcDbXrecord
280
     1
102
RTVSPropertyOp0
 70
     1
102
RTVSPropertyOp1
 70
     1
102
RTVSPropertyOp2
 70
     1
102
RTVSPropertyOp3
 70
     1
102
RTVSPropertyOp4
 70
     1
102
RTVSPropertyOp5
 70
     1
102
RTVSPropertyOp6
 70
     1
102
RTVSPropertyOp7
 70
     1
102
RTVSPropertyOp8
 70
     1
102
RTVSPropertyOp9
 70
     1
102
RTVSPropertyOp10
 70
     1
102
RTVSPropertyOp11
 70
     1
102
RTVSPropertyOp12
 70
     1
102
RTVSPropertyOp13
 70
     1
102
RTVSPropertyOp14
 70
     1
102
RTVSPropertyOp15
 70
     1
102
RTVSPropertyOp16
 70
     1
102
RTVSPropertyOp17
 70
     1
102
RTVSPropertyOp18
 70
     1
102
RTVSPropertyOp19
 70
     1
102
RTVSPropertyOp20
 70
     1
102
RTVSPropertyOp21
 70
     1
102
RTVSPropertyOp22
 70
     1
102
RTVSPropertyOp23
 70
     1
102
RTVSPropertyOp24
 70
     1
102
RTVSPropertyOp25
 70
     1
102
RTVSPropertyOp26
 70
     1
102
RTVSPropertyOp27
 70
     1
102
RTVSPropertyOp28
 70
     1
102
RTVSPropertyOp29
 70
     1
102
RTVSPropertyOp30
 70
     1
102
RTVSPropertyOp31
 70
     1
102
RTVSPropertyOp32
 70
     1
  0
XRECORD
  5
318
102
{ACAD_REACTORS
330
317
102
}
330
317
100
AcDbXrecord
280
     1
102
RTVSPropertyOp0
 70
     1
102
RTVSPropertyOp1
 70
     1
102
RTVSPropertyOp2
 70
     1
102
RTVSPropertyOp3
 70
     1
102
RTVSPropertyOp4
 70
     1
102
RTVSPropertyOp5
 70
     1
102
RTVSPropertyOp6
 70
     1
102
RTVSPropertyOp7
 70
     1
102
RTVSPropertyOp8
 70
     1
102
RTVSPropertyOp9
 70
     1
102
RTVSPropertyOp10
 70
     1
102
RTVSPropertyOp11
 70
     1
102
RTVSPropertyOp12
 70
     1
102
RTVSPropertyOp13
 70
     1
102
RTVSPropertyOp14
 70
     1
102
RTVSPropertyOp15
 70
     1
102
RTVSPropertyOp16
 70
     1
102
RTVSPropertyOp17
 70
     1
102
RTVSPropertyOp18
 70
     1
102
RTVSPropertyOp19
 70
     1
102
RTVSPropertyOp20
 70
     1
102
RTVSPropertyOp21
 70
     1
102
RTVSPropertyOp22
 70
     1
102
RTVSPropertyOp23
 70
     1
102
RTVSPropertyOp24
 70
     1
102
RTVSPropertyOp25
 70
     1
102
RTVSPropertyOp26
 70
     1
102
RTVSPropertyOp27
 70
     1
102
RTVSPropertyOp28
 70
     1
102
RTVSPropertyOp29
 70
     1
102
RTVSPropertyOp30
 70
     1
102
RTVSPropertyOp31
 70
     1
102
RTVSPropertyOp32
 70
     1
  0
XRECORD
  5
30E
102
{ACAD_REACTORS
330
30D
102
}
330
30D
100
AcDbXrecord
280
     1
102
RTVSPropertyOp0
 70
     1
102
RTVSPropertyOp1
 70
     1
102
RTVSPropertyOp2
 70
     1
102
RTVSPropertyOp3
 70
     1
102
RTVSPropertyOp4
 70
     1
102
RTVSPropertyOp5
 70
     1
102
RTVSPropertyOp6
 70
     1
102
RTVSPropertyOp7
 70
     1
102
RTVSPropertyOp8
 70
     1
102
RTVSPropertyOp9
 70
     1
102
RTVSPropertyOp10
 70
     1
102
RTVSPropertyOp11
 70
     1
102
RTVSPropertyOp12
 70
     1
102
RTVSPropertyOp13
 70
     1
102
RTVSPropertyOp14
 70
     1
102
RTVSPropertyOp15
 70
     1
102
RTVSPropertyOp16
 70
     1
102
RTVSPropertyOp17
 70
     1
102
RTVSPropertyOp18
 70
     1
102
RTVSPropertyOp19
 70
     1
102
RTVSPropertyOp20
 70
     1
102
RTVSPropertyOp21
 70
     1
102
RTVSPropertyOp22
 70
     1
102
RTVSPropertyOp23
 70
     1
102
RTVSPropertyOp24
 70
     1
102
RTVSPropertyOp25
 70
     1
102
RTVSPropertyOp26
 70
     1
102
RTVSPropertyOp27
 70
     1
102
RTVSPropertyOp28
 70
     1
102
RTVSPropertyOp29
 70
     1
102
RTVSPropertyOp30
 70
     1
102
RTVSPropertyOp31
 70
     1
102
RTVSPropertyOp32
 70
     1
  0
XRECORD
  5
316
102
{ACAD_REACTORS
330
315
102
}
330
315
100
AcDbXrecord
280
     1
102
RTVSPropertyOp0
 70
     1
102
RTVSPropertyOp1
 70
     1
102
RTVSPropertyOp2
 70
     1
102
RTVSPropertyOp3
 70
     1
102
RTVSPropertyOp4
 70
     1
102
RTVSPropertyOp5
 70
     1
102
RTVSPropertyOp6
 70
     1
102
RTVSPropertyOp7
 70
     1
102
RTVSPropertyOp8
 70
     1
102
RTVSPropertyOp9
 70
     1
102
RTVSPropertyOp10
 70
     1
102
RTVSPropertyOp11
 70
     1
102
RTVSPropertyOp12
 70
     1
102
RTVSPropertyOp13
 70
     1
102
RTVSPropertyOp14
 70
     1
102
RTVSPropertyOp15
 70
     1
102
RTVSPropertyOp16
 70
     1
102
RTVSPropertyOp17
 70
     1
102
RTVSPropertyOp18
 70
     1
102
RTVSPropertyOp19
 70
     1
102
RTVSPropertyOp20
 70
     1
102
RTVSPropertyOp21
 70
     1
102
RTVSPropertyOp22
 70
     1
102
RTVSPropertyOp23
 70
     1
102
RTVSPropertyOp24
 70
     1
102
RTVSPropertyOp25
 70
     1
102
RTVSPropertyOp26
 70
     1
102
RTVSPropertyOp27
 70
     1
102
RTVSPropertyOp28
 70
     1
102
RTVSPropertyOp29
 70
     1
102
RTVSPropertyOp30
 70
     1
102
RTVSPropertyOp31
 70
     1
102
RTVSPropertyOp32
 70
     1
  0
ENDSEC
  0
EOF
