  0
SECTION
  2
HEADER
  9
$ACADVER
  1
AC1018
  9
$ACADMAINTVER
 70
     0
  9
$DWGCODEPAGE
  3
ANSI_1252
  9
$INSBASE
 10
0.0
 20
0.0
 30
0.0
  9
$EXTMIN
 10
1.000000000000000E+20
 20
1.000000000000000E+20
 30
1.000000000000000E+20
  9
$EXTMAX
 10
-1.000000000000000E+20
 20
-1.000000000000000E+20
 30
-1.000000000000000E+20
  9
$LIMMIN
 10
0.0
 20
0.0
  9
$LIMMAX
 10
12.0
 20
9.0
  9
$ORTHOMODE
 70
     0
  9
$REGENMODE
 70
     1
  9
$FILLMODE
 70
     1
  9
$QTEXTMODE
 70
     0
  9
$MIRRTEXT
 70
     1
  9
$LTSCALE
 40
1.0
  9
$ATTMODE
 70
     1
  9
$TEXTSIZE
 40
0.2
  9
$TRACEWID
 40
0.05
  9
$TEXTSTYLE
  7
Standard
  9
$CLAYER
  8
0
  9
$CELTYPE
  6
ByLayer
  9
$CECOLOR
 62
   256
  9
$CELTSCALE
 40
1.0
  9
$DISPSILH
 70
     0
  9
$DIMSCALE
 40
1.0
  9
$DIMASZ
 40
0.18
  9
$DIMEXO
 40
0.0625
  9
$DIMDLI
 40
0.38
  9
$DIMRND
 40
0.0
  9
$DIMDLE
 40
0.0
  9
$DIMEXE
 40
0.18
  9
$DIMTP
 40
0.0
  9
$DIMTM
 40
0.0
  9
$DIMTXT
 40
0.18
  9
$DIMCEN
 40
0.09
  9
$DIMTSZ
 40
0.0
  9
$DIMTOL
 70
     0
  9
$DIMLIM
 70
     0
  9
$DIMTIH
 70
     1
  9
$DIMTOH
 70
     1
  9
$DIMSE1
 70
     0
  9
$DIMSE2
 70
     0
  9
$DIMTAD
 70
     0
  9
$DIMZIN
 70
     0
  9
$DIMBLK
  1

  9
$DIMASO
 70
     1
  9
$DIMSHO
 70
     1
  9
$DIMPOST
  1

  9
$DIMAPOST
  1

  9
$DIMALT
 70
     0
  9
$DIMALTD
 70
     2
  9
$DIMALTF
 40
25.4
  9
$DIMLFAC
 40
1.0
  9
$DIMTOFL
 70
     0
  9
$DIMTVP
 40
0.0
  9
$DIMTIX
 70
     0
  9
$DIMSOXD
 70
     0
  9
$DIMSAH
 70
     0
  9
$DIMBLK1
  1

  9
$DIMBLK2
  1

  9
$DIMSTYLE
  2
Standard
  9
$DIMCLRD
 70
     0
  9
$DIMCLRE
 70
     0
  9
$DIMCLRT
 70
     0
  9
$DIMTFAC
 40
1.0
  9
$DIMGAP
 40
0.09
  9
$DIMJUST
 70
     0
  9
$DIMSD1
 70
     0
  9
$DIMSD2
 70
     0
  9
$DIMTOLJ
 70
     1
  9
$DIMTZIN
 70
     0
  9
$DIMALTZ
 70
     0
  9
$DIMALTTZ
 70
     0
  9
$DIMUPT
 70
     0
  9
$DIMDEC
 70
     4
  9
$DIMTDEC
 70
     4
  9
$DIMALTU
 70
     2
  9
$DIMALTTD
 70
     2
  9
$DIMTXSTY
  7
Standard
  9
$DIMAUNIT
 70
     0
  9
$DIMADEC
 70
     0
  9
$DIMALTRND
 40
0.0
  9
$DIMAZIN
 70
     0
  9
$DIMDSEP
 70
    46
  9
$DIMATFIT
 70
     3
  9
$DIMFRAC
 70
     0
  9
$DIMLDRBLK
  1

  9
$DIMLUNIT
 70
     2
  9
$DIMLWD
 70
    -2
  9
$DIMLWE
 70
    -2
  9
$DIMTMOVE
 70
     0
  9
$LUNITS
 70
     2
  9
$LUPREC
 70
     4
  9
$SKETCHINC
 40
0.1
  9
$FILLETRAD
 40
0.5
  9
$AUNITS
 70
     0
  9
$AUPREC
 70
     0
  9
$MENU
  1
.
  9
$ELEVATION
 40
0.0
  9
$PELEVATION
 40
0.0
  9
$THICKNESS
 40
0.0
  9
$LIMCHECK
 70
     0
  9
$CHAMFERA
 40
0.5
  9
$CHAMFERB
 40
0.5
  9
$CHAMFERC
 40
1.0
  9
$CHAMFERD
 40
0.0
  9
$SKPOLY
 70
     0
  9
$TDCREATE
 40
2457126.425686863
  9
$TDUCREATE
 40
2457125.925686863
  9
$TDUPDATE
 40
2457126.425688183
  9
$TDUUPDATE
 40
2457125.925688183
  9
$TDINDWG
 40
0.0000000116
  9
$TDUSRTIMER
 40
0.0000000116
  9
$USRTIMER
 70
     1
  9
$ANGBASE
 50
0.0
  9
$ANGDIR
 70
     0
  9
$PDMODE
 70
     0
  9
$PDSIZE
 40
0.0
  9
$PLINEWID
 40
0.0
  9
$SPLFRAME
 70
     0
  9
$SPLINETYPE
 70
     6
  9
$SPLINESEGS
 70
     8
  9
$HANDSEED
  5
173
  9
$SURFTAB1
 70
     6
  9
$SURFTAB2
 70
     6
  9
$SURFTYPE
 70
     6
  9
$SURFU
 70
     6
  9
$SURFV
 70
     6
  9
$UCSBASE
  2

  9
$UCSNAME
  2

  9
$UCSORG
 10
0.0
 20
0.0
 30
0.0
  9
$UCSXDIR
 10
1.0
 20
0.0
 30
0.0
  9
$UCSYDIR
 10
0.0
 20
1.0
 30
0.0
  9
$UCSORTHOREF
  2

  9
$UCSORTHOVIEW
 70
     0
  9
$UCSORGTOP
 10
0.0
 20
0.0
 30
0.0
  9
$UCSORGBOTTOM
 10
0.0
 20
0.0
 30
0.0
  9
$UCSORGLEFT
 10
0.0
 20
0.0
 30
0.0
  9
$UCSORGRIGHT
 10
0.0
 20
0.0
 30
0.0
  9
$UCSORGFRONT
 10
0.0
 20
0.0
 30
0.0
  9
$UCSORGBACK
 10
0.0
 20
0.0
 30
0.0
  9
$PUCSBASE
  2

  9
$PUCSNAME
  2

  9
$PUCSORG
 10
0.0
 20
0.0
 30
0.0
  9
$PUCSXDIR
 10
1.0
 20
0.0
 30
0.0
  9
$PUCSYDIR
 10
0.0
 20
1.0
 30
0.0
  9
$PUCSORTHOREF
  2

  9
$PUCSORTHOVIEW
 70
     0
  9
$PUCSORGTOP
 10
0.0
 20
0.0
 30
0.0
  9
$PUCSORGBOTTOM
 10
0.0
 20
0.0
 30
0.0
  9
$PUCSORGLEFT
 10
0.0
 20
0.0
 30
0.0
  9
$PUCSORGRIGHT
 10
0.0
 20
0.0
 30
0.0
  9
$PUCSORGFRONT
 10
0.0
 20
0.0
 30
0.0
  9
$PUCSORGBACK
 10
0.0
 20
0.0
 30
0.0
  9
$USERI1
 70
     0
  9
$USERI2
 70
     0
  9
$USERI3
 70
     0
  9
$USERI4
 70
     0
  9
$USERI5
 70
     0
  9
$USERR1
 40
0.0
  9
$USERR2
 40
0.0
  9
$USERR3
 40
0.0
  9
$USERR4
 40
0.0
  9
$USERR5
 40
0.0
  9
$WORLDVIEW
 70
     1
  9
$SHADEDGE
 70
     3
  9
$SHADEDIF
 70
    70
  9
$TILEMODE
 70
     1
  9
$MAXACTVP
 70
    64
  9
$PINSBASE
 10
0.0
 20
0.0
 30
0.0
  9
$PLIMCHECK
 70
     0
  9
$PEXTMIN
 10
1.000000000000000E+20
 20
1.000000000000000E+20
 30
1.000000000000000E+20
  9
$PEXTMAX
 10
-1.000000000000000E+20
 20
-1.000000000000000E+20
 30
-1.000000000000000E+20
  9
$PLIMMIN
 10
0.0
 20
0.0
  9
$PLIMMAX
 10
12.0
 20
9.0
  9
$UNITMODE
 70
     0
  9
$VISRETAIN
 70
     1
  9
$PLINEGEN
 70
     0
  9
$PSLTSCALE
 70
     1
  9
$TREEDEPTH
 70
  3020
  9
$CMLSTYLE
  2
Standard
  9
$CMLJUST
 70
     0
  9
$CMLSCALE
 40
1.0
  9
$PROXYGRAPHICS
 70
     1
  9
$MEASUREMENT
 70
     0
  9
$CELWEIGHT
370
    -1
  9
$ENDCAPS
280
     0
  9
$JOINSTYLE
280
     0
  9
$LWDISPLAY
290
     1
  9
$INSUNITS
 70
     4
  9
$HYPERLINKBASE
  1

  9
$STYLESHEET
  1

  9
$XEDIT
290
     1
  9
$CEPSNTYPE
380
     0
  9
$PSTYLEMODE
290
     1
  9
$FINGERPRINTGUID
  2
{EFF4A2A1-56EF-4304-8A76-2F9E00D50249}
  9
$VERSIONGUID
  2
{FAEB1C32-E019-11D5-929B-00C0DF256EC4}
  9
$EXTNAMES
290
     1
  9
$PSVPSCALE
 40
0.0
  9
$OLESTARTUP
290
     0
  9
$SORTENTS
280
   127
  9
$INDEXCTL
280
     0
  9
$HIDETEXT
280
     1
  9
$XCLIPFRAME
290
     0
  9
$HALOGAP
280
     0
  9
$OBSCOLOR
 70
   257
  9
$OBSLTYPE
280
     0
  9
$INTERSECTIONDISPLAY
280
     0
  9
$INTERSECTIONCOLOR
 70
   257
  9
$DIMASSOC
280
     2
  9
$PROJECTNAME
  1

  0
ENDSEC
  0
SECTION
  2
CLASSES
  0
CLASS
  1
ACDBDICTIONARYWDFLT
  2
AcDbDictionaryWithDefault
  3
ObjectDBX Classes
 90
        0
 91
        4
280
     0
281
     0
  0
CLASS
  1
VISUALSTYLE
  2
AcDbVisualStyle
  3
ObjectDBX Classes
 90
     4095
 91
        4
280
     0
281
     0
  0
CLASS
  1
MATERIAL
  2
AcDbMaterial
  3
ObjectDBX Classes
 90
     1153
 91
        4
280
     0
281
     0
  0
CLASS
  1
WIPEOUT
  2
AcDbWipeout
  3
WipeOut|AutoCAD Express Tool|expresstools@autodesk.com
 90
      127
 91
        4
280
     0
281
     1
  0
CLASS
  1
SCALE
  2
AcDbScale
  3
ObjectDBX Classes
 90
     1153
 91
        4
280
     0
281
     0
  0
CLASS
  1
DICTIONARYVAR
  2
AcDbDictionaryVar
  3
ObjectDBX Classes
 90
        0
 91
        4
280
     0
281
     0
  0
ENDSEC
  0
SECTION
  2
TABLES
  0
TABLE
  2
VPORT
  5
8
330
0
100
AcDbSymbolTable
 70
     1
  0
VPORT
  5
29
330
8
100
AcDbSymbolTableRecord
100
AcDbViewportTableRecord
  2
*Active
 70
     0
 10
0.0
 20
0.0
 11
1.0
 21
1.0
 12
103.207619441941
 22
169.7540029021081
 13
0.0
 23
0.0
 14
0.5
 24
0.5
 15
0.5
 25
0.5
 16
0.0
 26
0.0
 36
1.0
 17
0.0
 27
0.0
 37
0.0
 40
418.021850842494
 41
0.8053423979030263
 42
50.0
 43
0.0
 44
0.0
 50
0.0
 51
0.0
 71
     0
 72
   100
 73
     1
 74
     3
 75
     0
 76
     0
 77
     0
 78
     0
281
     0
 65
     1
110
0.0
120
0.0
130
0.0
111
1.0
121
0.0
131
0.0
112
0.0
122
1.0
132
0.0
 79
     0
146
0.0
  0
ENDTAB
  0
TABLE
  2
LTYPE
  5
5
330
0
100
AcDbSymbolTable
 70
     3
  0
LTYPE
  5
14
330
5
100
AcDbSymbolTableRecord
100
AcDbLinetypeTableRecord
  2
ByBlock
 70
     0
  3

 72
    65
 73
     0
 40
0.0
  0
LTYPE
  5
15
330
5
100
AcDbSymbolTableRecord
100
AcDbLinetypeTableRecord
  2
ByLayer
 70
     0
  3

 72
    65
 73
     0
 40
0.0
  0
LTYPE
  5
16
330
5
100
AcDbSymbolTableRecord
100
AcDbLinetypeTableRecord
  2
Continuous
 70
     0
  3
Solid line
 72
    65
 73
     0
 40
0.0
  0
LTYPE
  5
BC
330
5
100
AcDbSymbolTableRecord
100
AcDbLinetypeTableRecord
  2
Above
 70
     0
  3
- - - - - 
 72
    65
 73
     2
 40
15.0
 49
10.0
 74
     0
 49
-4.999999999999999
 74
     0
  0
LTYPE
  5
FD
330
5
100
AcDbSymbolTableRecord
100
AcDbLinetypeTableRecord
  2
Wipeout_Contour
 70
     0
  3
- - - - - 
 72
    65
 73
     2
 40
1000.0
 49
0.0
 74
     0
 49
-1000.0
 74
     0
  0
ENDTAB
  0
TABLE
  2
LAYER
  5
2
330
0
100
AcDbSymbolTable
 70
     4
  0
LAYER
  5
10
330
2
100
AcDbSymbolTableRecord
100
AcDbLayerTableRecord
  2
0
 70
     0
 62
     7
  6
Continuous
370
    -3
390
F
  0
LAYER
  5
40
330
2
100
AcDbSymbolTableRecord
100
AcDbLayerTableRecord
  2
0_Pen_No__146
 70
     0
 62
     9
420
 13290186
  6
Continuous
370
     5
390
F
  0
LAYER
  5
46
330
2
100
AcDbSymbolTableRecord
100
AcDbLayerTableRecord
  2
0_Pen_No__1
 70
     0
 62
     7
  6
Continuous
370
    13
390
F
  0
LAYER
  5
FE
330
2
100
AcDbSymbolTableRecord
100
AcDbLayerTableRecord
  2
Key_ Sections_Pen_No__1
 70
     0
 62
     7
  6
Continuous
370
    13
390
F
  0
ENDTAB
  0
TABLE
  2
STYLE
  5
3
330
0
100
AcDbSymbolTable
 70
     2
  0
STYLE
  5
11
330
3
100
AcDbSymbolTableRecord
100
AcDbTextStyleTableRecord
  2
Standard
 70
     0
 40
0.0
 41
1.0
 50
0.0
 71
     0
 42
0.2
  3
txt
  4

  0
STYLE
  5
CD
330
3
100
AcDbSymbolTableRecord
100
AcDbTextStyleTableRecord
  2
GENERATED_STYLE_1
 70
     0
 40
0.0
 41
1.0
 50
0.0
 71
     0
 42
0.2
  3

  4

1001
ACAD
1000
Arial
1071
       34
  0
ENDTAB
  0
TABLE
  2
VIEW
  5
6
330
0
100
AcDbSymbolTable
 70
     0
  0
ENDTAB
  0
TABLE
  2
UCS
  5
7
330
0
100
AcDbSymbolTable
 70
     0
  0
ENDTAB
  0
TABLE
  2
APPID
  5
9
330
0
100
AcDbSymbolTable
 70
     1
  0
APPID
  5
12
330
9
100
AcDbSymbolTableRecord
100
AcDbRegAppTableRecord
  2
ACAD
 70
     0
  0
ENDTAB
  0
TABLE
  2
DIMSTYLE
  5
A
330
0
100
AcDbSymbolTable
 70
     5
100
AcDbDimStyleTable
  0
DIMSTYLE
105
27
330
A
100
AcDbSymbolTableRecord
100
AcDbDimStyleTableRecord
  2
Standard
 70
     0
178
     0
340
11
  0
DIMSTYLE
105
D0
102
{ACAD_REACTORS
330
CF
102
}
330
A
100
AcDbSymbolTableRecord
100
AcDbDimStyleTableRecord
  2
GENERATED_STYLE__1
 70
     0
 41
3.254010026106251
 42
100.0
 73
     0
 74
     0
 77
     1
140
5.0
172
     1
176
     7
177
     7
271
     0
178
     7
271
     0
288
     1
340
CD
342
D1
343
D1
344
D1
  0
DIMSTYLE
105
E2
102
{ACAD_REACTORS
330
E1
102
}
330
A
100
AcDbSymbolTableRecord
100
AcDbDimStyleTableRecord
  2
GENERATED_STYLE__2
 70
     0
 41
3.254010026106251
 42
100.0
 77
     1
140
5.0
172
     1
176
     7
177
     7
271
     0
178
     7
271
     0
288
     1
340
CD
342
D1
343
D1
344
D1
  0
DIMSTYLE
105
EF
102
{ACAD_REACTORS
330
EE
330
FB
102
}
330
A
100
AcDbSymbolTableRecord
100
AcDbDimStyleTableRecord
  2
GENERATED_STYLE__3
 70
     0
 41
3.254010026106251
 42
100.0
 73
     0
 74
     0
 77
     1
140
5.0
172
     1
176
     7
177
     7
271
     0
178
     7
271
     0
279
     2
288
     1
340
CD
342
D1
343
D1
344
D1
  0
DIMSTYLE
105
101
330
A
100
AcDbSymbolTableRecord
100
AcDbDimStyleTableRecord
  2
GENERATED_STYLE__4
 70
     0
 41
3.648
172
     1
178
     0
340
0
341
102
  0
ENDTAB
  0
TABLE
  2
BLOCK_RECORD
  5
1
330
0
100
AcDbSymbolTable
 70
     8
  0
BLOCK_RECORD
  5
1F
330
1
100
AcDbSymbolTableRecord
100
AcDbBlockTableRecord
  2
*Model_Space
340
22
  0
BLOCK_RECORD
  5
1B
330
1
100
AcDbSymbolTableRecord
100
AcDbBlockTableRecord
  2
*Paper_Space
340
1E
  0
BLOCK_RECORD
  5
23
330
1
100
AcDbSymbolTableRecord
100
AcDbBlockTableRecord
  2
*Paper_Space0
340
26
  0
BLOCK_RECORD
  5
C3
330
1
100
AcDbSymbolTableRecord
100
AcDbBlockTableRecord
  2
*D1
340
0
  0
BLOCK_RECORD
  5
D1
330
1
100
AcDbSymbolTableRecord
100
AcDbBlockTableRecord
  2
ARROWHEAD_2
340
0
  0
BLOCK_RECORD
  5
D6
330
1
100
AcDbSymbolTableRecord
100
AcDbBlockTableRecord
  2
*D3
340
0
  0
BLOCK_RECORD
  5
E3
330
1
100
AcDbSymbolTableRecord
100
AcDbBlockTableRecord
  2
*D4
340
0
  0
BLOCK_RECORD
  5
F0
330
1
100
AcDbSymbolTableRecord
100
AcDbBlockTableRecord
  2
*D5
340
0
  0
BLOCK_RECORD
  5
102
330
1
100
AcDbSymbolTableRecord
100
AcDbBlockTableRecord
  2
ARROWHEAD_5
340
0
  0
BLOCK_RECORD
  5
121
330
1
100
AcDbSymbolTableRecord
100
AcDbBlockTableRecord
  2
DF-02-T Window Sill_STORY_MARKER
340
0
  0
ENDTAB
  0
ENDSEC
  0
SECTION
  2
BLOCKS
  0
BLOCK
  5
20
330
1F
100
AcDbEntity
  8
0
100
AcDbBlockBegin
  2
*Model_Space
 70
     0
 10
0.0
 20
0.0
 30
0.0
  3
*Model_Space
  1

  0
ENDBLK
  5
21
330
1F
100
AcDbEntity
  8
0
100
AcDbBlockEnd
  0
BLOCK
  5
1C
330
1B
100
AcDbEntity
 67
     1
  8
0
100
AcDbBlockBegin
  2
*Paper_Space
 70
     0
 10
0.0
 20
0.0
 30
0.0
  3
*Paper_Space
  1

  0
ENDBLK
  5
1D
330
1B
100
AcDbEntity
 67
     1
  8
0
100
AcDbBlockEnd
  0
BLOCK
  5
24
330
23
100
AcDbEntity
  8
0
100
AcDbBlockBegin
  2
*Paper_Space0
 70
     0
 10
0.0
 20
0.0
 30
0.0
  3
*Paper_Space0
  1

  0
ENDBLK
  5
25
330
23
100
AcDbEntity
  8
0
100
AcDbBlockEnd
  0
BLOCK
  5
C4
330
C3
100
AcDbEntity
  8
0
100
AcDbBlockBegin
  2
*D1
 70
     1
 10
0.0
 20
0.0
 30
0.0
  3
*D1
  1

  0
LINE
  5
C6
330
C3
100
AcDbEntity
  8
0_Pen_No__1
  6
Continuous
100
AcDbLine
 10
-27.00000000000001
 20
223.2785852710259
 30
0.0
 11
-27.00000000000001
 21
225.3722838272969
 31
0.0
  0
LINE
  5
C7
330
C3
100
AcDbEntity
  8
0_Pen_No__1
  6
Continuous
100
AcDbLine
 10
-27.00000000000001
 20
225.3722838272969
 30
0.0
 11
-27.00000000000001
 21
235.3722838272969
 31
0.0
  0
LINE
  5
C8
330
C3
100
AcDbEntity
  8
0_Pen_No__1
  6
Continuous
100
AcDbLine
 10
-29.14079606980675
 20
226.6082724381998
 30
0.0
 11
-24.85920393019327
 21
224.136295216394
 31
0.0
  0
LINE
  5
C9
330
C3
100
AcDbEntity
  8
0_Pen_No__1
  6
Continuous
100
AcDbLine
 10
-24.85920393019327
 20
234.136295216394
 30
0.0
 11
-29.14079606980675
 21
236.6082724381998
 31
0.0
  0
LINE
  5
CA
330
C3
100
AcDbEntity
  8
0_Pen_No__1
  6
Continuous
100
AcDbLine
 10
-27.00000000000001
 20
235.3722838272969
 30
0.0
 11
-27.00000000000001
 21
237.4659823835679
 31
0.0
  0
LINE
  5
CB
330
C3
100
AcDbEntity
  8
0_Pen_No__1
  6
Continuous
100
AcDbLine
 10
-23.78880589528989
 20
225.3722838272969
 30
0.0
 11
-30.21119410471013
 21
225.3722838272969
 31
0.0
  0
LINE
  5
CC
330
C3
100
AcDbEntity
  8
0_Pen_No__1
  6
Continuous
100
AcDbLine
 10
-23.78880589528989
 20
235.3722838272969
 30
0.0
 11
-30.21119410471013
 21
235.3722838272969
 31
0.0
  0
MTEXT
  5
CE
330
C3
100
AcDbEntity
  8
0_Pen_No__1
100
AcDbMText
 10
-27.99999997764827
 20
205.1177529467022
 30
0.0
 40
5.0
 41
0.0
 71
     7
 72
     1
  1
{10mm}
  7
GENERATED_STYLE_1
 11
6.123233995736766E-17
 21
1.0
 31
0.0
 73
     1
 44
1.0
  0
ENDBLK
  5
C5
330
C3
100
AcDbEntity
  8
0
100
AcDbBlockEnd
  0
BLOCK
  5
D2
330
D1
100
AcDbEntity
  8
0
100
AcDbBlockBegin
  2
ARROWHEAD_2
 70
     0
 10
0.0
 20
0.0
 30
0.0
  3
ARROWHEAD_2
  1

  0
LINE
  5
D4
330
D1
100
AcDbEntity
  8
0
  6
Continuous
 62
     0
370
     0
100
AcDbLine
 10
-0.3781315
 20
-0.655
 30
0.0
 11
0.3781315
 21
0.655
 31
0.0
  0
LINE
  5
D5
330
D1
100
AcDbEntity
  8
0
  6
Continuous
 62
     0
370
     0
100
AcDbLine
 10
0.0
 20
0.0
 30
0.0
 11
-1.0
 21
0.0
 31
0.0
  0
ENDBLK
  5
D3
330
D1
100
AcDbEntity
  8
0
100
AcDbBlockEnd
  0
BLOCK
  5
D7
330
D6
100
AcDbEntity
  8
0
100
AcDbBlockBegin
  2
*D3
 70
     1
 10
0.0
 20
0.0
 30
0.0
  3
*D3
  1

  0
LINE
  5
D9
330
D6
100
AcDbEntity
  8
0_Pen_No__1
  6
Continuous
100
AcDbLine
 10
124.6242865192855
 20
188.9049405038698
 30
0.0
 11
126.7179850755565
 21
188.9049405038698
 31
0.0
  0
LINE
  5
DA
330
D6
100
AcDbEntity
  8
0_Pen_No__1
  6
Continuous
100
AcDbLine
 10
126.7179850755565
 20
188.9049405038698
 30
0.0
 11
137.2804823414
 21
188.9049405038698
 31
0.0
  0
LINE
  5
DB
330
D6
100
AcDbEntity
  8
0_Pen_No__1
  6
Continuous
100
AcDbLine
 10
127.9539736864595
 20
191.0457365736766
 30
0.0
 11
125.4819964646536
 21
186.7641444340631
 31
0.0
  0
LINE
  5
DC
330
D6
100
AcDbEntity
  8
0_Pen_No__1
  6
Continuous
100
AcDbLine
 10
136.0444937304971
 20
186.7641444340631
 30
0.0
 11
138.5164709523029
 21
191.0457365736766
 31
0.0
  0
LINE
  5
DD
330
D6
100
AcDbEntity
  8
0_Pen_No__1
  6
Continuous
100
AcDbLine
 10
137.2804823414
 20
188.9049405038698
 30
0.0
 11
139.374180897671
 21
188.9049405038698
 31
0.0
  0
LINE
  5
DE
330
D6
100
AcDbEntity
  8
0_Pen_No__1
  6
Continuous
100
AcDbLine
 10
126.7179850755565
 20
185.6937463991597
 30
0.0
 11
126.7179850755565
 21
192.11613460858
 31
0.0
  0
LINE
  5
DF
330
D6
100
AcDbEntity
  8
0_Pen_No__1
  6
Continuous
100
AcDbLine
 10
137.2804823414
 20
185.6937463991597
 30
0.0
 11
137.2804823414
 21
192.11613460858
 31
0.0
  0
MTEXT
  5
E0
330
D6
100
AcDbEntity
  8
0_Pen_No__1
100
AcDbMText
 10
130.1020886457933
 20
189.9049404815181
 30
0.0
 40
5.0
 41
0.0
 71
     7
 72
     1
  1
{5}
  7
GENERATED_STYLE_1
 73
     1
 44
1.0
  0
ENDBLK
  5
D8
330
D6
100
AcDbEntity
  8
0
100
AcDbBlockEnd
  0
BLOCK
  5
E4
330
E3
100
AcDbEntity
  8
0
100
AcDbBlockBegin
  2
*D4
 70
     1
 10
0.0
 20
0.0
 30
0.0
  3
*D4
  1

  0
LINE
  5
E6
330
E3
100
AcDbEntity
  8
0_Pen_No__1
  6
Continuous
100
AcDbLine
 10
56.44086169565263
 20
231.2785852710259
 30
0.0
 11
56.44086169565263
 21
233.3722838272969
 31
0.0
  0
LINE
  5
E7
330
E3
100
AcDbEntity
  8
0_Pen_No__1
  6
Continuous
100
AcDbLine
 10
56.44086169565263
 20
233.3722838272969
 30
0.0
 11
56.44086169565263
 21
235.3722838272969
 31
0.0
  0
LINE
  5
E8
330
E3
100
AcDbEntity
  8
0_Pen_No__1
  6
Continuous
100
AcDbLine
 10
58.58165776545937
 20
232.136295216394
 30
0.0
 11
54.30006562584588
 21
234.6082724381998
 31
0.0
  0
LINE
  5
E9
330
E3
100
AcDbEntity
  8
0_Pen_No__1
  6
Continuous
100
AcDbLine
 10
54.30006562584588
 20
236.6082724381998
 30
0.0
 11
58.58165776545937
 21
234.136295216394
 31
0.0
  0
LINE
  5
EA
330
E3
100
AcDbEntity
  8
0_Pen_No__1
  6
Continuous
100
AcDbLine
 10
56.44086169565263
 20
235.3722838272969
 30
0.0
 11
56.44086169565263
 21
237.4659823835679
 31
0.0
  0
LINE
  5
EB
330
E3
100
AcDbEntity
  8
0_Pen_No__1
  6
Continuous
100
AcDbLine
 10
59.65205580036275
 20
233.3722838272969
 30
0.0
 11
53.22966759094251
 21
233.3722838272969
 31
0.0
  0
LINE
  5
EC
330
E3
100
AcDbEntity
  8
0_Pen_No__1
  6
Continuous
100
AcDbLine
 10
59.65205580036275
 20
235.3722838272969
 30
0.0
 11
53.22966759094251
 21
235.3722838272969
 31
0.0
  0
MTEXT
  5
ED
330
E3
100
AcDbEntity
  8
0_Pen_No__1
100
AcDbMText
 10
55.44086163977327
 20
236.9689978717978
 30
0.0
 40
5.0
 41
0.0
 71
     7
 72
     1
  1
{2mm}
  7
GENERATED_STYLE_1
 11
6.123233995736766E-17
 21
1.0
 31
0.0
 73
     1
 44
1.0
  0
ENDBLK
  5
E5
330
E3
100
AcDbEntity
  8
0
100
AcDbBlockEnd
  0
BLOCK
  5
F1
330
F0
100
AcDbEntity
  8
0
100
AcDbBlockBegin
  2
*D5
 70
     1
 10
0.0
 20
0.0
 30
0.0
  3
*D5
  1

  0
LINE
  5
F3
330
F0
100
AcDbEntity
  8
0_Pen_No__1
  6
Continuous
100
AcDbLine
 10
161.3522057210666
 20
208.7816787360382
 30
0.0
 11
161.3522057210666
 21
210.8753772923092
 31
0.0
  0
LINE
  5
F4
330
F0
100
AcDbEntity
  8
0_Pen_No__1
  6
Continuous
100
AcDbLine
 10
161.3522057210666
 20
210.8753772923092
 30
0.0
 11
161.3522057210666
 21
221.9457998015197
 31
0.0
  0
LINE
  5
F5
330
F0
100
AcDbEntity
  8
0_Pen_No__1
  6
Continuous
100
AcDbLine
 10
159.2114096512598
 20
212.1113659032122
 30
0.0
 11
163.4930017908733
 21
209.6393886814063
 31
0.0
  0
LINE
  5
F6
330
F0
100
AcDbEntity
  8
0_Pen_No__1
  6
Continuous
100
AcDbLine
 10
163.4930017908733
 20
220.7098111906168
 30
0.0
 11
159.2114096512598
 21
223.1817884124227
 31
0.0
  0
LINE
  5
F7
330
F0
100
AcDbEntity
  8
0_Pen_No__1
  6
Continuous
100
AcDbLine
 10
161.3522057210666
 20
221.9457998015197
 30
0.0
 11
161.3522057210666
 21
224.0394983577907
 31
0.0
  0
LINE
  5
F8
330
F0
100
AcDbEntity
  8
0_Pen_No__1
  6
Continuous
100
AcDbLine
 10
164.5633998257767
 20
210.8753772923092
 30
0.0
 11
158.1410116163564
 21
210.8753772923092
 31
0.0
  0
LINE
  5
F9
330
F0
100
AcDbEntity
  8
0_Pen_No__1
  6
Continuous
100
AcDbLine
 10
164.5633998257767
 20
221.9457998015197
 30
0.0
 11
158.1410116163564
 21
221.9457998015197
 31
0.0
  0
MTEXT
  5
FA
330
F0
100
AcDbEntity
  8
0_Pen_No__1
100
AcDbMText
 10
160.3522057434183
 20
224.3780713817303
 30
0.0
 40
5.0
 41
0.0
 71
     7
 72
     1
  1
{10mm min}
  7
GENERATED_STYLE_1
 11
6.123233995736766E-17
 21
1.0
 31
0.0
 73
     1
 44
1.0
  0
ENDBLK
  5
F2
330
F0
100
AcDbEntity
  8
0
100
AcDbBlockEnd
  0
BLOCK
  5
103
330
102
100
AcDbEntity
  8
0
100
AcDbBlockBegin
  2
ARROWHEAD_5
 70
     0
 10
0.0
 20
0.0
 30
0.0
  3
ARROWHEAD_5
  1

  0
SOLID
  5
105
330
102
100
AcDbEntity
  8
0
  6
Continuous
 62
     0
370
     0
100
AcDbTrace
 10
-1.0
 20
0.2679
 30
0.0
 11
0.0
 21
0.0
 31
0.0
 12
-1.0
 22
-0.2679
 32
0.0
 13
-1.0
 23
0.2679
 33
0.0
  0
LINE
  5
106
330
102
100
AcDbEntity
  8
0
  6
Continuous
 62
     0
370
     0
100
AcDbLine
 10
0.0
 20
0.0
 30
0.0
 11
-1.0
 21
0.0
 31
0.0
  0
ENDBLK
  5
104
330
102
100
AcDbEntity
  8
0
100
AcDbBlockEnd
  0
BLOCK
  5
122
330
121
100
AcDbEntity
  8
0
100
AcDbBlockBegin
  2
DF-02-T Window Sill_STORY_MARKER
 70
     0
 10
0.0
 20
0.0
 30
0.0
  3
DF-02-T Window Sill_STORY_MARKER
  1

  0
ENDBLK
  5
123
330
121
100
AcDbEntity
  8
0
100
AcDbBlockEnd
  0
ENDSEC
  0
SECTION
  2
ENTITIES
  0
HATCH
  5
3F
330
1F
100
AcDbEntity
  8
0_Pen_No__146
  6
Continuous
100
AcDbHatch
 10
0.0
 20
0.0
 30
0.0
210
0.0
220
0.0
230
1.0
  2
SMALLDOTS
 70
     0
 71
     0
 91
        1
 92
        3
 72
     0
 73
     1
 93
        4
 10
10.498046875
 20
0.0
 10
10.498046875
 20
233.358119420304
 10
0.0
 20
233.3722838272969
 10
0.0
 20
0.0
 97
        0
 75
     0
 76
     2
 52
0.0
 41
1.0
 77
     0
 78
     2
 53
45.0
 43
0.0
 44
0.0
 45
-4.772970773009195
 46
4.772970773009196
 79
     4
 49
0.0
 49
-4.5
 49
0.0
 49
-6.75
 53
110.0
 43
15.0
 44
0.0
 45
6.34292519030488
 46
2.308635967448266
 79
     4
 49
0.0
 49
-3.3
 49
0.0
 49
-5.700000000000001
 98
        0
  0
HATCH
  5
41
330
1F
100
AcDbEntity
  8
0_Pen_No__146
  6
Continuous
100
AcDbHatch
 10
0.0
 20
0.0
 30
0.0
210
0.0
220
0.0
230
1.0
  2
SMALLDOTS
 70
     0
 71
     0
 91
        1
 92
        3
 72
     0
 73
     1
 93
        4
 10
-2.000000000000002
 20
253.3722838272969
 10
-12.00000000000001
 20
248.372283827297
 10
-12.00000000000001
 20
218.3722838272968
 10
-2.000000000000002
 20
213.3722838272969
 97
        0
 75
     0
 76
     2
 52
0.0
 41
1.0
 77
     0
 78
     2
 53
45.0
 43
0.0
 44
0.0
 45
-4.772970773009195
 46
4.772970773009196
 79
     4
 49
0.0
 49
-4.5
 49
0.0
 49
-6.75
 53
110.0
 43
15.0
 44
0.0
 45
6.34292519030488
 46
2.308635967448266
 79
     4
 49
0.0
 49
-3.3
 49
0.0
 49
-5.700000000000001
 98
        0
  0
HATCH
  5
42
330
1F
100
AcDbEntity
  8
0_Pen_No__146
  6
Continuous
100
AcDbHatch
 10
0.0
 20
0.0
 30
0.0
210
0.0
220
0.0
230
1.0
  2
SMALLDOTS
 70
     0
 71
     0
 91
        1
 92
        3
 72
     0
 73
     1
 93
       10
 10
114.0831902307733
 20
0.0
 10
113.2873404624573
 20
6.932112964397774
 10
113.2873404624537
 20
22.75752974072365
 10
118.4811178801311
 20
22.75752974072387
 10
118.4811178801313
 20
32.74254044083547
 10
114.1085968545919
 20
32.74254044083547
 10
114.1085968545921
 20
28.70122764126215
 10
106.2873404624558
 20
28.70122764126215
 10
106.2873404624558
 20
4.90621563420901
 10
106.8581317786308
 20
0.0
 97
        0
 75
     0
 76
     2
 52
0.0
 41
1.0
 77
     0
 78
     2
 53
45.0
 43
0.0
 44
0.0
 45
-4.772970773009195
 46
4.772970773009196
 79
     4
 49
0.0
 49
-4.5
 49
0.0
 49
-6.75
 53
110.0
 43
15.0
 44
0.0
 45
6.34292519030488
 46
2.308635967448266
 79
     4
 49
0.0
 49
-3.3
 49
0.0
 49
-5.700000000000001
 98
        0
  0
HATCH
  5
43
330
1F
100
AcDbEntity
  8
0_Pen_No__146
  6
Continuous
100
AcDbHatch
 10
0.0
 20
0.0
 30
0.0
210
0.0
220
0.0
230
1.0
  2
SMALLDOTS
 70
     0
 71
     0
 91
        1
 92
        3
 72
     0
 73
     1
 93
       17
 10
128.2873404624543
 20
143.8735929453094
 10
119.3241645797827
 20
221.9457998015197
 10
112.1691439468724
 20
221.9457998015197
 10
120.4377162069357
 20
150.8735929453107
 10
106.2873404624558
 20
150.8735929453109
 10
106.3330210346809
 20
143.0751937366097
 10
117.3379479465375
 20
43.59679672028749
 10
106.2873404624558
 20
43.59679672028749
 10
106.2873404624558
 20
29.93629560354915
 10
113.2873404624537
 20
29.93629560354915
 10
113.2873404624537
 20
36.59679672028959
 10
118.7214775828585
 20
36.59679672028982
 10
121.0176022201908
 20
20.21866458369925
 10
114.2873404624549
 20
20.21866458369947
 10
114.2873404624549
 20
13.21866458370136
 10
128.2873404624543
 20
13.21866458370136
 10
113.2873404624573
 20
143.8735929453094
 97
        0
 75
     0
 76
     2
 52
0.0
 41
1.0
 77
     0
 78
     2
 53
45.0
 43
0.0
 44
0.0
 45
-4.772970773009195
 46
4.772970773009196
 79
     4
 49
0.0
 49
-4.5
 49
0.0
 49
-6.75
 53
110.0
 43
15.0
 44
0.0
 45
6.34292519030488
 46
2.308635967448266
 79
     4
 49
0.0
 49
-3.3
 49
0.0
 49
-5.700000000000001
 98
        0
  0
HATCH
  5
44
330
1F
100
AcDbEntity
  8
0_Pen_No__146
  6
Continuous
 62
   250
420
  3289650
370
     0
100
AcDbHatch
 10
0.0
 20
0.0
 30
0.0
210
0.0
220
0.0
230
1.0
  2
SOLID
 70
     1
 71
     0
 91
        1
 92
        3
 72
     0
 73
     1
 93
        4
 10
24.34803606612279
 20
229.3722838272969
 10
49.34803606612292
 20
229.3722838272969
 10
49.34803606612292
 20
233.3722838272969
 10
24.34803606612279
 20
233.3722838272969
 97
        0
 75
     0
 76
     1
 98
        0
  0
HATCH
  5
45
330
1F
100
AcDbEntity
  8
0_Pen_No__146
  6
Continuous
 62
   250
420
  3289650
370
     0
100
AcDbHatch
 10
0.0
 20
0.0
 30
0.0
210
0.0
220
0.0
230
1.0
  2
SOLID
 70
     1
 71
     0
 91
        1
 92
        3
 72
     0
 73
     1
 93
        5
 10
57.82002388692131
 20
225.3722838272969
 10
12.498046875
 20
225.3722838272969
 10
12.498046875
 20
185.3722838272969
 10
102.4980468750001
 20
185.3722838272969
 10
102.4980468750001
 20
225.3722838272969
 97
        0
 75
     0
 76
     1
 98
        0
  0
LWPOLYLINE
  5
47
330
1F
100
AcDbEntity
  8
0_Pen_No__1
  6
Continuous
100
AcDbPolyline
 90
        4
 70
   129
 43
0.0
 10
0.0
 20
235.3722838272969
 10
86.35292608195677
 20
235.3722838272969
 10
86.35292608195677
 20
253.3722838272969
 10
0.0
 20
253.3722838272969
  0
HATCH
  5
48
330
1F
100
AcDbEntity
  8
0_Pen_No__146
  6
Continuous
 62
   250
420
  3289650
370
     0
100
AcDbHatch
 10
0.0
 20
0.0
 30
0.0
210
0.0
220
0.0
230
1.0
  2
SOLID
 70
     1
 71
     0
 91
        1
 92
        3
 72
     0
 73
     1
 93
        4
 10
111.2688963599429
 20
220.6236646686019
 10
105.9509075241045
 20
220.7720342593367
 10
105.9509075241045
 20
189.9190172567871
 10
114.841088741108
 20
189.9190172567871
 97
        0
 75
     0
 76
     1
 98
        0
  0
LWPOLYLINE
  5
49
330
1F
100
AcDbEntity
  8
0_Pen_No__1
  6
Continuous
100
AcDbPolyline
 90
       88
 70
   129
 43
0.0
 10
142.408909181077
 20
232.0469511675629
 10
137.7520549315845
 20
236.7038054170551
 42
-0.1989123673796377
 10
136.5804820563308
 20
239.5322325418014
 10
136.5804820563308
 20
245.3753772923092
 42
0.414213562373095
 10
136.0804820563308
 20
245.8753772923091
 10
133.4805247688053
 20
245.8753772923092
 42
0.1989123673799641
 10
133.3391034125679
 20
245.8167986485464
 10
132.8391039125678
 20
245.3167991485465
 42
0.4142135623729801
 10
132.8391039125678
 20
245.0339564360719
 10
133.4391044125678
 20
244.4339559360718
 42
0.198912367379811
 10
133.5805257688052
 20
244.3753772923091
 10
133.8804820563306
 20
244.3753772923091
 42
0.414213562373095
 10
134.0804820563308
 20
244.5753772923091
 10
134.0804820563308
 20
244.6753772923091
 10
135.3804820563307
 20
244.6753772923091
 10
135.3804820563307
 20
239.9754202923091
 10
119.2804820563307
 20
242.1753772923091
 10
119.2804820563307
 20
244.6753772923091
 10
121.0804833438563
 20
244.6753772923091
 42
0.6681786379196538
 10
121.2219047000935
 20
245.0167986485463
 10
120.8026658845509
 20
245.4360374640891
 42
0.1989123673796241
 10
119.7420057127712
 20
245.8753772923092
 10
102.7804822141845
 20
245.8753772923092
 42
0.1928075209396935
 10
102.1947655717033
 20
246.7359954492278
 42
0.1404257888372866
 10
102.7793131050356
 20
248.9744622277516
 42
0.5009125790250734
 10
102.7804820563305
 20
249.7753362782087
 10
102.7804820563305
 20
257.4753772923091
 10
104.5804820563308
 20
257.4753772923091
 42
0.414213562373095
 10
105.0804820563309
 20
257.975377292309
 10
105.0804820563307
 20
259.1253772923091
 42
0.414213562373095
 10
104.6304820563306
 20
259.5753772923092
 42
0.414213562373095
 10
104.1804820563306
 20
259.1253772923091
 10
104.1804820563308
 20
258.4753772923091
 10
102.6804820563307
 20
258.4753772923091
 10
102.6804820563307
 20
263.8753772923092
 10
104.1804820563308
 20
263.8753772923092
 10
104.1804820563308
 20
263.2253772923091
 42
0.414213562373095
 10
104.6304820563306
 20
262.775377292309
 42
0.414213562373095
 10
105.0804820563307
 20
263.2253772923091
 10
105.0804820563307
 20
264.3753772923091
 42
0.414213562373095
 10
104.5804820563308
 20
264.8753772923091
 10
102.0804820563308
 20
264.8753772923092
 42
0.414213562373095
 10
101.5804820563306
 20
264.3753772923091
 10
101.5804820563309
 20
248.8753772923091
 42
-0.414213562373095
 10
98.58048205633074
 20
245.8753772923092
 10
91.28052305633072
 20
245.8753772923092
 42
-0.414213562373095
 10
88.28052305633061
 20
248.875377292309
 10
88.28052305633061
 20
254.0722838272967
 42
0.414213562373095
 10
87.08052305633052
 20
255.2722838272967
 10
85.08055805633052
 20
255.2722838272967
 42
0.414213562373095
 10
84.08055805633042
 20
254.2722838272967
 42
0.414213562373095
 10
84.28055805633062
 20
254.0722838272967
 10
87.08052305633073
 20
254.0722838272969
 10
87.08052305633052
 20
248.8753772923091
 42
0.1910043624983037
 10
88.22156540536041
 20
245.9973956923729
 42
-0.6059274979907787
 10
88.10512665545956
 20
245.6624958556318
 42
0.3718832980523969
 10
87.08048205633045
 20
244.4753772923092
 10
87.08048205633045
 20
234.675377292309
 10
77.68048205633038
 20
234.675377292309
 42
0.9999999999999999
 10
77.68048205633038
 20
233.4753772923092
 10
78.99763934385606
 20
233.4753772923091
 42
0.1989123673799131
 10
79.13906070009324
 20
233.5339559360719
 10
79.4804820563304
 20
233.8753772923091
 10
82.68048205633049
 20
233.8753772923091
 10
83.02158683663751
 20
233.534273511076
 42
0.1994953901189608
 10
83.1633250563304
 20
233.4753772923091
 10
90.6804820563305
 20
233.4753772923091
 42
0.414213562373095
 10
91.28048205633065
 20
234.0753772923092
 42
0.414213562373095
 10
90.6804820563305
 20
234.6753772923092
 10
88.28048205633033
 20
234.675377292309
 10
88.28048205633033
 20
244.4753772923094
 10
117.8804820563308
 20
244.4753772923092
 10
117.8804820563308
 20
242.1762394899762
 42
0.3747899436168348
 10
119.0900438286071
 20
240.7892523662358
 10
135.4761457367009
 20
238.5393827364008
 42
0.1494188041786525
 10
136.9035267941605
 20
235.8552772796313
 10
141.560381043653
 20
231.1984230301389
 42
-0.1989123673796836
 10
142.3804820563308
 20
229.2185240428165
 10
142.3804820563308
 20
212.0753772923091
 10
135.2804820563307
 20
212.0753772923091
 10
135.2804820563307
 20
216.2753772923091
 42
0.414213562373095
 10
134.6804820563308
 20
216.875377292309
 42
0.414213562373095
 10
134.0804820563306
 20
216.2753772923091
 10
134.0804820563308
 20
212.0753772923091
 42
0.414213562373095
 10
135.2804820563307
 20
210.8753772923092
 10
142.3804820563308
 20
210.8753772923091
 42
0.414213562373095
 10
143.5804820563309
 20
212.0753772923091
 10
143.5804820563309
 20
229.2185240428168
 42
0.198912367379681
  0
LWPOLYLINE
  5
4A
330
1F
100
AcDbEntity
  8
0_Pen_No__1
  6
Continuous
100
AcDbPolyline
 90
       38
 70
   129
 43
0.0
 10
133.3805130450918
 20
247.3762394899763
 42
0.1989123673796506
 10
132.3905635514302
 20
246.9661889836375
 10
131.447060667176
 20
246.0226860993832
 42
-0.1989123673797193
 10
131.0935072765826
 20
245.8762394899764
 10
123.2805789794122
 20
245.8762394899762
 42
0.414213562373095
 10
122.2805789794121
 20
244.8762394899761
 10
122.2805789794121
 20
244.6762394899762
 10
120.2805789793757
 20
244.6762394899761
 42
0.414213562373095
 10
120.0805789794126
 20
244.4762394899947
 42
0.414213562373095
 10
120.8805789794125
 20
243.6762394899762
 10
122.2805789794121
 20
243.6762394899762
 42
0.414213562373095
 10
123.2805789794122
 20
244.6762394899761
 10
131.6663674277065
 20
244.6762394899763
 10
132.5269936269922
 20
243.8156132906903
 42
0.9999999999998822
 10
133.234100408179
 20
244.5227200718767
 10
132.5805470175854
 20
245.1762734624703
 10
133.3805130450914
 20
245.9762394899763
 10
135.8804789794144
 20
245.9762394899761
 42
0.414213562373095
 10
136.3804789794145
 20
246.4762394899761
 10
136.3804789794123
 20
264.4762303483809
 42
0.414213562373095
 10
135.8804789794123
 20
264.9762303483808
 10
133.3804789794122
 20
264.9762303483808
 42
0.414213562373095
 10
132.8804789794122
 20
264.4762303483809
 10
132.8804789794122
 20
263.3262303483809
 42
0.9999999999999999
 10
133.7804789794122
 20
263.3262303483809
 10
133.7804789794122
 20
263.9762303483808
 10
135.2804789794122
 20
263.9762303483808
 10
135.2804789794122
 20
258.5762303483808
 10
133.7804789794122
 20
258.5762303483808
 10
133.7804789794122
 20
259.2262303483809
 42
0.9999999999999999
 10
132.8804789794122
 20
259.2262303483809
 10
132.8804789794122
 20
258.0762303483809
 42
0.414213562373095
 10
133.3804789794122
 20
257.5762303483808
 10
134.9804789794133
 20
257.5762303483808
 10
134.9804789794138
 20
252.9762303483809
 42
0.9999999999999999
 10
134.9804789794138
 20
252.1762303483809
 10
134.9804789794144
 20
247.8762394899762
 42
-0.414213562373095
 10
134.4804789794143
 20
247.3762394899761
  0
LWPOLYLINE
  5
4B
330
1F
100
AcDbEntity
  8
0_Pen_No__1
  6
Continuous
100
AcDbPolyline
 90
       29
 70
   129
 43
0.0
 10
132.5844470737618
 20
260.121902753118
 42
-0.3394542588632258
 10
132.7326832647413
 20
260.3150879183758
 10
133.0145752471565
 20
260.3906206474168
 42
0.196759151608125
 10
133.834447073762
 20
260.1573341619638
 10
133.834447073762
 20
258.7753681507139
 10
134.8344470737619
 20
258.7753681507139
 10
134.8344470737619
 20
260.1503681507138
 10
134.5330042322768
 20
261.2753681507139
 10
134.8344470737619
 20
262.4003681507139
 10
134.8344470737619
 20
263.7753681507138
 10
133.834447073762
 20
263.7753681507138
 10
133.834447073762
 20
262.3934021394637
 42
0.1967591516080623
 10
133.0145752471565
 20
262.1601156540109
 10
132.7326832647413
 20
262.2356483830518
 42
-0.3394542588633099
 10
132.5844470737618
 20
262.4288335483097
 10
132.5844470737618
 20
263.0753681507138
 42
0.184890459368309
 10
132.5333079889153
 20
263.2089362155335
 10
131.1451038635836
 20
267.2074220922638
 42
0.916780628173348
 10
130.1791959858971
 20
266.9634744679051
 10
130.9122612820228
 20
262.4384354064321
 42
-0.4267557320472761
 10
131.0619628483747
 20
262.1914558792002
 10
130.8303679521614
 20
261.3271319601973
 42
0.1316524975873602
 10
130.8303679521483
 20
261.2236043421563
 10
131.0619628483878
 20
260.3592804221784
 42
-0.4267557319722642
 10
130.9122612820228
 20
260.1123008949955
 10
130.1791959858971
 20
255.5872618335225
 42
0.9167806281733522
 10
131.1451038635836
 20
255.3433142091638
 10
132.5333079889153
 20
259.3418000858941
 42
0.1848904593682824
 10
132.5844470737618
 20
259.4753681507139
  0
LWPOLYLINE
  5
4C
330
1F
100
AcDbEntity
  8
0_Pen_No__1
  6
Continuous
100
AcDbPolyline
 90
        4
 70
   129
 43
0.0
 10
124.9036724986192
 20
251.8761706499113
 10
129.4036724986192
 20
251.8761706499113
 10
129.4036724986192
 20
364.5983297889932
 10
124.9036724986192
 20
364.5983297889932
  0
LWPOLYLINE
  5
4D
330
1F
100
AcDbEntity
  8
0_Pen_No__1
  6
Continuous
100
AcDbPolyline
 90
        4
 70
   129
 43
0.0
 10
113.9036724986193
 20
251.8761706499113
 10
113.9036724986193
 20
364.5983297889932
 10
109.4036724986194
 20
364.5983297889932
 10
109.4036724986194
 20
251.8761706499113
  0
LWPOLYLINE
  5
4E
330
1F
100
AcDbEntity
  8
0_Pen_No__1
  6
Continuous
100
AcDbPolyline
 90
        4
 70
   129
 43
0.0
 10
113.9036724986193
 20
261.8766584634712
 10
113.9036724986193
 20
251.8761706499113
 10
124.9036724986192
 20
251.8761706499113
 10
124.9036724986192
 20
261.8766584634712
  0
LWPOLYLINE
  5
4F
330
1F
100
AcDbEntity
  8
0_Pen_No__1
  6
Continuous
100
AcDbPolyline
 90
       26
 70
   129
 43
0.0
 10
107.0805287559635
 20
262.7950446286298
 10
107.0805287559635
 20
262.8410731968451
 10
108.3183689226066
 20
264.8509805897009
 42
0.5868586327353583
 10
107.4668948488417
 20
266.3753772923091
 10
104.8805287559633
 20
266.3753772923091
 42
0.414213562373095
 10
103.8805287559634
 20
265.3753772923091
 10
103.8805287559634
 20
264.8753772923091
 10
104.0805287559634
 20
264.8753772923091
 10
104.5804820563308
 20
264.8753772923091
 42
-0.414213562373095
 10
105.0804820563307
 20
264.3753772923091
 10
105.0804820563307
 20
263.2253772923091
 42
-0.1681110981155437
 10
104.9842569822343
 20
262.9472706548443
 42
-0.2898292516286058
 10
104.0805287559634
 20
262.375377292309
 10
103.8731126587034
 20
262.375377292309
 10
105.8862359423067
 20
257.883243490986
 42
0.4752500831739775
 10
107.3839868440836
 20
257.4813079029801
 10
108.665725458873
 20
258.406301356216
 42
0.2409239523204168
 10
109.0805287559635
 20
259.2171927292766
 10
109.0805287559635
 20
259.7385770549825
 10
107.0805287559635
 20
259.0233000884449
 10
107.0805287559635
 20
259.4865926678536
 42
-0.2915728128662111
 10
107.6582426224544
 20
260.3930552547516
 10
108.5028148894724
 20
260.7865090632851
 42
0.29157281286621
 10
109.0805287559635
 20
261.6929716501832
 10
109.0805287559635
 20
262.0906542588467
 10
108.4172790073725
 20
261.8534506247322
 42
-0.5187881916065269
  0
LWPOLYLINE
  5
50
330
1F
100
AcDbEntity
  8
0_Pen_No__1
  6
Continuous
100
AcDbPolyline
 90
        2
 70
   128
 43
0.0
 10
10.498046875
 20
0.0
 10
10.498046875
 20
233.358119420304
  0
LWPOLYLINE
  5
51
330
1F
100
AcDbEntity
  8
0_Pen_No__1
  6
Continuous
100
AcDbPolyline
 90
        2
 70
   128
 43
0.0
 10
10.498046875
 20
233.358119420304
 10
0.0
 20
233.3722838272969
  0
LWPOLYLINE
  5
52
330
1F
100
AcDbEntity
  8
0_Pen_No__1
  6
Continuous
100
AcDbPolyline
 90
        2
 70
   128
 43
0.0
 10
0.0
 20
233.3722838272969
 10
0.0
 20
0.0
  0
LWPOLYLINE
  5
53
330
1F
100
AcDbEntity
  8
0_Pen_No__1
  6
Continuous
100
AcDbPolyline
 90
        2
 70
   128
 43
0.0
 10
0.0
 20
0.0
 10
10.498046875
 20
0.0
  0
LWPOLYLINE
  5
54
330
1F
100
AcDbEntity
  8
0_Pen_No__1
  6
Continuous
100
AcDbPolyline
 90
        2
 70
   128
 43
0.0
 10
-2.000000000000002
 20
253.3722838272969
 10
-12.00000000000001
 20
248.372283827297
  0
LWPOLYLINE
  5
55
330
1F
100
AcDbEntity
  8
0_Pen_No__1
  6
Continuous
100
AcDbPolyline
 90
        2
 70
   128
 43
0.0
 10
-12.00000000000001
 20
248.372283827297
 10
-12.00000000000001
 20
218.3722838272968
  0
LWPOLYLINE
  5
56
330
1F
100
AcDbEntity
  8
0_Pen_No__1
  6
Continuous
100
AcDbPolyline
 90
        2
 70
   128
 43
0.0
 10
-12.00000000000001
 20
218.3722838272968
 10
-2.000000000000002
 20
213.3722838272969
  0
LWPOLYLINE
  5
57
330
1F
100
AcDbEntity
  8
0_Pen_No__1
  6
Continuous
100
AcDbPolyline
 90
        2
 70
   128
 43
0.0
 10
-2.000000000000002
 20
213.3722838272969
 10
-2.000000000000002
 20
253.3722838272969
  0
LWPOLYLINE
  5
58
330
1F
100
AcDbEntity
  8
0_Pen_No__1
  6
Continuous
100
AcDbPolyline
 90
        2
 70
   128
 43
0.0
 10
114.0831902307733
 20
0.0
 10
113.2873404624573
 20
6.932112964397774
  0
LWPOLYLINE
  5
59
330
1F
100
AcDbEntity
  8
0_Pen_No__1
  6
Continuous
100
AcDbPolyline
 90
        2
 70
   128
 43
0.0
 10
113.2873404624573
 20
6.932112964397774
 10
113.2873404624537
 20
22.75752974072365
  0
LWPOLYLINE
  5
5A
330
1F
100
AcDbEntity
  8
0_Pen_No__1
  6
Continuous
100
AcDbPolyline
 90
        2
 70
   128
 43
0.0
 10
113.2873404624537
 20
22.75752974072365
 10
118.4811178801311
 20
22.75752974072387
  0
LWPOLYLINE
  5
5B
330
1F
100
AcDbEntity
  8
0_Pen_No__1
  6
Continuous
100
AcDbPolyline
 90
        2
 70
   128
 43
0.0
 10
118.4811178801311
 20
22.75752974072387
 10
118.4811178801313
 20
32.74254044083547
  0
LWPOLYLINE
  5
5C
330
1F
100
AcDbEntity
  8
0_Pen_No__1
  6
Continuous
100
AcDbPolyline
 90
        2
 70
   128
 43
0.0
 10
118.4811178801313
 20
32.74254044083547
 10
114.1085968545919
 20
32.74254044083547
  0
LWPOLYLINE
  5
5D
330
1F
100
AcDbEntity
  8
0_Pen_No__1
  6
Continuous
100
AcDbPolyline
 90
        2
 70
   128
 43
0.0
 10
114.1085968545919
 20
32.74254044083547
 10
114.1085968545921
 20
28.70122764126215
  0
LWPOLYLINE
  5
5E
330
1F
100
AcDbEntity
  8
0_Pen_No__1
  6
Continuous
100
AcDbPolyline
 90
        2
 70
   128
 43
0.0
 10
114.1085968545921
 20
28.70122764126215
 10
106.2873404624558
 20
28.70122764126215
  0
LWPOLYLINE
  5
5F
330
1F
100
AcDbEntity
  8
0_Pen_No__1
  6
Continuous
100
AcDbPolyline
 90
        2
 70
   128
 43
0.0
 10
106.2873404624558
 20
28.70122764126215
 10
106.2873404624558
 20
4.90621563420901
  0
LWPOLYLINE
  5
60
330
1F
100
AcDbEntity
  8
0_Pen_No__1
  6
Continuous
100
AcDbPolyline
 90
        2
 70
   128
 43
0.0
 10
106.2873404624558
 20
4.90621563420901
 10
106.8581317786308
 20
0.0
  0
LWPOLYLINE
  5
61
330
1F
100
AcDbEntity
  8
0_Pen_No__1
  6
Continuous
100
AcDbPolyline
 90
        2
 70
   128
 43
0.0
 10
106.8581317786308
 20
0.0
 10
114.0831902307733
 20
0.0
  0
LWPOLYLINE
  5
62
330
1F
100
AcDbEntity
  8
0_Pen_No__1
  6
Continuous
100
AcDbPolyline
 90
        2
 70
   128
 43
0.0
 10
128.2873404624543
 20
143.8735929453094
 10
119.3241645797827
 20
221.9457998015197
  0
LWPOLYLINE
  5
63
330
1F
100
AcDbEntity
  8
0_Pen_No__1
  6
Continuous
100
AcDbPolyline
 90
        2
 70
   128
 43
0.0
 10
119.3241645797827
 20
221.9457998015197
 10
112.1691439468724
 20
221.9457998015197
  0
LWPOLYLINE
  5
64
330
1F
100
AcDbEntity
  8
0_Pen_No__1
  6
Continuous
100
AcDbPolyline
 90
        2
 70
   128
 43
0.0
 10
112.1691439468724
 20
221.9457998015197
 10
120.4377162069357
 20
150.8735929453107
  0
LWPOLYLINE
  5
65
330
1F
100
AcDbEntity
  8
0_Pen_No__1
  6
Continuous
100
AcDbPolyline
 90
        2
 70
   128
 43
0.0
 10
120.4377162069357
 20
150.8735929453107
 10
106.2873404624558
 20
150.8735929453109
  0
LWPOLYLINE
  5
66
330
1F
100
AcDbEntity
  8
0_Pen_No__1
  6
Continuous
100
AcDbPolyline
 90
        2
 70
   128
 43
0.0
 10
106.2873404624558
 20
150.8735929453109
 10
106.3330210346809
 20
143.0751937366097
  0
LWPOLYLINE
  5
67
330
1F
100
AcDbEntity
  8
0_Pen_No__1
  6
Continuous
100
AcDbPolyline
 90
        2
 70
   128
 43
0.0
 10
106.3330210346809
 20
143.0751937366097
 10
117.3379479465375
 20
43.59679672028749
  0
LWPOLYLINE
  5
68
330
1F
100
AcDbEntity
  8
0_Pen_No__1
  6
Continuous
100
AcDbPolyline
 90
        2
 70
   128
 43
0.0
 10
117.3379479465375
 20
43.59679672028749
 10
106.2873404624558
 20
43.59679672028749
  0
LWPOLYLINE
  5
69
330
1F
100
AcDbEntity
  8
0_Pen_No__1
  6
Continuous
100
AcDbPolyline
 90
        2
 70
   128
 43
0.0
 10
106.2873404624558
 20
43.59679672028749
 10
106.2873404624558
 20
29.93629560354915
  0
LWPOLYLINE
  5
6A
330
1F
100
AcDbEntity
  8
0_Pen_No__1
  6
Continuous
100
AcDbPolyline
 90
        2
 70
   128
 43
0.0
 10
106.2873404624558
 20
29.93629560354915
 10
113.2873404624537
 20
29.93629560354915
  0
LWPOLYLINE
  5
6B
330
1F
100
AcDbEntity
  8
0_Pen_No__1
  6
Continuous
100
AcDbPolyline
 90
        2
 70
   128
 43
0.0
 10
113.2873404624537
 20
29.93629560354915
 10
113.2873404624537
 20
36.59679672028959
  0
LWPOLYLINE
  5
6C
330
1F
100
AcDbEntity
  8
0_Pen_No__1
  6
Continuous
100
AcDbPolyline
 90
        2
 70
   128
 43
0.0
 10
113.2873404624537
 20
36.59679672028959
 10
118.7214775828585
 20
36.59679672028982
  0
LWPOLYLINE
  5
6D
330
1F
100
AcDbEntity
  8
0_Pen_No__1
  6
Continuous
100
AcDbPolyline
 90
        2
 70
   128
 43
0.0
 10
118.7214775828585
 20
36.59679672028982
 10
121.0176022201908
 20
20.21866458369925
  0
LWPOLYLINE
  5
6E
330
1F
100
AcDbEntity
  8
0_Pen_No__1
  6
Continuous
100
AcDbPolyline
 90
        2
 70
   128
 43
0.0
 10
121.0176022201908
 20
20.21866458369925
 10
114.2873404624549
 20
20.21866458369947
  0
LWPOLYLINE
  5
6F
330
1F
100
AcDbEntity
  8
0_Pen_No__1
  6
Continuous
100
AcDbPolyline
 90
        2
 70
   128
 43
0.0
 10
114.2873404624549
 20
20.21866458369947
 10
114.2873404624549
 20
13.21866458370136
  0
LWPOLYLINE
  5
70
330
1F
100
AcDbEntity
  8
0_Pen_No__1
  6
Continuous
100
AcDbPolyline
 90
        2
 70
   128
 43
0.0
 10
114.2873404624549
 20
13.21866458370136
 10
128.2873404624543
 20
13.21866458370136
  0
LWPOLYLINE
  5
71
330
1F
100
AcDbEntity
  8
0_Pen_No__1
  6
Continuous
100
AcDbPolyline
 90
        2
 70
   128
 43
0.0
 10
128.2873404624543
 20
13.21866458370136
 10
113.2873404624573
 20
143.8735929453094
  0
LWPOLYLINE
  5
72
330
1F
100
AcDbEntity
  8
0_Pen_No__1
  6
Continuous
100
AcDbPolyline
 90
        2
 70
   128
 43
0.0
 10
113.2873404624573
 20
143.8735929453094
 10
128.2873404624543
 20
143.8735929453094
  0
LWPOLYLINE
  5
73
330
1F
100
AcDbEntity
  8
0_Pen_No__1
  6
Continuous
100
AcDbPolyline
 90
        2
 70
   128
 43
0.0
 10
120.4473062900902
 20
219.805082228741
 10
120.1190018540752
 20
222.7437251587734
  0
LWPOLYLINE
  5
74
330
1F
100
AcDbEntity
  8
0_Pen_No__1
  6
Continuous
100
AcDbPolyline
 90
        2
 70
   128
 43
0.0
 10
120.1190018540752
 20
222.7437251587734
 10
119.4634834358357
 20
223.3938462104286
  0
LWPOLYLINE
  5
75
330
1F
100
AcDbEntity
  8
0_Pen_No__1
  6
Continuous
100
AcDbPolyline
 90
        2
 70
   128
 43
0.0
 10
119.4634834358357
 20
223.3938462104286
 10
119.4634834358357
 20
223.7854152574918
  0
LWPOLYLINE
  5
76
330
1F
100
AcDbEntity
  8
0_Pen_No__1
  6
Continuous
100
AcDbPolyline
 90
        2
 70
   128
 43
0.0
 10
119.4634834358357
 20
223.7854152574918
 10
119.9333662923114
 20
224.411925732793
  0
LWPOLYLINE
  5
77
330
1F
100
AcDbEntity
  8
0_Pen_No__1
  6
Continuous
100
AcDbPolyline
 90
        2
 70
   128
 43
0.0
 10
119.9333662923114
 20
224.411925732793
 10
121.0297596240884
 20
224.6468671610309
  0
LWPOLYLINE
  5
78
330
1F
100
AcDbEntity
  8
0_Pen_No__1
  6
Continuous
100
AcDbPolyline
 90
        2
 70
   128
 43
0.0
 10
121.0297596240884
 20
224.6468671610309
 10
121.9529388296547
 20
224.6149844936605
  0
LWPOLYLINE
  5
79
330
1F
100
AcDbEntity
  8
0_Pen_No__1
  6
Continuous
100
AcDbPolyline
 90
        2
 70
   128
 43
0.0
 10
121.9529388296547
 20
224.6149844936605
 10
121.7780940241851
 20
219.5522622710897
  0
LWPOLYLINE
  5
7A
330
1F
100
AcDbEntity
  8
0_Pen_No__1
  6
Continuous
100
AcDbPolyline
 90
        2
 70
   128
 43
0.0
 10
121.7780940241851
 20
219.5522622710897
 10
120.4473062900902
 20
219.805082228741
  0
LWPOLYLINE
  5
7B
330
1F
100
AcDbEntity
  8
0_Pen_No__1
  6
Continuous
100
AcDbPolyline
 90
        2
 70
   128
 43
0.0
 10
24.34803606612279
 20
229.3722838272969
 10
49.34803606612292
 20
229.3722838272969
  0
LWPOLYLINE
  5
7C
330
1F
100
AcDbEntity
  8
0_Pen_No__1
  6
Continuous
100
AcDbPolyline
 90
        2
 70
   128
 43
0.0
 10
49.34803606612292
 20
229.3722838272969
 10
49.34803606612292
 20
233.3722838272969
  0
LWPOLYLINE
  5
7D
330
1F
100
AcDbEntity
  8
0_Pen_No__1
  6
Continuous
100
AcDbPolyline
 90
        2
 70
   128
 43
0.0
 10
49.34803606612292
 20
233.3722838272969
 10
24.34803606612279
 20
233.3722838272969
  0
LWPOLYLINE
  5
7E
330
1F
100
AcDbEntity
  8
0_Pen_No__1
  6
Continuous
100
AcDbPolyline
 90
        2
 70
   128
 43
0.0
 10
24.34803606612279
 20
233.3722838272969
 10
24.34803606612279
 20
229.3722838272969
  0
LWPOLYLINE
  5
7F
330
1F
100
AcDbEntity
  8
0_Pen_No__1
  6
Continuous
100
AcDbPolyline
 90
        2
 70
   128
 43
0.0
 10
50.60755704275478
 20
233.3722837184357
 10
50.43010118560809
 20
228.2339565026472
  0
LWPOLYLINE
  5
80
330
1F
100
AcDbEntity
  8
0_Pen_No__1
  6
Continuous
100
AcDbPolyline
 90
        2
 70
   128
 43
0.0
 10
50.43010118560809
 20
228.2339565026472
 10
123.1328815637558
 20
228.2339567335336
  0
LWPOLYLINE
  5
81
330
1F
100
AcDbEntity
  8
0_Pen_No__1
  6
Continuous
100
AcDbPolyline
 90
        2
 70
   128
 43
0.0
 10
123.1328815637558
 20
228.2339567335336
 10
122.6405608066425
 20
201.4677095230133
  0
LWPOLYLINE
  5
82
330
1F
100
AcDbEntity
  8
0_Pen_No__1
  6
Continuous
100
AcDbPolyline
 90
        2
 70
   128
 43
0.0
 10
122.6405608066425
 20
201.4677095230133
 10
124.5930455071653
 20
199.5123484874997
  0
LWPOLYLINE
  5
83
330
1F
100
AcDbEntity
  8
0_Pen_No__1
  6
Continuous
100
AcDbPolyline
 90
        2
 70
   128
 43
0.0
 10
124.5930455071653
 20
199.5123484874997
 10
122.5057578542448
 20
197.5644199689559
  0
LWPOLYLINE
  5
84
330
1F
100
AcDbEntity
  8
0_Pen_No__1
  6
Continuous
100
AcDbPolyline
 90
        2
 70
   128
 43
0.0
 10
122.5057578542448
 20
197.5644199689559
 10
123.5285931536745
 20
196.468408759537
  0
LWPOLYLINE
  5
85
330
1F
100
AcDbEntity
  8
0_Pen_No__1
  6
Continuous
100
AcDbPolyline
 90
        2
 70
   128
 43
0.0
 10
123.5285931536745
 20
196.468408759537
 10
126.7179855334235
 20
199.4448592572173
  0
LWPOLYLINE
  5
86
330
1F
100
AcDbEntity
  8
0_Pen_No__1
  6
Continuous
100
AcDbPolyline
 90
        2
 70
   128
 43
0.0
 10
126.7179855334235
 20
199.4448592572173
 10
124.1660332698231
 20
202.1793838560137
  0
LWPOLYLINE
  5
87
330
1F
100
AcDbEntity
  8
0_Pen_No__1
  6
Continuous
100
AcDbPolyline
 90
        2
 70
   128
 43
0.0
 10
124.1660332698231
 20
202.1793838560137
 10
124.6739290168317
 20
229.3966129944626
  0
LWPOLYLINE
  5
88
330
1F
100
AcDbEntity
  8
0_Pen_No__1
  6
Continuous
100
AcDbPolyline
 90
        2
 70
   128
 43
0.0
 10
124.6739290168317
 20
229.3966129944626
 10
124.6837605541271
 20
229.6812902670444
  0
LWPOLYLINE
  5
89
330
1F
100
AcDbEntity
  8
0_Pen_No__1
  6
Continuous
100
AcDbPolyline
 90
        2
 70
   128
 43
0.0
 10
124.6837605541271
 20
229.6812902670444
 10
51.98098017597963
 20
229.681290036158
  0
LWPOLYLINE
  5
8A
330
1F
100
AcDbEntity
  8
0_Pen_No__1
  6
Continuous
100
AcDbPolyline
 90
        2
 70
   128
 43
0.0
 10
51.98098017597963
 20
229.681290036158
 10
52.10666330469595
 20
233.3205109900053
  0
LWPOLYLINE
  5
8B
330
1F
100
AcDbEntity
  8
0_Pen_No__1
  6
Continuous
100
AcDbPolyline
 90
        2
 70
   128
 43
0.0
 10
52.10666330469595
 20
233.3205109900053
 10
50.60755704275478
 20
233.3722837184357
  0
LWPOLYLINE
  5
8C
330
1F
100
AcDbEntity
  8
0_Pen_No__1
  6
Continuous
100
AcDbPolyline
 90
        2
 70
   128
 43
0.0
 10
57.82002388692131
 20
225.3722838272969
 10
12.498046875
 20
225.3722838272969
  0
LWPOLYLINE
  5
8D
330
1F
100
AcDbEntity
  8
0_Pen_No__1
  6
Continuous
100
AcDbPolyline
 90
        2
 70
   128
 43
0.0
 10
12.498046875
 20
225.3722838272969
 10
12.498046875
 20
185.3722838272969
  0
LWPOLYLINE
  5
8E
330
1F
100
AcDbEntity
  8
0_Pen_No__1
  6
Continuous
100
AcDbPolyline
 90
        2
 70
   128
 43
0.0
 10
12.498046875
 20
185.3722838272969
 10
102.4980468750001
 20
185.3722838272969
  0
LWPOLYLINE
  5
8F
330
1F
100
AcDbEntity
  8
0_Pen_No__1
  6
Continuous
100
AcDbPolyline
 90
        2
 70
   128
 43
0.0
 10
102.4980468750001
 20
185.3722838272969
 10
102.4980468750001
 20
225.3722838272969
  0
LWPOLYLINE
  5
90
330
1F
100
AcDbEntity
  8
0_Pen_No__1
  6
Continuous
100
AcDbPolyline
 90
        2
 70
   128
 43
0.0
 10
102.4980468750001
 20
225.3722838272969
 10
57.82002388692131
 20
225.3722838272969
  0
LWPOLYLINE
  5
91
330
1F
100
AcDbEntity
  8
0_Pen_No__1
  6
Continuous
100
AcDbPolyline
 90
        2
 70
   128
 43
0.0
 10
0.0
 20
235.3722838272969
 10
86.35292608195677
 20
235.3722838272969
  0
LWPOLYLINE
  5
92
330
1F
100
AcDbEntity
  8
0_Pen_No__1
  6
Continuous
100
AcDbPolyline
 90
        2
 70
   128
 43
0.0
 10
86.35292608195677
 20
253.3722838272969
 10
0.0
 20
253.3722838272969
  0
LWPOLYLINE
  5
93
330
1F
100
AcDbEntity
  8
0_Pen_No__1
  6
Continuous
100
AcDbPolyline
 90
        2
 70
   128
 43
0.0
 10
0.0
 20
253.3722838272969
 10
0.0
 20
235.3722838272969
  0
LWPOLYLINE
  5
94
330
1F
100
AcDbEntity
  8
0_Pen_No__1
  6
Continuous
100
AcDbPolyline
 90
        2
 70
   128
 43
0.0
 10
111.2688963599429
 20
220.6236646686019
 10
105.9509075241045
 20
220.7720342593367
  0
LWPOLYLINE
  5
95
330
1F
100
AcDbEntity
  8
0_Pen_No__1
  6
Continuous
100
AcDbPolyline
 90
        2
 70
   128
 43
0.0
 10
105.9509075241045
 20
220.7720342593367
 10
105.9509075241045
 20
189.9190172567871
  0
LWPOLYLINE
  5
96
330
1F
100
AcDbEntity
  8
0_Pen_No__1
  6
Continuous
100
AcDbPolyline
 90
        2
 70
   128
 43
0.0
 10
105.9509075241045
 20
189.9190172567871
 10
114.841088741108
 20
189.9190172567871
  0
LWPOLYLINE
  5
97
330
1F
100
AcDbEntity
  8
0_Pen_No__1
  6
Continuous
100
AcDbPolyline
 90
        2
 70
   128
 43
0.0
 10
114.841088741108
 20
189.9190172567871
 10
111.2688963599429
 20
220.6236646686019
  0
LWPOLYLINE
  5
98
330
1F
100
AcDbEntity
  8
0_Pen_No__1
  6
Continuous
100
AcDbPolyline
 90
        2
 70
   128
 43
0.0
 10
-51.7706080127438
 20
0.0
 10
69.771262167037
 20
0.0
  0
LWPOLYLINE
  5
99
330
1F
100
AcDbEntity
  8
0_Pen_No__1
  6
Continuous
100
AcDbPolyline
 90
        2
 70
   128
 43
0.0
 10
69.771262167037
 20
0.0
 10
71.16882247202926
 20
10.06834509472943
  0
LWPOLYLINE
  5
9A
330
1F
100
AcDbEntity
  8
0_Pen_No__1
  6
Continuous
100
AcDbPolyline
 90
        2
 70
   128
 43
0.0
 10
71.16882247202926
 20
10.06834509472943
 10
73.6468575124971
 20
-9.571182867096795
  0
LWPOLYLINE
  5
9B
330
1F
100
AcDbEntity
  8
0_Pen_No__1
  6
Continuous
100
AcDbPolyline
 90
        2
 70
   128
 43
0.0
 10
73.6468575124971
 20
-9.571182867096795
 10
75.40691042844117
 20
0.0
  0
LWPOLYLINE
  5
9C
330
1F
100
AcDbEntity
  8
0_Pen_No__1
  6
Continuous
100
AcDbPolyline
 90
        2
 70
   128
 43
0.0
 10
75.40691042844117
 20
0.0
 10
183.5726303021785
 20
0.0
  0
LWPOLYLINE
  5
9D
330
1F
100
AcDbEntity
  8
0_Pen_No__1
  6
Continuous
100
AcDbPolyline
 90
        2
 70
   128
 43
0.0
 10
-61.81724317244885
 20
364.5983297889932
 10
59.72462700733217
 20
364.5983297889932
  0
LWPOLYLINE
  5
9E
330
1F
100
AcDbEntity
  8
0_Pen_No__1
  6
Continuous
100
AcDbPolyline
 90
        2
 70
   128
 43
0.0
 10
59.72462700733217
 20
364.5983297889932
 10
61.12218731232421
 20
374.6666748837229
  0
LWPOLYLINE
  5
9F
330
1F
100
AcDbEntity
  8
0_Pen_No__1
  6
Continuous
100
AcDbPolyline
 90
        2
 70
   128
 43
0.0
 10
61.12218731232421
 20
374.6666748837229
 10
63.60022235279206
 20
355.0271469218964
  0
LWPOLYLINE
  5
A0
330
1F
100
AcDbEntity
  8
0_Pen_No__1
  6
Continuous
100
AcDbPolyline
 90
        2
 70
   128
 43
0.0
 10
63.60022235279206
 20
355.0271469218964
 10
65.36027526873633
 20
364.5983297889932
  0
LWPOLYLINE
  5
A1
330
1F
100
AcDbEntity
  8
0_Pen_No__1
  6
Continuous
100
AcDbPolyline
 90
        2
 70
   128
 43
0.0
 10
65.36027526873633
 20
364.5983297889932
 10
173.5259951424737
 20
364.5983297889932
  0
LWPOLYLINE
  5
A2
330
1F
100
AcDbEntity
  8
0_Pen_No__1
  6
Continuous
100
AcDbPolyline
 90
        2
 70
   128
 43
0.0
 10
117.8204454671647
 20
31.2205384887918
 10
118.5994454405195
 20
31.30375708836697
  0
LWPOLYLINE
  5
A3
330
1F
100
AcDbEntity
  8
0_Pen_No__1
  6
Continuous
100
AcDbPolyline
 90
        2
 70
   128
 43
0.0
 10
118.5994454405195
 20
31.30375708836697
 10
118.9712389242892
 20
27.82344000265869
  0
LWPOLYLINE
  5
A4
330
1F
100
AcDbEntity
  8
0_Pen_No__1
  6
Continuous
100
AcDbPolyline
 90
        2
 70
   128
 43
0.0
 10
117.2316380556828
 20
28.68726688205636
 10
117.8204454671647
 20
31.2205384887918
  0
LWPOLYLINE
  5
A5
330
1F
100
AcDbEntity
  8
0_Pen_No__1
  6
Continuous
100
AcDbPolyline
 90
        2
 70
   128
 43
0.0
 10
86.68047823549152
 20
25.37753284920985
 10
84.16912532567622
 20
24.10561810921452
  0
LWPOLYLINE
  5
A6
330
1F
100
AcDbEntity
  8
0_Pen_No__1
  6
Continuous
100
AcDbPolyline
 90
        2
 70
   128
 43
0.0
 10
117.2316380556828
 20
28.68726688205636
 10
86.68047823549152
 20
25.37753284920985
  0
LWPOLYLINE
  5
A7
330
1F
100
AcDbEntity
  8
0_Pen_No__1
  6
Continuous
100
AcDbPolyline
 90
        2
 70
   128
 43
0.0
 10
118.5640324347039
 20
24.25990431737546
 10
119.3430324080587
 20
24.34312291695062
  0
LWPOLYLINE
  5
A8
330
1F
100
AcDbEntity
  8
0_Pen_No__1
  6
Continuous
100
AcDbPolyline
 90
        2
 70
   128
 43
0.0
 10
119.3430324080587
 20
24.34312291695062
 10
118.9712389242892
 20
27.82344000265869
  0
LWPOLYLINE
  5
A9
330
1F
100
AcDbEntity
  8
0_Pen_No__1
  6
Continuous
100
AcDbPolyline
 90
        2
 70
   128
 43
0.0
 10
117.453373504228
 20
26.61162622731972
 10
118.5640324347039
 20
24.25990431737546
  0
LWPOLYLINE
  5
AA
330
1F
100
AcDbEntity
  8
0_Pen_No__1
  6
Continuous
100
AcDbPolyline
 90
        2
 70
   128
 43
0.0
 10
86.89248994535737
 20
23.39291502122975
 10
84.16912532567622
 20
24.10561810921452
  0
LWPOLYLINE
  5
AB
330
1F
100
AcDbEntity
  8
0_Pen_No__1
  6
Continuous
100
AcDbPolyline
 90
        2
 70
   128
 43
0.0
 10
117.453373504228
 20
26.61162622731972
 10
86.89248994535737
 20
23.39291502122975
  0
LWPOLYLINE
  5
AC
330
1F
100
AcDbEntity
  8
0_Pen_No__1
  6
Continuous
100
AcDbPolyline
 90
        2
 70
   128
 43
0.0
 10
120.6134838374471
 20
208.631707823427
 10
121.3962522300869
 20
208.6639558820671
  0
LWPOLYLINE
  5
AD
330
1F
100
AcDbEntity
  8
0_Pen_No__1
  6
Continuous
100
AcDbPolyline
 90
        2
 70
   128
 43
0.0
 10
121.3962522300869
 20
208.6639558820671
 10
121.5403260083994
 20
205.1668027315676
  0
LWPOLYLINE
  5
AE
330
1F
100
AcDbEntity
  8
0_Pen_No__1
  6
Continuous
100
AcDbPolyline
 90
        2
 70
   128
 43
0.0
 10
119.860751475722
 20
206.1422192829996
 10
120.6134838374471
 20
208.631707823427
  0
LWPOLYLINE
  5
AF
330
1F
100
AcDbEntity
  8
0_Pen_No__1
  6
Continuous
100
AcDbPolyline
 90
        2
 70
   128
 43
0.0
 10
89.15879878417576
 20
204.8315680505532
 10
86.56985687637042
 20
203.7261087154962
  0
LWPOLYLINE
  5
B0
330
1F
100
AcDbEntity
  8
0_Pen_No__1
  6
Continuous
100
AcDbPolyline
 90
        2
 70
   128
 43
0.0
 10
119.860751475722
 20
206.1422192829996
 10
89.15879878417576
 20
204.8315680505532
  0
LWPOLYLINE
  5
B1
330
1F
100
AcDbEntity
  8
0_Pen_No__1
  6
Continuous
100
AcDbPolyline
 90
        2
 70
   128
 43
0.0
 10
120.9016313940718
 20
201.6374015224278
 10
121.6843997867116
 20
201.6696495810681
  0
LWPOLYLINE
  5
B2
330
1F
100
AcDbEntity
  8
0_Pen_No__1
  6
Continuous
100
AcDbPolyline
 90
        2
 70
   128
 43
0.0
 10
121.6843997867116
 20
201.6696495810681
 10
121.5403260083994
 20
205.1668027315676
  0
LWPOLYLINE
  5
B3
330
1F
100
AcDbEntity
  8
0_Pen_No__1
  6
Continuous
100
AcDbPolyline
 90
        2
 70
   128
 43
0.0
 10
119.9466762303298
 20
204.0565376981733
 10
120.9016313940718
 20
201.6374015224278
  0
LWPOLYLINE
  5
B4
330
1F
100
AcDbEntity
  8
0_Pen_No__1
  6
Continuous
100
AcDbPolyline
 90
        2
 70
   128
 43
0.0
 10
89.24095549057398
 20
202.8373496162161
 10
86.56985687637042
 20
203.7261087154962
  0
LWPOLYLINE
  5
B5
330
1F
100
AcDbEntity
  8
0_Pen_No__1
  6
Continuous
100
AcDbPolyline
 90
        2
 70
   128
 43
0.0
 10
119.9466762303298
 20
204.0565376981733
 10
89.24095549057398
 20
202.8373496162161
  0
LWPOLYLINE
  5
B6
330
1F
100
AcDbEntity
  8
0_Pen_No__1
  6
Continuous
100
AcDbPolyline
 90
        2
 70
   128
 43
0.0
 10
12.498046875
 20
225.3722838272969
 10
102.4980468750001
 20
185.3722838272969
  0
LWPOLYLINE
  5
B7
330
1F
100
AcDbEntity
  8
0_Pen_No__1
  6
Continuous
100
AcDbPolyline
 90
        2
 70
   128
 43
0.0
 10
12.498046875
 20
185.3722838272969
 10
12.498046875
 20
0.0
  0
LWPOLYLINE
  5
B8
330
1F
100
AcDbEntity
  8
0_Pen_No__1
  6
Continuous
100
AcDbPolyline
 90
        2
 70
   128
 43
0.0
 10
-12.00000000000001
 20
248.372283827297
 10
-12.00000000000001
 20
364.5983297889932
  0
LWPOLYLINE
  5
B9
330
1F
100
AcDbEntity
  8
0_Pen_No__1
  6
Continuous
100
AcDbPolyline
 90
        2
 70
   128
 43
0.0
 10
0.0
 20
253.3722838272969
 10
0.0
 20
364.5983297889932
  0
LWPOLYLINE
  5
BA
330
1F
100
AcDbEntity
  8
0_Pen_No__1
  6
Continuous
100
AcDbPolyline
 90
        2
 70
   128
 43
0.0
 10
102.4980468750001
 20
185.3722838272969
 10
102.4980468750001
 20
0.0
  0
LWPOLYLINE
  5
BB
330
1F
100
AcDbEntity
  8
0_Pen_No__1
  6
Continuous
100
AcDbPolyline
 90
        2
 70
   128
 43
0.0
 10
24.34803606612279
 20
233.3722838272969
 10
49.34803606612292
 20
229.3722838272969
  0
LWPOLYLINE
  5
BD
330
1F
100
AcDbEntity
  8
0_Pen_No__1
  6
Above
100
AcDbPolyline
 90
        2
 70
   128
 43
0.0
 10
12.498046875
 20
226.9931763550132
 10
104.4980468749999
 20
226.9931763550132
  0
LWPOLYLINE
  5
BE
330
1F
100
AcDbEntity
  8
0_Pen_No__1
  6
Above
100
AcDbPolyline
 90
        2
 70
   128
 43
0.0
 10
104.4980468749999
 20
226.8735089569722
 10
104.4980468750001
 20
0.0
  0
LWPOLYLINE
  5
BF
330
1F
100
AcDbEntity
  8
0_Pen_No__1
  6
Continuous
100
AcDbPolyline
 90
        2
 70
   128
 43
0.0
 10
102.4980468750001
 20
225.3722838272969
 10
12.498046875
 20
185.3722838272969
  0
LWPOLYLINE
  5
C0
330
1F
100
AcDbEntity
  8
0_Pen_No__1
  6
Continuous
100
AcDbPolyline
 90
        2
 70
   128
 43
0.0
 10
84.08055805633042
 20
254.2722838272967
 10
84.08055805633042
 20
364.5983297889932
  0
LWPOLYLINE
  5
C1
330
1F
100
AcDbEntity
  8
0_Pen_No__1
  6
Continuous
100
AcDbPolyline
 90
        2
 70
   128
 43
0.0
 10
105.9509075241045
 20
189.9190172567871
 10
111.2688963599429
 20
220.6236646686019
  0
ELLIPSE
  5
C2
330
1F
100
AcDbEntity
  8
0_Pen_No__1
  6
Continuous
100
AcDbEllipse
 10
19.47560744434407
 20
231.238778880084
 30
0.0
 11
4.25924896576646
 21
0.0
 31
0.0
210
0.0
220
0.0
230
1.0
 40
0.6574786677996285
 41
0.0
 42
6.283185307179586
  0
DIMENSION
  5
CF
330
1F
100
AcDbEntity
  8
0
  6
Continuous
100
AcDbDimension
  2
*D1
 10
-27.00000000000001
 20
235.3722838272969
 30
0.0
 11
-30.49999997764827
 21
214.6263279467022
 31
0.0
 70
   160
  1
10mm
 71
     5
 42
-1.0
 53
90.0
  3
GENERATED_STYLE__1
100
AcDbAlignedDimension
 13
12.498046875
 23
225.3722838272969
 33
0.0
 14
0.0
 24
235.3722838272969
 34
0.0
 50
90.0
100
AcDbRotatedDimension
  0
DIMENSION
  5
E1
330
1F
100
AcDbEntity
  8
0
  6
Continuous
100
AcDbDimension
  2
*D3
 10
137.2804823414
 20
188.9049405038698
 30
0.0
 11
131.9992336457933
 21
192.4049404815181
 31
0.0
 70
   160
  1
5
 71
     5
 42
-1.0
  3
GENERATED_STYLE__2
100
AcDbAlignedDimension
 13
126.7179850755565
 23
199.4448589278337
 33
0.0
 14
137.2804823414
 24
212.6253824647139
 34
0.0
100
AcDbRotatedDimension
  0
DIMENSION
  5
EE
330
1F
100
AcDbEntity
  8
0
  6
Continuous
100
AcDbDimension
  2
*D4
 10
56.44086169565263
 20
235.3722838272969
 30
0.0
 11
52.94086163977327
 21
270.3862478717978
 31
0.0
 70
   160
  1
<MeasuredValue>mm
 71
     5
 42
-1.0
 53
90.0
  3
GENERATED_STYLE__3
100
AcDbAlignedDimension
 13
50.60755713874264
 23
233.3722838272969
 33
0.0
 14
50.61196684586096
 24
235.3722838272969
 34
0.0
 50
90.0
100
AcDbRotatedDimension
  0
DIMENSION
  5
FB
330
1F
100
AcDbEntity
  8
0
  6
Continuous
100
AcDbDimension
  2
*D5
 10
161.3522057210666
 20
221.9457998015197
 30
0.0
 11
157.8522057434183
 21
240.3552213817302
 31
0.0
 70
   160
  1
10mm min
 71
     5
 42
-1.0
 53
90.0
  3
GENERATED_STYLE__3
100
AcDbAlignedDimension
 13
135.2804820563307
 23
210.8753772923092
 33
0.0
 14
119.3241645797827
 24
221.9457998015197
 34
0.0
 50
90.0
100
AcDbRotatedDimension
  0
WIPEOUT
  5
FC
330
1F
100
AcDbEntity
  8
Key_ Sections_Pen_No__1
  6
Wipeout_Contour
 48
1610.65857107131
 92
      296
310
28010000060000000C0000000E000000120000000C00000016000000000000C20C00000014000000010000006C000000070000000400000066FB1A4F93B265403223B33CADE0754000000000000000006A51297C45186E403223B33CADE0754000000000000000006A51297C45186E40C2C3AB6E9320754000000000000000
310
0066FB1A4F93B26540C2C3AB6E9320754000000000000000000C0000000E0000000700000084000000060000000500000066FB1A4F93B265403223B33CADE0754000000000000000006A51297C45186E403223B33CADE0754000000000000000006A51297C45186E40C2C3AB6E93207540000000000000000066FB1A4F93B2
310
6540C2C3AB6E93207540000000000000000066FB1A4F93B265403223B33CADE075400000000000000000
100
AcDbWipeout
 90
        0
 10
173.5804820563309
 20
338.0359942159231
 30
0.0
 11
67.178
 21
0.0
 31
0.0
 12
0.0
 22
12.00630000000001
 32
0.0
 13
1.0
 23
1.0
340
0
 70
    15
280
     1
281
    50
282
    50
283
     0
360
0
 71
     2
 91
        5
 14
-0.5
 24
-0.5
 14
0.5
 24
-0.5
 14
0.5
 24
0.5
 14
-0.5
 24
0.5
 14
-0.5
 24
-0.5
  0
MTEXT
  5
FF
102
{ACAD_REACTORS
330
100
102
}
330
1F
100
AcDbEntity
  8
Key_ Sections_Pen_No__1
  6
Continuous
100
AcDbMText
 10
175.5804820563309
 20
344.3600085016374
 30
0.0
 40
5.000000000000001
 41
63.178
 71
     4
 72
     1
  1
{Airseal over PEF rod}
  7
GENERATED_STYLE_1
 73
     1
 44
1.0
  0
LEADER
  5
100
330
1F
100
AcDbEntity
  8
Key_ Sections_Pen_No__1
  6
Continuous
100
AcDbLeader
  3
GENERATED_STYLE__4
 72
     1
 73
     0
 74
     0
 40
13.41333333333334
 41
52.05
 76
     3
 10
19.47560744434407
 20
234.0391442159231
 30
0.0
 10
45.4833726507224
 20
307.6034769789509
 30
0.0
 10
175.4904820563309
 20
344.3600085016374
 30
0.0
340
FF
  0
WIPEOUT
  5
107
330
1F
100
AcDbEntity
  8
Key_ Sections_Pen_No__1
  6
Wipeout_Contour
 48
1564.808995324801
 92
      296
310
28010000060000000C0000000E000000120000000C00000016000000000000C20C00000014000000010000006C000000070000000400000066FB1A4F93B265403D76CE31ADD3744000000000000000003DBFED8C1A4870403D76CE31ADD3744000000000000000003DBFED8C1A487040006CF78D3C98734000000000000000
310
0066FB1A4F93B26540006CF78D3C98734000000000000000000C0000000E0000000700000084000000060000000500000066FB1A4F93B265403D76CE31ADD3744000000000000000003DBFED8C1A4870403D76CE31ADD3744000000000000000003DBFED8C1A487040006CF78D3C987340000000000000000066FB1A4F93B2
310
6540006CF78D3C987340000000000000000066FB1A4F93B265403D76CE31ADD374400000000000000000
100
AcDbWipeout
 90
        0
 10
173.5804820563309
 20
313.5147838272969
 30
0.0
 11
86.92600000000004
 21
0.0
 31
0.0
 12
0.0
 22
19.71499999999997
 32
0.0
 13
1.0
 23
1.0
340
0
 70
    15
280
     1
281
    50
282
    50
283
     0
360
0
 71
     2
 91
        5
 14
-0.5
 24
-0.5000000000000014
 14
0.5
 24
-0.5000000000000014
 14
0.5
 24
0.4999999999999986
 14
-0.5
 24
0.4999999999999986
 14
-0.5
 24
-0.5000000000000014
  0
MTEXT
  5
108
102
{ACAD_REACTORS
330
109
102
}
330
1F
100
AcDbEntity
  8
Key_ Sections_Pen_No__1
  6
Continuous
100
AcDbMText
 10
175.5804820563309
 20
322.9777838272969
 30
0.0
 40
5.0
 41
82.926
 71
     4
 72
     1
  1
{H3.1 timber (or equivalent) \Ppacker to suit}
  7
GENERATED_STYLE_1
 73
     1
 44
0.9312510935145418
  0
LEADER
  5
109
330
1F
100
AcDbEntity
  8
Key_ Sections_Pen_No__1
  6
Continuous
100
AcDbLeader
  3
GENERATED_STYLE__4
 72
     1
 73
     0
 74
     0
 40
14.21992586676901
 41
81.80499999999999
 76
     3
 10
36.84803606612286
 20
233.3722838272969
 30
0.0
 10
57.51422987219168
 20
291.9751812893915
 30
0.0
 10
175.4904820563309
 20
322.9777838272969
 30
0.0
340
108
  0
WIPEOUT
  5
10A
330
1F
100
AcDbEntity
  8
Key_ Sections_Pen_No__1
  6
Wipeout_Contour
 48
1416.017397386359
 92
      296
310
28010000060000000C0000000E000000120000000C00000016000000000000C20C00000014000000010000006C000000070000000400000066FB1A4F93B26540BC8645C8BEC9724000000000000000000EC266861C806C40BC8645C8BEC9724000000000000000000EC266861C806C402B99C8888989714000000000000000
310
0066FB1A4F93B265402B99C8888989714000000000000000000C0000000E0000000700000084000000060000000500000066FB1A4F93B26540BC8645C8BEC9724000000000000000000EC266861C806C40BC8645C8BEC9724000000000000000000EC266861C806C402B99C88889897140000000000000000066FB1A4F93B2
310
65402B99C88889897140000000000000000066FB1A4F93B26540BC8645C8BEC972400000000000000000
100
AcDbWipeout
 90
        0
 10
173.5804820563309
 20
280.596077712619
 30
0.0
 11
54.423
 21
0.0
 31
0.0
 12
0.0
 22
20.01299999999998
 32
0.0
 13
1.0
 23
1.0
340
0
 70
    15
280
     1
281
    50
282
    50
283
     0
360
0
 71
     2
 91
        5
 14
-0.5
 24
-0.4999999999999986
 14
0.5
 24
-0.4999999999999986
 14
0.5
 24
0.5000000000000014
 14
-0.5
 24
0.5000000000000014
 14
-0.5
 24
-0.4999999999999986
  0
MTEXT
  5
10B
102
{ACAD_REACTORS
330
10C
102
}
330
1F
100
AcDbEntity
  8
Key_ Sections_Pen_No__1
  6
Continuous
100
AcDbMText
 10
175.5804820563309
 20
290.2825005513607
 30
0.0
 40
4.999999999999999
 41
50.423
 71
     4
 72
     1
  1
{Flat sill tray with \P8mm upstand}
  7
GENERATED_STYLE_1
 73
     1
 44
0.9557258131368606
  0
LEADER
  5
10C
330
1F
100
AcDbEntity
  8
Key_ Sections_Pen_No__1
  6
Continuous
100
AcDbLeader
  3
GENERATED_STYLE__4
 72
     1
 73
     0
 74
     0
 40
14.3693817761405
 41
48.58999999999998
 76
     3
 10
103.854539240364
 20
229.6812904157082
 30
0.0
 10
133.7714845153029
 20
278.0158470571133
 30
0.0
 10
175.4904820563309
 20
290.2825005513607
 30
0.0
340
10B
  0
WIPEOUT
  5
10D
330
1F
100
AcDbEntity
  8
Key_ Sections_Pen_No__1
  6
Wipeout_Contour
 48
833.2212404298257
 92
      296
310
28010000060000000C0000000E000000120000000C00000016000000000000C20C00000014000000010000006C000000070000000400000064FB1A4F93B26540268D407F349D44400000000000000000777EDB1935CC6D40268D407F349D44400000000000000000777EDB1935CC6D401CF5CC9E176B2A4000000000000000
310
0064FB1A4F93B265401CF5CC9E176B2A4000000000000000000C0000000E0000000700000084000000060000000500000064FB1A4F93B26540268D407F349D44400000000000000000777EDB1935CC6D40268D407F349D44400000000000000000777EDB1935CC6D401CF5CC9E176B2A40000000000000000064FB1A4F93B2
310
65401CF5CC9E176B2A40000000000000000064FB1A4F93B26540268D407F349D44400000000000000000
100
AcDbWipeout
 90
        0
 10
173.5804820563309
 20
13.20916458370135
 30
0.0
 11
64.80100000000002
 21
0.0
 31
0.0
 12
0.0
 22
28.019
 32
0.0
 13
1.0
 23
1.0
340
0
 70
    15
280
     1
281
    50
282
    50
283
     0
360
0
 71
     2
 91
        5
 14
-0.5000000000000002
 24
-0.5
 14
0.4999999999999998
 24
-0.5
 14
0.4999999999999998
 24
0.5000000000000001
 14
-0.5000000000000002
 24
0.5000000000000001
 14
-0.5000000000000002
 24
-0.5
  0
MTEXT
  5
10E
102
{ACAD_REACTORS
330
10F
102
}
330
1F
100
AcDbEntity
  8
Key_ Sections_Pen_No__1
  6
Continuous
100
AcDbMText
 10
175.5804820563309
 20
27.53958168975613
 30
0.0
 40
5.0
 41
60.801
 71
     4
 72
     1
  1
{Palliside Traditional \Pweatherboard fixed \Pwith Palliside nails}
  7
GENERATED_STYLE_1
 73
     1
 44
0.955815461076037
  0
LEADER
  5
10F
330
1F
100
AcDbEntity
  8
Key_ Sections_Pen_No__1
  6
Continuous
100
AcDbLeader
  3
GENERATED_STYLE__4
 72
     1
 73
     0
 74
     0
 40
21.09150199879208
 41
59.475
 76
     2
 10
126.6800532163219
 20
27.21866458370135
 30
0.0
 10
175.4904820563309
 20
27.53958168975613
 30
0.0
340
10E
  0
WIPEOUT
  5
110
330
1F
100
AcDbEntity
  8
Key_ Sections_Pen_No__1
  6
Wipeout_Contour
 48
928.9261808903073
 92
      296
310
28010000060000000C0000000E000000120000000C00000016000000000000C20C00000014000000010000006C000000070000000400000064FB1A4F93B2654007606EB187345640000000000000000091CD1A3FB8C3704007606EB187345640000000000000000091CD1A3FB8C37040A30368CFF664464000000000000000
310
0064FB1A4F93B26540A30368CFF664464000000000000000000C0000000E0000000700000084000000060000000500000064FB1A4F93B2654007606EB187345640000000000000000091CD1A3FB8C3704007606EB187345640000000000000000091CD1A3FB8C37040A30368CFF6644640000000000000000064FB1A4F93B2
310
6540A30368CFF6644640000000000000000064FB1A4F93B2654007606EB1873456400000000000000000
100
AcDbWipeout
 90
        0
 10
173.5804820563309
 20
44.78878204897708
 30
0.0
 11
94.65199999999999
 21
0.0
 31
0.0
 12
0.0
 22
44.032
 32
0.0
 13
1.0
 23
1.0
340
0
 70
    15
280
     1
281
    50
282
    50
283
     0
360
0
 71
     2
 91
        5
 14
-0.5
 24
-0.5000000000000001
 14
0.5
 24
-0.5000000000000001
 14
0.5
 24
0.4999999999999999
 14
-0.5
 24
0.4999999999999999
 14
-0.5
 24
-0.5000000000000001
  0
MTEXT
  5
111
102
{ACAD_REACTORS
330
112
102
}
330
1F
100
AcDbEntity
  8
Key_ Sections_Pen_No__1
  6
Continuous
100
AcDbMText
 10
175.5804820563309
 20
66.4453305468009
 30
0.0
 40
5.0
 41
90.652
 71
     4
 72
     1
  1
{Building underlay and flexible \Pflashing tape continous \Pacross sill 100mm min up \Pjambs and 50mm onto \Pface of building underlay}
  7
GENERATED_STYLE_1
 73
     1
 44
0.9516201085173742
  0
LEADER
  5
112
330
1F
100
AcDbEntity
  8
Key_ Sections_Pen_No__1
  6
Continuous
100
AcDbLeader
  3
GENERATED_STYLE__4
 72
     1
 73
     0
 74
     0
 40
38.47051050670112
 41
89.96999999999998
 76
     3
 10
62.66160733354603
 20
226.8047820489771
 30
0.0
 10
100.1193736699545
 20
92.77211512187355
 30
0.0
 10
175.4904820563309
 20
66.4453305468009
 30
0.0
340
111
  0
WIPEOUT
  5
113
330
1F
100
AcDbEntity
  8
Key_ Sections_Pen_No__1
  6
Wipeout_Contour
 48
1007.482297151931
 92
      296
310
28010000060000000C0000000E000000120000000C00000016000000000000C20C00000014000000010000006C000000070000000400000064FB1A4F93B26540F62AE86482FD60400000000000000000E9E66C07B2F36F40F62AE86482FD60400000000000000000E9E66C07B2F36F402DD8B2919DFA5E4000000000000000
310
0064FB1A4F93B265402DD8B2919DFA5E4000000000000000000C0000000E0000000700000084000000060000000500000064FB1A4F93B26540F62AE86482FD60400000000000000000E9E66C07B2F36F40F62AE86482FD60400000000000000000E9E66C07B2F36F402DD8B2919DFA5E40000000000000000064FB1A4F93B2
310
65402DD8B2919DFA5E40000000000000000064FB1A4F93B26540F62AE86482FD60400000000000000000
100
AcDbWipeout
 90
        0
 10
173.5804820563309
 20
123.9158672567871
 30
0.0
 11
82.035
 21
0.0
 31
0.0
 12
0.0
 22
12.0063
 32
0.0
 13
1.0
 23
1.0
340
0
 70
    15
280
     1
281
    50
282
    50
283
     0
360
0
 71
     2
 91
        5
 14
-0.4999999999999998
 24
-0.5000000000000006
 14
0.5000000000000002
 24
-0.5000000000000006
 14
0.5000000000000002
 24
0.4999999999999994
 14
-0.4999999999999998
 24
0.4999999999999994
 14
-0.4999999999999998
 24
-0.5000000000000006
  0
MTEXT
  5
114
102
{ACAD_REACTORS
330
115
102
}
330
1F
100
AcDbEntity
  8
Key_ Sections_Pen_No__1
  6
Continuous
100
AcDbMText
 10
175.5804820563309
 20
129.5987386853585
 30
0.0
 40
5.0
 41
78.035
 71
     4
 72
     1
  1
{H3.1 timber packer to suit}
  7
GENERATED_STYLE_1
 73
     1
 44
1.0
  0
LEADER
  5
115
330
1F
100
AcDbEntity
  8
Key_ Sections_Pen_No__1
  6
Continuous
100
AcDbLeader
  3
GENERATED_STYLE__4
 72
     1
 73
     0
 74
     0
 40
13.43333333333334
 41
65.895
 76
     3
 10
110.3959981326063
 20
189.9190172567871
 30
0.0
 10
125.3759627693468
 20
145.694039502922
 30
0.0
 10
175.4904820563309
 20
129.5987386853585
 30
0.0
340
114
  0
WIPEOUT
  5
116
330
1F
100
AcDbEntity
  8
Key_ Sections_Pen_No__1
  6
Wipeout_Contour
 48
1060.173607732521
 92
      296
310
28010000060000000C0000000E000000120000000C00000016000000000000C20C00000014000000010000006C000000070000000400000064FB1A4F93B26540333CC8BA2D3A664000000000000000004ACC3D2A8DBD6E40333CC8BA2D3A664000000000000000004ACC3D2A8DBD6E40ED85D4BC58B9614000000000000000
310
0064FB1A4F93B26540ED85D4BC58B9614000000000000000000C0000000E0000000700000084000000060000000500000064FB1A4F93B26540333CC8BA2D3A664000000000000000004ACC3D2A8DBD6E40333CC8BA2D3A664000000000000000004ACC3D2A8DBD6E40ED85D4BC58B96140000000000000000064FB1A4F93B2
310
6540ED85D4BC58B96140000000000000000064FB1A4F93B26540333CC8BA2D3A66400000000000000000
100
AcDbWipeout
 90
        0
 10
173.5804820563309
 20
141.792082228741
 30
0.0
 11
72.34300000000002
 21
0.0
 31
0.0
 12
0.0
 22
36.02600000000001
 32
0.0
 13
1.0
 23
1.0
340
0
 70
    15
280
     1
281
    50
282
    50
283
     0
360
0
 71
     2
 91
        5
 14
-0.5
 24
-0.5
 14
0.5
 24
-0.5
 14
0.5
 24
0.5
 14
-0.5
 24
0.5
 14
-0.5
 24
-0.5
  0
MTEXT
  5
117
102
{ACAD_REACTORS
330
118
102
}
330
1F
100
AcDbEntity
  8
Key_ Sections_Pen_No__1
  6
Continuous
100
AcDbMText
 10
175.5804820563309
 20
159.4457793163945
 30
0.0
 40
5.0
 41
68.343
 71
     4
 72
     1
  1
{Application of sealant\Pcement prior to fitting \Psill tray to seal sill tray \Pto face of cladding.}
  7
GENERATED_STYLE_1
 73
     1
 44
0.9501143804975687
  0
LEADER
  5
118
330
1F
100
AcDbEntity
  8
Key_ Sections_Pen_No__1
  6
Continuous
100
AcDbLeader
  3
GENERATED_STYLE__4
 72
     1
 73
     0
 74
     0
 40
30.4643789571238
 41
67.595
 76
     3
 10
120.4473062900902
 20
219.805082228741
 30
0.0
 10
135.3371888481302
 20
172.9908613469913
 30
0.0
 10
175.4904820563309
 20
159.4457793163945
 30
0.0
340
117
  0
WIPEOUT
  5
119
330
1F
100
AcDbEntity
  8
Key_ Sections_Pen_No__1
  6
Wipeout_Contour
 48
1125.872975110978
 92
      296
310
28010000060000000C0000000E000000120000000C00000016000000000000C20C00000014000000010000006C000000070000000400000064FB1A4F93B26540AE31BA5638BC69400000000000000000777EDB1935906C40AE31BA5638BC69400000000000000000777EDB1935906C408C56C0D7CD3B674000000000000000
310
0064FB1A4F93B265408C56C0D7CD3B674000000000000000000C0000000E0000000700000084000000060000000500000064FB1A4F93B26540AE31BA5638BC69400000000000000000777EDB1935906C40AE31BA5638BC69400000000000000000777EDB1935906C408C56C0D7CD3B6740000000000000000064FB1A4F93B2
310
65408C56C0D7CD3B6740000000000000000064FB1A4F93B26540AE31BA5638BC69400000000000000000
100
AcDbWipeout
 90
        0
 10
173.5804820563309
 20
185.8688772923091
 30
0.0
 11
54.92600000000002
 21
0.0
 31
0.0
 12
0.0
 22
20.01299999999998
 32
0.0
 13
1.0
 23
1.0
340
0
 70
    15
280
     1
281
    50
282
    50
283
     0
360
0
 71
     2
 91
        5
 14
-0.5000000000000002
 24
-0.5
 14
0.4999999999999997
 24
-0.5
 14
0.4999999999999997
 24
0.5
 14
-0.5000000000000002
 24
0.5
 14
-0.5000000000000002
 24
-0.5
  0
MTEXT
  5
11A
102
{ACAD_REACTORS
330
11B
102
}
330
1F
100
AcDbEntity
  8
Key_ Sections_Pen_No__1
  6
Continuous
100
AcDbMText
 10
175.5804820563309
 20
196.1964429881936
 30
0.0
 40
5.0
 41
50.926
 71
     4
 72
     1
  1
{5mm min gap \Pmaintained at sill}
  7
GENERATED_STYLE_1
 73
     1
 44
0.4803448928440612
  0
LEADER
  5
11B
330
1F
100
AcDbEntity
  8
Key_ Sections_Pen_No__1
  6
Continuous
100
AcDbLeader
  3
GENERATED_STYLE__4
 72
     1
 73
     0
 74
     0
 40
13.08574821406769
 41
41.70500000000001
 76
     2
 10
143.5804820563309
 20
195.8753772923091
 30
0.0
 10
175.4904820563309
 20
196.1964429881936
 30
0.0
340
11A
  0
WIPEOUT
  5
11C
330
1F
100
AcDbEntity
  8
Key_ Sections_Pen_No__1
  6
Wipeout_Contour
 48
1202.402484574144
 92
      296
310
28010000060000000C0000000E000000120000000C00000016000000000000C20C00000014000000010000006C000000070000000400000064FB1A4F93B2654032180656A8C76C40000000000000000090823128624E6D4032180656A8C76C40000000000000000090823128624E6D40F40D2FB237166A4000000000000000
310
0064FB1A4F93B26540F40D2FB237166A4000000000000000000C0000000E0000000700000084000000060000000500000064FB1A4F93B2654032180656A8C76C40000000000000000090823128624E6D4032180656A8C76C40000000000000000090823128624E6D40F40D2FB237166A40000000000000000064FB1A4F93B2
310
6540F40D2FB237166A40000000000000000064FB1A4F93B2654032180656A8C76C400000000000000000
100
AcDbWipeout
 90
        0
 10
173.5804820563309
 20
208.6942988318475
 30
0.0
 11
60.86900000000003
 21
0.0
 31
0.0
 12
0.0
 22
21.54500000000002
 32
0.0
 13
1.0
 23
1.0
340
0
 70
    15
280
     1
281
    50
282
    50
283
     0
360
0
 71
     2
 91
        5
 14
-0.5
 24
-0.5
 14
0.5
 24
-0.5
 14
0.5
 24
0.5
 14
-0.5
 24
0.5
 14
-0.5
 24
-0.5
  0
MTEXT
  5
11D
102
{ACAD_REACTORS
330
11E
102
}
330
1F
100
AcDbEntity
  8
Key_ Sections_Pen_No__1
  6
Continuous
100
AcDbMText
 10
175.5804820563309
 20
220.1708885125067
 30
0.0
 40
5.0
 41
56.869
 71
     4
 72
     1
  1
{10mm min flange \Pover weatherboard}
  7
GENERATED_STYLE_1
 73
     1
 44
0.52362854108995
  0
LEADER
  5
11E
330
1F
100
AcDbEntity
  8
Key_ Sections_Pen_No__1
  6
Continuous
100
AcDbLeader
  3
GENERATED_STYLE__4
 72
     1
 73
     0
 74
     0
 40
13.85165077749181
 41
52.475
 76
     2
 10
161.3522057210666
 20
219.4667988318475
 30
0.0
 10
175.4904820563309
 20
220.1708885125067
 30
0.0
340
11D
  0
LWPOLYLINE
  5
11F
330
1F
100
AcDbEntity
  8
0_Pen_No__1
  6
Continuous
100
AcDbPolyline
 90
        4
 70
   129
 43
0.0
 10
133.7462783516271
 20
-14.29057656663274
 10
238.5920319989728
 20
-14.29057656663274
 10
238.5920319989728
 20
-35.15866907950659
 10
133.7462783516271
 20
-35.15866907950659
  0
MTEXT
  5
120
330
1F
100
AcDbEntity
  8
0_Pen_No__1
  6
Continuous
100
AcDbMText
 10
135.7462783516271
 20
-24.87044544929496
 30
0.0
 40
5.0
 41
0.0
 71
     4
 72
     1
  1
{When window support is required\P refer to diagram 72a of E2AS1}
  7
GENERATED_STYLE_1
 73
     1
 44
0.998897372239655
  0
ENDSEC
  0
SECTION
  2
OBJECTS
  0
DICTIONARY
  5
C
330
0
100
AcDbDictionary
281
     1
  3
ACAD_GROUP
350
D
  3
ACAD_LAYOUT
350
1A
  3
ACAD_MATERIAL
350
3B
  3
ACAD_MLEADERSTYLE
350
171
  3
ACAD_MLINESTYLE
350
17
  3
ACAD_PLOTSETTINGS
350
19
  3
ACAD_PLOTSTYLENAME
350
E
  3
ACAD_SCALELIST
350
124
  3
ACAD_TABLESTYLE
350
170
  3
ACAD_VISUALSTYLE
350
2A
  3
AcDbVariableDictionary
350
148
  3
WATERMARKS
350
146
  0
DICTIONARY
  5
D
102
{ACAD_REACTORS
330
C
102
}
330
C
100
AcDbDictionary
281
     1
  0
DICTIONARY
  5
1A
102
{ACAD_REACTORS
330
C
102
}
330
C
100
AcDbDictionary
281
     1
  3
Layout1
350
1E
  3
Layout2
350
26
  3
Model
350
22
  0
DICTIONARY
  5
3B
102
{ACAD_REACTORS
330
C
102
}
330
C
100
AcDbDictionary
281
     1
  3
ByBlock
350
3D
  3
ByLayer
350
3C
  3
Global
350
3E
  0
DICTIONARY
  5
171
102
{ACAD_REACTORS
330
C
102
}
330
C
100
AcDbDictionary
281
     1
  0
DICTIONARY
  5
17
102
{ACAD_REACTORS
330
C
102
}
330
C
100
AcDbDictionary
281
     1
  3
Standard
350
18
  0
DICTIONARY
  5
19
102
{ACAD_REACTORS
330
C
102
}
330
C
100
AcDbDictionary
281
     1
  0
ACDBDICTIONARYWDFLT
  5
E
102
{ACAD_REACTORS
330
C
102
}
330
C
100
AcDbDictionary
281
     1
  3
Normal
350
F
100
AcDbDictionaryWithDefault
340
F
  0
DICTIONARY
  5
124
102
{ACAD_REACTORS
330
C
102
}
330
C
100
AcDbDictionary
281
     1
  3
A0
350
125
  3
A1
350
126
  3
A2
350
127
  3
A3
350
128
  3
A4
350
129
  3
A5
350
12A
  3
A6
350
12B
  3
A7
350
12C
  3
A8
350
12D
  3
A9
350
12E
  3
B0
350
12F
  3
B1
350
130
  3
B2
350
131
  3
B3
350
132
  3
B4
350
133
  3
B5
350
134
  3
B6
350
135
  3
B7
350
136
  3
B8
350
137
  3
B9
350
138
  3
C0
350
139
  3
C1
350
13A
  3
C2
350
13B
  3
C3
350
13C
  3
C4
350
13D
  3
C5
350
13E
  3
C6
350
13F
  3
C7
350
140
  3
C8
350
141
  3
C9
350
142
  3
D0
350
143
  3
D1
350
144
  3
D2
350
145
  0
DICTIONARY
  5
170
102
{ACAD_REACTORS
330
C
102
}
330
C
100
AcDbDictionary
281
     1
  0
DICTIONARY
  5
2A
102
{ACAD_REACTORS
330
C
102
}
330
C
100
AcDbDictionary
281
     1
  3
2dWireframe
350
2F
  3
3D Hidden
350
31
  3
3dWireframe
350
30
  3
Basic
350
32
  3
Brighten
350
36
  3
ColorChange
350
3A
  3
Conceptual
350
34
  3
Dim
350
35
  3
Facepattern
350
39
  3
Flat
350
2B
  3
FlatWithEdges
350
2C
  3
Gouraud
350
2D
  3
GouraudWithEdges
350
2E
  3
Linepattern
350
38
  3
Realistic
350
33
  3
Thicken
350
37
  0
DICTIONARY
  5
148
102
{ACAD_REACTORS
330
C
102
}
330
C
100
AcDbDictionary
281
     1
  3
CANNOSCALE
350
149
  3
XCLIPFRAME
350
172
  0
DICTIONARY
  5
146
102
{ACAD_REACTORS
330
C
102
}
330
C
100
AcDbDictionary
281
     1
  3
AC_WATERMARK
350
147
  0
LAYOUT
  5
1E
102
{ACAD_REACTORS
330
1A
102
}
330
1A
100
AcDbPlotSettings
  1

  2
none_device
  4

  6

 40
0.0
 41
0.0
 42
0.0
 43
0.0
 44
0.0
 45
0.0
 46
0.0
 47
0.0
 48
0.0
 49
0.0
140
0.0
141
0.0
142
1.0
143
1.0
 70
   688
 72
     0
 73
     0
 74
     5
  7

 75
    16
 76
     0
 77
     2
 78
   300
147
1.0
148
0.0
149
0.0
100
AcDbLayout
  1
Layout1
 70
     1
 71
     1
 10
0.0
 20
0.0
 11
12.0
 21
9.0
 12
0.0
 22
0.0
 32
0.0
 14
1.000000000000000E+20
 24
1.000000000000000E+20
 34
1.000000000000000E+20
 15
-1.000000000000000E+20
 25
-1.000000000000000E+20
 35
-1.000000000000000E+20
146
0.0
 13
0.0
 23
0.0
 33
0.0
 16
1.0
 26
0.0
 36
0.0
 17
0.0
 27
1.0
 37
0.0
 76
     0
330
1B
  0
LAYOUT
  5
26
102
{ACAD_REACTORS
330
1A
102
}
330
1A
100
AcDbPlotSettings
  1

  2
none_device
  4

  6

 40
0.0
 41
0.0
 42
0.0
 43
0.0
 44
0.0
 45
0.0
 46
0.0
 47
0.0
 48
0.0
 49
0.0
140
0.0
141
0.0
142
1.0
143
1.0
 70
   688
 72
     0
 73
     0
 74
     5
  7

 75
    16
 76
     0
 77
     2
 78
   300
147
1.0
148
0.0
149
0.0
100
AcDbLayout
  1
Layout2
 70
     1
 71
     2
 10
0.0
 20
0.0
 11
0.0
 21
0.0
 12
0.0
 22
0.0
 32
0.0
 14
0.0
 24
0.0
 34
0.0
 15
0.0
 25
0.0
 35
0.0
146
0.0
 13
0.0
 23
0.0
 33
0.0
 16
1.0
 26
0.0
 36
0.0
 17
0.0
 27
1.0
 37
0.0
 76
     0
330
23
  0
LAYOUT
  5
22
102
{ACAD_REACTORS
330
1A
102
}
330
1A
100
AcDbPlotSettings
  1

  2
none_device
  4

  6

 40
0.0
 41
0.0
 42
0.0
 43
0.0
 44
0.0
 45
0.0
 46
0.0
 47
0.0
 48
0.0
 49
0.0
140
0.0
141
0.0
142
1.0
143
1.0
 70
  1712
 72
     0
 73
     0
 74
     0
  7

 75
     0
 76
     0
 77
     2
 78
   300
147
1.0
148
0.0
149
0.0
100
AcDbLayout
  1
Model
 70
     1
 71
     0
 10
0.0
 20
0.0
 11
12.0
 21
9.0
 12
0.0
 22
0.0
 32
0.0
 14
1.000000000000000E+20
 24
1.000000000000000E+20
 34
1.000000000000000E+20
 15
-1.000000000000000E+20
 25
-1.000000000000000E+20
 35
-1.000000000000000E+20
146
0.0
 13
0.0
 23
0.0
 33
0.0
 16
1.0
 26
0.0
 36
0.0
 17
0.0
 27
1.0
 37
0.0
 76
     0
330
1F
331
29
  0
MATERIAL
  5
3D
102
{ACAD_REACTORS
330
3B
102
}
102
{ACAD_XDICTIONARY
360
16C
102
}
330
3B
100
AcDbMaterial
  1
ByBlock
  0
MATERIAL
  5
3C
102
{ACAD_REACTORS
330
3B
102
}
102
{ACAD_XDICTIONARY
360
16A
102
}
330
3B
100
AcDbMaterial
  1
ByLayer
  0
MATERIAL
  5
3E
102
{ACAD_REACTORS
330
3B
102
}
102
{ACAD_XDICTIONARY
360
16E
102
}
330
3B
100
AcDbMaterial
  1
Global
  0
MLINESTYLE
  5
18
102
{ACAD_REACTORS
330
17
102
}
330
17
100
AcDbMlineStyle
  2
Standard
 70
     0
  3

 62
   256
 51
90.0
 52
90.0
 71
     2
 49
0.5
 62
   256
  6
BYLAYER
 49
-0.5
 62
   256
  6
BYLAYER
  0
ACDBPLACEHOLDER
  5
F
102
{ACAD_REACTORS
330
E
102
}
330
E
  0
SCALE
  5
125
102
{ACAD_REACTORS
330
124
102
}
330
124
100
AcDbScale
 70
     0
300
1:1
140
1.0
141
1.0
290
     1
  0
SCALE
  5
126
102
{ACAD_REACTORS
330
124
102
}
330
124
100
AcDbScale
 70
     0
300
1:2
140
1.0
141
2.0
290
     0
  0
SCALE
  5
127
102
{ACAD_REACTORS
330
124
102
}
330
124
100
AcDbScale
 70
     0
300
1:4
140
1.0
141
4.0
290
     0
  0
SCALE
  5
128
102
{ACAD_REACTORS
330
124
102
}
330
124
100
AcDbScale
 70
     0
300
1:5
140
1.0
141
5.0
290
     0
  0
SCALE
  5
129
102
{ACAD_REACTORS
330
124
102
}
330
124
100
AcDbScale
 70
     0
300
1:8
140
1.0
141
8.0
290
     0
  0
SCALE
  5
12A
102
{ACAD_REACTORS
330
124
102
}
330
124
100
AcDbScale
 70
     0
300
1:10
140
1.0
141
10.0
290
     0
  0
SCALE
  5
12B
102
{ACAD_REACTORS
330
124
102
}
330
124
100
AcDbScale
 70
     0
300
1:16
140
1.0
141
16.0
290
     0
  0
SCALE
  5
12C
102
{ACAD_REACTORS
330
124
102
}
330
124
100
AcDbScale
 70
     0
300
1:20
140
1.0
141
20.0
290
     0
  0
SCALE
  5
12D
102
{ACAD_REACTORS
330
124
102
}
330
124
100
AcDbScale
 70
     0
300
1:30
140
1.0
141
30.0
290
     0
  0
SCALE
  5
12E
102
{ACAD_REACTORS
330
124
102
}
330
124
100
AcDbScale
 70
     0
300
1:40
140
1.0
141
40.0
290
     0
  0
SCALE
  5
12F
102
{ACAD_REACTORS
330
124
102
}
330
124
100
AcDbScale
 70
     0
300
1:50
140
1.0
141
50.0
290
     0
  0
SCALE
  5
130
102
{ACAD_REACTORS
330
124
102
}
330
124
100
AcDbScale
 70
     0
300
1:100
140
1.0
141
100.0
290
     0
  0
SCALE
  5
131
102
{ACAD_REACTORS
330
124
102
}
330
124
100
AcDbScale
 70
     0
300
2:1
140
2.0
141
1.0
290
     0
  0
SCALE
  5
132
102
{ACAD_REACTORS
330
124
102
}
330
124
100
AcDbScale
 70
     0
300
4:1
140
4.0
141
1.0
290
     0
  0
SCALE
  5
133
102
{ACAD_REACTORS
330
124
102
}
330
124
100
AcDbScale
 70
     0
300
8:1
140
8.0
141
1.0
290
     0
  0
SCALE
  5
134
102
{ACAD_REACTORS
330
124
102
}
330
124
100
AcDbScale
 70
     0
300
10:1
140
10.0
141
1.0
290
     0
  0
SCALE
  5
135
102
{ACAD_REACTORS
330
124
102
}
330
124
100
AcDbScale
 70
     0
300
100:1
140
100.0
141
1.0
290
     0
  0
SCALE
  5
136
102
{ACAD_REACTORS
330
124
102
}
330
124
100
AcDbScale
 70
     0
300
1/128" = 1'-0"
140
0.0078125
141
12.0
290
     0
  0
SCALE
  5
137
102
{ACAD_REACTORS
330
124
102
}
330
124
100
AcDbScale
 70
     0
300
1/64" = 1'-0"
140
0.015625
141
12.0
290
     0
  0
SCALE
  5
138
102
{ACAD_REACTORS
330
124
102
}
330
124
100
AcDbScale
 70
     0
300
1/32" = 1'-0"
140
0.03125
141
12.0
290
     0
  0
SCALE
  5
139
102
{ACAD_REACTORS
330
124
102
}
330
124
100
AcDbScale
 70
     0
300
1/16" = 1'-0"
140
0.0625
141
12.0
290
     0
  0
SCALE
  5
13A
102
{ACAD_REACTORS
330
124
102
}
330
124
100
AcDbScale
 70
     0
300
3/32" = 1'-0"
140
0.09375
141
12.0
290
     0
  0
SCALE
  5
13B
102
{ACAD_REACTORS
330
124
102
}
330
124
100
AcDbScale
 70
     0
300
1/8" = 1'-0"
140
0.125
141
12.0
290
     0
  0
SCALE
  5
13C
102
{ACAD_REACTORS
330
124
102
}
330
124
100
AcDbScale
 70
     0
300
3/16" = 1'-0"
140
0.1875
141
12.0
290
     0
  0
SCALE
  5
13D
102
{ACAD_REACTORS
330
124
102
}
330
124
100
AcDbScale
 70
     0
300
1/4" = 1'-0"
140
0.25
141
12.0
290
     0
  0
SCALE
  5
13E
102
{ACAD_REACTORS
330
124
102
}
330
124
100
AcDbScale
 70
     0
300
3/8" = 1'-0"
140
0.375
141
12.0
290
     0
  0
SCALE
  5
13F
102
{ACAD_REACTORS
330
124
102
}
330
124
100
AcDbScale
 70
     0
300
1/2" = 1'-0"
140
0.5
141
12.0
290
     0
  0
SCALE
  5
140
102
{ACAD_REACTORS
330
124
102
}
330
124
100
AcDbScale
 70
     0
300
3/4" = 1'-0"
140
0.75
141
12.0
290
     0
  0
SCALE
  5
141
102
{ACAD_REACTORS
330
124
102
}
330
124
100
AcDbScale
 70
     0
300
1" = 1'-0"
140
1.0
141
12.0
290
     0
  0
SCALE
  5
142
102
{ACAD_REACTORS
330
124
102
}
330
124
100
AcDbScale
 70
     0
300
1-1/2" = 1'-0"
140
1.5
141
12.0
290
     0
  0
SCALE
  5
143
102
{ACAD_REACTORS
330
124
102
}
330
124
100
AcDbScale
 70
     0
300
3" = 1'-0"
140
3.0
141
12.0
290
     0
  0
SCALE
  5
144
102
{ACAD_REACTORS
330
124
102
}
330
124
100
AcDbScale
 70
     0
300
6" = 1'-0"
140
6.0
141
12.0
290
     0
  0
SCALE
  5
145
102
{ACAD_REACTORS
330
124
102
}
330
124
100
AcDbScale
 70
     0
300
1'-0" = 1'-0"
140
12.0
141
12.0
290
     0
  0
VISUALSTYLE
  5
2F
102
{ACAD_REACTORS
330
2A
102
}
102
{ACAD_XDICTIONARY
360
152
102
}
330
2A
100
AcDbVisualStyle
  2
2dWireframe
 70
     4
 71
     0
 72
     2
 73
     0
 90
        0
 40
-0.6
 41
-30.0
 62
     5
 63
     7
421
 16777215
 74
     1
 91
        4
 64
     7
 65
   257
 75
     1
175
     1
 42
1.0
 92
        0
 66
   257
 43
1.0
 76
     1
 77
     6
 78
     2
 67
     7
 79
     5
170
     0
171
     0
290
     0
174
     0
 93
        1
 44
0.0
173
     0
291
     0
 45
0.0
1001
ACAD
1000
AcDbSavedByObjectVersion
1070
     0
  0
VISUALSTYLE
  5
31
102
{ACAD_REACTORS
330
2A
102
}
102
{ACAD_XDICTIONARY
360
156
102
}
330
2A
100
AcDbVisualStyle
  2
3D Hidden
 70
     6
 71
     1
 72
     2
 73
     2
 90
        0
 40
-0.6
 41
-30.0
 62
     5
 63
     7
421
 16777215
 74
     2
 91
        2
 64
     7
 65
   257
 75
     2
175
     1
 42
40.0
 92
        0
 66
   257
 43
1.0
 76
     1
 77
     6
 78
     2
 67
     7
 79
     3
170
     0
171
     0
290
     0
174
     0
 93
        1
 44
0.0
173
     0
291
     0
 45
0.0
1001
ACAD
1000
AcDbSavedByObjectVersion
1070
     0
  0
VISUALSTYLE
  5
30
102
{ACAD_REACTORS
330
2A
102
}
102
{ACAD_XDICTIONARY
360
154
102
}
330
2A
100
AcDbVisualStyle
  2
3dWireframe
 70
     5
 71
     0
 72
     2
 73
     0
 90
        0
 40
-0.6
 41
-30.0
 62
     5
 63
     7
421
 16777215
 74
     1
 91
        4
 64
     7
 65
   257
 75
     1
175
     1
 42
1.0
 92
        0
 66
   257
 43
1.0
 76
     1
 77
     6
 78
     2
 67
     7
 79
     5
170
     0
171
     0
290
     0
174
     0
 93
        1
 44
0.0
173
     0
291
     0
 45
0.0
1001
ACAD
1000
AcDbSavedByObjectVersion
1070
     0
  0
VISUALSTYLE
  5
32
102
{ACAD_REACTORS
330
2A
102
}
102
{ACAD_XDICTIONARY
360
158
102
}
330
2A
100
AcDbVisualStyle
  2
Basic
 70
     7
 71
     1
 72
     0
 73
     1
 90
        0
 40
-0.6
 41
-30.0
 62
     5
 63
     7
421
 16777215
 74
     0
 91
        4
 64
     7
 65
   257
 75
     1
175
     1
 42
1.0
 92
        8
 66
     7
 43
1.0
 76
     1
 77
     6
 78
     2
 67
     7
 79
     5
170
     0
171
     0
290
     0
174
     0
 93
        1
 44
0.0
173
     0
291
     1
 45
0.0
1001
ACAD
1000
AcDbSavedByObjectVersion
1070
     0
  0
VISUALSTYLE
  5
36
102
{ACAD_REACTORS
330
2A
102
}
102
{ACAD_XDICTIONARY
360
160
102
}
330
2A
100
AcDbVisualStyle
  2
Brighten
 70
    12
 71
     2
 72
     2
 73
     0
 90
        0
 40
-0.6
 41
-30.0
 62
     5
 63
     7
421
 16777215
 74
     1
 91
        4
 64
     7
 65
   257
 75
     1
175
     1
 42
1.0
 92
        8
 66
     7
 43
1.0
 76
     1
 77
     6
 78
     2
 67
     7
 79
     5
170
     0
171
     0
290
     0
174
     0
 93
        1
 44
50.0
173
     0
291
     1
 45
0.0
1001
ACAD
1000
AcDbSavedByObjectVersion
1070
     0
  0
VISUALSTYLE
  5
3A
102
{ACAD_REACTORS
330
2A
102
}
102
{ACAD_XDICTIONARY
360
168
102
}
330
2A
100
AcDbVisualStyle
  2
ColorChange
 70
    16
 71
     2
 72
     2
 73
     3
 90
        0
 40
-0.6
 41
-30.0
 62
     5
 63
     8
421
  8421504
 74
     1
 91
        4
 64
     7
 65
   257
 75
     1
175
     1
 42
1.0
 92
        8
 66
     8
424
  8421504
 43
1.0
 76
     1
 77
     6
 78
     2
 67
     7
 79
     5
170
     0
171
     0
290
     0
174
     0
 93
        1
 44
0.0
173
     0
291
     1
 45
0.0
1001
ACAD
1000
AcDbSavedByObjectVersion
1070
     0
  0
VISUALSTYLE
  5
34
102
{ACAD_REACTORS
330
2A
102
}
102
{ACAD_XDICTIONARY
360
15C
102
}
330
2A
100
AcDbVisualStyle
  2
Conceptual
 70
     9
 71
     3
 72
     2
 73
     0
 90
        0
 40
-0.6
 41
-30.0
 62
     5
 63
     7
421
 16777215
 74
     2
 91
        2
 64
     7
 65
   257
 75
     1
175
     1
 42
40.0
 92
        8
 66
     7
 43
1.0
 76
     1
 77
     6
 78
     2
 67
     7
 79
     3
170
     0
171
     0
290
     0
174
     0
 93
        1
 44
0.0
173
     0
291
     0
 45
0.0
1001
ACAD
1000
AcDbSavedByObjectVersion
1070
     0
  0
VISUALSTYLE
  5
35
102
{ACAD_REACTORS
330
2A
102
}
102
{ACAD_XDICTIONARY
360
15E
102
}
330
2A
100
AcDbVisualStyle
  2
Dim
 70
    11
 71
     2
 72
     2
 73
     0
 90
        0
 40
-0.6
 41
-30.0
 62
     5
 63
     7
421
 16777215
 74
     1
 91
        4
 64
     7
 65
   257
 75
     1
175
     1
 42
1.0
 92
        8
 66
     7
 43
1.0
 76
     1
 77
     6
 78
     2
 67
     7
 79
     5
170
     0
171
     0
290
     0
174
     0
 93
        1
 44
-50.0
173
     0
291
     1
 45
0.0
1001
ACAD
1000
AcDbSavedByObjectVersion
1070
     0
  0
VISUALSTYLE
  5
39
102
{ACAD_REACTORS
330
2A
102
}
102
{ACAD_XDICTIONARY
360
166
102
}
330
2A
100
AcDbVisualStyle
  2
Facepattern
 70
    15
 71
     2
 72
     2
 73
     0
 90
        0
 40
-0.6
 41
-30.0
 62
     5
 63
     7
421
 16777215
 74
     1
 91
        4
 64
     7
 65
   257
 75
     1
175
     1
 42
1.0
 92
        8
 66
     7
 43
1.0
 76
     1
 77
     6
 78
     2
 67
     7
 79
     5
170
     0
171
     0
290
     0
174
     0
 93
        1
 44
0.0
173
     0
291
     1
 45
0.0
1001
ACAD
1000
AcDbSavedByObjectVersion
1070
     0
  0
VISUALSTYLE
  5
2B
102
{ACAD_REACTORS
330
2A
102
}
102
{ACAD_XDICTIONARY
360
14A
102
}
330
2A
100
AcDbVisualStyle
  2
Flat
 70
     0
 71
     2
 72
     1
 73
     1
 90
        2
 40
-0.6
 41
30.0
 62
     5
 63
     7
421
 16777215
 74
     0
 91
        4
 64
     7
 65
   257
 75
     1
175
     1
 42
1.0
 92
        8
 66
     7
 43
1.0
 76
     1
 77
     6
 78
     2
 67
     7
 79
     5
170
     0
171
     0
290
     0
174
     0
 93
       13
 44
0.0
173
     0
291
     1
 45
0.0
1001
ACAD
1000
AcDbSavedByObjectVersion
1070
     0
  0
VISUALSTYLE
  5
2C
102
{ACAD_REACTORS
330
2A
102
}
102
{ACAD_XDICTIONARY
360
14C
102
}
330
2A
100
AcDbVisualStyle
  2
FlatWithEdges
 70
     1
 71
     2
 72
     1
 73
     1
 90
        2
 40
-0.6
 41
30.0
 62
     5
 63
     7
421
 16777215
 74
     1
 91
        4
 64
     7
 65
   257
 75
     1
175
     1
 42
1.0
 92
        0
 66
   257
 43
1.0
 76
     1
 77
     6
 78
     2
 67
     7
 79
     5
170
     0
171
     0
290
     0
174
     0
 93
       13
 44
0.0
173
     0
291
     1
 45
0.0
1001
ACAD
1000
AcDbSavedByObjectVersion
1070
     0
  0
VISUALSTYLE
  5
2D
102
{ACAD_REACTORS
330
2A
102
}
102
{ACAD_XDICTIONARY
360
14E
102
}
330
2A
100
AcDbVisualStyle
  2
Gouraud
 70
     2
 71
     2
 72
     2
 73
     1
 90
        2
 40
-0.6
 41
30.0
 62
     5
 63
     7
421
 16777215
 74
     0
 91
        4
 64
     7
 65
   257
 75
     1
175
     1
 42
1.0
 92
        0
 66
     7
 43
1.0
 76
     1
 77
     6
 78
     2
 67
     7
 79
     5
170
     0
171
     0
290
     0
174
     0
 93
       13
 44
0.0
173
     0
291
     1
 45
0.0
1001
ACAD
1000
AcDbSavedByObjectVersion
1070
     0
  0
VISUALSTYLE
  5
2E
102
{ACAD_REACTORS
330
2A
102
}
102
{ACAD_XDICTIONARY
360
150
102
}
330
2A
100
AcDbVisualStyle
  2
GouraudWithEdges
 70
     3
 71
     2
 72
     2
 73
     1
 90
        2
 40
-0.6
 41
30.0
 62
     5
 63
     7
421
 16777215
 74
     1
 91
        4
 64
     7
 65
   257
 75
     1
175
     1
 42
1.0
 92
        0
 66
   257
 43
1.0
 76
     1
 77
     6
 78
     2
 67
     7
 79
     5
170
     0
171
     0
290
     0
174
     0
 93
       13
 44
0.0
173
     0
291
     1
 45
0.0
1001
ACAD
1000
AcDbSavedByObjectVersion
1070
     0
  0
VISUALSTYLE
  5
38
102
{ACAD_REACTORS
330
2A
102
}
102
{ACAD_XDICTIONARY
360
164
102
}
330
2A
100
AcDbVisualStyle
  2
Linepattern
 70
    14
 71
     2
 72
     2
 73
     0
 90
        0
 40
-0.6
 41
-30.0
 62
     5
 63
     7
421
 16777215
 74
     1
 91
        4
 64
     7
 65
   257
 75
     7
175
     7
 42
1.0
 92
        8
 66
     7
 43
1.0
 76
     1
 77
     6
 78
     2
 67
     7
 79
     5
170
     0
171
     0
290
     0
174
     0
 93
        1
 44
0.0
173
     0
291
     1
 45
0.0
1001
ACAD
1000
AcDbSavedByObjectVersion
1070
     0
  0
VISUALSTYLE
  5
33
102
{ACAD_REACTORS
330
2A
102
}
102
{ACAD_XDICTIONARY
360
15A
102
}
330
2A
100
AcDbVisualStyle
  2
Realistic
 70
     8
 71
     2
 72
     2
 73
     0
 90
        0
 40
-0.6
 41
-30.0
 62
     5
 63
     7
421
 16777215
 74
     1
 91
        0
 64
     7
 65
   257
 75
     1
175
     1
 42
1.0
 92
        8
 66
     8
424
  7895160
 43
1.0
 76
     1
 77
     6
 78
     2
 67
     7
 79
     5
170
     0
171
     0
290
     0
174
     0
 93
       13
 44
0.0
173
     0
291
     0
 45
0.0
1001
ACAD
1000
AcDbSavedByObjectVersion
1070
     0
  0
VISUALSTYLE
  5
37
102
{ACAD_REACTORS
330
2A
102
}
102
{ACAD_XDICTIONARY
360
162
102
}
330
2A
100
AcDbVisualStyle
  2
Thicken
 70
    13
 71
     2
 72
     2
 73
     0
 90
        0
 40
-0.6
 41
-30.0
 62
     5
 63
     7
421
 16777215
 74
     1
 91
        4
 64
     7
 65
   257
 75
     1
175
     1
 42
1.0
 92
       12
 66
     7
 43
1.0
 76
     1
 77
     6
 78
     2
 67
     7
 79
     5
170
     0
171
     0
290
     0
174
     0
 93
        1
 44
0.0
173
     0
291
     1
 45
0.0
1001
ACAD
1000
AcDbSavedByObjectVersion
1070
     0
  0
DICTIONARYVAR
  5
149
102
{ACAD_REACTORS
330
148
102
}
330
148
100
DictionaryVariables
280
     0
  1
1:1
  0
DICTIONARYVAR
  5
172
102
{ACAD_REACTORS
330
148
102
}
330
148
100
DictionaryVariables
280
     0
  1
0
  0
XRECORD
  5
147
102
{ACAD_REACTORS
330
146
102
}
330
146
100
AcDbXrecord
280
     1
1000
This DWG file was created in ArchiCAD(TM)®
  0
DICTIONARY
  5
16C
330
3D
100
AcDbDictionary
280
     1
281
     1
  3
ACAD_XREC_ROUNDTRIP
360
16D
  0
DICTIONARY
  5
16A
330
3C
100
AcDbDictionary
280
     1
281
     1
  3
ACAD_XREC_ROUNDTRIP
360
16B
  0
DICTIONARY
  5
16E
330
3E
100
AcDbDictionary
280
     1
281
     1
  3
ACAD_XREC_ROUNDTRIP
360
16F
  0
DICTIONARY
  5
152
330
2F
100
AcDbDictionary
280
     1
281
     1
  3
ACAD_XREC_ROUNDTRIP
360
153
  0
DICTIONARY
  5
156
330
31
100
AcDbDictionary
280
     1
281
     1
  3
ACAD_XREC_ROUNDTRIP
360
157
  0
DICTIONARY
  5
154
330
30
100
AcDbDictionary
280
     1
281
     1
  3
ACAD_XREC_ROUNDTRIP
360
155
  0
DICTIONARY
  5
158
330
32
100
AcDbDictionary
280
     1
281
     1
  3
ACAD_XREC_ROUNDTRIP
360
159
  0
DICTIONARY
  5
160
330
36
100
AcDbDictionary
280
     1
281
     1
  3
ACAD_XREC_ROUNDTRIP
360
161
  0
DICTIONARY
  5
168
330
3A
100
AcDbDictionary
280
     1
281
     1
  3
ACAD_XREC_ROUNDTRIP
360
169
  0
DICTIONARY
  5
15C
330
34
100
AcDbDictionary
280
     1
281
     1
  3
ACAD_XREC_ROUNDTRIP
360
15D
  0
DICTIONARY
  5
15E
330
35
100
AcDbDictionary
280
     1
281
     1
  3
ACAD_XREC_ROUNDTRIP
360
15F
  0
DICTIONARY
  5
166
330
39
100
AcDbDictionary
280
     1
281
     1
  3
ACAD_XREC_ROUNDTRIP
360
167
  0
DICTIONARY
  5
14A
330
2B
100
AcDbDictionary
280
     1
281
     1
  3
ACAD_XREC_ROUNDTRIP
360
14B
  0
DICTIONARY
  5
14C
330
2C
100
AcDbDictionary
280
     1
281
     1
  3
ACAD_XREC_ROUNDTRIP
360
14D
  0
DICTIONARY
  5
14E
330
2D
100
AcDbDictionary
280
     1
281
     1
  3
ACAD_XREC_ROUNDTRIP
360
14F
  0
DICTIONARY
  5
150
330
2E
100
AcDbDictionary
280
     1
281
     1
  3
ACAD_XREC_ROUNDTRIP
360
151
  0
DICTIONARY
  5
164
330
38
100
AcDbDictionary
280
     1
281
     1
  3
ACAD_XREC_ROUNDTRIP
360
165
  0
DICTIONARY
  5
15A
330
33
100
AcDbDictionary
280
     1
281
     1
  3
ACAD_XREC_ROUNDTRIP
360
15B
  0
DICTIONARY
  5
162
330
37
100
AcDbDictionary
280
     1
281
     1
  3
ACAD_XREC_ROUNDTRIP
360
163
  0
XRECORD
  5
16D
102
{ACAD_REACTORS
330
16C
102
}
330
16C
100
AcDbXrecord
280
     1
102
MATERIAL
148
0.0
149
0.0
149
0.0
 93
        0
 94
      127
282
     0
 72
     1
 77
     1
171
     1
175
     1
179
     1
273
     0
  0
XRECORD
  5
16B
102
{ACAD_REACTORS
330
16A
102
}
330
16A
100
AcDbXrecord
280
     1
102
MATERIAL
148
0.0
149
0.0
149
0.0
 93
        0
 94
      127
282
     0
 72
     1
 77
     1
171
     1
175
     1
179
     1
273
     0
  0
XRECORD
  5
16F
102
{ACAD_REACTORS
330
16E
102
}
330
16E
100
AcDbXrecord
280
     1
102
MATERIAL
148
0.0
149
0.0
149
0.0
 93
        0
 94
      127
282
     0
 72
     1
 77
     1
171
     1
175
     1
179
     1
273
     0
  0
XRECORD
  5
153
102
{ACAD_REACTORS
330
152
102
}
330
152
100
AcDbXrecord
280
     1
102
RTVSPropertyOp0
 70
     1
102
RTVSPropertyOp1
 70
     1
102
RTVSPropertyOp2
 70
     1
102
RTVSPropertyOp3
 70
     1
102
RTVSPropertyOp4
 70
     1
102
RTVSPropertyOp5
 70
     1
102
RTVSPropertyOp6
 70
     1
102
RTVSPropertyOp7
 70
     1
102
RTVSPropertyOp8
 70
     1
102
RTVSPropertyOp9
 70
     1
102
RTVSPropertyOp10
 70
     1
102
RTVSPropertyOp11
 70
     1
102
RTVSPropertyOp12
 70
     1
102
RTVSPropertyOp13
 70
     1
102
RTVSPropertyOp14
 70
     1
102
RTVSPropertyOp15
 70
     1
102
RTVSPropertyOp16
 70
     1
102
RTVSPropertyOp17
 70
     1
102
RTVSPropertyOp18
 70
     1
102
RTVSPropertyOp19
 70
     1
102
RTVSPropertyOp20
 70
     1
102
RTVSPropertyOp21
 70
     1
102
RTVSPropertyOp22
 70
     1
102
RTVSPropertyOp23
 70
     1
102
RTVSPropertyOp24
 70
     1
102
RTVSPropertyOp25
 70
     1
102
RTVSPropertyOp26
 70
     1
102
RTVSPropertyOp27
 70
     1
102
RTVSPropertyOp28
 70
     1
102
RTVSPropertyOp29
 70
     1
102
RTVSPropertyOp30
 70
     1
102
RTVSPropertyOp31
 70
     1
102
RTVSPropertyOp32
 70
     1
  0
XRECORD
  5
157
102
{ACAD_REACTORS
330
156
102
}
330
156
100
AcDbXrecord
280
     1
102
RTVSPropertyOp0
 70
     1
102
RTVSPropertyOp1
 70
     1
102
RTVSPropertyOp2
 70
     1
102
RTVSPropertyOp3
 70
     1
102
RTVSPropertyOp4
 70
     1
102
RTVSPropertyOp5
 70
     1
102
RTVSPropertyOp6
 70
     1
102
RTVSPropertyOp7
 70
     1
102
RTVSPropertyOp8
 70
     1
102
RTVSPropertyOp9
 70
     1
102
RTVSPropertyOp10
 70
     1
102
RTVSPropertyOp11
 70
     1
102
RTVSPropertyOp12
 70
     1
102
RTVSPropertyOp13
 70
     1
102
RTVSPropertyOp14
 70
     1
102
RTVSPropertyOp15
 70
     1
102
RTVSPropertyOp16
 70
     1
102
RTVSPropertyOp17
 70
     1
102
RTVSPropertyOp18
 70
     1
102
RTVSPropertyOp19
 70
     1
102
RTVSPropertyOp20
 70
     1
102
RTVSPropertyOp21
 70
     1
102
RTVSPropertyOp22
 70
     1
102
RTVSPropertyOp23
 70
     1
102
RTVSPropertyOp24
 70
     1
102
RTVSPropertyOp25
 70
     1
102
RTVSPropertyOp26
 70
     1
102
RTVSPropertyOp27
 70
     1
102
RTVSPropertyOp28
 70
     1
102
RTVSPropertyOp29
 70
     1
102
RTVSPropertyOp30
 70
     1
102
RTVSPropertyOp31
 70
     1
102
RTVSPropertyOp32
 70
     1
  0
XRECORD
  5
155
102
{ACAD_REACTORS
330
154
102
}
330
154
100
AcDbXrecord
280
     1
102
RTVSPropertyOp0
 70
     1
102
RTVSPropertyOp1
 70
     1
102
RTVSPropertyOp2
 70
     1
102
RTVSPropertyOp3
 70
     1
102
RTVSPropertyOp4
 70
     1
102
RTVSPropertyOp5
 70
     1
102
RTVSPropertyOp6
 70
     1
102
RTVSPropertyOp7
 70
     1
102
RTVSPropertyOp8
 70
     1
102
RTVSPropertyOp9
 70
     1
102
RTVSPropertyOp10
 70
     1
102
RTVSPropertyOp11
 70
     1
102
RTVSPropertyOp12
 70
     1
102
RTVSPropertyOp13
 70
     1
102
RTVSPropertyOp14
 70
     1
102
RTVSPropertyOp15
 70
     1
102
RTVSPropertyOp16
 70
     1
102
RTVSPropertyOp17
 70
     1
102
RTVSPropertyOp18
 70
     1
102
RTVSPropertyOp19
 70
     1
102
RTVSPropertyOp20
 70
     1
102
RTVSPropertyOp21
 70
     1
102
RTVSPropertyOp22
 70
     1
102
RTVSPropertyOp23
 70
     1
102
RTVSPropertyOp24
 70
     1
102
RTVSPropertyOp25
 70
     1
102
RTVSPropertyOp26
 70
     1
102
RTVSPropertyOp27
 70
     1
102
RTVSPropertyOp28
 70
     1
102
RTVSPropertyOp29
 70
     1
102
RTVSPropertyOp30
 70
     1
102
RTVSPropertyOp31
 70
     1
102
RTVSPropertyOp32
 70
     1
  0
XRECORD
  5
159
102
{ACAD_REACTORS
330
158
102
}
330
158
100
AcDbXrecord
280
     1
102
RTVSPropertyOp0
 70
     1
102
RTVSPropertyOp1
 70
     1
102
RTVSPropertyOp2
 70
     1
102
RTVSPropertyOp3
 70
     1
102
RTVSPropertyOp4
 70
     1
102
RTVSPropertyOp5
 70
     1
102
RTVSPropertyOp6
 70
     1
102
RTVSPropertyOp7
 70
     1
102
RTVSPropertyOp8
 70
     1
102
RTVSPropertyOp9
 70
     1
102
RTVSPropertyOp10
 70
     1
102
RTVSPropertyOp11
 70
     1
102
RTVSPropertyOp12
 70
     1
102
RTVSPropertyOp13
 70
     1
102
RTVSPropertyOp14
 70
     1
102
RTVSPropertyOp15
 70
     1
102
RTVSPropertyOp16
 70
     1
102
RTVSPropertyOp17
 70
     1
102
RTVSPropertyOp18
 70
     1
102
RTVSPropertyOp19
 70
     1
102
RTVSPropertyOp20
 70
     1
102
RTVSPropertyOp21
 70
     1
102
RTVSPropertyOp22
 70
     1
102
RTVSPropertyOp23
 70
     1
102
RTVSPropertyOp24
 70
     1
102
RTVSPropertyOp25
 70
     1
102
RTVSPropertyOp26
 70
     1
102
RTVSPropertyOp27
 70
     1
102
RTVSPropertyOp28
 70
     1
102
RTVSPropertyOp29
 70
     1
102
RTVSPropertyOp30
 70
     1
102
RTVSPropertyOp31
 70
     1
102
RTVSPropertyOp32
 70
     1
  0
XRECORD
  5
161
102
{ACAD_REACTORS
330
160
102
}
330
160
100
AcDbXrecord
280
     1
102
RTVSPropertyOp0
 70
     1
102
RTVSPropertyOp1
 70
     1
102
RTVSPropertyOp2
 70
     1
102
RTVSPropertyOp3
 70
     1
102
RTVSPropertyOp4
 70
     1
102
RTVSPropertyOp5
 70
     1
102
RTVSPropertyOp6
 70
     1
102
RTVSPropertyOp7
 70
     1
102
RTVSPropertyOp8
 70
     1
102
RTVSPropertyOp9
 70
     1
102
RTVSPropertyOp10
 70
     1
102
RTVSPropertyOp11
 70
     1
102
RTVSPropertyOp12
 70
     1
102
RTVSPropertyOp13
 70
     1
102
RTVSPropertyOp14
 70
     1
102
RTVSPropertyOp15
 70
     1
102
RTVSPropertyOp16
 70
     1
102
RTVSPropertyOp17
 70
     1
102
RTVSPropertyOp18
 70
     1
102
RTVSPropertyOp19
 70
     1
102
RTVSPropertyOp20
 70
     1
102
RTVSPropertyOp21
 70
     1
102
RTVSPropertyOp22
 70
     1
102
RTVSPropertyOp23
 70
     1
102
RTVSPropertyOp24
 70
     1
102
RTVSPropertyOp25
 70
     1
102
RTVSPropertyOp26
 70
     1
102
RTVSPropertyOp27
 70
     1
102
RTVSPropertyOp28
 70
     1
102
RTVSPropertyOp29
 70
     1
102
RTVSPropertyOp30
 70
     1
102
RTVSPropertyOp31
 70
     1
102
RTVSPropertyOp32
 70
     1
  0
XRECORD
  5
169
102
{ACAD_REACTORS
330
168
102
}
330
168
100
AcDbXrecord
280
     1
102
RTVSPropertyOp0
 70
     1
102
RTVSPropertyOp1
 70
     1
102
RTVSPropertyOp2
 70
     1
102
RTVSPropertyOp3
 70
     1
102
RTVSPropertyOp4
 70
     1
102
RTVSPropertyOp5
 70
     1
102
RTVSPropertyOp6
 70
     1
102
RTVSPropertyOp7
 70
     1
102
RTVSPropertyOp8
 70
     1
102
RTVSPropertyOp9
 70
     1
102
RTVSPropertyOp10
 70
     1
102
RTVSPropertyOp11
 70
     1
102
RTVSPropertyOp12
 70
     1
102
RTVSPropertyOp13
 70
     1
102
RTVSPropertyOp14
 70
     1
102
RTVSPropertyOp15
 70
     1
102
RTVSPropertyOp16
 70
     1
102
RTVSPropertyOp17
 70
     1
102
RTVSPropertyOp18
 70
     1
102
RTVSPropertyOp19
 70
     1
102
RTVSPropertyOp20
 70
     1
102
RTVSPropertyOp21
 70
     1
102
RTVSPropertyOp22
 70
     1
102
RTVSPropertyOp23
 70
     1
102
RTVSPropertyOp24
 70
     1
102
RTVSPropertyOp25
 70
     1
102
RTVSPropertyOp26
 70
     1
102
RTVSPropertyOp27
 70
     1
102
RTVSPropertyOp28
 70
     1
102
RTVSPropertyOp29
 70
     1
102
RTVSPropertyOp30
 70
     1
102
RTVSPropertyOp31
 70
     1
102
RTVSPropertyOp32
 70
     1
  0
XRECORD
  5
15D
102
{ACAD_REACTORS
330
15C
102
}
330
15C
100
AcDbXrecord
280
     1
102
RTVSPropertyOp0
 70
     1
102
RTVSPropertyOp1
 70
     1
102
RTVSPropertyOp2
 70
     1
102
RTVSPropertyOp3
 70
     1
102
RTVSPropertyOp4
 70
     1
102
RTVSPropertyOp5
 70
     1
102
RTVSPropertyOp6
 70
     1
102
RTVSPropertyOp7
 70
     1
102
RTVSPropertyOp8
 70
     1
102
RTVSPropertyOp9
 70
     1
102
RTVSPropertyOp10
 70
     1
102
RTVSPropertyOp11
 70
     1
102
RTVSPropertyOp12
 70
     1
102
RTVSPropertyOp13
 70
     1
102
RTVSPropertyOp14
 70
     1
102
RTVSPropertyOp15
 70
     1
102
RTVSPropertyOp16
 70
     1
102
RTVSPropertyOp17
 70
     1
102
RTVSPropertyOp18
 70
     1
102
RTVSPropertyOp19
 70
     1
102
RTVSPropertyOp20
 70
     1
102
RTVSPropertyOp21
 70
     1
102
RTVSPropertyOp22
 70
     1
102
RTVSPropertyOp23
 70
     1
102
RTVSPropertyOp24
 70
     1
102
RTVSPropertyOp25
 70
     1
102
RTVSPropertyOp26
 70
     1
102
RTVSPropertyOp27
 70
     1
102
RTVSPropertyOp28
 70
     1
102
RTVSPropertyOp29
 70
     1
102
RTVSPropertyOp30
 70
     1
102
RTVSPropertyOp31
 70
     1
102
RTVSPropertyOp32
 70
     1
  0
XRECORD
  5
15F
102
{ACAD_REACTORS
330
15E
102
}
330
15E
100
AcDbXrecord
280
     1
102
RTVSPropertyOp0
 70
     1
102
RTVSPropertyOp1
 70
     1
102
RTVSPropertyOp2
 70
     1
102
RTVSPropertyOp3
 70
     1
102
RTVSPropertyOp4
 70
     1
102
RTVSPropertyOp5
 70
     1
102
RTVSPropertyOp6
 70
     1
102
RTVSPropertyOp7
 70
     1
102
RTVSPropertyOp8
 70
     1
102
RTVSPropertyOp9
 70
     1
102
RTVSPropertyOp10
 70
     1
102
RTVSPropertyOp11
 70
     1
102
RTVSPropertyOp12
 70
     1
102
RTVSPropertyOp13
 70
     1
102
RTVSPropertyOp14
 70
     1
102
RTVSPropertyOp15
 70
     1
102
RTVSPropertyOp16
 70
     1
102
RTVSPropertyOp17
 70
     1
102
RTVSPropertyOp18
 70
     1
102
RTVSPropertyOp19
 70
     1
102
RTVSPropertyOp20
 70
     1
102
RTVSPropertyOp21
 70
     1
102
RTVSPropertyOp22
 70
     1
102
RTVSPropertyOp23
 70
     1
102
RTVSPropertyOp24
 70
     1
102
RTVSPropertyOp25
 70
     1
102
RTVSPropertyOp26
 70
     1
102
RTVSPropertyOp27
 70
     1
102
RTVSPropertyOp28
 70
     1
102
RTVSPropertyOp29
 70
     1
102
RTVSPropertyOp30
 70
     1
102
RTVSPropertyOp31
 70
     1
102
RTVSPropertyOp32
 70
     1
  0
XRECORD
  5
167
102
{ACAD_REACTORS
330
166
102
}
330
166
100
AcDbXrecord
280
     1
102
RTVSPropertyOp0
 70
     1
102
RTVSPropertyOp1
 70
     1
102
RTVSPropertyOp2
 70
     1
102
RTVSPropertyOp3
 70
     1
102
RTVSPropertyOp4
 70
     1
102
RTVSPropertyOp5
 70
     1
102
RTVSPropertyOp6
 70
     1
102
RTVSPropertyOp7
 70
     1
102
RTVSPropertyOp8
 70
     1
102
RTVSPropertyOp9
 70
     1
102
RTVSPropertyOp10
 70
     1
102
RTVSPropertyOp11
 70
     1
102
RTVSPropertyOp12
 70
     1
102
RTVSPropertyOp13
 70
     1
102
RTVSPropertyOp14
 70
     1
102
RTVSPropertyOp15
 70
     1
102
RTVSPropertyOp16
 70
     1
102
RTVSPropertyOp17
 70
     1
102
RTVSPropertyOp18
 70
     1
102
RTVSPropertyOp19
 70
     1
102
RTVSPropertyOp20
 70
     1
102
RTVSPropertyOp21
 70
     1
102
RTVSPropertyOp22
 70
     1
102
RTVSPropertyOp23
 70
     1
102
RTVSPropertyOp24
 70
     1
102
RTVSPropertyOp25
 70
     1
102
RTVSPropertyOp26
 70
     1
102
RTVSPropertyOp27
 70
     1
102
RTVSPropertyOp28
 70
     1
102
RTVSPropertyOp29
 70
     1
102
RTVSPropertyOp30
 70
     1
102
RTVSPropertyOp31
 70
     1
102
RTVSPropertyOp32
 70
     1
  0
XRECORD
  5
14B
102
{ACAD_REACTORS
330
14A
102
}
330
14A
100
AcDbXrecord
280
     1
102
RTVSPropertyOp0
 70
     1
102
RTVSPropertyOp1
 70
     1
102
RTVSPropertyOp2
 70
     1
102
RTVSPropertyOp3
 70
     1
102
RTVSPropertyOp4
 70
     1
102
RTVSPropertyOp5
 70
     1
102
RTVSPropertyOp6
 70
     1
102
RTVSPropertyOp7
 70
     1
102
RTVSPropertyOp8
 70
     1
102
RTVSPropertyOp9
 70
     1
102
RTVSPropertyOp10
 70
     1
102
RTVSPropertyOp11
 70
     1
102
RTVSPropertyOp12
 70
     1
102
RTVSPropertyOp13
 70
     1
102
RTVSPropertyOp14
 70
     1
102
RTVSPropertyOp15
 70
     1
102
RTVSPropertyOp16
 70
     1
102
RTVSPropertyOp17
 70
     1
102
RTVSPropertyOp18
 70
     1
102
RTVSPropertyOp19
 70
     1
102
RTVSPropertyOp20
 70
     1
102
RTVSPropertyOp21
 70
     1
102
RTVSPropertyOp22
 70
     1
102
RTVSPropertyOp23
 70
     1
102
RTVSPropertyOp24
 70
     1
102
RTVSPropertyOp25
 70
     1
102
RTVSPropertyOp26
 70
     1
102
RTVSPropertyOp27
 70
     1
102
RTVSPropertyOp28
 70
     1
102
RTVSPropertyOp29
 70
     1
102
RTVSPropertyOp30
 70
     1
102
RTVSPropertyOp31
 70
     1
102
RTVSPropertyOp32
 70
     1
  0
XRECORD
  5
14D
102
{ACAD_REACTORS
330
14C
102
}
330
14C
100
AcDbXrecord
280
     1
102
RTVSPropertyOp0
 70
     1
102
RTVSPropertyOp1
 70
     1
102
RTVSPropertyOp2
 70
     1
102
RTVSPropertyOp3
 70
     1
102
RTVSPropertyOp4
 70
     1
102
RTVSPropertyOp5
 70
     1
102
RTVSPropertyOp6
 70
     1
102
RTVSPropertyOp7
 70
     1
102
RTVSPropertyOp8
 70
     1
102
RTVSPropertyOp9
 70
     1
102
RTVSPropertyOp10
 70
     1
102
RTVSPropertyOp11
 70
     1
102
RTVSPropertyOp12
 70
     1
102
RTVSPropertyOp13
 70
     1
102
RTVSPropertyOp14
 70
     1
102
RTVSPropertyOp15
 70
     1
102
RTVSPropertyOp16
 70
     1
102
RTVSPropertyOp17
 70
     1
102
RTVSPropertyOp18
 70
     1
102
RTVSPropertyOp19
 70
     1
102
RTVSPropertyOp20
 70
     1
102
RTVSPropertyOp21
 70
     1
102
RTVSPropertyOp22
 70
     1
102
RTVSPropertyOp23
 70
     1
102
RTVSPropertyOp24
 70
     1
102
RTVSPropertyOp25
 70
     1
102
RTVSPropertyOp26
 70
     1
102
RTVSPropertyOp27
 70
     1
102
RTVSPropertyOp28
 70
     1
102
RTVSPropertyOp29
 70
     1
102
RTVSPropertyOp30
 70
     1
102
RTVSPropertyOp31
 70
     1
102
RTVSPropertyOp32
 70
     1
  0
XRECORD
  5
14F
102
{ACAD_REACTORS
330
14E
102
}
330
14E
100
AcDbXrecord
280
     1
102
RTVSPropertyOp0
 70
     1
102
RTVSPropertyOp1
 70
     1
102
RTVSPropertyOp2
 70
     1
102
RTVSPropertyOp3
 70
     1
102
RTVSPropertyOp4
 70
     1
102
RTVSPropertyOp5
 70
     1
102
RTVSPropertyOp6
 70
     1
102
RTVSPropertyOp7
 70
     1
102
RTVSPropertyOp8
 70
     1
102
RTVSPropertyOp9
 70
     1
102
RTVSPropertyOp10
 70
     1
102
RTVSPropertyOp11
 70
     1
102
RTVSPropertyOp12
 70
     1
102
RTVSPropertyOp13
 70
     1
102
RTVSPropertyOp14
 70
     1
102
RTVSPropertyOp15
 70
     1
102
RTVSPropertyOp16
 70
     1
102
RTVSPropertyOp17
 70
     1
102
RTVSPropertyOp18
 70
     1
102
RTVSPropertyOp19
 70
     1
102
RTVSPropertyOp20
 70
     1
102
RTVSPropertyOp21
 70
     1
102
RTVSPropertyOp22
 70
     1
102
RTVSPropertyOp23
 70
     1
102
RTVSPropertyOp24
 70
     1
102
RTVSPropertyOp25
 70
     1
102
RTVSPropertyOp26
 70
     1
102
RTVSPropertyOp27
 70
     1
102
RTVSPropertyOp28
 70
     1
102
RTVSPropertyOp29
 70
     1
102
RTVSPropertyOp30
 70
     1
102
RTVSPropertyOp31
 70
     1
102
RTVSPropertyOp32
 70
     1
  0
XRECORD
  5
151
102
{ACAD_REACTORS
330
150
102
}
330
150
100
AcDbXrecord
280
     1
102
RTVSPropertyOp0
 70
     1
102
RTVSPropertyOp1
 70
     1
102
RTVSPropertyOp2
 70
     1
102
RTVSPropertyOp3
 70
     1
102
RTVSPropertyOp4
 70
     1
102
RTVSPropertyOp5
 70
     1
102
RTVSPropertyOp6
 70
     1
102
RTVSPropertyOp7
 70
     1
102
RTVSPropertyOp8
 70
     1
102
RTVSPropertyOp9
 70
     1
102
RTVSPropertyOp10
 70
     1
102
RTVSPropertyOp11
 70
     1
102
RTVSPropertyOp12
 70
     1
102
RTVSPropertyOp13
 70
     1
102
RTVSPropertyOp14
 70
     1
102
RTVSPropertyOp15
 70
     1
102
RTVSPropertyOp16
 70
     1
102
RTVSPropertyOp17
 70
     1
102
RTVSPropertyOp18
 70
     1
102
RTVSPropertyOp19
 70
     1
102
RTVSPropertyOp20
 70
     1
102
RTVSPropertyOp21
 70
     1
102
RTVSPropertyOp22
 70
     1
102
RTVSPropertyOp23
 70
     1
102
RTVSPropertyOp24
 70
     1
102
RTVSPropertyOp25
 70
     1
102
RTVSPropertyOp26
 70
     1
102
RTVSPropertyOp27
 70
     1
102
RTVSPropertyOp28
 70
     1
102
RTVSPropertyOp29
 70
     1
102
RTVSPropertyOp30
 70
     1
102
RTVSPropertyOp31
 70
     1
102
RTVSPropertyOp32
 70
     1
  0
XRECORD
  5
165
102
{ACAD_REACTORS
330
164
102
}
330
164
100
AcDbXrecord
280
     1
102
RTVSPropertyOp0
 70
     1
102
RTVSPropertyOp1
 70
     1
102
RTVSPropertyOp2
 70
     1
102
RTVSPropertyOp3
 70
     1
102
RTVSPropertyOp4
 70
     1
102
RTVSPropertyOp5
 70
     1
102
RTVSPropertyOp6
 70
     1
102
RTVSPropertyOp7
 70
     1
102
RTVSPropertyOp8
 70
     1
102
RTVSPropertyOp9
 70
     1
102
RTVSPropertyOp10
 70
     1
102
RTVSPropertyOp11
 70
     1
102
RTVSPropertyOp12
 70
     1
102
RTVSPropertyOp13
 70
     1
102
RTVSPropertyOp14
 70
     1
102
RTVSPropertyOp15
 70
     1
102
RTVSPropertyOp16
 70
     1
102
RTVSPropertyOp17
 70
     1
102
RTVSPropertyOp18
 70
     1
102
RTVSPropertyOp19
 70
     1
102
RTVSPropertyOp20
 70
     1
102
RTVSPropertyOp21
 70
     1
102
RTVSPropertyOp22
 70
     1
102
RTVSPropertyOp23
 70
     1
102
RTVSPropertyOp24
 70
     1
102
RTVSPropertyOp25
 70
     1
102
RTVSPropertyOp26
 70
     1
102
RTVSPropertyOp27
 70
     1
102
RTVSPropertyOp28
 70
     1
102
RTVSPropertyOp29
 70
     1
102
RTVSPropertyOp30
 70
     1
102
RTVSPropertyOp31
 70
     1
102
RTVSPropertyOp32
 70
     1
  0
XRECORD
  5
15B
102
{ACAD_REACTORS
330
15A
102
}
330
15A
100
AcDbXrecord
280
     1
102
RTVSPropertyOp0
 70
     1
102
RTVSPropertyOp1
 70
     1
102
RTVSPropertyOp2
 70
     1
102
RTVSPropertyOp3
 70
     1
102
RTVSPropertyOp4
 70
     1
102
RTVSPropertyOp5
 70
     1
102
RTVSPropertyOp6
 70
     1
102
RTVSPropertyOp7
 70
     1
102
RTVSPropertyOp8
 70
     1
102
RTVSPropertyOp9
 70
     1
102
RTVSPropertyOp10
 70
     1
102
RTVSPropertyOp11
 70
     1
102
RTVSPropertyOp12
 70
     1
102
RTVSPropertyOp13
 70
     1
102
RTVSPropertyOp14
 70
     1
102
RTVSPropertyOp15
 70
     1
102
RTVSPropertyOp16
 70
     1
102
RTVSPropertyOp17
 70
     1
102
RTVSPropertyOp18
 70
     1
102
RTVSPropertyOp19
 70
     1
102
RTVSPropertyOp20
 70
     1
102
RTVSPropertyOp21
 70
     1
102
RTVSPropertyOp22
 70
     1
102
RTVSPropertyOp23
 70
     1
102
RTVSPropertyOp24
 70
     1
102
RTVSPropertyOp25
 70
     1
102
RTVSPropertyOp26
 70
     1
102
RTVSPropertyOp27
 70
     1
102
RTVSPropertyOp28
 70
     1
102
RTVSPropertyOp29
 70
     1
102
RTVSPropertyOp30
 70
     1
102
RTVSPropertyOp31
 70
     1
102
RTVSPropertyOp32
 70
     1
  0
XRECORD
  5
163
102
{ACAD_REACTORS
330
162
102
}
330
162
100
AcDbXrecord
280
     1
102
RTVSPropertyOp0
 70
     1
102
RTVSPropertyOp1
 70
     1
102
RTVSPropertyOp2
 70
     1
102
RTVSPropertyOp3
 70
     1
102
RTVSPropertyOp4
 70
     1
102
RTVSPropertyOp5
 70
     1
102
RTVSPropertyOp6
 70
     1
102
RTVSPropertyOp7
 70
     1
102
RTVSPropertyOp8
 70
     1
102
RTVSPropertyOp9
 70
     1
102
RTVSPropertyOp10
 70
     1
102
RTVSPropertyOp11
 70
     1
102
RTVSPropertyOp12
 70
     1
102
RTVSPropertyOp13
 70
     1
102
RTVSPropertyOp14
 70
     1
102
RTVSPropertyOp15
 70
     1
102
RTVSPropertyOp16
 70
     1
102
RTVSPropertyOp17
 70
     1
102
RTVSPropertyOp18
 70
     1
102
RTVSPropertyOp19
 70
     1
102
RTVSPropertyOp20
 70
     1
102
RTVSPropertyOp21
 70
     1
102
RTVSPropertyOp22
 70
     1
102
RTVSPropertyOp23
 70
     1
102
RTVSPropertyOp24
 70
     1
102
RTVSPropertyOp25
 70
     1
102
RTVSPropertyOp26
 70
     1
102
RTVSPropertyOp27
 70
     1
102
RTVSPropertyOp28
 70
     1
102
RTVSPropertyOp29
 70
     1
102
RTVSPropertyOp30
 70
     1
102
RTVSPropertyOp31
 70
     1
102
RTVSPropertyOp32
 70
     1
  0
ENDSEC
  0
EOF
