999
DXF file: 104-65-45.dxf
999
Pro/ENGINEER 2006320 by Parametric Technology Corporation
  0
SECTION
  2
HEADER
  9
$EXTMAX
 10
420.0
 20
297.0
 30
0.0
  9
$EXTMIN
 10
0.0
 20
0.0
 30
0.0
  9
$LIMMIN
 10
0.0
 20
0.0
  9
$LIMMAX
 10
420.0
 20
297.0
  9
$VIEWCTR
 10
210.0
 20
148.5
  9
$VIEWSIZE
 40
297.0
  9
$CLAYER
  8
0
  9
$LTSCALE
 40
23.1
  9
$CELTYPE
  6
BYLAYER
  9
$DIMSCALE
 40
1.0
  9
$DIMASZ
 40
3.0
  9
$DIMEXO
 40
2.625
  9
$DIMDLI
 40
15.96
  9
$DIMEXE
 40
7.56
  9
$DIMCEN
 40
3.78
  9
$DIMLFAC
 40
1.0
  9
$DIMBLK
  1
_FILLED
  9
$DIMTXT
 40
3.0
  9
$PDMODE
 70
3
  9
$PDSIZE
 40
0.3125
  0
ENDSEC
  0
SECTION
  2
TABLES
  0
TABLE
  2
LTYPE
 70
6
  0
LTYPE
  2
BYBLOCK
 70
0
  3

 72
65
 73
0
 40
0.0
  0
LTYPE
  2
BYLAYER
 70
0
  3

 72
65
 73
0
 40
0.0
  0
LTYPE
  2
CONTINUOUS
 70
64
  3
Solid line
 72
65
 73
0
 40
0.0
  0
LTYPE
  2
CENTER
 70
64
  3
____ _ ____ _ ____ _ ____ _ ____ _ ____ _ ____
 72
65
 73
4
 40
0.6
 49
0.375
 49
-0.075
 49
0.075
 49
-0.075
  0
LTYPE
  2
HIDDEN
 70
64
  3
- - - - - - - - - - - - - - - - - - - -
 72
65
 73
2
 40
0.2
 49
0.1
 49
-0.1
  0
LTYPE
  2
PHANTOM
 70
64
  3
_____ _ _ _____ _ _ _____ _ _ _____
 72
65
 73
6
 40
0.8
 49
0.45
 49
-0.05
 49
0.1
 49
-0.05
 49
0.1
 49
-0.05
  0
LTYPE
  2
DOT
 70
64
  3
. . . . . . . . . . . . . . . . . . . .
 72
65
 73
2
 40
0.2
 49
0.1
 49
-0.1
  0
LTYPE
  2
DASHED
 70
64
  3
- - - - - - - - - - - - - - - - - - - -
 72
65
 73
2
 40
0.2
 49
0.1
 49
-0.1
  0
ENDTAB
  0
TABLE
  2
LAYER
 70
36
  0
LAYER
  2
0
 70
0
 62
7
  6
CONTINUOUS
  0
LAYER
  2
DEFAULT_1
 70
0
 62
7
  6
CENTER
  0
LAYER
  2
DEFAULT_2
 70
0
 62
8
  6
HIDDEN
  0
LAYER
  2
DEFAULT_3
 70
0
 62
7
  6
PHANTOM
  0
LAYER
  2
01___PRT_ALL_DTM_PLN
 70
0
 62
7
  6
CONTINUOUS
  0
LAYER
  2
01___PRT_DEF_DTM_PLN
 70
0
 62
7
  6
CONTINUOUS
  0
LAYER
  2
02___PRT_ALL_AXES
 70
0
 62
7
  6
CONTINUOUS
  0
LAYER
  2
03___PRT_ALL_CURVES
 70
0
 62
7
  6
CONTINUOUS
  0
LAYER
  2
04___PRT_ALL_DTM_PNT
 70
0
 62
7
  6
CONTINUOUS
  0
LAYER
  2
05___PRT_ALL_DTM_CSYS
 70
0
 62
7
  6
CONTINUOUS
  0
LAYER
  2
05___PRT_DEF_DTM_CSYS
 70
0
 62
7
  6
CONTINUOUS
  0
LAYER
  2
06___PRT_ALL_SURFS
 70
0
 62
7
  6
CONTINUOUS
  0
ENDTAB
  0
TABLE
  2
STYLE
 70
1
  0
STYLE
  2
STANDARD
 70
0
 40
0.0
 41
0.6
 50
0.0
 71
0
 42
0.2
  3
txt
  4

  0
ENDTAB
  0
ENDSEC
  0
SECTION
  2
BLOCKS
  0
BLOCK
  8
0
 62
7
  6
CONTINUOUS
  2
*D0
 70
65
 10
0.0
 20
0.0
  0
TEXT
  8
0
 62
7
  6
CONTINUOUS
 10
102.2363189479
 20
154.0585418795
  7
STANDARD
 40
3.0
  1
184
 41
0.6
 72
0
  0
LINE
  8
0
 62
7
  6
CONTINUOUS
 10
134.4235730853
 20
247.5585418795
 11
101.9363189479
 21
247.5585418795
  0
LINE
  8
0
 62
7
  6
CONTINUOUS
 10
134.4235730853
 20
63.5585418795
 11
101.9363189479
 21
63.5585418795
  0
LINE
  8
0
 62
7
  6
CONTINUOUS
 10
104.9363189479
 20
247.5585418795
 11
104.9363189479
 21
158.5585418795
  0
LINE
  8
0
 62
7
  6
CONTINUOUS
 10
104.9363189479
 20
63.5585418795
 11
104.9363189479
 21
152.5585418795
  0
INSERT
  8
0
 62
7
  6
CONTINUOUS
  2
_FILLED
 10
104.9363189479
 20
247.5585418795
 41
3.0
 42
3.0
 43
3.0
 50
90.0
  0
INSERT
  8
0
 62
7
  6
CONTINUOUS
  2
_FILLED
 10
104.9363189479
 20
63.5585418795
 41
3.0
 42
3.0
 43
3.0
 50
270.0
  0
ENDBLK
  8
0
  6
BYBLOCK
 62
0
  0
BLOCK
  8
0
 62
7
  6
CONTINUOUS
  2
*D1
 70
65
 10
0.0
 20
0.0
  0
TEXT
  8
0
 62
7
  6
CONTINUOUS
 10
171.6235730853
 20
49.1722293156
  7
STANDARD
 40
3.0
  1
75
 41
0.6
 72
0
  0
LINE
  8
0
 62
7
  6
CONTINUOUS
 10
210.9235730853
 20
62.1830822268
 11
210.9235730853
 21
47.6722293156
  0
LINE
  8
0
 62
7
  6
CONTINUOUS
 10
135.9235730853
 20
63.8047369765
 11
135.9235730853
 21
47.6722293156
  0
LINE
  8
0
 62
7
  6
CONTINUOUS
 10
210.9235730853
 20
50.6722293156
 11
176.7235730853
 21
50.6722293156
  0
LINE
  8
0
 62
7
  6
CONTINUOUS
 10
135.9235730853
 20
50.6722293156
 11
170.1235730853
 21
50.6722293156
  0
INSERT
  8
0
 62
7
  6
CONTINUOUS
  2
_FILLED
 10
210.9235730853
 20
50.6722293156
 41
3.0
 42
3.0
 43
3.0
  0
INSERT
  8
0
 62
7
  6
CONTINUOUS
  2
_FILLED
 10
135.9235730853
 20
50.6722293156
 41
3.0
 42
3.0
 43
3.0
 50
180.0
  0
ENDBLK
  8
0
  6
BYBLOCK
 62
0
  0
BLOCK
  8
0
 62
7
  6
CONTINUOUS
  2
*D2
 70
65
 10
0.0
 20
0.0
  0
TEXT
  8
0
 62
7
  6
CONTINUOUS
 10
227.412654422
 20
254.3915630447
  7
STANDARD
 40
3.0
  1
45%%d
 41
0.6222222222
 72
0
  0
LINE
  8
0
 62
7
  6
CONTINUOUS
 10
259.0639429571
 20
204.4309625588
 11
280.477433263
 21
225.8444528647
  0
LINE
  8
0
 62
7
  6
CONTINUOUS
 10
173.4235730853
 20
243.4464376915
 11
173.4235730853
 21
270.1876136547
  0
ARC
  8
0
 62
7
  6
CONTINUOUS
 10
173.4235730853
 20
118.790592687
 40
148.3970209677
 50
45.0
 51
65.6908592426
  0
ARC
  8
0
 62
7
  6
CONTINUOUS
 10
173.4235730853
 20
118.790592687
 40
148.3970209677
 50
69.285773102
 51
90.0
  0
SOLID
  8
0
 62
7
  6
CONTINUOUS
 10
275.6885164642
 20
225.287239024
 11
278.3561129194
 21
223.7231325212
 12
276.7384014603
 22
226.3585660026
 13
276.7384014603
 23
226.3585660026
  0
SOLID
  8
0
 62
7
  6
CONTINUOUS
 10
176.4310007141
 20
267.907251798
 11
173.4235730853
 21
267.1876136547
 12
176.4158389429
 22
266.4073284264
 13
176.4158389429
 23
266.4073284264
  0
ENDBLK
  8
0
  6
BYBLOCK
 62
0
  0
BLOCK
  8
0
 62
7
  6
CONTINUOUS
  2
*D3
 70
65
 10
0.0
 20
0.0
  0
TEXT
  8
0
 62
7
  6
CONTINUOUS
 10
210.3098825332
 20
39.6968507868
  7
STANDARD
 40
3.0
  1
154
 41
0.6
 72
0
  0
LINE
  8
0
 62
7
  6
CONTINUOUS
 10
135.9235730853
 20
62.0585418795
 11
135.9235730853
 21
38.1968507868
  0
LINE
  8
0
 62
7
  6
CONTINUOUS
 10
290.0961919811
 20
181.637309775
 11
290.0961919811
 21
38.1968507868
  0
LINE
  8
0
 62
7
  6
CONTINUOUS
 10
135.9235730853
 20
41.1968507868
 11
208.8098825332
 21
41.1968507868
  0
LINE
  8
0
 62
7
  6
CONTINUOUS
 10
290.0961919811
 20
41.1968507868
 11
217.2098825332
 21
41.1968507868
  0
INSERT
  8
0
 62
7
  6
CONTINUOUS
  2
_FILLED
 10
135.9235730853
 20
41.1968507868
 41
3.0
 42
3.0
 43
3.0
 50
180.0
  0
INSERT
  8
0
 62
7
  6
CONTINUOUS
  2
_FILLED
 10
290.0961919811
 20
41.1968507868
 41
3.0
 42
3.0
 43
3.0
 50
0.0
  0
ENDBLK
  8
0
  6
BYBLOCK
 62
0
  0
BLOCK
  8
0
  2
_FILLED
 70
64
 10
0.0
 20
0.0
  0
SOLID
  8
0
  6
BYBLOCK
 62
0
 10
0.0
 20
0.0
 11
-1.0
 21
0.25
 12
-1.0
 22
-0.25
 13
-1.0
 23
-0.25
  0
ENDBLK
  8
0
  6
BYBLOCK
 62
0
  0
ENDSEC
  0
SECTION
  2
ENTITIES
  0
DIMENSION
  8
0
 62
7
  6
CONTINUOUS
  2
*D0
 10
104.9363189479
 20
63.5585418795
 11
104.9363189479
 21
155.5585418795
 70
128
 13
134.4235730853
 23
247.5585418795
 14
134.4235730853
 24
63.5585418795
 50
270.0
  0
DIMENSION
  8
0
 62
7
  6
CONTINUOUS
  2
*D1
 10
135.9235730853
 20
50.6722293156
 11
173.4235730853
 21
50.6722293156
 70
128
 13
210.9235730853
 23
62.1830822268
 14
135.9235730853
 24
63.8047369765
 50
180.0
  0
DIMENSION
  8
0
 62
7
  6
CONTINUOUS
  2
*D2
 10
173.4235730853
 20
243.4464376915
 11
230.212654422
 21
255.8915630447
 70
130
 13
259.0639429571
 23
204.4309625588
 14
280.477433263
 24
225.8444528647
 15
173.4235730853
 25
270.1876136547
 16
230.212654422
 26
255.8915630447
  0
DIMENSION
  8
0
 62
7
  6
CONTINUOUS
  2
*D3
 10
290.0961919811
 20
41.1968507868
 11
213.0098825332
 21
41.1968507868
 70
128
 13
135.9235730853
 23
62.0585418795
 14
290.0961919811
 24
181.637309775
  0
LINE
  8
0
 62
7
  6
CONTINUOUS
 10
0.0
 20
0.0
 11
0.0
 21
297.0
  0
LINE
  8
0
 62
7
  6
CONTINUOUS
 10
0.0
 20
0.0
 11
420.0
 21
0.0
  0
LINE
  8
0
 62
7
  6
CONTINUOUS
 10
0.0
 20
297.0
 11
420.0
 21
297.0
  0
LINE
  8
0
 62
7
  6
CONTINUOUS
 10
420.0
 20
0.0
 11
420.0
 21
297.0
  0
LINE
  8
02___PRT_ALL_AXES
 62
7
  6
CONTINUOUS
 10
210.9235730853
 20
63.5585418795
 11
135.9235730853
 21
63.5585418795
  0
LINE
  8
0
 62
7
  6
CONTINUOUS
 10
133.961555718
 20
71.3037940504
 11
135.9235730853
 21
71.0585418795
  0
LINE
  8
0
 62
7
  6
CONTINUOUS
 10
212.8855904526
 20
71.3037940504
 11
210.9235730853
 21
71.0585418795
  0
LINE
  8
0
 62
7
  6
CONTINUOUS
 10
210.9235730853
 20
71.0585418795
 11
135.9235730853
 21
71.0585418795
  0
LINE
  8
0
 62
9
  6
CONTINUOUS
 10
133.961555718
 20
71.3037940504
 11
212.8855904526
 21
71.3037940504
  0
LINE
  8
0
 62
9
  6
CONTINUOUS
 10
133.5235730853
 20
71.7999329887
 11
213.3235730853
 21
71.7999329887
  0
LINE
  8
0
 62
9
  6
CONTINUOUS
 10
133.5235730853
 20
73.3171507702
 11
213.3235730853
 21
73.3171507702
  0
LINE
  8
0
 62
9
  6
CONTINUOUS
 10
133.961555718
 20
73.8132897086
 11
212.8855904526
 21
73.8132897086
  0
LINE
  8
0
 62
7
  6
CONTINUOUS
 10
210.9235730853
 20
74.0585418795
 11
135.9235730853
 21
74.0585418795
  0
LINE
  8
0
 62
7
  6
CONTINUOUS
 10
210.9235730853
 20
74.0585418795
 11
212.8855904526
 21
73.8132897086
  0
LINE
  8
0
 62
7
  6
CONTINUOUS
 10
133.5235730853
 20
95.8171507702
 11
133.5235730853
 21
94.2999329887
  0
LINE
  8
0
 62
7
  6
CONTINUOUS
 10
133.5235730853
 20
73.3171507702
 11
133.5235730853
 21
71.7999329887
  0
LINE
  8
02___PRT_ALL_AXES
 62
7
  6
CONTINUOUS
 10
135.9235730853
 20
247.5585418795
 11
135.9235730853
 21
207.8472170141
  0
LINE
  8
02___PRT_ALL_AXES
 62
7
  6
CONTINUOUS
 10
135.9235730853
 20
103.2698667449
 11
135.9235730853
 21
96.5585418795
  0
LINE
  8
02___PRT_ALL_AXES
 62
7
  6
CONTINUOUS
 10
135.9235730853
 20
93.5585418795
 11
135.9235730853
 21
74.0585418795
  0
LINE
  8
02___PRT_ALL_AXES
 62
7
  6
CONTINUOUS
 10
135.9235730853
 20
71.0585418795
 11
135.9235730853
 21
63.5585418795
  0
LINE
  8
02___PRT_ALL_AXES
 62
7
  6
CONTINUOUS
 10
138.9235730853
 20
205.8264910719
 11
138.9235730853
 21
105.290592687
  0
LINE
  8
0
 62
7
  6
CONTINUOUS
 10
135.9235730853
 20
74.0585418795
 11
133.961555718
 21
73.8132897086
  0
LINE
  8
0
 62
7
  6
CONTINUOUS
 10
133.961555718
 20
93.8037940504
 11
135.9235730853
 21
93.5585418795
  0
LINE
  8
0
 62
7
  6
CONTINUOUS
 10
212.8855904526
 20
93.8037940504
 11
210.9235730853
 21
93.5585418795
  0
LINE
  8
0
 62
7
  6
CONTINUOUS
 10
210.9235730853
 20
93.5585418795
 11
135.9235730853
 21
93.5585418795
  0
LINE
  8
0
 62
9
  6
CONTINUOUS
 10
133.961555718
 20
93.8037940504
 11
212.8855904526
 21
93.8037940504
  0
LINE
  8
0
 62
9
  6
CONTINUOUS
 10
133.5235730853
 20
94.2999329887
 11
213.3235730853
 21
94.2999329887
  0
LINE
  8
0
 62
9
  6
CONTINUOUS
 10
133.5235730853
 20
95.8171507702
 11
213.3235730853
 21
95.8171507702
  0
LINE
  8
0
 62
9
  6
CONTINUOUS
 10
133.961555718
 20
96.3132897086
 11
212.8855904526
 21
96.3132897086
  0
LINE
  8
0
 62
7
  6
CONTINUOUS
 10
210.9235730853
 20
96.5585418795
 11
135.9235730853
 21
96.5585418795
  0
LINE
  8
0
 62
7
  6
CONTINUOUS
 10
210.9235730853
 20
96.5585418795
 11
212.8855904526
 21
96.3132897086
  0
LINE
  8
0
 62
7
  6
CONTINUOUS
 10
135.9235730853
 20
96.5585418795
 11
133.961555718
 21
96.3132897086
  0
LINE
  8
0
 62
9
  6
CONTINUOUS
 10
210.9235730853
 20
103.2698667449
 11
135.9235730853
 21
103.2698667449
  0
LINE
  8
0
 62
9
  6
CONTINUOUS
 10
210.6735730853
 20
103.7028794468
 11
136.1735730853
 21
103.7028794468
  0
LINE
  8
0
 62
7
  6
CONTINUOUS
 10
205.0973749635
 20
105.290592687
 11
138.9235730853
 21
105.290592687
  0
POLYLINE
  8
0
 62
7
  6
CONTINUOUS
 66
1
 70
0
  0
VERTEX
  8
0
 62
7
  6
CONTINUOUS
 10
207.3803661545
 20
105.1294881529
  0
VERTEX
  8
0
 62
7
  6
CONTINUOUS
 10
206.8652888665
 20
105.1867379133
  0
VERTEX
  8
0
 62
7
  6
CONTINUOUS
 10
206.2755508521
 20
105.2394283353
  0
VERTEX
  8
0
 62
7
  6
CONTINUOUS
 10
205.6770931057
 20
105.276371012
  0
VERTEX
  8
0
 62
7
  6
CONTINUOUS
 10
205.0973749635
 20
105.290592687
  0
SEQEND
  0
LINE
  8
0
 62
7
  6
CONTINUOUS
 10
207.3803661549
 20
105.1294881528
 11
208.4246462568
 21
105.0012979566
  0
LINE
  8
0
 62
9
  6
CONTINUOUS
 10
173.4235730853
 20
118.790592687
 11
207.3803661549
 21
105.1294881528
  0
LINE
  8
0
 62
9
  6
CONTINUOUS
 10
173.4235730853
 20
118.790592687
 11
205.0973749635
 21
105.290592687
  0
LINE
  8
0
 62
7
  6
CONTINUOUS
 10
210.1871760099
 20
207.4142043122
 11
207.397828044
 21
205.8264910719
  0
LINE
  8
02___PRT_ALL_AXES
 62
7
  6
CONTINUOUS
 10
208.4246462568
 20
105.0012979566
 11
210.6735730853
 21
103.7028794468
  0
LINE
  8
02___PRT_ALL_AXES
 62
7
  6
CENTER
 10
173.4235730853
 20
250.0585418795
 11
173.4235730853
 21
42.9838483146
  0
POLYLINE
  8
0
 62
7
  6
CONTINUOUS
 66
1
 70
0
  0
VERTEX
  8
0
 62
7
  6
CONTINUOUS
 10
210.4934965785
 20
207.6370037636
  0
VERTEX
  8
0
 62
7
  6
CONTINUOUS
 10
210.4722314571
 20
207.6071157026
  0
VERTEX
  8
0
 62
7
  6
CONTINUOUS
 10
210.4487667354
 20
207.5764501146
  0
VERTEX
  8
0
 62
7
  6
CONTINUOUS
 10
210.4235730853
 20
207.5459759502
  0
SEQEND
  0
LINE
  8
02___PRT_ALL_AXES
 62
7
  6
CONTINUOUS
 10
210.9235730853
 20
208.6164944948
 11
237.7702901733
 21
235.4632115828
  0
LINE
  8
0
 62
7
  6
CONTINUOUS
 10
210.0364326881
 20
207.0367748635
 11
210.4235730853
 21
207.4239152607
  0
LINE
  8
0
 62
7
  6
CONTINUOUS
 10
209.0789202665
 20
202.4927919996
 11
210.4235730853
 21
203.8374448212
  0
POLYLINE
  8
0
 62
7
  6
CONTINUOUS
 66
1
 70
0
  0
VERTEX
  8
0
 62
7
  6
CONTINUOUS
 10
210.4235730853
 20
207.7191839296
  0
VERTEX
  8
0
 62
7
  6
CONTINUOUS
 10
210.3974176509
 20
207.6455166073
  0
VERTEX
  8
0
 62
7
  6
CONTINUOUS
 10
210.3599144029
 20
207.5766888557
  0
VERTEX
  8
0
 62
7
  6
CONTINUOUS
 10
210.3114339239
 20
207.5138420521
  0
VERTEX
  8
0
 62
7
  6
CONTINUOUS
 10
210.2532228319
 20
207.4590703484
  0
VERTEX
  8
0
 62
7
  6
CONTINUOUS
 10
210.1871760099
 20
207.4142043122
  0
SEQEND
  0
LINE
  8
0
 62
9
  6
CONTINUOUS
 10
207.3978280423
 20
203.1891231692
 11
173.4235730853
 21
118.790592687
  0
LINE
  8
0
 62
7
  6
CONTINUOUS
 10
210.9235730853
 20
208.6164944948
 11
210.6074520567
 21
207.8472170141
  0
LINE
  8
0
 62
9
  6
CONTINUOUS
 10
209.0789202452
 20
202.4927919783
 11
173.4235730853
 21
118.790592687
  0
POLYLINE
  8
0
 62
7
  6
CONTINUOUS
 66
1
 70
0
  0
VERTEX
  8
0
 62
7
  6
CONTINUOUS
 10
210.6074520567
 20
207.8472170141
  0
VERTEX
  8
0
 62
7
  6
CONTINUOUS
 10
210.5942311802
 20
207.8164153402
  0
VERTEX
  8
0
 62
7
  6
CONTINUOUS
 10
210.5800327414
 20
207.7859403944
  0
VERTEX
  8
0
 62
7
  6
CONTINUOUS
 10
210.5648984814
 20
207.7558413659
  0
VERTEX
  8
0
 62
7
  6
CONTINUOUS
 10
210.5487986966
 20
207.7260481171
  0
VERTEX
  8
0
 62
7
  6
CONTINUOUS
 10
210.5315521651
 20
207.6962764891
  0
VERTEX
  8
0
 62
7
  6
CONTINUOUS
 10
210.513156164
 20
207.6666166558
  0
VERTEX
  8
0
 62
7
  6
CONTINUOUS
 10
210.4934965785
 20
207.6370037636
  0
SEQEND
  0
POLYLINE
  8
0
 62
7
  6
CONTINUOUS
 66
1
 70
0
  0
VERTEX
  8
0
 62
7
  6
CONTINUOUS
 10
207.3978280423
 20
203.1891231951
  0
VERTEX
  8
0
 62
7
  6
CONTINUOUS
 10
207.4123412628
 20
203.006968092
  0
VERTEX
  8
0
 62
7
  6
CONTINUOUS
 10
207.454896139
 20
202.8337002338
  0
VERTEX
  8
0
 62
7
  6
CONTINUOUS
 10
207.5225229425
 20
202.6757660035
  0
VERTEX
  8
0
 62
7
  6
CONTINUOUS
 10
207.6121885045
 20
202.5360316502
  0
VERTEX
  8
0
 62
7
  6
CONTINUOUS
 10
207.7230522042
 20
202.4147674703
  0
VERTEX
  8
0
 62
7
  6
CONTINUOUS
 10
207.851027494
 20
202.3163299943
  0
VERTEX
  8
0
 62
7
  6
CONTINUOUS
 10
207.9909577389
 20
202.243453308
  0
VERTEX
  8
0
 62
7
  6
CONTINUOUS
 10
208.1413662613
 20
202.1960800277
  0
VERTEX
  8
0
 62
7
  6
CONTINUOUS
 10
208.3014637586
 20
202.1752051087
  0
VERTEX
  8
0
 62
7
  6
CONTINUOUS
 10
208.4655712151
 20
202.1825662362
  0
VERTEX
  8
0
 62
7
  6
CONTINUOUS
 10
208.6276975672
 20
202.2179501187
  0
VERTEX
  8
0
 62
7
  6
CONTINUOUS
 10
208.7872262233
 20
202.2818136585
  0
VERTEX
  8
0
 62
7
  6
CONTINUOUS
 10
208.9398699655
 20
202.3742621343
  0
VERTEX
  8
0
 62
7
  6
CONTINUOUS
 10
209.0789202665
 20
202.4927919996
  0
SEQEND
  0
LINE
  8
0
 62
7
  6
CONTINUOUS
 10
207.397828044
 20
205.8264910719
 11
207.3978280423
 21
203.1891231951
  0
LINE
  8
0
 62
7
  6
CONTINUOUS
 10
210.4235730853
 20
207.7191839296
 11
210.4235730853
 21
207.4239152607
  0
LINE
  8
0
 62
7
  6
CONTINUOUS
 10
210.4235730853
 20
204.6783905996
 11
210.4235730853
 21
203.8374448212
  0
LINE
  8
02___PRT_ALL_AXES
 62
7
  6
CONTINUOUS
 10
210.9235730853
 20
247.5585418795
 11
210.9235730853
 21
208.6164944948
  0
LINE
  8
02___PRT_ALL_AXES
 62
7
  6
CONTINUOUS
 10
210.9235730853
 20
103.2698667449
 11
210.9235730853
 21
96.5585418795
  0
LINE
  8
02___PRT_ALL_AXES
 62
7
  6
CONTINUOUS
 10
210.9235730853
 20
93.5585418795
 11
210.9235730853
 21
74.0585418795
  0
LINE
  8
02___PRT_ALL_AXES
 62
7
  6
CONTINUOUS
 10
210.9235730853
 20
71.0585418795
 11
210.9235730853
 21
63.5585418795
  0
LINE
  8
02___PRT_ALL_AXES
 62
7
  6
CENTER
 10
265.7010080302
 20
211.0680276319
 11
171.6558061323
 21
117.0228257341
  0
LINE
  8
0
 62
7
  6
CONTINUOUS
 10
213.3235730853
 20
95.8171507702
 11
213.3235730853
 21
94.2999329887
  0
LINE
  8
0
 62
7
  6
CONTINUOUS
 10
213.3235730853
 20
73.3171507702
 11
213.3235730853
 21
71.7999329887
  0
LINE
  8
02___PRT_ALL_AXES
 62
7
  6
CONTINUOUS
 10
138.9235730853
 20
105.290592687
 11
136.1735730853
 21
103.7028794468
  0
LINE
  8
02___PRT_ALL_AXES
 62
7
  6
CONTINUOUS
 10
136.1735730853
 20
207.4142043122
 11
138.9235730853
 21
205.8264910719
  0
POLYLINE
  8
0
 62
7
  6
CONTINUOUS
 66
1
 70
0
  0
VERTEX
  8
0
 62
7
  6
CONTINUOUS
 10
209.9094108044
 20
206.5514243115
  0
VERTEX
  8
0
 62
7
  6
CONTINUOUS
 10
209.8935629187
 20
206.6382418983
  0
VERTEX
  8
0
 62
7
  6
CONTINUOUS
 10
209.8930744473
 20
206.72657491
  0
VERTEX
  8
0
 62
7
  6
CONTINUOUS
 10
209.907849597
 20
206.8127178008
  0
VERTEX
  8
0
 62
7
  6
CONTINUOUS
 10
209.9372865704
 20
206.8946086702
  0
VERTEX
  8
0
 62
7
  6
CONTINUOUS
 10
209.9807712843
 20
206.9703521706
  0
VERTEX
  8
0
 62
7
  6
CONTINUOUS
 10
210.0364326881
 20
207.0367748635
  0
SEQEND
  0
LINE
  8
02___PRT_ALL_AXES
 62
7
  6
CONTINUOUS
 10
259.0235330545
 20
155.6001847544
 11
261.5330819657
 21
154.9277531502
  0
LINE
  8
0
 62
7
  6
CONTINUOUS
 10
209.9094108044
 20
206.5514243115
 11
210.4235730853
 21
204.6783905996
  0
LINE
  8
02___PRT_ALL_AXES
 62
7
  6
CONTINUOUS
 10
208.4246462568
 20
105.0012979566
 11
259.0235330545
 21
155.6001847544
  0
LINE
  8
02___PRT_ALL_AXES
 62
7
  6
CONTINUOUS
 10
262.0160448789
 20
155.0571626728
 11
290.0961919811
 21
183.137309775
  0
LINE
  8
0
 62
7
  6
CONTINUOUS
 10
259.0235330545
 20
155.6001847544
 11
210.4235730853
 21
204.2001447236
  0
LINE
  8
0
 62
9
  6
CONTINUOUS
 10
261.5330819657
 20
154.9277531502
 11
209.9094108044
 21
206.5514243115
  0
LINE
  8
0
 62
9
  6
CONTINUOUS
 10
210.0364326881
 20
207.0367748635
 11
262.0160448789
 21
155.0571626728
  0
LINE
  8
0
 62
7
  6
CONTINUOUS
 10
207.397828044
 20
205.8264910719
 11
138.9235730853
 21
205.8264910719
  0
LINE
  8
0
 62
9
  6
CONTINUOUS
 10
210.1871760099
 20
207.4142043122
 11
136.1735730853
 21
207.4142043122
  0
LINE
  8
0
 62
9
  6
CONTINUOUS
 10
135.9235730853
 20
207.8472170141
 11
210.6074520567
 21
207.8472170141
  0
LINE
  8
02___PRT_ALL_AXES
 62
7
  6
CONTINUOUS
 10
237.7702901733
 20
235.4632115828
 11
290.0961919811
 21
183.137309775
  0
LINE
  8
02___PRT_ALL_AXES
 62
7
  6
CONTINUOUS
 10
210.9235730853
 20
247.5585418795
 11
135.9235730853
 21
247.5585418795
  0
ARC
  8
0
 62
7
  6
CONTINUOUS
 10
136.4235730853
 20
103.2698667449
 40
0.5
 50
120.0
 51
180.0
  0
ARC
  8
0
 62
7
  6
CONTINUOUS
 10
134.0235730853
 20
94.2999329887
 40
0.5
 50
180.0
 51
262.8749836511
  0
ARC
  8
0
 62
7
  6
CONTINUOUS
 10
134.0235730853
 20
95.8171507702
 40
0.5
 50
97.1250163489
 51
180.0
  0
ARC
  8
0
 62
7
  6
CONTINUOUS
 10
134.0235730853
 20
73.3171507702
 40
0.5
 50
97.1250163489
 51
180.0
  0
ARC
  8
0
 62
7
  6
CONTINUOUS
 10
134.0235730853
 20
71.7999329887
 40
0.5
 50
180.0
 51
262.8749836511
  0
ARC
  8
0
 62
7
  6
CONTINUOUS
 10
136.4235730853
 20
207.8472170141
 40
0.5
 50
180.0
 51
240.0
  0
ARC
  8
0
 62
7
  6
CONTINUOUS
 10
210.4235730853
 20
103.2698667449
 40
0.5
 50
0.0
 51
60.0
  0
ARC
  8
0
 62
7
  6
CONTINUOUS
 10
212.8235730853
 20
94.2999329887
 40
0.5
 50
277.1250163489
 51
360.0
  0
ARC
  8
0
 62
7
  6
CONTINUOUS
 10
212.8235730853
 20
95.8171507702
 40
0.5
 50
0.0
 51
82.8749836511
  0
ARC
  8
0
 62
7
  6
CONTINUOUS
 10
212.8235730853
 20
73.3171507702
 40
0.5
 50
0.0
 51
82.8749836511
  0
ARC
  8
0
 62
7
  6
CONTINUOUS
 10
212.8235730853
 20
71.7999329887
 40
0.5
 50
277.1250163489
 51
360.0
  0
ARC
  8
0
 62
7
  6
CONTINUOUS
 10
261.6624914883
 20
155.4107160634
 40
0.5
 50
255.0
 51
315.0
  0
ENDSEC
  0
EOF
