  0
SECTION
  2
HEADER
  9
$ACADVER
  1
AC1018
  9
$ACADMAINTVER
 70
     0
  9
$DWGCODEPAGE
  3
ANSI_1252
  9
$INSBASE
 10
0.0
 20
0.0
 30
0.0
  9
$EXTMIN
 10
1.000000000000000E+20
 20
1.000000000000000E+20
 30
1.000000000000000E+20
  9
$EXTMAX
 10
-1.000000000000000E+20
 20
-1.000000000000000E+20
 30
-1.000000000000000E+20
  9
$LIMMIN
 10
0.0
 20
0.0
  9
$LIMMAX
 10
12.0
 20
9.0
  9
$ORTHOMODE
 70
     0
  9
$REGENMODE
 70
     1
  9
$FILLMODE
 70
     1
  9
$QTEXTMODE
 70
     0
  9
$MIRRTEXT
 70
     1
  9
$LTSCALE
 40
1.0
  9
$ATTMODE
 70
     1
  9
$TEXTSIZE
 40
0.2
  9
$TRACEWID
 40
0.05
  9
$TEXTSTYLE
  7
Standard
  9
$CLAYER
  8
0
  9
$CELTYPE
  6
ByLayer
  9
$CECOLOR
 62
   256
  9
$CELTSCALE
 40
1.0
  9
$DISPSILH
 70
     0
  9
$DIMSCALE
 40
1.0
  9
$DIMASZ
 40
0.18
  9
$DIMEXO
 40
0.0625
  9
$DIMDLI
 40
0.38
  9
$DIMRND
 40
0.0
  9
$DIMDLE
 40
0.0
  9
$DIMEXE
 40
0.18
  9
$DIMTP
 40
0.0
  9
$DIMTM
 40
0.0
  9
$DIMTXT
 40
0.18
  9
$DIMCEN
 40
0.09
  9
$DIMTSZ
 40
0.0
  9
$DIMTOL
 70
     0
  9
$DIMLIM
 70
     0
  9
$DIMTIH
 70
     1
  9
$DIMTOH
 70
     1
  9
$DIMSE1
 70
     0
  9
$DIMSE2
 70
     0
  9
$DIMTAD
 70
     0
  9
$DIMZIN
 70
     0
  9
$DIMBLK
  1

  9
$DIMASO
 70
     1
  9
$DIMSHO
 70
     1
  9
$DIMPOST
  1

  9
$DIMAPOST
  1

  9
$DIMALT
 70
     0
  9
$DIMALTD
 70
     2
  9
$DIMALTF
 40
25.4
  9
$DIMLFAC
 40
1.0
  9
$DIMTOFL
 70
     0
  9
$DIMTVP
 40
0.0
  9
$DIMTIX
 70
     0
  9
$DIMSOXD
 70
     0
  9
$DIMSAH
 70
     0
  9
$DIMBLK1
  1

  9
$DIMBLK2
  1

  9
$DIMSTYLE
  2
Standard
  9
$DIMCLRD
 70
     0
  9
$DIMCLRE
 70
     0
  9
$DIMCLRT
 70
     0
  9
$DIMTFAC
 40
1.0
  9
$DIMGAP
 40
0.09
  9
$DIMJUST
 70
     0
  9
$DIMSD1
 70
     0
  9
$DIMSD2
 70
     0
  9
$DIMTOLJ
 70
     1
  9
$DIMTZIN
 70
     0
  9
$DIMALTZ
 70
     0
  9
$DIMALTTZ
 70
     0
  9
$DIMUPT
 70
     0
  9
$DIMDEC
 70
     4
  9
$DIMTDEC
 70
     4
  9
$DIMALTU
 70
     2
  9
$DIMALTTD
 70
     2
  9
$DIMTXSTY
  7
Standard
  9
$DIMAUNIT
 70
     0
  9
$DIMADEC
 70
     0
  9
$DIMALTRND
 40
0.0
  9
$DIMAZIN
 70
     0
  9
$DIMDSEP
 70
    46
  9
$DIMATFIT
 70
     3
  9
$DIMFRAC
 70
     0
  9
$DIMLDRBLK
  1

  9
$DIMLUNIT
 70
     2
  9
$DIMLWD
 70
    -2
  9
$DIMLWE
 70
    -2
  9
$DIMTMOVE
 70
     0
  9
$LUNITS
 70
     2
  9
$LUPREC
 70
     4
  9
$SKETCHINC
 40
0.1
  9
$FILLETRAD
 40
0.5
  9
$AUNITS
 70
     0
  9
$AUPREC
 70
     0
  9
$MENU
  1
.
  9
$ELEVATION
 40
0.0
  9
$PELEVATION
 40
0.0
  9
$THICKNESS
 40
0.0
  9
$LIMCHECK
 70
     0
  9
$CHAMFERA
 40
0.5
  9
$CHAMFERB
 40
0.5
  9
$CHAMFERC
 40
1.0
  9
$CHAMFERD
 40
0.0
  9
$SKPOLY
 70
     0
  9
$TDCREATE
 40
2457123.730152373
  9
$TDUCREATE
 40
2457123.230152373
  9
$TDUPDATE
 40
2457123.730154861
  9
$TDUUPDATE
 40
2457123.230154861
  9
$TDINDWG
 40
0.0000000116
  9
$TDUSRTIMER
 40
0.0000000116
  9
$USRTIMER
 70
     1
  9
$ANGBASE
 50
0.0
  9
$ANGDIR
 70
     0
  9
$PDMODE
 70
     0
  9
$PDSIZE
 40
0.0
  9
$PLINEWID
 40
0.0
  9
$SPLFRAME
 70
     0
  9
$SPLINETYPE
 70
     6
  9
$SPLINESEGS
 70
     8
  9
$HANDSEED
  5
3C5
  9
$SURFTAB1
 70
     6
  9
$SURFTAB2
 70
     6
  9
$SURFTYPE
 70
     6
  9
$SURFU
 70
     6
  9
$SURFV
 70
     6
  9
$UCSBASE
  2

  9
$UCSNAME
  2

  9
$UCSORG
 10
0.0
 20
0.0
 30
0.0
  9
$UCSXDIR
 10
1.0
 20
0.0
 30
0.0
  9
$UCSYDIR
 10
0.0
 20
1.0
 30
0.0
  9
$UCSORTHOREF
  2

  9
$UCSORTHOVIEW
 70
     0
  9
$UCSORGTOP
 10
0.0
 20
0.0
 30
0.0
  9
$UCSORGBOTTOM
 10
0.0
 20
0.0
 30
0.0
  9
$UCSORGLEFT
 10
0.0
 20
0.0
 30
0.0
  9
$UCSORGRIGHT
 10
0.0
 20
0.0
 30
0.0
  9
$UCSORGFRONT
 10
0.0
 20
0.0
 30
0.0
  9
$UCSORGBACK
 10
0.0
 20
0.0
 30
0.0
  9
$PUCSBASE
  2

  9
$PUCSNAME
  2

  9
$PUCSORG
 10
0.0
 20
0.0
 30
0.0
  9
$PUCSXDIR
 10
1.0
 20
0.0
 30
0.0
  9
$PUCSYDIR
 10
0.0
 20
1.0
 30
0.0
  9
$PUCSORTHOREF
  2

  9
$PUCSORTHOVIEW
 70
     0
  9
$PUCSORGTOP
 10
0.0
 20
0.0
 30
0.0
  9
$PUCSORGBOTTOM
 10
0.0
 20
0.0
 30
0.0
  9
$PUCSORGLEFT
 10
0.0
 20
0.0
 30
0.0
  9
$PUCSORGRIGHT
 10
0.0
 20
0.0
 30
0.0
  9
$PUCSORGFRONT
 10
0.0
 20
0.0
 30
0.0
  9
$PUCSORGBACK
 10
0.0
 20
0.0
 30
0.0
  9
$USERI1
 70
     0
  9
$USERI2
 70
     0
  9
$USERI3
 70
     0
  9
$USERI4
 70
     0
  9
$USERI5
 70
     0
  9
$USERR1
 40
0.0
  9
$USERR2
 40
0.0
  9
$USERR3
 40
0.0
  9
$USERR4
 40
0.0
  9
$USERR5
 40
0.0
  9
$WORLDVIEW
 70
     1
  9
$SHADEDGE
 70
     3
  9
$SHADEDIF
 70
    70
  9
$TILEMODE
 70
     1
  9
$MAXACTVP
 70
    64
  9
$PINSBASE
 10
0.0
 20
0.0
 30
0.0
  9
$PLIMCHECK
 70
     0
  9
$PEXTMIN
 10
1.000000000000000E+20
 20
1.000000000000000E+20
 30
1.000000000000000E+20
  9
$PEXTMAX
 10
-1.000000000000000E+20
 20
-1.000000000000000E+20
 30
-1.000000000000000E+20
  9
$PLIMMIN
 10
0.0
 20
0.0
  9
$PLIMMAX
 10
12.0
 20
9.0
  9
$UNITMODE
 70
     0
  9
$VISRETAIN
 70
     1
  9
$PLINEGEN
 70
     0
  9
$PSLTSCALE
 70
     1
  9
$TREEDEPTH
 70
  3020
  9
$CMLSTYLE
  2
Standard
  9
$CMLJUST
 70
     0
  9
$CMLSCALE
 40
1.0
  9
$PROXYGRAPHICS
 70
     1
  9
$MEASUREMENT
 70
     0
  9
$CELWEIGHT
370
    -1
  9
$ENDCAPS
280
     0
  9
$JOINSTYLE
280
     0
  9
$LWDISPLAY
290
     1
  9
$INSUNITS
 70
     4
  9
$HYPERLINKBASE
  1

  9
$STYLESHEET
  1

  9
$XEDIT
290
     1
  9
$CEPSNTYPE
380
     0
  9
$PSTYLEMODE
290
     1
  9
$FINGERPRINTGUID
  2
{0C11EE6F-42C1-4C5F-B86B-020333D2485E}
  9
$VERSIONGUID
  2
{FAEB1C32-E019-11D5-929B-00C0DF256EC4}
  9
$EXTNAMES
290
     1
  9
$PSVPSCALE
 40
0.0
  9
$OLESTARTUP
290
     0
  9
$SORTENTS
280
   127
  9
$INDEXCTL
280
     0
  9
$HIDETEXT
280
     1
  9
$XCLIPFRAME
290
     0
  9
$HALOGAP
280
     0
  9
$OBSCOLOR
 70
   257
  9
$OBSLTYPE
280
     0
  9
$INTERSECTIONDISPLAY
280
     0
  9
$INTERSECTIONCOLOR
 70
   257
  9
$DIMASSOC
280
     2
  9
$PROJECTNAME
  1

  0
ENDSEC
  0
SECTION
  2
CLASSES
  0
CLASS
  1
ACDBDICTIONARYWDFLT
  2
AcDbDictionaryWithDefault
  3
ObjectDBX Classes
 90
        0
 91
        4
280
     0
281
     0
  0
CLASS
  1
VISUALSTYLE
  2
AcDbVisualStyle
  3
ObjectDBX Classes
 90
     4095
 91
        4
280
     0
281
     0
  0
CLASS
  1
MATERIAL
  2
AcDbMaterial
  3
ObjectDBX Classes
 90
     1153
 91
        4
280
     0
281
     0
  0
CLASS
  1
WIPEOUT
  2
AcDbWipeout
  3
WipeOut|AutoCAD Express Tool|expresstools@autodesk.com
 90
      127
 91
        4
280
     0
281
     1
  0
CLASS
  1
SCALE
  2
AcDbScale
  3
ObjectDBX Classes
 90
     1153
 91
        4
280
     0
281
     0
  0
CLASS
  1
DICTIONARYVAR
  2
AcDbDictionaryVar
  3
ObjectDBX Classes
 90
        0
 91
        4
280
     0
281
     0
  0
ENDSEC
  0
SECTION
  2
TABLES
  0
TABLE
  2
VPORT
  5
8
330
0
100
AcDbSymbolTable
 70
     1
  0
VPORT
  5
29
330
8
100
AcDbSymbolTableRecord
100
AcDbViewportTableRecord
  2
*Active
 70
     0
 10
0.0
 20
0.0
 11
1.0
 21
1.0
 12
472.0929538233017
 22
421.7964780961663
 13
0.0
 23
0.0
 14
0.5
 24
0.5
 15
0.5
 25
0.5
 16
0.0
 26
0.0
 36
1.0
 17
0.0
 27
0.0
 37
0.0
 40
867.6517155612842
 41
1.125712232484215
 42
50.0
 43
0.0
 44
0.0
 50
0.0
 51
0.0
 71
     0
 72
   100
 73
     1
 74
     3
 75
     0
 76
     0
 77
     0
 78
     0
281
     0
 65
     1
110
0.0
120
0.0
130
0.0
111
1.0
121
0.0
131
0.0
112
0.0
122
1.0
132
0.0
 79
     0
146
0.0
  0
ENDTAB
  0
TABLE
  2
LTYPE
  5
5
330
0
100
AcDbSymbolTable
 70
     4
  0
LTYPE
  5
14
330
5
100
AcDbSymbolTableRecord
100
AcDbLinetypeTableRecord
  2
ByBlock
 70
     0
  3

 72
    65
 73
     0
 40
0.0
  0
LTYPE
  5
15
330
5
100
AcDbSymbolTableRecord
100
AcDbLinetypeTableRecord
  2
ByLayer
 70
     0
  3

 72
    65
 73
     0
 40
0.0
  0
LTYPE
  5
16
330
5
100
AcDbSymbolTableRecord
100
AcDbLinetypeTableRecord
  2
Continuous
 70
     0
  3
Solid line
 72
    65
 73
     0
 40
0.0
  0
LTYPE
  5
25E
330
5
100
AcDbSymbolTableRecord
100
AcDbLinetypeTableRecord
  2
Above
 70
     0
  3
- - - - - 
 72
    65
 73
     2
 40
15.0
 49
10.0
 74
     0
 49
-4.999999999999999
 74
     0
  0
LTYPE
  5
2B1
330
5
100
AcDbSymbolTableRecord
100
AcDbLinetypeTableRecord
  2
AStair_dashed
 70
     0
  3
- - - - - 
 72
    65
 73
     2
 40
18.00000000000001
 49
8.000000000000004
 74
     0
 49
-10.0
 74
     0
  0
LTYPE
  5
345
330
5
100
AcDbSymbolTableRecord
100
AcDbLinetypeTableRecord
  2
Wipeout_Contour
 70
     0
  3
- - - - - 
 72
    65
 73
     2
 40
1000.0
 49
0.0
 74
     0
 49
-1000.0
 74
     0
  0
ENDTAB
  0
TABLE
  2
LAYER
  5
2
330
0
100
AcDbSymbolTable
 70
     4
  0
LAYER
  5
10
330
2
100
AcDbSymbolTableRecord
100
AcDbLayerTableRecord
  2
0
 70
     0
 62
     7
  6
Continuous
370
    -3
390
F
  0
LAYER
  5
40
330
2
100
AcDbSymbolTableRecord
100
AcDbLayerTableRecord
  2
0_Pen_No__146
 70
     0
 62
     9
420
 13290186
  6
Continuous
370
     5
390
F
  0
LAYER
  5
4E
330
2
100
AcDbSymbolTableRecord
100
AcDbLayerTableRecord
  2
0_Pen_No__1
 70
     0
 62
     7
  6
Continuous
370
    13
390
F
  0
LAYER
  5
346
330
2
100
AcDbSymbolTableRecord
100
AcDbLayerTableRecord
  2
Key_ Sections_Pen_No__1
 70
     0
 62
     7
  6
Continuous
370
    13
390
F
  0
ENDTAB
  0
TABLE
  2
STYLE
  5
3
330
0
100
AcDbSymbolTable
 70
     2
  0
STYLE
  5
11
330
3
100
AcDbSymbolTableRecord
100
AcDbTextStyleTableRecord
  2
Standard
 70
     0
 40
0.0
 41
1.0
 50
0.0
 71
     0
 42
0.2
  3
txt
  4

  0
STYLE
  5
33B
330
3
100
AcDbSymbolTableRecord
100
AcDbTextStyleTableRecord
  2
GENERATED_STYLE_1
 70
     0
 40
0.0
 41
1.0
 50
0.0
 71
     0
 42
0.2
  3

  4

1001
ACAD
1000
Arial
1071
       34
  0
ENDTAB
  0
TABLE
  2
VIEW
  5
6
330
0
100
AcDbSymbolTable
 70
     0
  0
ENDTAB
  0
TABLE
  2
UCS
  5
7
330
0
100
AcDbSymbolTable
 70
     0
  0
ENDTAB
  0
TABLE
  2
APPID
  5
9
330
0
100
AcDbSymbolTable
 70
     1
  0
APPID
  5
12
330
9
100
AcDbSymbolTableRecord
100
AcDbRegAppTableRecord
  2
ACAD
 70
     0
  0
ENDTAB
  0
TABLE
  2
DIMSTYLE
  5
A
330
0
100
AcDbSymbolTable
 70
     3
100
AcDbDimStyleTable
  0
DIMSTYLE
105
27
330
A
100
AcDbSymbolTableRecord
100
AcDbDimStyleTableRecord
  2
Standard
 70
     0
178
     0
340
11
  0
DIMSTYLE
105
33E
102
{ACAD_REACTORS
330
33D
102
}
330
A
100
AcDbSymbolTableRecord
100
AcDbDimStyleTableRecord
  2
GENERATED_STYLE__1
 70
     0
 41
10.23882825346851
 42
0.0
 73
     0
 74
     0
 75
     1
 76
     1
 77
     1
140
12.5
172
     1
176
     7
177
     7
271
     0
178
     7
271
     0
279
     2
288
     1
340
33B
342
33F
343
33F
344
33F
  0
DIMSTYLE
105
349
330
A
100
AcDbSymbolTableRecord
100
AcDbDimStyleTableRecord
  2
GENERATED_STYLE__2
 70
     0
 41
9.12
172
     1
178
     0
340
0
341
34A
  0
ENDTAB
  0
TABLE
  2
BLOCK_RECORD
  5
1
330
0
100
AcDbSymbolTable
 70
     5
  0
BLOCK_RECORD
  5
1F
330
1
100
AcDbSymbolTableRecord
100
AcDbBlockTableRecord
  2
*Model_Space
340
22
  0
BLOCK_RECORD
  5
1B
330
1
100
AcDbSymbolTableRecord
100
AcDbBlockTableRecord
  2
*Paper_Space
340
1E
  0
BLOCK_RECORD
  5
23
330
1
100
AcDbSymbolTableRecord
100
AcDbBlockTableRecord
  2
*Paper_Space0
340
26
  0
BLOCK_RECORD
  5
333
330
1
100
AcDbSymbolTableRecord
100
AcDbBlockTableRecord
  2
*D1
340
0
  0
BLOCK_RECORD
  5
33F
330
1
100
AcDbSymbolTableRecord
100
AcDbBlockTableRecord
  2
ARROWHEAD_2
340
0
  0
BLOCK_RECORD
  5
34A
330
1
100
AcDbSymbolTableRecord
100
AcDbBlockTableRecord
  2
ARROWHEAD_5
340
0
  0
BLOCK_RECORD
  5
373
330
1
100
AcDbSymbolTableRecord
100
AcDbBlockTableRecord
  2
DC-19-T Gutter   Wall Junction_STORY_MARKER
340
0
  0
ENDTAB
  0
ENDSEC
  0
SECTION
  2
BLOCKS
  0
BLOCK
  5
20
330
1F
100
AcDbEntity
  8
0
100
AcDbBlockBegin
  2
*Model_Space
 70
     0
 10
0.0
 20
0.0
 30
0.0
  3
*Model_Space
  1

  0
ENDBLK
  5
21
330
1F
100
AcDbEntity
  8
0
100
AcDbBlockEnd
  0
BLOCK
  5
1C
330
1B
100
AcDbEntity
 67
     1
  8
0
100
AcDbBlockBegin
  2
*Paper_Space
 70
     0
 10
0.0
 20
0.0
 30
0.0
  3
*Paper_Space
  1

  0
ENDBLK
  5
1D
330
1B
100
AcDbEntity
 67
     1
  8
0
100
AcDbBlockEnd
  0
BLOCK
  5
24
330
23
100
AcDbEntity
  8
0
100
AcDbBlockBegin
  2
*Paper_Space0
 70
     0
 10
0.0
 20
0.0
 30
0.0
  3
*Paper_Space0
  1

  0
ENDBLK
  5
25
330
23
100
AcDbEntity
  8
0
100
AcDbBlockEnd
  0
BLOCK
  5
334
330
333
100
AcDbEntity
  8
0
100
AcDbBlockBegin
  2
*D1
 70
     1
 10
0.0
 20
0.0
 30
0.0
  3
*D1
  1

  0
LINE
  5
336
330
333
100
AcDbEntity
  8
0_Pen_No__1
  6
Continuous
100
AcDbLine
 10
29.57540836249064
 20
147.6459613342828
 30
0.0
 11
35.28067776039914
 21
144.3520224972069
 31
0.0
  0
LINE
  5
337
330
333
100
AcDbEntity
  8
0_Pen_No__1
  6
Continuous
100
AcDbLine
 10
35.28067776039914
 20
144.3520224972069
 30
0.0
 11
43.9409317887823
 21
139.35202248082
 31
0.0
  0
LINE
  5
338
330
333
100
AcDbEntity
  8
0_Pen_No__1
  6
Continuous
100
AcDbLine
 10
42.01674741679829
 20
148.2410959228947
 30
0.0
 11
28.54460810399999
 21
140.4629490715189
 31
0.0
  0
LINE
  5
339
330
333
100
AcDbEntity
  8
0_Pen_No__1
  6
Continuous
100
AcDbLine
 10
37.20486213238315
 20
135.4629490551321
 30
0.0
 11
50.67700144518145
 21
143.2410959065079
 31
0.0
  0
LINE
  5
33A
330
333
100
AcDbEntity
  8
0_Pen_No__1
  6
Continuous
100
AcDbLine
 10
43.9409317887823
 20
139.35202248082
 30
0.0
 11
49.6462011866908
 21
136.0580836437441
 31
0.0
  0
MTEXT
  5
33C
330
333
100
AcDbEntity
  8
0_Pen_No__1
100
AcDbMText
 10
9.299915646865983
 20
129.3520224972069
 30
0.0
 40
12.5
 41
0.0
 71
     7
 72
     1
  1
{10mm min}
  7
GENERATED_STYLE_1
 11
0.8660254028383338
 21
-0.5000000016387015
 31
0.0
 73
     1
 44
1.0
  0
ENDBLK
  5
335
330
333
100
AcDbEntity
  8
0
100
AcDbBlockEnd
  0
BLOCK
  5
340
330
33F
100
AcDbEntity
  8
0
100
AcDbBlockBegin
  2
ARROWHEAD_2
 70
     0
 10
0.0
 20
0.0
 30
0.0
  3
ARROWHEAD_2
  1

  0
LINE
  5
342
330
33F
100
AcDbEntity
  8
0
  6
Continuous
 62
     0
370
     0
100
AcDbLine
 10
-0.3781315
 20
-0.655
 30
0.0
 11
0.3781315
 21
0.655
 31
0.0
  0
LINE
  5
343
330
33F
100
AcDbEntity
  8
0
  6
Continuous
 62
     0
370
     0
100
AcDbLine
 10
0.0
 20
0.0
 30
0.0
 11
-1.0
 21
0.0
 31
0.0
  0
ENDBLK
  5
341
330
33F
100
AcDbEntity
  8
0
100
AcDbBlockEnd
  0
BLOCK
  5
34B
330
34A
100
AcDbEntity
  8
0
100
AcDbBlockBegin
  2
ARROWHEAD_5
 70
     0
 10
0.0
 20
0.0
 30
0.0
  3
ARROWHEAD_5
  1

  0
SOLID
  5
34D
330
34A
100
AcDbEntity
  8
0
  6
Continuous
 62
     0
370
     0
100
AcDbTrace
 10
-1.0
 20
0.2679
 30
0.0
 11
0.0
 21
0.0
 31
0.0
 12
-1.0
 22
-0.2679
 32
0.0
 13
-1.0
 23
0.2679
 33
0.0
  0
LINE
  5
34E
330
34A
100
AcDbEntity
  8
0
  6
Continuous
 62
     0
370
     0
100
AcDbLine
 10
0.0
 20
0.0
 30
0.0
 11
-1.0
 21
0.0
 31
0.0
  0
ENDBLK
  5
34C
330
34A
100
AcDbEntity
  8
0
100
AcDbBlockEnd
  0
BLOCK
  5
374
330
373
100
AcDbEntity
  8
0
100
AcDbBlockBegin
  2
DC-19-T Gutter   Wall Junction_STORY_MARKER
 70
     0
 10
0.0
 20
0.0
 30
0.0
  3
DC-19-T Gutter   Wall Junction_STORY_MARKER
  1

  0
ENDBLK
  5
375
330
373
100
AcDbEntity
  8
0
100
AcDbBlockEnd
  0
ENDSEC
  0
SECTION
  2
ENTITIES
  0
HATCH
  5
3F
330
1F
100
AcDbEntity
  8
0_Pen_No__146
  6
Continuous
 62
   250
420
  3289650
370
     0
100
AcDbHatch
 10
0.0
 20
0.0
 30
0.0
210
0.0
220
0.0
230
1.0
  2
SOLID
 70
     1
 71
     0
 91
        1
 92
        3
 72
     0
 73
     1
 93
        5
 10
308.277521538458
 20
480.1914531737124
 10
306.8610312036316
 20
471.6158184730925
 10
312.2865577869257
 20
468.483389226044
 10
312.584390790846
 20
468.7159834389816
 10
315.3984270886737
 20
485.7525609087601
 97
        0
 75
     0
 76
     1
 98
        0
  0
HATCH
  5
41
330
1F
100
AcDbEntity
  8
0_Pen_No__146
  6
Continuous
 62
   250
420
  3289650
370
     0
100
AcDbHatch
 10
0.0
 20
0.0
 30
0.0
210
0.0
220
0.0
230
1.0
  2
SOLID
 70
     1
 71
     0
 91
        1
 92
        3
 72
     0
 73
     1
 93
        6
 10
313.9192577339748
 20
514.3473294974024
 10
308.277521538458
 20
480.1914531737124
 10
315.3984270886737
 20
485.7525609087601
 10
319.9814355339775
 20
513.4987482921081
 10
319.9814355339775
 20
528.6551100322165
 10
313.9192577339748
 20
525.1551100322142
 97
        0
 75
     0
 76
     1
 98
        0
  0
HATCH
  5
42
330
1F
100
AcDbEntity
  8
0_Pen_No__146
  6
Continuous
 62
   250
420
  3289650
370
     0
100
AcDbHatch
 10
0.0
 20
0.0
 30
0.0
210
0.0
220
0.0
230
1.0
  2
SOLID
 70
     1
 71
     0
 91
        1
 92
        3
 72
     0
 73
     1
 93
        5
 10
308.6257747984299
 20
369.4439878590867
 10
314.6879525984353
 20
365.943987859084
 10
310.1109360655293
 20
414.6213431432491
 10
309.9682521180872
 20
411.4437694375958
 10
304.3058966180275
 20
414.7129319240883
 97
        0
 75
     0
 76
     1
 98
        0
  0
HATCH
  5
43
330
1F
100
AcDbEntity
  8
0_Pen_No__146
  6
Continuous
 62
   250
420
  3289650
370
     0
100
AcDbHatch
 10
0.0
 20
0.0
 30
0.0
210
0.0
220
0.0
230
1.0
  2
SOLID
 70
     1
 71
     0
 91
        1
 92
        3
 72
     0
 73
     1
 93
        4
 10
310.8252487292161
 20
430.5290971579763
 10
304.8049805060543
 20
425.827537792135
 10
304.305896618028
 20
414.7129319240883
 10
309.9682521180872
 20
411.4437694375958
 97
        0
 75
     0
 76
     1
 98
        0
  0
HATCH
  5
44
330
1F
100
AcDbEntity
  8
0_Pen_No__146
  6
Continuous
 62
   250
420
  3289650
370
     0
100
AcDbHatch
 10
0.0
 20
0.0
 30
0.0
210
0.0
220
0.0
230
1.0
  2
SOLID
 70
     1
 71
     0
 91
        1
 92
        3
 72
     0
 73
     1
 93
        5
 10
306.5180882369337
 20
463.9784733262857
 10
304.8049805060543
 20
425.827537792135
 10
310.8252487292161
 20
430.5290971579763
 10
312.5233867036918
 20
468.3466559865996
 10
312.2865577869257
 20
468.483389226044
 97
        0
 75
     0
 76
     1
 98
        0
  0
HATCH
  5
45
330
1F
100
AcDbEntity
  8
0_Pen_No__146
  6
Continuous
 62
   250
420
  3289650
370
     0
100
AcDbHatch
 10
0.0
 20
0.0
 30
0.0
210
0.0
220
0.0
230
1.0
  2
SOLID
 70
     1
 71
     0
 91
        1
 92
        3
 72
     0
 73
     1
 93
        9
 10
313.9192577339748
 20
525.1551100322142
 10
319.9814355339775
 20
528.6551100322165
 10
319.981435533977
 20
529.8269940202969
 10
324.9059583492578
 20
526.9838194348395
 10
324.9059583492583
 20
531.5640879193144
 10
324.6915871077983
 20
533.8439628134222
 10
322.2756368939782
 20
535.2388123258154
 10
322.2756368939782
 20
533.3177837258985
 10
313.9192577339743
 20
538.1423415044602
 97
        0
 75
     0
 76
     1
 98
        0
  0
HATCH
  5
46
330
1F
100
AcDbEntity
  8
0_Pen_No__146
  6
Continuous
 62
   250
420
  3289650
370
     0
100
AcDbHatch
 10
0.0
 20
0.0
 30
0.0
210
0.0
220
0.0
230
1.0
  2
SOLID
 70
     1
 71
     0
 91
        1
 92
        3
 72
     0
 73
     1
 93
       16
 10
323.4893645006166
 20
546.6298062901805
 10
314.785283133978
 20
551.6551100322171
 10
314.785283133978
 20
538.8549504697495
 10
320.8474609339692
 20
535.3549504697548
 10
320.8474609339692
 20
541.1551100322237
 10
324.1853402907443
 20
539.2279844786456
 10
324.6915871077983
 20
533.8439628134222
 10
324.9059583492583
 20
533.7201955189179
 10
324.9059583492583
 20
531.5640879193144
 10
326.1738425482349
 20
518.0799221599783
 10
320.8474609339692
 20
521.1551100322189
 10
320.8474609339688
 20
514.1551100322208
 10
332.9718165339756
 20
507.1551100322167
 10
328.5616154370009
 20
554.0583545646903
 10
322.8992599369417
 20
557.3275170511827
 10
323.8779929521346
 20
546.9185236891497
 97
        0
 75
     0
 76
     1
 98
        0
  0
HATCH
  5
47
330
1F
100
AcDbEntity
  8
0_Pen_No__146
  6
Continuous
 62
   250
420
  3289650
370
     0
100
AcDbHatch
 10
0.0
 20
0.0
 30
0.0
210
0.0
220
0.0
230
1.0
  2
SOLID
 70
     1
 71
     0
 91
        1
 92
        3
 72
     0
 73
     1
 93
        5
 10
315.0893961069013
 20
580.012812428877
 10
309.9850738312741
 20
582.9597942816189
 10
322.9443428117132
 20
556.8480529512068
 10
322.8992599369417
 20
557.3275170511827
 10
328.5616154370009
 20
554.0583545646903
 97
        0
 75
     0
 76
     1
 98
        0
  0
HATCH
  5
48
330
1F
100
AcDbEntity
  8
0_Pen_No__146
  6
Continuous
 62
   250
420
  3289650
370
     0
100
AcDbHatch
 10
0.0
 20
0.0
 30
0.0
210
0.0
220
0.0
230
1.0
  2
SOLID
 70
     1
 71
     0
 91
        1
 92
        3
 72
     0
 73
     1
 93
        4
 10
307.3836308709604
 20
604.2902186352961
 10
301.7212752027446
 20
607.5593809559215
 10
309.6098832765767
 20
583.1764105084354
 10
315.2722385327434
 20
579.9072481878101
 97
        0
 75
     0
 76
     1
 98
        0
  0
HATCH
  5
49
330
1F
100
AcDbEntity
  8
0_Pen_No__146
  6
Continuous
 62
   250
420
  3289650
370
     0
100
AcDbHatch
 10
0.0
 20
0.0
 30
0.0
210
0.0
220
0.0
230
1.0
  2
SOLID
 70
     1
 71
     0
 91
        1
 92
        3
 72
     0
 73
     1
 93
       10
 10
291.556527249646
 20
622.76824671669
 10
287.7773532658135
 20
623.0704877086937
 10
301.7663580775175
 20
607.0799168559457
 10
309.6549661098059
 20
582.6969465743266
 10
315.0063324622189
 20
572.2881138137948
 10
315.2045909615911
 20
572.4429448063735
 10
309.9850738312741
 20
582.9597942816189
 10
309.6098832350326
 20
583.1764106743029
 10
301.7212752027442
 20
607.5593809559217
 10
307.3836307028038
 20
604.2902184694294
 97
        0
 75
     0
 76
     1
 98
        0
  0
HATCH
  5
4A
330
1F
100
AcDbEntity
  8
0_Pen_No__146
  6
Continuous
 62
   250
420
  3289650
370
     0
100
AcDbHatch
 10
0.0
 20
0.0
 30
0.0
210
0.0
220
0.0
230
1.0
  2
SOLID
 70
     1
 71
     0
 91
        1
 92
        3
 72
     0
 73
     1
 93
       26
 10
-0.632196682210262
 20
725.5835750146999
 10
-0.632196682210262
 20
742.5373422074038
 10
4.292326133070512
 20
739.6941676219468
 10
4.292326133070512
 20
746.430543706025
 10
1.662004677789986
 20
747.9491605129227
 10
1.662004677789986
 20
746.028131913006
 10
-6.694374482213439
 20
750.8526896915674
 10
-6.694374482213439
 20
727.0576776845086
 10
5.560210332046012
 20
598.3534587808437
 10
-6.694374482214105
 20
605.4286466530812
 10
-6.654813946377347
 20
597.6074071582665
 10
2.875732284428389
 20
496.248414549427
 10
-5.828349082209971
 20
501.2737182914639
 10
-5.828349082209971
 20
488.4735587289959
 10
0.2338287177807707
 20
484.9735587290014
 10
0.2338287177809928
 20
490.77371829147
 10
3.571708074556312
 20
488.8465927378924
 10
4.077954891609892
 20
483.4625710726688
 10
4.292326133070068
 20
483.3388037781643
 10
4.292326133070068
 20
481.1826961785568
 10
5.560210332046234
 20
467.6985304192254
 10
0.2338287177812148
 20
470.7737182914657
 10
0.2338287177809928
 20
463.7737182914672
 10
12.35818431778779
 20
456.7737182914631
 10
-0.6321966822107061
 20
594.9286466530806
 10
12.35818431778823
 20
587.4286466530809
 97
        0
 75
     0
 76
     1
 98
        0
  0
HATCH
  5
4B
330
1F
100
AcDbEntity
  8
0_Pen_No__146
  6
Continuous
 62
   250
420
  3289650
370
     0
100
AcDbHatch
 10
0.0
 20
0.0
 30
0.0
210
0.0
220
0.0
230
1.0
  2
SOLID
 70
     1
 71
     0
 91
        1
 92
        3
 72
     0
 73
     1
 93
       27
 10
-6.694374482213661
 20
463.9659377566474
 10
5.560210332046234
 20
335.2617188529829
 10
-6.694374482214327
 20
342.3369067252209
 10
-6.654813946377569
 20
334.515667230402
 10
2.875732284428167
 20
233.1566746215665
 10
-5.828349082209971
 20
238.1819783636032
 10
-5.828349082209971
 20
225.3818188011352
 10
0.2338287177807707
 20
221.8818188011404
 10
0.2338287177809928
 20
227.6819783636097
 10
3.571708074556534
 20
225.7548528100317
 10
4.14246592276446
 20
219.684745271908
 10
4.292326133070512
 20
219.5982234387688
 10
4.292326133070512
 20
218.0909562506954
 10
5.560210332046234
 20
204.6067904913644
 10
0.2338287177812148
 20
207.6819783636055
 10
0.2338287177809928
 20
200.6819783636067
 10
12.35818431778779
 20
193.6819783636024
 10
-0.6321966822109282
 20
331.8369067252203
 10
12.35818431778801
 20
324.3369067252213
 10
-0.6321966822107061
 20
462.4918350868405
 10
-0.6321966822107061
 20
479.4456022795433
 10
4.292326133070068
 20
476.6024276940859
 10
4.292326133070068
 20
481.1826961785568
 10
4.077954891609892
 20
483.4625710726688
 10
1.662004677789986
 20
484.8574205850617
 10
1.662004677789986
 20
482.9363919851451
 10
-6.694374482213883
 20
487.7609497637065
 97
        0
 75
     0
 76
     1
 98
        0
  0
HATCH
  5
4C
330
1F
100
AcDbEntity
  8
0_Pen_No__146
  6
Continuous
 62
   250
420
  3289650
370
     0
100
AcDbHatch
 10
0.0
 20
0.0
 30
0.0
210
0.0
220
0.0
230
1.0
  2
SOLID
 70
     1
 71
     0
 91
        1
 92
        3
 72
     0
 73
     1
 93
       16
 10
5.560210332046456
 20
71.52113851358699
 10
-6.694374482214327
 20
78.59632638582514
 10
-6.654813946377569
 20
70.77508689101042
 10
0.0
 20
0.0
 10
6.101998195615188
 20
-3.522990316227492
 10
-0.6321966822107061
 20
68.09632638582409
 10
12.35818431778846
 20
60.59632638582579
 10
-0.63219668221004
 20
198.7512547474439
 10
-0.632196682210262
 20
215.7050219401475
 10
4.292326133070512
 20
212.8618473546906
 10
4.292326133070512
 20
218.0909562506954
 10
4.14246592276446
 20
219.684745271908
 10
1.662004677789986
 20
221.1168402456663
 10
1.662004677789986
 20
219.1958116457498
 10
-6.694374482213439
 20
224.0203694243112
 10
-6.694374482213439
 20
200.2253574172537
 97
        0
 75
     0
 76
     1
 98
        0
  0
HATCH
  5
4D
330
1F
100
AcDbEntity
  8
0_Pen_No__146
  6
Continuous
 62
   250
420
  3289650
370
     0
100
AcDbHatch
 10
0.0
 20
0.0
 30
0.0
210
0.0
220
0.0
230
1.0
  2
SOLID
 70
     1
 71
     1
 91
        1
 92
        3
 72
     0
 73
     1
 93
        8
 10
301.076177208627
 20
369.7993478128192
 10
300.0761772091285
 20
368.067297006119
 10
315.9754488103301
 20
358.8878483123914
 10
315.9754488103301
 20
355.6981873313479
 10
317.9754488103304
 20
354.5476533161261
 10
317.9754488103304
 20
384.5439343693185
 10
315.9754488103301
 20
385.6986349076977
 10
315.9754488103301
 20
361.1972493438494
 97
        1
330
4F
 75
     0
 76
     1
 98
        0
  0
LWPOLYLINE
  5
4F
102
{ACAD_REACTORS
330
4D
102
}
330
1F
100
AcDbEntity
  8
0_Pen_No__1
  6
Continuous
100
AcDbPolyline
 90
        8
 70
   129
 43
0.0
 10
301.076177208627
 20
369.7993478128192
 10
300.0761772091285
 20
368.067297006119
 10
315.9754488103301
 20
358.8878483123914
 10
315.9754488103301
 20
355.6981873313479
 10
317.9754488103304
 20
354.5476533161261
 10
317.9754488103304
 20
384.5439343693185
 10
315.9754488103301
 20
385.6986349076977
 10
315.9754488103301
 20
361.1972493438494
  0
HATCH
  5
50
330
1F
100
AcDbEntity
  8
0_Pen_No__146
  6
Continuous
 62
   250
420
  3289650
370
     0
100
AcDbHatch
 10
0.0
 20
0.0
 30
0.0
210
0.0
220
0.0
230
1.0
  2
SOLID
 70
     1
 71
     1
 91
        1
 92
        3
 72
     0
 73
     1
 93
       11
 10
297.6050006661271
 20
366.8846305055453
 10
309.8633311180954
 20
359.807280119286
 10
310.8633310733917
 20
361.5393308494261
 10
299.6050009790516
 20
368.039330760019
 10
299.6050009790516
 20
370.9260822092056
 10
310.8633310733917
 20
364.4260822986126
 10
311.8633310286883
 20
366.1581330287527
 10
306.3004473776463
 20
369.3698654021524
 10
299.6050009790516
 20
374.1666490252945
 10
299.6050009790516
 20
431.9070837750914
 10
297.6050006661271
 20
433.0617844941378
 97
        1
330
51
 75
     0
 76
     1
 98
        0
  0
LWPOLYLINE
  5
51
102
{ACAD_REACTORS
330
50
102
}
330
1F
100
AcDbEntity
  8
0_Pen_No__1
  6
Continuous
100
AcDbPolyline
 90
       11
 70
   129
 43
0.0
 10
297.6050006661271
 20
366.8846305055453
 10
309.8633311180954
 20
359.807280119286
 10
310.8633310733917
 20
361.5393308494261
 10
299.6050009790516
 20
368.039330760019
 10
299.6050009790516
 20
370.9260822092056
 10
310.8633310733917
 20
364.4260822986126
 10
311.8633310286883
 20
366.1581330287527
 10
306.3004473776463
 20
369.3698654021524
 10
299.6050009790516
 20
374.1666490252945
 10
299.6050009790516
 20
431.9070837750914
 10
297.6050006661271
 20
433.0617844941378
  0
LINE
  5
52
330
1F
100
AcDbEntity
  8
0_Pen_No__1
  6
Continuous
100
AcDbLine
 10
105.0349584564706
 20
378.6915428383346
 30
0.0
 11
105.0849584564707
 21
378.6915428383346
 31
0.0
  0
LWPOLYLINE
  5
53
330
1F
100
AcDbEntity
  8
0_Pen_No__1
  6
Continuous
100
AcDbPolyline
 90
        2
 70
   128
 43
0.0
 10
308.6257747984299
 20
369.4439878590869
 10
314.6879525984357
 20
365.943987859084
  0
LWPOLYLINE
  5
54
330
1F
100
AcDbEntity
  8
0_Pen_No__1
  6
Continuous
100
AcDbPolyline
 90
        2
 70
   128
 43
0.0
 10
110.3639427506103
 20
380.9205580950552
 10
12.35818431778823
 20
324.3369067252208
  0
LWPOLYLINE
  5
55
330
1F
100
AcDbEntity
  8
0_Pen_No__1
  6
Continuous
100
AcDbPolyline
 90
        2
 70
   128
 43
0.0
 10
322.8992599369412
 20
557.3275170511827
 10
323.8779929521346
 20
546.9185236891497
  0
LWPOLYLINE
  5
56
330
1F
100
AcDbEntity
  8
0_Pen_No__1
  6
Continuous
100
AcDbPolyline
 90
        2
 70
   128
 43
0.0
 10
328.5616154370009
 20
554.0583545646903
 10
322.8992599369412
 20
557.3275170511827
  0
LWPOLYLINE
  5
57
330
1F
100
AcDbEntity
  8
0_Pen_No__1
  6
Continuous
100
AcDbPolyline
 90
        2
 70
   128
 43
0.0
 10
695.500282128817
 20
716.4610181469421
 10
332.9718165339756
 20
507.1551100322163
  0
LWPOLYLINE
  5
58
330
1F
100
AcDbEntity
  8
0_Pen_No__1
  6
Continuous
100
AcDbPolyline
 90
        2
 70
   128
 43
0.0
 10
315.2722387350927
 20
579.9072481878103
 10
309.609883235033
 20
583.1764106743027
  0
LWPOLYLINE
  5
59
330
1F
100
AcDbEntity
  8
0_Pen_No__1
  6
Continuous
100
AcDbPolyline
 90
        2
 70
   128
 43
0.0
 10
307.3836307028043
 20
604.290218469429
 10
301.7212752027446
 20
607.5593809559215
  0
LWPOLYLINE
  5
5A
330
1F
100
AcDbEntity
  8
0_Pen_No__1
  6
Continuous
100
AcDbPolyline
 90
        2
 70
   128
 43
0.0
 10
314.6879525984357
 20
365.943987859084
 10
310.1109360655288
 20
414.6213431432521
  0
LWPOLYLINE
  5
5B
330
1F
100
AcDbEntity
  8
0_Pen_No__1
  6
Continuous
100
AcDbPolyline
 90
        2
 70
   128
 43
0.0
 10
695.5002821288175
 20
847.1159465085605
 10
305.0495902465723
 20
621.6891334599821
  0
LWPOLYLINE
  5
5C
330
1F
100
AcDbEntity
  8
0_Pen_No__1
  6
Continuous
100
AcDbPolyline
 90
        2
 70
   128
 43
0.0
 10
6.101998195615188
 20
-3.522990316227492
 10
-0.6321966822107061
 20
68.09632638582409
  0
LWPOLYLINE
  5
5D
330
1F
100
AcDbEntity
  8
0_Pen_No__1
  6
Continuous
100
AcDbPolyline
 90
        2
 70
   128
 43
0.0
 10
304.305896618028
 20
414.7129319240885
 10
308.6257747984299
 20
369.4439878590869
  0
LWPOLYLINE
  5
5E
330
1F
100
AcDbEntity
  8
0_Pen_No__1
  6
Continuous
100
AcDbPolyline
 90
        2
 70
   128
 43
0.0
 10
309.9682521180877
 20
411.4437694375956
 10
304.305896618028
 20
414.7129319240881
  0
LWPOLYLINE
  5
5F
330
1F
100
AcDbEntity
  8
0_Pen_No__1
  6
Continuous
100
AcDbPolyline
 90
        2
 70
   128
 43
0.0
 10
312.5233867036913
 20
468.3466559865998
 10
306.8610312036321
 20
471.6158184730923
  0
LWPOLYLINE
  5
60
330
1F
100
AcDbEntity
  8
0_Pen_No__1
  6
Continuous
100
AcDbPolyline
 90
        2
 70
   128
 43
0.0
 10
150.6453539478917
 20
273.5221134331542
 10
12.35818431778779
 20
193.6819783636026
  0
LWPOLYLINE
  5
61
330
1F
100
AcDbEntity
  8
0_Pen_No__1
  6
Continuous
100
AcDbPolyline
 90
        2
 70
   128
 43
0.0
 10
319.9814355339775
 20
513.4987482921081
 10
319.9814355339775
 20
529.8269940202966
  0
LWPOLYLINE
  5
62
330
1F
100
AcDbEntity
  8
0_Pen_No__1
  6
Continuous
100
AcDbPolyline
 90
        2
 70
   128
 43
0.0
 10
-6.654813946377347
 20
70.77508689100954
 10
0.000000000000222
 20
0.0
  0
LWPOLYLINE
  5
63
330
1F
100
AcDbEntity
  8
0_Pen_No__1
  6
Continuous
100
AcDbPolyline
 90
        2
 70
   128
 43
0.0
 10
310.5975654268759
 20
494.2373300761669
 10
296.6396991030921
 20
486.1787521616023
  0
LWPOLYLINE
  5
64
330
1F
100
AcDbEntity
  8
0_Pen_No__1
  6
Continuous
100
AcDbPolyline
 90
        2
 70
   128
 43
0.0
 10
6.10199819561541
 20
-3.522990316227936
 10
0.000000000000222
 20
0.0
  0
LWPOLYLINE
  5
65
330
1F
100
AcDbEntity
  8
0_Pen_No__1
  6
Continuous
100
AcDbPolyline
 90
        2
 70
   128
 43
0.0
 10
319.9814355339775
 20
529.8269940202966
 10
324.9059583492583
 20
526.9838194348393
  0
LWPOLYLINE
  5
66
330
1F
100
AcDbEntity
  8
0_Pen_No__1
  6
Continuous
100
AcDbPolyline
 90
        2
 70
   128
 43
0.0
 10
324.9059583492583
 20
526.9838194348393
 10
324.9059583492583
 20
533.7201955189179
  0
LWPOLYLINE
  5
67
330
1F
100
AcDbEntity
  8
0_Pen_No__1
  6
Continuous
100
AcDbPolyline
 90
        2
 70
   128
 43
0.0
 10
324.9059583492583
 20
533.7201955189179
 10
322.2756368939782
 20
535.2388123258154
  0
LWPOLYLINE
  5
68
330
1F
100
AcDbEntity
  8
0_Pen_No__1
  6
Continuous
100
AcDbPolyline
 90
        2
 70
   128
 43
0.0
 10
322.2756368939782
 20
535.2388123258154
 10
322.2756368939782
 20
533.3177837258985
  0
LWPOLYLINE
  5
69
330
1F
100
AcDbEntity
  8
0_Pen_No__1
  6
Continuous
100
AcDbPolyline
 90
        2
 70
   128
 43
0.0
 10
322.2756368939782
 20
533.3177837258985
 10
313.9192577339743
 20
538.1423415044602
  0
LWPOLYLINE
  5
6A
330
1F
100
AcDbEntity
  8
0_Pen_No__1
  6
Continuous
100
AcDbPolyline
 90
        2
 70
   128
 43
0.0
 10
313.9192577339743
 20
538.1423415044602
 10
313.9192577339743
 20
514.3473294974021
  0
LWPOLYLINE
  5
6B
330
1F
100
AcDbEntity
  8
0_Pen_No__1
  6
Continuous
100
AcDbPolyline
 90
        2
 70
   128
 43
0.0
 10
319.9814355339775
 20
512.8732268275924
 10
321.5245916490098
 20
513.7641684299015
  0
LWPOLYLINE
  5
6C
330
1F
100
AcDbEntity
  8
0_Pen_No__1
  6
Continuous
100
AcDbPolyline
 90
        2
 70
   128
 43
0.0
 10
324.9059583492583
 20
526.9838194348393
 10
325.3144541918948
 20
527.2196646205791
  0
LWPOLYLINE
  5
6D
330
1F
100
AcDbEntity
  8
0_Pen_No__1
  6
Continuous
100
AcDbPolyline
 90
        2
 70
   128
 43
0.0
 10
322.2756368939782
 20
535.2388123258154
 10
324.4427849998658
 20
536.490015873591
  0
LWPOLYLINE
  5
6E
330
1F
100
AcDbEntity
  8
0_Pen_No__1
  6
Continuous
100
AcDbPolyline
 90
        2
 70
   128
 43
0.0
 10
313.9192577339743
 20
538.1423415044602
 10
314.9694078981703
 20
538.7486459870976
  0
LWPOLYLINE
  5
6F
330
1F
100
AcDbEntity
  8
0_Pen_No__1
  6
Continuous
100
AcDbPolyline
 90
        2
 70
   128
 43
0.0
 10
323.4893645006166
 20
546.6298062901805
 10
314.785283133978
 20
551.6551100322173
  0
LWPOLYLINE
  5
70
330
1F
100
AcDbEntity
  8
0_Pen_No__1
  6
Continuous
100
AcDbPolyline
 90
        2
 70
   128
 43
0.0
 10
314.785283133978
 20
551.6551100322173
 10
314.785283133978
 20
538.8549504697495
  0
LWPOLYLINE
  5
71
330
1F
100
AcDbEntity
  8
0_Pen_No__1
  6
Continuous
100
AcDbPolyline
 90
        2
 70
   128
 43
0.0
 10
314.785283133978
 20
538.8549504697495
 10
320.8474609339692
 20
535.3549504697546
  0
LWPOLYLINE
  5
72
330
1F
100
AcDbEntity
  8
0_Pen_No__1
  6
Continuous
100
AcDbPolyline
 90
        2
 70
   128
 43
0.0
 10
320.8474609339692
 20
535.3549504697546
 10
320.8474609339692
 20
541.1551100322237
  0
LWPOLYLINE
  5
73
330
1F
100
AcDbEntity
  8
0_Pen_No__1
  6
Continuous
100
AcDbPolyline
 90
        2
 70
   128
 43
0.0
 10
320.8474609339692
 20
541.1551100322237
 10
324.1853402907448
 20
539.2279844786456
  0
LWPOLYLINE
  5
74
330
1F
100
AcDbEntity
  8
0_Pen_No__1
  6
Continuous
100
AcDbPolyline
 90
        2
 70
   128
 43
0.0
 10
324.1853402907448
 20
539.2279844786456
 10
326.1738425482345
 20
518.0799221599785
  0
LWPOLYLINE
  5
75
330
1F
100
AcDbEntity
  8
0_Pen_No__1
  6
Continuous
100
AcDbPolyline
 90
        2
 70
   128
 43
0.0
 10
326.1738425482345
 20
518.0799221599785
 10
320.8474609339692
 20
521.1551100322191
  0
LWPOLYLINE
  5
76
330
1F
100
AcDbEntity
  8
0_Pen_No__1
  6
Continuous
100
AcDbPolyline
 90
        2
 70
   128
 43
0.0
 10
320.8474609339692
 20
521.1551100322191
 10
320.8474609339692
 20
514.1551100322206
  0
LWPOLYLINE
  5
77
330
1F
100
AcDbEntity
  8
0_Pen_No__1
  6
Continuous
100
AcDbPolyline
 90
        2
 70
   128
 43
0.0
 10
320.8474609339692
 20
514.1551100322206
 10
332.971816533976
 20
507.1551100322165
  0
LWPOLYLINE
  5
78
330
1F
100
AcDbEntity
  8
0_Pen_No__1
  6
Continuous
100
AcDbPolyline
 90
        2
 70
   128
 43
0.0
 10
314.785283133978
 20
551.6551100322173
 10
322.5929909829616
 20
556.1628922802804
  0
LWPOLYLINE
  5
79
330
1F
100
AcDbEntity
  8
0_Pen_No__1
  6
Continuous
100
AcDbPolyline
 90
        2
 70
   128
 43
0.0
 10
320.8474609339692
 20
535.3549504697546
 10
324.3588880897142
 20
537.3822738922227
  0
LWPOLYLINE
  5
7A
330
1F
100
AcDbEntity
  8
0_Pen_No__1
  6
Continuous
100
AcDbPolyline
 90
        2
 70
   128
 43
0.0
 10
320.8474609339692
 20
521.1551100322191
 10
325.6253151134824
 20
523.9136054409641
  0
LWPOLYLINE
  5
7B
330
1F
100
AcDbEntity
  8
0_Pen_No__1
  6
Continuous
100
AcDbPolyline
 90
        2
 70
   128
 43
0.0
 10
320.0758491517458
 20
528.7096197600887
 10
313.9192577339792
 20
525.1551100322174
  0
LWPOLYLINE
  5
7C
330
1F
100
AcDbEntity
  8
0_Pen_No__1
  6
Continuous
100
AcDbPolyline
 90
        2
 70
   128
 43
0.0
 10
332.971816533976
 20
507.1551100322165
 10
328.5616154370009
 20
554.0583545646903
  0
LWPOLYLINE
  5
7D
330
1F
100
AcDbEntity
  8
0_Pen_No__1
  6
Continuous
100
AcDbPolyline
 90
        2
 70
   128
 43
0.0
 10
450.4445104941798
 20
31.21498486056205
 10
450.5145389054341
 20
31.62733208824563
  0
LWPOLYLINE
  5
7E
330
1F
100
AcDbEntity
  8
0_Pen_No__1
  6
Continuous
100
AcDbPolyline
 90
        2
 70
   128
 43
0.0
 10
450.5145389054341
 20
31.62733208824563
 10
451.4135129661832
 20
33.19405714502154
  0
LWPOLYLINE
  5
7F
330
1F
100
AcDbEntity
  8
0_Pen_No__1
  6
Continuous
100
AcDbPolyline
 90
        2
 70
   128
 43
0.0
 10
451.4135129661832
 20
33.19405714502154
 10
452.7242810982343
 20
34.28223720648104
  0
LWPOLYLINE
  5
80
330
1F
100
AcDbEntity
  8
0_Pen_No__1
  6
Continuous
100
AcDbPolyline
 90
        2
 70
   128
 43
0.0
 10
452.7242810982343
 20
34.28223720648104
 10
454.4070162751755
 20
34.85880847210064
  0
LWPOLYLINE
  5
81
330
1F
100
AcDbEntity
  8
0_Pen_No__1
  6
Continuous
100
AcDbPolyline
 90
        2
 70
   128
 43
0.0
 10
454.4070162751755
 20
34.85880847210064
 10
456.4105894401623
 20
34.90625211573482
  0
LWPOLYLINE
  5
82
330
1F
100
AcDbEntity
  8
0_Pen_No__1
  6
Continuous
100
AcDbPolyline
 90
        2
 70
   128
 43
0.0
 10
456.4105894401623
 20
34.90625211573482
 10
458.6741230364319
 20
34.42312658627932
  0
LWPOLYLINE
  5
83
330
1F
100
AcDbEntity
  8
0_Pen_No__1
  6
Continuous
100
AcDbPolyline
 90
        2
 70
   128
 43
0.0
 10
458.6741230364319
 20
34.42312658627932
 10
461.1288407410655
 20
33.42411140847211
  0
LWPOLYLINE
  5
84
330
1F
100
AcDbEntity
  8
0_Pen_No__1
  6
Continuous
100
AcDbPolyline
 90
        2
 70
   128
 43
0.0
 10
201.3212198892132
 20
183.4241119002413
 10
202.6068781180582
 20
182.6818367724887
  0
LWPOLYLINE
  5
85
330
1F
100
AcDbEntity
  8
0_Pen_No__1
  6
Continuous
100
AcDbPolyline
 90
        2
 70
   128
 43
0.0
 10
253.2827440597351
 20
153.4241118018003
 10
254.5684022885796
 20
152.6818366740477
  0
LWPOLYLINE
  5
86
330
1F
100
AcDbEntity
  8
0_Pen_No__1
  6
Continuous
100
AcDbPolyline
 90
        2
 70
   128
 43
0.0
 10
305.2442682300044
 20
123.4241117035051
 10
306.5299264588485
 20
122.6818365757523
  0
LWPOLYLINE
  5
87
330
1F
100
AcDbEntity
  8
0_Pen_No__1
  6
Continuous
100
AcDbPolyline
 90
        2
 70
   128
 43
0.0
 10
357.2057924002737
 20
93.42411160520946
 10
358.4914506291178
 20
92.68183647745708
  0
LWPOLYLINE
  5
88
330
1F
100
AcDbEntity
  8
0_Pen_No__1
  6
Continuous
100
AcDbPolyline
 90
        2
 70
   128
 43
0.0
 10
409.1673165707953
 20
63.42411150676862
 10
410.4529747996394
 20
62.6818363790158
  0
LWPOLYLINE
  5
89
330
1F
100
AcDbEntity
  8
0_Pen_No__1
  6
Continuous
100
AcDbPolyline
 90
        2
 70
   128
 43
0.0
 10
461.1288407410655
 20
33.42411140847211
 10
462.4144989699096
 20
32.68183628071973
  0
LWPOLYLINE
  5
8A
330
1F
100
AcDbEntity
  8
0_Pen_No__1
  6
Continuous
100
AcDbPolyline
 90
        2
 70
   128
 43
0.0
 10
451.1976377546237
 20
30.52482647536479
 10
451.2581747386662
 20
30.89752901552533
  0
LWPOLYLINE
  5
8B
330
1F
100
AcDbEntity
  8
0_Pen_No__1
  6
Continuous
100
AcDbPolyline
 90
        2
 70
   128
 43
0.0
 10
451.2581747386662
 20
30.89752901552533
 10
452.1108907628556
 20
32.38363592310422
  0
LWPOLYLINE
  5
8C
330
1F
100
AcDbEntity
  8
0_Pen_No__1
  6
Continuous
100
AcDbPolyline
 90
        2
 70
   128
 43
0.0
 10
452.1108907628556
 20
32.38363592310422
 10
453.3542113868866
 20
33.41582207410008
  0
LWPOLYLINE
  5
8D
330
1F
100
AcDbEntity
  8
0_Pen_No__1
  6
Continuous
100
AcDbPolyline
 90
        2
 70
   128
 43
0.0
 10
453.3542113868866
 20
33.41582207410008
 10
454.9503589427467
 20
33.96272501462815
  0
LWPOLYLINE
  5
8E
330
1F
100
AcDbEntity
  8
0_Pen_No__1
  6
Continuous
100
AcDbPolyline
 90
        2
 70
   128
 43
0.0
 10
454.9503589427467
 20
33.96272501462815
 10
456.8508352946424
 20
34.00772737558587
  0
LWPOLYLINE
  5
8F
330
1F
100
AcDbEntity
  8
0_Pen_No__1
  6
Continuous
100
AcDbPolyline
 90
        2
 70
   128
 43
0.0
 10
456.8508352946424
 20
34.00772737558587
 10
458.9978954303086
 20
33.54946178300676
  0
LWPOLYLINE
  5
90
330
1F
100
AcDbEntity
  8
0_Pen_No__1
  6
Continuous
100
AcDbPolyline
 90
        2
 70
   128
 43
0.0
 10
458.9978954303086
 20
33.54946178300676
 10
461.3263020139863
 20
32.60185240502887
  0
LWPOLYLINE
  5
91
330
1F
100
AcDbEntity
  8
0_Pen_No__1
  6
Continuous
100
AcDbPolyline
 90
        2
 70
   128
 43
0.0
 10
461.3263020139863
 20
32.60185240502887
 10
462.5458048019241
 20
31.8977721390583
  0
LWPOLYLINE
  5
92
330
1F
100
AcDbEntity
  8
0_Pen_No__1
  6
Continuous
100
AcDbPolyline
 90
        2
 70
   128
 43
0.0
 10
462.4144989699096
 20
32.68183628071973
 10
462.5458048019241
 20
31.8977721390583
  0
LWPOLYLINE
  5
93
330
1F
100
AcDbEntity
  8
0_Pen_No__1
  6
Continuous
100
AcDbPolyline
 90
        2
 70
   128
 43
0.0
 10
451.1976377546815
 20
30.52482647526798
 10
450.9462171005073
 20
29.42559001962362
  0
LWPOLYLINE
  5
94
330
1F
100
AcDbEntity
  8
0_Pen_No__1
  6
Continuous
100
AcDbPolyline
 90
        2
 70
   128
 43
0.0
 10
450.9462171005073
 20
29.42559001962362
 10
450.0935010763184
 20
27.93948311204474
  0
LWPOLYLINE
  5
95
330
1F
100
AcDbEntity
  8
0_Pen_No__1
  6
Continuous
100
AcDbPolyline
 90
        2
 70
   128
 43
0.0
 10
450.0935010763184
 20
27.93948311204474
 10
448.850180452287
 20
26.90729696104775
  0
LWPOLYLINE
  5
96
330
1F
100
AcDbEntity
  8
0_Pen_No__1
  6
Continuous
100
AcDbPolyline
 90
        2
 70
   128
 43
0.0
 10
448.850180452287
 20
26.90729696104775
 10
447.2540328964268
 20
26.36039402052058
  0
LWPOLYLINE
  5
97
330
1F
100
AcDbEntity
  8
0_Pen_No__1
  6
Continuous
100
AcDbPolyline
 90
        2
 70
   128
 43
0.0
 10
447.2540328964268
 20
26.36039402052058
 10
445.3535565445311
 20
26.31539165956397
  0
LWPOLYLINE
  5
98
330
1F
100
AcDbEntity
  8
0_Pen_No__1
  6
Continuous
100
AcDbPolyline
 90
        2
 70
   128
 43
0.0
 10
445.3535565445311
 20
26.31539165956397
 10
443.206496408865
 20
26.77365725214308
  0
LWPOLYLINE
  5
99
330
1F
100
AcDbEntity
  8
0_Pen_No__1
  6
Continuous
100
AcDbPolyline
 90
        2
 70
   128
 43
0.0
 10
443.206496408865
 20
26.77365725214308
 10
440.8780898251877
 20
27.72126663012074
  0
LWPOLYLINE
  5
9A
330
1F
100
AcDbEntity
  8
0_Pen_No__1
  6
Continuous
100
AcDbPolyline
 90
        2
 70
   128
 43
0.0
 10
440.8780898251877
 20
27.72126663012074
 10
439.6585870372494
 20
28.42534689609154
  0
LWPOLYLINE
  5
9B
330
1F
100
AcDbEntity
  8
0_Pen_No__1
  6
Continuous
100
AcDbPolyline
 90
        2
 70
   128
 43
0.0
 10
388.9165656549184
 20
57.72126672843879
 10
387.6970628669802
 20
58.42534699440959
  0
LWPOLYLINE
  5
9C
330
1F
100
AcDbEntity
  8
0_Pen_No__1
  6
Continuous
100
AcDbPolyline
 90
        2
 70
   128
 43
0.0
 10
336.9550414843968
 20
87.72126682690272
 10
335.7355386964585
 20
88.42534709287352
  0
LWPOLYLINE
  5
9D
330
1F
100
AcDbEntity
  8
0_Pen_No__1
  6
Continuous
100
AcDbPolyline
 90
        2
 70
   128
 43
0.0
 10
284.9935173141275
 20
117.7212669252208
 10
283.7740145261892
 20
118.4253471911916
  0
LWPOLYLINE
  5
9E
330
1F
100
AcDbEntity
  8
0_Pen_No__1
  6
Continuous
100
AcDbPolyline
 90
        2
 70
   128
 43
0.0
 10
233.0319931436059
 20
147.7212670236834
 10
231.8124903556674
 20
148.4253472896544
  0
LWPOLYLINE
  5
9F
330
1F
100
AcDbEntity
  8
0_Pen_No__1
  6
Continuous
100
AcDbPolyline
 90
        2
 70
   128
 43
0.0
 10
181.0704689733363
 20
177.7212671220014
 10
179.8509661853981
 20
178.4253473879722
  0
LWPOLYLINE
  5
A0
330
1F
100
AcDbEntity
  8
0_Pen_No__1
  6
Continuous
100
AcDbPolyline
 90
        2
 70
   128
 43
0.0
 10
450.4445104942379
 20
31.21498486046524
 10
450.2025812672759
 20
30.15539309234282
  0
LWPOLYLINE
  5
A1
330
1F
100
AcDbEntity
  8
0_Pen_No__1
  6
Continuous
100
AcDbPolyline
 90
        2
 70
   128
 43
0.0
 10
450.2025812672759
 20
30.15539309234282
 10
449.3961232796456
 20
28.74990433396228
  0
LWPOLYLINE
  5
A2
330
1F
100
AcDbEntity
  8
0_Pen_No__1
  6
Continuous
100
AcDbPolyline
 90
        2
 70
   128
 43
0.0
 10
449.3961232796456
 20
28.74990433396228
 10
448.2202501636355
 20
27.77371209342737
  0
LWPOLYLINE
  5
A3
330
1F
100
AcDbEntity
  8
0_Pen_No__1
  6
Continuous
100
AcDbPolyline
 90
        2
 70
   128
 43
0.0
 10
448.2202501636355
 20
27.77371209342737
 10
446.7106902288557
 20
27.25647747799308
  0
LWPOLYLINE
  5
A4
330
1F
100
AcDbEntity
  8
0_Pen_No__1
  6
Continuous
100
AcDbPolyline
 90
        2
 70
   128
 43
0.0
 10
446.7106902288557
 20
27.25647747799308
 10
444.913310690051
 20
27.21391639971314
  0
LWPOLYLINE
  5
A5
330
1F
100
AcDbEntity
  8
0_Pen_No__1
  6
Continuous
100
AcDbPolyline
 90
        2
 70
   128
 43
0.0
 10
444.913310690051
 20
27.21391639971314
 10
442.8827240149892
 20
27.64732205541519
  0
LWPOLYLINE
  5
A6
330
1F
100
AcDbEntity
  8
0_Pen_No__1
  6
Continuous
100
AcDbPolyline
 90
        2
 70
   128
 43
0.0
 10
442.8827240149892
 20
27.64732205541519
 10
440.6806285522665
 20
28.5435256335642
  0
LWPOLYLINE
  5
A7
330
1F
100
AcDbEntity
  8
0_Pen_No__1
  6
Continuous
100
AcDbPolyline
 90
        2
 70
   128
 43
0.0
 10
439.6585870372494
 20
28.42534689609154
 10
439.5272812052345
 20
29.20941103775208
  0
LWPOLYLINE
  5
A8
330
1F
100
AcDbEntity
  8
0_Pen_No__1
  6
Continuous
100
AcDbPolyline
 90
        2
 70
   128
 43
0.0
 10
457.7079182528915
 20
33.82479275573223
 10
448.850180452287
 20
26.90729696104775
  0
LWPOLYLINE
  5
A9
330
1F
100
AcDbEntity
  8
0_Pen_No__1
  6
Continuous
100
AcDbPolyline
 90
        2
 70
   128
 43
0.0
 10
410.4529747996687
 20
62.68183637909884
 10
410.922886436614
 20
62.45584429551564
  0
LWPOLYLINE
  5
AA
330
1F
100
AcDbEntity
  8
0_Pen_No__1
  6
Continuous
100
AcDbPolyline
 90
        2
 70
   128
 43
0.0
 10
410.922886436614
 20
62.45584429551564
 10
413.5291225209067
 20
60.66354042222376
  0
LWPOLYLINE
  5
AB
330
1F
100
AcDbEntity
  8
0_Pen_No__1
  6
Continuous
100
AcDbPolyline
 90
        2
 70
   128
 43
0.0
 10
413.5291225209067
 20
60.66354042222376
 10
416.1194260916411
 20
58.46958002672385
  0
LWPOLYLINE
  5
AC
330
1F
100
AcDbEntity
  8
0_Pen_No__1
  6
Continuous
100
AcDbPolyline
 90
        2
 70
   128
 43
0.0
 10
416.1194260916411
 20
58.46958002672385
 10
418.6150920855786
 20
55.94062548543398
  0
LWPOLYLINE
  5
AD
330
1F
100
AcDbEntity
  8
0_Pen_No__1
  6
Continuous
100
AcDbPolyline
 90
        2
 70
   128
 43
0.0
 10
418.6150920855786
 20
55.94062548543398
 10
420.9402909543608
 20
53.15351780237852
  0
LWPOLYLINE
  5
AE
330
1F
100
AcDbEntity
  8
0_Pen_No__1
  6
Continuous
100
AcDbPolyline
 90
        2
 70
   128
 43
0.0
 10
420.9402909543608
 20
53.15351780237852
 10
423.0243727069663
 20
50.19294183416532
  0
LWPOLYLINE
  5
AF
330
1F
100
AcDbEntity
  8
0_Pen_No__1
  6
Continuous
100
AcDbPolyline
 90
        2
 70
   128
 43
0.0
 10
423.0243727069663
 20
50.19294183416532
 10
424.80401357394
 20
47.1488531834605
  0
LWPOLYLINE
  5
B0
330
1F
100
AcDbEntity
  8
0_Pen_No__1
  6
Continuous
100
AcDbPolyline
 90
        2
 70
   128
 43
0.0
 10
410.5842806316832
 20
61.8977722374394
 10
411.0300122720857
 20
61.68340890992206
  0
LWPOLYLINE
  5
B1
330
1F
100
AcDbEntity
  8
0_Pen_No__1
  6
Continuous
100
AcDbPolyline
 90
        2
 70
   128
 43
0.0
 10
411.0300122720857
 20
61.68340890992206
 10
413.5021406336613
 20
59.98333067663063
  0
LWPOLYLINE
  5
B2
330
1F
100
AcDbEntity
  8
0_Pen_No__1
  6
Continuous
100
AcDbPolyline
 90
        2
 70
   128
 43
0.0
 10
413.5021406336613
 20
59.98333067663063
 10
415.9591563126693
 20
57.90226375004702
  0
LWPOLYLINE
  5
B3
330
1F
100
AcDbEntity
  8
0_Pen_No__1
  6
Continuous
100
AcDbPolyline
 90
        2
 70
   128
 43
0.0
 10
415.9591563126693
 20
57.90226375004702
 10
418.3264041310143
 20
55.50344029566444
  0
LWPOLYLINE
  5
B4
330
1F
100
AcDbEntity
  8
0_Pen_No__1
  6
Continuous
100
AcDbPolyline
 90
        2
 70
   128
 43
0.0
 10
418.3264041310143
 20
55.50344029566444
 10
420.5319564616204
 20
52.85974735028208
  0
LWPOLYLINE
  5
B5
330
1F
100
AcDbEntity
  8
0_Pen_No__1
  6
Continuous
100
AcDbPolyline
 90
        2
 70
   128
 43
0.0
 10
420.5319564616204
 20
52.85974735028208
 10
422.5087987129851
 20
50.05151218627234
  0
LWPOLYLINE
  5
B6
330
1F
100
AcDbEntity
  8
0_Pen_No__1
  6
Continuous
100
AcDbPolyline
 90
        2
 70
   128
 43
0.0
 10
422.5087987129851
 20
50.05151218627234
 10
424.1968655336307
 20
47.16406160805707
  0
LWPOLYLINE
  5
B7
330
1F
100
AcDbEntity
  8
0_Pen_No__1
  6
Continuous
100
AcDbPolyline
 90
        2
 70
   128
 43
0.0
 10
424.1968655336307
 20
47.16406160805707
 10
424.870865700523
 20
45.72459547419737
  0
LWPOLYLINE
  5
B8
330
1F
100
AcDbEntity
  8
0_Pen_No__1
  6
Continuous
100
AcDbPolyline
 90
        2
 70
   128
 43
0.0
 10
410.4529747996687
 20
62.68183637909884
 10
410.5842806316832
 20
61.8977722374394
  0
LWPOLYLINE
  5
B9
330
1F
100
AcDbEntity
  8
0_Pen_No__1
  6
Continuous
100
AcDbPolyline
 90
        2
 70
   128
 43
0.0
 10
425.5293161378065
 20
45.59977909206945
 10
424.870865700523
 20
45.72459547419737
  0
LWPOLYLINE
  5
BA
330
1F
100
AcDbEntity
  8
0_Pen_No__1
  6
Continuous
100
AcDbPolyline
 90
        2
 70
   128
 43
0.0
 10
438.2421889228082
 20
29.2602510781008
 10
435.7670211414683
 20
31.11723357038264
  0
LWPOLYLINE
  5
BB
330
1F
100
AcDbEntity
  8
0_Pen_No__1
  6
Continuous
100
AcDbPolyline
 90
        2
 70
   128
 43
0.0
 10
435.7670211414683
 20
31.11723357038264
 10
433.3365516035593
 20
33.33158247959699
  0
LWPOLYLINE
  5
BC
330
1F
100
AcDbEntity
  8
0_Pen_No__1
  6
Continuous
100
AcDbPolyline
 90
        2
 70
   128
 43
0.0
 10
433.3365516035593
 20
33.33158247959699
 10
431.0246288961118
 20
35.83601593464957
  0
LWPOLYLINE
  5
BD
330
1F
100
AcDbEntity
  8
0_Pen_No__1
  6
Continuous
100
AcDbPolyline
 90
        2
 70
   128
 43
0.0
 10
431.0246288961118
 20
35.83601593464957
 10
428.9014996207036
 20
38.55443799231482
  0
LWPOLYLINE
  5
BE
330
1F
100
AcDbEntity
  8
0_Pen_No__1
  6
Continuous
100
AcDbPolyline
 90
        2
 70
   128
 43
0.0
 10
428.9014996207036
 20
38.55443799231482
 10
427.0316739860113
 20
41.40425077395803
  0
LWPOLYLINE
  5
BF
330
1F
100
AcDbEntity
  8
0_Pen_No__1
  6
Continuous
100
AcDbPolyline
 90
        2
 70
   128
 43
0.0
 10
427.0316739860113
 20
41.40425077395803
 10
425.4719656977687
 20
44.29886416028349
  0
LWPOLYLINE
  5
C0
330
1F
100
AcDbEntity
  8
0_Pen_No__1
  6
Continuous
100
AcDbPolyline
 90
        2
 70
   128
 43
0.0
 10
439.5272812051879
 20
29.20941103795681
 10
438.1877196857421
 20
29.99902343789128
  0
LWPOLYLINE
  5
C1
330
1F
100
AcDbEntity
  8
0_Pen_No__1
  6
Continuous
100
AcDbPolyline
 90
        2
 70
   128
 43
0.0
 10
438.1877196857421
 20
29.99902343789128
 10
435.8468245091983
 20
31.75526856676102
  0
LWPOLYLINE
  5
C2
330
1F
100
AcDbEntity
  8
0_Pen_No__1
  6
Continuous
100
AcDbPolyline
 90
        2
 70
   128
 43
0.0
 10
435.8468245091983
 20
31.75526856676102
 10
433.5482027911385
 20
33.84949374205658
  0
LWPOLYLINE
  5
C3
330
1F
100
AcDbEntity
  8
0_Pen_No__1
  6
Continuous
100
AcDbPolyline
 90
        2
 70
   128
 43
0.0
 10
433.5482027911385
 20
33.84949374205658
 10
431.3616969893069
 20
36.21806699155815
  0
LWPOLYLINE
  5
C4
330
1F
100
AcDbEntity
  8
0_Pen_No__1
  6
Continuous
100
AcDbPolyline
 90
        2
 70
   128
 43
0.0
 10
431.3616969893069
 20
36.21806699155815
 10
429.3537429760662
 20
38.78902041563491
  0
LWPOLYLINE
  5
C5
330
1F
100
AcDbEntity
  8
0_Pen_No__1
  6
Continuous
100
AcDbPolyline
 90
        2
 70
   128
 43
0.0
 10
429.3537429760662
 20
38.78902041563491
 10
427.5853514180355
 20
41.48423689546264
  0
LWPOLYLINE
  5
C6
330
1F
100
AcDbEntity
  8
0_Pen_No__1
  6
Continuous
100
AcDbPolyline
 90
        2
 70
   128
 43
0.0
 10
427.5853514180355
 20
41.48423689546264
 10
426.1102539978568
 20
44.22182364214343
  0
LWPOLYLINE
  5
C7
330
1F
100
AcDbEntity
  8
0_Pen_No__1
  6
Continuous
100
AcDbPolyline
 90
        2
 70
   128
 43
0.0
 10
426.1102539978568
 20
44.22182364214343
 10
425.5293161376991
 20
45.5997790921616
  0
LWPOLYLINE
  5
C8
330
1F
100
AcDbEntity
  8
0_Pen_No__1
  6
Continuous
100
AcDbPolyline
 90
        2
 70
   128
 43
0.0
 10
398.4829863239091
 20
61.214984958867
 10
398.5530147351638
 20
61.62733218655035
  0
LWPOLYLINE
  5
C9
330
1F
100
AcDbEntity
  8
0_Pen_No__1
  6
Continuous
100
AcDbPolyline
 90
        2
 70
   128
 43
0.0
 10
398.5530147351638
 20
61.62733218655035
 10
399.4519887959126
 20
63.19405724332626
  0
LWPOLYLINE
  5
CA
330
1F
100
AcDbEntity
  8
0_Pen_No__1
  6
Continuous
100
AcDbPolyline
 90
        2
 70
   128
 43
0.0
 10
399.4519887959126
 20
63.19405724332626
 10
400.7627569279645
 20
64.28223730478554
  0
LWPOLYLINE
  5
CB
330
1F
100
AcDbEntity
  8
0_Pen_No__1
  6
Continuous
100
AcDbPolyline
 90
        2
 70
   128
 43
0.0
 10
400.7627569279645
 20
64.28223730478554
 10
402.4454921049053
 20
64.85880857040537
  0
LWPOLYLINE
  5
CC
330
1F
100
AcDbEntity
  8
0_Pen_No__1
  6
Continuous
100
AcDbPolyline
 90
        2
 70
   128
 43
0.0
 10
402.4454921049053
 20
64.85880857040537
 10
404.4490652698921
 20
64.90625221403955
  0
LWPOLYLINE
  5
CD
330
1F
100
AcDbEntity
  8
0_Pen_No__1
  6
Continuous
100
AcDbPolyline
 90
        2
 70
   128
 43
0.0
 10
404.4490652698921
 20
64.90625221403955
 10
406.7125988661616
 20
64.42312668458403
  0
LWPOLYLINE
  5
CE
330
1F
100
AcDbEntity
  8
0_Pen_No__1
  6
Continuous
100
AcDbPolyline
 90
        2
 70
   128
 43
0.0
 10
406.7125988661616
 20
64.42312668458403
 10
409.1673165707953
 20
63.42411150677706
  0
LWPOLYLINE
  5
CF
330
1F
100
AcDbEntity
  8
0_Pen_No__1
  6
Continuous
100
AcDbPolyline
 90
        2
 70
   128
 43
0.0
 10
399.2361135843535
 20
60.52482657366952
 10
399.296650568396
 20
60.89752911382983
  0
LWPOLYLINE
  5
D0
330
1F
100
AcDbEntity
  8
0_Pen_No__1
  6
Continuous
100
AcDbPolyline
 90
        2
 70
   128
 43
0.0
 10
399.296650568396
 20
60.89752911382983
 10
400.1493665925854
 20
62.38363602140871
  0
LWPOLYLINE
  5
D1
330
1F
100
AcDbEntity
  8
0_Pen_No__1
  6
Continuous
100
AcDbPolyline
 90
        2
 70
   128
 43
0.0
 10
400.1493665925854
 20
62.38363602140871
 10
401.3926872166164
 20
63.41582217240481
  0
LWPOLYLINE
  5
D2
330
1F
100
AcDbEntity
  8
0_Pen_No__1
  6
Continuous
100
AcDbPolyline
 90
        2
 70
   128
 43
0.0
 10
401.3926872166164
 20
63.41582217240481
 10
402.9888347724769
 20
63.96272511293287
  0
LWPOLYLINE
  5
D3
330
1F
100
AcDbEntity
  8
0_Pen_No__1
  6
Continuous
100
AcDbPolyline
 90
        2
 70
   128
 43
0.0
 10
402.9888347724769
 20
63.96272511293287
 10
404.8893111243722
 20
64.00772747389037
  0
LWPOLYLINE
  5
D4
330
1F
100
AcDbEntity
  8
0_Pen_No__1
  6
Continuous
100
AcDbPolyline
 90
        2
 70
   128
 43
0.0
 10
404.8893111243722
 20
64.00772747389037
 10
407.0363712600383
 20
63.54946188131126
  0
LWPOLYLINE
  5
D5
330
1F
100
AcDbEntity
  8
0_Pen_No__1
  6
Continuous
100
AcDbPolyline
 90
        2
 70
   128
 43
0.0
 10
407.0363712600383
 20
63.54946188131126
 10
409.3647778437156
 20
62.60185250333271
  0
LWPOLYLINE
  5
D6
330
1F
100
AcDbEntity
  8
0_Pen_No__1
  6
Continuous
100
AcDbPolyline
 90
        2
 70
   128
 43
0.0
 10
399.2361135844121
 20
60.52482657357226
 10
398.9846929302389
 20
59.4255901179279
  0
LWPOLYLINE
  5
D7
330
1F
100
AcDbEntity
  8
0_Pen_No__1
  6
Continuous
100
AcDbPolyline
 90
        2
 70
   128
 43
0.0
 10
398.9846929302389
 20
59.4255901179279
 10
398.1319769060486
 20
57.93948321034924
  0
LWPOLYLINE
  5
D8
330
1F
100
AcDbEntity
  8
0_Pen_No__1
  6
Continuous
100
AcDbPolyline
 90
        2
 70
   128
 43
0.0
 10
398.1319769060486
 20
57.93948321034924
 10
396.8886562820176
 20
56.90729705935337
  0
LWPOLYLINE
  5
D9
330
1F
100
AcDbEntity
  8
0_Pen_No__1
  6
Continuous
100
AcDbPolyline
 90
        2
 70
   128
 43
0.0
 10
396.8886562820176
 20
56.90729705935337
 10
395.292508726158
 20
56.36039411882508
  0
LWPOLYLINE
  5
DA
330
1F
100
AcDbEntity
  8
0_Pen_No__1
  6
Continuous
100
AcDbPolyline
 90
        2
 70
   128
 43
0.0
 10
395.292508726158
 20
56.36039411882508
 10
393.3920323742618
 20
56.31539175786847
  0
LWPOLYLINE
  5
DB
330
1F
100
AcDbEntity
  8
0_Pen_No__1
  6
Continuous
100
AcDbPolyline
 90
        2
 70
   128
 43
0.0
 10
393.3920323742618
 20
56.31539175786847
 10
391.2449722385966
 20
56.7736573504478
  0
LWPOLYLINE
  5
DC
330
1F
100
AcDbEntity
  8
0_Pen_No__1
  6
Continuous
100
AcDbPolyline
 90
        2
 70
   128
 43
0.0
 10
391.2449722385966
 20
56.7736573504478
 10
388.9165656549184
 20
57.72126672842547
  0
LWPOLYLINE
  5
DD
330
1F
100
AcDbEntity
  8
0_Pen_No__1
  6
Continuous
100
AcDbPolyline
 90
        2
 70
   128
 43
0.0
 10
398.4829863239686
 20
61.21498495876952
 10
398.2410570970075
 20
60.15539319064754
  0
LWPOLYLINE
  5
DE
330
1F
100
AcDbEntity
  8
0_Pen_No__1
  6
Continuous
100
AcDbPolyline
 90
        2
 70
   128
 43
0.0
 10
398.2410570970075
 20
60.15539319064754
 10
397.4345991093758
 20
58.74990443226678
  0
LWPOLYLINE
  5
DF
330
1F
100
AcDbEntity
  8
0_Pen_No__1
  6
Continuous
100
AcDbPolyline
 90
        2
 70
   128
 43
0.0
 10
397.4345991093758
 20
58.74990443226678
 10
396.2587259933662
 20
57.77371219173209
  0
LWPOLYLINE
  5
E0
330
1F
100
AcDbEntity
  8
0_Pen_No__1
  6
Continuous
100
AcDbPolyline
 90
        2
 70
   128
 43
0.0
 10
396.2587259933662
 20
57.77371219173209
 10
394.7491660585864
 20
57.2564775762978
  0
LWPOLYLINE
  5
E1
330
1F
100
AcDbEntity
  8
0_Pen_No__1
  6
Continuous
100
AcDbPolyline
 90
        2
 70
   128
 43
0.0
 10
394.7491660585864
 20
57.2564775762978
 10
392.9517865197817
 20
57.21391649801743
  0
LWPOLYLINE
  5
E2
330
1F
100
AcDbEntity
  8
0_Pen_No__1
  6
Continuous
100
AcDbPolyline
 90
        2
 70
   128
 43
0.0
 10
392.9517865197817
 20
57.21391649801743
 10
390.9211998447199
 20
57.64732215371947
  0
LWPOLYLINE
  5
E3
330
1F
100
AcDbEntity
  8
0_Pen_No__1
  6
Continuous
100
AcDbPolyline
 90
        2
 70
   128
 43
0.0
 10
390.9211998447199
 20
57.64732215371947
 10
388.7191043819972
 20
58.54352573186871
  0
LWPOLYLINE
  5
E4
330
1F
100
AcDbEntity
  8
0_Pen_No__1
  6
Continuous
100
AcDbPolyline
 90
        2
 70
   128
 43
0.0
 10
387.6970628669802
 20
58.42534699439582
 10
387.5657570349657
 20
59.20941113605659
  0
LWPOLYLINE
  5
E5
330
1F
100
AcDbEntity
  8
0_Pen_No__1
  6
Continuous
100
AcDbPolyline
 90
        2
 70
   128
 43
0.0
 10
405.746394082615
 20
63.82479285403163
 10
396.8886562820176
 20
56.90729705935337
  0
LWPOLYLINE
  5
E6
330
1F
100
AcDbEntity
  8
0_Pen_No__1
  6
Continuous
100
AcDbPolyline
 90
        2
 70
   128
 43
0.0
 10
358.4914506291471
 20
92.68183647755012
 10
358.9613622660924
 20
92.45584439396602
  0
LWPOLYLINE
  5
E7
330
1F
100
AcDbEntity
  8
0_Pen_No__1
  6
Continuous
100
AcDbPolyline
 90
        2
 70
   128
 43
0.0
 10
358.9613622660924
 20
92.45584439396602
 10
361.5675983503851
 20
90.66354052067392
  0
LWPOLYLINE
  5
E8
330
1F
100
AcDbEntity
  8
0_Pen_No__1
  6
Continuous
100
AcDbPolyline
 90
        2
 70
   128
 43
0.0
 10
361.5675983503851
 20
90.66354052067392
 10
364.1579019211204
 20
88.46958012517423
  0
LWPOLYLINE
  5
E9
330
1F
100
AcDbEntity
  8
0_Pen_No__1
  6
Continuous
100
AcDbPolyline
 90
        2
 70
   128
 43
0.0
 10
364.1579019211204
 20
88.46958012517423
 10
366.6535679150574
 20
85.94062558388437
  0
LWPOLYLINE
  5
EA
330
1F
100
AcDbEntity
  8
0_Pen_No__1
  6
Continuous
100
AcDbPolyline
 90
        2
 70
   128
 43
0.0
 10
366.6535679150574
 20
85.94062558388437
 10
368.9787667838392
 20
83.15351790082913
  0
LWPOLYLINE
  5
EB
330
1F
100
AcDbEntity
  8
0_Pen_No__1
  6
Continuous
100
AcDbPolyline
 90
        2
 70
   128
 43
0.0
 10
368.9787667838392
 20
83.15351790082913
 10
371.0628485364456
 20
80.19294193261548
  0
LWPOLYLINE
  5
EC
330
1F
100
AcDbEntity
  8
0_Pen_No__1
  6
Continuous
100
AcDbPolyline
 90
        2
 70
   128
 43
0.0
 10
371.0628485364456
 20
80.19294193261548
 10
372.8424894034185
 20
77.148853281912
  0
LWPOLYLINE
  5
ED
330
1F
100
AcDbEntity
  8
0_Pen_No__1
  6
Continuous
100
AcDbPolyline
 90
        2
 70
   128
 43
0.0
 10
358.6227564611616
 20
91.8977723358898
 10
359.0684881015641
 20
91.68340900837268
  0
LWPOLYLINE
  5
EE
330
1F
100
AcDbEntity
  8
0_Pen_No__1
  6
Continuous
100
AcDbPolyline
 90
        2
 70
   128
 43
0.0
 10
359.0684881015641
 20
91.68340900837268
 10
361.5406164631397
 20
89.98333077508101
  0
LWPOLYLINE
  5
EF
330
1F
100
AcDbEntity
  8
0_Pen_No__1
  6
Continuous
100
AcDbPolyline
 90
        2
 70
   128
 43
0.0
 10
361.5406164631397
 20
89.98333077508101
 10
363.9976321421486
 20
87.90226384849741
  0
LWPOLYLINE
  5
F0
330
1F
100
AcDbEntity
  8
0_Pen_No__1
  6
Continuous
100
AcDbPolyline
 90
        2
 70
   128
 43
0.0
 10
363.9976321421486
 20
87.90226384849741
 10
366.3648799604927
 20
85.50344039411505
  0
LWPOLYLINE
  5
F1
330
1F
100
AcDbEntity
  8
0_Pen_No__1
  6
Continuous
100
AcDbPolyline
 90
        2
 70
   128
 43
0.0
 10
366.3648799604927
 20
85.50344039411505
 10
368.5704322910989
 20
82.85974744873357
  0
LWPOLYLINE
  5
F2
330
1F
100
AcDbEntity
  8
0_Pen_No__1
  6
Continuous
100
AcDbPolyline
 90
        2
 70
   128
 43
0.0
 10
368.5704322910989
 20
82.85974744873357
 10
370.5472745424635
 20
80.05151228472361
  0
LWPOLYLINE
  5
F3
330
1F
100
AcDbEntity
  8
0_Pen_No__1
  6
Continuous
100
AcDbPolyline
 90
        2
 70
   128
 43
0.0
 10
370.5472745424635
 20
80.05151228472361
 10
372.2353413631091
 20
77.16406170650745
  0
LWPOLYLINE
  5
F4
330
1F
100
AcDbEntity
  8
0_Pen_No__1
  6
Continuous
100
AcDbPolyline
 90
        2
 70
   128
 43
0.0
 10
372.2353413631091
 20
77.16406170650745
 10
372.9093415300014
 20
75.72459557264776
  0
LWPOLYLINE
  5
F5
330
1F
100
AcDbEntity
  8
0_Pen_No__1
  6
Continuous
100
AcDbPolyline
 90
        2
 70
   128
 43
0.0
 10
358.4914506291471
 20
92.68183647755012
 10
358.6227564611616
 20
91.8977723358898
  0
LWPOLYLINE
  5
F6
330
1F
100
AcDbEntity
  8
0_Pen_No__1
  6
Continuous
100
AcDbPolyline
 90
        2
 70
   128
 43
0.0
 10
373.567791967285
 20
75.59977919051984
 10
372.9093415300014
 20
75.72459557264776
  0
LWPOLYLINE
  5
F7
330
1F
100
AcDbEntity
  8
0_Pen_No__1
  6
Continuous
100
AcDbPolyline
 90
        2
 70
   128
 43
0.0
 10
386.2806647525384
 20
59.26025117640508
 10
383.8054969711989
 20
61.11723366868736
  0
LWPOLYLINE
  5
F8
330
1F
100
AcDbEntity
  8
0_Pen_No__1
  6
Continuous
100
AcDbPolyline
 90
        2
 70
   128
 43
0.0
 10
383.8054969711989
 20
61.11723366868736
 10
381.3750274332896
 20
63.3315825779026
  0
LWPOLYLINE
  5
F9
330
1F
100
AcDbEntity
  8
0_Pen_No__1
  6
Continuous
100
AcDbPolyline
 90
        2
 70
   128
 43
0.0
 10
381.3750274332896
 20
63.3315825779026
 10
379.0631047258425
 20
65.83601603295517
  0
LWPOLYLINE
  5
FA
330
1F
100
AcDbEntity
  8
0_Pen_No__1
  6
Continuous
100
AcDbPolyline
 90
        2
 70
   128
 43
0.0
 10
379.0631047258425
 20
65.83601603295517
 10
376.9399754504342
 20
68.55443809061933
  0
LWPOLYLINE
  5
FB
330
1F
100
AcDbEntity
  8
0_Pen_No__1
  6
Continuous
100
AcDbPolyline
 90
        2
 70
   128
 43
0.0
 10
376.9399754504342
 20
68.55443809061933
 10
375.070149815742
 20
71.40425087226275
  0
LWPOLYLINE
  5
FC
330
1F
100
AcDbEntity
  8
0_Pen_No__1
  6
Continuous
100
AcDbPolyline
 90
        2
 70
   128
 43
0.0
 10
375.070149815742
 20
71.40425087226275
 10
373.5104415274993
 20
74.298864258588
  0
LWPOLYLINE
  5
FD
330
1F
100
AcDbEntity
  8
0_Pen_No__1
  6
Continuous
100
AcDbPolyline
 90
        2
 70
   128
 43
0.0
 10
387.5657570349186
 20
59.20941113626131
 10
386.2261955154728
 20
59.99902353619689
  0
LWPOLYLINE
  5
FE
330
1F
100
AcDbEntity
  8
0_Pen_No__1
  6
Continuous
100
AcDbPolyline
 90
        2
 70
   128
 43
0.0
 10
386.2261955154728
 20
59.99902353619689
 10
383.885300338929
 20
61.75526866506552
  0
LWPOLYLINE
  5
FF
330
1F
100
AcDbEntity
  8
0_Pen_No__1
  6
Continuous
100
AcDbPolyline
 90
        2
 70
   128
 43
0.0
 10
383.885300338929
 20
61.75526866506552
 10
381.5866786208691
 20
63.8494938403613
  0
LWPOLYLINE
  5
100
330
1F
100
AcDbEntity
  8
0_Pen_No__1
  6
Continuous
100
AcDbPolyline
 90
        2
 70
   128
 43
0.0
 10
381.5866786208691
 20
63.8494938403613
 10
379.4001728190367
 20
66.21806708986377
  0
LWPOLYLINE
  5
101
330
1F
100
AcDbEntity
  8
0_Pen_No__1
  6
Continuous
100
AcDbPolyline
 90
        2
 70
   128
 43
0.0
 10
379.4001728190367
 20
66.21806708986377
 10
377.3922188057969
 20
68.78902051394053
  0
LWPOLYLINE
  5
102
330
1F
100
AcDbEntity
  8
0_Pen_No__1
  6
Continuous
100
AcDbPolyline
 90
        2
 70
   128
 43
0.0
 10
377.3922188057969
 20
68.78902051394053
 10
375.6238272477662
 20
71.48423699376693
  0
LWPOLYLINE
  5
103
330
1F
100
AcDbEntity
  8
0_Pen_No__1
  6
Continuous
100
AcDbPolyline
 90
        2
 70
   128
 43
0.0
 10
375.6238272477662
 20
71.48423699376693
 10
374.1487298275875
 20
74.22182374044904
  0
LWPOLYLINE
  5
104
330
1F
100
AcDbEntity
  8
0_Pen_No__1
  6
Continuous
100
AcDbPolyline
 90
        2
 70
   128
 43
0.0
 10
374.1487298275875
 20
74.22182374044904
 10
373.5677919674288
 20
75.59977919046699
  0
LWPOLYLINE
  5
105
330
1F
100
AcDbEntity
  8
0_Pen_No__1
  6
Continuous
100
AcDbPolyline
 90
        2
 70
   128
 43
0.0
 10
346.5214621533875
 20
91.21498505731739
 10
346.5914905646422
 20
91.62733228500073
  0
LWPOLYLINE
  5
106
330
1F
100
AcDbEntity
  8
0_Pen_No__1
  6
Continuous
100
AcDbPolyline
 90
        2
 70
   128
 43
0.0
 10
346.5914905646422
 20
91.62733228500073
 10
347.4904646253919
 20
93.19405734177664
  0
LWPOLYLINE
  5
107
330
1F
100
AcDbEntity
  8
0_Pen_No__1
  6
Continuous
100
AcDbPolyline
 90
        2
 70
   128
 43
0.0
 10
347.4904646253919
 20
93.19405734177664
 10
348.8012327574424
 20
94.28223740323592
  0
LWPOLYLINE
  5
108
330
1F
100
AcDbEntity
  8
0_Pen_No__1
  6
Continuous
100
AcDbPolyline
 90
        2
 70
   128
 43
0.0
 10
348.8012327574424
 20
94.28223740323592
 10
350.4839679343846
 20
94.85880866885576
  0
LWPOLYLINE
  5
109
330
1F
100
AcDbEntity
  8
0_Pen_No__1
  6
Continuous
100
AcDbPolyline
 90
        2
 70
   128
 43
0.0
 10
350.4839679343846
 20
94.85880866885576
 10
352.4875410993705
 20
94.90625231248994
  0
LWPOLYLINE
  5
10A
330
1F
100
AcDbEntity
  8
0_Pen_No__1
  6
Continuous
100
AcDbPolyline
 90
        2
 70
   128
 43
0.0
 10
352.4875410993705
 20
94.90625231248994
 10
354.7510746956409
 20
94.42312678303442
  0
LWPOLYLINE
  5
10B
330
1F
100
AcDbEntity
  8
0_Pen_No__1
  6
Continuous
100
AcDbPolyline
 90
        2
 70
   128
 43
0.0
 10
354.7510746956409
 20
94.42312678303442
 10
357.2057924002737
 20
93.42411160522744
  0
LWPOLYLINE
  5
10C
330
1F
100
AcDbEntity
  8
0_Pen_No__1
  6
Continuous
100
AcDbPolyline
 90
        2
 70
   128
 43
0.0
 10
347.274589413832
 20
90.5248266721199
 10
347.3351263978736
 20
90.89752921228022
  0
LWPOLYLINE
  5
10D
330
1F
100
AcDbEntity
  8
0_Pen_No__1
  6
Continuous
100
AcDbPolyline
 90
        2
 70
   128
 43
0.0
 10
347.3351263978736
 20
90.89752921228022
 10
348.1878424220638
 20
92.3836361198591
  0
LWPOLYLINE
  5
10E
330
1F
100
AcDbEntity
  8
0_Pen_No__1
  6
Continuous
100
AcDbPolyline
 90
        2
 70
   128
 43
0.0
 10
348.1878424220638
 20
92.3836361198591
 10
349.4311630460948
 20
93.41582227085497
  0
LWPOLYLINE
  5
10F
330
1F
100
AcDbEntity
  8
0_Pen_No__1
  6
Continuous
100
AcDbPolyline
 90
        2
 70
   128
 43
0.0
 10
349.4311630460948
 20
93.41582227085497
 10
351.0273106019549
 20
93.96272521138326
  0
LWPOLYLINE
  5
110
330
1F
100
AcDbEntity
  8
0_Pen_No__1
  6
Continuous
100
AcDbPolyline
 90
        2
 70
   128
 43
0.0
 10
351.0273106019549
 20
93.96272521138326
 10
352.9277869538506
 20
94.00772757234098
  0
LWPOLYLINE
  5
111
330
1F
100
AcDbEntity
  8
0_Pen_No__1
  6
Continuous
100
AcDbPolyline
 90
        2
 70
   128
 43
0.0
 10
352.9277869538506
 20
94.00772757234098
 10
355.0748470895159
 20
93.54946197976165
  0
LWPOLYLINE
  5
112
330
1F
100
AcDbEntity
  8
0_Pen_No__1
  6
Continuous
100
AcDbPolyline
 90
        2
 70
   128
 43
0.0
 10
355.0748470895159
 20
93.54946197976165
 10
357.4032536731949
 20
92.60185260178399
  0
LWPOLYLINE
  5
113
330
1F
100
AcDbEntity
  8
0_Pen_No__1
  6
Continuous
100
AcDbPolyline
 90
        2
 70
   128
 43
0.0
 10
347.2745894138914
 20
90.52482667202287
 10
347.0231687597173
 20
89.42559021637962
  0
LWPOLYLINE
  5
114
330
1F
100
AcDbEntity
  8
0_Pen_No__1
  6
Continuous
100
AcDbPolyline
 90
        2
 70
   128
 43
0.0
 10
347.0231687597173
 20
89.42559021637962
 10
346.170452735527
 20
87.93948330879962
  0
LWPOLYLINE
  5
115
330
1F
100
AcDbEntity
  8
0_Pen_No__1
  6
Continuous
100
AcDbPolyline
 90
        2
 70
   128
 43
0.0
 10
346.170452735527
 20
87.93948330879962
 10
344.927132111497
 20
86.90729715780375
  0
LWPOLYLINE
  5
116
330
1F
100
AcDbEntity
  8
0_Pen_No__1
  6
Continuous
100
AcDbPolyline
 90
        2
 70
   128
 43
0.0
 10
344.927132111497
 20
86.90729715780375
 10
343.330984555636
 20
86.3603942172757
  0
LWPOLYLINE
  5
117
330
1F
100
AcDbEntity
  8
0_Pen_No__1
  6
Continuous
100
AcDbPolyline
 90
        2
 70
   128
 43
0.0
 10
343.330984555636
 20
86.3603942172757
 10
341.4305082037402
 20
86.31539185631885
  0
LWPOLYLINE
  5
118
330
1F
100
AcDbEntity
  8
0_Pen_No__1
  6
Continuous
100
AcDbPolyline
 90
        2
 70
   128
 43
0.0
 10
341.4305082037402
 20
86.31539185631885
 10
339.283448068075
 20
86.77365744889819
  0
LWPOLYLINE
  5
119
330
1F
100
AcDbEntity
  8
0_Pen_No__1
  6
Continuous
100
AcDbPolyline
 90
        2
 70
   128
 43
0.0
 10
339.283448068075
 20
86.77365744889819
 10
336.9550414843968
 20
87.72126682687674
  0
LWPOLYLINE
  5
11A
330
1F
100
AcDbEntity
  8
0_Pen_No__1
  6
Continuous
100
AcDbPolyline
 90
        2
 70
   128
 43
0.0
 10
346.521462153447
 20
91.21498505722013
 10
346.279532926485
 20
90.15539328909881
  0
LWPOLYLINE
  5
11B
330
1F
100
AcDbEntity
  8
0_Pen_No__1
  6
Continuous
100
AcDbPolyline
 90
        2
 70
   128
 43
0.0
 10
346.279532926485
 20
90.15539328909881
 10
345.4730749388543
 20
88.74990453071717
  0
LWPOLYLINE
  5
11C
330
1F
100
AcDbEntity
  8
0_Pen_No__1
  6
Continuous
100
AcDbPolyline
 90
        2
 70
   128
 43
0.0
 10
345.4730749388543
 20
88.74990453071717
 10
344.2972018228446
 20
87.7737122901836
  0
LWPOLYLINE
  5
11D
330
1F
100
AcDbEntity
  8
0_Pen_No__1
  6
Continuous
100
AcDbPolyline
 90
        2
 70
   128
 43
0.0
 10
344.2972018228446
 20
87.7737122901836
 10
342.7876418880647
 20
87.25647767474818
  0
LWPOLYLINE
  5
11E
330
1F
100
AcDbEntity
  8
0_Pen_No__1
  6
Continuous
100
AcDbPolyline
 90
        2
 70
   128
 43
0.0
 10
342.7876418880647
 20
87.25647767474818
 10
340.9902623492601
 20
87.21391659646802
  0
LWPOLYLINE
  5
11F
330
1F
100
AcDbEntity
  8
0_Pen_No__1
  6
Continuous
100
AcDbPolyline
 90
        2
 70
   128
 43
0.0
 10
340.9902623492601
 20
87.21391659646802
 10
338.9596756741992
 20
87.64732225217097
  0
LWPOLYLINE
  5
120
330
1F
100
AcDbEntity
  8
0_Pen_No__1
  6
Continuous
100
AcDbPolyline
 90
        2
 70
   128
 43
0.0
 10
338.9596756741992
 20
87.64732225217097
 10
336.7575802114756
 20
88.54352583031908
  0
LWPOLYLINE
  5
121
330
1F
100
AcDbEntity
  8
0_Pen_No__1
  6
Continuous
100
AcDbPolyline
 90
        2
 70
   128
 43
0.0
 10
335.7355386964585
 20
88.42534709284642
 10
335.6042328644432
 20
89.20941123450697
  0
LWPOLYLINE
  5
122
330
1F
100
AcDbEntity
  8
0_Pen_No__1
  6
Continuous
100
AcDbPolyline
 90
        2
 70
   128
 43
0.0
 10
353.7848699120908
 20
93.82479295248001
 10
344.927132111497
 20
86.90729715780375
  0
LWPOLYLINE
  5
123
330
1F
100
AcDbEntity
  8
0_Pen_No__1
  6
Continuous
100
AcDbPolyline
 90
        2
 70
   128
 43
0.0
 10
306.5299264588778
 20
122.6818365758548
 10
306.999838095824
 20
122.4558444922707
  0
LWPOLYLINE
  5
124
330
1F
100
AcDbEntity
  8
0_Pen_No__1
  6
Continuous
100
AcDbPolyline
 90
        2
 70
   128
 43
0.0
 10
306.999838095824
 20
122.4558444922707
 10
309.6060741801157
 20
120.6635406189786
  0
LWPOLYLINE
  5
125
330
1F
100
AcDbEntity
  8
0_Pen_No__1
  6
Continuous
100
AcDbPolyline
 90
        2
 70
   128
 43
0.0
 10
309.6060741801157
 20
120.6635406189786
 10
312.1963777508502
 20
118.4695802234785
  0
LWPOLYLINE
  5
126
330
1F
100
AcDbEntity
  8
0_Pen_No__1
  6
Continuous
100
AcDbPolyline
 90
        2
 70
   128
 43
0.0
 10
312.1963777508502
 20
118.4695802234785
 10
314.6920437447881
 20
115.9406256821889
  0
LWPOLYLINE
  5
127
330
1F
100
AcDbEntity
  8
0_Pen_No__1
  6
Continuous
100
AcDbPolyline
 90
        2
 70
   128
 43
0.0
 10
314.6920437447881
 20
115.9406256821889
 10
317.0172426135699
 20
113.1535179991347
  0
LWPOLYLINE
  5
128
330
1F
100
AcDbEntity
  8
0_Pen_No__1
  6
Continuous
100
AcDbPolyline
 90
        2
 70
   128
 43
0.0
 10
317.0172426135699
 20
113.1535179991347
 10
319.1013243661754
 20
110.1929420309213
  0
LWPOLYLINE
  5
129
330
1F
100
AcDbEntity
  8
0_Pen_No__1
  6
Continuous
100
AcDbPolyline
 90
        2
 70
   128
 43
0.0
 10
319.1013243661754
 20
110.1929420309213
 10
320.88096523315
 20
107.1488533802165
  0
LWPOLYLINE
  5
12A
330
1F
100
AcDbEntity
  8
0_Pen_No__1
  6
Continuous
100
AcDbPolyline
 90
        2
 70
   128
 43
0.0
 10
306.6612322908923
 20
121.8977724341943
 10
307.1069639312948
 20
121.6834091066781
  0
LWPOLYLINE
  5
12B
330
1F
100
AcDbEntity
  8
0_Pen_No__1
  6
Continuous
100
AcDbPolyline
 90
        2
 70
   128
 43
0.0
 10
307.1069639312948
 20
121.6834091066781
 10
309.5790922928704
 20
119.9833308733855
  0
LWPOLYLINE
  5
12C
330
1F
100
AcDbEntity
  8
0_Pen_No__1
  6
Continuous
100
AcDbPolyline
 90
        2
 70
   128
 43
0.0
 10
309.5790922928704
 20
119.9833308733855
 10
312.0361079718793
 20
117.9022639468017
  0
LWPOLYLINE
  5
12D
330
1F
100
AcDbEntity
  8
0_Pen_No__1
  6
Continuous
100
AcDbPolyline
 90
        2
 70
   128
 43
0.0
 10
312.0361079718793
 20
117.9022639468017
 10
314.4033557902234
 20
115.5034404924195
  0
LWPOLYLINE
  5
12E
330
1F
100
AcDbEntity
  8
0_Pen_No__1
  6
Continuous
100
AcDbPolyline
 90
        2
 70
   128
 43
0.0
 10
314.4033557902234
 20
115.5034404924195
 10
316.6089081208295
 20
112.8597475470379
  0
LWPOLYLINE
  5
12F
330
1F
100
AcDbEntity
  8
0_Pen_No__1
  6
Continuous
100
AcDbPolyline
 90
        2
 70
   128
 43
0.0
 10
316.6089081208295
 20
112.8597475470379
 10
318.5857503721942
 20
110.0515123830283
  0
LWPOLYLINE
  5
130
330
1F
100
AcDbEntity
  8
0_Pen_No__1
  6
Continuous
100
AcDbPolyline
 90
        2
 70
   128
 43
0.0
 10
318.5857503721942
 20
110.0515123830283
 10
320.2738171928406
 20
107.1640618048131
  0
LWPOLYLINE
  5
131
330
1F
100
AcDbEntity
  8
0_Pen_No__1
  6
Continuous
100
AcDbPolyline
 90
        2
 70
   128
 43
0.0
 10
320.2738171928406
 20
107.1640618048131
 10
320.9478173597321
 20
105.7245956709525
  0
LWPOLYLINE
  5
132
330
1F
100
AcDbEntity
  8
0_Pen_No__1
  6
Continuous
100
AcDbPolyline
 90
        2
 70
   128
 43
0.0
 10
306.5299264588778
 20
122.6818365758548
 10
306.6612322908923
 20
121.8977724341943
  0
LWPOLYLINE
  5
133
330
1F
100
AcDbEntity
  8
0_Pen_No__1
  6
Continuous
100
AcDbPolyline
 90
        2
 70
   128
 43
0.0
 10
321.6062677970156
 20
105.5997792888255
 10
320.9478173597321
 20
105.7245956709525
  0
LWPOLYLINE
  5
134
330
1F
100
AcDbEntity
  8
0_Pen_No__1
  6
Continuous
100
AcDbPolyline
 90
        2
 70
   128
 43
0.0
 10
334.3191405820168
 20
89.26025127485569
 10
331.8439728006774
 20
91.11723376713864
  0
LWPOLYLINE
  5
135
330
1F
100
AcDbEntity
  8
0_Pen_No__1
  6
Continuous
100
AcDbPolyline
 90
        2
 70
   128
 43
0.0
 10
331.8439728006774
 20
91.11723376713864
 10
329.413503262768
 20
93.33158267635298
  0
LWPOLYLINE
  5
136
330
1F
100
AcDbEntity
  8
0_Pen_No__1
  6
Continuous
100
AcDbPolyline
 90
        2
 70
   128
 43
0.0
 10
329.413503262768
 20
93.33158267635298
 10
327.1015805553209
 20
95.83601613140556
  0
LWPOLYLINE
  5
137
330
1F
100
AcDbEntity
  8
0_Pen_No__1
  6
Continuous
100
AcDbPolyline
 90
        2
 70
   128
 43
0.0
 10
327.1015805553209
 20
95.83601613140556
 10
324.9784512799126
 20
98.55443818906971
  0
LWPOLYLINE
  5
138
330
1F
100
AcDbEntity
  8
0_Pen_No__1
  6
Continuous
100
AcDbPolyline
 90
        2
 70
   128
 43
0.0
 10
324.9784512799126
 20
98.55443818906971
 10
323.1086256452213
 20
101.4042509707131
  0
LWPOLYLINE
  5
139
330
1F
100
AcDbEntity
  8
0_Pen_No__1
  6
Continuous
100
AcDbPolyline
 90
        2
 70
   128
 43
0.0
 10
323.1086256452213
 20
101.4042509707131
 10
321.5489173569778
 20
104.2988643570384
  0
LWPOLYLINE
  5
13A
330
1F
100
AcDbEntity
  8
0_Pen_No__1
  6
Continuous
100
AcDbPolyline
 90
        2
 70
   128
 43
0.0
 10
335.604232864397
 20
89.2094112347117
 10
334.2646713449521
 20
89.99902363464727
  0
LWPOLYLINE
  5
13B
330
1F
100
AcDbEntity
  8
0_Pen_No__1
  6
Continuous
100
AcDbPolyline
 90
        2
 70
   128
 43
0.0
 10
334.2646713449521
 20
89.99902363464727
 10
331.9237761684083
 20
91.7552687635159
  0
LWPOLYLINE
  5
13C
330
1F
100
AcDbEntity
  8
0_Pen_No__1
  6
Continuous
100
AcDbPolyline
 90
        2
 70
   128
 43
0.0
 10
331.9237761684083
 20
91.7552687635159
 10
329.6251544503476
 20
93.84949393881257
  0
LWPOLYLINE
  5
13D
330
1F
100
AcDbEntity
  8
0_Pen_No__1
  6
Continuous
100
AcDbPolyline
 90
        2
 70
   128
 43
0.0
 10
329.6251544503476
 20
93.84949393881257
 10
327.438648648516
 20
96.21806718831415
  0
LWPOLYLINE
  5
13E
330
1F
100
AcDbEntity
  8
0_Pen_No__1
  6
Continuous
100
AcDbPolyline
 90
        2
 70
   128
 43
0.0
 10
327.438648648516
 20
96.21806718831415
 10
325.4306946352753
 20
98.78902061239091
  0
LWPOLYLINE
  5
13F
330
1F
100
AcDbEntity
  8
0_Pen_No__1
  6
Continuous
100
AcDbPolyline
 90
        2
 70
   128
 43
0.0
 10
325.4306946352753
 20
98.78902061239091
 10
323.6623030772446
 20
101.4842370922175
  0
LWPOLYLINE
  5
140
330
1F
100
AcDbEntity
  8
0_Pen_No__1
  6
Continuous
100
AcDbPolyline
 90
        2
 70
   128
 43
0.0
 10
323.6623030772446
 20
101.4842370922175
 10
322.1872056570668
 20
104.2218238388994
  0
LWPOLYLINE
  5
141
330
1F
100
AcDbEntity
  8
0_Pen_No__1
  6
Continuous
100
AcDbPolyline
 90
        2
 70
   128
 43
0.0
 10
322.1872056570668
 20
104.2218238388994
 10
321.6062677969081
 20
105.5997792889176
  0
LWPOLYLINE
  5
142
330
1F
100
AcDbEntity
  8
0_Pen_No__1
  6
Continuous
100
AcDbPolyline
 90
        2
 70
   128
 43
0.0
 10
294.5599379831186
 20
121.2149851556219
 10
294.6299663943738
 20
121.627332383305
  0
LWPOLYLINE
  5
143
330
1F
100
AcDbEntity
  8
0_Pen_No__1
  6
Continuous
100
AcDbPolyline
 90
        2
 70
   128
 43
0.0
 10
294.6299663943738
 20
121.627332383305
 10
295.5289404551221
 20
123.1940574400823
  0
LWPOLYLINE
  5
144
330
1F
100
AcDbEntity
  8
0_Pen_No__1
  6
Continuous
100
AcDbPolyline
 90
        2
 70
   128
 43
0.0
 10
295.5289404551221
 20
123.1940574400823
 10
296.8397085871731
 20
124.2822375015406
  0
LWPOLYLINE
  5
145
330
1F
100
AcDbEntity
  8
0_Pen_No__1
  6
Continuous
100
AcDbPolyline
 90
        2
 70
   128
 43
0.0
 10
296.8397085871731
 20
124.2822375015406
 10
298.5224437641153
 20
124.8588087671603
  0
LWPOLYLINE
  5
146
330
1F
100
AcDbEntity
  8
0_Pen_No__1
  6
Continuous
100
AcDbPolyline
 90
        2
 70
   128
 43
0.0
 10
298.5224437641153
 20
124.8588087671603
 10
300.5260169291016
 20
124.9062524107944
  0
LWPOLYLINE
  5
147
330
1F
100
AcDbEntity
  8
0_Pen_No__1
  6
Continuous
100
AcDbPolyline
 90
        2
 70
   128
 43
0.0
 10
300.5260169291016
 20
124.9062524107944
 10
302.7895505253707
 20
124.4231268813389
  0
LWPOLYLINE
  5
148
330
1F
100
AcDbEntity
  8
0_Pen_No__1
  6
Continuous
100
AcDbPolyline
 90
        2
 70
   128
 43
0.0
 10
302.7895505253707
 20
124.4231268813389
 10
305.2442682300044
 20
123.4241117035331
  0
LWPOLYLINE
  5
149
330
1F
100
AcDbEntity
  8
0_Pen_No__1
  6
Continuous
100
AcDbPolyline
 90
        2
 70
   128
 43
0.0
 10
295.3130652435626
 20
120.5248267704255
 10
295.3736022276051
 20
120.8975293105849
  0
LWPOLYLINE
  5
14A
330
1F
100
AcDbEntity
  8
0_Pen_No__1
  6
Continuous
100
AcDbPolyline
 90
        2
 70
   128
 43
0.0
 10
295.3736022276051
 20
120.8975293105849
 10
296.2263182517945
 20
122.3836362181636
  0
LWPOLYLINE
  5
14B
330
1F
100
AcDbEntity
  8
0_Pen_No__1
  6
Continuous
100
AcDbPolyline
 90
        2
 70
   128
 43
0.0
 10
296.2263182517945
 20
122.3836362181636
 10
297.4696388758255
 20
123.4158223691608
  0
LWPOLYLINE
  5
14C
330
1F
100
AcDbEntity
  8
0_Pen_No__1
  6
Continuous
100
AcDbPolyline
 90
        2
 70
   128
 43
0.0
 10
297.4696388758255
 20
123.4158223691608
 10
299.065786431686
 20
123.9627253096878
  0
LWPOLYLINE
  5
14D
330
1F
100
AcDbEntity
  8
0_Pen_No__1
  6
Continuous
100
AcDbPolyline
 90
        2
 70
   128
 43
0.0
 10
299.065786431686
 20
123.9627253096878
 10
300.9662627835813
 20
124.0077276706455
  0
LWPOLYLINE
  5
14E
330
1F
100
AcDbEntity
  8
0_Pen_No__1
  6
Continuous
100
AcDbPolyline
 90
        2
 70
   128
 43
0.0
 10
300.9662627835813
 20
124.0077276706455
 10
303.1133229192474
 20
123.5494620780673
  0
LWPOLYLINE
  5
14F
330
1F
100
AcDbEntity
  8
0_Pen_No__1
  6
Continuous
100
AcDbPolyline
 90
        2
 70
   128
 43
0.0
 10
303.1133229192474
 20
123.5494620780673
 10
305.4417295029247
 20
122.6018527000887
  0
LWPOLYLINE
  5
150
330
1F
100
AcDbEntity
  8
0_Pen_No__1
  6
Continuous
100
AcDbPolyline
 90
        2
 70
   128
 43
0.0
 10
295.3130652436217
 20
120.5248267703283
 10
295.061644589448
 20
119.4255903146839
  0
LWPOLYLINE
  5
151
330
1F
100
AcDbEntity
  8
0_Pen_No__1
  6
Continuous
100
AcDbPolyline
 90
        2
 70
   128
 43
0.0
 10
295.061644589448
 20
119.4255903146839
 10
294.2089285652577
 20
117.9394834071052
  0
LWPOLYLINE
  5
152
330
1F
100
AcDbEntity
  8
0_Pen_No__1
  6
Continuous
100
AcDbPolyline
 90
        2
 70
   128
 43
0.0
 10
294.2089285652577
 20
117.9394834071052
 10
292.9656079412272
 20
116.907297256108
  0
LWPOLYLINE
  5
153
330
1F
100
AcDbEntity
  8
0_Pen_No__1
  6
Continuous
100
AcDbPolyline
 90
        2
 70
   128
 43
0.0
 10
292.9656079412272
 20
116.907297256108
 10
291.3694603853666
 20
116.3603943155811
  0
LWPOLYLINE
  5
154
330
1F
100
AcDbEntity
  8
0_Pen_No__1
  6
Continuous
100
AcDbPolyline
 90
        2
 70
   128
 43
0.0
 10
291.3694603853666
 20
116.3603943155811
 10
289.4689840334709
 20
116.3153919546245
  0
LWPOLYLINE
  5
155
330
1F
100
AcDbEntity
  8
0_Pen_No__1
  6
Continuous
100
AcDbPolyline
 90
        2
 70
   128
 43
0.0
 10
289.4689840334709
 20
116.3153919546245
 10
287.3219238978056
 20
116.7736575472038
  0
LWPOLYLINE
  5
156
330
1F
100
AcDbEntity
  8
0_Pen_No__1
  6
Continuous
100
AcDbPolyline
 90
        2
 70
   128
 43
0.0
 10
287.3219238978056
 20
116.7736575472038
 10
284.9935173141275
 20
117.7212669251812
  0
LWPOLYLINE
  5
157
330
1F
100
AcDbEntity
  8
0_Pen_No__1
  6
Continuous
100
AcDbPolyline
 90
        2
 70
   128
 43
0.0
 10
294.5599379831777
 20
121.2149851555255
 10
294.3180087562162
 20
120.1553933874035
  0
LWPOLYLINE
  5
158
330
1F
100
AcDbEntity
  8
0_Pen_No__1
  6
Continuous
100
AcDbPolyline
 90
        2
 70
   128
 43
0.0
 10
294.3180087562162
 20
120.1553933874035
 10
293.5115507685849
 20
118.7499046290228
  0
LWPOLYLINE
  5
159
330
1F
100
AcDbEntity
  8
0_Pen_No__1
  6
Continuous
100
AcDbPolyline
 90
        2
 70
   128
 43
0.0
 10
293.5115507685849
 20
118.7499046290228
 10
292.3356776525753
 20
117.7737123884881
  0
LWPOLYLINE
  5
15A
330
1F
100
AcDbEntity
  8
0_Pen_No__1
  6
Continuous
100
AcDbPolyline
 90
        2
 70
   128
 43
0.0
 10
292.3356776525753
 20
117.7737123884881
 10
290.8261177177955
 20
117.2564777730538
  0
LWPOLYLINE
  5
15B
330
1F
100
AcDbEntity
  8
0_Pen_No__1
  6
Continuous
100
AcDbPolyline
 90
        2
 70
   128
 43
0.0
 10
290.8261177177955
 20
117.2564777730538
 10
289.0287381789907
 20
117.2139166947734
  0
LWPOLYLINE
  5
15C
330
1F
100
AcDbEntity
  8
0_Pen_No__1
  6
Continuous
100
AcDbPolyline
 90
        2
 70
   128
 43
0.0
 10
289.0287381789907
 20
117.2139166947734
 10
286.9981515039294
 20
117.6473223504755
  0
LWPOLYLINE
  5
15D
330
1F
100
AcDbEntity
  8
0_Pen_No__1
  6
Continuous
100
AcDbPolyline
 90
        2
 70
   128
 43
0.0
 10
286.9981515039294
 20
117.6473223504755
 10
284.7960560412063
 20
118.5435259286247
  0
LWPOLYLINE
  5
15E
330
1F
100
AcDbEntity
  8
0_Pen_No__1
  6
Continuous
100
AcDbPolyline
 90
        2
 70
   128
 43
0.0
 10
283.7740145261892
 20
118.4253471911518
 10
283.6427086941743
 20
119.2094113328126
  0
LWPOLYLINE
  5
15F
330
1F
100
AcDbEntity
  8
0_Pen_No__1
  6
Continuous
100
AcDbPolyline
 90
        2
 70
   128
 43
0.0
 10
301.823345741825
 20
123.8247930507876
 10
292.9656079412272
 20
116.907297256108
  0
LWPOLYLINE
  5
160
330
1F
100
AcDbEntity
  8
0_Pen_No__1
  6
Continuous
100
AcDbPolyline
 90
        2
 70
   128
 43
0.0
 10
254.5684022883571
 20
152.6818366743052
 10
255.0383139253024
 20
152.4558445907211
  0
LWPOLYLINE
  5
161
330
1F
100
AcDbEntity
  8
0_Pen_No__1
  6
Continuous
100
AcDbPolyline
 90
        2
 70
   128
 43
0.0
 10
255.0383139253024
 20
152.4558445907211
 10
257.6445500095942
 20
150.6635407174288
  0
LWPOLYLINE
  5
162
330
1F
100
AcDbEntity
  8
0_Pen_No__1
  6
Continuous
100
AcDbPolyline
 90
        2
 70
   128
 43
0.0
 10
257.6445500095942
 20
150.6635407174288
 10
260.2348535803291
 20
148.4695803219302
  0
LWPOLYLINE
  5
163
330
1F
100
AcDbEntity
  8
0_Pen_No__1
  6
Continuous
100
AcDbPolyline
 90
        2
 70
   128
 43
0.0
 10
260.2348535803291
 20
148.4695803219302
 10
262.7305195742665
 20
145.9406257806404
  0
LWPOLYLINE
  5
164
330
1F
100
AcDbEntity
  8
0_Pen_No__1
  6
Continuous
100
AcDbPolyline
 90
        2
 70
   128
 43
0.0
 10
262.7305195742665
 20
145.9406257806404
 10
265.0557184430483
 20
143.1535180975851
  0
LWPOLYLINE
  5
165
330
1F
100
AcDbEntity
  8
0_Pen_No__1
  6
Continuous
100
AcDbPolyline
 90
        2
 70
   128
 43
0.0
 10
265.0557184430483
 20
143.1535180975851
 10
267.1398001956547
 20
140.1929421293717
  0
LWPOLYLINE
  5
166
330
1F
100
AcDbEntity
  8
0_Pen_No__1
  6
Continuous
100
AcDbPolyline
 90
        2
 70
   128
 43
0.0
 10
267.1398001956547
 20
140.1929421293717
 10
268.9194410626284
 20
137.1488534786671
  0
LWPOLYLINE
  5
167
330
1F
100
AcDbEntity
  8
0_Pen_No__1
  6
Continuous
100
AcDbPolyline
 90
        2
 70
   128
 43
0.0
 10
254.6997081203711
 20
151.8977725326447
 10
255.1454397607732
 20
151.6834092051287
  0
LWPOLYLINE
  5
168
330
1F
100
AcDbEntity
  8
0_Pen_No__1
  6
Continuous
100
AcDbPolyline
 90
        2
 70
   128
 43
0.0
 10
255.1454397607732
 20
151.6834092051287
 10
257.6175681223488
 20
149.9833309718359
  0
LWPOLYLINE
  5
169
330
1F
100
AcDbEntity
  8
0_Pen_No__1
  6
Continuous
100
AcDbPolyline
 90
        2
 70
   128
 43
0.0
 10
257.6175681223488
 20
149.9833309718359
 10
260.0745838013577
 20
147.9022640452523
  0
LWPOLYLINE
  5
16A
330
1F
100
AcDbEntity
  8
0_Pen_No__1
  6
Continuous
100
AcDbPolyline
 90
        2
 70
   128
 43
0.0
 10
260.0745838013577
 20
147.9022640452523
 10
262.4418316197027
 20
145.50344059087
  0
LWPOLYLINE
  5
16B
330
1F
100
AcDbEntity
  8
0_Pen_No__1
  6
Continuous
100
AcDbPolyline
 90
        2
 70
   128
 43
0.0
 10
262.4418316197027
 20
145.50344059087
 10
264.647383950308
 20
142.8597476454885
  0
LWPOLYLINE
  5
16C
330
1F
100
AcDbEntity
  8
0_Pen_No__1
  6
Continuous
100
AcDbPolyline
 90
        2
 70
   128
 43
0.0
 10
264.647383950308
 20
142.8597476454885
 10
266.6242262016726
 20
140.0515124814787
  0
LWPOLYLINE
  5
16D
330
1F
100
AcDbEntity
  8
0_Pen_No__1
  6
Continuous
100
AcDbPolyline
 90
        2
 70
   128
 43
0.0
 10
266.6242262016726
 20
140.0515124814787
 10
268.3122930223191
 20
137.1640619032635
  0
LWPOLYLINE
  5
16E
330
1F
100
AcDbEntity
  8
0_Pen_No__1
  6
Continuous
100
AcDbPolyline
 90
        2
 70
   128
 43
0.0
 10
268.3122930223191
 20
137.1640619032635
 10
268.9862931892105
 20
135.7245957694049
  0
LWPOLYLINE
  5
16F
330
1F
100
AcDbEntity
  8
0_Pen_No__1
  6
Continuous
100
AcDbPolyline
 90
        2
 70
   128
 43
0.0
 10
254.5684022883571
 20
152.6818366743052
 10
254.6997081203711
 20
151.8977725326447
  0
LWPOLYLINE
  5
170
330
1F
100
AcDbEntity
  8
0_Pen_No__1
  6
Continuous
100
AcDbPolyline
 90
        2
 70
   128
 43
0.0
 10
269.6447436264941
 20
135.599779387277
 10
268.9862931892105
 20
135.7245957694049
  0
LWPOLYLINE
  5
171
330
1F
100
AcDbEntity
  8
0_Pen_No__1
  6
Continuous
100
AcDbPolyline
 90
        2
 70
   128
 43
0.0
 10
282.3576164117475
 20
119.2602513731611
 10
279.8824486304085
 20
121.1172338654434
  0
LWPOLYLINE
  5
172
330
1F
100
AcDbEntity
  8
0_Pen_No__1
  6
Continuous
100
AcDbPolyline
 90
        2
 70
   128
 43
0.0
 10
279.8824486304085
 20
121.1172338654434
 10
277.4519790924991
 20
123.3315827746577
  0
LWPOLYLINE
  5
173
330
1F
100
AcDbEntity
  8
0_Pen_No__1
  6
Continuous
100
AcDbPolyline
 90
        2
 70
   128
 43
0.0
 10
277.4519790924991
 20
123.3315827746577
 10
275.1400563850516
 20
125.8360162297101
  0
LWPOLYLINE
  5
174
330
1F
100
AcDbEntity
  8
0_Pen_No__1
  6
Continuous
100
AcDbPolyline
 90
        2
 70
   128
 43
0.0
 10
275.1400563850516
 20
125.8360162297101
 10
273.0169271096433
 20
128.5544382873753
  0
LWPOLYLINE
  5
175
330
1F
100
AcDbEntity
  8
0_Pen_No__1
  6
Continuous
100
AcDbPolyline
 90
        2
 70
   128
 43
0.0
 10
273.0169271096433
 20
128.5544382873753
 10
271.147101474951
 20
131.4042510690188
  0
LWPOLYLINE
  5
176
330
1F
100
AcDbEntity
  8
0_Pen_No__1
  6
Continuous
100
AcDbPolyline
 90
        2
 70
   128
 43
0.0
 10
271.147101474951
 20
131.4042510690188
 10
269.5873931867084
 20
134.298864455344
  0
LWPOLYLINE
  5
177
330
1F
100
AcDbEntity
  8
0_Pen_No__1
  6
Continuous
100
AcDbPolyline
 90
        2
 70
   128
 43
0.0
 10
283.6427086941277
 20
119.2094113330173
 10
282.3031471746823
 20
119.999023732952
  0
LWPOLYLINE
  5
178
330
1F
100
AcDbEntity
  8
0_Pen_No__1
  6
Continuous
100
AcDbPolyline
 90
        2
 70
   128
 43
0.0
 10
282.3031471746823
 20
119.999023732952
 10
279.9622519981385
 20
121.7552688618215
  0
LWPOLYLINE
  5
179
330
1F
100
AcDbEntity
  8
0_Pen_No__1
  6
Continuous
100
AcDbPolyline
 90
        2
 70
   128
 43
0.0
 10
279.9622519981385
 20
121.7552688618215
 10
277.6636302800782
 20
123.8494940371173
  0
LWPOLYLINE
  5
17A
330
1F
100
AcDbEntity
  8
0_Pen_No__1
  6
Continuous
100
AcDbPolyline
 90
        2
 70
   128
 43
0.0
 10
277.6636302800782
 20
123.8494940371173
 10
275.4771244782467
 20
126.2180672866184
  0
LWPOLYLINE
  5
17B
330
1F
100
AcDbEntity
  8
0_Pen_No__1
  6
Continuous
100
AcDbPolyline
 90
        2
 70
   128
 43
0.0
 10
275.4771244782467
 20
126.2180672866184
 10
273.469170465006
 20
128.7890207106954
  0
LWPOLYLINE
  5
17C
330
1F
100
AcDbEntity
  8
0_Pen_No__1
  6
Continuous
100
AcDbPolyline
 90
        2
 70
   128
 43
0.0
 10
273.469170465006
 20
128.7890207106954
 10
271.7007789069758
 20
131.4842371905229
  0
LWPOLYLINE
  5
17D
330
1F
100
AcDbEntity
  8
0_Pen_No__1
  6
Continuous
100
AcDbPolyline
 90
        2
 70
   128
 43
0.0
 10
271.7007789069758
 20
131.4842371905229
 10
270.2256814867975
 20
134.2218239372037
  0
LWPOLYLINE
  5
17E
330
1F
100
AcDbEntity
  8
0_Pen_No__1
  6
Continuous
100
AcDbPolyline
 90
        2
 70
   128
 43
0.0
 10
270.2256814867975
 20
134.2218239372037
 10
269.6447436266384
 20
135.599779387223
  0
LWPOLYLINE
  5
17F
330
1F
100
AcDbEntity
  8
0_Pen_No__1
  6
Continuous
100
AcDbPolyline
 90
        2
 70
   128
 43
0.0
 10
242.5984138128497
 20
151.2149852539295
 10
242.668442224104
 20
151.6273324816109
  0
LWPOLYLINE
  5
180
330
1F
100
AcDbEntity
  8
0_Pen_No__1
  6
Continuous
100
AcDbPolyline
 90
        2
 70
   128
 43
0.0
 10
242.668442224104
 20
151.6273324816109
 10
243.5674162848532
 20
153.194057538387
  0
LWPOLYLINE
  5
181
330
1F
100
AcDbEntity
  8
0_Pen_No__1
  6
Continuous
100
AcDbPolyline
 90
        2
 70
   128
 43
0.0
 10
243.5674162848532
 20
153.194057538387
 10
244.8781844169042
 20
154.2822375998463
  0
LWPOLYLINE
  5
182
330
1F
100
AcDbEntity
  8
0_Pen_No__1
  6
Continuous
100
AcDbPolyline
 90
        2
 70
   128
 43
0.0
 10
244.8781844169042
 20
154.2822375998463
 10
246.5609195938459
 20
154.8588088654659
  0
LWPOLYLINE
  5
183
330
1F
100
AcDbEntity
  8
0_Pen_No__1
  6
Continuous
100
AcDbPolyline
 90
        2
 70
   128
 43
0.0
 10
246.5609195938459
 20
154.8588088654659
 10
248.5644927588318
 20
154.9062525091003
  0
LWPOLYLINE
  5
184
330
1F
100
AcDbEntity
  8
0_Pen_No__1
  6
Continuous
100
AcDbPolyline
 90
        2
 70
   128
 43
0.0
 10
248.5644927588318
 20
154.9062525091003
 10
250.8280263551014
 20
154.4231269796446
  0
LWPOLYLINE
  5
185
330
1F
100
AcDbEntity
  8
0_Pen_No__1
  6
Continuous
100
AcDbPolyline
 90
        2
 70
   128
 43
0.0
 10
250.8280263551014
 20
154.4231269796446
 10
253.2827440597351
 20
153.4241118018376
  0
LWPOLYLINE
  5
186
330
1F
100
AcDbEntity
  8
0_Pen_No__1
  6
Continuous
100
AcDbPolyline
 90
        2
 70
   128
 43
0.0
 10
243.3515410732932
 20
150.5248268687303
 10
243.4120780573357
 20
150.8975294088906
  0
LWPOLYLINE
  5
187
330
1F
100
AcDbEntity
  8
0_Pen_No__1
  6
Continuous
100
AcDbPolyline
 90
        2
 70
   128
 43
0.0
 10
243.4120780573357
 20
150.8975294088906
 10
244.2647940815255
 20
152.3836363164692
  0
LWPOLYLINE
  5
188
330
1F
100
AcDbEntity
  8
0_Pen_No__1
  6
Continuous
100
AcDbPolyline
 90
        2
 70
   128
 43
0.0
 10
244.2647940815255
 20
152.3836363164692
 10
245.5081147055561
 20
153.4158224674653
  0
LWPOLYLINE
  5
189
330
1F
100
AcDbEntity
  8
0_Pen_No__1
  6
Continuous
100
AcDbPolyline
 90
        2
 70
   128
 43
0.0
 10
245.5081147055561
 20
153.4158224674653
 10
247.1042622614167
 20
153.9627254079934
  0
LWPOLYLINE
  5
18A
330
1F
100
AcDbEntity
  8
0_Pen_No__1
  6
Continuous
100
AcDbPolyline
 90
        2
 70
   128
 43
0.0
 10
247.1042622614167
 20
153.9627254079934
 10
249.0047386133119
 20
154.0077277689511
  0
LWPOLYLINE
  5
18B
330
1F
100
AcDbEntity
  8
0_Pen_No__1
  6
Continuous
100
AcDbPolyline
 90
        2
 70
   128
 43
0.0
 10
249.0047386133119
 20
154.0077277689511
 10
251.1517987489781
 20
153.5494621763718
  0
LWPOLYLINE
  5
18C
330
1F
100
AcDbEntity
  8
0_Pen_No__1
  6
Continuous
100
AcDbPolyline
 90
        2
 70
   128
 43
0.0
 10
251.1517987489781
 20
153.5494621763718
 10
253.4802053326563
 20
152.6018527983943
  0
LWPOLYLINE
  5
18D
330
1F
100
AcDbEntity
  8
0_Pen_No__1
  6
Continuous
100
AcDbPolyline
 90
        2
 70
   128
 43
0.0
 10
243.3515410731005
 20
150.5248268687789
 10
243.1001204189263
 20
149.4255904131345
  0
LWPOLYLINE
  5
18E
330
1F
100
AcDbEntity
  8
0_Pen_No__1
  6
Continuous
100
AcDbPolyline
 90
        2
 70
   128
 43
0.0
 10
243.1001204189263
 20
149.4255904131345
 10
242.2474043947361
 20
147.9394835055556
  0
LWPOLYLINE
  5
18F
330
1F
100
AcDbEntity
  8
0_Pen_No__1
  6
Continuous
100
AcDbPolyline
 90
        2
 70
   128
 43
0.0
 10
242.2474043947361
 20
147.9394835055556
 10
241.0040837707058
 20
146.9072973545598
  0
LWPOLYLINE
  5
190
330
1F
100
AcDbEntity
  8
0_Pen_No__1
  6
Continuous
100
AcDbPolyline
 90
        2
 70
   128
 43
0.0
 10
241.0040837707058
 20
146.9072973545598
 10
239.407936214845
 20
146.3603944140317
  0
LWPOLYLINE
  5
191
330
1F
100
AcDbEntity
  8
0_Pen_No__1
  6
Continuous
100
AcDbPolyline
 90
        2
 70
   128
 43
0.0
 10
239.407936214845
 20
146.3603944140317
 10
237.5074598629495
 20
146.3153920530749
  0
LWPOLYLINE
  5
192
330
1F
100
AcDbEntity
  8
0_Pen_No__1
  6
Continuous
100
AcDbPolyline
 90
        2
 70
   128
 43
0.0
 10
237.5074598629495
 20
146.3153920530749
 10
235.3603997272838
 20
146.7736576456542
  0
LWPOLYLINE
  5
193
330
1F
100
AcDbEntity
  8
0_Pen_No__1
  6
Continuous
100
AcDbPolyline
 90
        2
 70
   128
 43
0.0
 10
235.3603997272838
 20
146.7736576456542
 10
233.0319931436059
 20
147.7212670236319
  0
LWPOLYLINE
  5
194
330
1F
100
AcDbEntity
  8
0_Pen_No__1
  6
Continuous
100
AcDbPolyline
 90
        2
 70
   128
 43
0.0
 10
242.598413812657
 20
151.2149852539773
 10
242.356484585695
 20
150.1553934858537
  0
LWPOLYLINE
  5
195
330
1F
100
AcDbEntity
  8
0_Pen_No__1
  6
Continuous
100
AcDbPolyline
 90
        2
 70
   128
 43
0.0
 10
242.356484585695
 20
150.1553934858537
 10
241.550026598064
 20
148.7499047274732
  0
LWPOLYLINE
  5
196
330
1F
100
AcDbEntity
  8
0_Pen_No__1
  6
Continuous
100
AcDbPolyline
 90
        2
 70
   128
 43
0.0
 10
241.550026598064
 20
148.7499047274732
 10
240.3741534820539
 20
147.7737124869385
  0
LWPOLYLINE
  5
197
330
1F
100
AcDbEntity
  8
0_Pen_No__1
  6
Continuous
100
AcDbPolyline
 90
        2
 70
   128
 43
0.0
 10
240.3741534820539
 20
147.7737124869385
 10
238.8645935472745
 20
147.2564778715042
  0
LWPOLYLINE
  5
198
330
1F
100
AcDbEntity
  8
0_Pen_No__1
  6
Continuous
100
AcDbPolyline
 90
        2
 70
   128
 43
0.0
 10
238.8645935472745
 20
147.2564778715042
 10
237.0672140084694
 20
147.213916793224
  0
LWPOLYLINE
  5
199
330
1F
100
AcDbEntity
  8
0_Pen_No__1
  6
Continuous
100
AcDbPolyline
 90
        2
 70
   128
 43
0.0
 10
237.0672140084694
 20
147.213916793224
 10
235.0366273334082
 20
147.6473224489259
  0
LWPOLYLINE
  5
19A
330
1F
100
AcDbEntity
  8
0_Pen_No__1
  6
Continuous
100
AcDbPolyline
 90
        2
 70
   128
 43
0.0
 10
235.0366273334082
 20
147.6473224489259
 10
232.8345318706845
 20
148.5435260270751
  0
LWPOLYLINE
  5
19B
330
1F
100
AcDbEntity
  8
0_Pen_No__1
  6
Continuous
100
AcDbPolyline
 90
        2
 70
   128
 43
0.0
 10
231.8124903556674
 20
148.4253472896024
 10
231.6811845236529
 20
149.209411431263
  0
LWPOLYLINE
  5
19C
330
1F
100
AcDbEntity
  8
0_Pen_No__1
  6
Continuous
100
AcDbPolyline
 90
        2
 70
   128
 43
0.0
 10
249.8618215711515
 20
153.8247931491199
 10
241.0040837707058
 20
146.9072973545598
  0
LWPOLYLINE
  5
19D
330
1F
100
AcDbEntity
  8
0_Pen_No__1
  6
Continuous
100
AcDbPolyline
 90
        2
 70
   128
 43
0.0
 10
202.6068781180871
 20
182.6818367726108
 10
203.0767897550324
 20
182.4558446890267
  0
LWPOLYLINE
  5
19E
330
1F
100
AcDbEntity
  8
0_Pen_No__1
  6
Continuous
100
AcDbPolyline
 90
        2
 70
   128
 43
0.0
 10
203.0767897550324
 20
182.4558446890267
 10
205.6830258393246
 20
180.6635408157346
  0
LWPOLYLINE
  5
19F
330
1F
100
AcDbEntity
  8
0_Pen_No__1
  6
Continuous
100
AcDbPolyline
 90
        2
 70
   128
 43
0.0
 10
205.6830258393246
 20
180.6635408157346
 10
208.2733294100599
 20
178.4695804202345
  0
LWPOLYLINE
  5
1A0
330
1F
100
AcDbEntity
  8
0_Pen_No__1
  6
Continuous
100
AcDbPolyline
 90
        2
 70
   128
 43
0.0
 10
208.2733294100599
 20
178.4695804202345
 10
210.7689954039969
 20
175.9406258789449
  0
LWPOLYLINE
  5
1A1
330
1F
100
AcDbEntity
  8
0_Pen_No__1
  6
Continuous
100
AcDbPolyline
 90
        2
 70
   128
 43
0.0
 10
210.7689954039969
 20
175.9406258789449
 10
213.0941942727787
 20
173.1535181958896
  0
LWPOLYLINE
  5
1A2
330
1F
100
AcDbEntity
  8
0_Pen_No__1
  6
Continuous
100
AcDbPolyline
 90
        2
 70
   128
 43
0.0
 10
213.0941942727787
 20
173.1535181958896
 10
215.1782760253852
 20
170.1929422276762
  0
LWPOLYLINE
  5
1A3
330
1F
100
AcDbEntity
  8
0_Pen_No__1
  6
Continuous
100
AcDbPolyline
 90
        2
 70
   128
 43
0.0
 10
215.1782760253852
 20
170.1929422276762
 10
216.9579168923589
 20
167.1488535769727
  0
LWPOLYLINE
  5
1A4
330
1F
100
AcDbEntity
  8
0_Pen_No__1
  6
Continuous
100
AcDbPolyline
 90
        2
 70
   128
 43
0.0
 10
202.7381839501011
 20
181.8977726309503
 10
203.1839155905038
 20
181.6834093034334
  0
LWPOLYLINE
  5
1A5
330
1F
100
AcDbEntity
  8
0_Pen_No__1
  6
Continuous
100
AcDbPolyline
 90
        2
 70
   128
 43
0.0
 10
203.1839155905038
 20
181.6834093034334
 10
205.6560439520794
 20
179.9833310701413
  0
LWPOLYLINE
  5
1A6
330
1F
100
AcDbEntity
  8
0_Pen_No__1
  6
Continuous
100
AcDbPolyline
 90
        2
 70
   128
 43
0.0
 10
205.6560439520794
 20
179.9833310701413
 10
208.1130596310884
 20
177.9022641435577
  0
LWPOLYLINE
  5
1A7
330
1F
100
AcDbEntity
  8
0_Pen_No__1
  6
Continuous
100
AcDbPolyline
 90
        2
 70
   128
 43
0.0
 10
208.1130596310884
 20
177.9022641435577
 10
210.4803074494327
 20
175.5034406891756
  0
LWPOLYLINE
  5
1A8
330
1F
100
AcDbEntity
  8
0_Pen_No__1
  6
Continuous
100
AcDbPolyline
 90
        2
 70
   128
 43
0.0
 10
210.4803074494327
 20
175.5034406891756
 10
212.6858597800384
 20
172.8597477437939
  0
LWPOLYLINE
  5
1A9
330
1F
100
AcDbEntity
  8
0_Pen_No__1
  6
Continuous
100
AcDbPolyline
 90
        2
 70
   128
 43
0.0
 10
212.6858597800384
 20
172.8597477437939
 10
214.662702031403
 20
170.0515125797843
  0
LWPOLYLINE
  5
1AA
330
1F
100
AcDbEntity
  8
0_Pen_No__1
  6
Continuous
100
AcDbPolyline
 90
        2
 70
   128
 43
0.0
 10
214.662702031403
 20
170.0515125797843
 10
216.3507688520495
 20
167.164062001568
  0
LWPOLYLINE
  5
1AB
330
1F
100
AcDbEntity
  8
0_Pen_No__1
  6
Continuous
100
AcDbPolyline
 90
        2
 70
   128
 43
0.0
 10
216.3507688520495
 20
167.164062001568
 10
217.0247690189409
 20
165.7245958677094
  0
LWPOLYLINE
  5
1AC
330
1F
100
AcDbEntity
  8
0_Pen_No__1
  6
Continuous
100
AcDbPolyline
 90
        2
 70
   128
 43
0.0
 10
202.6068781180871
 20
182.6818367726108
 10
202.7381839501011
 20
181.8977726309503
  0
LWPOLYLINE
  5
1AD
330
1F
100
AcDbEntity
  8
0_Pen_No__1
  6
Continuous
100
AcDbPolyline
 90
        2
 70
   128
 43
0.0
 10
217.6832194562253
 20
165.5997794855795
 10
217.0247690189409
 20
165.7245958677094
  0
LWPOLYLINE
  5
1AE
330
1F
100
AcDbEntity
  8
0_Pen_No__1
  6
Continuous
100
AcDbPolyline
 90
        2
 70
   128
 43
0.0
 10
230.3960922412259
 20
149.2602514716117
 10
227.9209244598866
 20
151.1172339638938
  0
LWPOLYLINE
  5
1AF
330
1F
100
AcDbEntity
  8
0_Pen_No__1
  6
Continuous
100
AcDbPolyline
 90
        2
 70
   128
 43
0.0
 10
227.9209244598866
 20
151.1172339638938
 10
225.4904549219777
 20
153.3315828731081
  0
LWPOLYLINE
  5
1B0
330
1F
100
AcDbEntity
  8
0_Pen_No__1
  6
Continuous
100
AcDbPolyline
 90
        2
 70
   128
 43
0.0
 10
225.4904549219777
 20
153.3315828731081
 10
223.1785322145302
 20
155.8360163281616
  0
LWPOLYLINE
  5
1B1
330
1F
100
AcDbEntity
  8
0_Pen_No__1
  6
Continuous
100
AcDbPolyline
 90
        2
 70
   128
 43
0.0
 10
223.1785322145302
 20
155.8360163281616
 10
221.0554029391215
 20
158.5544383858257
  0
LWPOLYLINE
  5
1B2
330
1F
100
AcDbEntity
  8
0_Pen_No__1
  6
Continuous
100
AcDbPolyline
 90
        2
 70
   128
 43
0.0
 10
221.0554029391215
 20
158.5544383858257
 10
219.1855773044294
 20
161.4042511674691
  0
LWPOLYLINE
  5
1B3
330
1F
100
AcDbEntity
  8
0_Pen_No__1
  6
Continuous
100
AcDbPolyline
 90
        2
 70
   128
 43
0.0
 10
219.1855773044294
 20
161.4042511674691
 10
217.6258690161866
 20
164.2988645537944
  0
LWPOLYLINE
  5
1B4
330
1F
100
AcDbEntity
  8
0_Pen_No__1
  6
Continuous
100
AcDbPolyline
 90
        2
 70
   128
 43
0.0
 10
231.6811845236059
 20
149.2094114314677
 10
230.3416230041605
 20
149.999023831402
  0
LWPOLYLINE
  5
1B5
330
1F
100
AcDbEntity
  8
0_Pen_No__1
  6
Continuous
100
AcDbPolyline
 90
        2
 70
   128
 43
0.0
 10
230.3416230041605
 20
149.999023831402
 10
228.0007278276167
 20
151.7552689602719
  0
LWPOLYLINE
  5
1B6
330
1F
100
AcDbEntity
  8
0_Pen_No__1
  6
Continuous
100
AcDbPolyline
 90
        2
 70
   128
 43
0.0
 10
228.0007278276167
 20
151.7552689602719
 10
225.7021061095564
 20
153.8494941355677
  0
LWPOLYLINE
  5
1B7
330
1F
100
AcDbEntity
  8
0_Pen_No__1
  6
Continuous
100
AcDbPolyline
 90
        2
 70
   128
 43
0.0
 10
225.7021061095564
 20
153.8494941355677
 10
223.5156003077249
 20
156.2180673850702
  0
LWPOLYLINE
  5
1B8
330
1F
100
AcDbEntity
  8
0_Pen_No__1
  6
Continuous
100
AcDbPolyline
 90
        2
 70
   128
 43
0.0
 10
223.5156003077249
 20
156.2180673850702
 10
221.5076462944841
 20
158.7890208091469
  0
LWPOLYLINE
  5
1B9
330
1F
100
AcDbEntity
  8
0_Pen_No__1
  6
Continuous
100
AcDbPolyline
 90
        2
 70
   128
 43
0.0
 10
221.5076462944841
 20
158.7890208091469
 10
219.7392547364539
 20
161.4842372889735
  0
LWPOLYLINE
  5
1BA
330
1F
100
AcDbEntity
  8
0_Pen_No__1
  6
Continuous
100
AcDbPolyline
 90
        2
 70
   128
 43
0.0
 10
219.7392547364539
 20
161.4842372889735
 10
218.2641573162757
 20
164.2218240356554
  0
LWPOLYLINE
  5
1BB
330
1F
100
AcDbEntity
  8
0_Pen_No__1
  6
Continuous
100
AcDbPolyline
 90
        2
 70
   128
 43
0.0
 10
218.2641573162757
 20
164.2218240356554
 10
217.6832194561179
 20
165.5997794856725
  0
LWPOLYLINE
  5
1BC
330
1F
100
AcDbEntity
  8
0_Pen_No__1
  6
Continuous
100
AcDbPolyline
 90
        2
 70
   128
 43
0.0
 10
190.6368896423279
 20
181.2149853523799
 10
190.7069180535826
 20
181.627332580061
  0
LWPOLYLINE
  5
1BD
330
1F
100
AcDbEntity
  8
0_Pen_No__1
  6
Continuous
100
AcDbPolyline
 90
        2
 70
   128
 43
0.0
 10
190.7069180535826
 20
181.627332580061
 10
191.6058921143314
 20
183.1940576368372
  0
LWPOLYLINE
  5
1BE
330
1F
100
AcDbEntity
  8
0_Pen_No__1
  6
Continuous
100
AcDbPolyline
 90
        2
 70
   128
 43
0.0
 10
191.6058921143314
 20
183.1940576368372
 10
192.9166602463824
 20
184.2822376982967
  0
LWPOLYLINE
  5
1BF
330
1F
100
AcDbEntity
  8
0_Pen_No__1
  6
Continuous
100
AcDbPolyline
 90
        2
 70
   128
 43
0.0
 10
192.9166602463824
 20
184.2822376982967
 10
194.5993954233241
 20
184.8588089639163
  0
LWPOLYLINE
  5
1C0
330
1F
100
AcDbEntity
  8
0_Pen_No__1
  6
Continuous
100
AcDbPolyline
 90
        2
 70
   128
 43
0.0
 10
194.5993954233241
 20
184.8588089639163
 10
196.6029685883109
 20
184.9062526075504
  0
LWPOLYLINE
  5
1C1
330
1F
100
AcDbEntity
  8
0_Pen_No__1
  6
Continuous
100
AcDbPolyline
 90
        2
 70
   128
 43
0.0
 10
196.6029685883109
 20
184.9062526075504
 10
198.8665021845802
 20
184.423127078095
  0
LWPOLYLINE
  5
1C2
330
1F
100
AcDbEntity
  8
0_Pen_No__1
  6
Continuous
100
AcDbPolyline
 90
        2
 70
   128
 43
0.0
 10
198.8665021845802
 20
184.423127078095
 10
201.3212198892132
 20
183.4241119002877
  0
LWPOLYLINE
  5
1C3
330
1F
100
AcDbEntity
  8
0_Pen_No__1
  6
Continuous
100
AcDbPolyline
 90
        2
 70
   128
 43
0.0
 10
191.3900169027723
 20
180.5248269671826
 10
191.450553886814
 20
180.8975295073409
  0
LWPOLYLINE
  5
1C4
330
1F
100
AcDbEntity
  8
0_Pen_No__1
  6
Continuous
100
AcDbPolyline
 90
        2
 70
   128
 43
0.0
 10
191.450553886814
 20
180.8975295073409
 10
192.3032699110038
 20
182.3836364149196
  0
LWPOLYLINE
  5
1C5
330
1F
100
AcDbEntity
  8
0_Pen_No__1
  6
Continuous
100
AcDbPolyline
 90
        2
 70
   128
 43
0.0
 10
192.3032699110038
 20
182.3836364149196
 10
193.5465905350345
 20
183.4158225659157
  0
LWPOLYLINE
  5
1C6
330
1F
100
AcDbEntity
  8
0_Pen_No__1
  6
Continuous
100
AcDbPolyline
 90
        2
 70
   128
 43
0.0
 10
193.5465905350345
 20
183.4158225659157
 10
195.1427380908953
 20
183.9627255064438
  0
LWPOLYLINE
  5
1C7
330
1F
100
AcDbEntity
  8
0_Pen_No__1
  6
Continuous
100
AcDbPolyline
 90
        2
 70
   128
 43
0.0
 10
195.1427380908953
 20
183.9627255064438
 10
197.0432144427901
 20
184.0077278674015
  0
LWPOLYLINE
  5
1C8
330
1F
100
AcDbEntity
  8
0_Pen_No__1
  6
Continuous
100
AcDbPolyline
 90
        2
 70
   128
 43
0.0
 10
197.0432144427901
 20
184.0077278674015
 10
199.1902745784563
 20
183.5494622748222
  0
LWPOLYLINE
  5
1C9
330
1F
100
AcDbEntity
  8
0_Pen_No__1
  6
Continuous
100
AcDbPolyline
 90
        2
 70
   128
 43
0.0
 10
199.1902745784563
 20
183.5494622748222
 10
201.5186811621344
 20
182.6018528968447
  0
LWPOLYLINE
  5
1CA
330
1F
100
AcDbEntity
  8
0_Pen_No__1
  6
Continuous
100
AcDbPolyline
 90
        2
 70
   128
 43
0.0
 10
191.3900169028305
 20
180.5248269670845
 10
191.138596248657
 20
179.4255905114399
  0
LWPOLYLINE
  5
1CB
330
1F
100
AcDbEntity
  8
0_Pen_No__1
  6
Continuous
100
AcDbPolyline
 90
        2
 70
   128
 43
0.0
 10
191.138596248657
 20
179.4255905114399
 10
190.2858802244666
 20
177.9394836038604
  0
LWPOLYLINE
  5
1CC
330
1F
100
AcDbEntity
  8
0_Pen_No__1
  6
Continuous
100
AcDbPolyline
 90
        2
 70
   128
 43
0.0
 10
190.2858802244666
 20
177.9394836038604
 10
189.0425596004364
 20
176.907297452864
  0
LWPOLYLINE
  5
1CD
330
1F
100
AcDbEntity
  8
0_Pen_No__1
  6
Continuous
100
AcDbPolyline
 90
        2
 70
   128
 43
0.0
 10
189.0425596004364
 20
176.907297452864
 10
187.4464120445754
 20
176.3603945123362
  0
LWPOLYLINE
  5
1CE
330
1F
100
AcDbEntity
  8
0_Pen_No__1
  6
Continuous
100
AcDbPolyline
 90
        2
 70
   128
 43
0.0
 10
187.4464120445754
 20
176.3603945123362
 10
185.5459356926802
 20
176.3153921513796
  0
LWPOLYLINE
  5
1CF
330
1F
100
AcDbEntity
  8
0_Pen_No__1
  6
Continuous
100
AcDbPolyline
 90
        2
 70
   128
 43
0.0
 10
185.5459356926802
 20
176.3153921513796
 10
183.3988755570145
 20
176.7736577439585
  0
LWPOLYLINE
  5
1D0
330
1F
100
AcDbEntity
  8
0_Pen_No__1
  6
Continuous
100
AcDbPolyline
 90
        2
 70
   128
 43
0.0
 10
183.3988755570145
 20
176.7736577439585
 10
181.0704689733363
 20
177.7212671219372
  0
LWPOLYLINE
  5
1D1
330
1F
100
AcDbEntity
  8
0_Pen_No__1
  6
Continuous
100
AcDbPolyline
 90
        2
 70
   128
 43
0.0
 10
190.636889642387
 20
181.2149853522815
 10
190.3949604154257
 20
180.1553935841596
  0
LWPOLYLINE
  5
1D2
330
1F
100
AcDbEntity
  8
0_Pen_No__1
  6
Continuous
100
AcDbPolyline
 90
        2
 70
   128
 43
0.0
 10
190.3949604154257
 20
180.1553935841596
 10
189.5885024277942
 20
178.7499048257777
  0
LWPOLYLINE
  5
1D3
330
1F
100
AcDbEntity
  8
0_Pen_No__1
  6
Continuous
100
AcDbPolyline
 90
        2
 70
   128
 43
0.0
 10
189.5885024277942
 20
178.7499048257777
 10
188.4126293117841
 20
177.7737125852441
  0
LWPOLYLINE
  5
1D4
330
1F
100
AcDbEntity
  8
0_Pen_No__1
  6
Continuous
100
AcDbPolyline
 90
        2
 70
   128
 43
0.0
 10
188.4126293117841
 20
177.7737125852441
 10
186.9030693770047
 20
177.2564779698098
  0
LWPOLYLINE
  5
1D5
330
1F
100
AcDbEntity
  8
0_Pen_No__1
  6
Continuous
100
AcDbPolyline
 90
        2
 70
   128
 43
0.0
 10
186.9030693770047
 20
177.2564779698098
 10
185.1056898382
 20
177.2139168915286
  0
LWPOLYLINE
  5
1D6
330
1F
100
AcDbEntity
  8
0_Pen_No__1
  6
Continuous
100
AcDbPolyline
 90
        2
 70
   128
 43
0.0
 10
185.1056898382
 20
177.2139168915286
 10
183.0751031631387
 20
177.6473225472317
  0
LWPOLYLINE
  5
1D7
330
1F
100
AcDbEntity
  8
0_Pen_No__1
  6
Continuous
100
AcDbPolyline
 90
        2
 70
   128
 43
0.0
 10
183.0751031631387
 20
177.6473225472317
 10
180.8730077004151
 20
178.5435261253796
  0
LWPOLYLINE
  5
1D8
330
1F
100
AcDbEntity
  8
0_Pen_No__1
  6
Continuous
100
AcDbPolyline
 90
        2
 70
   128
 43
0.0
 10
179.8509661853981
 20
178.4253473879072
 10
179.7196603533836
 20
179.2094115295673
  0
LWPOLYLINE
  5
1D9
330
1F
100
AcDbEntity
  8
0_Pen_No__1
  6
Continuous
100
AcDbPolyline
 90
        2
 70
   128
 43
0.0
 10
197.9002974010714
 20
183.8247932475725
 10
189.0425596004364
 20
176.907297452864
  0
LWPOLYLINE
  5
1DA
330
1F
100
AcDbEntity
  8
0_Pen_No__1
  6
Continuous
100
AcDbPolyline
 90
        2
 70
   128
 43
0.0
 10
150.6453539478182
 20
212.6818368709154
 10
151.1152655847635
 20
212.455844787331
  0
LWPOLYLINE
  5
1DB
330
1F
100
AcDbEntity
  8
0_Pen_No__1
  6
Continuous
100
AcDbPolyline
 90
        2
 70
   128
 43
0.0
 10
151.1152655847635
 20
212.455844787331
 10
153.7215016690553
 20
210.6635409140392
  0
LWPOLYLINE
  5
1DC
330
1F
100
AcDbEntity
  8
0_Pen_No__1
  6
Continuous
100
AcDbPolyline
 90
        2
 70
   128
 43
0.0
 10
153.7215016690553
 20
210.6635409140392
 10
156.3118052397906
 20
208.4695805185404
  0
LWPOLYLINE
  5
1DD
330
1F
100
AcDbEntity
  8
0_Pen_No__1
  6
Continuous
100
AcDbPolyline
 90
        2
 70
   128
 43
0.0
 10
156.3118052397906
 20
208.4695805185404
 10
158.8074712337276
 20
205.9406259772496
  0
LWPOLYLINE
  5
1DE
330
1F
100
AcDbEntity
  8
0_Pen_No__1
  6
Continuous
100
AcDbPolyline
 90
        2
 70
   128
 43
0.0
 10
158.8074712337276
 20
205.9406259772496
 10
161.1326701025094
 20
203.1535182941953
  0
LWPOLYLINE
  5
1DF
330
1F
100
AcDbEntity
  8
0_Pen_No__1
  6
Continuous
100
AcDbPolyline
 90
        2
 70
   128
 43
0.0
 10
161.1326701025094
 20
203.1535182941953
 10
163.2167518551158
 20
200.1929423259818
  0
LWPOLYLINE
  5
1E0
330
1F
100
AcDbEntity
  8
0_Pen_No__1
  6
Continuous
100
AcDbPolyline
 90
        2
 70
   128
 43
0.0
 10
163.2167518551158
 20
200.1929423259818
 10
164.9963927220895
 20
197.1488536752772
  0
LWPOLYLINE
  5
1E1
330
1F
100
AcDbEntity
  8
0_Pen_No__1
  6
Continuous
100
AcDbPolyline
 90
        2
 70
   128
 43
0.0
 10
150.7766597798322
 20
211.897772729255
 10
151.2223914202343
 20
211.683409401739
  0
LWPOLYLINE
  5
1E2
330
1F
100
AcDbEntity
  8
0_Pen_No__1
  6
Continuous
100
AcDbPolyline
 90
        2
 70
   128
 43
0.0
 10
151.2223914202343
 20
211.683409401739
 10
153.6945197818103
 20
209.9833311684463
  0
LWPOLYLINE
  5
1E3
330
1F
100
AcDbEntity
  8
0_Pen_No__1
  6
Continuous
100
AcDbPolyline
 90
        2
 70
   128
 43
0.0
 10
153.6945197818103
 20
209.9833311684463
 10
156.1515354608188
 20
207.9022642418626
  0
LWPOLYLINE
  5
1E4
330
1F
100
AcDbEntity
  8
0_Pen_No__1
  6
Continuous
100
AcDbPolyline
 90
        2
 70
   128
 43
0.0
 10
156.1515354608188
 20
207.9022642418626
 10
158.5187832791638
 20
205.5034407874798
  0
LWPOLYLINE
  5
1E5
330
1F
100
AcDbEntity
  8
0_Pen_No__1
  6
Continuous
100
AcDbPolyline
 90
        2
 70
   128
 43
0.0
 10
158.5187832791638
 20
205.5034407874798
 10
160.724335609769
 20
202.8597478420986
  0
LWPOLYLINE
  5
1E6
330
1F
100
AcDbEntity
  8
0_Pen_No__1
  6
Continuous
100
AcDbPolyline
 90
        2
 70
   128
 43
0.0
 10
160.724335609769
 20
202.8597478420986
 10
162.7011778611337
 20
200.0515126780888
  0
LWPOLYLINE
  5
1E7
330
1F
100
AcDbEntity
  8
0_Pen_No__1
  6
Continuous
100
AcDbPolyline
 90
        2
 70
   128
 43
0.0
 10
162.7011778611337
 20
200.0515126780888
 10
164.3892446817804
 20
197.1640620998736
  0
LWPOLYLINE
  5
1E8
330
1F
100
AcDbEntity
  8
0_Pen_No__1
  6
Continuous
100
AcDbPolyline
 90
        2
 70
   128
 43
0.0
 10
164.3892446817804
 20
197.1640620998736
 10
165.0632448486729
 20
195.7245959660119
  0
LWPOLYLINE
  5
1E9
330
1F
100
AcDbEntity
  8
0_Pen_No__1
  6
Continuous
100
AcDbPolyline
 90
        2
 70
   128
 43
0.0
 10
150.6453539478182
 20
212.6818368709154
 10
150.7766597798322
 20
211.897772729255
  0
LWPOLYLINE
  5
1EA
330
1F
100
AcDbEntity
  8
0_Pen_No__1
  6
Continuous
100
AcDbPolyline
 90
        2
 70
   128
 43
0.0
 10
165.7216952859556
 20
195.599779583886
 10
165.0632448486729
 20
195.7245959660119
  0
LWPOLYLINE
  5
1EB
330
1F
100
AcDbEntity
  8
0_Pen_No__1
  6
Continuous
100
AcDbPolyline
 90
        2
 70
   128
 43
0.0
 10
178.4345680709568
 20
179.2602515699162
 10
175.9594002896177
 20
181.1172340621994
  0
LWPOLYLINE
  5
1EC
330
1F
100
AcDbEntity
  8
0_Pen_No__1
  6
Continuous
100
AcDbPolyline
 90
        2
 70
   128
 43
0.0
 10
175.9594002896177
 20
181.1172340621994
 10
173.5289307517084
 20
183.3315829714137
  0
LWPOLYLINE
  5
1ED
330
1F
100
AcDbEntity
  8
0_Pen_No__1
  6
Continuous
100
AcDbPolyline
 90
        2
 70
   128
 43
0.0
 10
173.5289307517084
 20
183.3315829714137
 10
171.2170080442613
 20
185.8360164264661
  0
LWPOLYLINE
  5
1EE
330
1F
100
AcDbEntity
  8
0_Pen_No__1
  6
Continuous
100
AcDbPolyline
 90
        2
 70
   128
 43
0.0
 10
171.2170080442613
 20
185.8360164264661
 10
169.0938787688524
 20
188.5544384841313
  0
LWPOLYLINE
  5
1EF
330
1F
100
AcDbEntity
  8
0_Pen_No__1
  6
Continuous
100
AcDbPolyline
 90
        2
 70
   128
 43
0.0
 10
169.0938787688524
 20
188.5544384841313
 10
167.2240531341603
 20
191.4042512657736
  0
LWPOLYLINE
  5
1F0
330
1F
100
AcDbEntity
  8
0_Pen_No__1
  6
Continuous
100
AcDbPolyline
 90
        2
 70
   128
 43
0.0
 10
167.2240531341603
 20
191.4042512657736
 10
165.6643448459177
 20
194.2988646520991
  0
LWPOLYLINE
  5
1F1
330
1F
100
AcDbEntity
  8
0_Pen_No__1
  6
Continuous
100
AcDbPolyline
 90
        2
 70
   128
 43
0.0
 10
179.7196603533369
 20
179.2094115297722
 10
178.3800988338916
 20
179.9990239297078
  0
LWPOLYLINE
  5
1F2
330
1F
100
AcDbEntity
  8
0_Pen_No__1
  6
Continuous
100
AcDbPolyline
 90
        2
 70
   128
 43
0.0
 10
178.3800988338916
 20
179.9990239297078
 10
176.039203657348
 20
181.7552690585766
  0
LWPOLYLINE
  5
1F3
330
1F
100
AcDbEntity
  8
0_Pen_No__1
  6
Continuous
100
AcDbPolyline
 90
        2
 70
   128
 43
0.0
 10
176.039203657348
 20
181.7552690585766
 10
173.7405819392875
 20
183.8494942338733
  0
LWPOLYLINE
  5
1F4
330
1F
100
AcDbEntity
  8
0_Pen_No__1
  6
Continuous
100
AcDbPolyline
 90
        2
 70
   128
 43
0.0
 10
173.7405819392875
 20
183.8494942338733
 10
171.5540761374555
 20
186.2180674833744
  0
LWPOLYLINE
  5
1F5
330
1F
100
AcDbEntity
  8
0_Pen_No__1
  6
Continuous
100
AcDbPolyline
 90
        2
 70
   128
 43
0.0
 10
171.5540761374555
 20
186.2180674833744
 10
169.5461221242148
 20
188.7890209074514
  0
LWPOLYLINE
  5
1F6
330
1F
100
AcDbEntity
  8
0_Pen_No__1
  6
Continuous
100
AcDbPolyline
 90
        2
 70
   128
 43
0.0
 10
169.5461221242148
 20
188.7890209074514
 10
167.7777305661853
 20
191.4842373872783
  0
LWPOLYLINE
  5
1F7
330
1F
100
AcDbEntity
  8
0_Pen_No__1
  6
Continuous
100
AcDbPolyline
 90
        2
 70
   128
 43
0.0
 10
167.7777305661853
 20
191.4842373872783
 10
166.3026331460063
 20
194.2218241339597
  0
LWPOLYLINE
  5
1F8
330
1F
100
AcDbEntity
  8
0_Pen_No__1
  6
Continuous
100
AcDbPolyline
 90
        2
 70
   128
 43
0.0
 10
166.3026331460063
 20
194.2218241339597
 10
165.7216952858477
 20
195.5997795839781
  0
LWPOLYLINE
  5
1F9
330
1F
100
AcDbEntity
  8
0_Pen_No__1
  6
Continuous
100
AcDbPolyline
 90
        2
 70
   128
 43
0.0
 10
440.6806285522665
 20
28.5435256335642
 10
439.7957261399465
 20
29.05442428175563
  0
LWPOLYLINE
  5
1FA
330
1F
100
AcDbEntity
  8
0_Pen_No__1
  6
Continuous
100
AcDbPolyline
 90
        2
 70
   128
 43
0.0
 10
424.80401357394
 20
47.1488531834605
 10
425.4132253139388
 20
45.8477215321773
  0
LWPOLYLINE
  5
1FB
330
1F
100
AcDbEntity
  8
0_Pen_No__1
  6
Continuous
100
AcDbPolyline
 90
        2
 70
   128
 43
0.0
 10
439.3833232945806
 20
28.58760272499204
 10
438.2421889228082
 20
29.2602510781008
  0
LWPOLYLINE
  5
1FC
330
1F
100
AcDbEntity
  8
0_Pen_No__1
  6
Continuous
100
AcDbPolyline
 90
        2
 70
   128
 43
0.0
 10
425.4719656977687
 20
44.29886416028349
 10
424.9611647484429
 20
45.51041783169251
  0
LWPOLYLINE
  5
1FD
330
1F
100
AcDbEntity
  8
0_Pen_No__1
  6
Continuous
100
AcDbPolyline
 90
        2
 70
   128
 43
0.0
 10
409.3647778437156
 20
62.60185250333271
 10
410.3158356968722
 20
62.05275899339856
  0
LWPOLYLINE
  5
1FE
330
1F
100
AcDbEntity
  8
0_Pen_No__1
  6
Continuous
100
AcDbPolyline
 90
        2
 70
   128
 43
0.0
 10
388.7191043819972
 20
58.54352573186871
 10
387.8342019696771
 20
59.05442438006013
  0
LWPOLYLINE
  5
1FF
330
1F
100
AcDbEntity
  8
0_Pen_No__1
  6
Continuous
100
AcDbPolyline
 90
        2
 70
   128
 43
0.0
 10
372.8424894034185
 20
77.148853281912
 10
373.4517011435033
 20
75.84772163044494
  0
LWPOLYLINE
  5
200
330
1F
100
AcDbEntity
  8
0_Pen_No__1
  6
Continuous
100
AcDbPolyline
 90
        2
 70
   128
 43
0.0
 10
387.4217991243113
 20
58.58760282329654
 10
386.2806647525384
 20
59.26025117640508
  0
LWPOLYLINE
  5
201
330
1F
100
AcDbEntity
  8
0_Pen_No__1
  6
Continuous
100
AcDbPolyline
 90
        2
 70
   128
 43
0.0
 10
373.5104415274993
 20
74.298864258588
 10
372.9996405780998
 20
75.51041793017087
  0
LWPOLYLINE
  5
202
330
1F
100
AcDbEntity
  8
0_Pen_No__1
  6
Continuous
100
AcDbPolyline
 90
        2
 70
   128
 43
0.0
 10
357.4032536731949
 20
92.60185260178399
 10
358.3543115263507
 20
92.05275909184984
  0
LWPOLYLINE
  5
203
330
1F
100
AcDbEntity
  8
0_Pen_No__1
  6
Continuous
100
AcDbPolyline
 90
        2
 70
   128
 43
0.0
 10
336.7575802114756
 20
88.54352583031908
 10
335.8726777991564
 20
89.05442447851051
  0
LWPOLYLINE
  5
204
330
1F
100
AcDbEntity
  8
0_Pen_No__1
  6
Continuous
100
AcDbPolyline
 90
        2
 70
   128
 43
0.0
 10
320.88096523315
 20
107.1488533802165
 10
321.4901769731487
 20
105.8477217289333
  0
LWPOLYLINE
  5
205
330
1F
100
AcDbEntity
  8
0_Pen_No__1
  6
Continuous
100
AcDbPolyline
 90
        2
 70
   128
 43
0.0
 10
335.4602749537897
 20
88.58760292174694
 10
334.3191405820168
 20
89.26025127485569
  0
LWPOLYLINE
  5
206
330
1F
100
AcDbEntity
  8
0_Pen_No__1
  6
Continuous
100
AcDbPolyline
 90
        2
 70
   128
 43
0.0
 10
321.5489173569778
 20
104.2988643570384
 10
321.038116407652
 20
105.5104180284485
  0
LWPOLYLINE
  5
207
330
1F
100
AcDbEntity
  8
0_Pen_No__1
  6
Continuous
100
AcDbPolyline
 90
        2
 70
   128
 43
0.0
 10
305.4417295029247
 20
122.6018527000887
 10
306.3927873560822
 20
122.0527591901546
  0
LWPOLYLINE
  5
208
330
1F
100
AcDbEntity
  8
0_Pen_No__1
  6
Continuous
100
AcDbPolyline
 90
        2
 70
   128
 43
0.0
 10
284.7960560412063
 20
118.5435259286247
 10
283.9111536288862
 20
119.0544245768161
  0
LWPOLYLINE
  5
209
330
1F
100
AcDbEntity
  8
0_Pen_No__1
  6
Continuous
100
AcDbPolyline
 90
        2
 70
   128
 43
0.0
 10
268.9194410626284
 20
137.1488534786671
 10
269.5286528027124
 20
135.847721827201
  0
LWPOLYLINE
  5
20A
330
1F
100
AcDbEntity
  8
0_Pen_No__1
  6
Continuous
100
AcDbPolyline
 90
        2
 70
   128
 43
0.0
 10
283.4987507835199
 20
118.5876030200525
 10
282.3576164117475
 20
119.2602513731611
  0
LWPOLYLINE
  5
20B
330
1F
100
AcDbEntity
  8
0_Pen_No__1
  6
Continuous
100
AcDbPolyline
 90
        2
 70
   128
 43
0.0
 10
269.5873931867084
 20
134.298864455344
 10
269.0765922373089
 20
135.510418126928
  0
LWPOLYLINE
  5
20C
330
1F
100
AcDbEntity
  8
0_Pen_No__1
  6
Continuous
100
AcDbPolyline
 90
        2
 70
   128
 43
0.0
 10
253.4802053326563
 20
152.6018527983943
 10
254.4312631855597
 20
152.052759288605
  0
LWPOLYLINE
  5
20D
330
1F
100
AcDbEntity
  8
0_Pen_No__1
  6
Continuous
100
AcDbPolyline
 90
        2
 70
   128
 43
0.0
 10
232.8345318706845
 20
148.5435260270751
 10
231.949629458365
 20
149.0544246752665
  0
LWPOLYLINE
  5
20E
330
1F
100
AcDbEntity
  8
0_Pen_No__1
  6
Continuous
100
AcDbPolyline
 90
        2
 70
   128
 43
0.0
 10
216.9579168923589
 20
167.1488535769727
 10
217.5671286323567
 20
165.8477219256893
  0
LWPOLYLINE
  5
20F
330
1F
100
AcDbEntity
  8
0_Pen_No__1
  6
Continuous
100
AcDbPolyline
 90
        2
 70
   128
 43
0.0
 10
231.5372266129986
 20
148.587603118503
 10
230.3960922412259
 20
149.2602514716117
  0
LWPOLYLINE
  5
210
330
1F
100
AcDbEntity
  8
0_Pen_No__1
  6
Continuous
100
AcDbPolyline
 90
        2
 70
   128
 43
0.0
 10
217.6258690161866
 20
164.2988645537944
 10
217.1150680668613
 20
165.5104182252025
  0
LWPOLYLINE
  5
211
330
1F
100
AcDbEntity
  8
0_Pen_No__1
  6
Continuous
100
AcDbPolyline
 90
        2
 70
   128
 43
0.0
 10
201.5186811621344
 20
182.6018528968447
 10
202.4697390152902
 20
182.0527593869106
  0
LWPOLYLINE
  5
212
330
1F
100
AcDbEntity
  8
0_Pen_No__1
  6
Continuous
100
AcDbPolyline
 90
        2
 70
   128
 43
0.0
 10
180.8730077004151
 20
178.5435261253796
 10
179.9881052880959
 20
179.0544247735712
  0
LWPOLYLINE
  5
213
330
1F
100
AcDbEntity
  8
0_Pen_No__1
  6
Continuous
100
AcDbPolyline
 90
        2
 70
   128
 43
0.0
 10
164.9963927220895
 20
197.1488536752772
 10
165.6056044620883
 20
195.8477220239931
  0
LWPOLYLINE
  5
214
330
1F
100
AcDbEntity
  8
0_Pen_No__1
  6
Continuous
100
AcDbPolyline
 90
        2
 70
   128
 43
0.0
 10
179.5757024427292
 20
178.5876032168075
 10
178.4345680709568
 20
179.2602515699162
  0
LWPOLYLINE
  5
215
330
1F
100
AcDbEntity
  8
0_Pen_No__1
  6
Continuous
100
AcDbPolyline
 90
        2
 70
   128
 43
0.0
 10
165.6643448459177
 20
194.2988646520991
 10
165.1535438965915
 20
195.5104183235092
  0
LWPOLYLINE
  5
216
330
1F
100
AcDbEntity
  8
0_Pen_No__1
  6
Continuous
100
AcDbPolyline
 90
        2
 70
   128
 43
0.0
 10
513.0903649113046
 20
3.424111310045705
 10
514.3760231401496
 20
2.681836182293104
  0
LWPOLYLINE
  5
217
330
1F
100
AcDbEntity
  8
0_Pen_No__1
  6
Continuous
100
AcDbPolyline
 90
        2
 70
   128
 43
0.0
 10
514.376023140179
 20
2.681836182415229
 10
514.8459347771234
 20
2.455844098831137
  0
LWPOLYLINE
  5
218
330
1F
100
AcDbEntity
  8
0_Pen_No__1
  6
Continuous
100
AcDbPolyline
 90
        2
 70
   128
 43
0.0
 10
514.8459347771234
 20
2.455844098831137
 10
517.452170861416
 20
0.663540225538814
  0
LWPOLYLINE
  5
219
330
1F
100
AcDbEntity
  8
0_Pen_No__1
  6
Continuous
100
AcDbPolyline
 90
        2
 70
   128
 43
0.0
 10
514.5073289721926
 20
1.897772040754683
 10
514.9530606125951
 20
1.683408713237786
  0
LWPOLYLINE
  5
21A
330
1F
100
AcDbEntity
  8
0_Pen_No__1
  6
Continuous
100
AcDbPolyline
 90
        2
 70
   128
 43
0.0
 10
514.9530606125951
 20
1.683408713237786
 10
517.4251889741706
 20
-0.0166695200540939
  0
LWPOLYLINE
  5
21B
330
1F
100
AcDbEntity
  8
0_Pen_No__1
  6
Continuous
100
AcDbPolyline
 90
        2
 70
   128
 43
0.0
 10
514.376023140179
 20
2.681836182415229
 10
514.5073289721926
 20
1.897772040754683
  0
LWPOLYLINE
  5
21C
330
1F
100
AcDbEntity
  8
0_Pen_No__1
  6
Continuous
100
AcDbPolyline
 90
        2
 70
   128
 43
0.0
 10
502.4060346644193
 20
1.214984762184054
 10
502.4760630756741
 20
1.62733198986563
  0
LWPOLYLINE
  5
21D
330
1F
100
AcDbEntity
  8
0_Pen_No__1
  6
Continuous
100
AcDbPolyline
 90
        2
 70
   128
 43
0.0
 10
502.4760630756741
 20
1.62733198986563
 10
503.3750371364229
 20
3.194057046641538
  0
LWPOLYLINE
  5
21E
330
1F
100
AcDbEntity
  8
0_Pen_No__1
  6
Continuous
100
AcDbPolyline
 90
        2
 70
   128
 43
0.0
 10
503.3750371364229
 20
3.194057046641538
 10
504.6858052684734
 20
4.282237108101036
  0
LWPOLYLINE
  5
21F
330
1F
100
AcDbEntity
  8
0_Pen_No__1
  6
Continuous
100
AcDbPolyline
 90
        2
 70
   128
 43
0.0
 10
504.6858052684734
 20
4.282237108101036
 10
506.368540445416
 20
4.858808373720644
  0
LWPOLYLINE
  5
220
330
1F
100
AcDbEntity
  8
0_Pen_No__1
  6
Continuous
100
AcDbPolyline
 90
        2
 70
   128
 43
0.0
 10
506.368540445416
 20
4.858808373720644
 10
508.3721136104024
 20
4.906252017355047
  0
LWPOLYLINE
  5
221
330
1F
100
AcDbEntity
  8
0_Pen_No__1
  6
Continuous
100
AcDbPolyline
 90
        2
 70
   128
 43
0.0
 10
508.3721136104024
 20
4.906252017355047
 10
510.6356472066719
 20
4.423126487899317
  0
LWPOLYLINE
  5
222
330
1F
100
AcDbEntity
  8
0_Pen_No__1
  6
Continuous
100
AcDbPolyline
 90
        2
 70
   128
 43
0.0
 10
510.6356472066719
 20
4.423126487899317
 10
513.0903649113046
 20
3.424111310092334
  0
LWPOLYLINE
  5
223
330
1F
100
AcDbEntity
  8
0_Pen_No__1
  6
Continuous
100
AcDbPolyline
 90
        2
 70
   128
 43
0.0
 10
503.1591619248638
 20
0.524826376986795
 10
503.2196989089059
 20
0.8975289171453266
  0
LWPOLYLINE
  5
224
330
1F
100
AcDbEntity
  8
0_Pen_No__1
  6
Continuous
100
AcDbPolyline
 90
        2
 70
   128
 43
0.0
 10
503.2196989089059
 20
0.8975289171453266
 10
504.0724149330956
 20
2.383635824723993
  0
LWPOLYLINE
  5
225
330
1F
100
AcDbEntity
  8
0_Pen_No__1
  6
Continuous
100
AcDbPolyline
 90
        2
 70
   128
 43
0.0
 10
504.0724149330956
 20
2.383635824723993
 10
505.3157355571257
 20
3.415821975719866
  0
LWPOLYLINE
  5
226
330
1F
100
AcDbEntity
  8
0_Pen_No__1
  6
Continuous
100
AcDbPolyline
 90
        2
 70
   128
 43
0.0
 10
505.3157355571257
 20
3.415821975719866
 10
506.9118831129867
 20
3.962724916247926
  0
LWPOLYLINE
  5
227
330
1F
100
AcDbEntity
  8
0_Pen_No__1
  6
Continuous
100
AcDbPolyline
 90
        2
 70
   128
 43
0.0
 10
506.9118831129867
 20
3.962724916247926
 10
508.812359464882
 20
4.007727277205872
  0
LWPOLYLINE
  5
228
330
1F
100
AcDbEntity
  8
0_Pen_No__1
  6
Continuous
100
AcDbPolyline
 90
        2
 70
   128
 43
0.0
 10
508.812359464882
 20
4.007727277205872
 10
510.9594196005477
 20
3.549461684626318
  0
LWPOLYLINE
  5
229
330
1F
100
AcDbEntity
  8
0_Pen_No__1
  6
Continuous
100
AcDbPolyline
 90
        2
 70
   128
 43
0.0
 10
510.9594196005477
 20
3.549461684626318
 10
513.2878261842259
 20
2.601852306649097
  0
LWPOLYLINE
  5
22A
330
1F
100
AcDbEntity
  8
0_Pen_No__1
  6
Continuous
100
AcDbPolyline
 90
        2
 70
   128
 43
0.0
 10
502.4060346644793
 20
1.214984762086133
 10
502.1641054375169
 20
0.1553929939637072
  0
LWPOLYLINE
  5
22B
330
1F
100
AcDbEntity
  8
0_Pen_No__1
  6
Continuous
100
AcDbPolyline
 90
        2
 70
   128
 43
0.0
 10
462.4144989699096
 20
32.68183628071973
 10
462.8844106068549
 20
32.45584419713564
  0
LWPOLYLINE
  5
22C
330
1F
100
AcDbEntity
  8
0_Pen_No__1
  6
Continuous
100
AcDbPolyline
 90
        2
 70
   128
 43
0.0
 10
462.8844106068549
 20
32.45584419713564
 10
465.4906466911467
 20
30.66354032384354
  0
LWPOLYLINE
  5
22D
330
1F
100
AcDbEntity
  8
0_Pen_No__1
  6
Continuous
100
AcDbPolyline
 90
        2
 70
   128
 43
0.0
 10
465.4906466911467
 20
30.66354032384354
 10
468.080950261882
 20
28.46957992834452
  0
LWPOLYLINE
  5
22E
330
1F
100
AcDbEntity
  8
0_Pen_No__1
  6
Continuous
100
AcDbPolyline
 90
        2
 70
   128
 43
0.0
 10
468.080950261882
 20
28.46957992834452
 10
470.576616255819
 20
25.94062538705398
  0
LWPOLYLINE
  5
22F
330
1F
100
AcDbEntity
  8
0_Pen_No__1
  6
Continuous
100
AcDbPolyline
 90
        2
 70
   128
 43
0.0
 10
470.576616255819
 20
25.94062538705398
 10
472.9018151246008
 20
23.15351770399964
  0
LWPOLYLINE
  5
230
330
1F
100
AcDbEntity
  8
0_Pen_No__1
  6
Continuous
100
AcDbPolyline
 90
        2
 70
   128
 43
0.0
 10
472.9018151246008
 20
23.15351770399964
 10
474.9858968772073
 20
20.19294173578622
  0
LWPOLYLINE
  5
231
330
1F
100
AcDbEntity
  8
0_Pen_No__1
  6
Continuous
100
AcDbPolyline
 90
        2
 70
   128
 43
0.0
 10
474.9858968772073
 20
20.19294173578622
 10
476.765537744181
 20
17.14885308508162
  0
LWPOLYLINE
  5
232
330
1F
100
AcDbEntity
  8
0_Pen_No__1
  6
Continuous
100
AcDbPolyline
 90
        2
 70
   128
 43
0.0
 10
462.5458048019241
 20
31.89777213905941
 10
462.9915364423257
 20
31.68340881154318
  0
LWPOLYLINE
  5
233
330
1F
100
AcDbEntity
  8
0_Pen_No__1
  6
Continuous
100
AcDbPolyline
 90
        2
 70
   128
 43
0.0
 10
462.9915364423257
 20
31.68340881154318
 10
465.4636648039013
 20
29.98333057825041
  0
LWPOLYLINE
  5
234
330
1F
100
AcDbEntity
  8
0_Pen_No__1
  6
Continuous
100
AcDbPolyline
 90
        2
 70
   128
 43
0.0
 10
465.4636648039013
 20
29.98333057825041
 10
467.9206804829103
 20
27.9022636516668
  0
LWPOLYLINE
  5
235
330
1F
100
AcDbEntity
  8
0_Pen_No__1
  6
Continuous
100
AcDbPolyline
 90
        2
 70
   128
 43
0.0
 10
467.9206804829103
 20
27.9022636516668
 10
470.2879283012552
 20
25.50344019728444
  0
LWPOLYLINE
  5
236
330
1F
100
AcDbEntity
  8
0_Pen_No__1
  6
Continuous
100
AcDbPolyline
 90
        2
 70
   128
 43
0.0
 10
470.2879283012552
 20
25.50344019728444
 10
472.4934806318605
 20
22.85974725190275
  0
LWPOLYLINE
  5
237
330
1F
100
AcDbEntity
  8
0_Pen_No__1
  6
Continuous
100
AcDbPolyline
 90
        2
 70
   128
 43
0.0
 10
472.4934806318605
 20
22.85974725190275
 10
474.4703228832255
 20
20.05151208789323
  0
LWPOLYLINE
  5
238
330
1F
100
AcDbEntity
  8
0_Pen_No__1
  6
Continuous
100
AcDbPolyline
 90
        2
 70
   128
 43
0.0
 10
474.4703228832255
 20
20.05151208789323
 10
476.1583897038716
 20
17.16406150967796
  0
LWPOLYLINE
  5
239
330
1F
100
AcDbEntity
  8
0_Pen_No__1
  6
Continuous
100
AcDbPolyline
 90
        2
 70
   128
 43
0.0
 10
476.1583897038716
 20
17.16406150967796
 10
476.8323898707639
 20
15.72459537581626
  0
LWPOLYLINE
  5
23A
330
1F
100
AcDbEntity
  8
0_Pen_No__1
  6
Continuous
100
AcDbPolyline
 90
        2
 70
   128
 43
0.0
 10
462.4144989699096
 20
32.68183628071973
 10
462.5458048019241
 20
31.89777213905941
  0
LWPOLYLINE
  5
23B
330
1F
100
AcDbEntity
  8
0_Pen_No__1
  6
Continuous
100
AcDbPolyline
 90
        2
 70
   128
 43
0.0
 10
477.4908403080474
 20
15.59977899369035
 10
476.8323898707639
 20
15.72459537581626
  0
LWPOLYLINE
  5
23C
330
1F
100
AcDbEntity
  8
0_Pen_No__1
  6
Continuous
100
AcDbPolyline
 90
        2
 70
   128
 43
0.0
 10
487.7285453117092
 20
1.117233472003751
 10
485.2980757737998
 20
3.331582381218098
  0
LWPOLYLINE
  5
23D
330
1F
100
AcDbEntity
  8
0_Pen_No__1
  6
Continuous
100
AcDbPolyline
 90
        2
 70
   128
 43
0.0
 10
485.2980757737998
 20
3.331582381218098
 10
482.9861530663528
 20
5.836015836270455
  0
LWPOLYLINE
  5
23E
330
1F
100
AcDbEntity
  8
0_Pen_No__1
  6
Continuous
100
AcDbPolyline
 90
        2
 70
   128
 43
0.0
 10
482.9861530663528
 20
5.836015836270455
 10
480.8630237909436
 20
8.554437893935715
  0
LWPOLYLINE
  5
23F
330
1F
100
AcDbEntity
  8
0_Pen_No__1
  6
Continuous
100
AcDbPolyline
 90
        2
 70
   128
 43
0.0
 10
480.8630237909436
 20
8.554437893935715
 10
478.9931981562522
 20
11.40425067557825
  0
LWPOLYLINE
  5
240
330
1F
100
AcDbEntity
  8
0_Pen_No__1
  6
Continuous
100
AcDbPolyline
 90
        2
 70
   128
 43
0.0
 10
478.9931981562522
 20
11.40425067557825
 10
477.43348986801
 20
14.29886406190349
  0
LWPOLYLINE
  5
241
330
1F
100
AcDbEntity
  8
0_Pen_No__1
  6
Continuous
100
AcDbPolyline
 90
        2
 70
   128
 43
0.0
 10
490.149243855983
 20
-0.0009766604878308
 10
487.8083486794392
 20
1.755268468381019
  0
LWPOLYLINE
  5
242
330
1F
100
AcDbEntity
  8
0_Pen_No__1
  6
Continuous
100
AcDbPolyline
 90
        2
 70
   128
 43
0.0
 10
487.8083486794392
 20
1.755268468381019
 10
485.5097269613794
 20
3.84949364367769
  0
LWPOLYLINE
  5
243
330
1F
100
AcDbEntity
  8
0_Pen_No__1
  6
Continuous
100
AcDbPolyline
 90
        2
 70
   128
 43
0.0
 10
485.5097269613794
 20
3.84949364367769
 10
483.323221159547
 20
6.218066893179039
  0
LWPOLYLINE
  5
244
330
1F
100
AcDbEntity
  8
0_Pen_No__1
  6
Continuous
100
AcDbPolyline
 90
        2
 70
   128
 43
0.0
 10
483.323221159547
 20
6.218066893179039
 10
481.3152671463062
 20
8.789020317255577
  0
LWPOLYLINE
  5
245
330
1F
100
AcDbEntity
  8
0_Pen_No__1
  6
Continuous
100
AcDbPolyline
 90
        2
 70
   128
 43
0.0
 10
481.3152671463062
 20
8.789020317255577
 10
479.5468755882765
 20
11.48423679708264
  0
LWPOLYLINE
  5
246
330
1F
100
AcDbEntity
  8
0_Pen_No__1
  6
Continuous
100
AcDbPolyline
 90
        2
 70
   128
 43
0.0
 10
479.5468755882765
 20
11.48423679708264
 10
478.0717781680978
 20
14.22182354376432
  0
LWPOLYLINE
  5
247
330
1F
100
AcDbEntity
  8
0_Pen_No__1
  6
Continuous
100
AcDbPolyline
 90
        2
 70
   128
 43
0.0
 10
478.0717781680978
 20
14.22182354376432
 10
477.4908403079391
 20
15.5997789937825
  0
LWPOLYLINE
  5
248
330
1F
100
AcDbEntity
  8
0_Pen_No__1
  6
Continuous
100
AcDbPolyline
 90
        2
 70
   128
 43
0.0
 10
513.2878261842259
 20
2.601852306649097
 10
514.238884037382
 20
2.052758796714946
  0
LWPOLYLINE
  5
249
330
1F
100
AcDbEntity
  8
0_Pen_No__1
  6
Continuous
100
AcDbPolyline
 90
        2
 70
   128
 43
0.0
 10
476.765537744181
 20
17.14885308508162
 10
477.3747494841797
 20
15.84772143379752
  0
LWPOLYLINE
  5
24A
330
1F
100
AcDbEntity
  8
0_Pen_No__1
  6
Continuous
100
AcDbPolyline
 90
        2
 70
   128
 43
0.0
 10
477.43348986801
 20
14.29886406190349
 10
476.9226889186829
 20
15.51041773331362
  0
LWPOLYLINE
  5
24B
330
1F
100
AcDbEntity
  8
0_Pen_No__1
  6
Continuous
100
AcDbPolyline
 90
        2
 70
   128
 43
0.0
 10
199.3225243081059
 20
189.2849301132009
 10
192.9166602463824
 20
184.2822376982967
  0
LWPOLYLINE
  5
24C
330
1F
100
AcDbEntity
  8
0_Pen_No__1
  6
Continuous
100
AcDbPolyline
 90
        2
 70
   128
 43
0.0
 10
251.2840484786273
 20
159.2849300147501
 10
244.8781844169042
 20
154.2822375998463
  0
LWPOLYLINE
  5
24D
330
1F
100
AcDbEntity
  8
0_Pen_No__1
  6
Continuous
100
AcDbPolyline
 90
        2
 70
   128
 43
0.0
 10
154.1106061382221
 20
215.3880433532302
 10
150.6453539478182
 20
212.6818368709154
  0
LWPOLYLINE
  5
24E
330
1F
100
AcDbEntity
  8
0_Pen_No__1
  6
Continuous
100
AcDbPolyline
 90
        2
 70
   128
 43
0.0
 10
695.5002821288175
 20
435.6182583976085
 10
296.8397085871731
 20
124.2822375015406
  0
LWPOLYLINE
  5
24F
330
1F
100
AcDbEntity
  8
0_Pen_No__1
  6
Continuous
100
AcDbPolyline
 90
        2
 70
   128
 43
0.0
 10
695.500282128817
 20
223.8794011759089
 10
452.7242810982343
 20
34.28223720648126
  0
LWPOLYLINE
  5
250
330
1F
100
AcDbEntity
  8
0_Pen_No__1
  6
Continuous
100
AcDbPolyline
 90
        2
 70
   128
 43
0.0
 10
695.500282128817
 20
153.2997821020721
 10
504.6858052684734
 20
4.282237108101036
  0
LWPOLYLINE
  5
251
330
1F
100
AcDbEntity
  8
0_Pen_No__1
  6
Continuous
100
AcDbPolyline
 90
        2
 70
   128
 43
0.0
 10
695.500282128817
 20
294.4590202496946
 10
400.7627569279645
 20
64.28223730478554
  0
LWPOLYLINE
  5
252
330
1F
100
AcDbEntity
  8
0_Pen_No__1
  6
Continuous
100
AcDbPolyline
 90
        2
 70
   128
 43
0.0
 10
695.500282128817
 20
365.038639323823
 10
348.8012327574424
 20
94.28223740323592
  0
LWPOLYLINE
  5
253
330
1F
100
AcDbEntity
  8
0_Pen_No__1
  6
Continuous
100
AcDbPolyline
 90
        2
 70
   128
 43
0.0
 10
278.3986460951583
 20
741.0271796565653
 10
12.35818431771452
 20
587.4286466535721
  0
LWPOLYLINE
  5
254
330
1F
100
AcDbEntity
  8
0_Pen_No__1
  6
Continuous
100
AcDbPolyline
 90
        2
 70
   128
 43
0.0
 10
6.601170504611481
 20
741.0271796565653
 10
4.292326133070512
 20
739.694167622067
  0
LWPOLYLINE
  5
255
330
1F
100
AcDbEntity
  8
0_Pen_No__1
  6
Continuous
100
AcDbPolyline
 90
        2
 70
   128
 43
0.0
 10
517.452170861416
 20
0.663540225538814
 10
518.6314240359299
 20
-0.3352750447560698
  0
LWPOLYLINE
  5
256
330
1F
100
AcDbEntity
  8
0_Pen_No__1
  6
Continuous
100
AcDbPolyline
 90
        2
 70
   128
 43
0.0
 10
517.4251889741706
 20
-0.0166695200540939
 10
517.8013512011573
 20
-0.3352750447560698
  0
LWPOLYLINE
  5
257
330
1F
100
AcDbEntity
  8
0_Pen_No__1
  6
Continuous
100
AcDbPolyline
 90
        2
 70
   128
 43
0.0
 10
503.1591619249224
 20
0.5248263768888733
 10
502.962436951896
 20
-0.3352750447560698
  0
LWPOLYLINE
  5
258
330
1F
100
AcDbEntity
  8
0_Pen_No__1
  6
Continuous
100
AcDbPolyline
 90
        2
 70
   128
 43
0.0
 10
502.1641054375169
 20
0.1553929939637072
 10
501.8825641183552
 20
-0.3352750447562919
  0
LWPOLYLINE
  5
259
330
1F
100
AcDbEntity
  8
0_Pen_No__1
  6
Continuous
100
AcDbPolyline
 90
        2
 70
   128
 43
0.0
 10
509.6694424231626
 20
3.824792657376883
 10
504.3425452291558
 20
-0.3352750447560698
  0
LWPOLYLINE
  5
25A
330
1F
100
AcDbEntity
  8
0_Pen_No__1
  6
Continuous
100
AcDbPolyline
 90
        2
 70
   128
 43
0.0
 10
489.6645906421008
 20
-0.3352750447560698
 10
487.7285453117092
 20
1.117233472003751
  0
LWPOLYLINE
  5
25B
330
1F
100
AcDbEntity
  8
0_Pen_No__1
  6
Continuous
100
AcDbPolyline
 90
        2
 70
   128
 43
0.0
 10
490.7163743260908
 20
-0.3352750447560698
 10
490.149243855983
 20
-0.0009766604878308
  0
LWPOLYLINE
  5
25C
330
1F
100
AcDbEntity
  8
0_Pen_No__1
  6
Continuous
100
AcDbPolyline
 90
        2
 70
   128
 43
0.0
 10
695.500282128817
 20
82.72016302794303
 10
589.1491812105326
 20
-0.3352750447560698
  0
LWPOLYLINE
  5
25D
330
1F
100
AcDbEntity
  8
0_Pen_No__1
  6
Continuous
100
AcDbPolyline
 90
        2
 70
   128
 43
0.0
 10
49.81026719136858
 20
478.3966886241342
 10
12.35818431771452
 20
456.7737182915807
  0
LWPOLYLINE
  5
25F
330
1F
100
AcDbEntity
  8
0_Pen_No__1
  6
Above
100
AcDbPolyline
 90
        2
 70
   128
 43
0.0
 10
335.7923841578597
 20
378.1286371542581
 10
314.6879525984357
 20
365.9439878590849
  0
LWPOLYLINE
  5
260
330
1F
100
AcDbEntity
  8
0_Pen_No__1
  6
Continuous
100
AcDbPolyline
 90
        2
 70
   128
 43
0.0
 10
-0.6321966822107061
 20
68.09632638582409
 10
12.35818431778823
 20
60.59632638582535
  0
LWPOLYLINE
  5
261
330
1F
100
AcDbEntity
  8
0_Pen_No__1
  6
Continuous
100
AcDbPolyline
 90
        2
 70
   128
 43
0.0
 10
12.35818431778823
 20
60.59632638582535
 10
-0.632196682210262
 20
198.7512547474435
  0
LWPOLYLINE
  5
262
330
1F
100
AcDbEntity
  8
0_Pen_No__1
  6
Continuous
100
AcDbPolyline
 90
        2
 70
   128
 43
0.0
 10
-0.632196682210262
 20
198.7512547474435
 10
-0.632196682210262
 20
215.7050219401475
  0
LWPOLYLINE
  5
263
330
1F
100
AcDbEntity
  8
0_Pen_No__1
  6
Continuous
100
AcDbPolyline
 90
        2
 70
   128
 43
0.0
 10
-0.632196682210262
 20
215.7050219401475
 10
4.292326133070512
 20
212.8618473546906
  0
LWPOLYLINE
  5
264
330
1F
100
AcDbEntity
  8
0_Pen_No__1
  6
Continuous
100
AcDbPolyline
 90
        2
 70
   128
 43
0.0
 10
4.292326133070512
 20
212.8618473546906
 10
4.292326133070512
 20
219.5982234387688
  0
LWPOLYLINE
  5
265
330
1F
100
AcDbEntity
  8
0_Pen_No__1
  6
Continuous
100
AcDbPolyline
 90
        2
 70
   128
 43
0.0
 10
4.292326133070512
 20
219.5982234387688
 10
1.662004677789986
 20
221.1168402456663
  0
LWPOLYLINE
  5
266
330
1F
100
AcDbEntity
  8
0_Pen_No__1
  6
Continuous
100
AcDbPolyline
 90
        2
 70
   128
 43
0.0
 10
1.662004677789986
 20
221.1168402456663
 10
1.662004677789986
 20
219.1958116457498
  0
LWPOLYLINE
  5
267
330
1F
100
AcDbEntity
  8
0_Pen_No__1
  6
Continuous
100
AcDbPolyline
 90
        2
 70
   128
 43
0.0
 10
1.662004677789986
 20
219.1958116457498
 10
-6.694374482213439
 20
224.020369424311
  0
LWPOLYLINE
  5
268
330
1F
100
AcDbEntity
  8
0_Pen_No__1
  6
Continuous
100
AcDbPolyline
 90
        2
 70
   128
 43
0.0
 10
-6.694374482213439
 20
224.020369424311
 10
-6.694374482213439
 20
200.225357417253
  0
LWPOLYLINE
  5
269
330
1F
100
AcDbEntity
  8
0_Pen_No__1
  6
Continuous
100
AcDbPolyline
 90
        2
 70
   128
 43
0.0
 10
-6.694374482213439
 20
200.225357417253
 10
5.560210332046234
 20
71.52113851358699
  0
LWPOLYLINE
  5
26A
330
1F
100
AcDbEntity
  8
0_Pen_No__1
  6
Continuous
100
AcDbPolyline
 90
        2
 70
   128
 43
0.0
 10
5.560210332046234
 20
71.52113851358699
 10
-6.694374482214327
 20
78.59632638582514
  0
LWPOLYLINE
  5
26B
330
1F
100
AcDbEntity
  8
0_Pen_No__1
  6
Continuous
100
AcDbPolyline
 90
        2
 70
   128
 43
0.0
 10
-6.694374482214327
 20
78.59632638582514
 10
-6.654813946377347
 20
70.77508689100954
  0
LWPOLYLINE
  5
26C
330
1F
100
AcDbEntity
  8
0_Pen_No__1
  6
Continuous
100
AcDbPolyline
 90
        2
 70
   128
 43
0.0
 10
-0.632196682210262
 20
198.7512547474435
 10
1.472871709763846
 20
199.9666165555234
  0
LWPOLYLINE
  5
26D
330
1F
100
AcDbEntity
  8
0_Pen_No__1
  6
Continuous
100
AcDbPolyline
 90
        2
 70
   128
 43
0.0
 10
4.292326133070512
 20
212.8618473546906
 10
4.758689459137377
 20
213.1311023477118
  0
LWPOLYLINE
  5
26E
330
1F
100
AcDbEntity
  8
0_Pen_No__1
  6
Continuous
100
AcDbPolyline
 90
        2
 70
   128
 43
0.0
 10
1.662004677789986
 20
221.1168402456663
 10
3.887020267107966
 20
222.4014536007237
  0
LWPOLYLINE
  5
26F
330
1F
100
AcDbEntity
  8
0_Pen_No__1
  6
Continuous
100
AcDbPolyline
 90
        2
 70
   128
 43
0.0
 10
-6.694374482213439
 20
224.020369424311
 10
-5.082312041074788
 20
224.9510941127202
  0
LWPOLYLINE
  5
270
330
1F
100
AcDbEntity
  8
0_Pen_No__1
  6
Continuous
100
AcDbPolyline
 90
        2
 70
   128
 43
0.0
 10
-6.694374482214327
 20
78.59632638582514
 10
4.283087505896566
 20
84.93416704737554
  0
LWPOLYLINE
  5
271
330
1F
100
AcDbEntity
  8
0_Pen_No__1
  6
Continuous
100
AcDbPolyline
 90
        2
 70
   128
 43
0.0
 10
-0.6321966822107061
 20
331.83690672522
 10
12.35818431778823
 20
324.3369067252208
  0
LWPOLYLINE
  5
272
330
1F
100
AcDbEntity
  8
0_Pen_No__1
  6
Continuous
100
AcDbPolyline
 90
        2
 70
   128
 43
0.0
 10
12.35818431778823
 20
324.3369067252208
 10
-0.6321966822107061
 20
462.4918350868392
  0
LWPOLYLINE
  5
273
330
1F
100
AcDbEntity
  8
0_Pen_No__1
  6
Continuous
100
AcDbPolyline
 90
        2
 70
   128
 43
0.0
 10
-0.6321966822107061
 20
462.4918350868392
 10
-0.6321966822107061
 20
479.4456022795433
  0
LWPOLYLINE
  5
274
330
1F
100
AcDbEntity
  8
0_Pen_No__1
  6
Continuous
100
AcDbPolyline
 90
        2
 70
   128
 43
0.0
 10
-0.6321966822107061
 20
479.4456022795433
 10
4.292326133070068
 20
476.6024276940859
  0
LWPOLYLINE
  5
275
330
1F
100
AcDbEntity
  8
0_Pen_No__1
  6
Continuous
100
AcDbPolyline
 90
        2
 70
   128
 43
0.0
 10
4.292326133070068
 20
476.6024276940859
 10
4.292326133070068
 20
483.3388037781645
  0
LWPOLYLINE
  5
276
330
1F
100
AcDbEntity
  8
0_Pen_No__1
  6
Continuous
100
AcDbPolyline
 90
        2
 70
   128
 43
0.0
 10
4.292326133070068
 20
483.3388037781645
 10
1.662004677789986
 20
484.857420585062
  0
LWPOLYLINE
  5
277
330
1F
100
AcDbEntity
  8
0_Pen_No__1
  6
Continuous
100
AcDbPolyline
 90
        2
 70
   128
 43
0.0
 10
1.662004677789986
 20
484.857420585062
 10
1.662004677789986
 20
482.9363919851451
  0
LWPOLYLINE
  5
278
330
1F
100
AcDbEntity
  8
0_Pen_No__1
  6
Continuous
100
AcDbPolyline
 90
        2
 70
   128
 43
0.0
 10
1.662004677789986
 20
482.9363919851451
 10
-6.694374482213883
 20
487.7609497637065
  0
LWPOLYLINE
  5
279
330
1F
100
AcDbEntity
  8
0_Pen_No__1
  6
Continuous
100
AcDbPolyline
 90
        2
 70
   128
 43
0.0
 10
-6.694374482213883
 20
487.7609497637065
 10
-6.694374482213883
 20
463.9659377566487
  0
LWPOLYLINE
  5
27A
330
1F
100
AcDbEntity
  8
0_Pen_No__1
  6
Continuous
100
AcDbPolyline
 90
        2
 70
   128
 43
0.0
 10
-6.694374482213883
 20
463.9659377566487
 10
5.560210332046234
 20
335.2617188529829
  0
LWPOLYLINE
  5
27B
330
1F
100
AcDbEntity
  8
0_Pen_No__1
  6
Continuous
100
AcDbPolyline
 90
        2
 70
   128
 43
0.0
 10
5.560210332046234
 20
335.2617188529829
 10
-6.694374482214327
 20
342.3369067252209
  0
LWPOLYLINE
  5
27C
330
1F
100
AcDbEntity
  8
0_Pen_No__1
  6
Continuous
100
AcDbPolyline
 90
        2
 70
   128
 43
0.0
 10
-6.694374482214327
 20
342.3369067252209
 10
-6.654813946377347
 20
334.5156672304053
  0
LWPOLYLINE
  5
27D
330
1F
100
AcDbEntity
  8
0_Pen_No__1
  6
Continuous
100
AcDbPolyline
 90
        2
 70
   128
 43
0.0
 10
-6.654813946377347
 20
334.5156672304053
 10
2.875732284428389
 20
233.1566746215663
  0
LWPOLYLINE
  5
27E
330
1F
100
AcDbEntity
  8
0_Pen_No__1
  6
Continuous
100
AcDbPolyline
 90
        2
 70
   128
 43
0.0
 10
2.875732284428389
 20
233.1566746215663
 10
-5.828349082210194
 20
238.1819783636032
  0
LWPOLYLINE
  5
27F
330
1F
100
AcDbEntity
  8
0_Pen_No__1
  6
Continuous
100
AcDbPolyline
 90
        2
 70
   128
 43
0.0
 10
-5.828349082210194
 20
238.1819783636032
 10
-5.828349082210194
 20
225.3818188011354
  0
LWPOLYLINE
  5
280
330
1F
100
AcDbEntity
  8
0_Pen_No__1
  6
Continuous
100
AcDbPolyline
 90
        2
 70
   128
 43
0.0
 10
-5.828349082210194
 20
225.3818188011354
 10
0.2338287177809928
 20
221.8818188011404
  0
LWPOLYLINE
  5
281
330
1F
100
AcDbEntity
  8
0_Pen_No__1
  6
Continuous
100
AcDbPolyline
 90
        2
 70
   128
 43
0.0
 10
0.2338287177809928
 20
221.8818188011404
 10
0.2338287177809928
 20
227.6819783636099
  0
LWPOLYLINE
  5
282
330
1F
100
AcDbEntity
  8
0_Pen_No__1
  6
Continuous
100
AcDbPolyline
 90
        2
 70
   128
 43
0.0
 10
0.2338287177809928
 20
227.6819783636099
 10
3.571708074556534
 20
225.7548528100319
  0
LWPOLYLINE
  5
283
330
1F
100
AcDbEntity
  8
0_Pen_No__1
  6
Continuous
100
AcDbPolyline
 90
        2
 70
   128
 43
0.0
 10
3.571708074556534
 20
225.7548528100319
 10
5.560210332046234
 20
204.6067904913644
  0
LWPOLYLINE
  5
284
330
1F
100
AcDbEntity
  8
0_Pen_No__1
  6
Continuous
100
AcDbPolyline
 90
        2
 70
   128
 43
0.0
 10
5.560210332046234
 20
204.6067904913644
 10
0.2338287177809928
 20
207.681978363605
  0
LWPOLYLINE
  5
285
330
1F
100
AcDbEntity
  8
0_Pen_No__1
  6
Continuous
100
AcDbPolyline
 90
        2
 70
   128
 43
0.0
 10
0.2338287177809928
 20
207.681978363605
 10
0.2338287177809928
 20
200.6819783636067
  0
LWPOLYLINE
  5
286
330
1F
100
AcDbEntity
  8
0_Pen_No__1
  6
Continuous
100
AcDbPolyline
 90
        2
 70
   128
 43
0.0
 10
0.2338287177809928
 20
200.6819783636067
 10
12.35818431778779
 20
193.6819783636026
  0
LWPOLYLINE
  5
287
330
1F
100
AcDbEntity
  8
0_Pen_No__1
  6
Continuous
100
AcDbPolyline
 90
        2
 70
   128
 43
0.0
 10
12.35818431778779
 20
193.6819783636026
 10
-0.6321966822107061
 20
331.83690672522
  0
LWPOLYLINE
  5
288
330
1F
100
AcDbEntity
  8
0_Pen_No__1
  6
Continuous
100
AcDbPolyline
 90
        2
 70
   128
 43
0.0
 10
-0.6321966822107061
 20
462.4918350868392
 10
0.9109594328216009
 20
463.382776689148
  0
LWPOLYLINE
  5
289
330
1F
100
AcDbEntity
  8
0_Pen_No__1
  6
Continuous
100
AcDbPolyline
 90
        2
 70
   128
 43
0.0
 10
4.292326133070068
 20
476.6024276940859
 10
4.700821975706537
 20
476.8382728798257
  0
LWPOLYLINE
  5
28A
330
1F
100
AcDbEntity
  8
0_Pen_No__1
  6
Continuous
100
AcDbPolyline
 90
        2
 70
   128
 43
0.0
 10
1.662004677789986
 20
484.857420585062
 10
3.82915278367757
 20
486.1086241328376
  0
LWPOLYLINE
  5
28B
330
1F
100
AcDbEntity
  8
0_Pen_No__1
  6
Continuous
100
AcDbPolyline
 90
        2
 70
   128
 43
0.0
 10
-6.694374482213883
 20
487.7609497637065
 10
-5.644224318017921
 20
488.3672542463442
  0
LWPOLYLINE
  5
28C
330
1F
100
AcDbEntity
  8
0_Pen_No__1
  6
Continuous
100
AcDbPolyline
 90
        2
 70
   128
 43
0.0
 10
-6.694374482214327
 20
342.3369067252209
 10
4.283087505897454
 20
348.6747473867715
  0
LWPOLYLINE
  5
28D
330
1F
100
AcDbEntity
  8
0_Pen_No__1
  6
Continuous
100
AcDbPolyline
 90
        2
 70
   128
 43
0.0
 10
-5.828349082210194
 20
238.1819783636032
 10
1.979358766771577
 20
242.6897606116649
  0
LWPOLYLINE
  5
28E
330
1F
100
AcDbEntity
  8
0_Pen_No__1
  6
Continuous
100
AcDbPolyline
 90
        2
 70
   128
 43
0.0
 10
0.2338287177809928
 20
221.8818188011404
 10
3.74525587351604
 20
223.909142223603
  0
LWPOLYLINE
  5
28F
330
1F
100
AcDbEntity
  8
0_Pen_No__1
  6
Continuous
100
AcDbPolyline
 90
        2
 70
   128
 43
0.0
 10
0.2338287177809928
 20
207.681978363605
 10
5.011682897283931
 20
210.4404737723442
  0
LWPOLYLINE
  5
290
330
1F
100
AcDbEntity
  8
0_Pen_No__1
  6
Continuous
100
AcDbPolyline
 90
        2
 70
   128
 43
0.0
 10
-0.6321966822107061
 20
594.9286466530806
 10
12.35818431778823
 20
587.4286466530812
  0
LWPOLYLINE
  5
291
330
1F
100
AcDbEntity
  8
0_Pen_No__1
  6
Continuous
100
AcDbPolyline
 90
        2
 70
   128
 43
0.0
 10
12.35818431778823
 20
587.4286466530812
 10
-0.632196682210262
 20
725.5835750146997
  0
LWPOLYLINE
  5
292
330
1F
100
AcDbEntity
  8
0_Pen_No__1
  6
Continuous
100
AcDbPolyline
 90
        2
 70
   128
 43
0.0
 10
-0.632196682210262
 20
725.5835750146997
 10
-0.632196682210262
 20
742.5373422074038
  0
LWPOLYLINE
  5
293
330
1F
100
AcDbEntity
  8
0_Pen_No__1
  6
Continuous
100
AcDbPolyline
 90
        2
 70
   128
 43
0.0
 10
-0.632196682210262
 20
742.5373422074038
 10
4.292326133070512
 20
739.6941676219468
  0
LWPOLYLINE
  5
294
330
1F
100
AcDbEntity
  8
0_Pen_No__1
  6
Continuous
100
AcDbPolyline
 90
        2
 70
   128
 43
0.0
 10
4.292326133070512
 20
739.6941676219468
 10
4.292326133070512
 20
746.430543706025
  0
LWPOLYLINE
  5
295
330
1F
100
AcDbEntity
  8
0_Pen_No__1
  6
Continuous
100
AcDbPolyline
 90
        2
 70
   128
 43
0.0
 10
4.292326133070512
 20
746.430543706025
 10
1.662004677789986
 20
747.9491605129227
  0
LWPOLYLINE
  5
296
330
1F
100
AcDbEntity
  8
0_Pen_No__1
  6
Continuous
100
AcDbPolyline
 90
        2
 70
   128
 43
0.0
 10
1.662004677789986
 20
747.9491605129227
 10
1.662004677789986
 20
746.028131913006
  0
LWPOLYLINE
  5
297
330
1F
100
AcDbEntity
  8
0_Pen_No__1
  6
Continuous
100
AcDbPolyline
 90
        2
 70
   128
 43
0.0
 10
1.662004677789986
 20
746.028131913006
 10
-6.694374482213439
 20
750.8526896915673
  0
LWPOLYLINE
  5
298
330
1F
100
AcDbEntity
  8
0_Pen_No__1
  6
Continuous
100
AcDbPolyline
 90
        2
 70
   128
 43
0.0
 10
-6.694374482213439
 20
750.8526896915673
 10
-6.694374482213439
 20
727.0576776845095
  0
LWPOLYLINE
  5
299
330
1F
100
AcDbEntity
  8
0_Pen_No__1
  6
Continuous
100
AcDbPolyline
 90
        2
 70
   128
 43
0.0
 10
-6.694374482213439
 20
727.0576776845095
 10
5.560210332046234
 20
598.3534587808434
  0
LWPOLYLINE
  5
29A
330
1F
100
AcDbEntity
  8
0_Pen_No__1
  6
Continuous
100
AcDbPolyline
 90
        2
 70
   128
 43
0.0
 10
5.560210332046234
 20
598.3534587808434
 10
-6.694374482214327
 20
605.4286466530814
  0
LWPOLYLINE
  5
29B
330
1F
100
AcDbEntity
  8
0_Pen_No__1
  6
Continuous
100
AcDbPolyline
 90
        2
 70
   128
 43
0.0
 10
-6.694374482214327
 20
605.4286466530814
 10
-6.654813946377347
 20
597.607407158266
  0
LWPOLYLINE
  5
29C
330
1F
100
AcDbEntity
  8
0_Pen_No__1
  6
Continuous
100
AcDbPolyline
 90
        2
 70
   128
 43
0.0
 10
-6.654813946377347
 20
597.607407158266
 10
2.875732284428389
 20
496.248414549427
  0
LWPOLYLINE
  5
29D
330
1F
100
AcDbEntity
  8
0_Pen_No__1
  6
Continuous
100
AcDbPolyline
 90
        2
 70
   128
 43
0.0
 10
2.875732284428389
 20
496.248414549427
 10
-5.828349082210194
 20
501.2737182914639
  0
LWPOLYLINE
  5
29E
330
1F
100
AcDbEntity
  8
0_Pen_No__1
  6
Continuous
100
AcDbPolyline
 90
        2
 70
   128
 43
0.0
 10
-5.828349082210194
 20
501.2737182914639
 10
-5.828349082210194
 20
488.4735587289961
  0
LWPOLYLINE
  5
29F
330
1F
100
AcDbEntity
  8
0_Pen_No__1
  6
Continuous
100
AcDbPolyline
 90
        2
 70
   128
 43
0.0
 10
-5.828349082210194
 20
488.4735587289961
 10
0.2338287177809928
 20
484.9735587290012
  0
LWPOLYLINE
  5
2A0
330
1F
100
AcDbEntity
  8
0_Pen_No__1
  6
Continuous
100
AcDbPolyline
 90
        2
 70
   128
 43
0.0
 10
0.2338287177809928
 20
484.9735587290012
 10
0.2338287177809928
 20
490.7737182914702
  0
LWPOLYLINE
  5
2A1
330
1F
100
AcDbEntity
  8
0_Pen_No__1
  6
Continuous
100
AcDbPolyline
 90
        2
 70
   128
 43
0.0
 10
0.2338287177809928
 20
490.7737182914702
 10
3.571708074556534
 20
488.8465927378924
  0
LWPOLYLINE
  5
2A2
330
1F
100
AcDbEntity
  8
0_Pen_No__1
  6
Continuous
100
AcDbPolyline
 90
        2
 70
   128
 43
0.0
 10
3.571708074556534
 20
488.8465927378924
 10
5.560210332046234
 20
467.6985304192252
  0
LWPOLYLINE
  5
2A3
330
1F
100
AcDbEntity
  8
0_Pen_No__1
  6
Continuous
100
AcDbPolyline
 90
        2
 70
   128
 43
0.0
 10
5.560210332046234
 20
467.6985304192252
 10
0.2338287177809928
 20
470.7737182914657
  0
LWPOLYLINE
  5
2A4
330
1F
100
AcDbEntity
  8
0_Pen_No__1
  6
Continuous
100
AcDbPolyline
 90
        2
 70
   128
 43
0.0
 10
0.2338287177809928
 20
470.7737182914657
 10
0.2338287177809928
 20
463.7737182914672
  0
LWPOLYLINE
  5
2A5
330
1F
100
AcDbEntity
  8
0_Pen_No__1
  6
Continuous
100
AcDbPolyline
 90
        2
 70
   128
 43
0.0
 10
0.2338287177809928
 20
463.7737182914672
 10
12.35818431778779
 20
456.7737182914631
  0
LWPOLYLINE
  5
2A6
330
1F
100
AcDbEntity
  8
0_Pen_No__1
  6
Continuous
100
AcDbPolyline
 90
        2
 70
   128
 43
0.0
 10
12.35818431778779
 20
456.7737182914631
 10
-0.6321966822107061
 20
594.9286466530806
  0
LWPOLYLINE
  5
2A7
330
1F
100
AcDbEntity
  8
0_Pen_No__1
  6
Continuous
100
AcDbPolyline
 90
        2
 70
   128
 43
0.0
 10
-6.694374482214327
 20
605.4286466530814
 10
4.283087505898342
 20
611.7664873146326
  0
LWPOLYLINE
  5
2A8
330
1F
100
AcDbEntity
  8
0_Pen_No__1
  6
Continuous
100
AcDbPolyline
 90
        2
 70
   128
 43
0.0
 10
-5.828349082210194
 20
501.2737182914639
 10
1.979358766773354
 20
505.781500539527
  0
LWPOLYLINE
  5
2A9
330
1F
100
AcDbEntity
  8
0_Pen_No__1
  6
Continuous
100
AcDbPolyline
 90
        2
 70
   128
 43
0.0
 10
0.2338287177809928
 20
484.9735587290012
 10
3.745255873526032
 20
487.0008821514695
  0
LWPOLYLINE
  5
2AA
330
1F
100
AcDbEntity
  8
0_Pen_No__1
  6
Continuous
100
AcDbPolyline
 90
        2
 70
   128
 43
0.0
 10
0.2338287177809928
 20
470.7737182914657
 10
5.011682897294145
 20
473.5322137002107
  0
LWPOLYLINE
  5
2AB
330
1F
100
AcDbEntity
  8
0_Pen_No__1
  6
Continuous
100
AcDbPolyline
 90
        2
 70
   128
 43
0.0
 10
83.55527144740002
 20
101.7019840944977
 10
12.35818431778823
 20
60.59632638582535
  0
LWPOLYLINE
  5
2AC
330
1F
100
AcDbEntity
  8
0_Pen_No__1
  6
Continuous
100
AcDbPolyline
 90
        2
 70
   128
 43
0.0
 10
161.7092431314956
 20
279.9098528595059
 10
150.6453539478917
 20
273.5221134331542
  0
LWPOLYLINE
  5
2AD
330
1F
100
AcDbEntity
  8
0_Pen_No__1
  6
Above
100
AcDbPolyline
 90
        2
 70
   128
 43
0.0
 10
257.6208858193899
 20
527.4726547469464
 10
300.7164354651301
 20
474.2865842000652
  0
LWPOLYLINE
  5
2AE
330
1F
100
AcDbEntity
  8
0_Pen_No__1
  6
Continuous
100
AcDbPolyline
 90
        2
 70
   128
 43
0.0
 10
209.0112690646774
 20
396.8830402215575
 10
307.1802869917971
 20
473.5486385905701
  0
LWPOLYLINE
  5
2AF
330
1F
100
AcDbEntity
  8
0_Pen_No__1
  6
Above
100
AcDbPolyline
 90
        2
 70
   128
 43
0.0
 10
241.8581437028119
 20
515.1626603941348
 10
284.9536933485516
 20
461.9765898472536
  0
LWPOLYLINE
  5
2B0
330
1F
100
AcDbEntity
  8
0_Pen_No__1
  6
Continuous
100
AcDbPolyline
 90
        2
 70
   128
 43
0.0
 10
310.3157101076505
 20
493.0768859411938
 10
200.5354423151481
 20
407.3434223990511
  0
LWPOLYLINE
  5
2B2
330
1F
100
AcDbEntity
  8
0_Pen_No__1
  6
AStair_dashed
100
AcDbPolyline
 90
        2
 70
   128
 43
0.0
 10
318.2337280157186
 20
467.2732973326922
 10
358.4430663384728
 20
498.6749864564908
  0
LWPOLYLINE
  5
2B3
330
1F
100
AcDbEntity
  8
0_Pen_No__1
  6
Continuous
100
AcDbPolyline
 90
        2
 70
   128
 43
0.0
 10
152.7584407214465
 20
352.9521052285556
 10
166.9132552277844
 20
364.0063802620131
  0
LWPOLYLINE
  5
2B4
330
1F
100
AcDbEntity
  8
0_Pen_No__1
  6
Continuous
100
AcDbPolyline
 90
        2
 70
   128
 43
0.0
 10
177.4857848315208
 20
372.2630515159344
 10
193.2485269480989
 20
384.5730458687457
  0
LWPOLYLINE
  5
2B5
330
1F
100
AcDbEntity
  8
0_Pen_No__1
  6
AStair_dashed
100
AcDbPolyline
 90
        2
 70
   128
 43
0.0
 10
358.4430663384728
 20
498.6749864564908
 10
369.3676649881122
 20
492.3676664577704
  0
LWPOLYLINE
  5
2B6
330
1F
100
AcDbEntity
  8
0_Pen_No__1
  6
Continuous
100
AcDbPolyline
 90
        2
 70
   128
 43
0.0
 10
189.7303810910519
 20
398.9051543828203
 10
184.2337632845511
 20
394.6125424973272
  0
LWPOLYLINE
  5
2B7
330
1F
100
AcDbEntity
  8
0_Pen_No__1
  6
Continuous
100
AcDbPolyline
 90
        2
 70
   128
 43
0.0
 10
169.0099580819918
 20
382.7234336934278
 10
150.6453539478182
 20
368.38150184481
  0
LWPOLYLINE
  5
2B8
330
1F
100
AcDbEntity
  8
0_Pen_No__1
  6
Continuous
100
AcDbPolyline
 90
        2
 70
   128
 43
0.0
 10
218.8747793980844
 20
289.981424147081
 10
184.2337632845513
 20
269.9814240815328
  0
LWPOLYLINE
  5
2B9
330
1F
100
AcDbEntity
  8
0_Pen_No__1
  6
Continuous
100
AcDbPolyline
 90
        2
 70
   128
 43
0.0
 10
184.2337632845513
 20
269.9814240815328
 10
166.9132552277844
 20
279.9814241143068
  0
LWPOLYLINE
  5
2BA
330
1F
100
AcDbEntity
  8
0_Pen_No__1
  6
Continuous
100
AcDbPolyline
 90
        2
 70
   128
 43
0.0
 10
218.8747793980844
 20
624.4618408153829
 10
218.8747793980844
 20
289.981424147081
  0
LWPOLYLINE
  5
2BB
330
1F
100
AcDbEntity
  8
0_Pen_No__1
  6
Continuous
100
AcDbPolyline
 90
        2
 70
   128
 43
0.0
 10
184.2337632845513
 20
612.9901032590254
 10
184.2337632845513
 20
269.9814240815328
  0
LWPOLYLINE
  5
2BC
330
1F
100
AcDbEntity
  8
0_Pen_No__1
  6
Continuous
100
AcDbPolyline
 90
        2
 70
   128
 43
0.0
 10
166.9132552277844
 20
601.3484503028382
 10
166.9132552277844
 20
279.9814241143068
  0
LWPOLYLINE
  5
2BD
330
1F
100
AcDbEntity
  8
0_Pen_No__1
  6
AStair_dashed
100
AcDbPolyline
 90
        2
 70
   128
 43
0.0
 10
480.3601501787832
 20
593.8867587792162
 10
556.7662722655488
 20
653.5565119511027
  0
LWPOLYLINE
  5
2BE
330
1F
100
AcDbEntity
  8
0_Pen_No__1
  6
AStair_dashed
100
AcDbPolyline
 90
        2
 70
   128
 43
0.0
 10
480.3601501787832
 20
593.8867587792162
 10
491.2847488284221
 20
587.5794387804962
  0
LWPOLYLINE
  5
2BF
330
1F
100
AcDbEntity
  8
0_Pen_No__1
  6
AStair_dashed
100
AcDbPolyline
 90
        2
 70
   128
 43
0.0
 10
567.6908709151877
 20
647.2491919523823
 10
567.6908709151877
 20
610.4361166926005
  0
LWPOLYLINE
  5
2C0
330
1F
100
AcDbEntity
  8
0_Pen_No__1
  6
Continuous
100
AcDbPolyline
 90
        2
 70
   128
 43
0.0
 10
282.0369442517077
 20
439.0052332846046
 10
292.961542901347
 20
395.8848380261022
  0
LWPOLYLINE
  5
2C1
330
1F
100
AcDbEntity
  8
0_Pen_No__1
  6
AStair_dashed
100
AcDbPolyline
 90
        2
 70
   128
 43
0.0
 10
491.2847488284221
 20
587.5794387804962
 10
491.2847488284221
 20
550.766363520714
  0
LWPOLYLINE
  5
2C2
330
1F
100
AcDbEntity
  8
0_Pen_No__1
  6
Continuous
100
AcDbPolyline
 90
        2
 70
   128
 43
0.0
 10
294.4184591885972
 20
395.0021332424975
 10
298.1987929445631
 20
397.1847099636685
  0
LWPOLYLINE
  5
2C3
330
1F
100
AcDbEntity
  8
0_Pen_No__1
  6
Continuous
100
AcDbPolyline
 90
        2
 70
   128
 43
0.0
 10
296.1505099942738
 20
394.0021332392203
 10
298.1987929445631
 20
395.1847099571139
  0
LWPOLYLINE
  5
2C4
330
1F
100
AcDbEntity
  8
0_Pen_No__1
  6
Continuous
100
AcDbPolyline
 90
        2
 70
   128
 43
0.0
 10
279.8972989903374
 20
385.9458194408336
 10
294.4184591885972
 20
394.3296152268803
  0
LWPOLYLINE
  5
2C5
330
1F
100
AcDbEntity
  8
0_Pen_No__1
  6
AStair_dashed
100
AcDbPolyline
 90
        2
 70
   128
 43
0.0
 10
491.2847488284221
 20
587.5794387804962
 10
567.6908709151877
 20
647.2491919523823
  0
LWPOLYLINE
  5
2C6
330
1F
100
AcDbEntity
  8
0_Pen_No__1
  6
AStair_dashed
100
AcDbPolyline
 90
        2
 70
   128
 43
0.0
 10
480.3601501787832
 20
557.0736835194335
 10
491.2847488284221
 20
550.766363520714
  0
LWPOLYLINE
  5
2C7
330
1F
100
AcDbEntity
  8
0_Pen_No__1
  6
AStair_dashed
100
AcDbPolyline
 90
        2
 70
   128
 43
0.0
 10
292.961542901347
 20
432.6979132858842
 10
369.3676649881122
 20
492.3676664577704
  0
LWPOLYLINE
  5
2C8
330
1F
100
AcDbEntity
  8
0_Pen_No__1
  6
AStair_dashed
100
AcDbPolyline
 90
        2
 70
   128
 43
0.0
 10
556.7662722655488
 20
653.5565119511027
 10
567.6908709151877
 20
647.2491919523823
  0
LWPOLYLINE
  5
2C9
330
1F
100
AcDbEntity
  8
0_Pen_No__1
  6
AStair_dashed
100
AcDbPolyline
 90
        2
 70
   128
 43
0.0
 10
292.961542901347
 20
395.884838026102
 10
369.3676649881126
 20
455.5545911979887
  0
LWPOLYLINE
  5
2CA
330
1F
100
AcDbEntity
  8
0_Pen_No__1
  6
AStair_dashed
100
AcDbPolyline
 90
        2
 70
   128
 43
0.0
 10
480.3601501787832
 20
557.0736835194335
 10
480.3601501787832
 20
593.8867587792164
  0
LWPOLYLINE
  5
2CB
330
1F
100
AcDbEntity
  8
0_Pen_No__1
  6
AStair_dashed
100
AcDbPolyline
 90
        2
 70
   128
 43
0.0
 10
491.2847488284221
 20
550.766363520714
 10
567.6908709151877
 20
610.4361166926005
  0
LWPOLYLINE
  5
2CC
330
1F
100
AcDbEntity
  8
0_Pen_No__1
  6
Continuous
100
AcDbPolyline
 90
        2
 70
   128
 43
0.0
 10
278.2566104957418
 20
384.6873352693725
 10
278.2566104957418
 20
455.0119595788216
  0
LWPOLYLINE
  5
2CD
330
1F
100
AcDbEntity
  8
0_Pen_No__1
  6
Continuous
100
AcDbPolyline
 90
        2
 70
   128
 43
0.0
 10
294.4184591885972
 20
377.5620236547865
 10
279.9886613014184
 20
385.8930713857067
  0
LWPOLYLINE
  5
2CE
330
1F
100
AcDbEntity
  8
0_Pen_No__1
  6
Continuous
100
AcDbPolyline
 90
        2
 70
   128
 43
0.0
 10
296.1505099942738
 20
374.3562875318977
 10
296.1505099942738
 20
394.0021332392203
  0
LWPOLYLINE
  5
2CF
330
1F
100
AcDbEntity
  8
0_Pen_No__1
  6
Continuous
100
AcDbPolyline
 90
        2
 70
   128
 43
0.0
 10
294.4184591885972
 20
377.5620236547865
 10
294.4184591885972
 20
395.0021332424975
  0
LWPOLYLINE
  5
2D0
330
1F
100
AcDbEntity
  8
0_Pen_No__1
  6
Continuous
100
AcDbPolyline
 90
        2
 70
   128
 43
0.0
 10
279.9886613014184
 20
385.8930713857067
 10
279.9886613014184
 20
454.0119595755444
  0
LWPOLYLINE
  5
2D1
330
1F
100
AcDbEntity
  8
0_Pen_No__1
  6
Continuous
100
AcDbPolyline
 90
        2
 70
   128
 43
0.0
 10
296.1505099942738
 20
374.3562875318977
 10
278.2566104957418
 20
384.6873352693725
  0
LWPOLYLINE
  5
2D2
330
1F
100
AcDbEntity
  8
0_Pen_No__1
  6
Continuous
100
AcDbPolyline
 90
        2
 70
   128
 43
0.0
 10
282.0369442517077
 20
402.192158024822
 10
282.0369442517077
 20
439.0052332846046
  0
LWPOLYLINE
  5
2D3
330
1F
100
AcDbEntity
  8
0_Pen_No__1
  6
Continuous
100
AcDbPolyline
 90
        2
 70
   128
 43
0.0
 10
282.0369442517077
 20
402.192158024822
 10
292.961542901347
 20
395.8848380261022
  0
LWPOLYLINE
  5
2D4
330
1F
100
AcDbEntity
  8
0_Pen_No__1
  6
Continuous
100
AcDbPolyline
 90
        2
 70
   128
 43
0.0
 10
292.961542901347
 20
432.6979132858843
 10
292.961542901347
 20
395.8848380261022
  0
LWPOLYLINE
  5
2D5
330
1F
100
AcDbEntity
  8
0_Pen_No__1
  6
Continuous
100
AcDbPolyline
 90
        2
 70
   128
 43
0.0
 10
282.0369442517077
 20
439.0052332846046
 10
292.961542901347
 20
432.6979132858843
  0
LWPOLYLINE
  5
2D6
330
1F
100
AcDbEntity
  8
0_Pen_No__1
  6
Continuous
100
AcDbPolyline
 90
        2
 70
   128
 43
0.0
 10
282.0369442517077
 20
439.0052332846045
 10
318.2337280157186
 20
467.2732973326922
  0
LWPOLYLINE
  5
2D7
330
1F
100
AcDbEntity
  8
0_Pen_No__1
  6
AStair_dashed
100
AcDbPolyline
 90
        2
 70
   128
 43
0.0
 10
369.3676649881126
 20
492.3676664577704
 10
369.3676649881126
 20
455.5545911979887
  0
LWPOLYLINE
  5
2D8
330
1F
100
AcDbEntity
  8
0_Pen_No__1
  6
Continuous
100
AcDbPolyline
 90
        2
 70
   128
 43
0.0
 10
105.121464616262
 20
377.8938119197419
 10
107.0389912613861
 20
360.211021518203
  0
LWPOLYLINE
  5
2D9
330
1F
100
AcDbEntity
  8
0_Pen_No__1
  6
Continuous
100
AcDbPolyline
 90
        2
 70
   128
 43
0.0
 10
97.73531846161329
 20
393.5491823840503
 10
110.3639427506103
 20
380.9205580950548
  0
LWPOLYLINE
  5
2DA
330
1F
100
AcDbEntity
  8
0_Pen_No__1
  6
Above
100
AcDbPolyline
 90
        2
 70
   128
 43
0.0
 10
289.7380305367386
 20
553.4284987108789
 10
313.9192577339739
 20
523.5854066469756
  0
LWPOLYLINE
  5
2DB
330
1F
100
AcDbEntity
  8
0_Pen_No__1
  6
Above
100
AcDbPolyline
 90
        2
 70
   128
 43
0.0
 10
239.8469983286936
 20
355.2598506084959
 10
282.4880458628755
 20
543.5639482675388
  0
LWPOLYLINE
  5
2DC
330
1F
100
AcDbEntity
  8
0_Pen_No__1
  6
Continuous
100
AcDbPolyline
 90
        2
 70
   128
 43
0.0
 10
328.5616154370009
 20
554.05835456469
 10
315.2722387350927
 20
579.9072481878103
  0
LWPOLYLINE
  5
2DD
330
1F
100
AcDbEntity
  8
0_Pen_No__1
  6
Continuous
100
AcDbPolyline
 90
        2
 70
   128
 43
0.0
 10
322.9443428117132
 20
556.8480529512075
 10
309.654966109805
 20
582.6969465743277
  0
LWPOLYLINE
  5
2DE
330
1F
100
AcDbEntity
  8
0_Pen_No__1
  6
Continuous
100
AcDbPolyline
 90
        2
 70
   128
 43
0.0
 10
315.2722387350927
 20
579.9072481878103
 10
307.3836307028043
 20
604.290218469429
  0
LWPOLYLINE
  5
2DF
330
1F
100
AcDbEntity
  8
0_Pen_No__1
  6
Continuous
100
AcDbPolyline
 90
        2
 70
   128
 43
0.0
 10
309.654966109805
 20
582.6969465743277
 10
301.7663580775171
 20
607.0799168559464
  0
LWPOLYLINE
  5
2E0
330
1F
100
AcDbEntity
  8
0_Pen_No__1
  6
Continuous
100
AcDbPolyline
 90
        2
 70
   128
 43
0.0
 10
306.8610312036321
 20
471.6158184730923
 10
313.9192577339743
 20
514.3473294974021
  0
LWPOLYLINE
  5
2E1
330
1F
100
AcDbEntity
  8
0_Pen_No__1
  6
Continuous
100
AcDbPolyline
 90
        2
 70
   128
 43
0.0
 10
247.2844887641069
 20
626.3089211834234
 10
305.0495902465723
 20
621.6891334599819
  0
LWPOLYLINE
  5
2E2
330
1F
100
AcDbEntity
  8
0_Pen_No__1
  6
Continuous
100
AcDbPolyline
 90
        2
 70
   128
 43
0.0
 10
307.3836307028043
 20
604.290218469429
 10
291.5565272496464
 20
622.7682467166902
  0
LWPOLYLINE
  5
2E3
330
1F
100
AcDbEntity
  8
0_Pen_No__1
  6
Continuous
100
AcDbPolyline
 90
        2
 70
   128
 43
0.0
 10
301.7663580775171
 20
607.0799168559464
 10
287.777353265814
 20
623.0704877086939
  0
LWPOLYLINE
  5
2E4
330
1F
100
AcDbEntity
  8
0_Pen_No__1
  6
Above
100
AcDbPolyline
 90
        2
 70
   128
 43
0.0
 10
93.08348206172687
 20
398.9763248505835
 10
315.5014585913197
 20
572.6747851053815
  0
LWPOLYLINE
  5
2E5
330
1F
100
AcDbEntity
  8
0_Pen_No__1
  6
Continuous
100
AcDbPolyline
 90
        2
 70
   128
 43
0.0
 10
304.305896618028
 20
414.7129319240881
 10
306.8610312036321
 20
471.6158184730923
  0
LWPOLYLINE
  5
2E6
330
1F
100
AcDbEntity
  8
0_Pen_No__1
  6
Continuous
100
AcDbPolyline
 90
        2
 70
   128
 43
0.0
 10
309.9682521180877
 20
411.4437694375956
 10
312.5233867036913
 20
468.3466559865998
  0
LWPOLYLINE
  5
2E7
330
1F
100
AcDbEntity
  8
0_Pen_No__1
  6
Continuous
100
AcDbPolyline
 90
        2
 70
   128
 43
0.0
 10
312.5233867036913
 20
468.3466559865998
 10
319.9814355339775
 20
513.4987482921081
  0
LWPOLYLINE
  5
2E8
330
1F
100
AcDbEntity
  8
0_Pen_No__1
  6
Above
100
AcDbPolyline
 90
        2
 70
   128
 43
0.0
 10
264.1437756979944
 20
374.2345435899313
 10
307.3974763567592
 20
565.2441351445052
  0
LWPOLYLINE
  5
2E9
330
1F
100
AcDbEntity
  8
0_Pen_No__1
  6
Above
100
AcDbPolyline
 90
        2
 70
   128
 43
0.0
 10
273.7964204780566
 20
539.4474543425374
 10
310.5690606663244
 20
494.0647581865407
  0
LWPOLYLINE
  5
2EA
330
1F
100
AcDbEntity
  8
0_Pen_No__1
  6
Continuous
100
AcDbPolyline
 90
        2
 70
   128
 43
0.0
 10
150.6453539478182
 20
217.3887076469123
 10
279.5320863897784
 20
142.9759176513998
  0
LWPOLYLINE
  5
2EB
330
1F
100
AcDbEntity
  8
0_Pen_No__1
  6
Continuous
100
AcDbPolyline
 90
        2
 70
   128
 43
0.0
 10
150.6453539478182
 20
264.6468522906835
 10
279.5320863897784
 20
142.9759176513998
  0
LWPOLYLINE
  5
2EC
330
1F
100
AcDbEntity
  8
0_Pen_No__1
  6
Continuous
100
AcDbPolyline
 90
        2
 70
   128
 43
0.0
 10
279.5320863897784
 20
142.9759176513998
 10
287.8154132771548
 20
122.5105878278365
  0
LWPOLYLINE
  5
2ED
330
1F
100
AcDbEntity
  8
0_Pen_No__1
  6
Continuous
100
AcDbPolyline
 90
        2
 70
   128
 43
0.0
 10
152.7584407214465
 20
368.38150184481
 10
152.7584407214465
 20
352.9521052285556
  0
LWPOLYLINE
  5
2EE
330
1F
100
AcDbEntity
  8
0_Pen_No__1
  6
Continuous
100
AcDbPolyline
 90
        2
 70
   128
 43
0.0
 10
178.9146163102039
 20
239.4657331711152
 10
695.5002821288175
 20
642.895960090989
  0
LWPOLYLINE
  5
2EF
330
1F
100
AcDbEntity
  8
0_Pen_No__1
  6
Continuous
100
AcDbPolyline
 90
        2
 70
   128
 43
0.0
 10
287.8154132771548
 20
122.5105878278365
 10
695.5002821288175
 20
440.8941784603666
  0
LWPOLYLINE
  5
2F0
330
1F
100
AcDbEntity
  8
0_Pen_No__1
  6
Continuous
100
AcDbPolyline
 90
        2
 70
   128
 43
0.0
 10
279.5320863897784
 20
142.9759176513998
 10
695.500282128817
 20
467.8284149279614
  0
LWPOLYLINE
  5
2F1
330
1F
100
AcDbEntity
  8
0_Pen_No__1
  6
Continuous
100
AcDbPolyline
 90
        2
 70
   128
 43
0.0
 10
146.9207135095432
 20
198.8074274382028
 10
68.49376294148621
 20
153.5276062181461
  0
LWPOLYLINE
  5
2F2
330
1F
100
AcDbEntity
  8
0_Pen_No__1
  6
Continuous
100
AcDbPolyline
 90
        2
 70
   128
 43
0.0
 10
71.0484199037685
 20
140.8269833779587
 10
72.04423794626145
 20
125.6112985567119
  0
LWPOLYLINE
  5
2F3
330
1F
100
AcDbEntity
  8
0_Pen_No__1
  6
Continuous
100
AcDbPolyline
 90
        2
 70
   128
 43
0.0
 10
72.04423794626145
 20
125.6112985567119
 10
81.85836917644527
 20
105.0472460258256
  0
LWPOLYLINE
  5
2F4
330
1F
100
AcDbEntity
  8
0_Pen_No__1
  6
Continuous
100
AcDbPolyline
 90
        2
 70
   128
 43
0.0
 10
81.85836917644527
 20
105.0472460258256
 10
96.02155538325738
 20
89.3695602600406
  0
LWPOLYLINE
  5
2F5
330
1F
100
AcDbEntity
  8
0_Pen_No__1
  6
Continuous
100
AcDbPolyline
 90
        2
 70
   128
 43
0.0
 10
146.9207135095432
 20
198.8074274382028
 10
146.9207135095432
 20
118.7562030341926
  0
LWPOLYLINE
  5
2F6
330
1F
100
AcDbEntity
  8
0_Pen_No__1
  6
Continuous
100
AcDbPolyline
 90
        2
 70
   128
 43
0.0
 10
68.49376294148621
 20
153.5276062181461
 10
68.49376294148621
 20
142.3019152692646
  0
LWPOLYLINE
  5
2F7
330
1F
100
AcDbEntity
  8
0_Pen_No__1
  6
Continuous
100
AcDbPolyline
 90
        2
 70
   128
 43
0.0
 10
137.8201565764591
 20
113.5019940161408
 10
146.9207135095432
 20
118.7562030341926
  0
LWPOLYLINE
  5
2F8
330
1F
100
AcDbEntity
  8
0_Pen_No__1
  6
Continuous
100
AcDbPolyline
 90
        2
 70
   128
 43
0.0
 10
68.49376294148621
 20
153.5276062181461
 10
334.9920895232023
 20
-0.3352750447558478
  0
LWPOLYLINE
  5
2F9
330
1F
100
AcDbEntity
  8
0_Pen_No__1
  6
Continuous
100
AcDbPolyline
 90
        2
 70
   128
 43
0.0
 10
68.49376294148621
 20
142.3019152692646
 10
315.5486225346399
 20
-0.3352750447560698
  0
LWPOLYLINE
  5
2FA
330
1F
100
AcDbEntity
  8
0_Pen_No__1
  6
Continuous
100
AcDbPolyline
 90
        2
 70
   128
 43
0.0
 10
81.85836917644527
 20
105.0472460258256
 10
264.3862491027637
 20
-0.3352750447558478
  0
LWPOLYLINE
  5
2FB
330
1F
100
AcDbEntity
  8
0_Pen_No__1
  6
Continuous
100
AcDbPolyline
 90
        2
 70
   128
 43
0.0
 10
96.02155538325738
 20
89.3695602600406
 10
251.3948871367989
 20
-0.3352750447558478
  0
LWPOLYLINE
  5
2FC
330
1F
100
AcDbEntity
  8
0_Pen_No__1
  6
Continuous
100
AcDbPolyline
 90
        2
 70
   128
 43
0.0
 10
146.9207135095432
 20
118.7562030341926
 10
353.1932033893698
 20
-0.3352750447560698
  0
LWPOLYLINE
  5
2FD
330
1F
100
AcDbEntity
  8
0_Pen_No__1
  6
Continuous
100
AcDbPolyline
 90
        2
 70
   128
 43
0.0
 10
146.9207135095432
 20
198.8074274382028
 10
491.8459906593154
 20
-0.3352750447560698
  0
LWPOLYLINE
  5
2FE
330
1F
100
AcDbEntity
  8
0_Pen_No__1
  6
Continuous
100
AcDbPolyline
 90
        2
 70
   128
 43
0.0
 10
33.77106259296378
 20
469.1364494911914
 10
39.58736346303357
 20
454.7983616492117
  0
LWPOLYLINE
  5
2FF
330
1F
100
AcDbEntity
  8
0_Pen_No__1
  6
Continuous
100
AcDbPolyline
 90
        2
 70
   128
 43
0.0
 10
39.58736346303357
 20
454.7983616492117
 10
52.76756659604528
 20
455.5736677158593
  0
LWPOLYLINE
  5
300
330
1F
100
AcDbEntity
  8
0_Pen_No__1
  6
Continuous
100
AcDbPolyline
 90
        2
 70
   128
 43
0.0
 10
52.76756659604528
 20
455.5736677158593
 10
63.04884842459954
 20
450.6600826907998
  0
LWPOLYLINE
  5
301
330
1F
100
AcDbEntity
  8
0_Pen_No__1
  6
Continuous
100
AcDbPolyline
 90
        2
 70
   128
 43
0.0
 10
63.04884842459954
 20
450.6600826907998
 10
72.1502182622383
 20
419.9095886500692
  0
LWPOLYLINE
  5
302
330
1F
100
AcDbEntity
  8
0_Pen_No__1
  6
Continuous
100
AcDbPolyline
 90
        2
 70
   128
 43
0.0
 10
72.1502182622383
 20
419.9095886500692
 10
88.43164566184045
 20
404.4034673171166
  0
LWPOLYLINE
  5
303
330
1F
100
AcDbEntity
  8
0_Pen_No__1
  6
Continuous
100
AcDbPolyline
 90
        2
 70
   128
 43
0.0
 10
88.43164566184045
 20
404.4034673171166
 10
97.73531846161329
 20
393.5491823840503
  0
LWPOLYLINE
  5
304
330
1F
100
AcDbEntity
  8
0_Pen_No__1
  6
Continuous
100
AcDbPolyline
 90
        2
 70
   128
 43
0.0
 10
107.0389912613861
 20
360.211021518203
 10
116.6076071421006
 20
352.2371749509419
  0
LWPOLYLINE
  5
305
330
1F
100
AcDbEntity
  8
0_Pen_No__1
  6
Continuous
100
AcDbPolyline
 90
        2
 70
   128
 43
0.0
 10
116.6076071421006
 20
352.2371749509419
 10
125.6463368609316
 20
319.8951060525272
  0
LWPOLYLINE
  5
306
330
1F
100
AcDbEntity
  8
0_Pen_No__1
  6
Continuous
100
AcDbPolyline
 90
        2
 70
   128
 43
0.0
 10
146.1106364465324
 20
312.5558367169083
 10
160.3185987018415
 20
291.9916808210666
  0
LWPOLYLINE
  5
307
330
1F
100
AcDbEntity
  8
0_Pen_No__1
  6
Continuous
100
AcDbPolyline
 90
        2
 70
   128
 43
0.0
 10
125.6463368609316
 20
319.8951060525272
 10
146.1106364465324
 20
312.5558367169083
  0
LWPOLYLINE
  5
308
330
1F
100
AcDbEntity
  8
0_Pen_No__1
  6
Continuous
100
AcDbPolyline
 90
        2
 70
   128
 43
0.0
 10
150.6453539478182
 20
368.38150184481
 10
150.6453539478182
 20
305.992429807153
  0
LWPOLYLINE
  5
309
330
1F
100
AcDbEntity
  8
0_Pen_No__1
  6
Continuous
100
AcDbPolyline
 90
        2
 70
   128
 43
0.0
 10
49.81026719136902
 20
478.3966886241344
 10
68.96409343515772
 20
513.8895415195205
  0
LWPOLYLINE
  5
30A
330
1F
100
AcDbEntity
  8
0_Pen_No__1
  6
Continuous
100
AcDbPolyline
 90
        2
 70
   128
 43
0.0
 10
68.96409343515772
 20
513.8895415195205
 10
112.3812331674235
 20
539.4746417188916
  0
LWPOLYLINE
  5
30B
330
1F
100
AcDbEntity
  8
0_Pen_No__1
  6
Continuous
100
AcDbPolyline
 90
        2
 70
   128
 43
0.0
 10
112.3812331674235
 20
539.4746417188916
 10
151.9218425664513
 20
591.4201481842812
  0
LWPOLYLINE
  5
30C
330
1F
100
AcDbEntity
  8
0_Pen_No__1
  6
Continuous
100
AcDbPolyline
 90
        2
 70
   128
 43
0.0
 10
151.9218425664513
 20
591.4201481842812
 10
199.2155126319553
 20
623.207696916833
  0
LWPOLYLINE
  5
30D
330
1F
100
AcDbEntity
  8
0_Pen_No__1
  6
Continuous
100
AcDbPolyline
 90
        2
 70
   128
 43
0.0
 10
199.2155126319553
 20
623.207696916833
 10
247.2844887641069
 20
626.3089211834234
  0
LWPOLYLINE
  5
30E
330
1F
100
AcDbEntity
  8
0_Pen_No__1
  6
Continuous
100
AcDbPolyline
 90
        2
 70
   128
 43
0.0
 10
150.6453539478182
 20
368.38150184481
 10
152.7584407214465
 20
368.38150184481
  0
LWPOLYLINE
  5
30F
330
1F
100
AcDbEntity
  8
0_Pen_No__1
  6
Above
100
AcDbPolyline
 90
        2
 70
   128
 43
0.0
 10
118.0189525704543
 20
347.1871477343757
 10
137.6231382348508
 20
433.7597979235004
  0
LWPOLYLINE
  5
310
330
1F
100
AcDbEntity
  8
0_Pen_No__1
  6
Above
100
AcDbPolyline
 90
        2
 70
   128
 43
0.0
 10
115.7562067701866
 20
416.6827055716418
 10
194.3291524990077
 20
319.7124553030639
  0
LWPOLYLINE
  5
311
330
1F
100
AcDbEntity
  8
0_Pen_No__1
  6
Above
100
AcDbPolyline
 90
        2
 70
   128
 43
0.0
 10
131.5189488867646
 20
428.9926999244531
 10
210.0918946155857
 20
332.0224496558754
  0
LWPOLYLINE
  5
312
330
1F
100
AcDbEntity
  8
0_Pen_No__1
  6
Above
100
AcDbPolyline
 90
        2
 70
   128
 43
0.0
 10
147.2816910033428
 20
441.3026942772651
 10
225.854636732164
 20
344.3324440086872
  0
LWPOLYLINE
  5
313
330
1F
100
AcDbEntity
  8
0_Pen_No__1
  6
Above
100
AcDbPolyline
 90
        2
 70
   128
 43
0.0
 10
163.0444331199209
 20
453.6126886300767
 10
241.617378848742
 20
356.6424383614988
  0
LWPOLYLINE
  5
314
330
1F
100
AcDbEntity
  8
0_Pen_No__1
  6
Above
100
AcDbPolyline
 90
        2
 70
   128
 43
0.0
 10
178.8071752364991
 20
465.9226829828884
 10
257.3801209653203
 20
368.9524327143103
  0
LWPOLYLINE
  5
315
330
1F
100
AcDbEntity
  8
0_Pen_No__1
  6
Above
100
AcDbPolyline
 90
        2
 70
   128
 43
0.0
 10
194.5699173530771
 20
478.2326773356997
 10
273.1428630818983
 20
381.2624270671221
  0
LWPOLYLINE
  5
316
330
1F
100
AcDbEntity
  8
0_Pen_No__1
  6
Above
100
AcDbPolyline
 90
        2
 70
   128
 43
0.0
 10
210.3326594696554
 20
490.5426716885115
 10
288.9056051984763
 20
393.5724214199337
  0
LWPOLYLINE
  5
317
330
1F
100
AcDbEntity
  8
0_Pen_No__1
  6
Above
100
AcDbPolyline
 90
        2
 70
   128
 43
0.0
 10
106.5753894258846
 20
364.4862028346072
 10
163.2558476064273
 20
294.5344126335074
  0
LWPOLYLINE
  5
318
330
1F
100
AcDbEntity
  8
0_Pen_No__1
  6
Above
100
AcDbPolyline
 90
        2
 70
   128
 43
0.0
 10
166.956666220793
 20
298.3357716641906
 10
210.5134703427514
 20
490.6838768678057
  0
LWPOLYLINE
  5
319
330
1F
100
AcDbEntity
  8
0_Pen_No__1
  6
Above
100
AcDbPolyline
 90
        2
 70
   128
 43
0.0
 10
191.2534435900931
 20
317.3104646456255
 10
234.8102477120518
 20
509.6585698492411
  0
LWPOLYLINE
  5
31A
330
1F
100
AcDbEntity
  8
0_Pen_No__1
  6
Above
100
AcDbPolyline
 90
        2
 70
   128
 43
0.0
 10
215.5502209593934
 20
336.2851576270607
 10
259.1070250813522
 20
528.633262830676
  0
LWPOLYLINE
  5
31B
330
1F
100
AcDbEntity
  8
0_Pen_No__1
  6
Above
100
AcDbPolyline
 90
        2
 70
   128
 43
0.0
 10
131.3736030892914
 20
317.8410924650645
 10
161.919915604151
 20
452.7344909049356
  0
LWPOLYLINE
  5
31C
330
1F
100
AcDbEntity
  8
0_Pen_No__1
  6
Above
100
AcDbPolyline
 90
        2
 70
   128
 43
0.0
 10
106.526735949563
 20
384.7577648961016
 10
113.3263608655507
 20
414.7851049420648
  0
LWPOLYLINE
  5
31D
330
1F
100
AcDbEntity
  8
0_Pen_No__1
  6
Above
100
AcDbPolyline
 90
        2
 70
   128
 43
0.0
 10
148.7858522191761
 20
306.4135098717222
 10
186.2166929734511
 20
471.7091838863705
  0
LWPOLYLINE
  5
31E
330
1F
100
AcDbEntity
  8
0_Pen_No__1
  6
Above
100
AcDbPolyline
 90
        2
 70
   128
 43
0.0
 10
100.2195543238965
 20
404.0936842368635
 10
178.7925000527174
 20
307.1234339682856
  0
LWPOLYLINE
  5
31F
330
1F
100
AcDbEntity
  8
0_Pen_No__1
  6
Continuous
100
AcDbPolyline
 90
        2
 70
   128
 43
0.0
 10
317.7074996160075
 20
360.5066503720296
 10
715.3720237594382
 20
671.0648013786813
  0
LWPOLYLINE
  5
320
330
1F
100
AcDbEntity
  8
0_Pen_No__1
  6
Above
100
AcDbPolyline
 90
        2
 70
   128
 43
0.0
 10
335.7923841578593
 20
378.1286371542578
 10
695.500282128817
 20
659.0443661521452
  0
LWPOLYLINE
  5
321
330
1F
100
AcDbEntity
  8
0_Pen_No__1
  6
Above
100
AcDbPolyline
 90
        2
 70
   128
 43
0.0
 10
226.0954015862334
 20
502.8526660413233
 10
289.3808449945431
 20
424.7493796144441
  0
LWPOLYLINE
  5
322
330
1F
100
AcDbEntity
  8
0_Pen_No__1
  6
Above
100
AcDbPolyline
 90
        2
 70
   128
 43
0.0
 10
298.3967595445547
 20
380.2910807303459
 10
299.3370514718036
 20
384.4434370427647
  0
LWPOLYLINE
  5
323
330
1F
100
AcDbEntity
  8
0_Pen_No__1
  6
Above
100
AcDbPolyline
 90
        2
 70
   128
 43
0.0
 10
159.7980019756967
 20
292.7451760825923
 10
289.3808449945435
 20
393.9435623776773
  0
LWPOLYLINE
  5
324
330
1F
100
AcDbEntity
  8
0_Pen_No__1
  6
Continuous
100
AcDbPolyline
 90
        2
 70
   128
 43
0.0
 10
62.80000748189826
 20
150.2403149564884
 10
41.18227704304397
 20
137.7593124138068
  0
LWPOLYLINE
  5
325
330
1F
100
AcDbEntity
  8
0_Pen_No__1
  6
Continuous
100
AcDbPolyline
 90
        2
 70
   128
 43
0.0
 10
61.25295836461584
 20
159.3471257610466
 10
32.52202301466042
 20
142.7593124301938
  0
LWPOLYLINE
  5
326
330
1F
100
AcDbEntity
  8
0_Pen_No__1
  6
Continuous
100
AcDbPolyline
 90
        2
 70
   128
 43
0.0
 10
299.3370514718036
 20
432.0617844908605
 10
297.6050006661271
 20
433.0617844941378
  0
LWPOLYLINE
  5
327
330
1F
100
AcDbEntity
  8
0_Pen_No__1
  6
Continuous
100
AcDbPolyline
 90
        2
 70
   128
 43
0.0
 10
160.3185987018415
 20
291.9916808210666
 10
161.4995253391896
 20
279.7887722351349
  0
LWPOLYLINE
  5
328
330
1F
100
AcDbEntity
  8
0_Pen_No__1
  6
Continuous
100
AcDbPolyline
 90
        2
 70
   128
 43
0.0
 10
150.6453539478917
 20
273.5221134331542
 10
150.6453539478182
 20
217.3887076469123
  0
LWPOLYLINE
  5
329
330
1F
100
AcDbEntity
  8
0_Pen_No__1
  6
Continuous
100
AcDbPolyline
 90
        2
 70
   128
 43
0.0
 10
299.6050009790516
 20
374.1666490252945
 10
307.5807215022213
 20
380.395328900515
  0
LWPOLYLINE
  5
32A
330
1F
100
AcDbEntity
  8
0_Pen_No__1
  6
Continuous
100
AcDbPolyline
 90
        2
 70
   128
 43
0.0
 10
315.9754488103301
 20
385.6986349076977
 10
714.0350902241157
 20
696.5653547744363
  0
LWPOLYLINE
  5
32B
330
1F
100
AcDbEntity
  8
0_Pen_No__1
  6
Continuous
100
AcDbPolyline
 90
        2
 70
   128
 43
0.0
 10
317.9754488103304
 20
384.5439343693185
 10
715.6399729537615
 20
695.1020853759698
  0
LWPOLYLINE
  5
32C
330
1F
100
AcDbEntity
  8
0_Pen_No__1
  6
Continuous
100
AcDbPolyline
 90
        2
 70
   128
 43
0.0
 10
317.9754488103304
 20
354.5476533161261
 10
715.6399729537615
 20
665.1058043227777
  0
LWPOLYLINE
  5
32D
330
1F
100
AcDbEntity
  8
0_Pen_No__1
  6
Continuous
100
AcDbPolyline
 90
        2
 70
   128
 43
0.0
 10
297.6050006661271
 20
433.0617844941378
 10
305.5807211892967
 20
439.2904643693583
  0
LWPOLYLINE
  5
32E
330
1F
100
AcDbEntity
  8
0_Pen_No__1
  6
Continuous
100
AcDbPolyline
 90
        2
 70
   128
 43
0.0
 10
299.6050009790516
 20
431.9070837750914
 10
305.2768716245701
 20
436.3365602646406
  0
LWPOLYLINE
  5
32F
330
1F
100
AcDbEntity
  8
0_Pen_No__1
  6
Continuous
100
AcDbPolyline
 90
        2
 70
   128
 43
0.0
 10
278.2566104957418
 20
455.0119595788216
 10
307.948591644905
 20
478.2000646411743
  0
LWPOLYLINE
  5
330
330
1F
100
AcDbEntity
  8
0_Pen_No__1
  6
Continuous
100
AcDbPolyline
 90
        2
 70
   128
 43
0.0
 10
279.9886613014184
 20
454.0119595755444
 10
307.502437603629
 20
475.4989843837797
  0
LWPOLYLINE
  5
331
330
1F
100
AcDbEntity
  8
0_Pen_No__1
  6
Continuous
100
AcDbPolyline
 90
        2
 70
   128
 43
0.0
 10
296.1505099942738
 20
394.0021332392203
 10
294.4184591885972
 20
395.0021332424975
  0
LWPOLYLINE
  5
332
330
1F
100
AcDbEntity
  8
0_Pen_No__1
  6
Continuous
100
AcDbPolyline
 90
        2
 70
   128
 43
0.0
 10
279.9886613014184
 20
454.0119595755444
 10
278.2566104957418
 20
455.0119595788216
  0
DIMENSION
  5
33D
330
1F
100
AcDbEntity
  8
0
  6
Continuous
100
AcDbDimension
  2
*D1
 10
43.94093178878231
 20
139.35202248082
 30
0.0
 11
47.01646006950408
 21
114.793243699492
 31
0.0
 70
   160
  1
10mm min
 71
     5
 42
-1.0
 53
329.9999998915844
  3
GENERATED_STYLE__1
100
AcDbAlignedDimension
 13
45.38950978396814
 23
161.8610330906955
 33
0.0
 14
54.04976381235124
 24
156.8610330743086
 34
0.0
 50
329.9999998915844
100
AcDbRotatedDimension
  0
WIPEOUT
  5
344
330
1F
100
AcDbEntity
  8
Key_ Sections_Pen_No__1
  6
Wipeout_Contour
 48
4638.294563668098
 92
      296
310
28010000060000000C0000000E000000120000000C00000016000000000000C20C00000014000000010000006C00000007000000040000005CB0EA93009C8740A9AD0ADB621D8A4000000000000000005CB0EA9300AC8C40A9AD0ADB621D8A4000000000000000005CB0EA9300AC8C40FFBB378D00ED874000000000000000
310
005CB0EA93009C8740FFBB378D00ED874000000000000000000C0000000E000000070000008400000006000000050000005CB0EA93009C8740A9AD0ADB621D8A4000000000000000005CB0EA9300AC8C40A9AD0ADB621D8A4000000000000000005CB0EA9300AC8C40FFBB378D00ED874000000000000000005CB0EA93009C
310
8740FFBB378D00ED874000000000000000005CB0EA93009C8740A9AD0ADB621D8A400000000000000000
100
AcDbWipeout
 90
        0
 10
755.5002821288176
 20
765.6252693514106
 30
0.0
 11
162.0
 21
0.0
 31
0.0
 12
0.0
 22
70.048
 32
0.0
 13
1.0
 23
1.0
340
0
 70
    15
280
     1
281
    50
282
    50
283
     0
360
0
 71
     2
 91
        5
 14
-0.5
 24
-0.5
 14
0.5
 24
-0.5
 14
0.5
 24
0.5
 14
-0.5
 24
0.5
 14
-0.5
 24
-0.5
  0
MTEXT
  5
347
102
{ACAD_REACTORS
330
348
102
}
330
1F
100
AcDbEntity
  8
Key_ Sections_Pen_No__1
  6
Continuous
100
AcDbMText
 10
760.5002821288176
 20
801.4518121165477
 30
0.0
 40
12.49999999999999
 41
152.0
 71
     4
 72
     1
  1
{Palliside Traditional \PBevel Back fixed \Pwith Palliside nails}
  7
GENERATED_STYLE_1
 73
     1
 44
0.9558154610760367
  0
LEADER
  5
348
330
1F
100
AcDbEntity
  8
Key_ Sections_Pen_No__1
  6
Continuous
100
AcDbLeader
  3
GENERATED_STYLE__2
 72
     1
 73
     0
 74
     0
 40
52.72875499698016
 41
148.6874999999999
 76
     3
 10
102.077145040867
 20
659.2279131141013
 30
0.0
 10
254.9536588629844
 20
747.7218671255279
 30
0.0
 10
760.4102821288176
 20
801.4518121165477
 30
0.0
340
347
  0
WIPEOUT
  5
34F
330
1F
100
AcDbEntity
  8
Key_ Sections_Pen_No__1
  6
Wipeout_Contour
 48
4424.562895115352
 92
      296
310
28010000060000000C0000000E000000120000000C00000016000000000000C20C00000014000000010000006C00000007000000040000005CB0EA93009C874081DA19160AD187400000000000000000FF20289ED74D8B4081DA19160AD187400000000000000000FF20289ED74D8B409E347E51E9E0864000000000000000
310
005CB0EA93009C87409E347E51E9E0864000000000000000000C0000000E000000070000008400000006000000050000005CB0EA93009C874081DA19160AD187400000000000000000FF20289ED74D8B4081DA19160AD187400000000000000000FF20289ED74D8B409E347E51E9E0864000000000000000005CB0EA93009C
310
87409E347E51E9E0864000000000000000005CB0EA93009C874081DA19160AD187400000000000000000
100
AcDbWipeout
 90
        0
 10
755.5002821288176
 20
732.1139249667938
 30
0.0
 11
118.2299999999999
 21
0.0
 31
0.0
 12
0.0
 22
30.01599999999996
 32
0.0
 13
1.0
 23
1.0
340
0
 70
    15
280
     1
281
    50
282
    50
283
     0
360
0
 71
     2
 91
        5
 14
-0.5000000000000004
 24
-0.4999999999999981
 14
0.4999999999999995
 24
-0.4999999999999981
 14
0.4999999999999995
 24
0.5000000000000019
 14
-0.5000000000000004
 24
0.5000000000000019
 14
-0.5000000000000004
 24
-0.4999999999999981
  0
MTEXT
  5
350
102
{ACAD_REACTORS
330
351
102
}
330
1F
100
AcDbEntity
  8
Key_ Sections_Pen_No__1
  6
Continuous
100
AcDbMText
 10
760.5002821288176
 20
746.2227821096509
 30
0.0
 40
12.49999999999999
 41
108.23
 71
     4
 72
     1
  1
{Cavity battens}
  7
GENERATED_STYLE_1
 73
     1
 44
1.0
  0
LEADER
  5
351
330
1F
100
AcDbEntity
  8
Key_ Sections_Pen_No__1
  6
Continuous
100
AcDbLeader
  3
GENERATED_STYLE__2
 72
     1
 73
     0
 74
     0
 40
33.74583333333332
 41
55.41249999999997
 76
     3
 10
218.8747793980844
 20
588.0228991998206
 30
0.0
 10
393.2255868454311
 20
695.6791523142615
 30
0.0
 10
760.4102821288176
 20
746.2227821096509
 30
0.0
340
350
  0
WIPEOUT
  5
352
330
1F
100
AcDbEntity
  8
Key_ Sections_Pen_No__1
  6
Wipeout_Contour
 48
4349.067701812952
 92
      296
310
28010000060000000C0000000E000000120000000C00000016000000000000C20C00000014000000010000006C00000007000000040000005CB0EA93009C874025AE7D882AD986400000000000000000AE680919EC778C4025AE7D882AD986400000000000000000AE680919EC778C407BBCAA3AC8A8844000000000000000
310
005CB0EA93009C87407BBCAA3AC8A8844000000000000000000C0000000E000000070000008400000006000000050000005CB0EA93009C874025AE7D882AD986400000000000000000AE680919EC778C4025AE7D882AD986400000000000000000AE680919EC778C407BBCAA3AC8A8844000000000000000005CB0EA93009C
310
87407BBCAA3AC8A8844000000000000000005CB0EA93009C874025AE7D882AD986400000000000000000
100
AcDbWipeout
 90
        0
 10
755.5002821288176
 20
661.0977681483049
 30
0.0
 11
155.49
 21
0.0
 31
0.0
 12
0.0
 22
70.048
 32
0.0
 13
1.0
 23
1.0
340
0
 70
    15
280
     1
281
    50
282
    50
283
     0
360
0
 71
     2
 91
        5
 14
-0.5
 24
-0.5
 14
0.5
 24
-0.5
 14
0.5
 24
0.5
 14
-0.5
 24
0.5
 14
-0.5
 24
-0.5
  0
MTEXT
  5
353
102
{ACAD_REACTORS
330
354
102
}
330
1F
100
AcDbEntity
  8
Key_ Sections_Pen_No__1
  6
Continuous
100
AcDbMText
 10
760.5002821288176
 20
695.2228823420133
 30
0.0
 40
12.49999999999999
 41
145.49
 71
     4
 72
     1
  1
{Flashing tape \Papplied over top of \Papron flashing}
  7
GENERATED_STYLE_1
 73
     1
 44
0.9496448171979255
  0
LEADER
  5
354
330
1F
100
AcDbEntity
  8
Key_ Sections_Pen_No__1
  6
Continuous
100
AcDbLeader
  3
GENERATED_STYLE__2
 72
     1
 73
     0
 74
     0
 40
56.1453335735681
 41
143.5124999999999
 76
     3
 10
255.6577123196705
 20
483.9897337923408
 30
0.0
 10
489.7454856577299
 20
644.3878891602129
 30
0.0
 10
760.4102821288176
 20
695.2228823420133
 30
0.0
340
353
  0
WIPEOUT
  5
355
330
1F
100
AcDbEntity
  8
Key_ Sections_Pen_No__1
  6
Wipeout_Contour
 48
4228.04175851411
 92
      296
310
28010000060000000C0000000E000000120000000C00000016000000000000C20C00000014000000010000006C00000007000000040000005CB0EA93009C87402F8161DDC2C98440000000000000000033545BD10AB78D402F8161DDC2C98440000000000000000033545BD10AB78D4000A43CD741F9814000000000000000
310
005CB0EA93009C874000A43CD741F9814000000000000000000C0000000E000000070000008400000006000000050000005CB0EA93009C87402F8161DDC2C98440000000000000000033545BD10AB78D402F8161DDC2C98440000000000000000033545BD10AB78D4000A43CD741F9814000000000000000005CB0EA93009C
310
874000A43CD741F9814000000000000000005CB0EA93009C87402F8161DDC2C984400000000000000000
100
AcDbWipeout
 90
        0
 10
755.5002821288176
 20
575.1571488130139
 30
0.0
 11
195.38
 21
0.0
 31
0.0
 12
0.0
 22
90.06299999999999
 32
0.0
 13
1.0
 23
1.0
340
0
 70
    15
280
     1
281
    50
282
    50
283
     0
360
0
 71
     2
 91
        5
 14
-0.5000000000000003
 24
-0.4999999999999994
 14
0.4999999999999997
 24
-0.4999999999999994
 14
0.4999999999999997
 24
0.5000000000000007
 14
-0.5000000000000003
 24
0.5000000000000007
 14
-0.5000000000000003
 24
-0.4999999999999994
  0
MTEXT
  5
356
102
{ACAD_REACTORS
330
357
102
}
330
1F
100
AcDbEntity
  8
Key_ Sections_Pen_No__1
  6
Continuous
100
AcDbMText
 10
760.5002821288176
 20
619.2851058178622
 30
0.0
 40
12.49999999999999
 41
185.38
 71
     4
 72
     1
  1
{Optional Palliside 2 part \Pchannel base and cap\Pdrill 6mm drain holes \P@500crs}
  7
GENERATED_STYLE_1
 73
     1
 44
0.9525042532849696
  0
LEADER
  5
357
330
1F
100
AcDbEntity
  8
Key_ Sections_Pen_No__1
  6
Continuous
100
AcDbLeader
  3
GENERATED_STYLE__2
 72
     1
 73
     0
 74
     0
 40
76.16904819679786
 41
183.2874999999999
 76
     3
 10
548.4945271728731
 20
557.688648813014
 30
0.0
 10
660.8727218383
 20
606.5262054190177
 30
0.0
 10
760.4102821288176
 20
619.2851058178622
 30
0.0
340
356
  0
WIPEOUT
  5
358
330
1F
100
AcDbEntity
  8
Key_ Sections_Pen_No__1
  6
Wipeout_Contour
 48
3957.684424166747
 92
      296
310
28010000060000000C0000000E000000120000000C00000016000000000000C20C00000014000000010000006C00000007000000040000005CB0EA93009C8740DF5A373556ED81400000000000000000E19B3C4C1F2B8C40DF5A373556ED81400000000000000000E19B3C4C1F2B8C406AD2C8CEE7797F4000000000000000
310
005CB0EA93009C87406AD2C8CEE7797F4000000000000000000C0000000E000000070000008400000006000000050000005CB0EA93009C8740DF5A373556ED81400000000000000000E19B3C4C1F2B8C40DF5A373556ED81400000000000000000E19B3C4C1F2B8C406AD2C8CEE7797F4000000000000000005CB0EA93009C
310
87406AD2C8CEE7797F4000000000000000005CB0EA93009C8740DF5A373556ED81400000000000000000
100
AcDbWipeout
 90
        0
 10
755.5002821288176
 20
503.6190936894042
 30
0.0
 11
145.89
 21
0.0
 31
0.0
 12
0.0
 22
70.048
 32
0.0
 13
1.0
 23
1.0
340
0
 70
    15
280
     1
281
    50
282
    50
283
     0
360
0
 71
     2
 91
        5
 14
-0.4999999999999996
 24
-0.5
 14
0.5000000000000004
 24
-0.5
 14
0.5000000000000004
 24
0.5
 14
-0.4999999999999996
 24
0.5
 14
-0.4999999999999996
 24
-0.5
  0
MTEXT
  5
359
102
{ACAD_REACTORS
330
35A
102
}
330
1F
100
AcDbEntity
  8
Key_ Sections_Pen_No__1
  6
Continuous
100
AcDbMText
 10
760.5002821288176
 20
539.4370650259697
 30
0.0
 40
12.49999999999999
 41
135.89
 71
     4
 72
     1
  1
{100mm max long \Pcavity packers at \P300mm centres}
  7
GENERATED_STYLE_1
 73
     1
 44
0.958496348737118
  0
LEADER
  5
35A
330
1F
100
AcDbEntity
  8
Key_ Sections_Pen_No__1
  6
Continuous
100
AcDbLeader
  3
GENERATED_STYLE__2
 72
     1
 73
     0
 74
     0
 40
52.7477726814834
 41
130.75
 76
     3
 10
359.411458510852
 20
486.8792846689
 30
0.0
 10
554.3002424326747
 20
525.6072617966295
 30
0.0
 10
760.4102821288176
 20
539.4370650259697
 30
0.0
340
359
  0
WIPEOUT
  5
35B
330
1F
100
AcDbEntity
  8
Key_ Sections_Pen_No__1
  6
Wipeout_Contour
 48
3714.292582027602
 92
      296
310
28010000060000000C0000000E000000120000000C00000016000000000000C20C00000014000000010000006C00000007000000040000005CB0EA93009C87405F19CFB957C27E4000000000000000003B00782B6F278A405F19CFB957C27E4000000000000000003B00782B6F278A4098CD973016E27C4000000000000000
310
005CB0EA93009C874098CD973016E27C4000000000000000000C0000000E000000070000008400000006000000050000005CB0EA93009C87405F19CFB957C27E4000000000000000003B00782B6F278A405F19CFB957C27E4000000000000000003B00782B6F278A4098CD973016E27C4000000000000000005CB0EA93009C
310
874098CD973016E27C4000000000000000005CB0EA93009C87405F19CFB957C27E400000000000000000
100
AcDbWipeout
 90
        0
 10
755.5002821288176
 20
462.1304174356278
 30
0.0
 11
81.42899999999997
 21
0.0
 31
0.0
 12
0.0
 22
30.01600000000002
 32
0.0
 13
1.0
 23
1.0
340
0
 70
    15
280
     1
281
    50
282
    50
283
     0
360
0
 71
     2
 91
        5
 14
-0.5000000000000007
 24
-0.4999999999999991
 14
0.4999999999999993
 24
-0.4999999999999991
 14
0.4999999999999993
 24
0.500000000000001
 14
-0.5000000000000007
 24
0.500000000000001
 14
-0.5000000000000007
 24
-0.4999999999999991
  0
MTEXT
  5
35C
102
{ACAD_REACTORS
330
35D
102
}
330
1F
100
AcDbEntity
  8
Key_ Sections_Pen_No__1
  6
Continuous
100
AcDbMText
 10
760.5002821288176
 20
476.3378460070564
 30
0.0
 40
12.49999999999999
 41
71.429
 71
     4
 72
     1
  1
{Vent strip}
  7
GENERATED_STYLE_1
 73
     1
 44
1.0
  0
LEADER
  5
35D
330
1F
100
AcDbEntity
  8
Key_ Sections_Pen_No__1
  6
Continuous
100
AcDbLeader
  3
GENERATED_STYLE__2
 72
     1
 73
     0
 74
     0
 40
36.79583333333332
 41
35.68749999999999
 76
     3
 10
296.1505099942738
 20
392.2893429308194
 30
0.0
 10
578.9337379067125
 20
461.1046536236232
 30
0.0
 10
760.4102821288176
 20
476.3378460070564
 30
0.0
340
35C
  0
WIPEOUT
  5
35E
330
1F
100
AcDbEntity
  8
Key_ Sections_Pen_No__1
  6
Wipeout_Contour
 48
3653.547459718914
 92
      296
310
28010000060000000C0000000E000000120000000C00000016000000000000C20C00000014000000010000006C00000007000000040000005CB0EA93009C8740C116B032D29F7A4000000000000000000AF8CB0E15568B40C116B032D29F7A4000000000000000000AF8CB0E15568B40FACA78A990BF784000000000000000
310
005CB0EA93009C8740FACA78A990BF784000000000000000000C0000000E000000070000008400000006000000050000005CB0EA93009C8740C116B032D29F7A4000000000000000000AF8CB0E15568B40C116B032D29F7A4000000000000000000AF8CB0E15568B40FACA78A990BF784000000000000000005CB0EA93009C
310
8740FACA78A990BF784000000000000000005CB0EA93009C8740C116B032D29F7A400000000000000000
100
AcDbWipeout
 90
        0
 10
755.5002821288176
 20
395.972817870948
 30
0.0
 11
119.26
 21
0.0
 31
0.0
 12
0.0
 22
30.01600000000002
 32
0.0
 13
1.0
 23
1.0
340
0
 70
    15
280
     1
281
    50
282
    50
283
     0
360
0
 71
     2
 91
        5
 14
-0.5
 24
-0.4999999999999991
 14
0.5
 24
-0.4999999999999991
 14
0.5
 24
0.500000000000001
 14
-0.5
 24
0.500000000000001
 14
-0.5
 24
-0.4999999999999991
  0
MTEXT
  5
35F
102
{ACAD_REACTORS
330
360
102
}
330
1F
100
AcDbEntity
  8
Key_ Sections_Pen_No__1
  6
Continuous
100
AcDbMText
 10
760.5002821288176
 20
410.0816750138051
 30
0.0
 40
12.49999999999999
 41
109.26
 71
     4
 72
     1
  1
{Apron flashing}
  7
GENERATED_STYLE_1
 73
     1
 44
1.0
  0
LEADER
  5
360
330
1F
100
AcDbEntity
  8
Key_ Sections_Pen_No__1
  6
Continuous
100
AcDbLeader
  3
GENERATED_STYLE__2
 72
     1
 73
     0
 74
     0
 40
37.20833333333332
 41
58.79999999999997
 76
     3
 10
526.6928058248052
 20
335.980817870948
 30
0.0
 10
661.394422901121
 20
396.3438312170922
 30
0.0
 10
760.4102821288176
 20
410.0816750138051
 30
0.0
340
35F
  0
WIPEOUT
  5
361
330
1F
100
AcDbEntity
  8
Key_ Sections_Pen_No__1
  6
Wipeout_Contour
 48
3466.60176814308
 92
      296
310
28010000060000000C0000000E000000120000000C00000016000000000000C20C00000014000000010000006C00000007000000040000005CB0EA93009C8740717D06CC0E2F774000000000000000001A5005C3DDC28940717D06CC0E2F774000000000000000001A5005C3DDC28940AA31CF42CD4E754000000000000000
310
005CB0EA93009C8740AA31CF42CD4E754000000000000000000C0000000E000000070000008400000006000000050000005CB0EA93009C8740717D06CC0E2F774000000000000000001A5005C3DDC28940717D06CC0E2F774000000000000000001A5005C3DDC28940AA31CF42CD4E754000000000000000005CB0EA93009C
310
8740AA31CF42CD4E754000000000000000005CB0EA93009C8740717D06CC0E2F77400000000000000000
100
AcDbWipeout
 90
        0
 10
755.5002821288176
 20
340.9251125424877
 30
0.0
 11
68.85799999999995
 21
0.0
 31
0.0
 12
0.0
 22
30.01600000000002
 32
0.0
 13
1.0
 23
1.0
340
0
 70
    15
280
     1
281
    50
282
    50
283
     0
360
0
 71
     2
 91
        5
 14
-0.5
 24
-0.4999999999999991
 14
0.5
 24
-0.4999999999999991
 14
0.5
 24
0.500000000000001
 14
-0.5
 24
0.500000000000001
 14
-0.5
 24
-0.4999999999999991
  0
MTEXT
  5
362
102
{ACAD_REACTORS
330
363
102
}
330
1F
100
AcDbEntity
  8
Key_ Sections_Pen_No__1
  6
Continuous
100
AcDbMText
 10
760.5002821288176
 20
355.0339696853448
 30
0.0
 40
12.49999999999999
 41
58.858
 71
     4
 72
     1
  1
{Roofing}
  7
GENERATED_STYLE_1
 73
     1
 44
1.0
  0
LEADER
  5
363
330
1F
100
AcDbEntity
  8
Key_ Sections_Pen_No__1
  6
Continuous
100
AcDbLeader
  3
GENERATED_STYLE__2
 72
     1
 73
     0
 74
     0
 40
16.37499999999999
 41
57.58749999999997
 76
     3
 10
619.816642509121
 20
305.9331125424877
 30
0.0
 10
709.3532444452468
 20
347.9710295221971
 30
0.0
 10
760.4102821288176
 20
355.0339696853448
 30
0.0
340
362
  0
WIPEOUT
  5
364
330
1F
100
AcDbEntity
  8
Key_ Sections_Pen_No__1
  6
Wipeout_Contour
 48
3584.689029197044
 92
      296
310
28010000060000000C0000000E000000120000000C00000016000000000000C20C00000014000000010000006C00000007000000040000005CB0EA93009C8740ABA4328A5FB574400000000000000000C21651FA66B28D40ABA4328A5FB574400000000000000000C21651FA66B28D40231632E18B27694000000000000000
310
005CB0EA93009C8740231632E18B27694000000000000000000C0000000E000000070000008400000006000000050000005CB0EA93009C8740ABA4328A5FB574400000000000000000C21651FA66B28D40ABA4328A5FB574400000000000000000C21651FA66B28D40231632E18B27694000000000000000005CB0EA93009C
310
8740231632E18B27694000000000000000005CB0EA93009C8740ABA4328A5FB574400000000000000000
100
AcDbWipeout
 90
        0
 10
755.5002821288176
 20
201.2358251550914
 30
0.0
 11
194.8
 21
0.0
 31
0.0
 12
0.0
 22
130.1
 32
0.0
 13
1.0
 23
1.0
340
0
 70
    15
280
     1
281
    50
282
    50
283
     0
360
0
 71
     2
 91
        5
 14
-0.5
 24
-0.5000000000000001
 14
0.5
 24
-0.5000000000000001
 14
0.5
 24
0.4999999999999999
 14
-0.5
 24
0.4999999999999999
 14
-0.5
 24
-0.5000000000000001
  0
MTEXT
  5
365
102
{ACAD_REACTORS
330
366
102
}
330
1F
100
AcDbEntity
  8
Key_ Sections_Pen_No__1
  6
Continuous
100
AcDbMText
 10
760.5002821288176
 20
267.0907534965052
 30
0.0
 40
12.49999999999999
 41
184.8
 71
     4
 72
     1
  1
{Apron flashing upstand \Pbehind Palliside weather\Pboard and building \Punderlay100mm min \Pupstand cover behind \Pweatherboards}
  7
GENERATED_STYLE_1
 73
     1
 44
0.798933695863019
  0
LEADER
  5
366
330
1F
100
AcDbEntity
  8
Key_ Sections_Pen_No__1
  6
Continuous
100
AcDbLeader
  3
GENERATED_STYLE__2
 72
     1
 73
     0
 74
     0
 40
112.7764320780414
 41
177.2124999999999
 76
     3
 10
256.6034629782798
 20
343.9315386858479
 30
0.0
 10
548.8539765395649
 20
282.1740805841091
 30
0.0
 10
760.4102821288176
 20
267.0907534965052
 30
0.0
340
365
  0
WIPEOUT
  5
367
330
1F
100
AcDbEntity
  8
Key_ Sections_Pen_No__1
  6
Wipeout_Contour
 48
3427.166566541317
 92
      296
310
28010000060000000C0000000E000000120000000C00000016000000000000C20C00000014000000010000006C00000007000000040000005DB0EA93009C874044338DA16600694000000000000000005CB0EA9300E28C4044338DA16600694000000000000000005CB0EA9300E28C409C6C416ADD3E604000000000000000
310
005DB0EA93009C87409C6C416ADD3E604000000000000000000C0000000E000000070000008400000006000000050000005DB0EA93009C874044338DA16600694000000000000000005CB0EA9300E28C4044338DA16600694000000000000000005CB0EA9300E28C409C6C416ADD3E604000000000000000005DB0EA93009C
310
87409C6C416ADD3E604000000000000000005DB0EA93009C874044338DA1660069400000000000000000
100
AcDbWipeout
 90
        0
 10
755.5002821288177
 20
129.9645282056634
 30
0.0
 11
168.7499999999999
 21
0.0
 31
0.0
 12
0.0
 22
70.048
 32
0.0
 13
1.0
 23
1.0
340
0
 70
    15
280
     1
281
    50
282
    50
283
     0
360
0
 71
     2
 91
        5
 14
-0.4999999999999997
 24
-0.5
 14
0.5000000000000003
 24
-0.5
 14
0.5000000000000003
 24
0.5
 14
-0.4999999999999997
 24
0.5
 14
-0.4999999999999997
 24
-0.5
  0
MTEXT
  5
368
102
{ACAD_REACTORS
330
369
102
}
330
1F
100
AcDbEntity
  8
Key_ Sections_Pen_No__1
  6
Continuous
100
AcDbMText
 10
760.5002821288177
 20
164.0896423993718
 30
0.0
 40
12.49999999999999
 41
158.75
 71
     4
 72
     1
  1
{Tapered stop end to \Pdivert apron flashing \Pwater into gutter.}
  7
GENERATED_STYLE_1
 73
     1
 44
0.9544562503071139
  0
LEADER
  5
369
330
1F
100
AcDbEntity
  8
Key_ Sections_Pen_No__1
  6
Continuous
100
AcDbLeader
  3
GENERATED_STYLE__2
 72
     1
 73
     0
 74
     0
 40
56.13433238265332
 41
155.3499999999999
 76
     3
 10
215.0887201687983
 20
203.8113849710417
 30
0.0
 10
360.9929809562401
 20
179.1226449637352
 30
0.0
 10
760.4102821288177
 20
164.0896423993718
 30
0.0
340
368
  0
WIPEOUT
  5
36A
330
1F
100
AcDbEntity
  8
Key_ Sections_Pen_No__1
  6
Wipeout_Contour
 48
3412.56137329068
 92
      296
310
28010000060000000C0000000E000000120000000C00000016000000000000C20C00000014000000010000006C00000007000000040000005DB0EA93009C87401E69CCCF41CC5B400000000000000000EC72E0BC5C738D401E69CCCF41CC5B400000000000000000EC72E0BC5C738D409CB769C25E92444000000000000000
310
005DB0EA93009C87409CB769C25E92444000000000000000000C0000000E000000070000008400000006000000050000005DB0EA93009C87401E69CCCF41CC5B400000000000000000EC72E0BC5C738D401E69CCCF41CC5B400000000000000000EC72E0BC5C738D409CB769C25E92444000000000000000005DB0EA93009C
310
87409CB769C25E92444000000000000000005DB0EA93009C87401E69CCCF41CC5B400000000000000000
100
AcDbWipeout
 90
        0
 10
755.5002821288177
 20
41.14351682817434
 30
0.0
 11
186.92
 21
0.0
 31
0.0
 12
0.0
 22
70.048
 32
0.0
 13
1.0
 23
1.0
340
0
 70
    15
280
     1
281
    50
282
    50
283
     0
360
0
 71
     2
 91
        5
 14
-0.4999999999999997
 24
-0.5
 14
0.5000000000000003
 24
-0.5
 14
0.5000000000000003
 24
0.5
 14
-0.4999999999999997
 24
0.5
 14
-0.4999999999999997
 24
-0.5
  0
MTEXT
  5
36B
102
{ACAD_REACTORS
330
36C
102
}
330
1F
100
AcDbEntity
  8
Key_ Sections_Pen_No__1
  6
Continuous
100
AcDbMText
 10
760.5002821288177
 20
75.26863102188273
 30
0.0
 40
12.49999999999999
 41
176.92
 71
     4
 72
     1
  1
{Stop spouting min \P10mm clear of finished \Pwall cladding}
  7
GENERATED_STYLE_1
 73
     1
 44
0.949644817197925
  0
LEADER
  5
36C
330
1F
100
AcDbEntity
  8
Key_ Sections_Pen_No__1
  6
Continuous
100
AcDbLeader
  3
GENERATED_STYLE__2
 72
     1
 73
     0
 74
     0
 40
56.13463309722264
 41
172.3499999999999
 76
     3
 10
107.7072382255147
 20
176.1675168281744
 30
0.0
 10
286.4354612870662
 20
111.9460484826669
 30
0.0
 10
760.4102821288177
 20
75.26863102188273
 30
0.0
340
36B
  0
WIPEOUT
  5
36D
330
1F
100
AcDbEntity
  8
Key_ Sections_Pen_No__1
  6
Wipeout_Contour
 48
1625.947493318356
 92
      296
310
28010000060000000C0000000E000000120000000C00000016000000000000C20C00000014000000010000006C000000070000000400000056F97A41E05E7240F2027B13DB50724000000000000000003F2E044A1667744020B518038324714000000000000000005D886885F5767340717EF91B32096F4000000000000000
310
007453DF7CBF6E71400A0D5F1EF1B0704000000000000000000C0000000E0000000700000084000000060000000500000056F97A41E05E7240F2027B13DB50724000000000000000003F2E044A1667744020B518038324714000000000000000005D886885F5767340717EF91B32096F4000000000000000007453DF7CBF6E
310
71400A0D5F1EF1B07040000000000000000056F97A41E05E7240F2027B13DB5072400000000000000000
100
AcDbWipeout
 90
        0
 10
278.9217499469444
 20
248.2873668549469
 30
0.0
 11
47.52119173427917
 21
0.0
 31
0.0
 12
0.0
 22
44.76611851999368
 32
0.0
 13
1.0
 23
1.0
340
0
 70
    15
280
     1
281
    50
282
    50
283
     0
360
0
 71
     2
 91
        5
 14
-0.1841830044179227
 24
-0.5000000000000003
 14
0.4999999999999994
 24
-0.080676176076867
 14
0.1841830044179214
 24
0.4999999999999997
 14
-0.5000000000000006
 24
0.080676176076867
 14
-0.1841830044179227
 24
-0.5000000000000003
  0
MTEXT
  5
36E
102
{ACAD_REACTORS
330
36F
102
}
330
1F
100
AcDbEntity
  8
Key_ Sections_Pen_No__1
  6
Continuous
100
AcDbMText
 10
315.0099575194442
 20
264.4794759246086
 30
0.0
 40
12.49999999999999
 41
27.543
 71
     6
 72
     1
  1
{Fall}
  7
GENERATED_STYLE_1
 11
0.8660254037844397
 21
-0.4999999999999981
 31
0.0
 73
     1
 44
1.0
  0
LEADER
  5
36F
330
1F
100
AcDbEntity
  8
Key_ Sections_Pen_No__1
  6
Continuous
100
AcDbLeader
  3
GENERATED_STYLE__2
 72
     1
 73
     0
 40
12.69999999999999
 41
25.44999999999999
 76
     2
 10
336.2594497569125
 20
251.2846761149437
 30
0.0
 10
315.0878998057848
 20
264.4344759246085
 30
0.0
340
36E
211
0.8660254037844397
221
-0.4999999999999981
231
0.0
  0
WIPEOUT
  5
370
330
1F
100
AcDbEntity
  8
Key_ Sections_Pen_No__1
  6
Wipeout_Contour
 48
2424.180669266609
 92
      296
310
28010000060000000C0000000E000000120000000C00000016000000000000C20C00000014000000010000006C0000000700000004000000E6B6412CEA387C40478EDD7174027A400000000000000000CFEBCA3420417E4076407B611CD678400000000000000000EC452F70FF507D408E4A5F6C3236774000000000000000
310
000311A667C9487B406098C17C8A62784000000000000000000C0000000E00000007000000840000000600000005000000E6B6412CEA387C40478EDD7174027A400000000000000000CFEBCA3420417E4076407B611CD678400000000000000000EC452F70FF507D408E4A5F6C3236774000000000000000000311A667C948
310
7B406098C17C8A6278400000000000000000E6B6412CEA387C40478EDD7174027A400000000000000000
100
AcDbWipeout
 90
        0
 10
436.5491711127253
 20
371.3873103830637
 30
0.0
 11
47.52119173427923
 21
0.0
 31
0.0
 12
0.0
 22
44.76611851999365
 32
0.0
 13
1.0
 23
1.0
340
0
 70
    15
280
     1
281
    50
282
    50
283
     0
360
0
 71
     2
 91
        5
 14
-0.1841830044179212
 24
-0.5000000000000007
 14
0.5
 24
-0.0806761760768684
 14
0.1841830044179212
 24
0.4999999999999994
 14
-0.5
 24
0.0806761760768658
 14
-0.1841830044179212
 24
-0.5000000000000007
  0
MTEXT
  5
371
102
{ACAD_REACTORS
330
372
102
}
330
1F
100
AcDbEntity
  8
Key_ Sections_Pen_No__1
  6
Continuous
100
AcDbMText
 10
472.6373786852253
 20
387.5794194527253
 30
0.0
 40
12.49999999999999
 41
27.543
 71
     6
 72
     1
  1
{Fall}
  7
GENERATED_STYLE_1
 11
0.8660254037844397
 21
-0.4999999999999981
 31
0.0
 73
     1
 44
1.0
  0
LEADER
  5
372
330
1F
100
AcDbEntity
  8
Key_ Sections_Pen_No__1
  6
Continuous
100
AcDbLeader
  3
GENERATED_STYLE__2
 72
     1
 73
     0
 40
12.69999999999999
 41
25.44999999999999
 76
     2
 10
493.8868709226934
 20
374.3846196430605
 30
0.0
 10
472.7153209715659
 20
387.5344194527253
 30
0.0
340
371
211
0.8660254037844397
221
-0.4999999999999981
231
0.0
  0
ENDSEC
  0
SECTION
  2
OBJECTS
  0
DICTIONARY
  5
C
330
0
100
AcDbDictionary
281
     1
  3
ACAD_GROUP
350
D
  3
ACAD_LAYOUT
350
1A
  3
ACAD_MATERIAL
350
3B
  3
ACAD_MLEADERSTYLE
350
3C3
  3
ACAD_MLINESTYLE
350
17
  3
ACAD_PLOTSETTINGS
350
19
  3
ACAD_PLOTSTYLENAME
350
E
  3
ACAD_SCALELIST
350
376
  3
ACAD_TABLESTYLE
350
3C2
  3
ACAD_VISUALSTYLE
350
2A
  3
AcDbVariableDictionary
350
39A
  3
WATERMARKS
350
398
  0
DICTIONARY
  5
D
102
{ACAD_REACTORS
330
C
102
}
330
C
100
AcDbDictionary
281
     1
  0
DICTIONARY
  5
1A
102
{ACAD_REACTORS
330
C
102
}
330
C
100
AcDbDictionary
281
     1
  3
Layout1
350
1E
  3
Layout2
350
26
  3
Model
350
22
  0
DICTIONARY
  5
3B
102
{ACAD_REACTORS
330
C
102
}
330
C
100
AcDbDictionary
281
     1
  3
ByBlock
350
3D
  3
ByLayer
350
3C
  3
Global
350
3E
  0
DICTIONARY
  5
3C3
102
{ACAD_REACTORS
330
C
102
}
330
C
100
AcDbDictionary
281
     1
  0
DICTIONARY
  5
17
102
{ACAD_REACTORS
330
C
102
}
330
C
100
AcDbDictionary
281
     1
  3
Standard
350
18
  0
DICTIONARY
  5
19
102
{ACAD_REACTORS
330
C
102
}
330
C
100
AcDbDictionary
281
     1
  0
ACDBDICTIONARYWDFLT
  5
E
102
{ACAD_REACTORS
330
C
102
}
330
C
100
AcDbDictionary
281
     1
  3
Normal
350
F
100
AcDbDictionaryWithDefault
340
F
  0
DICTIONARY
  5
376
102
{ACAD_REACTORS
330
C
102
}
330
C
100
AcDbDictionary
281
     1
  3
A0
350
377
  3
A1
350
378
  3
A2
350
379
  3
A3
350
37A
  3
A4
350
37B
  3
A5
350
37C
  3
A6
350
37D
  3
A7
350
37E
  3
A8
350
37F
  3
A9
350
380
  3
B0
350
381
  3
B1
350
382
  3
B2
350
383
  3
B3
350
384
  3
B4
350
385
  3
B5
350
386
  3
B6
350
387
  3
B7
350
388
  3
B8
350
389
  3
B9
350
38A
  3
C0
350
38B
  3
C1
350
38C
  3
C2
350
38D
  3
C3
350
38E
  3
C4
350
38F
  3
C5
350
390
  3
C6
350
391
  3
C7
350
392
  3
C8
350
393
  3
C9
350
394
  3
D0
350
395
  3
D1
350
396
  3
D2
350
397
  0
DICTIONARY
  5
3C2
102
{ACAD_REACTORS
330
C
102
}
330
C
100
AcDbDictionary
281
     1
  0
DICTIONARY
  5
2A
102
{ACAD_REACTORS
330
C
102
}
330
C
100
AcDbDictionary
281
     1
  3
2dWireframe
350
2F
  3
3D Hidden
350
31
  3
3dWireframe
350
30
  3
Basic
350
32
  3
Brighten
350
36
  3
ColorChange
350
3A
  3
Conceptual
350
34
  3
Dim
350
35
  3
Facepattern
350
39
  3
Flat
350
2B
  3
FlatWithEdges
350
2C
  3
Gouraud
350
2D
  3
GouraudWithEdges
350
2E
  3
Linepattern
350
38
  3
Realistic
350
33
  3
Thicken
350
37
  0
DICTIONARY
  5
39A
102
{ACAD_REACTORS
330
C
102
}
330
C
100
AcDbDictionary
281
     1
  3
CANNOSCALE
350
39B
  3
XCLIPFRAME
350
3C4
  0
DICTIONARY
  5
398
102
{ACAD_REACTORS
330
C
102
}
330
C
100
AcDbDictionary
281
     1
  3
AC_WATERMARK
350
399
  0
LAYOUT
  5
1E
102
{ACAD_REACTORS
330
1A
102
}
330
1A
100
AcDbPlotSettings
  1

  2
none_device
  4

  6

 40
0.0
 41
0.0
 42
0.0
 43
0.0
 44
0.0
 45
0.0
 46
0.0
 47
0.0
 48
0.0
 49
0.0
140
0.0
141
0.0
142
1.0
143
1.0
 70
   688
 72
     0
 73
     0
 74
     5
  7

 75
    16
 76
     0
 77
     2
 78
   300
147
1.0
148
0.0
149
0.0
100
AcDbLayout
  1
Layout1
 70
     1
 71
     1
 10
0.0
 20
0.0
 11
12.0
 21
9.0
 12
0.0
 22
0.0
 32
0.0
 14
1.000000000000000E+20
 24
1.000000000000000E+20
 34
1.000000000000000E+20
 15
-1.000000000000000E+20
 25
-1.000000000000000E+20
 35
-1.000000000000000E+20
146
0.0
 13
0.0
 23
0.0
 33
0.0
 16
1.0
 26
0.0
 36
0.0
 17
0.0
 27
1.0
 37
0.0
 76
     0
330
1B
  0
LAYOUT
  5
26
102
{ACAD_REACTORS
330
1A
102
}
330
1A
100
AcDbPlotSettings
  1

  2
none_device
  4

  6

 40
0.0
 41
0.0
 42
0.0
 43
0.0
 44
0.0
 45
0.0
 46
0.0
 47
0.0
 48
0.0
 49
0.0
140
0.0
141
0.0
142
1.0
143
1.0
 70
   688
 72
     0
 73
     0
 74
     5
  7

 75
    16
 76
     0
 77
     2
 78
   300
147
1.0
148
0.0
149
0.0
100
AcDbLayout
  1
Layout2
 70
     1
 71
     2
 10
0.0
 20
0.0
 11
0.0
 21
0.0
 12
0.0
 22
0.0
 32
0.0
 14
0.0
 24
0.0
 34
0.0
 15
0.0
 25
0.0
 35
0.0
146
0.0
 13
0.0
 23
0.0
 33
0.0
 16
1.0
 26
0.0
 36
0.0
 17
0.0
 27
1.0
 37
0.0
 76
     0
330
23
  0
LAYOUT
  5
22
102
{ACAD_REACTORS
330
1A
102
}
330
1A
100
AcDbPlotSettings
  1

  2
none_device
  4

  6

 40
0.0
 41
0.0
 42
0.0
 43
0.0
 44
0.0
 45
0.0
 46
0.0
 47
0.0
 48
0.0
 49
0.0
140
0.0
141
0.0
142
1.0
143
1.0
 70
  1712
 72
     0
 73
     0
 74
     0
  7

 75
     0
 76
     0
 77
     2
 78
   300
147
1.0
148
0.0
149
0.0
100
AcDbLayout
  1
Model
 70
     1
 71
     0
 10
0.0
 20
0.0
 11
12.0
 21
9.0
 12
0.0
 22
0.0
 32
0.0
 14
1.000000000000000E+20
 24
1.000000000000000E+20
 34
1.000000000000000E+20
 15
-1.000000000000000E+20
 25
-1.000000000000000E+20
 35
-1.000000000000000E+20
146
0.0
 13
0.0
 23
0.0
 33
0.0
 16
1.0
 26
0.0
 36
0.0
 17
0.0
 27
1.0
 37
0.0
 76
     0
330
1F
331
29
  0
MATERIAL
  5
3D
102
{ACAD_REACTORS
330
3B
102
}
102
{ACAD_XDICTIONARY
360
3BE
102
}
330
3B
100
AcDbMaterial
  1
ByBlock
  0
MATERIAL
  5
3C
102
{ACAD_REACTORS
330
3B
102
}
102
{ACAD_XDICTIONARY
360
3BC
102
}
330
3B
100
AcDbMaterial
  1
ByLayer
  0
MATERIAL
  5
3E
102
{ACAD_REACTORS
330
3B
102
}
102
{ACAD_XDICTIONARY
360
3C0
102
}
330
3B
100
AcDbMaterial
  1
Global
  0
MLINESTYLE
  5
18
102
{ACAD_REACTORS
330
17
102
}
330
17
100
AcDbMlineStyle
  2
Standard
 70
     0
  3

 62
   256
 51
90.0
 52
90.0
 71
     2
 49
0.5
 62
   256
  6
BYLAYER
 49
-0.5
 62
   256
  6
BYLAYER
  0
ACDBPLACEHOLDER
  5
F
102
{ACAD_REACTORS
330
E
102
}
330
E
  0
SCALE
  5
377
102
{ACAD_REACTORS
330
376
102
}
330
376
100
AcDbScale
 70
     0
300
1:1
140
1.0
141
1.0
290
     1
  0
SCALE
  5
378
102
{ACAD_REACTORS
330
376
102
}
330
376
100
AcDbScale
 70
     0
300
1:2
140
1.0
141
2.0
290
     0
  0
SCALE
  5
379
102
{ACAD_REACTORS
330
376
102
}
330
376
100
AcDbScale
 70
     0
300
1:4
140
1.0
141
4.0
290
     0
  0
SCALE
  5
37A
102
{ACAD_REACTORS
330
376
102
}
330
376
100
AcDbScale
 70
     0
300
1:5
140
1.0
141
5.0
290
     0
  0
SCALE
  5
37B
102
{ACAD_REACTORS
330
376
102
}
330
376
100
AcDbScale
 70
     0
300
1:8
140
1.0
141
8.0
290
     0
  0
SCALE
  5
37C
102
{ACAD_REACTORS
330
376
102
}
330
376
100
AcDbScale
 70
     0
300
1:10
140
1.0
141
10.0
290
     0
  0
SCALE
  5
37D
102
{ACAD_REACTORS
330
376
102
}
330
376
100
AcDbScale
 70
     0
300
1:16
140
1.0
141
16.0
290
     0
  0
SCALE
  5
37E
102
{ACAD_REACTORS
330
376
102
}
330
376
100
AcDbScale
 70
     0
300
1:20
140
1.0
141
20.0
290
     0
  0
SCALE
  5
37F
102
{ACAD_REACTORS
330
376
102
}
330
376
100
AcDbScale
 70
     0
300
1:30
140
1.0
141
30.0
290
     0
  0
SCALE
  5
380
102
{ACAD_REACTORS
330
376
102
}
330
376
100
AcDbScale
 70
     0
300
1:40
140
1.0
141
40.0
290
     0
  0
SCALE
  5
381
102
{ACAD_REACTORS
330
376
102
}
330
376
100
AcDbScale
 70
     0
300
1:50
140
1.0
141
50.0
290
     0
  0
SCALE
  5
382
102
{ACAD_REACTORS
330
376
102
}
330
376
100
AcDbScale
 70
     0
300
1:100
140
1.0
141
100.0
290
     0
  0
SCALE
  5
383
102
{ACAD_REACTORS
330
376
102
}
330
376
100
AcDbScale
 70
     0
300
2:1
140
2.0
141
1.0
290
     0
  0
SCALE
  5
384
102
{ACAD_REACTORS
330
376
102
}
330
376
100
AcDbScale
 70
     0
300
4:1
140
4.0
141
1.0
290
     0
  0
SCALE
  5
385
102
{ACAD_REACTORS
330
376
102
}
330
376
100
AcDbScale
 70
     0
300
8:1
140
8.0
141
1.0
290
     0
  0
SCALE
  5
386
102
{ACAD_REACTORS
330
376
102
}
330
376
100
AcDbScale
 70
     0
300
10:1
140
10.0
141
1.0
290
     0
  0
SCALE
  5
387
102
{ACAD_REACTORS
330
376
102
}
330
376
100
AcDbScale
 70
     0
300
100:1
140
100.0
141
1.0
290
     0
  0
SCALE
  5
388
102
{ACAD_REACTORS
330
376
102
}
330
376
100
AcDbScale
 70
     0
300
1/128" = 1'-0"
140
0.0078125
141
12.0
290
     0
  0
SCALE
  5
389
102
{ACAD_REACTORS
330
376
102
}
330
376
100
AcDbScale
 70
     0
300
1/64" = 1'-0"
140
0.015625
141
12.0
290
     0
  0
SCALE
  5
38A
102
{ACAD_REACTORS
330
376
102
}
330
376
100
AcDbScale
 70
     0
300
1/32" = 1'-0"
140
0.03125
141
12.0
290
     0
  0
SCALE
  5
38B
102
{ACAD_REACTORS
330
376
102
}
330
376
100
AcDbScale
 70
     0
300
1/16" = 1'-0"
140
0.0625
141
12.0
290
     0
  0
SCALE
  5
38C
102
{ACAD_REACTORS
330
376
102
}
330
376
100
AcDbScale
 70
     0
300
3/32" = 1'-0"
140
0.09375
141
12.0
290
     0
  0
SCALE
  5
38D
102
{ACAD_REACTORS
330
376
102
}
330
376
100
AcDbScale
 70
     0
300
1/8" = 1'-0"
140
0.125
141
12.0
290
     0
  0
SCALE
  5
38E
102
{ACAD_REACTORS
330
376
102
}
330
376
100
AcDbScale
 70
     0
300
3/16" = 1'-0"
140
0.1875
141
12.0
290
     0
  0
SCALE
  5
38F
102
{ACAD_REACTORS
330
376
102
}
330
376
100
AcDbScale
 70
     0
300
1/4" = 1'-0"
140
0.25
141
12.0
290
     0
  0
SCALE
  5
390
102
{ACAD_REACTORS
330
376
102
}
330
376
100
AcDbScale
 70
     0
300
3/8" = 1'-0"
140
0.375
141
12.0
290
     0
  0
SCALE
  5
391
102
{ACAD_REACTORS
330
376
102
}
330
376
100
AcDbScale
 70
     0
300
1/2" = 1'-0"
140
0.5
141
12.0
290
     0
  0
SCALE
  5
392
102
{ACAD_REACTORS
330
376
102
}
330
376
100
AcDbScale
 70
     0
300
3/4" = 1'-0"
140
0.75
141
12.0
290
     0
  0
SCALE
  5
393
102
{ACAD_REACTORS
330
376
102
}
330
376
100
AcDbScale
 70
     0
300
1" = 1'-0"
140
1.0
141
12.0
290
     0
  0
SCALE
  5
394
102
{ACAD_REACTORS
330
376
102
}
330
376
100
AcDbScale
 70
     0
300
1-1/2" = 1'-0"
140
1.5
141
12.0
290
     0
  0
SCALE
  5
395
102
{ACAD_REACTORS
330
376
102
}
330
376
100
AcDbScale
 70
     0
300
3" = 1'-0"
140
3.0
141
12.0
290
     0
  0
SCALE
  5
396
102
{ACAD_REACTORS
330
376
102
}
330
376
100
AcDbScale
 70
     0
300
6" = 1'-0"
140
6.0
141
12.0
290
     0
  0
SCALE
  5
397
102
{ACAD_REACTORS
330
376
102
}
330
376
100
AcDbScale
 70
     0
300
1'-0" = 1'-0"
140
12.0
141
12.0
290
     0
  0
VISUALSTYLE
  5
2F
102
{ACAD_REACTORS
330
2A
102
}
102
{ACAD_XDICTIONARY
360
3A4
102
}
330
2A
100
AcDbVisualStyle
  2
2dWireframe
 70
     4
 71
     0
 72
     2
 73
     0
 90
        0
 40
-0.6
 41
-30.0
 62
     5
 63
     7
421
 16777215
 74
     1
 91
        4
 64
     7
 65
   257
 75
     1
175
     1
 42
1.0
 92
        0
 66
   257
 43
1.0
 76
     1
 77
     6
 78
     2
 67
     7
 79
     5
170
     0
171
     0
290
     0
174
     0
 93
        1
 44
0.0
173
     0
291
     0
 45
0.0
1001
ACAD
1000
AcDbSavedByObjectVersion
1070
     0
  0
VISUALSTYLE
  5
31
102
{ACAD_REACTORS
330
2A
102
}
102
{ACAD_XDICTIONARY
360
3A8
102
}
330
2A
100
AcDbVisualStyle
  2
3D Hidden
 70
     6
 71
     1
 72
     2
 73
     2
 90
        0
 40
-0.6
 41
-30.0
 62
     5
 63
     7
421
 16777215
 74
     2
 91
        2
 64
     7
 65
   257
 75
     2
175
     1
 42
40.0
 92
        0
 66
   257
 43
1.0
 76
     1
 77
     6
 78
     2
 67
     7
 79
     3
170
     0
171
     0
290
     0
174
     0
 93
        1
 44
0.0
173
     0
291
     0
 45
0.0
1001
ACAD
1000
AcDbSavedByObjectVersion
1070
     0
  0
VISUALSTYLE
  5
30
102
{ACAD_REACTORS
330
2A
102
}
102
{ACAD_XDICTIONARY
360
3A6
102
}
330
2A
100
AcDbVisualStyle
  2
3dWireframe
 70
     5
 71
     0
 72
     2
 73
     0
 90
        0
 40
-0.6
 41
-30.0
 62
     5
 63
     7
421
 16777215
 74
     1
 91
        4
 64
     7
 65
   257
 75
     1
175
     1
 42
1.0
 92
        0
 66
   257
 43
1.0
 76
     1
 77
     6
 78
     2
 67
     7
 79
     5
170
     0
171
     0
290
     0
174
     0
 93
        1
 44
0.0
173
     0
291
     0
 45
0.0
1001
ACAD
1000
AcDbSavedByObjectVersion
1070
     0
  0
VISUALSTYLE
  5
32
102
{ACAD_REACTORS
330
2A
102
}
102
{ACAD_XDICTIONARY
360
3AA
102
}
330
2A
100
AcDbVisualStyle
  2
Basic
 70
     7
 71
     1
 72
     0
 73
     1
 90
        0
 40
-0.6
 41
-30.0
 62
     5
 63
     7
421
 16777215
 74
     0
 91
        4
 64
     7
 65
   257
 75
     1
175
     1
 42
1.0
 92
        8
 66
     7
 43
1.0
 76
     1
 77
     6
 78
     2
 67
     7
 79
     5
170
     0
171
     0
290
     0
174
     0
 93
        1
 44
0.0
173
     0
291
     1
 45
0.0
1001
ACAD
1000
AcDbSavedByObjectVersion
1070
     0
  0
VISUALSTYLE
  5
36
102
{ACAD_REACTORS
330
2A
102
}
102
{ACAD_XDICTIONARY
360
3B2
102
}
330
2A
100
AcDbVisualStyle
  2
Brighten
 70
    12
 71
     2
 72
     2
 73
     0
 90
        0
 40
-0.6
 41
-30.0
 62
     5
 63
     7
421
 16777215
 74
     1
 91
        4
 64
     7
 65
   257
 75
     1
175
     1
 42
1.0
 92
        8
 66
     7
 43
1.0
 76
     1
 77
     6
 78
     2
 67
     7
 79
     5
170
     0
171
     0
290
     0
174
     0
 93
        1
 44
50.0
173
     0
291
     1
 45
0.0
1001
ACAD
1000
AcDbSavedByObjectVersion
1070
     0
  0
VISUALSTYLE
  5
3A
102
{ACAD_REACTORS
330
2A
102
}
102
{ACAD_XDICTIONARY
360
3BA
102
}
330
2A
100
AcDbVisualStyle
  2
ColorChange
 70
    16
 71
     2
 72
     2
 73
     3
 90
        0
 40
-0.6
 41
-30.0
 62
     5
 63
     8
421
  8421504
 74
     1
 91
        4
 64
     7
 65
   257
 75
     1
175
     1
 42
1.0
 92
        8
 66
     8
424
  8421504
 43
1.0
 76
     1
 77
     6
 78
     2
 67
     7
 79
     5
170
     0
171
     0
290
     0
174
     0
 93
        1
 44
0.0
173
     0
291
     1
 45
0.0
1001
ACAD
1000
AcDbSavedByObjectVersion
1070
     0
  0
VISUALSTYLE
  5
34
102
{ACAD_REACTORS
330
2A
102
}
102
{ACAD_XDICTIONARY
360
3AE
102
}
330
2A
100
AcDbVisualStyle
  2
Conceptual
 70
     9
 71
     3
 72
     2
 73
     0
 90
        0
 40
-0.6
 41
-30.0
 62
     5
 63
     7
421
 16777215
 74
     2
 91
        2
 64
     7
 65
   257
 75
     1
175
     1
 42
40.0
 92
        8
 66
     7
 43
1.0
 76
     1
 77
     6
 78
     2
 67
     7
 79
     3
170
     0
171
     0
290
     0
174
     0
 93
        1
 44
0.0
173
     0
291
     0
 45
0.0
1001
ACAD
1000
AcDbSavedByObjectVersion
1070
     0
  0
VISUALSTYLE
  5
35
102
{ACAD_REACTORS
330
2A
102
}
102
{ACAD_XDICTIONARY
360
3B0
102
}
330
2A
100
AcDbVisualStyle
  2
Dim
 70
    11
 71
     2
 72
     2
 73
     0
 90
        0
 40
-0.6
 41
-30.0
 62
     5
 63
     7
421
 16777215
 74
     1
 91
        4
 64
     7
 65
   257
 75
     1
175
     1
 42
1.0
 92
        8
 66
     7
 43
1.0
 76
     1
 77
     6
 78
     2
 67
     7
 79
     5
170
     0
171
     0
290
     0
174
     0
 93
        1
 44
-50.0
173
     0
291
     1
 45
0.0
1001
ACAD
1000
AcDbSavedByObjectVersion
1070
     0
  0
VISUALSTYLE
  5
39
102
{ACAD_REACTORS
330
2A
102
}
102
{ACAD_XDICTIONARY
360
3B8
102
}
330
2A
100
AcDbVisualStyle
  2
Facepattern
 70
    15
 71
     2
 72
     2
 73
     0
 90
        0
 40
-0.6
 41
-30.0
 62
     5
 63
     7
421
 16777215
 74
     1
 91
        4
 64
     7
 65
   257
 75
     1
175
     1
 42
1.0
 92
        8
 66
     7
 43
1.0
 76
     1
 77
     6
 78
     2
 67
     7
 79
     5
170
     0
171
     0
290
     0
174
     0
 93
        1
 44
0.0
173
     0
291
     1
 45
0.0
1001
ACAD
1000
AcDbSavedByObjectVersion
1070
     0
  0
VISUALSTYLE
  5
2B
102
{ACAD_REACTORS
330
2A
102
}
102
{ACAD_XDICTIONARY
360
39C
102
}
330
2A
100
AcDbVisualStyle
  2
Flat
 70
     0
 71
     2
 72
     1
 73
     1
 90
        2
 40
-0.6
 41
30.0
 62
     5
 63
     7
421
 16777215
 74
     0
 91
        4
 64
     7
 65
   257
 75
     1
175
     1
 42
1.0
 92
        8
 66
     7
 43
1.0
 76
     1
 77
     6
 78
     2
 67
     7
 79
     5
170
     0
171
     0
290
     0
174
     0
 93
       13
 44
0.0
173
     0
291
     1
 45
0.0
1001
ACAD
1000
AcDbSavedByObjectVersion
1070
     0
  0
VISUALSTYLE
  5
2C
102
{ACAD_REACTORS
330
2A
102
}
102
{ACAD_XDICTIONARY
360
39E
102
}
330
2A
100
AcDbVisualStyle
  2
FlatWithEdges
 70
     1
 71
     2
 72
     1
 73
     1
 90
        2
 40
-0.6
 41
30.0
 62
     5
 63
     7
421
 16777215
 74
     1
 91
        4
 64
     7
 65
   257
 75
     1
175
     1
 42
1.0
 92
        0
 66
   257
 43
1.0
 76
     1
 77
     6
 78
     2
 67
     7
 79
     5
170
     0
171
     0
290
     0
174
     0
 93
       13
 44
0.0
173
     0
291
     1
 45
0.0
1001
ACAD
1000
AcDbSavedByObjectVersion
1070
     0
  0
VISUALSTYLE
  5
2D
102
{ACAD_REACTORS
330
2A
102
}
102
{ACAD_XDICTIONARY
360
3A0
102
}
330
2A
100
AcDbVisualStyle
  2
Gouraud
 70
     2
 71
     2
 72
     2
 73
     1
 90
        2
 40
-0.6
 41
30.0
 62
     5
 63
     7
421
 16777215
 74
     0
 91
        4
 64
     7
 65
   257
 75
     1
175
     1
 42
1.0
 92
        0
 66
     7
 43
1.0
 76
     1
 77
     6
 78
     2
 67
     7
 79
     5
170
     0
171
     0
290
     0
174
     0
 93
       13
 44
0.0
173
     0
291
     1
 45
0.0
1001
ACAD
1000
AcDbSavedByObjectVersion
1070
     0
  0
VISUALSTYLE
  5
2E
102
{ACAD_REACTORS
330
2A
102
}
102
{ACAD_XDICTIONARY
360
3A2
102
}
330
2A
100
AcDbVisualStyle
  2
GouraudWithEdges
 70
     3
 71
     2
 72
     2
 73
     1
 90
        2
 40
-0.6
 41
30.0
 62
     5
 63
     7
421
 16777215
 74
     1
 91
        4
 64
     7
 65
   257
 75
     1
175
     1
 42
1.0
 92
        0
 66
   257
 43
1.0
 76
     1
 77
     6
 78
     2
 67
     7
 79
     5
170
     0
171
     0
290
     0
174
     0
 93
       13
 44
0.0
173
     0
291
     1
 45
0.0
1001
ACAD
1000
AcDbSavedByObjectVersion
1070
     0
  0
VISUALSTYLE
  5
38
102
{ACAD_REACTORS
330
2A
102
}
102
{ACAD_XDICTIONARY
360
3B6
102
}
330
2A
100
AcDbVisualStyle
  2
Linepattern
 70
    14
 71
     2
 72
     2
 73
     0
 90
        0
 40
-0.6
 41
-30.0
 62
     5
 63
     7
421
 16777215
 74
     1
 91
        4
 64
     7
 65
   257
 75
     7
175
     7
 42
1.0
 92
        8
 66
     7
 43
1.0
 76
     1
 77
     6
 78
     2
 67
     7
 79
     5
170
     0
171
     0
290
     0
174
     0
 93
        1
 44
0.0
173
     0
291
     1
 45
0.0
1001
ACAD
1000
AcDbSavedByObjectVersion
1070
     0
  0
VISUALSTYLE
  5
33
102
{ACAD_REACTORS
330
2A
102
}
102
{ACAD_XDICTIONARY
360
3AC
102
}
330
2A
100
AcDbVisualStyle
  2
Realistic
 70
     8
 71
     2
 72
     2
 73
     0
 90
        0
 40
-0.6
 41
-30.0
 62
     5
 63
     7
421
 16777215
 74
     1
 91
        0
 64
     7
 65
   257
 75
     1
175
     1
 42
1.0
 92
        8
 66
     8
424
  7895160
 43
1.0
 76
     1
 77
     6
 78
     2
 67
     7
 79
     5
170
     0
171
     0
290
     0
174
     0
 93
       13
 44
0.0
173
     0
291
     0
 45
0.0
1001
ACAD
1000
AcDbSavedByObjectVersion
1070
     0
  0
VISUALSTYLE
  5
37
102
{ACAD_REACTORS
330
2A
102
}
102
{ACAD_XDICTIONARY
360
3B4
102
}
330
2A
100
AcDbVisualStyle
  2
Thicken
 70
    13
 71
     2
 72
     2
 73
     0
 90
        0
 40
-0.6
 41
-30.0
 62
     5
 63
     7
421
 16777215
 74
     1
 91
        4
 64
     7
 65
   257
 75
     1
175
     1
 42
1.0
 92
       12
 66
     7
 43
1.0
 76
     1
 77
     6
 78
     2
 67
     7
 79
     5
170
     0
171
     0
290
     0
174
     0
 93
        1
 44
0.0
173
     0
291
     1
 45
0.0
1001
ACAD
1000
AcDbSavedByObjectVersion
1070
     0
  0
DICTIONARYVAR
  5
39B
102
{ACAD_REACTORS
330
39A
102
}
330
39A
100
DictionaryVariables
280
     0
  1
1:1
  0
DICTIONARYVAR
  5
3C4
102
{ACAD_REACTORS
330
39A
102
}
330
39A
100
DictionaryVariables
280
     0
  1
0
  0
XRECORD
  5
399
102
{ACAD_REACTORS
330
398
102
}
330
398
100
AcDbXrecord
280
     1
1000
This DWG file was created in ArchiCAD(TM)®
  0
DICTIONARY
  5
3BE
330
3D
100
AcDbDictionary
280
     1
281
     1
  3
ACAD_XREC_ROUNDTRIP
360
3BF
  0
DICTIONARY
  5
3BC
330
3C
100
AcDbDictionary
280
     1
281
     1
  3
ACAD_XREC_ROUNDTRIP
360
3BD
  0
DICTIONARY
  5
3C0
330
3E
100
AcDbDictionary
280
     1
281
     1
  3
ACAD_XREC_ROUNDTRIP
360
3C1
  0
DICTIONARY
  5
3A4
330
2F
100
AcDbDictionary
280
     1
281
     1
  3
ACAD_XREC_ROUNDTRIP
360
3A5
  0
DICTIONARY
  5
3A8
330
31
100
AcDbDictionary
280
     1
281
     1
  3
ACAD_XREC_ROUNDTRIP
360
3A9
  0
DICTIONARY
  5
3A6
330
30
100
AcDbDictionary
280
     1
281
     1
  3
ACAD_XREC_ROUNDTRIP
360
3A7
  0
DICTIONARY
  5
3AA
330
32
100
AcDbDictionary
280
     1
281
     1
  3
ACAD_XREC_ROUNDTRIP
360
3AB
  0
DICTIONARY
  5
3B2
330
36
100
AcDbDictionary
280
     1
281
     1
  3
ACAD_XREC_ROUNDTRIP
360
3B3
  0
DICTIONARY
  5
3BA
330
3A
100
AcDbDictionary
280
     1
281
     1
  3
ACAD_XREC_ROUNDTRIP
360
3BB
  0
DICTIONARY
  5
3AE
330
34
100
AcDbDictionary
280
     1
281
     1
  3
ACAD_XREC_ROUNDTRIP
360
3AF
  0
DICTIONARY
  5
3B0
330
35
100
AcDbDictionary
280
     1
281
     1
  3
ACAD_XREC_ROUNDTRIP
360
3B1
  0
DICTIONARY
  5
3B8
330
39
100
AcDbDictionary
280
     1
281
     1
  3
ACAD_XREC_ROUNDTRIP
360
3B9
  0
DICTIONARY
  5
39C
330
2B
100
AcDbDictionary
280
     1
281
     1
  3
ACAD_XREC_ROUNDTRIP
360
39D
  0
DICTIONARY
  5
39E
330
2C
100
AcDbDictionary
280
     1
281
     1
  3
ACAD_XREC_ROUNDTRIP
360
39F
  0
DICTIONARY
  5
3A0
330
2D
100
AcDbDictionary
280
     1
281
     1
  3
ACAD_XREC_ROUNDTRIP
360
3A1
  0
DICTIONARY
  5
3A2
330
2E
100
AcDbDictionary
280
     1
281
     1
  3
ACAD_XREC_ROUNDTRIP
360
3A3
  0
DICTIONARY
  5
3B6
330
38
100
AcDbDictionary
280
     1
281
     1
  3
ACAD_XREC_ROUNDTRIP
360
3B7
  0
DICTIONARY
  5
3AC
330
33
100
AcDbDictionary
280
     1
281
     1
  3
ACAD_XREC_ROUNDTRIP
360
3AD
  0
DICTIONARY
  5
3B4
330
37
100
AcDbDictionary
280
     1
281
     1
  3
ACAD_XREC_ROUNDTRIP
360
3B5
  0
XRECORD
  5
3BF
102
{ACAD_REACTORS
330
3BE
102
}
330
3BE
100
AcDbXrecord
280
     1
102
MATERIAL
148
0.0
149
0.0
149
0.0
 93
        0
 94
      127
282
     0
 72
     1
 77
     1
171
     1
175
     1
179
     1
273
     0
  0
XRECORD
  5
3BD
102
{ACAD_REACTORS
330
3BC
102
}
330
3BC
100
AcDbXrecord
280
     1
102
MATERIAL
148
0.0
149
0.0
149
0.0
 93
        0
 94
      127
282
     0
 72
     1
 77
     1
171
     1
175
     1
179
     1
273
     0
  0
XRECORD
  5
3C1
102
{ACAD_REACTORS
330
3C0
102
}
330
3C0
100
AcDbXrecord
280
     1
102
MATERIAL
148
0.0
149
0.0
149
0.0
 93
        0
 94
      127
282
     0
 72
     1
 77
     1
171
     1
175
     1
179
     1
273
     0
  0
XRECORD
  5
3A5
102
{ACAD_REACTORS
330
3A4
102
}
330
3A4
100
AcDbXrecord
280
     1
102
RTVSPropertyOp0
 70
     1
102
RTVSPropertyOp1
 70
     1
102
RTVSPropertyOp2
 70
     1
102
RTVSPropertyOp3
 70
     1
102
RTVSPropertyOp4
 70
     1
102
RTVSPropertyOp5
 70
     1
102
RTVSPropertyOp6
 70
     1
102
RTVSPropertyOp7
 70
     1
102
RTVSPropertyOp8
 70
     1
102
RTVSPropertyOp9
 70
     1
102
RTVSPropertyOp10
 70
     1
102
RTVSPropertyOp11
 70
     1
102
RTVSPropertyOp12
 70
     1
102
RTVSPropertyOp13
 70
     1
102
RTVSPropertyOp14
 70
     1
102
RTVSPropertyOp15
 70
     1
102
RTVSPropertyOp16
 70
     1
102
RTVSPropertyOp17
 70
     1
102
RTVSPropertyOp18
 70
     1
102
RTVSPropertyOp19
 70
     1
102
RTVSPropertyOp20
 70
     1
102
RTVSPropertyOp21
 70
     1
102
RTVSPropertyOp22
 70
     1
102
RTVSPropertyOp23
 70
     1
102
RTVSPropertyOp24
 70
     1
102
RTVSPropertyOp25
 70
     1
102
RTVSPropertyOp26
 70
     1
102
RTVSPropertyOp27
 70
     1
102
RTVSPropertyOp28
 70
     1
102
RTVSPropertyOp29
 70
     1
102
RTVSPropertyOp30
 70
     1
102
RTVSPropertyOp31
 70
     1
102
RTVSPropertyOp32
 70
     1
  0
XRECORD
  5
3A9
102
{ACAD_REACTORS
330
3A8
102
}
330
3A8
100
AcDbXrecord
280
     1
102
RTVSPropertyOp0
 70
     1
102
RTVSPropertyOp1
 70
     1
102
RTVSPropertyOp2
 70
     1
102
RTVSPropertyOp3
 70
     1
102
RTVSPropertyOp4
 70
     1
102
RTVSPropertyOp5
 70
     1
102
RTVSPropertyOp6
 70
     1
102
RTVSPropertyOp7
 70
     1
102
RTVSPropertyOp8
 70
     1
102
RTVSPropertyOp9
 70
     1
102
RTVSPropertyOp10
 70
     1
102
RTVSPropertyOp11
 70
     1
102
RTVSPropertyOp12
 70
     1
102
RTVSPropertyOp13
 70
     1
102
RTVSPropertyOp14
 70
     1
102
RTVSPropertyOp15
 70
     1
102
RTVSPropertyOp16
 70
     1
102
RTVSPropertyOp17
 70
     1
102
RTVSPropertyOp18
 70
     1
102
RTVSPropertyOp19
 70
     1
102
RTVSPropertyOp20
 70
     1
102
RTVSPropertyOp21
 70
     1
102
RTVSPropertyOp22
 70
     1
102
RTVSPropertyOp23
 70
     1
102
RTVSPropertyOp24
 70
     1
102
RTVSPropertyOp25
 70
     1
102
RTVSPropertyOp26
 70
     1
102
RTVSPropertyOp27
 70
     1
102
RTVSPropertyOp28
 70
     1
102
RTVSPropertyOp29
 70
     1
102
RTVSPropertyOp30
 70
     1
102
RTVSPropertyOp31
 70
     1
102
RTVSPropertyOp32
 70
     1
  0
XRECORD
  5
3A7
102
{ACAD_REACTORS
330
3A6
102
}
330
3A6
100
AcDbXrecord
280
     1
102
RTVSPropertyOp0
 70
     1
102
RTVSPropertyOp1
 70
     1
102
RTVSPropertyOp2
 70
     1
102
RTVSPropertyOp3
 70
     1
102
RTVSPropertyOp4
 70
     1
102
RTVSPropertyOp5
 70
     1
102
RTVSPropertyOp6
 70
     1
102
RTVSPropertyOp7
 70
     1
102
RTVSPropertyOp8
 70
     1
102
RTVSPropertyOp9
 70
     1
102
RTVSPropertyOp10
 70
     1
102
RTVSPropertyOp11
 70
     1
102
RTVSPropertyOp12
 70
     1
102
RTVSPropertyOp13
 70
     1
102
RTVSPropertyOp14
 70
     1
102
RTVSPropertyOp15
 70
     1
102
RTVSPropertyOp16
 70
     1
102
RTVSPropertyOp17
 70
     1
102
RTVSPropertyOp18
 70
     1
102
RTVSPropertyOp19
 70
     1
102
RTVSPropertyOp20
 70
     1
102
RTVSPropertyOp21
 70
     1
102
RTVSPropertyOp22
 70
     1
102
RTVSPropertyOp23
 70
     1
102
RTVSPropertyOp24
 70
     1
102
RTVSPropertyOp25
 70
     1
102
RTVSPropertyOp26
 70
     1
102
RTVSPropertyOp27
 70
     1
102
RTVSPropertyOp28
 70
     1
102
RTVSPropertyOp29
 70
     1
102
RTVSPropertyOp30
 70
     1
102
RTVSPropertyOp31
 70
     1
102
RTVSPropertyOp32
 70
     1
  0
XRECORD
  5
3AB
102
{ACAD_REACTORS
330
3AA
102
}
330
3AA
100
AcDbXrecord
280
     1
102
RTVSPropertyOp0
 70
     1
102
RTVSPropertyOp1
 70
     1
102
RTVSPropertyOp2
 70
     1
102
RTVSPropertyOp3
 70
     1
102
RTVSPropertyOp4
 70
     1
102
RTVSPropertyOp5
 70
     1
102
RTVSPropertyOp6
 70
     1
102
RTVSPropertyOp7
 70
     1
102
RTVSPropertyOp8
 70
     1
102
RTVSPropertyOp9
 70
     1
102
RTVSPropertyOp10
 70
     1
102
RTVSPropertyOp11
 70
     1
102
RTVSPropertyOp12
 70
     1
102
RTVSPropertyOp13
 70
     1
102
RTVSPropertyOp14
 70
     1
102
RTVSPropertyOp15
 70
     1
102
RTVSPropertyOp16
 70
     1
102
RTVSPropertyOp17
 70
     1
102
RTVSPropertyOp18
 70
     1
102
RTVSPropertyOp19
 70
     1
102
RTVSPropertyOp20
 70
     1
102
RTVSPropertyOp21
 70
     1
102
RTVSPropertyOp22
 70
     1
102
RTVSPropertyOp23
 70
     1
102
RTVSPropertyOp24
 70
     1
102
RTVSPropertyOp25
 70
     1
102
RTVSPropertyOp26
 70
     1
102
RTVSPropertyOp27
 70
     1
102
RTVSPropertyOp28
 70
     1
102
RTVSPropertyOp29
 70
     1
102
RTVSPropertyOp30
 70
     1
102
RTVSPropertyOp31
 70
     1
102
RTVSPropertyOp32
 70
     1
  0
XRECORD
  5
3B3
102
{ACAD_REACTORS
330
3B2
102
}
330
3B2
100
AcDbXrecord
280
     1
102
RTVSPropertyOp0
 70
     1
102
RTVSPropertyOp1
 70
     1
102
RTVSPropertyOp2
 70
     1
102
RTVSPropertyOp3
 70
     1
102
RTVSPropertyOp4
 70
     1
102
RTVSPropertyOp5
 70
     1
102
RTVSPropertyOp6
 70
     1
102
RTVSPropertyOp7
 70
     1
102
RTVSPropertyOp8
 70
     1
102
RTVSPropertyOp9
 70
     1
102
RTVSPropertyOp10
 70
     1
102
RTVSPropertyOp11
 70
     1
102
RTVSPropertyOp12
 70
     1
102
RTVSPropertyOp13
 70
     1
102
RTVSPropertyOp14
 70
     1
102
RTVSPropertyOp15
 70
     1
102
RTVSPropertyOp16
 70
     1
102
RTVSPropertyOp17
 70
     1
102
RTVSPropertyOp18
 70
     1
102
RTVSPropertyOp19
 70
     1
102
RTVSPropertyOp20
 70
     1
102
RTVSPropertyOp21
 70
     1
102
RTVSPropertyOp22
 70
     1
102
RTVSPropertyOp23
 70
     1
102
RTVSPropertyOp24
 70
     1
102
RTVSPropertyOp25
 70
     1
102
RTVSPropertyOp26
 70
     1
102
RTVSPropertyOp27
 70
     1
102
RTVSPropertyOp28
 70
     1
102
RTVSPropertyOp29
 70
     1
102
RTVSPropertyOp30
 70
     1
102
RTVSPropertyOp31
 70
     1
102
RTVSPropertyOp32
 70
     1
  0
XRECORD
  5
3BB
102
{ACAD_REACTORS
330
3BA
102
}
330
3BA
100
AcDbXrecord
280
     1
102
RTVSPropertyOp0
 70
     1
102
RTVSPropertyOp1
 70
     1
102
RTVSPropertyOp2
 70
     1
102
RTVSPropertyOp3
 70
     1
102
RTVSPropertyOp4
 70
     1
102
RTVSPropertyOp5
 70
     1
102
RTVSPropertyOp6
 70
     1
102
RTVSPropertyOp7
 70
     1
102
RTVSPropertyOp8
 70
     1
102
RTVSPropertyOp9
 70
     1
102
RTVSPropertyOp10
 70
     1
102
RTVSPropertyOp11
 70
     1
102
RTVSPropertyOp12
 70
     1
102
RTVSPropertyOp13
 70
     1
102
RTVSPropertyOp14
 70
     1
102
RTVSPropertyOp15
 70
     1
102
RTVSPropertyOp16
 70
     1
102
RTVSPropertyOp17
 70
     1
102
RTVSPropertyOp18
 70
     1
102
RTVSPropertyOp19
 70
     1
102
RTVSPropertyOp20
 70
     1
102
RTVSPropertyOp21
 70
     1
102
RTVSPropertyOp22
 70
     1
102
RTVSPropertyOp23
 70
     1
102
RTVSPropertyOp24
 70
     1
102
RTVSPropertyOp25
 70
     1
102
RTVSPropertyOp26
 70
     1
102
RTVSPropertyOp27
 70
     1
102
RTVSPropertyOp28
 70
     1
102
RTVSPropertyOp29
 70
     1
102
RTVSPropertyOp30
 70
     1
102
RTVSPropertyOp31
 70
     1
102
RTVSPropertyOp32
 70
     1
  0
XRECORD
  5
3AF
102
{ACAD_REACTORS
330
3AE
102
}
330
3AE
100
AcDbXrecord
280
     1
102
RTVSPropertyOp0
 70
     1
102
RTVSPropertyOp1
 70
     1
102
RTVSPropertyOp2
 70
     1
102
RTVSPropertyOp3
 70
     1
102
RTVSPropertyOp4
 70
     1
102
RTVSPropertyOp5
 70
     1
102
RTVSPropertyOp6
 70
     1
102
RTVSPropertyOp7
 70
     1
102
RTVSPropertyOp8
 70
     1
102
RTVSPropertyOp9
 70
     1
102
RTVSPropertyOp10
 70
     1
102
RTVSPropertyOp11
 70
     1
102
RTVSPropertyOp12
 70
     1
102
RTVSPropertyOp13
 70
     1
102
RTVSPropertyOp14
 70
     1
102
RTVSPropertyOp15
 70
     1
102
RTVSPropertyOp16
 70
     1
102
RTVSPropertyOp17
 70
     1
102
RTVSPropertyOp18
 70
     1
102
RTVSPropertyOp19
 70
     1
102
RTVSPropertyOp20
 70
     1
102
RTVSPropertyOp21
 70
     1
102
RTVSPropertyOp22
 70
     1
102
RTVSPropertyOp23
 70
     1
102
RTVSPropertyOp24
 70
     1
102
RTVSPropertyOp25
 70
     1
102
RTVSPropertyOp26
 70
     1
102
RTVSPropertyOp27
 70
     1
102
RTVSPropertyOp28
 70
     1
102
RTVSPropertyOp29
 70
     1
102
RTVSPropertyOp30
 70
     1
102
RTVSPropertyOp31
 70
     1
102
RTVSPropertyOp32
 70
     1
  0
XRECORD
  5
3B1
102
{ACAD_REACTORS
330
3B0
102
}
330
3B0
100
AcDbXrecord
280
     1
102
RTVSPropertyOp0
 70
     1
102
RTVSPropertyOp1
 70
     1
102
RTVSPropertyOp2
 70
     1
102
RTVSPropertyOp3
 70
     1
102
RTVSPropertyOp4
 70
     1
102
RTVSPropertyOp5
 70
     1
102
RTVSPropertyOp6
 70
     1
102
RTVSPropertyOp7
 70
     1
102
RTVSPropertyOp8
 70
     1
102
RTVSPropertyOp9
 70
     1
102
RTVSPropertyOp10
 70
     1
102
RTVSPropertyOp11
 70
     1
102
RTVSPropertyOp12
 70
     1
102
RTVSPropertyOp13
 70
     1
102
RTVSPropertyOp14
 70
     1
102
RTVSPropertyOp15
 70
     1
102
RTVSPropertyOp16
 70
     1
102
RTVSPropertyOp17
 70
     1
102
RTVSPropertyOp18
 70
     1
102
RTVSPropertyOp19
 70
     1
102
RTVSPropertyOp20
 70
     1
102
RTVSPropertyOp21
 70
     1
102
RTVSPropertyOp22
 70
     1
102
RTVSPropertyOp23
 70
     1
102
RTVSPropertyOp24
 70
     1
102
RTVSPropertyOp25
 70
     1
102
RTVSPropertyOp26
 70
     1
102
RTVSPropertyOp27
 70
     1
102
RTVSPropertyOp28
 70
     1
102
RTVSPropertyOp29
 70
     1
102
RTVSPropertyOp30
 70
     1
102
RTVSPropertyOp31
 70
     1
102
RTVSPropertyOp32
 70
     1
  0
XRECORD
  5
3B9
102
{ACAD_REACTORS
330
3B8
102
}
330
3B8
100
AcDbXrecord
280
     1
102
RTVSPropertyOp0
 70
     1
102
RTVSPropertyOp1
 70
     1
102
RTVSPropertyOp2
 70
     1
102
RTVSPropertyOp3
 70
     1
102
RTVSPropertyOp4
 70
     1
102
RTVSPropertyOp5
 70
     1
102
RTVSPropertyOp6
 70
     1
102
RTVSPropertyOp7
 70
     1
102
RTVSPropertyOp8
 70
     1
102
RTVSPropertyOp9
 70
     1
102
RTVSPropertyOp10
 70
     1
102
RTVSPropertyOp11
 70
     1
102
RTVSPropertyOp12
 70
     1
102
RTVSPropertyOp13
 70
     1
102
RTVSPropertyOp14
 70
     1
102
RTVSPropertyOp15
 70
     1
102
RTVSPropertyOp16
 70
     1
102
RTVSPropertyOp17
 70
     1
102
RTVSPropertyOp18
 70
     1
102
RTVSPropertyOp19
 70
     1
102
RTVSPropertyOp20
 70
     1
102
RTVSPropertyOp21
 70
     1
102
RTVSPropertyOp22
 70
     1
102
RTVSPropertyOp23
 70
     1
102
RTVSPropertyOp24
 70
     1
102
RTVSPropertyOp25
 70
     1
102
RTVSPropertyOp26
 70
     1
102
RTVSPropertyOp27
 70
     1
102
RTVSPropertyOp28
 70
     1
102
RTVSPropertyOp29
 70
     1
102
RTVSPropertyOp30
 70
     1
102
RTVSPropertyOp31
 70
     1
102
RTVSPropertyOp32
 70
     1
  0
XRECORD
  5
39D
102
{ACAD_REACTORS
330
39C
102
}
330
39C
100
AcDbXrecord
280
     1
102
RTVSPropertyOp0
 70
     1
102
RTVSPropertyOp1
 70
     1
102
RTVSPropertyOp2
 70
     1
102
RTVSPropertyOp3
 70
     1
102
RTVSPropertyOp4
 70
     1
102
RTVSPropertyOp5
 70
     1
102
RTVSPropertyOp6
 70
     1
102
RTVSPropertyOp7
 70
     1
102
RTVSPropertyOp8
 70
     1
102
RTVSPropertyOp9
 70
     1
102
RTVSPropertyOp10
 70
     1
102
RTVSPropertyOp11
 70
     1
102
RTVSPropertyOp12
 70
     1
102
RTVSPropertyOp13
 70
     1
102
RTVSPropertyOp14
 70
     1
102
RTVSPropertyOp15
 70
     1
102
RTVSPropertyOp16
 70
     1
102
RTVSPropertyOp17
 70
     1
102
RTVSPropertyOp18
 70
     1
102
RTVSPropertyOp19
 70
     1
102
RTVSPropertyOp20
 70
     1
102
RTVSPropertyOp21
 70
     1
102
RTVSPropertyOp22
 70
     1
102
RTVSPropertyOp23
 70
     1
102
RTVSPropertyOp24
 70
     1
102
RTVSPropertyOp25
 70
     1
102
RTVSPropertyOp26
 70
     1
102
RTVSPropertyOp27
 70
     1
102
RTVSPropertyOp28
 70
     1
102
RTVSPropertyOp29
 70
     1
102
RTVSPropertyOp30
 70
     1
102
RTVSPropertyOp31
 70
     1
102
RTVSPropertyOp32
 70
     1
  0
XRECORD
  5
39F
102
{ACAD_REACTORS
330
39E
102
}
330
39E
100
AcDbXrecord
280
     1
102
RTVSPropertyOp0
 70
     1
102
RTVSPropertyOp1
 70
     1
102
RTVSPropertyOp2
 70
     1
102
RTVSPropertyOp3
 70
     1
102
RTVSPropertyOp4
 70
     1
102
RTVSPropertyOp5
 70
     1
102
RTVSPropertyOp6
 70
     1
102
RTVSPropertyOp7
 70
     1
102
RTVSPropertyOp8
 70
     1
102
RTVSPropertyOp9
 70
     1
102
RTVSPropertyOp10
 70
     1
102
RTVSPropertyOp11
 70
     1
102
RTVSPropertyOp12
 70
     1
102
RTVSPropertyOp13
 70
     1
102
RTVSPropertyOp14
 70
     1
102
RTVSPropertyOp15
 70
     1
102
RTVSPropertyOp16
 70
     1
102
RTVSPropertyOp17
 70
     1
102
RTVSPropertyOp18
 70
     1
102
RTVSPropertyOp19
 70
     1
102
RTVSPropertyOp20
 70
     1
102
RTVSPropertyOp21
 70
     1
102
RTVSPropertyOp22
 70
     1
102
RTVSPropertyOp23
 70
     1
102
RTVSPropertyOp24
 70
     1
102
RTVSPropertyOp25
 70
     1
102
RTVSPropertyOp26
 70
     1
102
RTVSPropertyOp27
 70
     1
102
RTVSPropertyOp28
 70
     1
102
RTVSPropertyOp29
 70
     1
102
RTVSPropertyOp30
 70
     1
102
RTVSPropertyOp31
 70
     1
102
RTVSPropertyOp32
 70
     1
  0
XRECORD
  5
3A1
102
{ACAD_REACTORS
330
3A0
102
}
330
3A0
100
AcDbXrecord
280
     1
102
RTVSPropertyOp0
 70
     1
102
RTVSPropertyOp1
 70
     1
102
RTVSPropertyOp2
 70
     1
102
RTVSPropertyOp3
 70
     1
102
RTVSPropertyOp4
 70
     1
102
RTVSPropertyOp5
 70
     1
102
RTVSPropertyOp6
 70
     1
102
RTVSPropertyOp7
 70
     1
102
RTVSPropertyOp8
 70
     1
102
RTVSPropertyOp9
 70
     1
102
RTVSPropertyOp10
 70
     1
102
RTVSPropertyOp11
 70
     1
102
RTVSPropertyOp12
 70
     1
102
RTVSPropertyOp13
 70
     1
102
RTVSPropertyOp14
 70
     1
102
RTVSPropertyOp15
 70
     1
102
RTVSPropertyOp16
 70
     1
102
RTVSPropertyOp17
 70
     1
102
RTVSPropertyOp18
 70
     1
102
RTVSPropertyOp19
 70
     1
102
RTVSPropertyOp20
 70
     1
102
RTVSPropertyOp21
 70
     1
102
RTVSPropertyOp22
 70
     1
102
RTVSPropertyOp23
 70
     1
102
RTVSPropertyOp24
 70
     1
102
RTVSPropertyOp25
 70
     1
102
RTVSPropertyOp26
 70
     1
102
RTVSPropertyOp27
 70
     1
102
RTVSPropertyOp28
 70
     1
102
RTVSPropertyOp29
 70
     1
102
RTVSPropertyOp30
 70
     1
102
RTVSPropertyOp31
 70
     1
102
RTVSPropertyOp32
 70
     1
  0
XRECORD
  5
3A3
102
{ACAD_REACTORS
330
3A2
102
}
330
3A2
100
AcDbXrecord
280
     1
102
RTVSPropertyOp0
 70
     1
102
RTVSPropertyOp1
 70
     1
102
RTVSPropertyOp2
 70
     1
102
RTVSPropertyOp3
 70
     1
102
RTVSPropertyOp4
 70
     1
102
RTVSPropertyOp5
 70
     1
102
RTVSPropertyOp6
 70
     1
102
RTVSPropertyOp7
 70
     1
102
RTVSPropertyOp8
 70
     1
102
RTVSPropertyOp9
 70
     1
102
RTVSPropertyOp10
 70
     1
102
RTVSPropertyOp11
 70
     1
102
RTVSPropertyOp12
 70
     1
102
RTVSPropertyOp13
 70
     1
102
RTVSPropertyOp14
 70
     1
102
RTVSPropertyOp15
 70
     1
102
RTVSPropertyOp16
 70
     1
102
RTVSPropertyOp17
 70
     1
102
RTVSPropertyOp18
 70
     1
102
RTVSPropertyOp19
 70
     1
102
RTVSPropertyOp20
 70
     1
102
RTVSPropertyOp21
 70
     1
102
RTVSPropertyOp22
 70
     1
102
RTVSPropertyOp23
 70
     1
102
RTVSPropertyOp24
 70
     1
102
RTVSPropertyOp25
 70
     1
102
RTVSPropertyOp26
 70
     1
102
RTVSPropertyOp27
 70
     1
102
RTVSPropertyOp28
 70
     1
102
RTVSPropertyOp29
 70
     1
102
RTVSPropertyOp30
 70
     1
102
RTVSPropertyOp31
 70
     1
102
RTVSPropertyOp32
 70
     1
  0
XRECORD
  5
3B7
102
{ACAD_REACTORS
330
3B6
102
}
330
3B6
100
AcDbXrecord
280
     1
102
RTVSPropertyOp0
 70
     1
102
RTVSPropertyOp1
 70
     1
102
RTVSPropertyOp2
 70
     1
102
RTVSPropertyOp3
 70
     1
102
RTVSPropertyOp4
 70
     1
102
RTVSPropertyOp5
 70
     1
102
RTVSPropertyOp6
 70
     1
102
RTVSPropertyOp7
 70
     1
102
RTVSPropertyOp8
 70
     1
102
RTVSPropertyOp9
 70
     1
102
RTVSPropertyOp10
 70
     1
102
RTVSPropertyOp11
 70
     1
102
RTVSPropertyOp12
 70
     1
102
RTVSPropertyOp13
 70
     1
102
RTVSPropertyOp14
 70
     1
102
RTVSPropertyOp15
 70
     1
102
RTVSPropertyOp16
 70
     1
102
RTVSPropertyOp17
 70
     1
102
RTVSPropertyOp18
 70
     1
102
RTVSPropertyOp19
 70
     1
102
RTVSPropertyOp20
 70
     1
102
RTVSPropertyOp21
 70
     1
102
RTVSPropertyOp22
 70
     1
102
RTVSPropertyOp23
 70
     1
102
RTVSPropertyOp24
 70
     1
102
RTVSPropertyOp25
 70
     1
102
RTVSPropertyOp26
 70
     1
102
RTVSPropertyOp27
 70
     1
102
RTVSPropertyOp28
 70
     1
102
RTVSPropertyOp29
 70
     1
102
RTVSPropertyOp30
 70
     1
102
RTVSPropertyOp31
 70
     1
102
RTVSPropertyOp32
 70
     1
  0
XRECORD
  5
3AD
102
{ACAD_REACTORS
330
3AC
102
}
330
3AC
100
AcDbXrecord
280
     1
102
RTVSPropertyOp0
 70
     1
102
RTVSPropertyOp1
 70
     1
102
RTVSPropertyOp2
 70
     1
102
RTVSPropertyOp3
 70
     1
102
RTVSPropertyOp4
 70
     1
102
RTVSPropertyOp5
 70
     1
102
RTVSPropertyOp6
 70
     1
102
RTVSPropertyOp7
 70
     1
102
RTVSPropertyOp8
 70
     1
102
RTVSPropertyOp9
 70
     1
102
RTVSPropertyOp10
 70
     1
102
RTVSPropertyOp11
 70
     1
102
RTVSPropertyOp12
 70
     1
102
RTVSPropertyOp13
 70
     1
102
RTVSPropertyOp14
 70
     1
102
RTVSPropertyOp15
 70
     1
102
RTVSPropertyOp16
 70
     1
102
RTVSPropertyOp17
 70
     1
102
RTVSPropertyOp18
 70
     1
102
RTVSPropertyOp19
 70
     1
102
RTVSPropertyOp20
 70
     1
102
RTVSPropertyOp21
 70
     1
102
RTVSPropertyOp22
 70
     1
102
RTVSPropertyOp23
 70
     1
102
RTVSPropertyOp24
 70
     1
102
RTVSPropertyOp25
 70
     1
102
RTVSPropertyOp26
 70
     1
102
RTVSPropertyOp27
 70
     1
102
RTVSPropertyOp28
 70
     1
102
RTVSPropertyOp29
 70
     1
102
RTVSPropertyOp30
 70
     1
102
RTVSPropertyOp31
 70
     1
102
RTVSPropertyOp32
 70
     1
  0
XRECORD
  5
3B5
102
{ACAD_REACTORS
330
3B4
102
}
330
3B4
100
AcDbXrecord
280
     1
102
RTVSPropertyOp0
 70
     1
102
RTVSPropertyOp1
 70
     1
102
RTVSPropertyOp2
 70
     1
102
RTVSPropertyOp3
 70
     1
102
RTVSPropertyOp4
 70
     1
102
RTVSPropertyOp5
 70
     1
102
RTVSPropertyOp6
 70
     1
102
RTVSPropertyOp7
 70
     1
102
RTVSPropertyOp8
 70
     1
102
RTVSPropertyOp9
 70
     1
102
RTVSPropertyOp10
 70
     1
102
RTVSPropertyOp11
 70
     1
102
RTVSPropertyOp12
 70
     1
102
RTVSPropertyOp13
 70
     1
102
RTVSPropertyOp14
 70
     1
102
RTVSPropertyOp15
 70
     1
102
RTVSPropertyOp16
 70
     1
102
RTVSPropertyOp17
 70
     1
102
RTVSPropertyOp18
 70
     1
102
RTVSPropertyOp19
 70
     1
102
RTVSPropertyOp20
 70
     1
102
RTVSPropertyOp21
 70
     1
102
RTVSPropertyOp22
 70
     1
102
RTVSPropertyOp23
 70
     1
102
RTVSPropertyOp24
 70
     1
102
RTVSPropertyOp25
 70
     1
102
RTVSPropertyOp26
 70
     1
102
RTVSPropertyOp27
 70
     1
102
RTVSPropertyOp28
 70
     1
102
RTVSPropertyOp29
 70
     1
102
RTVSPropertyOp30
 70
     1
102
RTVSPropertyOp31
 70
     1
102
RTVSPropertyOp32
 70
     1
  0
ENDSEC
  0
EOF
