  0
SECTION
  2
HEADER
  9
$ACADVER
  1
AC1018
  9
$ACADMAINTVER
 70
     0
  9
$DWGCODEPAGE
  3
ANSI_1252
  9
$INSBASE
 10
0.0
 20
0.0
 30
0.0
  9
$EXTMIN
 10
1.000000000000000E+20
 20
1.000000000000000E+20
 30
1.000000000000000E+20
  9
$EXTMAX
 10
-1.000000000000000E+20
 20
-1.000000000000000E+20
 30
-1.000000000000000E+20
  9
$LIMMIN
 10
0.0
 20
0.0
  9
$LIMMAX
 10
12.0
 20
9.0
  9
$ORTHOMODE
 70
     0
  9
$REGENMODE
 70
     1
  9
$FILLMODE
 70
     1
  9
$QTEXTMODE
 70
     0
  9
$MIRRTEXT
 70
     1
  9
$LTSCALE
 40
1.0
  9
$ATTMODE
 70
     1
  9
$TEXTSIZE
 40
0.2
  9
$TRACEWID
 40
0.05
  9
$TEXTSTYLE
  7
Standard
  9
$CLAYER
  8
0
  9
$CELTYPE
  6
ByLayer
  9
$CECOLOR
 62
   256
  9
$CELTSCALE
 40
1.0
  9
$DISPSILH
 70
     0
  9
$DIMSCALE
 40
1.0
  9
$DIMASZ
 40
0.18
  9
$DIMEXO
 40
0.0625
  9
$DIMDLI
 40
0.38
  9
$DIMRND
 40
0.0
  9
$DIMDLE
 40
0.0
  9
$DIMEXE
 40
0.18
  9
$DIMTP
 40
0.0
  9
$DIMTM
 40
0.0
  9
$DIMTXT
 40
0.18
  9
$DIMCEN
 40
0.09
  9
$DIMTSZ
 40
0.0
  9
$DIMTOL
 70
     0
  9
$DIMLIM
 70
     0
  9
$DIMTIH
 70
     1
  9
$DIMTOH
 70
     1
  9
$DIMSE1
 70
     0
  9
$DIMSE2
 70
     0
  9
$DIMTAD
 70
     0
  9
$DIMZIN
 70
     0
  9
$DIMBLK
  1

  9
$DIMASO
 70
     1
  9
$DIMSHO
 70
     1
  9
$DIMPOST
  1

  9
$DIMAPOST
  1

  9
$DIMALT
 70
     0
  9
$DIMALTD
 70
     2
  9
$DIMALTF
 40
25.4
  9
$DIMLFAC
 40
1.0
  9
$DIMTOFL
 70
     0
  9
$DIMTVP
 40
0.0
  9
$DIMTIX
 70
     0
  9
$DIMSOXD
 70
     0
  9
$DIMSAH
 70
     0
  9
$DIMBLK1
  1

  9
$DIMBLK2
  1

  9
$DIMSTYLE
  2
Standard
  9
$DIMCLRD
 70
     0
  9
$DIMCLRE
 70
     0
  9
$DIMCLRT
 70
     0
  9
$DIMTFAC
 40
1.0
  9
$DIMGAP
 40
0.09
  9
$DIMJUST
 70
     0
  9
$DIMSD1
 70
     0
  9
$DIMSD2
 70
     0
  9
$DIMTOLJ
 70
     1
  9
$DIMTZIN
 70
     0
  9
$DIMALTZ
 70
     0
  9
$DIMALTTZ
 70
     0
  9
$DIMUPT
 70
     0
  9
$DIMDEC
 70
     4
  9
$DIMTDEC
 70
     4
  9
$DIMALTU
 70
     2
  9
$DIMALTTD
 70
     2
  9
$DIMTXSTY
  7
Standard
  9
$DIMAUNIT
 70
     0
  9
$DIMADEC
 70
     0
  9
$DIMALTRND
 40
0.0
  9
$DIMAZIN
 70
     0
  9
$DIMDSEP
 70
    46
  9
$DIMATFIT
 70
     3
  9
$DIMFRAC
 70
     0
  9
$DIMLDRBLK
  1

  9
$DIMLUNIT
 70
     2
  9
$DIMLWD
 70
    -2
  9
$DIMLWE
 70
    -2
  9
$DIMTMOVE
 70
     0
  9
$LUNITS
 70
     2
  9
$LUPREC
 70
     4
  9
$SKETCHINC
 40
0.1
  9
$FILLETRAD
 40
0.5
  9
$AUNITS
 70
     0
  9
$AUPREC
 70
     0
  9
$MENU
  1
.
  9
$ELEVATION
 40
0.0
  9
$PELEVATION
 40
0.0
  9
$THICKNESS
 40
0.0
  9
$LIMCHECK
 70
     0
  9
$CHAMFERA
 40
0.5
  9
$CHAMFERB
 40
0.5
  9
$CHAMFERC
 40
1.0
  9
$CHAMFERD
 40
0.0
  9
$SKPOLY
 70
     0
  9
$TDCREATE
 40
2457303.628080972
  9
$TDUCREATE
 40
2457303.086414305
  9
$TDUPDATE
 40
2457303.628082222
  9
$TDUUPDATE
 40
2457303.086415555
  9
$TDINDWG
 40
0.0000000116
  9
$TDUSRTIMER
 40
0.0000000116
  9
$USRTIMER
 70
     1
  9
$ANGBASE
 50
0.0
  9
$ANGDIR
 70
     0
  9
$PDMODE
 70
     0
  9
$PDSIZE
 40
0.0
  9
$PLINEWID
 40
0.0
  9
$SPLFRAME
 70
     0
  9
$SPLINETYPE
 70
     6
  9
$SPLINESEGS
 70
     8
  9
$HANDSEED
  5
19A
  9
$SURFTAB1
 70
     6
  9
$SURFTAB2
 70
     6
  9
$SURFTYPE
 70
     6
  9
$SURFU
 70
     6
  9
$SURFV
 70
     6
  9
$UCSBASE
  2

  9
$UCSNAME
  2

  9
$UCSORG
 10
0.0
 20
0.0
 30
0.0
  9
$UCSXDIR
 10
1.0
 20
0.0
 30
0.0
  9
$UCSYDIR
 10
0.0
 20
1.0
 30
0.0
  9
$UCSORTHOREF
  2

  9
$UCSORTHOVIEW
 70
     0
  9
$UCSORGTOP
 10
0.0
 20
0.0
 30
0.0
  9
$UCSORGBOTTOM
 10
0.0
 20
0.0
 30
0.0
  9
$UCSORGLEFT
 10
0.0
 20
0.0
 30
0.0
  9
$UCSORGRIGHT
 10
0.0
 20
0.0
 30
0.0
  9
$UCSORGFRONT
 10
0.0
 20
0.0
 30
0.0
  9
$UCSORGBACK
 10
0.0
 20
0.0
 30
0.0
  9
$PUCSBASE
  2

  9
$PUCSNAME
  2

  9
$PUCSORG
 10
0.0
 20
0.0
 30
0.0
  9
$PUCSXDIR
 10
1.0
 20
0.0
 30
0.0
  9
$PUCSYDIR
 10
0.0
 20
1.0
 30
0.0
  9
$PUCSORTHOREF
  2

  9
$PUCSORTHOVIEW
 70
     0
  9
$PUCSORGTOP
 10
0.0
 20
0.0
 30
0.0
  9
$PUCSORGBOTTOM
 10
0.0
 20
0.0
 30
0.0
  9
$PUCSORGLEFT
 10
0.0
 20
0.0
 30
0.0
  9
$PUCSORGRIGHT
 10
0.0
 20
0.0
 30
0.0
  9
$PUCSORGFRONT
 10
0.0
 20
0.0
 30
0.0
  9
$PUCSORGBACK
 10
0.0
 20
0.0
 30
0.0
  9
$USERI1
 70
     0
  9
$USERI2
 70
     0
  9
$USERI3
 70
     0
  9
$USERI4
 70
     0
  9
$USERI5
 70
     0
  9
$USERR1
 40
0.0
  9
$USERR2
 40
0.0
  9
$USERR3
 40
0.0
  9
$USERR4
 40
0.0
  9
$USERR5
 40
0.0
  9
$WORLDVIEW
 70
     1
  9
$SHADEDGE
 70
     3
  9
$SHADEDIF
 70
    70
  9
$TILEMODE
 70
     1
  9
$MAXACTVP
 70
    64
  9
$PINSBASE
 10
0.0
 20
0.0
 30
0.0
  9
$PLIMCHECK
 70
     0
  9
$PEXTMIN
 10
1.000000000000000E+20
 20
1.000000000000000E+20
 30
1.000000000000000E+20
  9
$PEXTMAX
 10
-1.000000000000000E+20
 20
-1.000000000000000E+20
 30
-1.000000000000000E+20
  9
$PLIMMIN
 10
0.0
 20
0.0
  9
$PLIMMAX
 10
12.0
 20
9.0
  9
$UNITMODE
 70
     0
  9
$VISRETAIN
 70
     1
  9
$PLINEGEN
 70
     0
  9
$PSLTSCALE
 70
     1
  9
$TREEDEPTH
 70
  3020
  9
$CMLSTYLE
  2
Standard
  9
$CMLJUST
 70
     0
  9
$CMLSCALE
 40
1.0
  9
$PROXYGRAPHICS
 70
     1
  9
$MEASUREMENT
 70
     0
  9
$CELWEIGHT
370
    -1
  9
$ENDCAPS
280
     0
  9
$JOINSTYLE
280
     0
  9
$LWDISPLAY
290
     1
  9
$INSUNITS
 70
     4
  9
$HYPERLINKBASE
  1

  9
$STYLESHEET
  1

  9
$XEDIT
290
     1
  9
$CEPSNTYPE
380
     0
  9
$PSTYLEMODE
290
     1
  9
$FINGERPRINTGUID
  2
{B358CD18-A975-4978-89D4-CE4491A48FEA}
  9
$VERSIONGUID
  2
{FAEB1C32-E019-11D5-929B-00C0DF256EC4}
  9
$EXTNAMES
290
     1
  9
$PSVPSCALE
 40
0.0
  9
$OLESTARTUP
290
     0
  9
$SORTENTS
280
   127
  9
$INDEXCTL
280
     0
  9
$HIDETEXT
280
     1
  9
$XCLIPFRAME
290
     0
  9
$HALOGAP
280
     0
  9
$OBSCOLOR
 70
   257
  9
$OBSLTYPE
280
     0
  9
$INTERSECTIONDISPLAY
280
     0
  9
$INTERSECTIONCOLOR
 70
   257
  9
$DIMASSOC
280
     2
  9
$PROJECTNAME
  1

  0
ENDSEC
  0
SECTION
  2
CLASSES
  0
CLASS
  1
ACDBDICTIONARYWDFLT
  2
AcDbDictionaryWithDefault
  3
ObjectDBX Classes
 90
        0
 91
        4
280
     0
281
     0
  0
CLASS
  1
VISUALSTYLE
  2
AcDbVisualStyle
  3
ObjectDBX Classes
 90
     4095
 91
        4
280
     0
281
     0
  0
CLASS
  1
MATERIAL
  2
AcDbMaterial
  3
ObjectDBX Classes
 90
     1153
 91
        4
280
     0
281
     0
  0
CLASS
  1
WIPEOUT
  2
AcDbWipeout
  3
WipeOut|AutoCAD Express Tool|expresstools@autodesk.com
 90
      127
 91
        4
280
     0
281
     1
  0
CLASS
  1
SCALE
  2
AcDbScale
  3
ObjectDBX Classes
 90
     1153
 91
        4
280
     0
281
     0
  0
CLASS
  1
DICTIONARYVAR
  2
AcDbDictionaryVar
  3
ObjectDBX Classes
 90
        0
 91
        4
280
     0
281
     0
  0
ENDSEC
  0
SECTION
  2
TABLES
  0
TABLE
  2
VPORT
  5
8
330
0
100
AcDbSymbolTable
 70
     1
  0
VPORT
  5
29
330
8
100
AcDbSymbolTableRecord
100
AcDbViewportTableRecord
  2
*Active
 70
     0
 10
0.0
 20
0.0
 11
1.0
 21
1.0
 12
329.6027111212867
 22
-24.7253153119658
 13
0.0
 23
0.0
 14
0.5
 24
0.5
 15
0.5
 25
0.5
 16
0.0
 26
0.0
 36
1.0
 17
0.0
 27
0.0
 37
0.0
 40
465.2248044317772
 41
0.7062761493424671
 42
50.0
 43
0.0
 44
0.0
 50
0.0
 51
0.0
 71
     0
 72
   100
 73
     1
 74
     3
 75
     0
 76
     0
 77
     0
 78
     0
281
     0
 65
     1
110
0.0
120
0.0
130
0.0
111
1.0
121
0.0
131
0.0
112
0.0
122
1.0
132
0.0
 79
     0
146
0.0
  0
ENDTAB
  0
TABLE
  2
LTYPE
  5
5
330
0
100
AcDbSymbolTable
 70
     4
  0
LTYPE
  5
14
330
5
100
AcDbSymbolTableRecord
100
AcDbLinetypeTableRecord
  2
ByBlock
 70
     0
  3

 72
    65
 73
     0
 40
0.0
  0
LTYPE
  5
15
330
5
100
AcDbSymbolTableRecord
100
AcDbLinetypeTableRecord
  2
ByLayer
 70
     0
  3

 72
    65
 73
     0
 40
0.0
  0
LTYPE
  5
16
330
5
100
AcDbSymbolTableRecord
100
AcDbLinetypeTableRecord
  2
Continuous
 70
     0
  3
Solid line
 72
    65
 73
     0
 40
0.0
  0
LTYPE
  5
D4
330
5
100
AcDbSymbolTableRecord
100
AcDbLinetypeTableRecord
  2
CENTER
 70
     0
  3
- - - - - 
 72
    65
 73
     4
 40
10.0
 49
6.25
 74
     0
 49
-1.25
 74
     0
 49
1.25
 74
     0
 49
-1.249999999999999
 74
     0
  0
LTYPE
  5
E9
330
5
100
AcDbSymbolTableRecord
100
AcDbLinetypeTableRecord
  2
Hidden Line
 70
     0
  3
- - - - - 
 72
    65
 73
     2
 40
7.824444465637206
 49
5.644444465637208
 74
     0
 49
-2.179999999999998
 74
     0
  0
LTYPE
  5
117
330
5
100
AcDbSymbolTableRecord
100
AcDbLinetypeTableRecord
  2
Wipeout_Contour
 70
     0
  3
- - - - - 
 72
    65
 73
     2
 40
1000.0
 49
0.0
 74
     0
 49
-1000.0
 74
     0
  0
ENDTAB
  0
TABLE
  2
LAYER
  5
2
330
0
100
AcDbSymbolTable
 70
     6
  0
LAYER
  5
10
330
2
100
AcDbSymbolTableRecord
100
AcDbLayerTableRecord
  2
0
 70
     0
 62
     7
  6
Continuous
370
    -3
390
F
  0
LAYER
  5
3F
330
2
100
AcDbSymbolTableRecord
100
AcDbLayerTableRecord
  2
0_Pen_No__1
 70
     0
 62
     7
  6
Continuous
370
    13
390
F
  0
LAYER
  5
42
330
2
100
AcDbSymbolTableRecord
100
AcDbLayerTableRecord
  2
0_Pen_No__146
 70
     0
 62
     9
420
 13290186
  6
Continuous
370
     5
390
F
  0
LAYER
  5
4F
330
2
100
AcDbSymbolTableRecord
100
AcDbLayerTableRecord
  2
Key_ Sections_Pen_No__146
 70
     0
 62
     9
420
 13290186
  6
Continuous
370
     5
390
F
  0
LAYER
  5
70
330
2
100
AcDbSymbolTableRecord
100
AcDbLayerTableRecord
  2
Key_ Sections_Pen_No__1
 70
     0
 62
     7
  6
Continuous
370
    13
390
F
  0
LAYER
  5
10F
330
2
100
AcDbSymbolTableRecord
100
AcDbLayerTableRecord
  2
Key_ Sections
 70
     0
 62
     7
  6
Continuous
370
    -3
390
F
  0
ENDTAB
  0
TABLE
  2
STYLE
  5
3
330
0
100
AcDbSymbolTable
 70
     2
  0
STYLE
  5
11
330
3
100
AcDbSymbolTableRecord
100
AcDbTextStyleTableRecord
  2
Standard
 70
     0
 40
0.0
 41
1.0
 50
0.0
 71
     0
 42
0.2
  3
txt
  4

  0
STYLE
  5
10C
330
3
100
AcDbSymbolTableRecord
100
AcDbTextStyleTableRecord
  2
GENERATED_STYLE_1
 70
     0
 40
0.0
 41
1.0
 50
0.0
 71
     0
 42
0.2
  3

  4

1001
ACAD
1000
Arial
1071
       34
  0
ENDTAB
  0
TABLE
  2
VIEW
  5
6
330
0
100
AcDbSymbolTable
 70
     0
  0
ENDTAB
  0
TABLE
  2
UCS
  5
7
330
0
100
AcDbSymbolTable
 70
     0
  0
ENDTAB
  0
TABLE
  2
APPID
  5
9
330
0
100
AcDbSymbolTable
 70
     1
  0
APPID
  5
12
330
9
100
AcDbSymbolTableRecord
100
AcDbRegAppTableRecord
  2
ACAD
 70
     0
  0
ENDTAB
  0
TABLE
  2
DIMSTYLE
  5
A
330
0
100
AcDbSymbolTable
 70
     3
100
AcDbDimStyleTable
  0
DIMSTYLE
105
27
330
A
100
AcDbSymbolTableRecord
100
AcDbDimStyleTableRecord
  2
Standard
 70
     0
178
     0
340
11
  0
DIMSTYLE
105
110
102
{ACAD_REACTORS
330
10E
102
}
330
A
100
AcDbSymbolTableRecord
100
AcDbDimStyleTableRecord
  2
GENERATED_STYLE__1
 70
     0
 41
3.254010026106251
 42
20.0
 73
     0
 74
     0
 77
     1
140
5.0
172
     1
176
     7
177
     7
271
     0
178
     7
271
     0
288
     1
340
10C
342
111
343
111
344
111
  0
DIMSTYLE
105
11A
330
A
100
AcDbSymbolTableRecord
100
AcDbDimStyleTableRecord
  2
GENERATED_STYLE__2
 70
     0
 41
3.648
172
     1
178
     0
340
0
341
11B
  0
ENDTAB
  0
TABLE
  2
BLOCK_RECORD
  5
1
330
0
100
AcDbSymbolTable
 70
     9
  0
BLOCK_RECORD
  5
1F
330
1
100
AcDbSymbolTableRecord
100
AcDbBlockTableRecord
  2
*Model_Space
340
22
  0
BLOCK_RECORD
  5
1B
330
1
100
AcDbSymbolTableRecord
100
AcDbBlockTableRecord
  2
*Paper_Space
340
1E
  0
BLOCK_RECORD
  5
23
330
1
100
AcDbSymbolTableRecord
100
AcDbBlockTableRecord
  2
*Paper_Space0
340
26
  0
BLOCK_RECORD
  5
48
330
1
100
AcDbSymbolTableRecord
100
AcDbBlockTableRecord
  2
Fill_1
340
0
102
{BLKREFS
331
7A
102
}
  0
BLOCK_RECORD
  5
4B
330
1
100
AcDbSymbolTableRecord
100
AcDbBlockTableRecord
  2
*X2
340
0
102
{BLKREFS
331
6E
102
}
  0
BLOCK_RECORD
  5
102
330
1
100
AcDbSymbolTableRecord
100
AcDbBlockTableRecord
  2
*D3
340
0
  0
BLOCK_RECORD
  5
111
330
1
100
AcDbSymbolTableRecord
100
AcDbBlockTableRecord
  2
ARROWHEAD_2
340
0
  0
BLOCK_RECORD
  5
11B
330
1
100
AcDbSymbolTableRecord
100
AcDbBlockTableRecord
  2
ARROWHEAD_5
340
0
  0
BLOCK_RECORD
  5
134
330
1
100
AcDbSymbolTableRecord
100
AcDbBlockTableRecord
  2
Cadimage Break Line[1]
340
0
102
{BLKREFS
331
13D
102
}
  0
BLOCK_RECORD
  5
13E
330
1
100
AcDbSymbolTableRecord
100
AcDbBlockTableRecord
  2
Cadimage Break Line[2]
340
0
102
{BLKREFS
331
147
102
}
  0
BLOCK_RECORD
  5
148
330
1
100
AcDbSymbolTableRecord
100
AcDbBlockTableRecord
  2
DC-02-TS Window Sill_STORY_MARKER
340
0
  0
ENDTAB
  0
ENDSEC
  0
SECTION
  2
BLOCKS
  0
BLOCK
  5
20
330
1F
100
AcDbEntity
  8
0
100
AcDbBlockBegin
  2
*Model_Space
 70
     0
 10
0.0
 20
0.0
 30
0.0
  3
*Model_Space
  1

  0
ENDBLK
  5
21
330
1F
100
AcDbEntity
  8
0
100
AcDbBlockEnd
  0
BLOCK
  5
1C
330
1B
100
AcDbEntity
 67
     1
  8
0
100
AcDbBlockBegin
  2
*Paper_Space
 70
     0
 10
0.0
 20
0.0
 30
0.0
  3
*Paper_Space
  1

  0
ENDBLK
  5
1D
330
1B
100
AcDbEntity
 67
     1
  8
0
100
AcDbBlockEnd
  0
BLOCK
  5
24
330
23
100
AcDbEntity
  8
0
100
AcDbBlockBegin
  2
*Paper_Space0
 70
     0
 10
0.0
 20
0.0
 30
0.0
  3
*Paper_Space0
  1

  0
ENDBLK
  5
25
330
23
100
AcDbEntity
  8
0
100
AcDbBlockEnd
  0
BLOCK
  5
49
330
48
100
AcDbEntity
  8
0
100
AcDbBlockBegin
  2
Fill_1
 70
     0
 10
0.0
 20
0.0
 30
0.0
  3
Fill_1
  1

  0
INSERT
  5
6E
330
48
100
AcDbEntity
  8
Key_ Sections_Pen_No__146
  6
Continuous
100
AcDbBlockReference
  2
*X2
 10
0.0
 20
0.0
 30
0.0
  0
LINE
  5
6F
330
48
100
AcDbEntity
  8
Key_ Sections_Pen_No__1
  6
Continuous
100
AcDbLine
 10
195.3104338639417
 20
32.60983462000591
 30
0.0
 11
293.7104338639419
 21
32.60983462000641
 31
0.0
  0
LINE
  5
71
330
48
100
AcDbEntity
  8
Key_ Sections_Pen_No__1
  6
Continuous
100
AcDbLine
 10
293.7104338639419
 20
32.60983462000641
 30
0.0
 11
293.7104338639406
 21
51.60983461999687
 31
0.0
  0
LINE
  5
72
330
48
100
AcDbEntity
  8
Key_ Sections_Pen_No__1
  6
Continuous
100
AcDbLine
 10
293.7104338639406
 20
51.60983461999687
 30
0.0
 11
174.2104338639411
 21
51.60983462000225
 31
0.0
  0
LINE
  5
73
330
48
100
AcDbEntity
  8
Key_ Sections_Pen_No__1
  6
Continuous
100
AcDbLine
 10
174.2104338639411
 20
51.60983462000225
 30
0.0
 11
173.7104338639409
 21
51.10983462000225
 31
0.0
  0
LINE
  5
74
330
48
100
AcDbEntity
  8
Key_ Sections_Pen_No__1
  6
Continuous
100
AcDbLine
 10
173.7104338639409
 20
51.10983462000225
 30
0.0
 11
173.7104338639432
 21
33.10983462000134
 31
0.0
  0
LINE
  5
75
330
48
100
AcDbEntity
  8
Key_ Sections_Pen_No__1
  6
Continuous
100
AcDbLine
 10
173.7104338639432
 20
33.10983462000134
 30
0.0
 11
174.2104338639429
 21
32.60983462000134
 31
0.0
  0
LINE
  5
76
330
48
100
AcDbEntity
  8
Key_ Sections_Pen_No__1
  6
Continuous
100
AcDbLine
 10
174.2104338639429
 20
32.60983462000134
 30
0.0
 11
183.7104338639421
 21
32.60983462000135
 31
0.0
  0
LINE
  5
77
330
48
100
AcDbEntity
  8
Key_ Sections_Pen_No__1
  6
Continuous
100
AcDbLine
 10
183.7104338639421
 20
32.60983462000135
 30
0.0
 11
183.7104338639421
 21
40.60983462000136
 31
0.0
  0
LINE
  5
78
330
48
100
AcDbEntity
  8
Key_ Sections_Pen_No__1
  6
Continuous
100
AcDbLine
 10
183.7104338639421
 20
40.60983462000136
 30
0.0
 11
193.7104338639419
 21
40.60983462000591
 31
0.0
  0
LINE
  5
79
330
48
100
AcDbEntity
  8
Key_ Sections_Pen_No__1
  6
Continuous
100
AcDbLine
 10
193.7104338639419
 20
40.60983462000591
 30
0.0
 11
195.3104338639417
 21
32.60983462000591
 31
0.0
  0
ENDBLK
  5
4A
330
48
100
AcDbEntity
  8
0
100
AcDbBlockEnd
  0
BLOCK
  5
4C
330
4B
100
AcDbEntity
  8
0
100
AcDbBlockBegin
  2
*X2
 70
     1
 10
0.0
 20
0.0
 30
0.0
  3
*X2
  1

  0
LINE
  5
4E
330
4B
100
AcDbEntity
  8
Key_ Sections_Pen_No__146
  6
Continuous
100
AcDbLine
 10
289.8241201406199
 20
51.60983461999705
 30
0.0
 11
270.1303507956893
 21
32.60983462000629
 31
0.0
  0
LINE
  5
50
330
4B
100
AcDbEntity
  8
Key_ Sections_Pen_No__146
  6
Continuous
100
AcDbLine
 10
254.7103558620054
 20
51.60983461999863
 30
0.0
 11
249.5715835884618
 21
46.65209029552708
 31
0.0
  0
LINE
  5
51
330
4B
100
AcDbEntity
  8
Key_ Sections_Pen_No__146
  6
Continuous
100
AcDbLine
 10
249.5715835884618
 20
46.65209029552708
 30
0.0
 11
234.9769291862169
 21
32.6098346200061
 31
0.0
  0
LINE
  5
52
330
4B
100
AcDbEntity
  8
Key_ Sections_Pen_No__146
  6
Continuous
100
AcDbLine
 10
219.5618988359039
 20
51.60983462000021
 30
0.0
 11
199.8144707837309
 21
32.60983462000593
 31
0.0
  0
LINE
  5
53
330
4B
100
AcDbEntity
  8
Key_ Sections_Pen_No__146
  6
Continuous
100
AcDbLine
 10
184.3994404334196
 20
51.60983462000178
 30
0.0
 11
179.7479086415966
 21
47.13436045642405
 31
0.0
  0
LINE
  5
54
330
4B
100
AcDbEntity
  8
Key_ Sections_Pen_No__146
  6
Continuous
100
AcDbLine
 10
179.7479086415966
 20
47.13436045642405
 30
0.0
 11
173.7104338639422
 21
41.34364952014094
 31
0.0
  0
LINE
  5
55
330
4B
100
AcDbEntity
  8
Key_ Sections_Pen_No__146
  6
Continuous
100
AcDbLine
 10
282.0510879924134
 20
51.6098346199974
 30
0.0
 11
261.8849969709324
 21
32.60983462000625
 31
0.0
  0
LINE
  5
56
330
4B
100
AcDbEntity
  8
Key_ Sections_Pen_No__146
  6
Continuous
100
AcDbLine
 10
246.50870194097
 20
51.609834619999
 30
0.0
 11
226.342610919487
 21
32.60983462000605
 31
0.0
  0
LINE
  5
57
330
4B
100
AcDbEntity
  8
Key_ Sections_Pen_No__146
  6
Continuous
100
AcDbLine
 10
210.9663158895266
 20
51.60983462000059
 30
0.0
 11
206.9380626941523
 21
47.81451253053126
 31
0.0
  0
LINE
  5
58
330
4B
100
AcDbEntity
  8
Key_ Sections_Pen_No__146
  6
Continuous
100
AcDbLine
 10
206.9380626941523
 20
47.81451253053126
 30
0.0
 11
194.5701336872619
 21
36.31133550340514
 31
0.0
  0
LINE
  5
59
330
4B
100
AcDbEntity
  8
Key_ Sections_Pen_No__146
  6
Continuous
100
AcDbLine
 10
175.2383396132772
 20
51.6098346200022
 30
0.0
 11
173.710433863941
 21
50.18875835852091
 31
0.0
  0
LINE
  5
5A
330
4B
100
AcDbEntity
  8
Key_ Sections_Pen_No__146
  6
Continuous
100
AcDbLine
 10
293.7104338639414
 20
40.00657026779567
 30
0.0
 11
292.5783387486196
 21
38.92932432558516
 31
0.0
  0
LINE
  5
5B
330
4B
100
AcDbEntity
  8
Key_ Sections_Pen_No__146
  6
Continuous
100
AcDbLine
 10
292.5783387486196
 20
38.92932432558516
 30
0.0
 11
285.9336716758908
 21
32.60983462000637
 31
0.0
  0
LINE
  5
5C
330
4B
100
AcDbEntity
  8
Key_ Sections_Pen_No__146
  6
Continuous
100
AcDbLine
 10
270.5399435720074
 20
51.60983461999791
 30
0.0
 11
251.4849416946317
 21
33.48734828835276
 31
0.0
  0
LINE
  5
5D
330
4B
100
AcDbEntity
  8
Key_ Sections_Pen_No__146
  6
Continuous
100
AcDbLine
 10
235.1685463423509
 20
51.6098346199995
 30
0.0
 11
234.2428499421788
 21
50.7294400408056
 31
0.0
  0
LINE
  5
5E
330
4B
100
AcDbEntity
  8
Key_ Sections_Pen_No__146
  6
Continuous
100
AcDbLine
 10
251.4849416946317
 20
33.48734828835276
 30
0.0
 11
250.5617905347982
 21
32.60983462000619
 31
0.0
  0
LINE
  5
5F
330
4B
100
AcDbEntity
  8
Key_ Sections_Pen_No__146
  6
Continuous
100
AcDbLine
 10
234.2428499421788
 20
50.7294400408056
 30
0.0
 11
215.1808850254921
 21
32.60983462000601
 31
0.0
  0
LINE
  5
60
330
4B
100
AcDbEntity
  8
Key_ Sections_Pen_No__146
  6
Continuous
100
AcDbLine
 10
199.7881263331809
 20
51.6098346200011
 30
0.0
 11
193.3839563681388
 21
45.52226529955195
 31
0.0
  0
LINE
  5
61
330
4B
100
AcDbEntity
  8
Key_ Sections_Pen_No__146
  6
Continuous
100
AcDbLine
 10
193.3839563681388
 20
45.52226529955195
 30
0.0
 11
188.2132750634114
 21
40.6098346200034
 31
0.0
  0
LINE
  5
62
330
4B
100
AcDbEntity
  8
Key_ Sections_Pen_No__146
  6
Continuous
100
AcDbLine
 10
183.7104338639421
 20
36.33188864928866
 30
0.0
 11
179.7927083142373
 21
32.60983462000134
 31
0.0
  0
LINE
  5
63
330
4B
100
AcDbEntity
  8
Key_ Sections_Pen_No__146
  6
Continuous
100
AcDbLine
 10
293.7104338639411
 20
43.64898817322928
 30
0.0
 11
282.2612452413537
 21
32.60983462000635
 31
0.0
  0
LINE
  5
64
330
4B
100
AcDbEntity
  8
Key_ Sections_Pen_No__146
  6
Continuous
100
AcDbLine
 10
266.8423569628122
 20
51.60983461999808
 30
0.0
 11
254.1491752490959
 21
39.37123967360711
 31
0.0
  0
LINE
  5
65
330
4B
100
AcDbEntity
  8
Key_ Sections_Pen_No__146
  6
Continuous
100
AcDbLine
 10
254.1491752490959
 20
39.37123967360711
 30
0.0
 11
247.1261631076955
 21
32.60983462000617
 31
0.0
  0
LINE
  5
66
330
4B
100
AcDbEntity
  8
Key_ Sections_Pen_No__146
  6
Continuous
100
AcDbLine
 10
231.709995237642
 20
51.60983461999965
 30
0.0
 11
211.9748618402579
 21
32.609834620006
 31
0.0
  0
LINE
  5
67
330
4B
100
AcDbEntity
  8
Key_ Sections_Pen_No__146
  6
Continuous
100
AcDbLine
 10
196.5586939702064
 20
51.60983462000124
 30
0.0
 11
185.1330904243494
 21
40.609834620002
 31
0.0
  0
LINE
  5
68
330
4B
100
AcDbEntity
  8
Key_ Sections_Pen_No__146
  6
Continuous
100
AcDbLine
 10
183.7104338639421
 20
39.24017199328208
 30
0.0
 11
176.8235605728158
 21
32.60983462000134
 31
0.0
  0
LINE
  5
69
330
4B
100
AcDbEntity
  8
Key_ Sections_Pen_No__146
  6
Continuous
100
AcDbLine
 10
293.7104338639408
 20
48.10600030642917
 30
0.0
 11
277.6220504109548
 21
32.60983462000632
 31
0.0
  0
LINE
  5
6A
330
4B
100
AcDbEntity
  8
Key_ Sections_Pen_No__146
  6
Continuous
100
AcDbLine
 10
262.2050489765772
 20
51.60983461999828
 30
0.0
 11
248.1767497578532
 21
38.09792090739239
 31
0.0
  0
LINE
  5
6B
330
4B
100
AcDbEntity
  8
Key_ Sections_Pen_No__146
  6
Continuous
100
AcDbLine
 10
248.1767497578532
 20
38.09792090739239
 30
0.0
 11
242.4657741204414
 21
32.60983462000615
 31
0.0
  0
LINE
  5
6C
330
4B
100
AcDbEntity
  8
Key_ Sections_Pen_No__146
  6
Continuous
100
AcDbLine
 10
227.0529850882438
 20
51.60983461999987
 30
0.0
 11
207.2813321971103
 21
32.60983462000597
 31
0.0
  0
LINE
  5
6D
330
4B
100
AcDbEntity
  8
Key_ Sections_Pen_No__146
  6
Continuous
100
AcDbLine
 10
191.8685431649147
 20
51.60983462000144
 30
0.0
 11
173.7104338639431
 21
34.16040443740574
 31
0.0
  0
ENDBLK
  5
4D
330
4B
100
AcDbEntity
  8
0
100
AcDbBlockEnd
  0
BLOCK
  5
103
330
102
100
AcDbEntity
  8
0
100
AcDbBlockBegin
  2
*D3
 70
     1
 10
0.0
 20
0.0
 30
0.0
  3
*D3
  1

  0
LINE
  5
105
330
102
100
AcDbEntity
  8
Key_ Sections_Pen_No__1
  6
Continuous
100
AcDbLine
 10
372.8857721309171
 20
11.51613606373726
 30
0.0
 11
372.8857721309171
 21
13.60983462000826
 31
0.0
  0
LINE
  5
106
330
102
100
AcDbEntity
  8
Key_ Sections_Pen_No__1
  6
Continuous
100
AcDbLine
 10
372.8857721309171
 20
13.60983462000826
 30
0.0
 11
372.8857721309171
 21
21.87322755727977
 31
0.0
  0
LINE
  5
107
330
102
100
AcDbEntity
  8
Key_ Sections_Pen_No__1
  6
Continuous
100
AcDbLine
 10
370.7449760611103
 20
14.84582323091118
 30
0.0
 11
375.0265682007238
 21
12.37384600910534
 31
0.0
  0
LINE
  5
108
330
102
100
AcDbEntity
  8
Key_ Sections_Pen_No__1
  6
Continuous
100
AcDbLine
 10
375.0265682007238
 20
20.63723894637685
 30
0.0
 11
370.7449760611103
 21
23.10921616818269
 31
0.0
  0
LINE
  5
109
330
102
100
AcDbEntity
  8
Key_ Sections_Pen_No__1
  6
Continuous
100
AcDbLine
 10
372.8857721309171
 20
21.87322755727977
 30
0.0
 11
372.8857721309171
 21
23.96692611355077
 31
0.0
  0
LINE
  5
10A
330
102
100
AcDbEntity
  8
Key_ Sections_Pen_No__1
  6
Continuous
100
AcDbLine
 10
376.0969662356272
 20
13.60983462000826
 30
0.0
 11
366.0460276105331
 21
13.60983462000826
 31
0.0
  0
LINE
  5
10B
330
102
100
AcDbEntity
  8
Key_ Sections_Pen_No__1
  6
Continuous
100
AcDbLine
 10
376.0969662356272
 20
21.87322755727977
 30
0.0
 11
366.2531418342126
 21
21.87322755727977
 31
0.0
  0
MTEXT
  5
10D
330
102
100
AcDbEntity
  8
Key_ Sections_Pen_No__1
100
AcDbMText
 10
371.8857721532688
 20
15.844386025959
 30
0.0
 40
5.0
 41
0.0
 71
     7
 72
     1
  1
{8}
  7
GENERATED_STYLE_1
 11
6.123233995736766E-17
 21
1.0
 31
0.0
 73
     1
 44
1.0
  0
ENDBLK
  5
104
330
102
100
AcDbEntity
  8
0
100
AcDbBlockEnd
  0
BLOCK
  5
112
330
111
100
AcDbEntity
  8
0
100
AcDbBlockBegin
  2
ARROWHEAD_2
 70
     0
 10
0.0
 20
0.0
 30
0.0
  3
ARROWHEAD_2
  1

  0
LINE
  5
114
330
111
100
AcDbEntity
  8
0
  6
Continuous
 62
     0
370
     0
100
AcDbLine
 10
-0.3781315
 20
-0.655
 30
0.0
 11
0.3781315
 21
0.655
 31
0.0
  0
LINE
  5
115
330
111
100
AcDbEntity
  8
0
  6
Continuous
 62
     0
370
     0
100
AcDbLine
 10
0.0
 20
0.0
 30
0.0
 11
-1.0
 21
0.0
 31
0.0
  0
ENDBLK
  5
113
330
111
100
AcDbEntity
  8
0
100
AcDbBlockEnd
  0
BLOCK
  5
11C
330
11B
100
AcDbEntity
  8
0
100
AcDbBlockBegin
  2
ARROWHEAD_5
 70
     0
 10
0.0
 20
0.0
 30
0.0
  3
ARROWHEAD_5
  1

  0
SOLID
  5
11E
330
11B
100
AcDbEntity
  8
0
  6
Continuous
 62
     0
370
     0
100
AcDbTrace
 10
-1.0
 20
0.2679
 30
0.0
 11
0.0
 21
0.0
 31
0.0
 12
-1.0
 22
-0.2679
 32
0.0
 13
-1.0
 23
0.2679
 33
0.0
  0
LINE
  5
11F
330
11B
100
AcDbEntity
  8
0
  6
Continuous
 62
     0
370
     0
100
AcDbLine
 10
0.0
 20
0.0
 30
0.0
 11
-1.0
 21
0.0
 31
0.0
  0
ENDBLK
  5
11D
330
11B
100
AcDbEntity
  8
0
100
AcDbBlockEnd
  0
BLOCK
  5
135
330
134
100
AcDbEntity
  8
0
100
AcDbBlockBegin
  2
Cadimage Break Line[1]
 70
     0
 10
169.0176118861952
 20
165.7001597158774
 30
0.0
  3
Cadimage Break Line[1]
  1

  0
HATCH
  5
137
330
134
100
AcDbEntity
  8
Key_ Sections
  6
Continuous
 62
     7
420
 16777215
370
     0
100
AcDbHatch
 10
0.0
 20
0.0
 30
0.0
210
0.0
220
0.0
230
1.0
  2
SOLID
 70
     1
 71
     0
 91
        1
 92
        3
 72
     0
 73
     1
 93
        8
 10
169.0176118861952
 20
165.7001597158774
 10
257.081668877397
 20
165.7001597158774
 10
260.4150022107304
 20
150.7001597158774
 10
263.7483355440637
 20
180.7001597158774
 10
267.081668877397
 20
165.7001597158774
 10
355.1457258685989
 20
165.7001597158774
 10
355.1457258685989
 20
203.3260594094936
 10
169.0176118861952
 20
203.3260594094936
 97
        0
 75
     0
 76
     1
 98
        0
  0
LINE
  5
138
330
134
100
AcDbEntity
  8
Key_ Sections_Pen_No__1
  6
Continuous
100
AcDbLine
 10
169.0176118861952
 20
165.7001597158774
 30
0.0
 11
257.081668877397
 21
165.7001597158774
 31
0.0
  0
LINE
  5
139
330
134
100
AcDbEntity
  8
Key_ Sections_Pen_No__1
  6
Continuous
100
AcDbLine
 10
267.081668877397
 20
165.7001597158774
 30
0.0
 11
355.1457258685989
 21
165.7001597158774
 31
0.0
  0
LINE
  5
13A
330
134
100
AcDbEntity
  8
Key_ Sections_Pen_No__1
  6
Continuous
100
AcDbLine
 10
267.081668877397
 20
165.7001597158774
 30
0.0
 11
263.7483355440637
 21
180.7001597158774
 31
0.0
  0
LINE
  5
13B
330
134
100
AcDbEntity
  8
Key_ Sections_Pen_No__1
  6
Continuous
100
AcDbLine
 10
263.7483355440637
 20
180.7001597158774
 30
0.0
 11
260.4150022107304
 21
150.7001597158774
 31
0.0
  0
LINE
  5
13C
330
134
100
AcDbEntity
  8
Key_ Sections_Pen_No__1
  6
Continuous
100
AcDbLine
 10
260.4150022107304
 20
150.7001597158774
 30
0.0
 11
257.081668877397
 21
165.7001597158774
 31
0.0
  0
ENDBLK
  5
136
330
134
100
AcDbEntity
  8
0
100
AcDbBlockEnd
  0
BLOCK
  5
13F
330
13E
100
AcDbEntity
  8
0
100
AcDbBlockBegin
  2
Cadimage Break Line[2]
 70
     0
 10
168.5354643307584
 20
-199.4957424888204
 30
0.0
  3
Cadimage Break Line[2]
  1

  0
HATCH
  5
141
330
13E
100
AcDbEntity
  8
Key_ Sections
  6
Continuous
 62
     7
420
 16777215
370
     0
100
AcDbHatch
 10
0.0
 20
0.0
 30
0.0
210
0.0
220
0.0
230
1.0
  2
SOLID
 70
     1
 71
     0
 91
        1
 92
        3
 72
     0
 73
     1
 93
        8
 10
168.5354643307584
 20
-252.7766900334252
 10
354.6635783131621
 20
-252.7766900334252
 10
354.6635783131621
 20
-199.4957424888204
 10
266.5995213219603
 20
-199.4957424888204
 10
263.2661879886269
 20
-214.4957424888204
 10
259.9328546552936
 20
-184.4957424888204
 10
256.5995213219603
 20
-199.4957424888204
 10
168.5354643307584
 20
-199.4957424888204
 97
        0
 75
     0
 76
     1
 98
        0
  0
LINE
  5
142
330
13E
100
AcDbEntity
  8
Key_ Sections_Pen_No__1
  6
Continuous
100
AcDbLine
 10
168.5354643307584
 20
-199.4957424888204
 30
0.0
 11
256.5995213219603
 21
-199.4957424888204
 31
0.0
  0
LINE
  5
143
330
13E
100
AcDbEntity
  8
Key_ Sections_Pen_No__1
  6
Continuous
100
AcDbLine
 10
266.5995213219603
 20
-199.4957424888204
 30
0.0
 11
354.6635783131621
 21
-199.4957424888204
 31
0.0
  0
LINE
  5
144
330
13E
100
AcDbEntity
  8
Key_ Sections_Pen_No__1
  6
Continuous
100
AcDbLine
 10
266.5995213219603
 20
-199.4957424888204
 30
0.0
 11
263.2661879886269
 21
-214.4957424888204
 31
0.0
  0
LINE
  5
145
330
13E
100
AcDbEntity
  8
Key_ Sections_Pen_No__1
  6
Continuous
100
AcDbLine
 10
263.2661879886269
 20
-214.4957424888204
 30
0.0
 11
259.9328546552936
 21
-184.4957424888204
 31
0.0
  0
LINE
  5
146
330
13E
100
AcDbEntity
  8
Key_ Sections_Pen_No__1
  6
Continuous
100
AcDbLine
 10
259.9328546552936
 20
-184.4957424888204
 30
0.0
 11
256.5995213219603
 21
-199.4957424888204
 31
0.0
  0
ENDBLK
  5
140
330
13E
100
AcDbEntity
  8
0
100
AcDbBlockEnd
  0
BLOCK
  5
149
330
148
100
AcDbEntity
  8
0
100
AcDbBlockBegin
  2
DC-02-TS Window Sill_STORY_MARKER
 70
     0
 10
0.0
 20
0.0
 30
0.0
  3
DC-02-TS Window Sill_STORY_MARKER
  1

  0
ENDBLK
  5
14A
330
148
100
AcDbEntity
  8
0
100
AcDbBlockEnd
  0
ENDSEC
  0
SECTION
  2
ENTITIES
  0
LWPOLYLINE
  5
40
330
1F
100
AcDbEntity
  8
0_Pen_No__1
  6
Continuous
100
AcDbPolyline
 90
        4
 70
   129
 43
0.0
 10
309.6179518740562
 20
-9.223759112664684
 10
309.6179518740562
 20
20.37649045529568
 10
315.7701012492632
 20
20.37649045529588
 10
319.2138074924611
 20
-9.223759112664657
  0
HATCH
  5
41
330
1F
100
AcDbEntity
  8
0_Pen_No__146
  6
Continuous
100
AcDbHatch
 10
0.0
 20
0.0
 30
0.0
210
0.0
220
0.0
230
1.0
  2
SMALLDOTS
 70
     0
 71
     1
 91
        1
 92
        3
 72
     0
 73
     1
 93
       17
 10
324.5223264463588
 20
20.66627973550485
 10
317.3641949862031
 20
20.66691231744122
 10
325.8631560952541
 20
-52.38559336396185
 10
311.7127803507742
 20
-52.38559336396163
 10
311.7584609229986
 20
-60.18399257266259
 10
322.7633878348558
 20
-159.662389588985
 10
311.7127803507742
 20
-159.662389588985
 10
311.7127803507742
 20
-173.3228907057234
 10
318.7127803507721
 20
-173.3228907057234
 10
318.7127803507721
 20
-166.6623895889829
 10
324.146917471177
 20
-166.6623895889827
 10
326.4430421085098
 20
-183.0405217255733
 10
319.7127803507733
 20
-183.0405217255731
 10
319.7127803507733
 20
-190.0405217255712
 10
333.7127803507726
 20
-190.0405217255712
 10
318.7127803507756
 20
-59.38559336396308
 10
333.7127803507726
 20
-59.38559336396308
 97
        1
330
43
 75
     0
 76
     2
 52
0.0
 41
1.0
 77
     0
 78
     2
 53
45.0
 43
0.0
 44
0.0
 45
-4.772970773009195
 46
4.772970773009196
 79
     4
 49
0.0
 49
-4.5
 49
0.0
 49
-6.75
 53
110.0
 43
15.0
 44
0.0
 45
6.34292519030488
 46
2.308635967448266
 79
     4
 49
0.0
 49
-3.3
 49
0.0
 49
-5.700000000000001
 98
        0
  0
LWPOLYLINE
  5
43
102
{ACAD_REACTORS
330
41
102
}
330
1F
100
AcDbEntity
  8
0_Pen_No__1
  6
Continuous
100
AcDbPolyline
 90
       17
 70
   129
 43
0.0
 10
324.5223264463588
 20
20.66627973550485
 10
317.3641949862031
 20
20.66691231744122
 10
325.8631560952541
 20
-52.38559336396185
 10
311.7127803507742
 20
-52.38559336396163
 10
311.7584609229986
 20
-60.18399257266259
 10
322.7633878348558
 20
-159.662389588985
 10
311.7127803507742
 20
-159.662389588985
 10
311.7127803507742
 20
-173.3228907057234
 10
318.7127803507721
 20
-173.3228907057234
 10
318.7127803507721
 20
-166.6623895889829
 10
324.146917471177
 20
-166.6623895889827
 10
326.4430421085098
 20
-183.0405217255733
 10
319.7127803507733
 20
-183.0405217255731
 10
319.7127803507733
 20
-190.0405217255712
 10
333.7127803507726
 20
-190.0405217255712
 10
318.7127803507756
 20
-59.38559336396308
 10
333.7127803507726
 20
-59.38559336396308
  0
HATCH
  5
44
330
1F
100
AcDbEntity
  8
0_Pen_No__146
  6
Continuous
 62
   250
420
  3289650
370
     0
100
AcDbHatch
 10
0.0
 20
0.0
 30
0.0
210
0.0
220
0.0
230
1.0
  2
SOLID
 70
     1
 71
     1
 91
        1
 92
        3
 72
     0
 73
     1
 93
       14
 10
316.7190554366873
 20
20.87322755727977
 10
324.7190554366873
 20
20.87322755727977
 10
326.486317628373
 20
5.682790791872113
 10
327.5951790050944
 20
4.805051462068024
 10
326.7174396415044
 20
3.696190081416192
 10
327.5015230525883
 20
3.075534617843403
 10
328.9999178903067
 20
4.968479422914504
 10
327.4317510736973
 20
6.209790302279025
 10
325.7190554366873
 20
20.87322755727977
 10
346.2531418342126
 20
20.87322755727977
 10
346.2531418342126
 20
21.87322755727977
 10
315.5959701869323
 20
21.87322755727977
 10
316.8757150954408
 20
10.87322755727979
 10
317.8824598989677
 20
10.87322755727976
 97
        1
330
45
 75
     0
 76
     1
 98
        0
  0
LWPOLYLINE
  5
45
102
{ACAD_REACTORS
330
44
102
}
330
1F
100
AcDbEntity
  8
0_Pen_No__1
  6
Continuous
100
AcDbPolyline
 90
       14
 70
   129
 43
0.0
 10
316.7190554366873
 20
20.87322755727977
 10
324.7190554366873
 20
20.87322755727977
 10
326.486317628373
 20
5.682790791872113
 10
327.5951790050944
 20
4.805051462068024
 10
326.7174396415044
 20
3.696190081416192
 10
327.5015230525883
 20
3.075534617843403
 10
328.9999178903067
 20
4.968479422914504
 10
327.4317510736973
 20
6.209790302279025
 10
325.7190554366873
 20
20.87322755727977
 10
346.2531418342126
 20
20.87322755727977
 10
346.2531418342126
 20
21.87322755727977
 10
315.5959701869323
 20
21.87322755727977
 10
316.8757150954408
 20
10.87322755727979
 10
317.8824598989677
 20
10.87322755727976
  0
LWPOLYLINE
  5
46
330
1F
100
AcDbEntity
  8
0_Pen_No__1
  6
Continuous
100
AcDbPolyline
 90
       10
 70
   129
 43
0.0
 10
318.7127803507756
 20
-196.3270733448747
 10
318.7127803507721
 20
-180.5016565685489
 10
323.9065577684492
 20
-180.5016565685487
 10
323.9065577684492
 20
-170.5166458684371
 10
319.53403674291
 20
-170.5166458684371
 10
319.53403674291
 20
-174.5579586680104
 10
311.7127803507742
 20
-174.5579586680104
 10
311.7127803507742
 20
-198.3529706750635
 10
312.2835716669492
 20
-203.2591863092725
 10
319.5086301190919
 20
-203.2591863092725
  0
LWPOLYLINE
  5
47
330
1F
100
AcDbEntity
  8
0_Pen_No__1
  6
Continuous
100
AcDbPolyline
 90
       10
 70
   129
 43
0.0
 10
322.8788133925455
 20
-176.6475600819528
 10
323.9894723230225
 20
-178.9992819918971
 10
324.7684722963768
 20
-178.9160633923219
 10
324.396678812608
 20
-175.4357463066139
 10
324.0248853288374
 20
-171.9554292209056
 10
323.2458853554831
 20
-172.0386478204807
 10
322.6570779440009
 20
-174.5719194272162
 10
289.0491748593042
 20
-177.8816534600627
 10
286.5378219494889
 20
-179.153568200058
 10
289.2611865691705
 20
-179.8662712880428
  0
INSERT
  5
7A
330
1F
100
AcDbEntity
  8
Key_ Sections_Pen_No__146
  6
Continuous
100
AcDbBlockReference
  2
Fill_1
 10
0.0
 20
0.0
 30
0.0
  0
LINE
  5
7B
330
1F
100
AcDbEntity
  8
Key_ Sections_Pen_No__1
  6
Continuous
100
AcDbLine
 10
334.242591202066
 20
49.60983459800165
 30
0.0
 11
313.5094896738372
 21
55.60983459800165
 31
0.0
  0
LINE
  5
7C
330
1F
100
AcDbEntity
  8
Key_ Sections_Pen_No__1
  6
Continuous
100
AcDbLine
 10
341.5096505945211
 20
55.60983459800167
 30
0.0
 11
313.5094896738372
 21
47.60983459800165
 31
0.0
  0
LINE
  5
7D
330
1F
100
AcDbEntity
  8
Key_ Sections_Pen_No__1
  6
Continuous
100
AcDbLine
 10
315.209489673839
 20
64.06001912160583
 30
0.0
 11
315.209489673839
 21
62.16001912160588
 31
0.0
  0
LINE
  5
7E
330
1F
100
AcDbEntity
  8
Key_ Sections_Pen_No__1
  6
Continuous
100
AcDbLine
 10
315.209489673839
 20
62.16001912160588
 30
0.0
 11
315.209489673839
 21
64.06001912160583
 31
0.0
  0
LINE
  5
7F
330
1F
100
AcDbEntity
  8
Key_ Sections_Pen_No__146
  6
Continuous
100
AcDbLine
 10
320.8094896738366
 20
56.53966759098642
 30
0.0
 11
320.8094896738366
 21
188.6245947732802
 31
0.0
  0
LINE
  5
80
330
1F
100
AcDbEntity
  8
Key_ Sections_Pen_No__146
  6
Continuous
100
AcDbLine
 10
319.8094896738367
 20
56.53966759098642
 30
0.0
 11
319.8094896738367
 21
188.6245947732802
 31
0.0
  0
LINE
  5
81
330
1F
100
AcDbEntity
  8
Key_ Sections_Pen_No__146
  6
Continuous
100
AcDbLine
 10
318.8389237234949
 20
56.53966759098642
 30
0.0
 11
318.8389237234949
 21
188.6245947732802
 31
0.0
  0
LINE
  5
82
330
1F
100
AcDbEntity
  8
Key_ Sections_Pen_No__146
  6
Continuous
100
AcDbLine
 10
317.8094896738365
 20
56.53966759098642
 30
0.0
 11
317.8094896738365
 21
188.6245947732801
 31
0.0
  0
LINE
  5
83
330
1F
100
AcDbEntity
  8
Key_ Sections_Pen_No__1
  6
Continuous
100
AcDbLine
 10
335.8094896738363
 20
55.60983457614787
 30
0.0
 11
321.8094896738365
 21
69.60983457614788
 31
0.0
  0
LINE
  5
84
330
1F
100
AcDbEntity
  8
Key_ Sections_Pen_No__1
  6
Continuous
100
AcDbLine
 10
335.8094896738363
 20
69.60983457614788
 30
0.0
 11
321.8094896738365
 21
55.60983457614785
 31
0.0
  0
LINE
  5
85
330
1F
100
AcDbEntity
  8
Key_ Sections_Pen_No__146
  6
Continuous
100
AcDbLine
 10
336.8094896738366
 20
56.53966759098643
 30
0.0
 11
336.8094896738366
 21
188.6245947732802
 31
0.0
  0
LINE
  5
86
330
1F
100
AcDbEntity
  8
Key_ Sections_Pen_No__146
  6
Continuous
100
AcDbLine
 10
337.8094896738365
 20
56.53966759098643
 30
0.0
 11
337.8094896738365
 21
188.6245947732802
 31
0.0
  0
LINE
  5
87
330
1F
100
AcDbEntity
  8
Key_ Sections_Pen_No__146
  6
Continuous
100
AcDbLine
 10
338.7800556241779
 20
56.53966759098643
 30
0.0
 11
338.7800556241779
 21
188.6245947732802
 31
0.0
  0
LINE
  5
88
330
1F
100
AcDbEntity
  8
Key_ Sections_Pen_No__146
  6
Continuous
100
AcDbLine
 10
339.8094896738363
 20
56.53966759098643
 30
0.0
 11
339.8094896738363
 21
188.6245947732802
 31
0.0
  0
LINE
  5
89
330
1F
100
AcDbEntity
  8
Key_ Sections_Pen_No__1
  6
Continuous
100
AcDbLine
 10
288.6404591171176
 20
2.245037874547188
 30
0.0
 11
288.6404591171176
 21
5.159024411687055
 31
0.0
  0
LINE
  5
8A
330
1F
100
AcDbEntity
  8
Key_ Sections_Pen_No__1
  6
Continuous
100
AcDbLine
 10
267.1248635324756
 20
4.3223346200449
 30
0.0
 11
267.1498860173322
 21
4.362876250283211
 31
0.0
  0
LINE
  5
8B
330
1F
100
AcDbEntity
  8
Key_ Sections_Pen_No__1
  6
Continuous
100
AcDbLine
 10
266.8029380769891
 20
3.609834620021636
 30
0.0
 11
267.1248635324756
 21
4.3223346200449
 31
0.0
  0
LINE
  5
8C
330
1F
100
AcDbEntity
  8
Key_ Sections_Pen_No__1
  6
Continuous
100
AcDbLine
 10
266.4810126215031
 20
2.897334619998372
 30
0.0
 11
266.8029380769891
 21
3.609834620021636
 31
0.0
  0
LINE
  5
8D
330
1F
100
AcDbEntity
  8
Key_ Sections_Pen_No__1
  6
Continuous
100
AcDbLine
 10
266.1590871660171
 20
2.375748419659552
 30
0.0
 11
266.4810126215031
 21
2.897334619998372
 31
0.0
  0
LINE
  5
8E
330
1F
100
AcDbEntity
  8
Key_ Sections_Pen_No__1
  6
Continuous
100
AcDbLine
 10
265.8716331271295
 20
2.205277455495991
 30
0.0
 11
266.1590871660171
 21
2.375748419659552
 31
0.0
  0
LINE
  5
8F
330
1F
100
AcDbEntity
  8
Key_ Sections_Pen_No__1
  6
Continuous
100
AcDbLine
 10
266.1771005302377
 20
1.661277461555211
 30
0.0
 11
265.8197968437763
 21
2.211579139219
 31
0.0
  0
LINE
  5
90
330
1F
100
AcDbEntity
  8
Key_ Sections_Pen_No__1
  6
Continuous
100
AcDbLine
 10
266.3854338635736
 20
1.359834620021606
 30
0.0
 11
266.1771005302377
 21
1.661277461555211
 31
0.0
  0
LINE
  5
91
330
1F
100
AcDbEntity
  8
Key_ Sections_Pen_No__1
  6
Continuous
100
AcDbLine
 10
266.5937671969094
 20
1.661277461555211
 30
0.0
 11
266.3854338635736
 21
1.359834620021606
 31
0.0
  0
LINE
  5
92
330
1F
100
AcDbEntity
  8
Key_ Sections_Pen_No__1
  6
Continuous
100
AcDbLine
 10
266.8021005302381
 20
2.484834620021648
 30
0.0
 11
266.5937671969094
 21
1.661277461555211
 31
0.0
  0
LINE
  5
93
330
1F
100
AcDbEntity
  8
Key_ Sections_Pen_No__1
  6
Continuous
100
AcDbLine
 10
267.0104338635739
 20
3.609834620021636
 30
0.0
 11
266.8021005302381
 21
2.484834620021648
 31
0.0
  0
LINE
  5
94
330
1F
100
AcDbEntity
  8
Key_ Sections_Pen_No__1
  6
Continuous
100
AcDbLine
 10
267.2187671969093
 20
4.734834620021623
 30
0.0
 11
267.0104338635739
 21
3.609834620021636
 31
0.0
  0
LINE
  5
95
330
1F
100
AcDbEntity
  8
Key_ Sections_Pen_No__1
  6
Continuous
100
AcDbLine
 10
267.427100530238
 20
5.55839177848806
 30
0.0
 11
267.2187671969093
 21
4.734834620021623
 31
0.0
  0
LINE
  5
96
330
1F
100
AcDbEntity
  8
Key_ Sections_Pen_No__1
  6
Continuous
100
AcDbLine
 10
267.6354338635737
 20
5.859834620021611
 30
0.0
 11
267.427100530238
 21
5.55839177848806
 31
0.0
  0
LINE
  5
97
330
1F
100
AcDbEntity
  8
Key_ Sections_Pen_No__1
  6
Continuous
100
AcDbLine
 10
267.8437671969095
 20
5.558391778488061
 30
0.0
 11
267.6354338635737
 21
5.859834620021611
 31
0.0
  0
LINE
  5
98
330
1F
100
AcDbEntity
  8
Key_ Sections_Pen_No__1
  6
Continuous
100
AcDbLine
 10
268.1837060166163
 20
5.03483462006822
 30
0.0
 11
267.8437671969095
 21
5.558391778488061
 31
0.0
  0
LINE
  5
99
330
1F
100
AcDbEntity
  8
Key_ Sections_Pen_No__1
  6
Continuous
100
AcDbLine
 10
267.8617805611303
 20
4.84392082038372
 30
0.0
 11
268.1837060166163
 21
5.03483462006822
 31
0.0
  0
LINE
  5
9A
330
1F
100
AcDbEntity
  8
Key_ Sections_Pen_No__1
  6
Continuous
100
AcDbLine
 10
267.5398551056442
 20
4.3223346200449
 30
0.0
 11
267.8617805611303
 21
4.84392082038372
 31
0.0
  0
LINE
  5
9B
330
1F
100
AcDbEntity
  8
Key_ Sections_Pen_No__1
  6
Continuous
100
AcDbLine
 10
267.2179296501653
 20
3.609834620021636
 30
0.0
 11
267.5398551056442
 21
4.3223346200449
 31
0.0
  0
LINE
  5
9C
330
1F
100
AcDbEntity
  8
Key_ Sections_Pen_No__1
  6
Continuous
100
AcDbLine
 10
266.8960041946792
 20
2.897334619998372
 30
0.0
 11
267.2179296501653
 21
3.609834620021636
 31
0.0
  0
LINE
  5
9D
330
1F
100
AcDbEntity
  8
Key_ Sections_Pen_No__1
  6
Continuous
100
AcDbLine
 10
266.8709817098151
 20
2.856792989760061
 30
0.0
 11
266.8960041946792
 21
2.897334619998372
 31
0.0
  0
LINE
  5
9E
330
1F
100
AcDbEntity
  8
Key_ Sections_Pen_No__1
  6
Continuous
100
AcDbLine
 10
266.7262102300318
 20
2.184834619975052
 30
0.0
 11
268.3371617105314
 21
2.184834619975053
 31
0.0
  0
LINE
  5
9F
330
1F
100
AcDbEntity
  8
Key_ Sections_Pen_No__1
  6
Continuous
100
AcDbLine
 10
268.1837060166163
 20
5.03483462006822
 30
0.0
 11
269.7946574971155
 21
5.034834620068221
 31
0.0
  0
LINE
  5
A0
330
1F
100
AcDbEntity
  8
Key_ Sections_Pen_No__1
  6
Continuous
100
AcDbLine
 10
270.6837060166162
 20
5.034834620068222
 30
0.0
 11
272.2946574971154
 21
5.034834620068223
 31
0.0
  0
LINE
  5
A1
330
1F
100
AcDbEntity
  8
Key_ Sections_Pen_No__1
  6
Continuous
100
AcDbLine
 10
269.2262102300317
 20
2.184834619975053
 30
0.0
 11
270.8371617105313
 21
2.184834619975055
 31
0.0
  0
LINE
  5
A2
330
1F
100
AcDbEntity
  8
Key_ Sections_Pen_No__1
  6
Continuous
100
AcDbLine
 10
273.1837060166162
 20
5.034834620068223
 30
0.0
 11
274.7946574971153
 21
5.034834620068223
 31
0.0
  0
LINE
  5
A3
330
1F
100
AcDbEntity
  8
Key_ Sections_Pen_No__1
  6
Continuous
100
AcDbLine
 10
271.7262102300317
 20
2.184834619975055
 30
0.0
 11
273.3371617105313
 21
2.184834619975056
 31
0.0
  0
LINE
  5
A4
330
1F
100
AcDbEntity
  8
Key_ Sections_Pen_No__1
  6
Continuous
100
AcDbLine
 10
275.6837060166161
 20
5.034834620068224
 30
0.0
 11
277.2946574971157
 21
5.034834620068225
 31
0.0
  0
LINE
  5
A5
330
1F
100
AcDbEntity
  8
Key_ Sections_Pen_No__1
  6
Continuous
100
AcDbLine
 10
274.2262102300317
 20
2.184834619975057
 30
0.0
 11
275.8371617105312
 21
2.184834619975057
 31
0.0
  0
LINE
  5
A6
330
1F
100
AcDbEntity
  8
Key_ Sections_Pen_No__1
  6
Continuous
100
AcDbLine
 10
278.1837060166161
 20
5.034834620068226
 30
0.0
 11
279.7946574971157
 21
5.034834620068227
 31
0.0
  0
LINE
  5
A7
330
1F
100
AcDbEntity
  8
Key_ Sections_Pen_No__1
  6
Continuous
100
AcDbLine
 10
276.726210230032
 20
2.184834619975058
 30
0.0
 11
278.3371617105312
 21
2.184834619975059
 31
0.0
  0
LINE
  5
A8
330
1F
100
AcDbEntity
  8
Key_ Sections_Pen_No__1
  6
Continuous
100
AcDbLine
 10
280.683706016616
 20
5.034834620068228
 30
0.0
 11
282.2946574971156
 21
5.034834620068229
 31
0.0
  0
LINE
  5
A9
330
1F
100
AcDbEntity
  8
Key_ Sections_Pen_No__1
  6
Continuous
100
AcDbLine
 10
279.226210230032
 20
2.18483461997506
 30
0.0
 11
280.8371617105311
 21
2.184834619975061
 31
0.0
  0
LINE
  5
AA
330
1F
100
AcDbEntity
  8
Key_ Sections_Pen_No__1
  6
Continuous
100
AcDbLine
 10
283.183706016616
 20
5.034834620068229
 30
0.0
 11
284.7946574971156
 21
5.03483462006823
 31
0.0
  0
LINE
  5
AB
330
1F
100
AcDbEntity
  8
Key_ Sections_Pen_No__1
  6
Continuous
100
AcDbLine
 10
281.7262102300319
 20
2.184834619975061
 30
0.0
 11
283.3371617105311
 21
2.184834619975062
 31
0.0
  0
LINE
  5
AC
330
1F
100
AcDbEntity
  8
Key_ Sections_Pen_No__1
  6
Continuous
100
AcDbLine
 10
266.0446574971228
 20
5.034834620068218
 30
0.0
 11
267.2946574971155
 21
5.034834620068219
 31
0.0
  0
LINE
  5
AD
330
1F
100
AcDbEntity
  8
Key_ Sections_Pen_No__1
  6
Continuous
100
AcDbLine
 10
263.6771005302378
 20
1.994287204221245
 30
0.0
 11
263.5309196883044
 21
2.572150942511297
 31
0.0
  0
LINE
  5
AE
330
1F
100
AcDbEntity
  8
Key_ Sections_Pen_No__1
  6
Continuous
100
AcDbLine
 10
264.1885084080874
 20
2.89733461999837
 30
0.0
 11
264.5104338635735
 21
3.609834620021634
 31
0.0
  0
LINE
  5
AF
330
1F
100
AcDbEntity
  8
Key_ Sections_Pen_No__1
  6
Continuous
100
AcDbLine
 10
264.5104338635735
 20
3.609834620021634
 30
0.0
 11
264.8323593190595
 21
4.322334620044899
 31
0.0
  0
LINE
  5
B0
330
1F
100
AcDbEntity
  8
Key_ Sections_Pen_No__1
  6
Continuous
100
AcDbLine
 10
264.8323593190595
 20
4.322334620044899
 30
0.0
 11
265.154284774546
 21
4.843920820383718
 31
0.0
  0
LINE
  5
B1
330
1F
100
AcDbEntity
  8
Key_ Sections_Pen_No__1
  6
Continuous
100
AcDbLine
 10
265.154284774546
 20
4.843920820383718
 30
0.0
 11
265.3220438018197
 21
4.943408179320774
 31
0.0
  0
LINE
  5
B2
330
1F
100
AcDbEntity
  8
Key_ Sections_Pen_No__1
  6
Continuous
100
AcDbLine
 10
265.4934863333493
 20
4.966540898885941
 30
0.0
 11
265.3437671969096
 21
5.422032670691035
 31
0.0
  0
LINE
  5
B3
330
1F
100
AcDbEntity
  8
Key_ Sections_Pen_No__1
  6
Continuous
100
AcDbLine
 10
265.3437671969096
 20
5.422032670691035
 30
0.0
 11
265.1354338635738
 21
5.723475512224585
 31
0.0
  0
LINE
  5
B4
330
1F
100
AcDbEntity
  8
Key_ Sections_Pen_No__1
  6
Continuous
100
AcDbLine
 10
265.1354338635738
 20
5.723475512224585
 30
0.0
 11
264.927100530238
 21
5.422032670691035
 31
0.0
  0
LINE
  5
B5
330
1F
100
AcDbEntity
  8
Key_ Sections_Pen_No__1
  6
Continuous
100
AcDbLine
 10
264.927100530238
 20
5.422032670691035
 30
0.0
 11
264.7187671969093
 21
4.734834620021622
 31
0.0
  0
LINE
  5
B6
330
1F
100
AcDbEntity
  8
Key_ Sections_Pen_No__1
  6
Continuous
100
AcDbLine
 10
264.7187671969093
 20
4.734834620021622
 30
0.0
 11
264.5104338635735
 21
3.609834620021634
 31
0.0
  0
LINE
  5
B7
330
1F
100
AcDbEntity
  8
Key_ Sections_Pen_No__1
  6
Continuous
100
AcDbLine
 10
264.5104338635735
 20
3.609834620021634
 30
0.0
 11
264.3021005302381
 21
2.817844362687682
 31
0.0
  0
LINE
  5
B8
330
1F
100
AcDbEntity
  8
Key_ Sections_Pen_No__1
  6
Continuous
100
AcDbLine
 10
264.3021005302381
 20
2.817844362687682
 30
0.0
 11
264.0937671969094
 21
1.994287204221245
 31
0.0
  0
LINE
  5
B9
330
1F
100
AcDbEntity
  8
Key_ Sections_Pen_No__1
  6
Continuous
100
AcDbLine
 10
264.0937671969094
 20
1.994287204221245
 30
0.0
 11
263.8854338635736
 21
1.692844362687639
 31
0.0
  0
LINE
  5
BA
330
1F
100
AcDbEntity
  8
Key_ Sections_Pen_No__1
  6
Continuous
100
AcDbLine
 10
263.8854338635736
 20
1.692844362687639
 30
0.0
 11
263.6771005302378
 21
1.994287204221245
 31
0.0
  0
LINE
  5
BB
330
1F
100
AcDbEntity
  8
Key_ Sections_Pen_No__1
  6
Continuous
100
AcDbLine
 10
261.5654235547206
 20
2.38013559229706
 30
0.0
 11
261.4946973366332
 21
2.848866991922614
 31
0.0
  0
LINE
  5
BC
330
1F
100
AcDbEntity
  8
Key_ Sections_Pen_No__1
  6
Continuous
100
AcDbLine
 10
261.6024522584718
 20
3.003721728446327
 30
0.0
 11
261.7353205350174
 21
3.08251757115625
 31
0.0
  0
LINE
  5
BD
330
1F
100
AcDbEntity
  8
Key_ Sections_Pen_No__1
  6
Continuous
100
AcDbLine
 10
261.7353205350174
 20
3.08251757115625
 30
0.0
 11
261.8728771992917
 21
3.305387979830053
 31
0.0
  0
LINE
  5
BE
330
1F
100
AcDbEntity
  8
Key_ Sections_Pen_No__1
  6
Continuous
100
AcDbLine
 10
261.8728771992917
 20
3.305387979830053
 30
0.0
 11
262.0104338635736
 21
3.609834620021633
 31
0.0
  0
LINE
  5
BF
330
1F
100
AcDbEntity
  8
Key_ Sections_Pen_No__1
  6
Continuous
100
AcDbLine
 10
262.0104338635736
 20
3.609834620021633
 30
0.0
 11
262.2129379290001
 21
4.05802579025306
 31
0.0
  0
LINE
  5
C0
330
1F
100
AcDbEntity
  8
Key_ Sections_Pen_No__1
  6
Continuous
100
AcDbLine
 10
262.2129379290001
 20
4.05802579025306
 30
0.0
 11
262.4154419944262
 21
4.386124498318276
 31
0.0
  0
LINE
  5
C1
330
1F
100
AcDbEntity
  8
Key_ Sections_Pen_No__1
  6
Continuous
100
AcDbLine
 10
262.6778606278983
 20
4.471297818809182
 30
0.0
 11
262.5609158639288
 21
4.933589166836237
 31
0.0
  0
LINE
  5
C2
330
1F
100
AcDbEntity
  8
Key_ Sections_Pen_No__1
  6
Continuous
100
AcDbLine
 10
262.5609158639288
 20
4.933589166836237
 30
0.0
 11
262.3988892921569
 21
5.16802956779989
 31
0.0
  0
LINE
  5
C3
330
1F
100
AcDbEntity
  8
Key_ Sections_Pen_No__1
  6
Continuous
100
AcDbLine
 10
262.3988892921569
 20
5.16802956779989
 30
0.0
 11
262.236862720385
 21
4.933589166836237
 31
0.0
  0
LINE
  5
C4
330
1F
100
AcDbEntity
  8
Key_ Sections_Pen_No__1
  6
Continuous
100
AcDbLine
 10
262.236862720385
 20
4.933589166836237
 30
0.0
 11
262.0855080885173
 21
4.335273052207554
 31
0.0
  0
LINE
  5
C5
330
1F
100
AcDbEntity
  8
Key_ Sections_Pen_No__1
  6
Continuous
100
AcDbLine
 10
262.0104338635736
 20
3.609834620021633
 30
0.0
 11
261.8991812863624
 21
3.00907070305235
 31
0.0
  0
LINE
  5
C6
330
1F
100
AcDbEntity
  8
Key_ Sections_Pen_No__1
  6
Continuous
100
AcDbLine
 10
261.8991812863624
 20
3.00907070305235
 30
0.0
 11
261.7879287091508
 21
2.38013559229706
 31
0.0
  0
LINE
  5
C7
330
1F
100
AcDbEntity
  8
Key_ Sections_Pen_No__1
  6
Continuous
100
AcDbLine
 10
261.7879287091508
 20
2.38013559229706
 30
0.0
 11
261.6766761319322
 21
2.219161386010591
 31
0.0
  0
LINE
  5
C8
330
1F
100
AcDbEntity
  8
Key_ Sections_Pen_No__1
  6
Continuous
100
AcDbLine
 10
261.6766761319322
 20
2.219161386010591
 30
0.0
 11
261.5654235547206
 21
2.38013559229706
 31
0.0
  0
LINE
  5
C9
330
1F
100
AcDbEntity
  8
Key_ Sections_Pen_No__1
  6
Continuous
100
AcDbLine
 10
262.0855080885173
 20
4.335273052207554
 30
0.0
 11
262.0104338635736
 21
3.609834620021633
 31
0.0
  0
LINE
  5
CA
330
1F
100
AcDbEntity
  8
Key_ Sections_Pen_No__1
  6
Continuous
100
AcDbLine
 10
262.4154419944262
 20
4.386124498318276
 30
0.0
 11
262.6778606278983
 21
4.471297818809182
 31
0.0
  0
LINE
  5
CB
330
1F
100
AcDbEntity
  8
Key_ Sections_Pen_No__1
  6
Continuous
100
AcDbLine
 10
261.4946973366332
 20
2.848866991922614
 30
0.0
 11
261.4716373932406
 21
3.037345992159444
 31
0.0
  0
LINE
  5
CC
330
1F
100
AcDbEntity
  8
Key_ Sections_Pen_No__1
  6
Continuous
100
AcDbLine
 10
285.4844492361312
 20
-15.80943581944925
 30
0.0
 11
197.9364184917526
 21
28.02910505946657
 31
0.0
  0
LINE
  5
CD
330
1F
100
AcDbEntity
  8
Key_ Sections_Pen_No__1
  6
Continuous
100
AcDbLine
 10
197.9364184917526
 20
-15.8094358194493
 30
0.0
 11
285.4844492361311
 21
28.02910505946662
 31
0.0
  0
LINE
  5
CE
330
1F
100
AcDbEntity
  8
Key_ Sections_Pen_No__1
  6
Continuous
100
AcDbLine
 10
286.7104338639423
 20
-13.39016537999108
 30
0.0
 11
286.7104338639423
 21
-243.3716233138472
 31
0.0
  0
LINE
  5
CF
330
1F
100
AcDbEntity
  8
Key_ Sections_Pen_No__1
  6
Continuous
100
AcDbLine
 10
196.710433863942
 20
-13.39016537999158
 30
0.0
 11
196.7104338639421
 21
-246.4111841546004
 31
0.0
  0
LINE
  5
D0
330
1F
100
AcDbEntity
  8
Key_ Sections_Pen_No__1
  6
Continuous
100
AcDbLine
 10
351.1433077798304
 20
13.60983631873836
 30
0.0
 11
349.956632701171
 21
27.17359290417377
 31
0.0
  0
LINE
  5
D1
330
1F
100
AcDbEntity
  8
Key_ Sections_Pen_No__1
  6
Continuous
100
AcDbLine
 10
349.956632701171
 20
27.17359290417377
 30
0.0
 11
295.3451092177149
 21
30.03565824890839
 31
0.0
  0
LINE
  5
D2
330
1F
100
AcDbEntity
  8
Key_ Sections_Pen_No__1
  6
Continuous
100
AcDbLine
 10
295.1779107385394
 20
39.61447577292429
 30
0.0
 11
295.3451092177149
 21
30.03565824890839
 31
0.0
  0
LINE
  5
D3
330
1F
100
AcDbEntity
  8
Key_ Sections_Pen_No__1
  6
Continuous
100
AcDbLine
 10
296.7679801219222
 20
28.47212038303124
 30
0.0
 11
350.0875005253848
 21
25.67776700842312
 31
0.0
  0
LINE
  5
D5
330
1F
100
AcDbEntity
  8
Key_ Sections_Pen_No__1
  6
CENTER
100
AcDbLine
 10
217.4358251557668
 20
50.77440202710851
 30
0.0
 11
224.4569711789439
 21
-29.47766424271332
 31
0.0
  0
LINE
  5
D6
330
1F
100
AcDbEntity
  8
Key_ Sections_Pen_No__1
  6
Continuous
100
AcDbLine
 10
216.8690158092356
 20
40.0424926352058
 30
0.0
 11
218.2381977612335
 21
40.16228053431057
 31
0.0
  0
LINE
  5
D7
330
1F
100
AcDbEntity
  8
Key_ Sections_Pen_No__1
  6
Continuous
100
AcDbLine
 10
216.7931484765754
 20
40.90966021557827
 30
0.0
 11
218.1623304285733
 21
41.02944811468304
 31
0.0
  0
LINE
  5
D8
330
1F
100
AcDbEntity
  8
Key_ Sections_Pen_No__1
  6
Continuous
100
AcDbLine
 10
216.7172811439152
 20
41.77682779595074
 30
0.0
 11
218.0864630959131
 21
41.89661569505552
 31
0.0
  0
LINE
  5
D9
330
1F
100
AcDbEntity
  8
Key_ Sections_Pen_No__1
  6
Continuous
100
AcDbLine
 10
216.6414138112551
 20
42.64399537632328
 30
0.0
 11
218.0105957632529
 21
42.76378327542799
 31
0.0
  0
LINE
  5
DA
330
1F
100
AcDbEntity
  8
Key_ Sections_Pen_No__1
  6
Continuous
100
AcDbLine
 10
216.5331843829498
 20
43.8810634025432
 30
0.0
 11
219.5217684772248
 21
44.14253063078753
 31
0.0
  0
LINE
  5
DB
330
1F
100
AcDbEntity
  8
Key_ Sections_Pen_No__1
  6
Continuous
100
AcDbLine
 10
183.7104338639421
 20
-238.1005777476217
 30
0.0
 11
183.7104338639417
 21
39.60983462000386
 31
0.0
  0
LINE
  5
DC
330
1F
100
AcDbEntity
  8
Key_ Sections_Pen_No__1
  6
Continuous
100
AcDbLine
 10
183.7104338639417
 20
39.60983462000386
 30
0.0
 11
192.710433863942
 21
39.60983462000386
 31
0.0
  0
LINE
  5
DD
330
1F
100
AcDbEntity
  8
Key_ Sections_Pen_No__1
  6
Continuous
100
AcDbLine
 10
192.710433863942
 20
39.60983462000386
 30
0.0
 11
192.7104338639421
 21
-238.1005777476217
 31
0.0
  0
LINE
  5
DE
330
1F
100
AcDbEntity
  8
Key_ Sections_Pen_No__1
  6
Continuous
100
AcDbLine
 10
173.7104338639409
 20
51.10983462000225
 30
0.0
 11
173.7104338639409
 21
169.7339402770887
 31
0.0
  0
LWPOLYLINE
  5
DF
330
1F
100
AcDbEntity
  8
Key_ Sections_Pen_No__1
  6
Continuous
100
AcDbPolyline
 90
        6
 70
   129
 43
0.0
 10
329.5094077438486
 20
47.60983459800165
 10
313.5094896738372
 20
47.60983459800165
 10
313.5094896738372
 20
55.60983459800165
 10
341.5096505945211
 20
55.60983459800167
 10
341.5096505945211
 20
49.60983459800166
 10
329.5094077438486
 20
49.60983459800165
  0
LWPOLYLINE
  5
E0
330
1F
100
AcDbEntity
  8
Key_ Sections_Pen_No__1
  6
Continuous
100
AcDbPolyline
 90
       23
 70
   129
 43
0.0
 10
313.8246896738391
 20
63.99606029446134
 42
-0.2556906500445654
 10
313.7094896738394
 20
64.20660473157594
 10
313.709489673839
 20
64.91001912160596
 42
-0.9999999999999999
 10
314.6094896738391
 20
64.91001912160586
 10
314.6094896738391
 20
64.06001912160583
 10
315.209489673839
 20
64.06001912160583
 10
315.8094896738394
 20
64.06001912160595
 10
315.8094896738394
 20
66.66001912160604
 42
-0.414213562373095
 10
316.0594896738392
 20
66.91001912160596
 10
316.5594896738394
 20
66.91001912160607
 42
-0.414213562373095
 10
316.8094896738393
 20
66.66001912160598
 10
316.8094896738393
 20
63.11001912160605
 10
316.8094896738393
 20
59.560019121606
 42
-0.414213562373095
 10
316.5594896738394
 20
59.31001912160603
 10
316.0594896738392
 20
59.31001912160598
 42
-0.414213562373095
 10
315.8094896738394
 20
59.56001912160606
 10
315.8094896738394
 20
62.16001912160588
 10
315.209489673839
 20
62.16001912160588
 10
314.6094896738391
 20
62.16001912160588
 10
314.6094896738391
 20
61.31001912160586
 42
-0.9999999999999999
 10
313.7094896738394
 20
61.31001912160592
 10
313.7094896738394
 20
62.01343351163577
 42
-0.2556906500445664
 10
313.8246896738405
 20
62.22397794874843
 42
0.5471529031042364
  0
LWPOLYLINE
  5
E1
330
1F
100
AcDbEntity
  8
Key_ Sections_Pen_No__1
  6
Continuous
100
AcDbPolyline
 90
        5
 70
   128
 43
0.0
 10
319.3094896738365
 20
55.60983457614785
 10
320.8094896738366
 20
55.60983457614785
 10
321.8094896738365
 20
56.60983457614785
 10
321.8094896738365
 20
197.2108968408362
 10
321.8094896738365
 20
199.1975912023578
  0
LWPOLYLINE
  5
E2
330
1F
100
AcDbEntity
  8
Key_ Sections_Pen_No__1
  6
Continuous
100
AcDbPolyline
 90
        5
 70
   128
 43
0.0
 10
319.3094896738365
 20
55.60983457614785
 10
317.8094896738365
 20
55.60983457614785
 10
316.8094896738366
 20
56.60983457614785
 10
316.8094896738366
 20
197.2108968408362
 10
316.8094896738366
 20
199.1975912023578
  0
LWPOLYLINE
  5
E3
330
1F
100
AcDbEntity
  8
Key_ Sections_Pen_No__1
  6
Continuous
100
AcDbPolyline
 90
        4
 70
   129
 43
0.0
 10
335.8094896738363
 20
55.60983457614787
 10
321.8094896738365
 20
55.60983457614785
 10
321.8094896738365
 20
69.60983457614788
 10
335.8094896738363
 20
69.60983457614788
  0
LWPOLYLINE
  5
E4
330
1F
100
AcDbEntity
  8
Key_ Sections_Pen_No__1
  6
Continuous
100
AcDbPolyline
 90
        5
 70
   128
 43
0.0
 10
338.3094896738367
 20
55.60983457614787
 10
336.8094896738366
 20
55.60983457614787
 10
335.8094896738363
 20
56.60983457614787
 10
335.8094896738363
 20
197.2108968408362
 10
335.8094896738363
 20
199.1975912023578
  0
LWPOLYLINE
  5
E5
330
1F
100
AcDbEntity
  8
Key_ Sections_Pen_No__1
  6
Continuous
100
AcDbPolyline
 90
        5
 70
   128
 43
0.0
 10
338.3094896738367
 20
55.60983457614787
 10
339.8094896738363
 20
55.60983457614787
 10
340.8094896738366
 20
56.60983457614787
 10
340.8094896738366
 20
197.2108968408362
 10
340.8094896738366
 20
199.1975912023578
  0
LWPOLYLINE
  5
E6
330
1F
100
AcDbEntity
  8
Key_ Sections_Pen_No__1
  6
Continuous
100
AcDbPolyline
 90
       36
 70
   129
 43
0.0
 10
332.5603436758219
 20
45.85002699888278
 42
0.7673269879784158
 10
332.4103436758214
 20
46.40983462001867
 10
331.2103436758223
 20
46.40983462001867
 10
331.2103436758206
 20
48.10983461919537
 10
343.8148387137162
 20
48.10983461919609
 42
0.1839743436377466
 10
345.8104338639639
 20
48.86983462001914
 10
345.8104338639631
 20
47.90983462001957
 42
0.4142135623733169
 10
346.1104338639632
 20
47.60983462001916
 10
346.5104338639428
 20
47.60983462001916
 42
0.414213562373095
 10
346.8104338639429
 20
47.90983462001935
 10
346.8104338639421
 20
68.30983462002399
 42
0.4142135623773127
 10
346.5104338639374
 20
68.60983462002396
 10
346.2104338639337
 20
68.60983462002102
 42
0.4142135623699874
 10
345.910433863938
 20
68.30983462001944
 10
345.9104338639415
 20
67.60983462001985
 10
344.8104338639605
 20
67.60983462001963
 42
0.4142135623735391
 10
344.5104338639612
 20
67.30983462001988
 10
344.5104338639612
 20
67.00983462001997
 42
0.414213562373761
 10
344.8104338639605
 20
66.70983462002
 10
345.6104338639431
 20
66.70983462002
 10
345.6104338639431
 20
66.0462307230702
 10
344.6422358124271
 20
65.07803267155482
 42
0.6681786379188248
 10
344.9604338639601
 20
64.3098346200206
 10
345.4104338639422
 20
64.30983462002021
 10
345.310433863942
 20
51.12081510485094
 42
-0.416146736396814
 10
343.8005403032975
 20
49.62084773271973
 42
-0.4380437686141797
 10
343.5036606060063
 20
49.9469879309633
 10
343.6278305379762
 20
51.36625674781969
 42
1.000000000000079
 10
342.631635839885
 20
51.45341249056644
 10
342.4941072955495
 20
49.88145403569222
 42
-0.3865331148211373
 10
342.1976957867828
 20
49.60761073755381
 10
331.2021873402834
 20
49.51792469802461
 42
0.4118266132869719
 10
330.210343675818
 20
48.51795796147977
 10
330.2103436758234
 20
46.40983462001773
 42
0.414213562372799
 10
331.1103436758231
 20
45.50983462001905
 10
331.9711131912809
 20
45.50983462001855
  0
LWPOLYLINE
  5
E7
330
1F
100
AcDbEntity
  8
Key_ Sections_Pen_No__1
  6
Continuous
100
AcDbPolyline
 90
      105
 70
   129
 43
0.0
 10
314.9104338639463
 20
64.75983462001881
 42
0.4142135623754628
 10
315.3604338639434
 20
64.30983462001808
 42
0.4142135623659916
 10
315.8104338639401
 20
64.75983462001881
 10
315.810433863933
 20
66.80983462001986
 42
0.414213562371097
 10
315.0104338639447
 20
67.60983462001732
 10
312.2104338639419
 20
67.60983462001916
 10
312.2104338639419
 20
51.10983462001915
 42
-0.414213562373095
 10
308.7104338639416
 20
47.60983462001914
 10
301.4104338639391
 20
47.6098346200228
 42
-0.4106788703270505
 10
297.91068936977
 20
51.06754424862755
 42
0.3854051597892574
 10
296.0851468585915
 20
53.03576771829778
 10
289.5365805867639
 20
53.60869302943446
 42
0.4400105308848796
 10
289.2104338639417
 20
53.30983462000712
 10
289.2104338639417
 20
52.10983462000642
 42
0.4142135623695433
 10
289.5104338639446
 20
51.80983462000712
 10
290.2104338639416
 20
51.80983462000712
 10
290.2104338639416
 20
52.54591866925819
 10
293.7104338639419
 20
52.23970834691629
 10
293.7104338639419
 20
32.60983462000641
 10
281.2104338639417
 20
32.6098346200064
 42
0.9999999999999999
 10
281.2104338639417
 20
31.6098346200028
 10
282.7104338639418
 20
31.6098346200028
 10
282.9104338639462
 20
31.8098346200035
 10
289.5104144114321
 20
31.80983462000717
 10
289.7104338639419
 20
31.6098346200028
 10
289.7104338639419
 20
20.50983462000058
 42
0.9999999999999999
 10
290.5104338639445
 20
20.50983462000058
 10
290.5104338639374
 20
21.60983462000279
 10
291.7104338639382
 20
21.60983462000279
 10
291.7104338639382
 20
15.70983462000317
 10
290.5104338639374
 20
15.70983462000316
 10
290.5104338639445
 20
16.40983462000386
 42
0.9999999999999999
 10
289.7104338639419
 20
16.40983462000386
 10
289.7104338639419
 20
-18.39016537998448
 10
290.0104341969655
 20
-18.39016537998087
 42
0.4142135851298185
 10
291.5104341969652
 20
-16.89016526343637
 10
291.510433575373
 20
-13.89016509141636
 10
291.0104338639447
 20
-13.39016537998447
 10
291.5104354401498
 20
-12.89016380378108
 10
291.510433575373
 20
-3.890165091416404
 10
291.0104338639447
 20
-3.390165379984518
 10
291.5104338639449
 20
-2.890165379986293
 10
291.5104338639449
 20
3.109834620013712
 10
291.0104338639447
 20
3.609834620015488
 10
291.5104338639449
 20
4.109834620013713
 10
291.5104338639449
 20
13.08140749526085
 10
292.9246474263109
 20
14.49562105764143
 42
0.1989123673785165
 10
293.510433863934
 20
15.90983462000753
 10
293.510433863934
 20
22.60983462000279
 42
-0.414213562373095
 10
295.5104338639337
 20
24.6098346200028
 10
301.3104338639402
 20
24.6098346200028
 10
306.5104338639445
 20
27.37472366464447
 10
306.5104338639521
 20
23.20983462000135
 42
0.9999999999999999
 10
307.7104338639493
 20
23.20983462000135
 10
307.7104338639417
 20
28.0127749826383
 10
333.0188485522977
 20
41.46949777283903
 42
0.2773245440600369
 10
334.6104338639434
 20
44.1183405514161
 10
334.6104338639434
 20
46.20983462319182
 10
337.8440019543069
 20
46.20983462659338
 42
0.3257913953893555
 10
338.2486320797561
 20
43.05475139828324
 42
0.999999999997797
 10
339.120543983832
 20
43.87923283016737
 42
-2.32188759253581
 10
341.3003237440443
 20
43.87923283016737
 42
0.9999999999988988
 10
342.1722356481277
 20
43.05475139828147
 42
0.325791395047664
 10
342.5768657686658
 20
46.20983462001954
 10
345.7104338638398
 20
46.20983462001954
 42
-0.4142135620356743
 10
346.0104338638426
 20
45.90983462036224
 10
346.010433871541
 20
39.17157305248426
 42
0.3395005810492585
 10
347.6412084407435
 20
37.04630613760985
 10
357.5280719541495
 20
34.39712904352333
 42
-0.3394542588634028
 10
359.0104338639447
 20
32.46527739094514
 10
359.0104338639447
 20
14.80983462000536
 10
350.9104338639534
 20
14.80983462000902
 10
350.9104338639463
 20
16.00983462002065
 42
0.9999999999999999
 10
349.7104338639491
 20
16.00983462002065
 10
349.7104338639491
 20
14.60983462000826
 42
0.414213562373095
 10
350.710433863949
 20
13.60983462000826
 10
359.2104338639492
 20
13.60983462000466
 42
0.414213562373095
 10
360.210433863949
 20
14.60983462000466
 10
360.2104338639419
 20
32.4652773909397
 42
0.3394542588635038
 10
357.8386548082725
 20
35.55624003506403
 10
347.9516148188359
 20
38.20546441576284
 42
-0.339454258863306
 10
347.210433863942
 20
39.17139024205375
 10
347.210433863942
 20
47.60983462001916
 10
331.7104338639417
 20
47.60983462001732
 42
0.1989123673848469
 10
331.4983018295842
 20
47.52196665437573
 10
331.2983018295869
 20
47.32196665437498
 42
0.4142135623705836
 10
331.2983018295869
 20
46.89770258566332
 10
331.4983018295842
 20
46.69770258566445
 42
0.198912367379658
 10
331.7104338639417
 20
46.60983462001915
 10
333.2104338639418
 20
46.60983462001915
 10
333.2104338639418
 20
44.30983462001991
 10
327.0476860551369
 20
44.30983462001991
 42
0.2601903471692162
 10
326.2104338643711
 20
47.00983461961682
 10
326.2104338639417
 20
47.60983462001554
 10
313.5104338639446
 20
47.60983462001553
 10
313.5104338639446
 20
58.80983462001991
 10
314.9104338639463
 20
58.80983462001991
 42
0.4142135623695432
 10
315.8104338639401
 20
59.7098346200177
 10
315.8104338639401
 20
60.55983462001988
 42
0.4142135623754628
 10
315.3604338639434
 20
61.00983462002061
 42
0.4142135623742789
 10
314.9104338639463
 20
60.55983462001988
 10
314.9104338639463
 20
59.90983462001846
 10
313.5104338639446
 20
59.90983462001846
 10
313.5104338639446
 20
66.30983462001991
 10
314.9104338639463
 20
66.30983462001991
  0
LWPOLYLINE
  5
E8
330
1F
100
AcDbEntity
  8
Key_ Sections_Pen_No__1
  6
Continuous
100
AcDbPolyline
 90
       26
 70
   129
 43
0.0
 10
295.3104338619833
 20
26.00983462000059
 42
-0.4142135628952093
 10
291.3104338619833
 20
30.00983462713105
 10
291.310433864297
 20
31.20983462000678
 10
293.7104338639419
 20
31.20983462000679
 42
0.414213562373095
 10
295.1104338639431
 20
32.60983462000641
 10
295.1104338639431
 20
51.71569628296254
 10
295.9631288187462
 20
51.64109514097201
 42
-0.3854051597897341
 10
296.5107915721034
 20
51.05062810007023
 42
0.2423740212074333
 10
298.613195003805
 20
47.08671956333767
 42
1.064239840026666
 10
302.0655170857441
 20
42.94803283581626
 42
1.000000000008571
 10
301.2410356538621
 20
43.81994473989962
 42
-2.32188759254395
 10
301.2410356538692
 20
45.99972450010445
 42
0.527725297015655
 10
302.2091482572086
 20
46.20983462002318
 10
308.7104338639416
 20
46.20983462001951
 42
0.1676863738842996
 10
311.7323369217136
 20
47.2526203519987
 42
-0.5075920299962715
 10
312.1984835951096
 20
47.12117677233749
 42
0.3132818367980625
 10
313.5106291827049
 20
46.20983462001591
 10
321.8440019527352
 20
46.20983462371024
 42
0.3471450134597445
 10
322.3965981474119
 20
42.90983462002028
 10
322.7308317324001
 20
42.90983462001844
 42
0.6629415886361611
 10
323.1344879523109
 20
43.86468372409168
 42
-2.365500782517378
 10
325.2863797755653
 20
43.86468372409168
 42
0.6629942281113865
 10
325.6901183012396
 20
42.90983462002028
 10
331.5424176442775
 20
42.90983462002028
 42
-0.7812856265066895
 10
331.6832591131113
 20
42.3449503421629
 10
300.9613746599586
 20
26.00983462000426
  0
LWPOLYLINE
  5
EA
330
1F
100
AcDbEntity
  8
Key_ Sections_Pen_No__1
  6
Hidden Line
100
AcDbPolyline
 90
        4
 70
   128
 43
0.0
 10
289.7665318866776
 20
-40.05893273585645
 10
289.7665318866775
 20
-21.40873066895152
 10
293.0757143815152
 20
-18.0995481741141
 10
293.0757143815152
 20
10.75363661424186
  0
LWPOLYLINE
  5
EB
330
1F
100
AcDbEntity
  8
Key_ Sections_Pen_No__1
  6
Continuous
100
AcDbPolyline
 90
       18
 70
   128
 43
0.0
 10
284.1756166965585
 20
1.984834620021659
 10
288.6404591171176
 20
1.984834620021661
 10
290.9129464905291
 20
-0.2876527534188835
 42
0.6681786379192987
 10
291.5104338639449
 20
-0.0401653800016509
 10
291.5104338639449
 20
7.259834620044952
 42
0.6681786379192987
 10
290.9129464905291
 20
7.507321993462184
 10
288.6404591171176
 20
5.234834620021636
 10
285.037154028092
 20
5.234834620021634
 10
284.3029380769892
 20
3.609834620021646
 10
283.9810126215032
 20
2.897334619998382
 10
283.6590871660171
 20
2.375748419659562
 10
283.3371617105311
 20
2.184834619975062
 10
283.6771005302378
 20
1.661277461555222
 10
283.8854338635736
 20
1.359834620021616
 10
284.0937671969094
 20
1.661277461555222
 10
284.3021005302381
 20
2.484834620021659
 10
284.5104338635735
 20
3.609834620021646
 10
284.6545425623135
 20
4.388021593205971
  0
LWPOLYLINE
  5
EC
330
1F
100
AcDbEntity
  8
Key_ Sections_Pen_No__1
  6
Continuous
100
AcDbPolyline
 90
       21
 70
   128
 43
0.0
 10
269.3709817098151
 20
2.856792989760062
 10
269.3960041946792
 20
2.897334619998373
 10
269.7179296501652
 20
3.609834620021637
 10
270.0398551056442
 20
4.322334620044901
 10
270.3617805611302
 20
4.843920820383721
 10
270.6837060166162
 20
5.034834620068222
 10
270.3437671969095
 20
5.558391778488062
 10
270.1354338635737
 20
5.859834620021612
 10
269.9271005302379
 20
5.558391778488062
 10
269.7187671969097
 20
4.734834620021624
 10
269.5104338635738
 20
3.609834620021637
 10
269.302100530238
 20
2.48483462002165
 10
269.0937671969093
 20
1.661277461555213
 10
268.8854338635735
 20
1.359834620021607
 10
268.6771005302381
 20
1.661277461555213
 10
268.3371617105314
 20
2.184834619975053
 10
268.6590871660175
 20
2.375748419659554
 10
268.9810126215035
 20
2.897334619998373
 10
269.3029380769895
 20
3.609834620021637
 10
269.6248635324756
 20
4.322334620044901
 10
269.6498860173322
 20
4.362876250283213
  0
LWPOLYLINE
  5
ED
330
1F
100
AcDbEntity
  8
Key_ Sections_Pen_No__1
  6
Continuous
100
AcDbPolyline
 90
       21
 70
   128
 43
0.0
 10
271.870981709815
 20
2.856792989760064
 10
271.8960041946791
 20
2.897334619998375
 10
272.2179296501652
 20
3.609834620021639
 10
272.5398551056441
 20
4.322334620044903
 10
272.8617805611302
 20
4.843920820383723
 10
273.1837060166162
 20
5.034834620068223
 10
272.8437671969094
 20
5.558391778488064
 10
272.6354338635737
 20
5.859834620021614
 10
272.4271005302379
 20
5.558391778488064
 10
272.2187671969096
 20
4.734834620021626
 10
272.0104338635738
 20
3.609834620021639
 10
271.802100530238
 20
2.484834620021652
 10
271.5937671969093
 20
1.661277461555214
 10
271.3854338635739
 20
1.359834620021609
 10
271.1771005302381
 20
1.661277461555214
 10
270.8371617105313
 20
2.184834619975055
 10
271.1590871660174
 20
2.375748419659555
 10
271.4810126215035
 20
2.897334619998374
 10
271.8029380769894
 20
3.609834620021639
 10
272.1248635324755
 20
4.322334620044903
 10
272.1498860173321
 20
4.362876250283215
  0
LWPOLYLINE
  5
EE
330
1F
100
AcDbEntity
  8
Key_ Sections_Pen_No__1
  6
Continuous
100
AcDbPolyline
 90
       21
 70
   128
 43
0.0
 10
274.3709817098149
 20
2.856792989760065
 10
274.3960041946791
 20
2.897334619998376
 10
274.7179296501651
 20
3.60983462002164
 10
275.0398551056441
 20
4.322334620044905
 10
275.3617805611301
 20
4.843920820383724
 10
275.6837060166161
 20
5.034834620068224
 10
275.3437671969094
 20
5.558391778488065
 10
275.1354338635736
 20
5.859834620021616
 10
274.9271005302378
 20
5.558391778488065
 10
274.7187671969095
 20
4.734834620021627
 10
274.5104338635737
 20
3.60983462002164
 10
274.3021005302379
 20
2.484834620021653
 10
274.0937671969097
 20
1.661277461555216
 10
273.8854338635738
 20
1.35983462002161
 10
273.677100530238
 20
1.661277461555216
 10
273.3371617105313
 20
2.184834619975056
 10
273.6590871660173
 20
2.375748419659556
 10
273.9810126215034
 20
2.897334619998376
 10
274.3029380769894
 20
3.60983462002164
 10
274.6248635324754
 20
4.322334620044904
 10
274.6498860173325
 20
4.362876250283215
  0
LWPOLYLINE
  5
EF
330
1F
100
AcDbEntity
  8
Key_ Sections_Pen_No__1
  6
Continuous
100
AcDbPolyline
 90
       21
 70
   128
 43
0.0
 10
276.8709817098149
 20
2.856792989760067
 10
276.8960041946791
 20
2.897334619998378
 10
277.2179296501655
 20
3.609834620021642
 10
277.539855105644
 20
4.322334620044906
 10
277.86178056113
 20
4.843920820383726
 10
278.1837060166161
 20
5.034834620068226
 10
277.8437671969094
 20
5.558391778488066
 10
277.6354338635736
 20
5.859834620021616
 10
277.4271005302377
 20
5.558391778488066
 10
277.2187671969095
 20
4.734834620021629
 10
277.0104338635737
 20
3.609834620021642
 10
276.8021005302379
 20
2.484834620021655
 10
276.5937671969096
 20
1.661277461555217
 10
276.3854338635738
 20
1.359834620021612
 10
276.177100530238
 20
1.661277461555217
 10
275.8371617105312
 20
2.184834619975057
 10
276.1590871660173
 20
2.375748419659558
 10
276.4810126215033
 20
2.897334619998377
 10
276.8029380769893
 20
3.609834620021642
 10
277.1248635324754
 20
4.322334620044906
 10
277.1498860173324
 20
4.362876250283217
  0
LWPOLYLINE
  5
F0
330
1F
100
AcDbEntity
  8
Key_ Sections_Pen_No__1
  6
Continuous
100
AcDbPolyline
 90
       21
 70
   128
 43
0.0
 10
279.3709817098153
 20
2.856792989760068
 10
279.3960041946794
 20
2.897334619998379
 10
279.7179296501654
 20
3.609834620021644
 10
280.0398551056439
 20
4.322334620044908
 10
280.36178056113
 20
4.843920820383727
 10
280.683706016616
 20
5.034834620068228
 10
280.3437671969093
 20
5.558391778488067
 10
280.1354338635735
 20
5.859834620021617
 10
279.9271005302381
 20
5.558391778488067
 10
279.7187671969094
 20
4.734834620021631
 10
279.5104338635736
 20
3.609834620021643
 10
279.3021005302378
 20
2.484834620021656
 10
279.0937671969095
 20
1.661277461555219
 10
278.8854338635737
 20
1.359834620021613
 10
278.6771005302379
 20
1.661277461555219
 10
278.3371617105312
 20
2.184834619975059
 10
278.6590871660172
 20
2.375748419659559
 10
278.9810126215033
 20
2.897334619998379
 10
279.3029380769893
 20
3.609834620021643
 10
279.6248635324753
 20
4.322334620044908
 10
279.6498860173324
 20
4.362876250283218
  0
LWPOLYLINE
  5
F1
330
1F
100
AcDbEntity
  8
Key_ Sections_Pen_No__1
  6
Continuous
100
AcDbPolyline
 90
       21
 70
   128
 43
0.0
 10
281.8709817098152
 20
2.85679298976007
 10
281.8960041946793
 20
2.897334619998381
 10
282.2179296501654
 20
3.609834620021645
 10
282.5398551056439
 20
4.322334620044909
 10
282.8617805611299
 20
4.843920820383729
 10
283.183706016616
 20
5.034834620068229
 10
282.8437671969093
 20
5.558391778488069
 10
282.6354338635739
 20
5.859834620021619
 10
282.4271005302381
 20
5.558391778488069
 10
282.2187671969094
 20
4.734834620021632
 10
282.0104338635736
 20
3.609834620021645
 10
281.8021005302377
 20
2.484834620021658
 10
281.5937671969095
 20
1.661277461555221
 10
281.3854338635737
 20
1.359834620021615
 10
281.1771005302379
 20
1.66127746155522
 10
280.8371617105311
 20
2.184834619975061
 10
281.1590871660172
 20
2.375748419659561
 10
281.4810126215032
 20
2.89733461999838
 10
281.8029380769893
 20
3.609834620021645
 10
282.1248635324753
 20
4.322334620044909
 10
282.1498860173323
 20
4.36287625028322
  0
LWPOLYLINE
  5
F2
330
1F
100
AcDbEntity
  8
Key_ Sections_Pen_No__1
  6
Hidden Line
100
AcDbPolyline
 90
        3
 70
   128
 43
0.0
 10
287.7104338639422
 20
-245.2846930546089
 10
287.7104338639421
 20
29.6098346200089
 10
197.4496037113531
 20
29.60983462000885
  0
LWPOLYLINE
  5
F3
330
1F
100
AcDbEntity
  8
Key_ Sections_Pen_No__1
  6
Continuous
100
AcDbPolyline
 90
        8
 70
   129
 43
0.0
 10
196.710433863942
 20
25.6098346200084
 10
196.710433863942
 20
-13.39016537999158
 42
0.4142135623730953
 10
199.7104338639421
 20
-16.39016537999158
 10
283.7104338639422
 20
-16.39016537999109
 42
0.414213562373095
 10
286.7104338639423
 20
-13.39016537999108
 10
286.7104338639422
 20
25.60983462000846
 42
0.414213562373095
 10
283.7104338639421
 20
28.60983462000846
 10
199.7104338639421
 20
28.60983462000841
 42
0.414213562373095
  0
LWPOLYLINE
  5
F4
330
1F
100
AcDbEntity
  8
Key_ Sections_Pen_No__1
  6
Continuous
100
AcDbPolyline
 90
        7
 70
   128
 43
0.0
 10
288.7104338639368
 20
-244.2282648227079
 10
288.7104338639368
 20
-23.63458425963535
 10
293.8736369794096
 20
-18.54390556559013
 10
293.8275015549729
 20
14.56023237318433
 10
307.7104338639364
 20
14.7196764000381
 10
308.7104338639368
 20
13.44412418520797
 10
308.7104338639368
 20
-242.5432142512869
  0
LWPOLYLINE
  5
F5
330
1F
100
AcDbEntity
  8
Key_ Sections_Pen_No__1
  6
Continuous
100
AcDbPolyline
 90
        4
 70
   128
 43
0.0
 10
295.3451092177149
 20
30.03565824890839
 10
295.3456456595179
 20
30.00504567588078
 10
295.3461783760306
 20
29.97445172930466
 10
295.3467110925433
 20
29.94388572240578
  0
LWPOLYLINE
  5
F6
330
1F
100
AcDbEntity
  8
Key_ Sections_Pen_No__1
  6
Continuous
100
AcDbPolyline
 90
       25
 70
   129
 43
0.0
 10
345.0766539313304
 20
64.26022310225787
 10
344.5266539313309
 20
64.26022310225787
 10
344.5266539313309
 20
67.8102231022571
 10
344.6766470953849
 20
67.8102231022571
 42
0.414213562374094
 10
345.1766539312836
 20
68.31022993815449
 10
345.1766539312836
 20
68.67617161636186
 42
0.3222824919740567
 10
344.8356960764437
 20
69.15020283480938
 42
0.0594186347937949
 10
340.6618795012196
 20
70.01807161250477
 42
0.4660174091873958
 10
340.4453994432618
 20
69.80138499015736
 10
340.5442775855473
 20
68.67120265223735
 42
0.3105082534628371
 10
340.6883890540019
 20
68.49638146159913
 10
340.8819286429651
 20
68.44088487750248
 42
-0.3345953195019857
 10
342.3306539313308
 20
66.51836148562617
 10
342.3306539313308
 20
65.06022310225713
 10
340.6043609814943
 20
65.68854235162112
 42
0.8390996311772196
 10
340.25967826794
 20
65.09153437925445
 10
342.3306539313308
 20
63.35377946392629
 10
342.3306539313312
 20
61.42214053311539
 10
340.6043609814947
 20
62.05045978247958
 42
0.8390996311772196
 10
340.2596782679404
 20
61.45345181011285
 10
342.3306539313312
 20
59.71569689478444
 10
343.8562948903242
 20
58.31653366266714
 42
0.6526623844698686
 10
344.5266539313309
 20
58.61133188000583
 10
344.5266539313309
 20
62.80606364437874
 10
345.2803496938474
 20
63.86528160946619
 42
0.6094093647963478
  0
LWPOLYLINE
  5
F7
330
1F
100
AcDbEntity
  8
Key_ Sections_Pen_No__1
  6
Continuous
100
AcDbPolyline
 90
       10
 70
   129
 43
0.0
 10
219.5217684772248
 20
44.14253063078753
 42
0.2475267649991796
 10
219.7167452130952
 20
48.30748856009002
 42
0.331135080274166
 10
219.2086460026211
 20
48.6205996244539
 10
216.0639413033606
 20
48.34547361313049
 42
0.331135080274166
 10
215.6179324273205
 20
47.94888890741775
 42
0.2475267649991796
 10
216.5331843829498
 20
43.8810634025432
 10
222.522566571925
 20
-24.57788827831438
 42
-0.1245641564323093
 10
223.9738899170458
 20
-27.22058864310235
 10
224.507922663705
 20
-27.17386683181784
 42
-0.1012549879648114
 10
225.4104635955327
 20
-23.16556256613701
  0
LWPOLYLINE
  5
F8
330
1F
100
AcDbEntity
  8
0_Pen_No__1
  6
Continuous
100
AcDbPolyline
 90
        2
 70
   128
 43
0.0
 10
309.6179518740562
 20
-9.223759112664684
 10
315.7701012492632
 20
20.37649045529588
  0
LWPOLYLINE
  5
F9
330
1F
100
AcDbEntity
  8
0_Pen_No__1
  6
Continuous
100
AcDbPolyline
 90
        2
 70
   128
 43
0.0
 10
319.2138074924611
 20
-9.223759112664657
 10
309.6179518740562
 20
20.37649045529568
  0
ARC
  5
FA
330
1F
100
AcDbEntity
  8
Key_ Sections_Pen_No__1
  6
Continuous
100
AcDbCircle
 10
269.8996380847326
 20
35.5551202404223
 30
0.0
 40
33.59221394482859
100
AcDbArc
 50
260.2462789856985
 51
263.1131558285354
  0
ARC
  5
FB
330
1F
100
AcDbEntity
  8
Key_ Sections_Pen_No__1
  6
Continuous
100
AcDbCircle
 10
269.8996380847327
 20
-28.33545100037903
 30
0.0
 40
33.59221394482859
100
AcDbArc
 50
103.4512120739295
 51
108.0154942991953
  0
ARC
  5
FC
330
1F
100
AcDbEntity
  8
Key_ Sections_Pen_No__1
  6
Continuous
100
AcDbCircle
 10
269.8996380847327
 20
-28.33545100037903
 30
0.0
 40
33.59221394482859
100
AcDbArc
 50
96.58967615989839
 51
97.83203547072854
  0
ARC
  5
FD
330
1F
100
AcDbEntity
  8
Key_ Sections_Pen_No__1
  6
Continuous
100
AcDbCircle
 10
269.8996380847326
 20
35.5551202404223
 30
0.0
 40
33.59221394482859
100
AcDbArc
 50
256.1981112144517
 51
259.2093866424608
  0
ARC
  5
FE
330
1F
100
AcDbEntity
  8
Key_ Sections_Pen_No__1
  6
Continuous
100
AcDbCircle
 10
263.4404002184909
 20
3.506574490913526
 30
0.0
 40
0.9648000226301079
100
AcDbArc
 50
280.1540992305692
 51
320.8415238346157
  0
ARC
  5
FF
330
1F
100
AcDbEntity
  8
Key_ Sections_Pen_No__1
  6
Continuous
100
AcDbCircle
 10
269.8996380847327
 20
-28.33545100037903
 30
0.0
 40
33.59221394482859
100
AcDbArc
 50
98.81749547329488
 51
102.4145692959775
  0
ARC
  5
100
330
1F
100
AcDbEntity
  8
Key_ Sections_Pen_No__1
  6
Continuous
100
AcDbCircle
 10
269.8996380847326
 20
35.5551202404223
 30
0.0
 40
33.59221394482859
100
AcDbArc
 50
251.9845057008047
 51
255.7001018302727
  0
ARC
  5
101
330
1F
100
AcDbEntity
  8
Key_ Sections_Pen_No__1
  6
Continuous
100
AcDbCircle
 10
296.846483136345
 20
29.97006523728732
 30
0.0
 40
1.500000000000057
100
AcDbArc
 50
181.0000000000021
 51
267.000000000006
  0
DIMENSION
  5
10E
330
1F
100
AcDbEntity
  8
Key_ Sections
  6
Continuous
100
AcDbDimension
  2
*D3
 10
372.8857721309171
 20
21.87322755727977
 30
0.0
 11
369.3857721532688
 21
17.741531025959
 31
0.0
 70
   160
  1
<>
 71
     5
 42
-1.0
 53
90.0
  3
GENERATED_STYLE__1
100
AcDbAlignedDimension
 13
346.046027610533
 23
13.60983462000826
 33
0.0
 14
346.2531418342126
 24
21.87322755727977
 34
0.0
 50
90.0
100
AcDbRotatedDimension
  0
WIPEOUT
  5
116
330
1F
100
AcDbEntity
  8
Key_ Sections_Pen_No__1
  6
Wipeout_Contour
 48
1718.075642669335
 92
      296
310
28010000060000000C0000000E000000120000000C00000016000000000000C20C00000014000000010000006C00000007000000040000004E55442824047740888DCFF3DAE404400000000000000000148FC925B8AA7E40888DCFF3DAE404400000000000000000148FC925B8AA7E40845CB738A67D22C000000000000000
310
004E55442824047740845CB738A67D22C000000000000000000C0000000E000000070000008400000006000000050000004E55442824047740888DCFF3DAE404400000000000000000148FC925B8AA7E40888DCFF3DAE404400000000000000000148FC925B8AA7E40845CB738A67D22C000000000000000004E5544282404
310
7740845CB738A67D22C000000000000000004E55442824047740888DCFF3DAE404400000000000000000
100
AcDbWipeout
 90
        0
 10
368.2588274640337
 20
-9.245408794768316
 30
0.0
 11
122.4111304477814
 21
0.0
 31
0.0
 12
0.0
 22
11.85715453830194
 32
0.0
 13
1.0
 23
1.0
340
0
 70
    15
280
     1
281
    50
282
    50
283
     0
360
0
 71
     2
 91
        5
 14
-0.5
 24
-0.5
 14
0.5
 24
-0.5
 14
0.5
 24
0.5
 14
-0.5
 24
0.5
 14
-0.5
 24
-0.5
  0
MTEXT
  5
118
102
{ACAD_REACTORS
330
119
102
}
330
1F
100
AcDbEntity
  8
Key_ Sections_Pen_No__1
  6
Continuous
100
AcDbMText
 10
370.2588274640337
 20
-3.711682827894952
 30
0.0
 40
5.000000000000001
 41
118.4111304477813
 71
     4
 72
     1
  1
{Continuous H3.1 timber packer to suit}
  7
GENERATED_STYLE_1
 73
     1
 44
1.0
  0
LEADER
  5
119
330
1F
100
AcDbEntity
  8
Key_ Sections_Pen_No__1
  6
Continuous
100
AcDbLeader
  3
GENERATED_STYLE__2
 72
     1
 73
     0
 74
     0
 40
6.470000000000001
 41
116.355
 76
     3
 10
314.6878240833968
 20
6.47410828747433
 30
0.0
 10
337.0570363077463
 20
-0.5123627785893021
 30
0.0
 10
370.1688274640338
 20
-3.711682827894952
 30
0.0
340
118
  0
WIPEOUT
  5
120
330
1F
100
AcDbEntity
  8
Key_ Sections_Pen_No__1
  6
Wipeout_Contour
 48
1605.019179321254
 92
      296
310
28010000060000000C0000000E000000120000000C00000016000000000000C20C00000014000000010000006C0000000700000004000000A90A6E08D41A7740CCF6E00D1A4F54C000000000000000006F0DE68CA3D87940CCF6E00D1A4F54C000000000000000006F0DE68CA3D87940C95E96ACF54557C000000000000000
310
00A90A6E08D41A7740C95E96ACF54557C000000000000000000C0000000E00000007000000840000000600000005000000A90A6E08D41A7740CCF6E00D1A4F54C000000000000000006F0DE68CA3D87940CCF6E00D1A4F54C000000000000000006F0DE68CA3D87940C95E96ACF54557C00000000000000000A90A6E08D41A
310
7740C95E96ACF54557C00000000000000000A90A6E08D41A7740CCF6E00D1A4F54C00000000000000000
100
AcDbWipeout
 90
        0
 10
369.6767658518316
 20
-93.09311976132007
 30
0.0
 11
43.86316344145996
 21
0.0
 31
0.0
 12
0.0
 22
11.85715453830194
 32
0.0
 13
1.0
 23
1.0
340
0
 70
    15
280
     1
281
    50
282
    50
283
     0
360
0
 71
     2
 91
        5
 14
-0.5
 24
-0.4999999999999994
 14
0.5
 24
-0.4999999999999994
 14
0.5
 24
0.5000000000000006
 14
-0.5
 24
0.5000000000000006
 14
-0.5
 24
-0.4999999999999994
  0
MTEXT
  5
121
102
{ACAD_REACTORS
330
122
102
}
330
1F
100
AcDbEntity
  8
Key_ Sections_Pen_No__1
  6
Continuous
100
AcDbMText
 10
371.6767658518316
 20
-87.59882236587526
 30
0.0
 40
5.000000000000001
 41
39.86316344145999
 71
     4
 72
     1
  1
{Cavity batten}
  7
GENERATED_STYLE_1
 73
     1
 44
1.0
  0
LEADER
  5
122
330
1F
100
AcDbEntity
  8
Key_ Sections_Pen_No__1
  6
Continuous
100
AcDbLeader
  3
GENERATED_STYLE__2
 72
     1
 73
     0
 74
     0
 40
6.550000000000001
 41
39.90000000000001
 76
     2
 10
307.3374375082253
 20
-87.16454249216909
 30
0.0
 10
371.5867658518316
 20
-87.59882236587526
 30
0.0
340
121
  0
WIPEOUT
  5
123
330
1F
100
AcDbEntity
  8
Key_ Sections_Pen_No__1
  6
Wipeout_Contour
 48
1714.497128023403
 92
      296
310
28010000060000000C0000000E000000120000000C00000016000000000000C20C00000014000000010000006C0000000700000004000000A90A6E08D41A7740D26CD12F283B5BC00000000000000000812D020FE7577C40D26CD12F283B5BC00000000000000000812D020FE7577C40D2D0DF87121360C000000000000000
310
00A90A6E08D41A7740D2D0DF87121360C000000000000000000C0000000E00000007000000840000000600000005000000A90A6E08D41A7740D26CD12F283B5BC00000000000000000812D020FE7577C40D26CD12F283B5BC00000000000000000812D020FE7577C40D2D0DF87121360C00000000000000000A90A6E08D41A
310
7740D2D0DF87121360C00000000000000000A90A6E08D41A7740D26CD12F283B5BC00000000000000000
100
AcDbWipeout
 90
        0
 10
369.6767658518316
 20
-128.5960120555306
 30
0.0
 11
83.81714494577091
 21
0.0
 31
0.0
 12
0.0
 22
19.67168424856507
 32
0.0
 13
1.0
 23
1.0
340
0
 70
    15
280
     1
281
    50
282
    50
283
     0
360
0
 71
     2
 91
        5
 14
-0.5
 24
-0.5
 14
0.5
 24
-0.5
 14
0.5
 24
0.5
 14
-0.5
 24
0.5
 14
-0.5
 24
-0.5
  0
MTEXT
  5
124
102
{ACAD_REACTORS
330
125
102
}
330
1F
100
AcDbEntity
  8
Key_ Sections_Pen_No__1
  6
Continuous
100
AcDbMText
 10
371.6767658518316
 20
-118.5138739193661
 30
0.0
 40
5.0
 41
79.81714494577093
 71
     4
 72
     1
  1
{Palliside Traditional Bevel \PBack weatherboard }
  7
GENERATED_STYLE_1
 73
     1
 44
0.9401708814814688
  0
LEADER
  5
125
330
1F
100
AcDbEntity
  8
Key_ Sections_Pen_No__1
  6
Continuous
100
AcDbLeader
  3
GENERATED_STYLE__2
 72
     1
 73
     0
 74
     0
 40
12.91475734567891
 41
78.86999999999999
 76
     2
 10
324.6714934061818
 20
-118.760169931248
 30
0.0
 10
371.5867658518316
 20
-118.5138739193661
 30
0.0
340
124
  0
WIPEOUT
  5
126
330
1F
100
AcDbEntity
  8
Key_ Sections_Pen_No__1
  6
Wipeout_Contour
 48
1655.455769554122
 92
      296
310
28010000060000000C0000000E000000120000000C00000016000000000000C20C00000014000000010000006C00000007000000040000001A44FDBC030777409EEFDC37764D5040000000000000000027FAB0D463387C409EEFDC37764D5040000000000000000027FAB0D463387C404A3FE4F47DBF464000000000000000
310
001A44FDBC030777404A3FE4F47DBF464000000000000000000C0000000E000000070000008400000006000000050000001A44FDBC030777409EEFDC37764D5040000000000000000027FAB0D463387C409EEFDC37764D5040000000000000000027FAB0D463387C404A3FE4F47DBF464000000000000000001A44FDBC0307
310
77404A3FE4F47DBF464000000000000000001A44FDBC030777409EEFDC37764D50400000000000000000
100
AcDbWipeout
 90
        0
 10
368.4384126561359
 20
45.49603139061817
 30
0.0
 11
83.08596010398543
 21
0.0
 31
0.0
 12
0.0
 22
19.71430907660387
 32
0.0
 13
1.0
 23
1.0
340
0
 70
    15
280
     1
281
    50
282
    50
283
     0
360
0
 71
     2
 91
        5
 14
-0.4999999999999997
 24
-0.5
 14
0.5000000000000003
 24
-0.5
 14
0.5000000000000003
 24
0.5
 14
-0.4999999999999997
 24
0.5
 14
-0.4999999999999997
 24
-0.5
  0
MTEXT
  5
127
102
{ACAD_REACTORS
330
128
102
}
330
1F
100
AcDbEntity
  8
Key_ Sections_Pen_No__1
  6
Continuous
100
AcDbMText
 10
370.4384126561359
 20
54.91891189579347
 30
0.0
 40
5.000000000000001
 41
79.08596010398541
 71
     4
 72
     1
  1
{Window base scriber\Pensuring gap of max 4mm}
  7
GENERATED_STYLE_1
 73
     1
 44
0.5131474599200734
  0
LEADER
  5
128
330
1F
100
AcDbEntity
  8
Key_ Sections_Pen_No__1
  6
Continuous
100
AcDbLeader
  3
GENERATED_STYLE__2
 72
     1
 73
     0
 74
     0
 40
13.59607519942777
 41
64.78000000000002
 76
     3
 10
346.3115399955462
 20
23.93852753977241
 30
0.0
 10
358.780724313289
 20
51.93870354641562
 30
0.0
 10
370.348412656136
 20
54.91891189579347
 30
0.0
340
127
  0
WIPEOUT
  5
129
330
1F
100
AcDbEntity
  8
Key_ Sections_Pen_No__1
  6
Wipeout_Contour
 48
1649.529815885405
 92
      296
310
28010000060000000C0000000E000000120000000C00000016000000000000C20C00000014000000010000006C00000007000000040000003C1D2C0F060B774062F7BF57760E28C0000000000000000023FC997B41737C4062F7BF57760E28C0000000000000000023FC997B41737C40A39BB5A6A9E237C000000000000000
310
003C1D2C0F060B7740A39BB5A6A9E237C000000000000000000C0000000E000000070000008400000006000000050000003C1D2C0F060B774062F7BF57760E28C0000000000000000023FC997B41737C4062F7BF57760E28C0000000000000000023FC997B41737C40A39BB5A6A9E237C000000000000000003C1D2C0F060B
310
7740A39BB5A6A9E237C000000000000000003C1D2C0F060B774062F7BF57760E28C00000000000000000
100
AcDbWipeout
 90
        0
 10
368.6889793132029
 20
-23.88540117200649
 30
0.0
 11
86.51450770300147
 21
0.0
 31
0.0
 12
0.0
 22
11.85715453830193
 32
0.0
 13
1.0
 23
1.0
340
0
 70
    15
280
     1
281
    50
282
    50
283
     0
360
0
 71
     2
 91
        5
 14
-0.5000000000000003
 24
-0.5
 14
0.4999999999999997
 24
-0.5
 14
0.4999999999999997
 24
0.5
 14
-0.5000000000000003
 24
0.5
 14
-0.5000000000000003
 24
-0.5
  0
MTEXT
  5
12A
102
{ACAD_REACTORS
330
12B
102
}
330
1F
100
AcDbEntity
  8
Key_ Sections_Pen_No__1
  6
Continuous
100
AcDbMText
 10
370.6889793132029
 20
-18.3911037765617
 30
0.0
 40
5.0
 41
82.51450770300147
 71
     4
 72
     1
  1
{Screw fixing below opening}
  7
GENERATED_STYLE_1
 73
     1
 44
1.0
  0
LEADER
  5
12B
330
1F
100
AcDbEntity
  8
Key_ Sections_Pen_No__1
  6
Continuous
100
AcDbLeader
  3
GENERATED_STYLE__2
 72
     1
 73
     0
 74
     0
 40
14.88333333333333
 41
57.415
 76
     3
 10
322.1065509130047
 20
-1.206133437625275
 30
0.0
 10
338.554068373498
 20
-12.86770883113574
 30
0.0
 10
370.598979313203
 20
-18.3911037765617
 30
0.0
340
12A
  0
WIPEOUT
  5
12C
330
1F
100
AcDbEntity
  8
Key_ Sections_Pen_No__1
  6
Wipeout_Contour
 48
1765.669434054019
 92
      296
310
28010000060000000C0000000E000000120000000C00000016000000000000C20C00000014000000010000006C00000007000000040000001A44FDBC0307774041FDB80B95BC5C400000000000000000D2A18881619F7E4041FDB80B95BC5C400000000000000000D2A18881619F7E4008AED3BB19DC554000000000000000
310
001A44FDBC0307774008AED3BB19DC554000000000000000000C0000000E000000070000008400000006000000050000001A44FDBC0307774041FDB80B95BC5C400000000000000000D2A18881619F7E4041FDB80B95BC5C400000000000000000D2A18881619F7E4008AED3BB19DC554000000000000000001A44FDBC0307
310
774008AED3BB19DC554000000000000000001A44FDBC0307774041FDB80B95BC5C400000000000000000
100
AcDbWipeout
 90
        0
 10
368.4384126561359
 20
87.43907066032273
 30
0.0
 11
121.5228925174702
 21
0.0
 31
0.0
 12
0.0
 22
27.50752637284758
 32
0.0
 13
1.0
 23
1.0
340
0
 70
    15
280
     1
281
    50
282
    50
283
     0
360
0
 71
     2
 91
        5
 14
-0.5
 24
-0.5000000000000002
 14
0.5
 24
-0.5000000000000002
 14
0.5
 24
0.4999999999999997
 14
-0.5
 24
0.4999999999999997
 14
-0.5
 24
-0.5000000000000002
  0
MTEXT
  5
12D
102
{ACAD_REACTORS
330
12E
102
}
330
1F
100
AcDbEntity
  8
Key_ Sections_Pen_No__1
  6
Continuous
100
AcDbMText
 10
370.4384126561359
 20
101.4391350074265
 30
0.0
 40
5.000000000000001
 41
117.5228925174702
 71
     4
 72
     1
  1
{SmartFit joinery installed in accordance with the instructions of Fletcher windows and doors}
  7
GENERATED_STYLE_1
 73
     1
 44
0.9307424241384898
  0
LEADER
  5
12E
330
1F
100
AcDbEntity
  8
Key_ Sections_Pen_No__1
  6
Continuous
100
AcDbLeader
  3
GENERATED_STYLE__2
 72
     1
 73
     0
 74
     0
 40
20.75059994774504
 41
107.05
 76
     3
 10
346.8104338639429
 20
65.79589447046048
 30
0.0
 10
360.7161448619291
 20
98.49146755381133
 30
0.0
 10
370.348412656136
 20
101.4391350074265
 30
0.0
340
12D
  0
WIPEOUT
  5
12F
330
1F
100
AcDbEntity
  8
Key_ Sections_Pen_No__1
  6
Wipeout_Contour
 48
1674.458804857179
 92
      296
310
28010000060000000C0000000E000000120000000C00000016000000000000C20C00000014000000010000006C0000000700000004000000A90A6E08D41A7740936B3F13B1C061C00000000000000000C25E07C9FAD47940936B3F13B1C061C00000000000000000C25E07C9FAD47940921F9AE21E3C63C000000000000000
310
00A90A6E08D41A7740921F9AE21E3C63C000000000000000000C0000000E00000007000000840000000600000005000000A90A6E08D41A7740936B3F13B1C061C00000000000000000C25E07C9FAD47940936B3F13B1C061C00000000000000000C25E07C9FAD47940921F9AE21E3C63C00000000000000000A90A6E08D41A
310
7740921F9AE21E3C63C00000000000000000A90A6E08D41A7740936B3F13B1C061C00000000000000000
100
AcDbWipeout
 90
        0
 10
369.6767658518316
 20
-153.8787701616498
 30
0.0
 11
43.63446102041195
 21
0.0
 31
0.0
 12
0.0
 22
11.85715453830196
 32
0.0
 13
1.0
 23
1.0
340
0
 70
    15
280
     1
281
    50
282
    50
283
     0
360
0
 71
     2
 91
        5
 14
-0.5000000000000007
 24
-0.4999999999999988
 14
0.4999999999999993
 24
-0.4999999999999988
 14
0.4999999999999993
 24
0.5000000000000012
 14
-0.5000000000000007
 24
0.5000000000000012
 14
-0.5000000000000007
 24
-0.4999999999999988
  0
MTEXT
  5
130
102
{ACAD_REACTORS
330
131
102
}
330
1F
100
AcDbEntity
  8
Key_ Sections_Pen_No__1
  6
Continuous
100
AcDbMText
 10
371.6767658518316
 20
-148.384472766205
 30
0.0
 40
5.0
 41
39.63446102041193
 71
     4
 72
     1
  1
{wall underlay}
  7
GENERATED_STYLE_1
 73
     1
 44
1.0
  0
LEADER
  5
131
330
1F
100
AcDbEntity
  8
Key_ Sections_Pen_No__1
  6
Continuous
100
AcDbLeader
  3
GENERATED_STYLE__2
 72
     1
 73
     0
 74
     0
 40
14.79833333333333
 41
26.26
 76
     2
 10
287.7104338639422
 20
-147.9501928924988
 30
0.0
 10
371.5867658518316
 20
-148.384472766205
 30
0.0
340
130
  0
MTEXT
  5
132
330
1F
100
AcDbEntity
  8
Key_ Sections_Pen_No__1
  6
Continuous
100
AcDbMText
 10
303.3022048150636
 20
58.52807615275886
 30
0.0
 40
3.0
 41
0.0
 71
     9
 72
     1
  1
{335504}
  7
GENERATED_STYLE_1
 73
     1
 44
1.0
  0
MTEXT
  5
133
330
1F
100
AcDbEntity
  8
Key_ Sections_Pen_No__1
  6
Continuous
100
AcDbMText
 10
377.455334399721
 20
17.89916866631271
 30
0.0
 40
5.0
 41
0.0
 71
     4
 72
     1
  1
{min cover}
  7
GENERATED_STYLE_1
 73
     1
 44
1.0
  0
INSERT
  5
13D
330
1F
100
AcDbEntity
  8
Key_ Sections
  6
Continuous
 62
   255
370
    30
100
AcDbBlockReference
  2
Cadimage Break Line[1]
 10
169.0176118861952
 20
165.7001597158774
 30
0.0
  0
INSERT
  5
147
330
1F
100
AcDbEntity
  8
Key_ Sections
  6
Continuous
 62
   255
370
    30
100
AcDbBlockReference
  2
Cadimage Break Line[2]
 10
168.5354643307584
 20
-199.4957424888204
 30
0.0
  0
ENDSEC
  0
SECTION
  2
OBJECTS
  0
DICTIONARY
  5
C
330
0
100
AcDbDictionary
281
     1
  3
ACAD_GROUP
350
D
  3
ACAD_LAYOUT
350
1A
  3
ACAD_MATERIAL
350
3B
  3
ACAD_MLEADERSTYLE
350
198
  3
ACAD_MLINESTYLE
350
17
  3
ACAD_PLOTSETTINGS
350
19
  3
ACAD_PLOTSTYLENAME
350
E
  3
ACAD_SCALELIST
350
14B
  3
ACAD_TABLESTYLE
350
197
  3
ACAD_VISUALSTYLE
350
2A
  3
AcDbVariableDictionary
350
16F
  3
WATERMARKS
350
16D
  0
DICTIONARY
  5
D
102
{ACAD_REACTORS
330
C
102
}
330
C
100
AcDbDictionary
281
     1
  0
DICTIONARY
  5
1A
102
{ACAD_REACTORS
330
C
102
}
330
C
100
AcDbDictionary
281
     1
  3
Layout1
350
1E
  3
Layout2
350
26
  3
Model
350
22
  0
DICTIONARY
  5
3B
102
{ACAD_REACTORS
330
C
102
}
330
C
100
AcDbDictionary
281
     1
  3
ByBlock
350
3D
  3
ByLayer
350
3C
  3
Global
350
3E
  0
DICTIONARY
  5
198
102
{ACAD_REACTORS
330
C
102
}
330
C
100
AcDbDictionary
281
     1
  0
DICTIONARY
  5
17
102
{ACAD_REACTORS
330
C
102
}
330
C
100
AcDbDictionary
281
     1
  3
Standard
350
18
  0
DICTIONARY
  5
19
102
{ACAD_REACTORS
330
C
102
}
330
C
100
AcDbDictionary
281
     1
  0
ACDBDICTIONARYWDFLT
  5
E
102
{ACAD_REACTORS
330
C
102
}
330
C
100
AcDbDictionary
281
     1
  3
Normal
350
F
100
AcDbDictionaryWithDefault
340
F
  0
DICTIONARY
  5
14B
102
{ACAD_REACTORS
330
C
102
}
330
C
100
AcDbDictionary
281
     1
  3
A0
350
14C
  3
A1
350
14D
  3
A2
350
14E
  3
A3
350
14F
  3
A4
350
150
  3
A5
350
151
  3
A6
350
152
  3
A7
350
153
  3
A8
350
154
  3
A9
350
155
  3
B0
350
156
  3
B1
350
157
  3
B2
350
158
  3
B3
350
159
  3
B4
350
15A
  3
B5
350
15B
  3
B6
350
15C
  3
B7
350
15D
  3
B8
350
15E
  3
B9
350
15F
  3
C0
350
160
  3
C1
350
161
  3
C2
350
162
  3
C3
350
163
  3
C4
350
164
  3
C5
350
165
  3
C6
350
166
  3
C7
350
167
  3
C8
350
168
  3
C9
350
169
  3
D0
350
16A
  3
D1
350
16B
  3
D2
350
16C
  0
DICTIONARY
  5
197
102
{ACAD_REACTORS
330
C
102
}
330
C
100
AcDbDictionary
281
     1
  0
DICTIONARY
  5
2A
102
{ACAD_REACTORS
330
C
102
}
330
C
100
AcDbDictionary
281
     1
  3
2dWireframe
350
2F
  3
3D Hidden
350
31
  3
3dWireframe
350
30
  3
Basic
350
32
  3
Brighten
350
36
  3
ColorChange
350
3A
  3
Conceptual
350
34
  3
Dim
350
35
  3
Facepattern
350
39
  3
Flat
350
2B
  3
FlatWithEdges
350
2C
  3
Gouraud
350
2D
  3
GouraudWithEdges
350
2E
  3
Linepattern
350
38
  3
Realistic
350
33
  3
Thicken
350
37
  0
DICTIONARY
  5
16F
102
{ACAD_REACTORS
330
C
102
}
330
C
100
AcDbDictionary
281
     1
  3
CANNOSCALE
350
170
  3
XCLIPFRAME
350
199
  0
DICTIONARY
  5
16D
102
{ACAD_REACTORS
330
C
102
}
330
C
100
AcDbDictionary
281
     1
  3
AC_WATERMARK
350
16E
  0
LAYOUT
  5
1E
102
{ACAD_REACTORS
330
1A
102
}
330
1A
100
AcDbPlotSettings
  1

  2
none_device
  4

  6

 40
0.0
 41
0.0
 42
0.0
 43
0.0
 44
0.0
 45
0.0
 46
0.0
 47
0.0
 48
0.0
 49
0.0
140
0.0
141
0.0
142
1.0
143
1.0
 70
   688
 72
     0
 73
     0
 74
     5
  7

 75
    16
 76
     0
 77
     2
 78
   300
147
1.0
148
0.0
149
0.0
100
AcDbLayout
  1
Layout1
 70
     1
 71
     1
 10
0.0
 20
0.0
 11
12.0
 21
9.0
 12
0.0
 22
0.0
 32
0.0
 14
1.000000000000000E+20
 24
1.000000000000000E+20
 34
1.000000000000000E+20
 15
-1.000000000000000E+20
 25
-1.000000000000000E+20
 35
-1.000000000000000E+20
146
0.0
 13
0.0
 23
0.0
 33
0.0
 16
1.0
 26
0.0
 36
0.0
 17
0.0
 27
1.0
 37
0.0
 76
     0
330
1B
  0
LAYOUT
  5
26
102
{ACAD_REACTORS
330
1A
102
}
330
1A
100
AcDbPlotSettings
  1

  2
none_device
  4

  6

 40
0.0
 41
0.0
 42
0.0
 43
0.0
 44
0.0
 45
0.0
 46
0.0
 47
0.0
 48
0.0
 49
0.0
140
0.0
141
0.0
142
1.0
143
1.0
 70
   688
 72
     0
 73
     0
 74
     5
  7

 75
    16
 76
     0
 77
     2
 78
   300
147
1.0
148
0.0
149
0.0
100
AcDbLayout
  1
Layout2
 70
     1
 71
     2
 10
0.0
 20
0.0
 11
0.0
 21
0.0
 12
0.0
 22
0.0
 32
0.0
 14
0.0
 24
0.0
 34
0.0
 15
0.0
 25
0.0
 35
0.0
146
0.0
 13
0.0
 23
0.0
 33
0.0
 16
1.0
 26
0.0
 36
0.0
 17
0.0
 27
1.0
 37
0.0
 76
     0
330
23
  0
LAYOUT
  5
22
102
{ACAD_REACTORS
330
1A
102
}
330
1A
100
AcDbPlotSettings
  1

  2
none_device
  4

  6

 40
0.0
 41
0.0
 42
0.0
 43
0.0
 44
0.0
 45
0.0
 46
0.0
 47
0.0
 48
0.0
 49
0.0
140
0.0
141
0.0
142
1.0
143
1.0
 70
  1712
 72
     0
 73
     0
 74
     0
  7

 75
     0
 76
     0
 77
     2
 78
   300
147
1.0
148
0.0
149
0.0
100
AcDbLayout
  1
Model
 70
     1
 71
     0
 10
0.0
 20
0.0
 11
12.0
 21
9.0
 12
0.0
 22
0.0
 32
0.0
 14
1.000000000000000E+20
 24
1.000000000000000E+20
 34
1.000000000000000E+20
 15
-1.000000000000000E+20
 25
-1.000000000000000E+20
 35
-1.000000000000000E+20
146
0.0
 13
0.0
 23
0.0
 33
0.0
 16
1.0
 26
0.0
 36
0.0
 17
0.0
 27
1.0
 37
0.0
 76
     0
330
1F
331
29
  0
MATERIAL
  5
3D
102
{ACAD_REACTORS
330
3B
102
}
102
{ACAD_XDICTIONARY
360
193
102
}
330
3B
100
AcDbMaterial
  1
ByBlock
  0
MATERIAL
  5
3C
102
{ACAD_REACTORS
330
3B
102
}
102
{ACAD_XDICTIONARY
360
191
102
}
330
3B
100
AcDbMaterial
  1
ByLayer
  0
MATERIAL
  5
3E
102
{ACAD_REACTORS
330
3B
102
}
102
{ACAD_XDICTIONARY
360
195
102
}
330
3B
100
AcDbMaterial
  1
Global
  0
MLINESTYLE
  5
18
102
{ACAD_REACTORS
330
17
102
}
330
17
100
AcDbMlineStyle
  2
Standard
 70
     0
  3

 62
   256
 51
90.0
 52
90.0
 71
     2
 49
0.5
 62
   256
  6
BYLAYER
 49
-0.5
 62
   256
  6
BYLAYER
  0
ACDBPLACEHOLDER
  5
F
102
{ACAD_REACTORS
330
E
102
}
330
E
  0
SCALE
  5
14C
102
{ACAD_REACTORS
330
14B
102
}
330
14B
100
AcDbScale
 70
     0
300
1:1
140
1.0
141
1.0
290
     1
  0
SCALE
  5
14D
102
{ACAD_REACTORS
330
14B
102
}
330
14B
100
AcDbScale
 70
     0
300
1:2
140
1.0
141
2.0
290
     0
  0
SCALE
  5
14E
102
{ACAD_REACTORS
330
14B
102
}
330
14B
100
AcDbScale
 70
     0
300
1:4
140
1.0
141
4.0
290
     0
  0
SCALE
  5
14F
102
{ACAD_REACTORS
330
14B
102
}
330
14B
100
AcDbScale
 70
     0
300
1:5
140
1.0
141
5.0
290
     0
  0
SCALE
  5
150
102
{ACAD_REACTORS
330
14B
102
}
330
14B
100
AcDbScale
 70
     0
300
1:8
140
1.0
141
8.0
290
     0
  0
SCALE
  5
151
102
{ACAD_REACTORS
330
14B
102
}
330
14B
100
AcDbScale
 70
     0
300
1:10
140
1.0
141
10.0
290
     0
  0
SCALE
  5
152
102
{ACAD_REACTORS
330
14B
102
}
330
14B
100
AcDbScale
 70
     0
300
1:16
140
1.0
141
16.0
290
     0
  0
SCALE
  5
153
102
{ACAD_REACTORS
330
14B
102
}
330
14B
100
AcDbScale
 70
     0
300
1:20
140
1.0
141
20.0
290
     0
  0
SCALE
  5
154
102
{ACAD_REACTORS
330
14B
102
}
330
14B
100
AcDbScale
 70
     0
300
1:30
140
1.0
141
30.0
290
     0
  0
SCALE
  5
155
102
{ACAD_REACTORS
330
14B
102
}
330
14B
100
AcDbScale
 70
     0
300
1:40
140
1.0
141
40.0
290
     0
  0
SCALE
  5
156
102
{ACAD_REACTORS
330
14B
102
}
330
14B
100
AcDbScale
 70
     0
300
1:50
140
1.0
141
50.0
290
     0
  0
SCALE
  5
157
102
{ACAD_REACTORS
330
14B
102
}
330
14B
100
AcDbScale
 70
     0
300
1:100
140
1.0
141
100.0
290
     0
  0
SCALE
  5
158
102
{ACAD_REACTORS
330
14B
102
}
330
14B
100
AcDbScale
 70
     0
300
2:1
140
2.0
141
1.0
290
     0
  0
SCALE
  5
159
102
{ACAD_REACTORS
330
14B
102
}
330
14B
100
AcDbScale
 70
     0
300
4:1
140
4.0
141
1.0
290
     0
  0
SCALE
  5
15A
102
{ACAD_REACTORS
330
14B
102
}
330
14B
100
AcDbScale
 70
     0
300
8:1
140
8.0
141
1.0
290
     0
  0
SCALE
  5
15B
102
{ACAD_REACTORS
330
14B
102
}
330
14B
100
AcDbScale
 70
     0
300
10:1
140
10.0
141
1.0
290
     0
  0
SCALE
  5
15C
102
{ACAD_REACTORS
330
14B
102
}
330
14B
100
AcDbScale
 70
     0
300
100:1
140
100.0
141
1.0
290
     0
  0
SCALE
  5
15D
102
{ACAD_REACTORS
330
14B
102
}
330
14B
100
AcDbScale
 70
     0
300
1/128" = 1'-0"
140
0.0078125
141
12.0
290
     0
  0
SCALE
  5
15E
102
{ACAD_REACTORS
330
14B
102
}
330
14B
100
AcDbScale
 70
     0
300
1/64" = 1'-0"
140
0.015625
141
12.0
290
     0
  0
SCALE
  5
15F
102
{ACAD_REACTORS
330
14B
102
}
330
14B
100
AcDbScale
 70
     0
300
1/32" = 1'-0"
140
0.03125
141
12.0
290
     0
  0
SCALE
  5
160
102
{ACAD_REACTORS
330
14B
102
}
330
14B
100
AcDbScale
 70
     0
300
1/16" = 1'-0"
140
0.0625
141
12.0
290
     0
  0
SCALE
  5
161
102
{ACAD_REACTORS
330
14B
102
}
330
14B
100
AcDbScale
 70
     0
300
3/32" = 1'-0"
140
0.09375
141
12.0
290
     0
  0
SCALE
  5
162
102
{ACAD_REACTORS
330
14B
102
}
330
14B
100
AcDbScale
 70
     0
300
1/8" = 1'-0"
140
0.125
141
12.0
290
     0
  0
SCALE
  5
163
102
{ACAD_REACTORS
330
14B
102
}
330
14B
100
AcDbScale
 70
     0
300
3/16" = 1'-0"
140
0.1875
141
12.0
290
     0
  0
SCALE
  5
164
102
{ACAD_REACTORS
330
14B
102
}
330
14B
100
AcDbScale
 70
     0
300
1/4" = 1'-0"
140
0.25
141
12.0
290
     0
  0
SCALE
  5
165
102
{ACAD_REACTORS
330
14B
102
}
330
14B
100
AcDbScale
 70
     0
300
3/8" = 1'-0"
140
0.375
141
12.0
290
     0
  0
SCALE
  5
166
102
{ACAD_REACTORS
330
14B
102
}
330
14B
100
AcDbScale
 70
     0
300
1/2" = 1'-0"
140
0.5
141
12.0
290
     0
  0
SCALE
  5
167
102
{ACAD_REACTORS
330
14B
102
}
330
14B
100
AcDbScale
 70
     0
300
3/4" = 1'-0"
140
0.75
141
12.0
290
     0
  0
SCALE
  5
168
102
{ACAD_REACTORS
330
14B
102
}
330
14B
100
AcDbScale
 70
     0
300
1" = 1'-0"
140
1.0
141
12.0
290
     0
  0
SCALE
  5
169
102
{ACAD_REACTORS
330
14B
102
}
330
14B
100
AcDbScale
 70
     0
300
1-1/2" = 1'-0"
140
1.5
141
12.0
290
     0
  0
SCALE
  5
16A
102
{ACAD_REACTORS
330
14B
102
}
330
14B
100
AcDbScale
 70
     0
300
3" = 1'-0"
140
3.0
141
12.0
290
     0
  0
SCALE
  5
16B
102
{ACAD_REACTORS
330
14B
102
}
330
14B
100
AcDbScale
 70
     0
300
6" = 1'-0"
140
6.0
141
12.0
290
     0
  0
SCALE
  5
16C
102
{ACAD_REACTORS
330
14B
102
}
330
14B
100
AcDbScale
 70
     0
300
1'-0" = 1'-0"
140
12.0
141
12.0
290
     0
  0
VISUALSTYLE
  5
2F
102
{ACAD_REACTORS
330
2A
102
}
102
{ACAD_XDICTIONARY
360
179
102
}
330
2A
100
AcDbVisualStyle
  2
2dWireframe
 70
     4
 71
     0
 72
     2
 73
     0
 90
        0
 40
-0.6
 41
-30.0
 62
     5
 63
     7
421
 16777215
 74
     1
 91
        4
 64
     7
 65
   257
 75
     1
175
     1
 42
1.0
 92
        0
 66
   257
 43
1.0
 76
     1
 77
     6
 78
     2
 67
     7
 79
     5
170
     0
171
     0
290
     0
174
     0
 93
        1
 44
0.0
173
     0
291
     0
 45
0.0
1001
ACAD
1000
AcDbSavedByObjectVersion
1070
     0
  0
VISUALSTYLE
  5
31
102
{ACAD_REACTORS
330
2A
102
}
102
{ACAD_XDICTIONARY
360
17D
102
}
330
2A
100
AcDbVisualStyle
  2
3D Hidden
 70
     6
 71
     1
 72
     2
 73
     2
 90
        0
 40
-0.6
 41
-30.0
 62
     5
 63
     7
421
 16777215
 74
     2
 91
        2
 64
     7
 65
   257
 75
     2
175
     1
 42
40.0
 92
        0
 66
   257
 43
1.0
 76
     1
 77
     6
 78
     2
 67
     7
 79
     3
170
     0
171
     0
290
     0
174
     0
 93
        1
 44
0.0
173
     0
291
     0
 45
0.0
1001
ACAD
1000
AcDbSavedByObjectVersion
1070
     0
  0
VISUALSTYLE
  5
30
102
{ACAD_REACTORS
330
2A
102
}
102
{ACAD_XDICTIONARY
360
17B
102
}
330
2A
100
AcDbVisualStyle
  2
3dWireframe
 70
     5
 71
     0
 72
     2
 73
     0
 90
        0
 40
-0.6
 41
-30.0
 62
     5
 63
     7
421
 16777215
 74
     1
 91
        4
 64
     7
 65
   257
 75
     1
175
     1
 42
1.0
 92
        0
 66
   257
 43
1.0
 76
     1
 77
     6
 78
     2
 67
     7
 79
     5
170
     0
171
     0
290
     0
174
     0
 93
        1
 44
0.0
173
     0
291
     0
 45
0.0
1001
ACAD
1000
AcDbSavedByObjectVersion
1070
     0
  0
VISUALSTYLE
  5
32
102
{ACAD_REACTORS
330
2A
102
}
102
{ACAD_XDICTIONARY
360
17F
102
}
330
2A
100
AcDbVisualStyle
  2
Basic
 70
     7
 71
     1
 72
     0
 73
     1
 90
        0
 40
-0.6
 41
-30.0
 62
     5
 63
     7
421
 16777215
 74
     0
 91
        4
 64
     7
 65
   257
 75
     1
175
     1
 42
1.0
 92
        8
 66
     7
 43
1.0
 76
     1
 77
     6
 78
     2
 67
     7
 79
     5
170
     0
171
     0
290
     0
174
     0
 93
        1
 44
0.0
173
     0
291
     1
 45
0.0
1001
ACAD
1000
AcDbSavedByObjectVersion
1070
     0
  0
VISUALSTYLE
  5
36
102
{ACAD_REACTORS
330
2A
102
}
102
{ACAD_XDICTIONARY
360
187
102
}
330
2A
100
AcDbVisualStyle
  2
Brighten
 70
    12
 71
     2
 72
     2
 73
     0
 90
        0
 40
-0.6
 41
-30.0
 62
     5
 63
     7
421
 16777215
 74
     1
 91
        4
 64
     7
 65
   257
 75
     1
175
     1
 42
1.0
 92
        8
 66
     7
 43
1.0
 76
     1
 77
     6
 78
     2
 67
     7
 79
     5
170
     0
171
     0
290
     0
174
     0
 93
        1
 44
50.0
173
     0
291
     1
 45
0.0
1001
ACAD
1000
AcDbSavedByObjectVersion
1070
     0
  0
VISUALSTYLE
  5
3A
102
{ACAD_REACTORS
330
2A
102
}
102
{ACAD_XDICTIONARY
360
18F
102
}
330
2A
100
AcDbVisualStyle
  2
ColorChange
 70
    16
 71
     2
 72
     2
 73
     3
 90
        0
 40
-0.6
 41
-30.0
 62
     5
 63
     8
421
  8421504
 74
     1
 91
        4
 64
     7
 65
   257
 75
     1
175
     1
 42
1.0
 92
        8
 66
     8
424
  8421504
 43
1.0
 76
     1
 77
     6
 78
     2
 67
     7
 79
     5
170
     0
171
     0
290
     0
174
     0
 93
        1
 44
0.0
173
     0
291
     1
 45
0.0
1001
ACAD
1000
AcDbSavedByObjectVersion
1070
     0
  0
VISUALSTYLE
  5
34
102
{ACAD_REACTORS
330
2A
102
}
102
{ACAD_XDICTIONARY
360
183
102
}
330
2A
100
AcDbVisualStyle
  2
Conceptual
 70
     9
 71
     3
 72
     2
 73
     0
 90
        0
 40
-0.6
 41
-30.0
 62
     5
 63
     7
421
 16777215
 74
     2
 91
        2
 64
     7
 65
   257
 75
     1
175
     1
 42
40.0
 92
        8
 66
     7
 43
1.0
 76
     1
 77
     6
 78
     2
 67
     7
 79
     3
170
     0
171
     0
290
     0
174
     0
 93
        1
 44
0.0
173
     0
291
     0
 45
0.0
1001
ACAD
1000
AcDbSavedByObjectVersion
1070
     0
  0
VISUALSTYLE
  5
35
102
{ACAD_REACTORS
330
2A
102
}
102
{ACAD_XDICTIONARY
360
185
102
}
330
2A
100
AcDbVisualStyle
  2
Dim
 70
    11
 71
     2
 72
     2
 73
     0
 90
        0
 40
-0.6
 41
-30.0
 62
     5
 63
     7
421
 16777215
 74
     1
 91
        4
 64
     7
 65
   257
 75
     1
175
     1
 42
1.0
 92
        8
 66
     7
 43
1.0
 76
     1
 77
     6
 78
     2
 67
     7
 79
     5
170
     0
171
     0
290
     0
174
     0
 93
        1
 44
-50.0
173
     0
291
     1
 45
0.0
1001
ACAD
1000
AcDbSavedByObjectVersion
1070
     0
  0
VISUALSTYLE
  5
39
102
{ACAD_REACTORS
330
2A
102
}
102
{ACAD_XDICTIONARY
360
18D
102
}
330
2A
100
AcDbVisualStyle
  2
Facepattern
 70
    15
 71
     2
 72
     2
 73
     0
 90
        0
 40
-0.6
 41
-30.0
 62
     5
 63
     7
421
 16777215
 74
     1
 91
        4
 64
     7
 65
   257
 75
     1
175
     1
 42
1.0
 92
        8
 66
     7
 43
1.0
 76
     1
 77
     6
 78
     2
 67
     7
 79
     5
170
     0
171
     0
290
     0
174
     0
 93
        1
 44
0.0
173
     0
291
     1
 45
0.0
1001
ACAD
1000
AcDbSavedByObjectVersion
1070
     0
  0
VISUALSTYLE
  5
2B
102
{ACAD_REACTORS
330
2A
102
}
102
{ACAD_XDICTIONARY
360
171
102
}
330
2A
100
AcDbVisualStyle
  2
Flat
 70
     0
 71
     2
 72
     1
 73
     1
 90
        2
 40
-0.6
 41
30.0
 62
     5
 63
     7
421
 16777215
 74
     0
 91
        4
 64
     7
 65
   257
 75
     1
175
     1
 42
1.0
 92
        8
 66
     7
 43
1.0
 76
     1
 77
     6
 78
     2
 67
     7
 79
     5
170
     0
171
     0
290
     0
174
     0
 93
       13
 44
0.0
173
     0
291
     1
 45
0.0
1001
ACAD
1000
AcDbSavedByObjectVersion
1070
     0
  0
VISUALSTYLE
  5
2C
102
{ACAD_REACTORS
330
2A
102
}
102
{ACAD_XDICTIONARY
360
173
102
}
330
2A
100
AcDbVisualStyle
  2
FlatWithEdges
 70
     1
 71
     2
 72
     1
 73
     1
 90
        2
 40
-0.6
 41
30.0
 62
     5
 63
     7
421
 16777215
 74
     1
 91
        4
 64
     7
 65
   257
 75
     1
175
     1
 42
1.0
 92
        0
 66
   257
 43
1.0
 76
     1
 77
     6
 78
     2
 67
     7
 79
     5
170
     0
171
     0
290
     0
174
     0
 93
       13
 44
0.0
173
     0
291
     1
 45
0.0
1001
ACAD
1000
AcDbSavedByObjectVersion
1070
     0
  0
VISUALSTYLE
  5
2D
102
{ACAD_REACTORS
330
2A
102
}
102
{ACAD_XDICTIONARY
360
175
102
}
330
2A
100
AcDbVisualStyle
  2
Gouraud
 70
     2
 71
     2
 72
     2
 73
     1
 90
        2
 40
-0.6
 41
30.0
 62
     5
 63
     7
421
 16777215
 74
     0
 91
        4
 64
     7
 65
   257
 75
     1
175
     1
 42
1.0
 92
        0
 66
     7
 43
1.0
 76
     1
 77
     6
 78
     2
 67
     7
 79
     5
170
     0
171
     0
290
     0
174
     0
 93
       13
 44
0.0
173
     0
291
     1
 45
0.0
1001
ACAD
1000
AcDbSavedByObjectVersion
1070
     0
  0
VISUALSTYLE
  5
2E
102
{ACAD_REACTORS
330
2A
102
}
102
{ACAD_XDICTIONARY
360
177
102
}
330
2A
100
AcDbVisualStyle
  2
GouraudWithEdges
 70
     3
 71
     2
 72
     2
 73
     1
 90
        2
 40
-0.6
 41
30.0
 62
     5
 63
     7
421
 16777215
 74
     1
 91
        4
 64
     7
 65
   257
 75
     1
175
     1
 42
1.0
 92
        0
 66
   257
 43
1.0
 76
     1
 77
     6
 78
     2
 67
     7
 79
     5
170
     0
171
     0
290
     0
174
     0
 93
       13
 44
0.0
173
     0
291
     1
 45
0.0
1001
ACAD
1000
AcDbSavedByObjectVersion
1070
     0
  0
VISUALSTYLE
  5
38
102
{ACAD_REACTORS
330
2A
102
}
102
{ACAD_XDICTIONARY
360
18B
102
}
330
2A
100
AcDbVisualStyle
  2
Linepattern
 70
    14
 71
     2
 72
     2
 73
     0
 90
        0
 40
-0.6
 41
-30.0
 62
     5
 63
     7
421
 16777215
 74
     1
 91
        4
 64
     7
 65
   257
 75
     7
175
     7
 42
1.0
 92
        8
 66
     7
 43
1.0
 76
     1
 77
     6
 78
     2
 67
     7
 79
     5
170
     0
171
     0
290
     0
174
     0
 93
        1
 44
0.0
173
     0
291
     1
 45
0.0
1001
ACAD
1000
AcDbSavedByObjectVersion
1070
     0
  0
VISUALSTYLE
  5
33
102
{ACAD_REACTORS
330
2A
102
}
102
{ACAD_XDICTIONARY
360
181
102
}
330
2A
100
AcDbVisualStyle
  2
Realistic
 70
     8
 71
     2
 72
     2
 73
     0
 90
        0
 40
-0.6
 41
-30.0
 62
     5
 63
     7
421
 16777215
 74
     1
 91
        0
 64
     7
 65
   257
 75
     1
175
     1
 42
1.0
 92
        8
 66
     8
424
  7895160
 43
1.0
 76
     1
 77
     6
 78
     2
 67
     7
 79
     5
170
     0
171
     0
290
     0
174
     0
 93
       13
 44
0.0
173
     0
291
     0
 45
0.0
1001
ACAD
1000
AcDbSavedByObjectVersion
1070
     0
  0
VISUALSTYLE
  5
37
102
{ACAD_REACTORS
330
2A
102
}
102
{ACAD_XDICTIONARY
360
189
102
}
330
2A
100
AcDbVisualStyle
  2
Thicken
 70
    13
 71
     2
 72
     2
 73
     0
 90
        0
 40
-0.6
 41
-30.0
 62
     5
 63
     7
421
 16777215
 74
     1
 91
        4
 64
     7
 65
   257
 75
     1
175
     1
 42
1.0
 92
       12
 66
     7
 43
1.0
 76
     1
 77
     6
 78
     2
 67
     7
 79
     5
170
     0
171
     0
290
     0
174
     0
 93
        1
 44
0.0
173
     0
291
     1
 45
0.0
1001
ACAD
1000
AcDbSavedByObjectVersion
1070
     0
  0
DICTIONARYVAR
  5
170
102
{ACAD_REACTORS
330
16F
102
}
330
16F
100
DictionaryVariables
280
     0
  1
1:1
  0
DICTIONARYVAR
  5
199
102
{ACAD_REACTORS
330
16F
102
}
330
16F
100
DictionaryVariables
280
     0
  1
0
  0
XRECORD
  5
16E
102
{ACAD_REACTORS
330
16D
102
}
330
16D
100
AcDbXrecord
280
     1
1000
This DWG file was created in ArchiCAD(TM)®
  0
DICTIONARY
  5
193
330
3D
100
AcDbDictionary
280
     1
281
     1
  3
ACAD_XREC_ROUNDTRIP
360
194
  0
DICTIONARY
  5
191
330
3C
100
AcDbDictionary
280
     1
281
     1
  3
ACAD_XREC_ROUNDTRIP
360
192
  0
DICTIONARY
  5
195
330
3E
100
AcDbDictionary
280
     1
281
     1
  3
ACAD_XREC_ROUNDTRIP
360
196
  0
DICTIONARY
  5
179
330
2F
100
AcDbDictionary
280
     1
281
     1
  3
ACAD_XREC_ROUNDTRIP
360
17A
  0
DICTIONARY
  5
17D
330
31
100
AcDbDictionary
280
     1
281
     1
  3
ACAD_XREC_ROUNDTRIP
360
17E
  0
DICTIONARY
  5
17B
330
30
100
AcDbDictionary
280
     1
281
     1
  3
ACAD_XREC_ROUNDTRIP
360
17C
  0
DICTIONARY
  5
17F
330
32
100
AcDbDictionary
280
     1
281
     1
  3
ACAD_XREC_ROUNDTRIP
360
180
  0
DICTIONARY
  5
187
330
36
100
AcDbDictionary
280
     1
281
     1
  3
ACAD_XREC_ROUNDTRIP
360
188
  0
DICTIONARY
  5
18F
330
3A
100
AcDbDictionary
280
     1
281
     1
  3
ACAD_XREC_ROUNDTRIP
360
190
  0
DICTIONARY
  5
183
330
34
100
AcDbDictionary
280
     1
281
     1
  3
ACAD_XREC_ROUNDTRIP
360
184
  0
DICTIONARY
  5
185
330
35
100
AcDbDictionary
280
     1
281
     1
  3
ACAD_XREC_ROUNDTRIP
360
186
  0
DICTIONARY
  5
18D
330
39
100
AcDbDictionary
280
     1
281
     1
  3
ACAD_XREC_ROUNDTRIP
360
18E
  0
DICTIONARY
  5
171
330
2B
100
AcDbDictionary
280
     1
281
     1
  3
ACAD_XREC_ROUNDTRIP
360
172
  0
DICTIONARY
  5
173
330
2C
100
AcDbDictionary
280
     1
281
     1
  3
ACAD_XREC_ROUNDTRIP
360
174
  0
DICTIONARY
  5
175
330
2D
100
AcDbDictionary
280
     1
281
     1
  3
ACAD_XREC_ROUNDTRIP
360
176
  0
DICTIONARY
  5
177
330
2E
100
AcDbDictionary
280
     1
281
     1
  3
ACAD_XREC_ROUNDTRIP
360
178
  0
DICTIONARY
  5
18B
330
38
100
AcDbDictionary
280
     1
281
     1
  3
ACAD_XREC_ROUNDTRIP
360
18C
  0
DICTIONARY
  5
181
330
33
100
AcDbDictionary
280
     1
281
     1
  3
ACAD_XREC_ROUNDTRIP
360
182
  0
DICTIONARY
  5
189
330
37
100
AcDbDictionary
280
     1
281
     1
  3
ACAD_XREC_ROUNDTRIP
360
18A
  0
XRECORD
  5
194
102
{ACAD_REACTORS
330
193
102
}
330
193
100
AcDbXrecord
280
     1
102
MATERIAL
148
0.0
149
0.0
149
0.0
 93
        0
 94
      127
282
     0
 72
     1
 77
     1
171
     1
175
     1
179
     1
273
     0
  0
XRECORD
  5
192
102
{ACAD_REACTORS
330
191
102
}
330
191
100
AcDbXrecord
280
     1
102
MATERIAL
148
0.0
149
0.0
149
0.0
 93
        0
 94
      127
282
     0
 72
     1
 77
     1
171
     1
175
     1
179
     1
273
     0
  0
XRECORD
  5
196
102
{ACAD_REACTORS
330
195
102
}
330
195
100
AcDbXrecord
280
     1
102
MATERIAL
148
0.0
149
0.0
149
0.0
 93
        0
 94
      127
282
     0
 72
     1
 77
     1
171
     1
175
     1
179
     1
273
     0
  0
XRECORD
  5
17A
102
{ACAD_REACTORS
330
179
102
}
330
179
100
AcDbXrecord
280
     1
102
RTVSPropertyOp0
 70
     1
102
RTVSPropertyOp1
 70
     1
102
RTVSPropertyOp2
 70
     1
102
RTVSPropertyOp3
 70
     1
102
RTVSPropertyOp4
 70
     1
102
RTVSPropertyOp5
 70
     1
102
RTVSPropertyOp6
 70
     1
102
RTVSPropertyOp7
 70
     1
102
RTVSPropertyOp8
 70
     1
102
RTVSPropertyOp9
 70
     1
102
RTVSPropertyOp10
 70
     1
102
RTVSPropertyOp11
 70
     1
102
RTVSPropertyOp12
 70
     1
102
RTVSPropertyOp13
 70
     1
102
RTVSPropertyOp14
 70
     1
102
RTVSPropertyOp15
 70
     1
102
RTVSPropertyOp16
 70
     1
102
RTVSPropertyOp17
 70
     1
102
RTVSPropertyOp18
 70
     1
102
RTVSPropertyOp19
 70
     1
102
RTVSPropertyOp20
 70
     1
102
RTVSPropertyOp21
 70
     1
102
RTVSPropertyOp22
 70
     1
102
RTVSPropertyOp23
 70
     1
102
RTVSPropertyOp24
 70
     1
102
RTVSPropertyOp25
 70
     1
102
RTVSPropertyOp26
 70
     1
102
RTVSPropertyOp27
 70
     1
102
RTVSPropertyOp28
 70
     1
102
RTVSPropertyOp29
 70
     1
102
RTVSPropertyOp30
 70
     1
102
RTVSPropertyOp31
 70
     1
102
RTVSPropertyOp32
 70
     1
  0
XRECORD
  5
17E
102
{ACAD_REACTORS
330
17D
102
}
330
17D
100
AcDbXrecord
280
     1
102
RTVSPropertyOp0
 70
     1
102
RTVSPropertyOp1
 70
     1
102
RTVSPropertyOp2
 70
     1
102
RTVSPropertyOp3
 70
     1
102
RTVSPropertyOp4
 70
     1
102
RTVSPropertyOp5
 70
     1
102
RTVSPropertyOp6
 70
     1
102
RTVSPropertyOp7
 70
     1
102
RTVSPropertyOp8
 70
     1
102
RTVSPropertyOp9
 70
     1
102
RTVSPropertyOp10
 70
     1
102
RTVSPropertyOp11
 70
     1
102
RTVSPropertyOp12
 70
     1
102
RTVSPropertyOp13
 70
     1
102
RTVSPropertyOp14
 70
     1
102
RTVSPropertyOp15
 70
     1
102
RTVSPropertyOp16
 70
     1
102
RTVSPropertyOp17
 70
     1
102
RTVSPropertyOp18
 70
     1
102
RTVSPropertyOp19
 70
     1
102
RTVSPropertyOp20
 70
     1
102
RTVSPropertyOp21
 70
     1
102
RTVSPropertyOp22
 70
     1
102
RTVSPropertyOp23
 70
     1
102
RTVSPropertyOp24
 70
     1
102
RTVSPropertyOp25
 70
     1
102
RTVSPropertyOp26
 70
     1
102
RTVSPropertyOp27
 70
     1
102
RTVSPropertyOp28
 70
     1
102
RTVSPropertyOp29
 70
     1
102
RTVSPropertyOp30
 70
     1
102
RTVSPropertyOp31
 70
     1
102
RTVSPropertyOp32
 70
     1
  0
XRECORD
  5
17C
102
{ACAD_REACTORS
330
17B
102
}
330
17B
100
AcDbXrecord
280
     1
102
RTVSPropertyOp0
 70
     1
102
RTVSPropertyOp1
 70
     1
102
RTVSPropertyOp2
 70
     1
102
RTVSPropertyOp3
 70
     1
102
RTVSPropertyOp4
 70
     1
102
RTVSPropertyOp5
 70
     1
102
RTVSPropertyOp6
 70
     1
102
RTVSPropertyOp7
 70
     1
102
RTVSPropertyOp8
 70
     1
102
RTVSPropertyOp9
 70
     1
102
RTVSPropertyOp10
 70
     1
102
RTVSPropertyOp11
 70
     1
102
RTVSPropertyOp12
 70
     1
102
RTVSPropertyOp13
 70
     1
102
RTVSPropertyOp14
 70
     1
102
RTVSPropertyOp15
 70
     1
102
RTVSPropertyOp16
 70
     1
102
RTVSPropertyOp17
 70
     1
102
RTVSPropertyOp18
 70
     1
102
RTVSPropertyOp19
 70
     1
102
RTVSPropertyOp20
 70
     1
102
RTVSPropertyOp21
 70
     1
102
RTVSPropertyOp22
 70
     1
102
RTVSPropertyOp23
 70
     1
102
RTVSPropertyOp24
 70
     1
102
RTVSPropertyOp25
 70
     1
102
RTVSPropertyOp26
 70
     1
102
RTVSPropertyOp27
 70
     1
102
RTVSPropertyOp28
 70
     1
102
RTVSPropertyOp29
 70
     1
102
RTVSPropertyOp30
 70
     1
102
RTVSPropertyOp31
 70
     1
102
RTVSPropertyOp32
 70
     1
  0
XRECORD
  5
180
102
{ACAD_REACTORS
330
17F
102
}
330
17F
100
AcDbXrecord
280
     1
102
RTVSPropertyOp0
 70
     1
102
RTVSPropertyOp1
 70
     1
102
RTVSPropertyOp2
 70
     1
102
RTVSPropertyOp3
 70
     1
102
RTVSPropertyOp4
 70
     1
102
RTVSPropertyOp5
 70
     1
102
RTVSPropertyOp6
 70
     1
102
RTVSPropertyOp7
 70
     1
102
RTVSPropertyOp8
 70
     1
102
RTVSPropertyOp9
 70
     1
102
RTVSPropertyOp10
 70
     1
102
RTVSPropertyOp11
 70
     1
102
RTVSPropertyOp12
 70
     1
102
RTVSPropertyOp13
 70
     1
102
RTVSPropertyOp14
 70
     1
102
RTVSPropertyOp15
 70
     1
102
RTVSPropertyOp16
 70
     1
102
RTVSPropertyOp17
 70
     1
102
RTVSPropertyOp18
 70
     1
102
RTVSPropertyOp19
 70
     1
102
RTVSPropertyOp20
 70
     1
102
RTVSPropertyOp21
 70
     1
102
RTVSPropertyOp22
 70
     1
102
RTVSPropertyOp23
 70
     1
102
RTVSPropertyOp24
 70
     1
102
RTVSPropertyOp25
 70
     1
102
RTVSPropertyOp26
 70
     1
102
RTVSPropertyOp27
 70
     1
102
RTVSPropertyOp28
 70
     1
102
RTVSPropertyOp29
 70
     1
102
RTVSPropertyOp30
 70
     1
102
RTVSPropertyOp31
 70
     1
102
RTVSPropertyOp32
 70
     1
  0
XRECORD
  5
188
102
{ACAD_REACTORS
330
187
102
}
330
187
100
AcDbXrecord
280
     1
102
RTVSPropertyOp0
 70
     1
102
RTVSPropertyOp1
 70
     1
102
RTVSPropertyOp2
 70
     1
102
RTVSPropertyOp3
 70
     1
102
RTVSPropertyOp4
 70
     1
102
RTVSPropertyOp5
 70
     1
102
RTVSPropertyOp6
 70
     1
102
RTVSPropertyOp7
 70
     1
102
RTVSPropertyOp8
 70
     1
102
RTVSPropertyOp9
 70
     1
102
RTVSPropertyOp10
 70
     1
102
RTVSPropertyOp11
 70
     1
102
RTVSPropertyOp12
 70
     1
102
RTVSPropertyOp13
 70
     1
102
RTVSPropertyOp14
 70
     1
102
RTVSPropertyOp15
 70
     1
102
RTVSPropertyOp16
 70
     1
102
RTVSPropertyOp17
 70
     1
102
RTVSPropertyOp18
 70
     1
102
RTVSPropertyOp19
 70
     1
102
RTVSPropertyOp20
 70
     1
102
RTVSPropertyOp21
 70
     1
102
RTVSPropertyOp22
 70
     1
102
RTVSPropertyOp23
 70
     1
102
RTVSPropertyOp24
 70
     1
102
RTVSPropertyOp25
 70
     1
102
RTVSPropertyOp26
 70
     1
102
RTVSPropertyOp27
 70
     1
102
RTVSPropertyOp28
 70
     1
102
RTVSPropertyOp29
 70
     1
102
RTVSPropertyOp30
 70
     1
102
RTVSPropertyOp31
 70
     1
102
RTVSPropertyOp32
 70
     1
  0
XRECORD
  5
190
102
{ACAD_REACTORS
330
18F
102
}
330
18F
100
AcDbXrecord
280
     1
102
RTVSPropertyOp0
 70
     1
102
RTVSPropertyOp1
 70
     1
102
RTVSPropertyOp2
 70
     1
102
RTVSPropertyOp3
 70
     1
102
RTVSPropertyOp4
 70
     1
102
RTVSPropertyOp5
 70
     1
102
RTVSPropertyOp6
 70
     1
102
RTVSPropertyOp7
 70
     1
102
RTVSPropertyOp8
 70
     1
102
RTVSPropertyOp9
 70
     1
102
RTVSPropertyOp10
 70
     1
102
RTVSPropertyOp11
 70
     1
102
RTVSPropertyOp12
 70
     1
102
RTVSPropertyOp13
 70
     1
102
RTVSPropertyOp14
 70
     1
102
RTVSPropertyOp15
 70
     1
102
RTVSPropertyOp16
 70
     1
102
RTVSPropertyOp17
 70
     1
102
RTVSPropertyOp18
 70
     1
102
RTVSPropertyOp19
 70
     1
102
RTVSPropertyOp20
 70
     1
102
RTVSPropertyOp21
 70
     1
102
RTVSPropertyOp22
 70
     1
102
RTVSPropertyOp23
 70
     1
102
RTVSPropertyOp24
 70
     1
102
RTVSPropertyOp25
 70
     1
102
RTVSPropertyOp26
 70
     1
102
RTVSPropertyOp27
 70
     1
102
RTVSPropertyOp28
 70
     1
102
RTVSPropertyOp29
 70
     1
102
RTVSPropertyOp30
 70
     1
102
RTVSPropertyOp31
 70
     1
102
RTVSPropertyOp32
 70
     1
  0
XRECORD
  5
184
102
{ACAD_REACTORS
330
183
102
}
330
183
100
AcDbXrecord
280
     1
102
RTVSPropertyOp0
 70
     1
102
RTVSPropertyOp1
 70
     1
102
RTVSPropertyOp2
 70
     1
102
RTVSPropertyOp3
 70
     1
102
RTVSPropertyOp4
 70
     1
102
RTVSPropertyOp5
 70
     1
102
RTVSPropertyOp6
 70
     1
102
RTVSPropertyOp7
 70
     1
102
RTVSPropertyOp8
 70
     1
102
RTVSPropertyOp9
 70
     1
102
RTVSPropertyOp10
 70
     1
102
RTVSPropertyOp11
 70
     1
102
RTVSPropertyOp12
 70
     1
102
RTVSPropertyOp13
 70
     1
102
RTVSPropertyOp14
 70
     1
102
RTVSPropertyOp15
 70
     1
102
RTVSPropertyOp16
 70
     1
102
RTVSPropertyOp17
 70
     1
102
RTVSPropertyOp18
 70
     1
102
RTVSPropertyOp19
 70
     1
102
RTVSPropertyOp20
 70
     1
102
RTVSPropertyOp21
 70
     1
102
RTVSPropertyOp22
 70
     1
102
RTVSPropertyOp23
 70
     1
102
RTVSPropertyOp24
 70
     1
102
RTVSPropertyOp25
 70
     1
102
RTVSPropertyOp26
 70
     1
102
RTVSPropertyOp27
 70
     1
102
RTVSPropertyOp28
 70
     1
102
RTVSPropertyOp29
 70
     1
102
RTVSPropertyOp30
 70
     1
102
RTVSPropertyOp31
 70
     1
102
RTVSPropertyOp32
 70
     1
  0
XRECORD
  5
186
102
{ACAD_REACTORS
330
185
102
}
330
185
100
AcDbXrecord
280
     1
102
RTVSPropertyOp0
 70
     1
102
RTVSPropertyOp1
 70
     1
102
RTVSPropertyOp2
 70
     1
102
RTVSPropertyOp3
 70
     1
102
RTVSPropertyOp4
 70
     1
102
RTVSPropertyOp5
 70
     1
102
RTVSPropertyOp6
 70
     1
102
RTVSPropertyOp7
 70
     1
102
RTVSPropertyOp8
 70
     1
102
RTVSPropertyOp9
 70
     1
102
RTVSPropertyOp10
 70
     1
102
RTVSPropertyOp11
 70
     1
102
RTVSPropertyOp12
 70
     1
102
RTVSPropertyOp13
 70
     1
102
RTVSPropertyOp14
 70
     1
102
RTVSPropertyOp15
 70
     1
102
RTVSPropertyOp16
 70
     1
102
RTVSPropertyOp17
 70
     1
102
RTVSPropertyOp18
 70
     1
102
RTVSPropertyOp19
 70
     1
102
RTVSPropertyOp20
 70
     1
102
RTVSPropertyOp21
 70
     1
102
RTVSPropertyOp22
 70
     1
102
RTVSPropertyOp23
 70
     1
102
RTVSPropertyOp24
 70
     1
102
RTVSPropertyOp25
 70
     1
102
RTVSPropertyOp26
 70
     1
102
RTVSPropertyOp27
 70
     1
102
RTVSPropertyOp28
 70
     1
102
RTVSPropertyOp29
 70
     1
102
RTVSPropertyOp30
 70
     1
102
RTVSPropertyOp31
 70
     1
102
RTVSPropertyOp32
 70
     1
  0
XRECORD
  5
18E
102
{ACAD_REACTORS
330
18D
102
}
330
18D
100
AcDbXrecord
280
     1
102
RTVSPropertyOp0
 70
     1
102
RTVSPropertyOp1
 70
     1
102
RTVSPropertyOp2
 70
     1
102
RTVSPropertyOp3
 70
     1
102
RTVSPropertyOp4
 70
     1
102
RTVSPropertyOp5
 70
     1
102
RTVSPropertyOp6
 70
     1
102
RTVSPropertyOp7
 70
     1
102
RTVSPropertyOp8
 70
     1
102
RTVSPropertyOp9
 70
     1
102
RTVSPropertyOp10
 70
     1
102
RTVSPropertyOp11
 70
     1
102
RTVSPropertyOp12
 70
     1
102
RTVSPropertyOp13
 70
     1
102
RTVSPropertyOp14
 70
     1
102
RTVSPropertyOp15
 70
     1
102
RTVSPropertyOp16
 70
     1
102
RTVSPropertyOp17
 70
     1
102
RTVSPropertyOp18
 70
     1
102
RTVSPropertyOp19
 70
     1
102
RTVSPropertyOp20
 70
     1
102
RTVSPropertyOp21
 70
     1
102
RTVSPropertyOp22
 70
     1
102
RTVSPropertyOp23
 70
     1
102
RTVSPropertyOp24
 70
     1
102
RTVSPropertyOp25
 70
     1
102
RTVSPropertyOp26
 70
     1
102
RTVSPropertyOp27
 70
     1
102
RTVSPropertyOp28
 70
     1
102
RTVSPropertyOp29
 70
     1
102
RTVSPropertyOp30
 70
     1
102
RTVSPropertyOp31
 70
     1
102
RTVSPropertyOp32
 70
     1
  0
XRECORD
  5
172
102
{ACAD_REACTORS
330
171
102
}
330
171
100
AcDbXrecord
280
     1
102
RTVSPropertyOp0
 70
     1
102
RTVSPropertyOp1
 70
     1
102
RTVSPropertyOp2
 70
     1
102
RTVSPropertyOp3
 70
     1
102
RTVSPropertyOp4
 70
     1
102
RTVSPropertyOp5
 70
     1
102
RTVSPropertyOp6
 70
     1
102
RTVSPropertyOp7
 70
     1
102
RTVSPropertyOp8
 70
     1
102
RTVSPropertyOp9
 70
     1
102
RTVSPropertyOp10
 70
     1
102
RTVSPropertyOp11
 70
     1
102
RTVSPropertyOp12
 70
     1
102
RTVSPropertyOp13
 70
     1
102
RTVSPropertyOp14
 70
     1
102
RTVSPropertyOp15
 70
     1
102
RTVSPropertyOp16
 70
     1
102
RTVSPropertyOp17
 70
     1
102
RTVSPropertyOp18
 70
     1
102
RTVSPropertyOp19
 70
     1
102
RTVSPropertyOp20
 70
     1
102
RTVSPropertyOp21
 70
     1
102
RTVSPropertyOp22
 70
     1
102
RTVSPropertyOp23
 70
     1
102
RTVSPropertyOp24
 70
     1
102
RTVSPropertyOp25
 70
     1
102
RTVSPropertyOp26
 70
     1
102
RTVSPropertyOp27
 70
     1
102
RTVSPropertyOp28
 70
     1
102
RTVSPropertyOp29
 70
     1
102
RTVSPropertyOp30
 70
     1
102
RTVSPropertyOp31
 70
     1
102
RTVSPropertyOp32
 70
     1
  0
XRECORD
  5
174
102
{ACAD_REACTORS
330
173
102
}
330
173
100
AcDbXrecord
280
     1
102
RTVSPropertyOp0
 70
     1
102
RTVSPropertyOp1
 70
     1
102
RTVSPropertyOp2
 70
     1
102
RTVSPropertyOp3
 70
     1
102
RTVSPropertyOp4
 70
     1
102
RTVSPropertyOp5
 70
     1
102
RTVSPropertyOp6
 70
     1
102
RTVSPropertyOp7
 70
     1
102
RTVSPropertyOp8
 70
     1
102
RTVSPropertyOp9
 70
     1
102
RTVSPropertyOp10
 70
     1
102
RTVSPropertyOp11
 70
     1
102
RTVSPropertyOp12
 70
     1
102
RTVSPropertyOp13
 70
     1
102
RTVSPropertyOp14
 70
     1
102
RTVSPropertyOp15
 70
     1
102
RTVSPropertyOp16
 70
     1
102
RTVSPropertyOp17
 70
     1
102
RTVSPropertyOp18
 70
     1
102
RTVSPropertyOp19
 70
     1
102
RTVSPropertyOp20
 70
     1
102
RTVSPropertyOp21
 70
     1
102
RTVSPropertyOp22
 70
     1
102
RTVSPropertyOp23
 70
     1
102
RTVSPropertyOp24
 70
     1
102
RTVSPropertyOp25
 70
     1
102
RTVSPropertyOp26
 70
     1
102
RTVSPropertyOp27
 70
     1
102
RTVSPropertyOp28
 70
     1
102
RTVSPropertyOp29
 70
     1
102
RTVSPropertyOp30
 70
     1
102
RTVSPropertyOp31
 70
     1
102
RTVSPropertyOp32
 70
     1
  0
XRECORD
  5
176
102
{ACAD_REACTORS
330
175
102
}
330
175
100
AcDbXrecord
280
     1
102
RTVSPropertyOp0
 70
     1
102
RTVSPropertyOp1
 70
     1
102
RTVSPropertyOp2
 70
     1
102
RTVSPropertyOp3
 70
     1
102
RTVSPropertyOp4
 70
     1
102
RTVSPropertyOp5
 70
     1
102
RTVSPropertyOp6
 70
     1
102
RTVSPropertyOp7
 70
     1
102
RTVSPropertyOp8
 70
     1
102
RTVSPropertyOp9
 70
     1
102
RTVSPropertyOp10
 70
     1
102
RTVSPropertyOp11
 70
     1
102
RTVSPropertyOp12
 70
     1
102
RTVSPropertyOp13
 70
     1
102
RTVSPropertyOp14
 70
     1
102
RTVSPropertyOp15
 70
     1
102
RTVSPropertyOp16
 70
     1
102
RTVSPropertyOp17
 70
     1
102
RTVSPropertyOp18
 70
     1
102
RTVSPropertyOp19
 70
     1
102
RTVSPropertyOp20
 70
     1
102
RTVSPropertyOp21
 70
     1
102
RTVSPropertyOp22
 70
     1
102
RTVSPropertyOp23
 70
     1
102
RTVSPropertyOp24
 70
     1
102
RTVSPropertyOp25
 70
     1
102
RTVSPropertyOp26
 70
     1
102
RTVSPropertyOp27
 70
     1
102
RTVSPropertyOp28
 70
     1
102
RTVSPropertyOp29
 70
     1
102
RTVSPropertyOp30
 70
     1
102
RTVSPropertyOp31
 70
     1
102
RTVSPropertyOp32
 70
     1
  0
XRECORD
  5
178
102
{ACAD_REACTORS
330
177
102
}
330
177
100
AcDbXrecord
280
     1
102
RTVSPropertyOp0
 70
     1
102
RTVSPropertyOp1
 70
     1
102
RTVSPropertyOp2
 70
     1
102
RTVSPropertyOp3
 70
     1
102
RTVSPropertyOp4
 70
     1
102
RTVSPropertyOp5
 70
     1
102
RTVSPropertyOp6
 70
     1
102
RTVSPropertyOp7
 70
     1
102
RTVSPropertyOp8
 70
     1
102
RTVSPropertyOp9
 70
     1
102
RTVSPropertyOp10
 70
     1
102
RTVSPropertyOp11
 70
     1
102
RTVSPropertyOp12
 70
     1
102
RTVSPropertyOp13
 70
     1
102
RTVSPropertyOp14
 70
     1
102
RTVSPropertyOp15
 70
     1
102
RTVSPropertyOp16
 70
     1
102
RTVSPropertyOp17
 70
     1
102
RTVSPropertyOp18
 70
     1
102
RTVSPropertyOp19
 70
     1
102
RTVSPropertyOp20
 70
     1
102
RTVSPropertyOp21
 70
     1
102
RTVSPropertyOp22
 70
     1
102
RTVSPropertyOp23
 70
     1
102
RTVSPropertyOp24
 70
     1
102
RTVSPropertyOp25
 70
     1
102
RTVSPropertyOp26
 70
     1
102
RTVSPropertyOp27
 70
     1
102
RTVSPropertyOp28
 70
     1
102
RTVSPropertyOp29
 70
     1
102
RTVSPropertyOp30
 70
     1
102
RTVSPropertyOp31
 70
     1
102
RTVSPropertyOp32
 70
     1
  0
XRECORD
  5
18C
102
{ACAD_REACTORS
330
18B
102
}
330
18B
100
AcDbXrecord
280
     1
102
RTVSPropertyOp0
 70
     1
102
RTVSPropertyOp1
 70
     1
102
RTVSPropertyOp2
 70
     1
102
RTVSPropertyOp3
 70
     1
102
RTVSPropertyOp4
 70
     1
102
RTVSPropertyOp5
 70
     1
102
RTVSPropertyOp6
 70
     1
102
RTVSPropertyOp7
 70
     1
102
RTVSPropertyOp8
 70
     1
102
RTVSPropertyOp9
 70
     1
102
RTVSPropertyOp10
 70
     1
102
RTVSPropertyOp11
 70
     1
102
RTVSPropertyOp12
 70
     1
102
RTVSPropertyOp13
 70
     1
102
RTVSPropertyOp14
 70
     1
102
RTVSPropertyOp15
 70
     1
102
RTVSPropertyOp16
 70
     1
102
RTVSPropertyOp17
 70
     1
102
RTVSPropertyOp18
 70
     1
102
RTVSPropertyOp19
 70
     1
102
RTVSPropertyOp20
 70
     1
102
RTVSPropertyOp21
 70
     1
102
RTVSPropertyOp22
 70
     1
102
RTVSPropertyOp23
 70
     1
102
RTVSPropertyOp24
 70
     1
102
RTVSPropertyOp25
 70
     1
102
RTVSPropertyOp26
 70
     1
102
RTVSPropertyOp27
 70
     1
102
RTVSPropertyOp28
 70
     1
102
RTVSPropertyOp29
 70
     1
102
RTVSPropertyOp30
 70
     1
102
RTVSPropertyOp31
 70
     1
102
RTVSPropertyOp32
 70
     1
  0
XRECORD
  5
182
102
{ACAD_REACTORS
330
181
102
}
330
181
100
AcDbXrecord
280
     1
102
RTVSPropertyOp0
 70
     1
102
RTVSPropertyOp1
 70
     1
102
RTVSPropertyOp2
 70
     1
102
RTVSPropertyOp3
 70
     1
102
RTVSPropertyOp4
 70
     1
102
RTVSPropertyOp5
 70
     1
102
RTVSPropertyOp6
 70
     1
102
RTVSPropertyOp7
 70
     1
102
RTVSPropertyOp8
 70
     1
102
RTVSPropertyOp9
 70
     1
102
RTVSPropertyOp10
 70
     1
102
RTVSPropertyOp11
 70
     1
102
RTVSPropertyOp12
 70
     1
102
RTVSPropertyOp13
 70
     1
102
RTVSPropertyOp14
 70
     1
102
RTVSPropertyOp15
 70
     1
102
RTVSPropertyOp16
 70
     1
102
RTVSPropertyOp17
 70
     1
102
RTVSPropertyOp18
 70
     1
102
RTVSPropertyOp19
 70
     1
102
RTVSPropertyOp20
 70
     1
102
RTVSPropertyOp21
 70
     1
102
RTVSPropertyOp22
 70
     1
102
RTVSPropertyOp23
 70
     1
102
RTVSPropertyOp24
 70
     1
102
RTVSPropertyOp25
 70
     1
102
RTVSPropertyOp26
 70
     1
102
RTVSPropertyOp27
 70
     1
102
RTVSPropertyOp28
 70
     1
102
RTVSPropertyOp29
 70
     1
102
RTVSPropertyOp30
 70
     1
102
RTVSPropertyOp31
 70
     1
102
RTVSPropertyOp32
 70
     1
  0
XRECORD
  5
18A
102
{ACAD_REACTORS
330
189
102
}
330
189
100
AcDbXrecord
280
     1
102
RTVSPropertyOp0
 70
     1
102
RTVSPropertyOp1
 70
     1
102
RTVSPropertyOp2
 70
     1
102
RTVSPropertyOp3
 70
     1
102
RTVSPropertyOp4
 70
     1
102
RTVSPropertyOp5
 70
     1
102
RTVSPropertyOp6
 70
     1
102
RTVSPropertyOp7
 70
     1
102
RTVSPropertyOp8
 70
     1
102
RTVSPropertyOp9
 70
     1
102
RTVSPropertyOp10
 70
     1
102
RTVSPropertyOp11
 70
     1
102
RTVSPropertyOp12
 70
     1
102
RTVSPropertyOp13
 70
     1
102
RTVSPropertyOp14
 70
     1
102
RTVSPropertyOp15
 70
     1
102
RTVSPropertyOp16
 70
     1
102
RTVSPropertyOp17
 70
     1
102
RTVSPropertyOp18
 70
     1
102
RTVSPropertyOp19
 70
     1
102
RTVSPropertyOp20
 70
     1
102
RTVSPropertyOp21
 70
     1
102
RTVSPropertyOp22
 70
     1
102
RTVSPropertyOp23
 70
     1
102
RTVSPropertyOp24
 70
     1
102
RTVSPropertyOp25
 70
     1
102
RTVSPropertyOp26
 70
     1
102
RTVSPropertyOp27
 70
     1
102
RTVSPropertyOp28
 70
     1
102
RTVSPropertyOp29
 70
     1
102
RTVSPropertyOp30
 70
     1
102
RTVSPropertyOp31
 70
     1
102
RTVSPropertyOp32
 70
     1
  0
ENDSEC
  0
EOF
