  0
SECTION
  2
HEADER
  9
$ACADVER
  1
AC1009
  9
$INSBASE
 10
0.0
 20
0.0
 30
0.0
  9
$EXTMIN
 10
-132.3220571914712
 20
-237.26429916126949
 30
-0.0015258207003583
  9
$EXTMAX
 10
190.24083411881449
 20
120.0368737957487
 30
0.0000000349246037
  9
$LIMMIN
 10
0.0
 20
0.0
  9
$LIMMAX
 10
420.0
 20
297.0
  9
$ORTHOMODE
 70
     0
  9
$REGENMODE
 70
     1
  9
$FILLMODE
 70
     1
  9
$QTEXTMODE
 70
     0
  9
$MIRRTEXT
 70
     0
  9
$DRAGMODE
 70
     2
  9
$LTSCALE
 40
1.0
  9
$OSMODE
 70
     0
  9
$ATTMODE
 70
     1
  9
$TEXTSIZE
 40
35.0
  9
$TRACEWID
 40
1.0
  9
$TEXTSTYLE
  7
ARIAL
  9
$CLAYER
  8
0
  9
$CELTYPE
  6
CONTINUOUS
  9
$CECOLOR
 62
   256
  9
$DIMSCALE
 40
2.0
  9
$DIMASZ
 40
1.8
  9
$DIMEXO
 40
1.8
  9
$DIMDLI
 40
5.0
  9
$DIMRND
 40
0.0
  9
$DIMDLE
 40
1.8
  9
$DIMEXE
 40
1.8
  9
$DIMTP
 40
0.0
  9
$DIMTM
 40
0.0
  9
$DIMTXT
 40
2.0
  9
$DIMCEN
 40
1.8
  9
$DIMTSZ
 40
0.0
  9
$DIMTOL
 70
     0
  9
$DIMLIM
 70
     0
  9
$DIMTIH
 70
     0
  9
$DIMTOH
 70
     0
  9
$DIMSE1
 70
     0
  9
$DIMSE2
 70
     0
  9
$DIMTAD
 70
     1
  9
$DIMZIN
 70
     0
  9
$DIMBLK
  1

  9
$DIMASO
 70
     1
  9
$DIMSHO
 70
     1
  9
$DIMPOST
  1
mm
  9
$DIMAPOST
  1
mm
  9
$DIMALT
 70
     0
  9
$DIMALTD
 70
     2
  9
$DIMALTF
 40
0.0394
  9
$DIMLFAC
 40
1.0
  9
$DIMTOFL
 70
     0
  9
$DIMTVP
 40
0.0
  9
$DIMTIX
 70
     0
  9
$DIMSOXD
 70
     0
  9
$DIMSAH
 70
     0
  9
$DIMBLK1
  1

  9
$DIMBLK2
  1

  9
$DIMSTYLE
  2
1_TO_2
  9
$DIMCLRD
 70
   256
  9
$DIMCLRE
 70
   256
  9
$DIMCLRT
 70
   256
  9
$DIMTFAC
 40
1.0
  9
$DIMGAP
 40
1.0
  9
$LUNITS
 70
     2
  9
$LUPREC
 70
     1
  9
$SKETCHINC
 40
1.0
  9
$FILLETRAD
 40
0.0
  9
$AUNITS
 70
     1
  9
$AUPREC
 70
     4
  9
$MENU
  1
acad
  9
$ELEVATION
 40
0.0
  9
$PELEVATION
 40
0.0
  9
$THICKNESS
 40
0.0
  9
$LIMCHECK
 70
     0
  9
$BLIPMODE
 70
     0
  9
$CHAMFERA
 40
10.0
  9
$CHAMFERB
 40
10.0
  9
$SKPOLY
 70
     0
  9
$TDCREATE
 40
2450935.42424213
  9
$TDUPDATE
 40
2457100.7054697569
  9
$TDINDWG
 40
8.0061032985999994
  9
$TDUSRTIMER
 40
8.0061032985999994
  9
$USRTIMER
 70
     1
  9
$ANGBASE
 50
0.0
  9
$ANGDIR
 70
     0
  9
$PDMODE
 70
     0
  9
$PDSIZE
 40
-1.0
  9
$PLINEWID
 40
0.0
  9
$COORDS
 70
     2
  9
$SPLFRAME
 70
     0
  9
$SPLINETYPE
 70
     6
  9
$SPLINESEGS
 70
     8
  9
$ATTDIA
 70
     0
  9
$ATTREQ
 70
     1
  9
$HANDLING
 70
     1
  9
$HANDSEED
  5
8000079D
  9
$SURFTAB1
 70
     6
  9
$SURFTAB2
 70
     6
  9
$SURFTYPE
 70
     6
  9
$SURFU
 70
     6
  9
$SURFV
 70
     6
  9
$UCSNAME
  2

  9
$UCSORG
 10
0.0
 20
0.0
 30
0.0
  9
$UCSXDIR
 10
1.0
 20
0.0
 30
0.0
  9
$UCSYDIR
 10
0.0
 20
1.0
 30
0.0
  9
$PUCSNAME
  2

  9
$PUCSORG
 10
0.0
 20
0.0
 30
0.0
  9
$PUCSXDIR
 10
1.0
 20
0.0
 30
0.0
  9
$PUCSYDIR
 10
0.0
 20
1.0
 30
0.0
  9
$USERI1
 70
    50
  9
$USERI2
 70
     1
  9
$USERI3
 70
     0
  9
$USERI4
 70
     2
  9
$USERI5
 70
     0
  9
$USERR1
 40
50.0
  9
$USERR2
 40
0.0
  9
$USERR3
 40
50.0
  9
$USERR4
 40
100.0
  9
$USERR5
 40
100.0
  9
$WORLDVIEW
 70
     1
  9
$SHADEDGE
 70
     3
  9
$SHADEDIF
 70
    70
  9
$TILEMODE
 70
     1
  9
$MAXACTVP
 70
    16
  9
$PLIMCHECK
 70
     0
  9
$PEXTMIN
 10
0.0
 20
0.0
 30
0.0
  9
$PEXTMAX
 10
0.0
 20
0.0
 30
0.0
  9
$PLIMMIN
 10
0.0
 20
0.0
  9
$PLIMMAX
 10
12.0
 20
9.0
  9
$UNITMODE
 70
     0
  9
$VISRETAIN
 70
     0
  9
$PLINEGEN
 70
     0
  9
$PSLTSCALE
 70
     1
  0
ENDSEC
  0
SECTION
  2
TABLES
  0
TABLE
  2
VPORT
 70
     1
  0
VPORT
  2
*ACTIVE
 70
     0
 10
0.0
 20
0.0
 11
1.0
 21
1.0
 12
28.959388463671669
 22
-58.613712682760372
 13
0.0
 23
0.0
 14
1.0
 24
1.0
 15
10.0
 25
10.0
 16
0.0
 26
0.0
 36
1.0
 17
0.0
 27
0.0
 37
0.0
 40
359.72904049693
 41
1.0918367346938771
 42
50.0
 43
0.0
 44
0.0
 50
0.0
 51
0.0
 71
     0
 72
   100
 73
     1
 74
     1
 75
     0
 76
     0
 77
     0
 78
     1
  0
ENDTAB
  0
TABLE
  2
LTYPE
 70
     4
  0
LTYPE
  2
CONTINUOUS
 70
     0
  3
Solid line
 72
    65
 73
     0
 40
0.0
  0
LTYPE
  2
PHANTOM
 70
     0
  3
Phantom ______  __  __  ______  __  __  ______
 72
    65
 73
     6
 40
63.5
 49
31.75
 49
-6.3499999999999988
 49
6.3499999999999988
 49
-6.3499999999999988
 49
6.3499999999999988
 49
-6.3499999999999988
  0
LTYPE
  2
DIVIDE2
 70
     0
  3
Divide (.5x) __..__..__..__..__..__..__..__.._
 72
    65
 73
     6
 40
15.875
 49
6.3499999999999988
 49
-3.1749999999999989
 49
0.0
 49
-3.1749999999999989
 49
0.0
 49
-3.1749999999999989
  0
LTYPE
  2
CENTER
 70
     0
  3
Center ____ _ ____ _ ____ _ ____ _ ____ _ ____
 72
    65
 73
     4
 40
50.799999999999997
 49
31.75
 49
-6.3499999999999988
 49
6.3499999999999988
 49
-6.3499999999999988
  0
ENDTAB
  0
TABLE
  2
LAYER
 70
    15
  0
LAYER
  2
0
 70
     0
 62
     7
  6
CONTINUOUS
  0
LAYER
  2
DEFPOINTS
 70
     0
 62
     7
  6
CONTINUOUS
  0
ENDTAB
  0
TABLE
  2
STYLE
 70
     4
  0
STYLE
  2
STANDARD
 70
     0
 40
0.0
 41
1.0
 50
0.0
 71
     0
 42
3.5
  3
txt
  4

  0
STYLE
  2
ARIAL
 70
     0
 40
0.0
 41
1.0
 50
0.0
 71
     0
 42
35.0
  3
txt
  4

  0
ENDTAB
  0
TABLE
  2
VIEW
 70
     5
  0
VIEW
  2
A
 70
     1
 40
27750.0
 10
17125.0
 20
13875.0
 41
34250.0
 11
0.0
 21
0.0
 31
1.0
 12
0.0
 22
0.0
 32
0.0
 42
50.0
 43
0.0
 44
0.0
 50
0.0
 71
     0
  0
VIEW
  2
MS-A
 70
     1
 40
27750.0
 10
17125.0
 20
13875.0
 41
34250.0
 11
0.0
 21
0.0
 31
1.0
 12
0.0
 22
0.0
 32
0.0
 42
50.0
 43
0.0
 44
0.0
 50
0.0
 71
     0
  0
VIEW
  2
PS-A
 70
     1
 40
560.0
 10
394.84013230429991
 20
280.0
 41
789.68026460859983
 11
0.0
 21
0.0
 31
1.0
 12
0.0
 22
0.0
 32
0.0
 42
50.0
 43
0.0
 44
0.0
 50
0.0
 71
     0
  0
VIEW
  2
VA
 70
     1
 40
560.0
 10
392.50000000000011
 20
280.0
 41
785.00000000000023
 11
0.0
 21
0.0
 31
1.0
 12
0.0
 22
0.0
 32
0.0
 42
50.0
 43
0.0
 44
0.0
 50
0.0
 71
     0
  0
ENDTAB
  0
TABLE
  2
UCS
 70
     0
  0
ENDTAB
  0
TABLE
  2
APPID
 70
    14
  0
APPID
  2
ACAD
 70
     0
  0
APPID
  2
CONTENTTABDATA
 70
     0
  0
APPID
  2
CONTENTCURRENTTAB
 70
     0
  0
APPID
  2
CONTENTBLOCKICON
 70
     0
  0
APPID
  2
CONTENTBLOCKDESCRIPTION
 70
     0
  0
APPID
  2
ACAD_MLEADERVER
 70
     0
  0
APPID
  2
ACAD_EXEMPT_FROM_CAD_STANDARDS
 70
     0
  0
APPID
  2
ACAD_PSEXT
 70
     0
  0
APPID
  2
ACAD_DSTYLE_DIMJAG
 70
     0
  0
APPID
  2
ACAD_DSTYLE_DIMTALN
 70
     0
  0
APPID
  2
ACADANNOPO
 70
     0
  0
APPID
  2
ACAD_DSTYLE_DIMEXT_ENABLED
 70
     0
  0
APPID
  2
ACAD_DSTYLE_DIMEXT_LENGTH
 70
     0
  0
APPID
  2
ACAD_NAV_VCDISPLAY
 70
     0
  0
ENDTAB
  0
TABLE
  2
DIMSTYLE
 70
     2
  0
DIMSTYLE
  2
1_TO_2_LEADER
 70
     0
  3

  4

  5
ARCHTICK
  6

  7

 40
2.0
 41
1.8
 42
1.8
 43
5.0
 44
1.8
 45
0.0
 46
1.8
 47
0.0
 48
0.0
140
2.0
141
1.8
142
0.0
143
0.0394
144
1.0
145
0.0
146
1.0
147
1.0
 71
     0
 72
     0
 73
     0
 74
     0
 75
     0
 76
     0
 77
     0
 78
     0
170
     0
171
     2
172
     1
173
     0
174
     1
175
     0
176
     0
177
     0
178
     0
  0
DIMSTYLE
  2
1_TO_2
 70
     0
  3
mm
  4
mm
  5

  6

  7

 40
2.0
 41
1.8
 42
1.8
 43
5.0
 44
1.8
 45
0.0
 46
1.8
 47
0.0
 48
0.0
140
2.0
141
1.8
142
0.0
143
0.0394
144
1.0
145
0.0
146
1.0
147
1.0
 71
     0
 72
     0
 73
     0
 74
     0
 75
     0
 76
     0
 77
     1
 78
     0
170
     0
171
     2
172
     0
173
     0
174
     0
175
     0
176
   256
177
   256
178
   256
  0
ENDTAB
  0
ENDSEC
  0
SECTION
  2
BLOCKS
  0
BLOCK
  8
0
  2
$MODEL_SPACE
 70
     2
 10
0.0
 20
0.0
 30
0.0
  3
$MODEL_SPACE
  1

  0
ENDBLK
  5
FFBBDAE469BA29CD
  8
0
  0
BLOCK
 67
     1
  8
0
  2
$PAPER_SPACE
 70
     0
 10
0.0
 20
0.0
 30
0.0
  3
$PAPER_SPACE
  1

  0
ENDBLK
  5
FFBBDAE469BC1BB9
 67
     1
  8
0
  0
BLOCK
  8
0
  2
*D2
 70
     1
 10
0.0
 20
0.0
 30
0.0
  3
*D2
  1

  0
LINE
  5
FFBBDAE469BC1CAF
  8
0
  6
CONTINUOUS
 10
36.0
 20
-113.6431312248332
 30
0.0
 11
36.0
 21
-127.24313122483321
 31
0.0
  0
LINE
  5
FFBBDAE469BC1CB0
  8
0
  6
CONTINUOUS
 10
46.0
 20
-113.6431312248332
 30
0.0
 11
46.0
 21
-127.24313122483321
 31
0.0
  0
LINE
  5
FFBBDAE469BC1CB1
  8
0
  6
CONTINUOUS
 10
32.399999999999999
 20
-123.6431312248333
 30
0.0
 11
28.800000000000001
 21
-123.6431312248333
 31
0.0
  0
LINE
  5
FFBBDAE469BC1CB2
  8
0
  6
CONTINUOUS
 10
49.600000000000001
 20
-123.6431312248333
 30
0.0
 11
53.200000000000003
 21
-123.6431312248333
 31
0.0
  0
LINE
  5
FFBBDAE469BC1CB3
  8
0
  6
CONTINUOUS
 10
99.930707613823444
 20
-123.6431312248333
 30
0.0
 11
46.0
 21
-123.6431312248333
 31
0.0
  0
INSERT
  5
FFBBDAE469BC1CB4
  8
0
  6
CONTINUOUS
  2
*U44
 10
0.0
 20
0.0
 30
0.0
  0
LINE
  5
FFBBDAE469BC1CB5
  8
0
  6
CONTINUOUS
 10
36.0
 20
-123.6431312248333
 30
0.0
 11
46.0
 21
-123.6431312248333
 31
0.0
  0
SOLID
  5
FFBBDAE469BC1CB6
  8
0
  6
CONTINUOUS
 10
32.399999999999999
 20
-123.0431312248333
 30
0.0
 11
32.399999999999999
 21
-124.24313122483321
 31
0.0
 12
36.0
 22
-123.6431312248333
 32
0.0
 13
36.0
 23
-123.6431312248333
 33
0.0
  0
SOLID
  5
FFBBDAE469BC1CB7
  8
0
  6
CONTINUOUS
 10
49.600000000000001
 20
-123.0431312248333
 30
0.0
 11
49.600000000000001
 21
-124.24313122483321
 31
0.0
 12
46.0
 22
-123.6431312248333
 32
0.0
 13
46.0
 23
-123.6431312248333
 33
0.0
  0
POINT
  5
FFBBDAE469BC1CB8
  8
DEFPOINTS
  6
CONTINUOUS
 62
     0
 10
36.0
 20
-105.8036411828834
 30
0.0
  0
POINT
  5
FFBBDAE469BC1CB9
  8
DEFPOINTS
  6
CONTINUOUS
 62
     0
 10
46.0
 20
-84.320865341794374
 30
0.0
  0
POINT
  5
FFBBDAE469BC1CBA
  8
DEFPOINTS
  6
CONTINUOUS
 62
     0
 10
46.0
 20
-123.6431312248333
 30
0.0
  0
ENDBLK
  5
FFBBDAE469BC07C5
  8
0
  0
BLOCK
  8
0
  2
*D3
 70
     1
 10
0.0
 20
0.0
 30
0.0
  3
*D3
  1

  0
LINE
  5
FFBBDAE469BC1CA5
  8
0
  6
CONTINUOUS
 10
46.0
 20
-100.64456170116171
 30
0.0
 11
46.0
 21
-114.2445617011617
 31
0.0
  0
LINE
  5
FFBBDAE469BC1CA6
  8
0
  6
CONTINUOUS
 10
59.287505961641727
 20
-100.64456170116171
 30
0.0
 11
59.287505961641727
 21
-114.2445617011617
 31
0.0
  0
LINE
  5
FFBBDAE469BC1CA7
  8
0
  6
CONTINUOUS
 10
49.600000000000001
 20
-110.64456170116171
 30
0.0
 11
55.687505961641719
 21
-110.64456170116171
 31
0.0
  0
LINE
  5
FFBBDAE469BC1CA8
  8
0
  6
CONTINUOUS
 10
142.64644804755889
 20
-110.64456170116171
 30
0.0
 11
59.287505961641727
 21
-110.64456170116171
 31
0.0
  0
INSERT
  5
FFBBDAE469BC1CA9
  8
0
  6
CONTINUOUS
  2
*U43
 10
0.0
 20
0.0
 30
0.0
  0
SOLID
  5
FFBBDAE469BC1CAA
  8
0
  6
CONTINUOUS
 10
49.600000000000001
 20
-110.0445617011617
 30
0.0
 11
49.600000000000001
 21
-111.2445617011617
 31
0.0
 12
46.0
 22
-110.64456170116171
 32
0.0
 13
46.0
 23
-110.64456170116171
 33
0.0
  0
SOLID
  5
FFBBDAE469BC1CAB
  8
0
  6
CONTINUOUS
 10
55.687505961641719
 20
-110.0445617011617
 30
0.0
 11
55.687505961641719
 21
-111.2445617011617
 31
0.0
 12
59.287505961641727
 22
-110.64456170116171
 32
0.0
 13
59.287505961641727
 23
-110.64456170116171
 33
0.0
  0
POINT
  5
FFBBDAE469BC1CAC
  8
DEFPOINTS
  6
CONTINUOUS
 62
     0
 10
46.0
 20
-84.320865341794374
 30
0.0
  0
POINT
  5
FFBBDAE469BC1CAD
  8
DEFPOINTS
  6
CONTINUOUS
 62
     0
 10
59.287505961641727
 20
-84.334446723168085
 30
0.0
  0
POINT
  5
FFBBDAE469BC1CAE
  8
DEFPOINTS
  6
CONTINUOUS
 62
     0
 10
59.287505961641727
 20
-110.64456170116171
 30
0.0
  0
ENDBLK
  5
FFBBDAE469BC080B
  8
0
  0
BLOCK
  8
0
  2
_ARCHTICK
 70
     0
 10
0.0
 20
0.0
 30
0.0
  3
_ARCHTICK
  1

  0
POLYLINE
  5
FFBBDAE469BC12AC
  8
0
  6
BYBLOCK
 62
     0
 66
     1
 10
0.0
 20
0.0
 30
0.0
 40
0.15
 41
0.15
  0
VERTEX
  5
FFBBDAE469BC1EA2
  8
0
  6
BYBLOCK
 62
     0
 10
-0.5
 20
-0.5
 30
0.0
  0
VERTEX
  5
FFBBDAE469BC1EA3
  8
0
  6
BYBLOCK
 62
     0
 10
0.5
 20
0.5
 30
0.0
  0
SEQEND
  5
FFBBDAE469BC1EA4
  8
0
  6
BYBLOCK
 62
     0
  0
ENDBLK
  5
FFBBDAE469BC12AE
  8
0
  0
BLOCK
  8
0
  2
*D7
 70
     1
 10
0.0
 20
0.0
 30
0.0
  3
*D7
  1

  0
LINE
  5
FFBBDAE469BC1C9C
  8
0
  6
CONTINUOUS
 10
-94.340949155313936
 20
-4.5000000000000284
 30
0.0
 11
-107.9409491553139
 21
-4.500000000000024
 31
0.0
  0
LINE
  5
FFBBDAE469BC1C9D
  8
0
  6
CONTINUOUS
 10
-94.340949155313979
 20
-104.5
 30
0.0
 11
-107.940949155314
 21
-104.5
 31
0.0
  0
LINE
  5
FFBBDAE469BC1C9E
  8
0
  6
CONTINUOUS
 10
-104.34094915531389
 20
-8.1000000000000263
 30
0.0
 11
-104.34094915531399
 21
-100.90000000000001
 31
0.0
  0
SOLID
  5
FFBBDAE469BC1C9F
  8
0
  6
CONTINUOUS
 10
-104.9409491553139
 20
-8.1000000000000263
 30
0.0
 11
-103.7409491553139
 21
-8.1000000000000263
 31
0.0
 12
-104.34094915531389
 22
-4.5000000000000249
 32
0.0
 13
-104.34094915531389
 23
-4.5000000000000249
 33
0.0
  0
SOLID
  5
FFBBDAE469BC1CA0
  8
0
  6
CONTINUOUS
 10
-104.940949155314
 20
-100.90000000000001
 30
0.0
 11
-103.7409491553139
 21
-100.90000000000001
 31
0.0
 12
-104.34094915531399
 22
-104.5
 32
0.0
 13
-104.34094915531399
 23
-104.5
 33
0.0
  0
INSERT
  5
FFBBDAE469BC1CA1
  8
0
  6
CONTINUOUS
  2
*U42
 10
0.0
 20
0.0
 30
0.0
  0
POINT
  5
FFBBDAE469BC1CA2
  8
DEFPOINTS
  6
CONTINUOUS
 62
     0
 10
4.5000000000027276
 20
-4.500000000000056
 30
0.0
  0
POINT
  5
FFBBDAE469BC1CA3
  8
DEFPOINTS
  6
CONTINUOUS
 62
     0
 10
4.5000000000027089
 20
-104.5
 30
0.0
  0
POINT
  5
FFBBDAE469BC1CA4
  8
DEFPOINTS
  6
CONTINUOUS
 62
     0
 10
-104.34094915531399
 20
-104.5
 30
0.0
  0
ENDBLK
  5
FFBBDAE469BC15E9
  8
0
  0
BLOCK
  8
0
  2
*U9
 70
     1
 10
0.0
 20
0.0
 30
0.0
  3
*U9
  1

  0
POLYLINE
  8
0
  5
7FFFFFFF
  66
     1
 10
0.000000
 20
0.000000
 30
0.000000
  70
     8
  0
VERTEX
  8
0
  5
80000000
 10
36.8385
 20
-123.643
 30
0.000000
  70
    32
  0
VERTEX
  8
0
  5
80000001
 10
36.6664
 20
-123.643
 30
0.000000
  70
    32
  0
VERTEX
  8
0
  5
80000002
 10
36.4944
 20
-123.643
 30
0.000000
  70
    32
  0
VERTEX
  8
0
  5
80000003
 10
36.3224
 20
-123.643
 30
0.000000
  70
    32
  0
VERTEX
  8
0
  5
80000004
 10
36.1504
 20
-123.643
 30
0.000000
  70
    32
  0
VERTEX
  8
0
  5
80000005
 10
35.9784
 20
-123.643
 30
0.000000
  70
    32
  0
VERTEX
  8
0
  5
80000006
 10
35.8064
 20
-123.643
 30
0.000000
  70
    32
  0
VERTEX
  8
0
  5
80000007
 10
35.6343
 20
-123.643
 30
0.000000
  70
    32
  0
VERTEX
  8
0
  5
80000008
 10
35.4623
 20
-123.643
 30
0.000000
  70
    32
  0
VERTEX
  8
0
  5
80000009
 10
35.2903
 20
-123.643
 30
0.000000
  70
    32
  0
VERTEX
  8
0
  5
8000000A
 10
35.1183
 20
-123.643
 30
0.000000
  70
    32
  0
VERTEX
  8
0
  5
8000000B
 10
34.9463
 20
-123.643
 30
0.000000
  70
    32
  0
VERTEX
  8
0
  5
8000000C
 10
34.7743
 20
-123.643
 30
0.000000
  70
    32
  0
VERTEX
  8
0
  5
8000000D
 10
34.6022
 20
-123.643
 30
0.000000
  70
    32
  0
VERTEX
  8
0
  5
8000000E
 10
34.4302
 20
-123.643
 30
0.000000
  70
    32
  0
VERTEX
  8
0
  5
8000000F
 10
34.2582
 20
-123.643
 30
0.000000
  70
    32
  0
VERTEX
  8
0
  5
80000010
 10
34.0862
 20
-123.643
 30
0.000000
  70
    32
  0
VERTEX
  8
0
  5
80000011
 10
33.9142
 20
-123.643
 30
0.000000
  70
    32
  0
VERTEX
  8
0
  5
80000012
 10
33.7422
 20
-123.643
 30
0.000000
  70
    32
  0
VERTEX
  8
0
  5
80000013
 10
33.5702
 20
-123.643
 30
0.000000
  70
    32
  0
VERTEX
  8
0
  5
80000014
 10
33.3981
 20
-123.643
 30
0.000000
  70
    32
  0
VERTEX
  8
0
  5
80000015
 10
33.2261
 20
-123.643
 30
0.000000
  70
    32
  0
VERTEX
  8
0
  5
80000016
 10
33.0541
 20
-123.643
 30
0.000000
  70
    32
  0
VERTEX
  8
0
  5
80000017
 10
32.8821
 20
-123.643
 30
0.000000
  70
    32
  0
VERTEX
  8
0
  5
80000018
 10
32.7101
 20
-123.643
 30
0.000000
  70
    32
  0
VERTEX
  8
0
  5
80000019
 10
32.5381
 20
-123.643
 30
0.000000
  70
    32
  0
VERTEX
  8
0
  5
8000001A
 10
32.3660
 20
-123.643
 30
0.000000
  70
    32
  0
VERTEX
  8
0
  5
8000001B
 10
32.1940
 20
-123.643
 30
0.000000
  70
    32
  0
VERTEX
  8
0
  5
8000001C
 10
32.0220
 20
-123.643
 30
0.000000
  70
    32
  0
VERTEX
  8
0
  5
8000001D
 10
31.8500
 20
-123.643
 30
0.000000
  70
    32
  0
VERTEX
  8
0
  5
8000001E
 10
31.6780
 20
-123.643
 30
0.000000
  70
    32
  0
VERTEX
  8
0
  5
8000001F
 10
31.5060
 20
-123.643
 30
0.000000
  70
    32
  0
VERTEX
  8
0
  5
80000020
 10
31.3340
 20
-123.643
 30
0.000000
  70
    32
  0
VERTEX
  8
0
  5
80000021
 10
31.1619
 20
-123.643
 30
0.000000
  70
    32
  0
VERTEX
  8
0
  5
80000022
 10
30.9899
 20
-123.643
 30
0.000000
  70
    32
  0
VERTEX
  8
0
  5
80000023
 10
30.8179
 20
-123.643
 30
0.000000
  70
    32
  0
VERTEX
  8
0
  5
80000024
 10
30.6459
 20
-123.643
 30
0.000000
  70
    32
  0
VERTEX
  8
0
  5
80000025
 10
30.4739
 20
-123.643
 30
0.000000
  70
    32
  0
VERTEX
  8
0
  5
80000026
 10
30.3019
 20
-123.643
 30
0.000000
  70
    32
  0
VERTEX
  8
0
  5
80000027
 10
30.1298
 20
-123.643
 30
0.000000
  70
    32
  0
VERTEX
  8
0
  5
80000028
 10
29.9578
 20
-123.643
 30
0.000000
  70
    32
  0
VERTEX
  8
0
  5
80000029
 10
29.7858
 20
-123.643
 30
0.000000
  70
    32
  0
VERTEX
  8
0
  5
8000002A
 10
29.6138
 20
-123.643
 30
0.000000
  70
    32
  0
VERTEX
  8
0
  5
8000002B
 10
29.4418
 20
-123.643
 30
0.000000
  70
    32
  0
VERTEX
  8
0
  5
8000002C
 10
29.2698
 20
-123.643
 30
0.000000
  70
    32
  0
VERTEX
  8
0
  5
8000002D
 10
29.0978
 20
-123.643
 30
0.000000
  70
    32
  0
VERTEX
  8
0
  5
8000002E
 10
28.9257
 20
-123.643
 30
0.000000
  70
    32
  0
VERTEX
  8
0
  5
8000002F
 10
28.7537
 20
-123.643
 30
0.000000
  70
    32
  0
VERTEX
  8
0
  5
80000030
 10
28.5817
 20
-123.643
 30
0.000000
  70
    32
  0
VERTEX
  8
0
  5
80000031
 10
28.4097
 20
-123.643
 30
0.000000
  70
    32
  0
VERTEX
  8
0
  5
80000032
 10
28.2377
 20
-123.643
 30
0.000000
  70
    32
  0
VERTEX
  8
0
  5
80000033
 10
28.0657
 20
-123.643
 30
0.000000
  70
    32
  0
VERTEX
  8
0
  5
80000034
 10
27.8936
 20
-123.643
 30
0.000000
  70
    32
  0
VERTEX
  8
0
  5
80000035
 10
27.7216
 20
-123.643
 30
0.000000
  70
    32
  0
VERTEX
  8
0
  5
80000036
 10
27.5496
 20
-123.643
 30
0.000000
  70
    32
  0
VERTEX
  8
0
  5
80000037
 10
27.3776
 20
-123.643
 30
0.000000
  70
    32
  0
VERTEX
  8
0
  5
80000038
 10
27.2056
 20
-123.643
 30
0.000000
  70
    32
  0
VERTEX
  8
0
  5
80000039
 10
27.0336
 20
-123.643
 30
0.000000
  70
    32
  0
VERTEX
  8
0
  5
8000003A
 10
26.8616
 20
-123.643
 30
0.000000
  70
    32
  0
VERTEX
  8
0
  5
8000003B
 10
26.6895
 20
-123.643
 30
0.000000
  70
    32
  0
VERTEX
  8
0
  5
8000003C
 10
26.5175
 20
-123.643
 30
0.000000
  70
    32
  0
VERTEX
  8
0
  5
8000003D
 10
26.3455
 20
-123.643
 30
0.000000
  70
    32
  0
VERTEX
  8
0
  5
8000003E
 10
26.1735
 20
-123.643
 30
0.000000
  70
    32
  0
VERTEX
  8
0
  5
8000003F
 10
26.0015
 20
-123.643
 30
0.000000
  70
    32
  0
VERTEX
  8
0
  5
80000040
 10
25.8295
 20
-123.643
 30
0.000000
  70
    32
  0
VERTEX
  8
0
  5
80000041
 10
25.6574
 20
-123.643
 30
0.000000
  70
    32
  0
VERTEX
  8
0
  5
80000042
 10
25.4854
 20
-123.643
 30
0.000000
  70
    32
  0
VERTEX
  8
0
  5
80000043
 10
25.3134
 20
-123.643
 30
0.000000
  70
    32
  0
VERTEX
  8
0
  5
80000044
 10
25.1414
 20
-123.643
 30
0.000000
  70
    32
  0
VERTEX
  8
0
  5
80000045
 10
24.9694
 20
-123.643
 30
0.000000
  70
    32
  0
VERTEX
  8
0
  5
80000046
 10
24.7974
 20
-123.643
 30
0.000000
  70
    32
  0
VERTEX
  8
0
  5
80000047
 10
24.6254
 20
-123.643
 30
0.000000
  70
    32
  0
VERTEX
  8
0
  5
80000048
 10
24.4533
 20
-123.643
 30
0.000000
  70
    32
  0
VERTEX
  8
0
  5
80000049
 10
24.2813
 20
-123.643
 30
0.000000
  70
    32
  0
VERTEX
  8
0
  5
8000004A
 10
24.1093
 20
-123.643
 30
0.000000
  70
    32
  0
VERTEX
  8
0
  5
8000004B
 10
23.9373
 20
-123.643
 30
0.000000
  70
    32
  0
VERTEX
  8
0
  5
8000004C
 10
23.7653
 20
-123.643
 30
0.000000
  70
    32
  0
VERTEX
  8
0
  5
8000004D
 10
23.5933
 20
-123.643
 30
0.000000
  70
    32
  0
VERTEX
  8
0
  5
8000004E
 10
23.4212
 20
-123.643
 30
0.000000
  70
    32
  0
VERTEX
  8
0
  5
8000004F
 10
23.2492
 20
-123.643
 30
0.000000
  70
    32
  0
VERTEX
  8
0
  5
80000050
 10
23.0772
 20
-123.643
 30
0.000000
  70
    32
  0
VERTEX
  8
0
  5
80000051
 10
22.9052
 20
-123.643
 30
0.000000
  70
    32
  0
VERTEX
  8
0
  5
80000052
 10
22.7332
 20
-123.643
 30
0.000000
  70
    32
  0
VERTEX
  8
0
  5
80000053
 10
22.5612
 20
-123.643
 30
0.000000
  70
    32
  0
VERTEX
  8
0
  5
80000054
 10
22.3892
 20
-123.643
 30
0.000000
  70
    32
  0
VERTEX
  8
0
  5
80000055
 10
22.2171
 20
-123.643
 30
0.000000
  70
    32
  0
VERTEX
  8
0
  5
80000056
 10
22.0451
 20
-123.643
 30
0.000000
  70
    32
  0
VERTEX
  8
0
  5
80000057
 10
21.8731
 20
-123.643
 30
0.000000
  70
    32
  0
VERTEX
  8
0
  5
80000058
 10
21.7011
 20
-123.643
 30
0.000000
  70
    32
  0
VERTEX
  8
0
  5
80000059
 10
21.5291
 20
-123.643
 30
0.000000
  70
    32
  0
VERTEX
  8
0
  5
8000005A
 10
21.3571
 20
-123.643
 30
0.000000
  70
    32
  0
VERTEX
  8
0
  5
8000005B
 10
21.1850
 20
-123.643
 30
0.000000
  70
    32
  0
VERTEX
  8
0
  5
8000005C
 10
21.0130
 20
-123.643
 30
0.000000
  70
    32
  0
VERTEX
  8
0
  5
8000005D
 10
20.8410
 20
-123.643
 30
0.000000
  70
    32
  0
VERTEX
  8
0
  5
8000005E
 10
20.6690
 20
-123.643
 30
0.000000
  70
    32
  0
VERTEX
  8
0
  5
8000005F
 10
20.4970
 20
-123.643
 30
0.000000
  70
    32
  0
VERTEX
  8
0
  5
80000060
 10
20.3250
 20
-123.643
 30
0.000000
  70
    32
  0
VERTEX
  8
0
  5
80000061
 10
20.1529
 20
-123.643
 30
0.000000
  70
    32
  0
VERTEX
  8
0
  5
80000062
 10
19.9809
 20
-123.643
 30
0.000000
  70
    32
  0
VERTEX
  8
0
  5
80000063
 10
19.8089
 20
-123.643
 30
0.000000
  70
    32
  0
VERTEX
  8
0
  5
80000064
 10
19.6369
 20
-123.643
 30
0.000000
  70
    32
  0
VERTEX
  8
0
  5
80000065
 10
19.4649
 20
-123.643
 30
0.000000
  70
    32
  0
VERTEX
  8
0
  5
80000066
 10
19.2929
 20
-123.643
 30
0.000000
  70
    32
  0
VERTEX
  8
0
  5
80000067
 10
19.1209
 20
-123.643
 30
0.000000
  70
    32
  0
VERTEX
  8
0
  5
80000068
 10
18.9488
 20
-123.643
 30
0.000000
  70
    32
  0
VERTEX
  8
0
  5
80000069
 10
18.7768
 20
-123.643
 30
0.000000
  70
    32
  0
VERTEX
  8
0
  5
8000006A
 10
18.6048
 20
-123.643
 30
0.000000
  70
    32
  0
VERTEX
  8
0
  5
8000006B
 10
18.4328
 20
-123.643
 30
0.000000
  70
    32
  0
VERTEX
  8
0
  5
8000006C
 10
18.2608
 20
-123.643
 30
0.000000
  70
    32
  0
VERTEX
  8
0
  5
8000006D
 10
18.0888
 20
-123.643
 30
0.000000
  70
    32
  0
VERTEX
  8
0
  5
8000006E
 10
17.9167
 20
-123.643
 30
0.000000
  70
    32
  0
VERTEX
  8
0
  5
8000006F
 10
17.7447
 20
-123.643
 30
0.000000
  70
    32
  0
VERTEX
  8
0
  5
80000070
 10
17.5727
 20
-123.643
 30
0.000000
  70
    32
  0
VERTEX
  8
0
  5
80000071
 10
17.4007
 20
-123.643
 30
0.000000
  70
    32
  0
VERTEX
  8
0
  5
80000072
 10
17.2287
 20
-123.643
 30
0.000000
  70
    32
  0
VERTEX
  8
0
  5
80000073
 10
17.0567
 20
-123.643
 30
0.000000
  70
    32
  0
VERTEX
  8
0
  5
80000074
 10
16.8847
 20
-123.643
 30
0.000000
  70
    32
  0
VERTEX
  8
0
  5
80000075
 10
16.7126
 20
-123.643
 30
0.000000
  70
    32
  0
VERTEX
  8
0
  5
80000076
 10
16.5406
 20
-123.643
 30
0.000000
  70
    32
  0
VERTEX
  8
0
  5
80000077
 10
16.3686
 20
-123.643
 30
0.000000
  70
    32
  0
VERTEX
  8
0
  5
80000078
 10
16.1966
 20
-123.643
 30
0.000000
  70
    32
  0
VERTEX
  8
0
  5
80000079
 10
16.0246
 20
-123.643
 30
0.000000
  70
    32
  0
VERTEX
  8
0
  5
8000007A
 10
15.8526
 20
-123.643
 30
0.000000
  70
    32
  0
VERTEX
  8
0
  5
8000007B
 10
15.6805
 20
-123.643
 30
0.000000
  70
    32
  0
VERTEX
  8
0
  5
8000007C
 10
15.5085
 20
-123.643
 30
0.000000
  70
    32
  0
VERTEX
  8
0
  5
8000007D
 10
15.3365
 20
-123.643
 30
0.000000
  70
    32
  0
VERTEX
  8
0
  5
8000007E
 10
15.1645
 20
-123.643
 30
0.000000
  70
    32
  0
VERTEX
  8
0
  5
8000007F
 10
14.9925
 20
-123.643
 30
0.000000
  70
    32
  0
SEQEND
  8
0
  5
80000080
  0
ENDBLK
  5
FFBBDAE469BC1CF9
  8
0
  0
BLOCK
  8
0
  2
*U10
 70
     1
 10
0.0
 20
0.0
 30
0.0
  3
*U10
  1

  0
POLYLINE
  8
0
  5
80000081
  66
     1
 10
0.000000
 20
0.000000
 30
0.000000
  70
     8
  0
VERTEX
  8
0
  5
80000082
 10
45.5000
 20
-123.643
 30
0.000000
  70
    32
  0
VERTEX
  8
0
  5
80000083
 10
45.3543
 20
-123.643
 30
0.000000
  70
    32
  0
VERTEX
  8
0
  5
80000084
 10
45.2085
 20
-123.643
 30
0.000000
  70
    32
  0
VERTEX
  8
0
  5
80000085
 10
45.0628
 20
-123.643
 30
0.000000
  70
    32
  0
VERTEX
  8
0
  5
80000086
 10
44.9171
 20
-123.643
 30
0.000000
  70
    32
  0
VERTEX
  8
0
  5
80000087
 10
44.7714
 20
-123.643
 30
0.000000
  70
    32
  0
VERTEX
  8
0
  5
80000088
 10
44.6256
 20
-123.643
 30
0.000000
  70
    32
  0
VERTEX
  8
0
  5
80000089
 10
44.4799
 20
-123.643
 30
0.000000
  70
    32
  0
VERTEX
  8
0
  5
8000008A
 10
44.3342
 20
-123.643
 30
0.000000
  70
    32
  0
VERTEX
  8
0
  5
8000008B
 10
44.1884
 20
-123.643
 30
0.000000
  70
    32
  0
VERTEX
  8
0
  5
8000008C
 10
44.0427
 20
-123.643
 30
0.000000
  70
    32
  0
VERTEX
  8
0
  5
8000008D
 10
43.8970
 20
-123.643
 30
0.000000
  70
    32
  0
VERTEX
  8
0
  5
8000008E
 10
43.7513
 20
-123.643
 30
0.000000
  70
    32
  0
VERTEX
  8
0
  5
8000008F
 10
43.6055
 20
-123.643
 30
0.000000
  70
    32
  0
VERTEX
  8
0
  5
80000090
 10
43.4598
 20
-123.643
 30
0.000000
  70
    32
  0
VERTEX
  8
0
  5
80000091
 10
43.3141
 20
-123.643
 30
0.000000
  70
    32
  0
VERTEX
  8
0
  5
80000092
 10
43.1683
 20
-123.643
 30
0.000000
  70
    32
  0
VERTEX
  8
0
  5
80000093
 10
43.0226
 20
-123.643
 30
0.000000
  70
    32
  0
VERTEX
  8
0
  5
80000094
 10
42.8769
 20
-123.643
 30
0.000000
  70
    32
  0
VERTEX
  8
0
  5
80000095
 10
42.7312
 20
-123.643
 30
0.000000
  70
    32
  0
VERTEX
  8
0
  5
80000096
 10
42.5854
 20
-123.643
 30
0.000000
  70
    32
  0
VERTEX
  8
0
  5
80000097
 10
42.4397
 20
-123.643
 30
0.000000
  70
    32
  0
VERTEX
  8
0
  5
80000098
 10
42.2940
 20
-123.643
 30
0.000000
  70
    32
  0
VERTEX
  8
0
  5
80000099
 10
42.1482
 20
-123.643
 30
0.000000
  70
    32
  0
VERTEX
  8
0
  5
8000009A
 10
42.0025
 20
-123.643
 30
0.000000
  70
    32
  0
VERTEX
  8
0
  5
8000009B
 10
41.8568
 20
-123.643
 30
0.000000
  70
    32
  0
VERTEX
  8
0
  5
8000009C
 10
41.7111
 20
-123.643
 30
0.000000
  70
    32
  0
VERTEX
  8
0
  5
8000009D
 10
41.5653
 20
-123.643
 30
0.000000
  70
    32
  0
VERTEX
  8
0
  5
8000009E
 10
41.4196
 20
-123.643
 30
0.000000
  70
    32
  0
VERTEX
  8
0
  5
8000009F
 10
41.2739
 20
-123.643
 30
0.000000
  70
    32
  0
VERTEX
  8
0
  5
800000A0
 10
41.1281
 20
-123.643
 30
0.000000
  70
    32
  0
VERTEX
  8
0
  5
800000A1
 10
40.9824
 20
-123.643
 30
0.000000
  70
    32
  0
VERTEX
  8
0
  5
800000A2
 10
40.8367
 20
-123.643
 30
0.000000
  70
    32
  0
VERTEX
  8
0
  5
800000A3
 10
40.6910
 20
-123.643
 30
0.000000
  70
    32
  0
VERTEX
  8
0
  5
800000A4
 10
40.5452
 20
-123.643
 30
0.000000
  70
    32
  0
VERTEX
  8
0
  5
800000A5
 10
40.3995
 20
-123.643
 30
0.000000
  70
    32
  0
VERTEX
  8
0
  5
800000A6
 10
40.2538
 20
-123.643
 30
0.000000
  70
    32
  0
VERTEX
  8
0
  5
800000A7
 10
40.1080
 20
-123.643
 30
0.000000
  70
    32
  0
VERTEX
  8
0
  5
800000A8
 10
39.9623
 20
-123.643
 30
0.000000
  70
    32
  0
VERTEX
  8
0
  5
800000A9
 10
39.8166
 20
-123.643
 30
0.000000
  70
    32
  0
VERTEX
  8
0
  5
800000AA
 10
39.6709
 20
-123.643
 30
0.000000
  70
    32
  0
VERTEX
  8
0
  5
800000AB
 10
39.5251
 20
-123.643
 30
0.000000
  70
    32
  0
VERTEX
  8
0
  5
800000AC
 10
39.3794
 20
-123.643
 30
0.000000
  70
    32
  0
VERTEX
  8
0
  5
800000AD
 10
39.2337
 20
-123.643
 30
0.000000
  70
    32
  0
VERTEX
  8
0
  5
800000AE
 10
39.0879
 20
-123.643
 30
0.000000
  70
    32
  0
VERTEX
  8
0
  5
800000AF
 10
38.9422
 20
-123.643
 30
0.000000
  70
    32
  0
VERTEX
  8
0
  5
800000B0
 10
38.7965
 20
-123.643
 30
0.000000
  70
    32
  0
VERTEX
  8
0
  5
800000B1
 10
38.6508
 20
-123.643
 30
0.000000
  70
    32
  0
VERTEX
  8
0
  5
800000B2
 10
38.5050
 20
-123.643
 30
0.000000
  70
    32
  0
VERTEX
  8
0
  5
800000B3
 10
38.3593
 20
-123.643
 30
0.000000
  70
    32
  0
VERTEX
  8
0
  5
800000B4
 10
38.2136
 20
-123.643
 30
0.000000
  70
    32
  0
VERTEX
  8
0
  5
800000B5
 10
38.0678
 20
-123.643
 30
0.000000
  70
    32
  0
VERTEX
  8
0
  5
800000B6
 10
37.9221
 20
-123.643
 30
0.000000
  70
    32
  0
VERTEX
  8
0
  5
800000B7
 10
37.7764
 20
-123.643
 30
0.000000
  70
    32
  0
VERTEX
  8
0
  5
800000B8
 10
37.6307
 20
-123.643
 30
0.000000
  70
    32
  0
VERTEX
  8
0
  5
800000B9
 10
37.4849
 20
-123.643
 30
0.000000
  70
    32
  0
VERTEX
  8
0
  5
800000BA
 10
37.3392
 20
-123.643
 30
0.000000
  70
    32
  0
VERTEX
  8
0
  5
800000BB
 10
37.1935
 20
-123.643
 30
0.000000
  70
    32
  0
VERTEX
  8
0
  5
800000BC
 10
37.0477
 20
-123.643
 30
0.000000
  70
    32
  0
VERTEX
  8
0
  5
800000BD
 10
36.9020
 20
-123.643
 30
0.000000
  70
    32
  0
VERTEX
  8
0
  5
800000BE
 10
36.7563
 20
-123.643
 30
0.000000
  70
    32
  0
VERTEX
  8
0
  5
800000BF
 10
36.6106
 20
-123.643
 30
0.000000
  70
    32
  0
VERTEX
  8
0
  5
800000C0
 10
36.4648
 20
-123.643
 30
0.000000
  70
    32
  0
VERTEX
  8
0
  5
800000C1
 10
36.3191
 20
-123.643
 30
0.000000
  70
    32
  0
VERTEX
  8
0
  5
800000C2
 10
36.1734
 20
-123.643
 30
0.000000
  70
    32
  0
VERTEX
  8
0
  5
800000C3
 10
36.0276
 20
-123.643
 30
0.000000
  70
    32
  0
VERTEX
  8
0
  5
800000C4
 10
35.8819
 20
-123.643
 30
0.000000
  70
    32
  0
VERTEX
  8
0
  5
800000C5
 10
35.7362
 20
-123.643
 30
0.000000
  70
    32
  0
VERTEX
  8
0
  5
800000C6
 10
35.5905
 20
-123.643
 30
0.000000
  70
    32
  0
VERTEX
  8
0
  5
800000C7
 10
35.4447
 20
-123.643
 30
0.000000
  70
    32
  0
VERTEX
  8
0
  5
800000C8
 10
35.2990
 20
-123.643
 30
0.000000
  70
    32
  0
VERTEX
  8
0
  5
800000C9
 10
35.1533
 20
-123.643
 30
0.000000
  70
    32
  0
VERTEX
  8
0
  5
800000CA
 10
35.0076
 20
-123.643
 30
0.000000
  70
    32
  0
VERTEX
  8
0
  5
800000CB
 10
34.8618
 20
-123.643
 30
0.000000
  70
    32
  0
VERTEX
  8
0
  5
800000CC
 10
34.7161
 20
-123.643
 30
0.000000
  70
    32
  0
VERTEX
  8
0
  5
800000CD
 10
34.5704
 20
-123.643
 30
0.000000
  70
    32
  0
VERTEX
  8
0
  5
800000CE
 10
34.4246
 20
-123.643
 30
0.000000
  70
    32
  0
VERTEX
  8
0
  5
800000CF
 10
34.2789
 20
-123.643
 30
0.000000
  70
    32
  0
VERTEX
  8
0
  5
800000D0
 10
34.1332
 20
-123.643
 30
0.000000
  70
    32
  0
VERTEX
  8
0
  5
800000D1
 10
33.9875
 20
-123.643
 30
0.000000
  70
    32
  0
VERTEX
  8
0
  5
800000D2
 10
33.8417
 20
-123.643
 30
0.000000
  70
    32
  0
VERTEX
  8
0
  5
800000D3
 10
33.6960
 20
-123.643
 30
0.000000
  70
    32
  0
VERTEX
  8
0
  5
800000D4
 10
33.5503
 20
-123.643
 30
0.000000
  70
    32
  0
VERTEX
  8
0
  5
800000D5
 10
33.4045
 20
-123.643
 30
0.000000
  70
    32
  0
VERTEX
  8
0
  5
800000D6
 10
33.2588
 20
-123.643
 30
0.000000
  70
    32
  0
VERTEX
  8
0
  5
800000D7
 10
33.1131
 20
-123.643
 30
0.000000
  70
    32
  0
VERTEX
  8
0
  5
800000D8
 10
32.9674
 20
-123.643
 30
0.000000
  70
    32
  0
VERTEX
  8
0
  5
800000D9
 10
32.8216
 20
-123.643
 30
0.000000
  70
    32
  0
VERTEX
  8
0
  5
800000DA
 10
32.6759
 20
-123.643
 30
0.000000
  70
    32
  0
VERTEX
  8
0
  5
800000DB
 10
32.5302
 20
-123.643
 30
0.000000
  70
    32
  0
VERTEX
  8
0
  5
800000DC
 10
32.3844
 20
-123.643
 30
0.000000
  70
    32
  0
VERTEX
  8
0
  5
800000DD
 10
32.2387
 20
-123.643
 30
0.000000
  70
    32
  0
VERTEX
  8
0
  5
800000DE
 10
32.0930
 20
-123.643
 30
0.000000
  70
    32
  0
VERTEX
  8
0
  5
800000DF
 10
31.9473
 20
-123.643
 30
0.000000
  70
    32
  0
VERTEX
  8
0
  5
800000E0
 10
31.8015
 20
-123.643
 30
0.000000
  70
    32
  0
VERTEX
  8
0
  5
800000E1
 10
31.6558
 20
-123.643
 30
0.000000
  70
    32
  0
VERTEX
  8
0
  5
800000E2
 10
31.5101
 20
-123.643
 30
0.000000
  70
    32
  0
VERTEX
  8
0
  5
800000E3
 10
31.3643
 20
-123.643
 30
0.000000
  70
    32
  0
VERTEX
  8
0
  5
800000E4
 10
31.2186
 20
-123.643
 30
0.000000
  70
    32
  0
VERTEX
  8
0
  5
800000E5
 10
31.0729
 20
-123.643
 30
0.000000
  70
    32
  0
VERTEX
  8
0
  5
800000E6
 10
30.9272
 20
-123.643
 30
0.000000
  70
    32
  0
VERTEX
  8
0
  5
800000E7
 10
30.7814
 20
-123.643
 30
0.000000
  70
    32
  0
VERTEX
  8
0
  5
800000E8
 10
30.6357
 20
-123.643
 30
0.000000
  70
    32
  0
VERTEX
  8
0
  5
800000E9
 10
30.4900
 20
-123.643
 30
0.000000
  70
    32
  0
VERTEX
  8
0
  5
800000EA
 10
30.3442
 20
-123.643
 30
0.000000
  70
    32
  0
VERTEX
  8
0
  5
800000EB
 10
30.1985
 20
-123.643
 30
0.000000
  70
    32
  0
VERTEX
  8
0
  5
800000EC
 10
30.0528
 20
-123.643
 30
0.000000
  70
    32
  0
VERTEX
  8
0
  5
800000ED
 10
29.9071
 20
-123.643
 30
0.000000
  70
    32
  0
VERTEX
  8
0
  5
800000EE
 10
29.7613
 20
-123.643
 30
0.000000
  70
    32
  0
VERTEX
  8
0
  5
800000EF
 10
29.6156
 20
-123.643
 30
0.000000
  70
    32
  0
VERTEX
  8
0
  5
800000F0
 10
29.4699
 20
-123.643
 30
0.000000
  70
    32
  0
VERTEX
  8
0
  5
800000F1
 10
29.3241
 20
-123.643
 30
0.000000
  70
    32
  0
VERTEX
  8
0
  5
800000F2
 10
29.1784
 20
-123.643
 30
0.000000
  70
    32
  0
VERTEX
  8
0
  5
800000F3
 10
29.0327
 20
-123.643
 30
0.000000
  70
    32
  0
VERTEX
  8
0
  5
800000F4
 10
28.8870
 20
-123.643
 30
0.000000
  70
    32
  0
VERTEX
  8
0
  5
800000F5
 10
28.7412
 20
-123.643
 30
0.000000
  70
    32
  0
VERTEX
  8
0
  5
800000F6
 10
28.5955
 20
-123.643
 30
0.000000
  70
    32
  0
VERTEX
  8
0
  5
800000F7
 10
28.4498
 20
-123.643
 30
0.000000
  70
    32
  0
VERTEX
  8
0
  5
800000F8
 10
28.3040
 20
-123.643
 30
0.000000
  70
    32
  0
VERTEX
  8
0
  5
800000F9
 10
28.1583
 20
-123.643
 30
0.000000
  70
    32
  0
VERTEX
  8
0
  5
800000FA
 10
28.0126
 20
-123.643
 30
0.000000
  70
    32
  0
VERTEX
  8
0
  5
800000FB
 10
27.8669
 20
-123.643
 30
0.000000
  70
    32
  0
VERTEX
  8
0
  5
800000FC
 10
27.7211
 20
-123.643
 30
0.000000
  70
    32
  0
VERTEX
  8
0
  5
800000FD
 10
27.5754
 20
-123.643
 30
0.000000
  70
    32
  0
VERTEX
  8
0
  5
800000FE
 10
27.4297
 20
-123.643
 30
0.000000
  70
    32
  0
VERTEX
  8
0
  5
800000FF
 10
27.2839
 20
-123.643
 30
0.000000
  70
    32
  0
VERTEX
  8
0
  5
80000100
 10
27.1382
 20
-123.643
 30
0.000000
  70
    32
  0
VERTEX
  8
0
  5
80000101
 10
26.9925
 20
-123.643
 30
0.000000
  70
    32
  0
SEQEND
  8
0
  5
80000102
  0
ENDBLK
  5
FFBBDAE469BC1CFD
  8
0
  0
BLOCK
  8
0
  2
*U11
 70
     1
 10
0.0
 20
0.0
 30
0.0
  3
*U11
  1

  0
SOLID
  5
FFBBDAE469BC1D50
  8
0
  6
CONTINUOUS
 10
35.822096980668
 20
-26.0
 30
0.0
 11
35.521762951927009
 21
-26.173857177509881
 31
0.0
 12
46.478237048072657
 22
-26.173857177509881
 32
0.0
 13
46.478237048072657
 23
-26.173857177509881
 33
0.0
210
0.0
220
0.0
230
1.0
  0
SOLID
  5
FFBBDAE469BC1D51
  8
0
  6
CONTINUOUS
 10
-35.822096980668
 20
-26.0
 30
0.0
 11
-46.177903019345642
 21
-26.0
 31
0.0
 12
-46.478237048072657
 22
-26.173857177509881
 32
0.0
 13
-46.478237048072657
 23
-26.173857177509881
 33
0.0
210
0.0
220
0.0
230
-1.0
  0
SOLID
  5
FFBBDAE469BC1D52
  8
0
  6
CONTINUOUS
 10
35.521762951933482
 20
-26.173857177509881
 30
0.0
 11
35.403197753333018
 21
-26.500000000004949
 31
0.0
 12
46.59680224666841
 22
-26.500000000004949
 32
0.0
 13
46.59680224666841
 23
-26.500000000004949
 33
0.0
210
0.0
220
0.0
230
1.0
  0
SOLID
  5
FFBBDAE469BC1D53
  8
0
  6
CONTINUOUS
 10
-35.521762951933482
 20
-26.173857177509881
 30
0.0
 11
-46.478237048072657
 21
-26.173857177509881
 31
0.0
 12
-46.59680224666841
 22
-26.500000000004949
 32
0.0
 13
-46.59680224666841
 23
-26.500000000004949
 33
0.0
210
0.0
220
0.0
230
-1.0
  0
SOLID
  5
FFBBDAE469BC1D54
  8
0
  6
CONTINUOUS
 10
35.403197753335789
 20
-26.500000000004949
 30
0.0
 11
35.521762951937248
 21
-26.826142822497228
 31
0.0
 12
46.478237048064948
 22
-26.826142822497228
 32
0.0
 13
46.478237048064948
 23
-26.826142822497228
 33
0.0
  0
SOLID
  5
FFBBDAE469BC1D55
  8
0
  6
CONTINUOUS
 10
-35.403197753335789
 20
-26.500000000004949
 30
0.0
 11
-46.59680224666841
 21
-26.500000000004949
 31
0.0
 12
-46.478237048064948
 22
-26.826142822497228
 32
0.0
 13
-46.478237048064948
 23
-26.826142822497228
 33
0.0
210
0.0
220
0.0
230
-1.0
  0
SOLID
  5
FFBBDAE469BC1D56
  8
0
  6
CONTINUOUS
 10
35.521762951938221
 20
-26.826142822497228
 30
0.0
 11
35.822096980670722
 21
-27.0
 31
0.0
 12
46.177903019333819
 22
-27.0
 32
0.0
 13
46.177903019333819
 23
-27.0
 33
0.0
  0
SOLID
  5
FFBBDAE469BC1D57
  8
0
  6
CONTINUOUS
 10
-35.521762951938221
 20
-26.826142822497228
 30
0.0
 11
-46.478237048064948
 21
-26.826142822497228
 31
0.0
 12
-46.177903019333819
 22
-27.0
 32
0.0
 13
-46.177903019333819
 23
-27.0
 33
0.0
210
0.0
220
0.0
230
-1.0
  0
SOLID
  5
FFBBDAE469BC1D58
  8
0
  6
CONTINUOUS
 10
36.0
 20
-27.0
 30
0.0
 11
36.0
 21
-28.928613495237219
 31
0.0
 12
46.000000000000462
 22
-28.928613495237219
 32
0.0
 13
46.000000000000462
 23
-28.928613495237219
 33
0.0
210
0.0
220
0.0
230
1.0
  0
SOLID
  5
FFBBDAE469BC1D59
  8
0
  6
CONTINUOUS
 10
-36.0
 20
-27.0
 30
0.0
 11
-46.000000000000909
 21
-27.0
 31
0.0
 12
-46.000000000000462
 22
-28.928613495237219
 32
0.0
 13
-46.000000000000462
 23
-28.928613495237219
 33
0.0
210
0.0
220
0.0
230
-1.0
  0
SOLID
  5
FFBBDAE469BC1D5A
  8
0
  6
CONTINUOUS
 10
-36.0
 20
-29.466955134321349
 30
0.0
 11
-38.293958516016467
 21
-29.466955134321349
 31
0.0
 12
-35.999999999994472
 22
-31.000000000000231
 32
0.0
 13
-35.999999999994472
 23
-31.000000000000231
 33
0.0
210
0.0
220
0.0
230
-1.0
  0
SOLID
  5
FFBBDAE469BC1D5B
  8
0
  6
CONTINUOUS
 10
-43.706041483981672
 20
-29.466955134321349
 30
0.0
 11
-46.000000000000348
 21
-29.466955134321349
 31
0.0
 12
-46.0
 22
-31.000000000000231
 32
0.0
 13
-46.0
 23
-31.000000000000231
 33
0.0
210
0.0
220
0.0
230
-1.0
  0
SOLID
  5
FFBBDAE469BC1D5C
  8
0
  6
CONTINUOUS
 10
41.00000000000076
 20
-28.928613495237219
 30
0.0
 11
43.706041483981672
 21
-29.466955134321349
 31
0.0
 12
46.000000000000348
 22
-29.466955134321349
 32
0.0
 13
46.000000000000348
 23
-29.466955134321349
 33
0.0
  0
SOLID
  5
FFBBDAE469BC1D5D
  8
0
  6
CONTINUOUS
 10
-41.00000000000076
 20
-28.928613495237219
 30
0.0
 11
-46.000000000000462
 21
-28.928613495237219
 31
0.0
 12
-46.000000000000348
 22
-29.466955134321349
 32
0.0
 13
-46.000000000000348
 23
-29.466955134321349
 33
0.0
210
0.0
220
0.0
230
-1.0
  0
SOLID
  5
FFBBDAE469BC1D5E
  8
0
  6
CONTINUOUS
 10
36.0
 20
-28.928613495237219
 30
0.0
 11
36.0
 21
-29.466955134321349
 31
0.0
 12
38.293958516009411
 22
-29.466955134321349
 32
0.0
 13
38.293958516009411
 23
-29.466955134321349
 33
0.0
  0
SOLID
  5
FFBBDAE469BC1D5F
  8
0
  6
CONTINUOUS
 10
-36.0
 20
-28.928613495237219
 30
0.0
 11
-41.00000000000076
 21
-28.928613495237219
 31
0.0
 12
-38.293958516009411
 22
-29.466955134321349
 32
0.0
 13
-38.293958516009411
 23
-29.466955134321349
 33
0.0
210
0.0
220
0.0
230
-1.0
  0
LINE
  5
FFBBDAE469BC1D60
  8
0
  6
CONTINUOUS
 10
35.822096980668
 20
-26.0
 30
0.0
 11
35.521762951927009
 21
-26.173857177509881
 31
0.0
  0
LINE
  5
FFBBDAE469BC1D61
  8
0
  6
CONTINUOUS
 10
46.177903019345642
 20
-26.0
 30
0.0
 11
46.478237048072657
 21
-26.173857177509881
 31
0.0
  0
LINE
  5
FFBBDAE469BC1D62
  8
0
  6
CONTINUOUS
 10
35.521762951933482
 20
-26.173857177509881
 30
0.0
 11
35.403197753333018
 21
-26.500000000004949
 31
0.0
  0
LINE
  5
FFBBDAE469BC1D63
  8
0
  6
CONTINUOUS
 10
46.478237048072657
 20
-26.173857177509881
 30
0.0
 11
46.59680224666841
 21
-26.500000000004949
 31
0.0
  0
LINE
  5
FFBBDAE469BC1D64
  8
0
  6
CONTINUOUS
 10
35.403197753335789
 20
-26.500000000004949
 30
0.0
 11
35.521762951937248
 21
-26.826142822497228
 31
0.0
  0
LINE
  5
FFBBDAE469BC1D65
  8
0
  6
CONTINUOUS
 10
46.59680224666841
 20
-26.500000000004949
 30
0.0
 11
46.478237048064948
 21
-26.826142822497228
 31
0.0
  0
LINE
  5
FFBBDAE469BC1D66
  8
0
  6
CONTINUOUS
 10
35.521762951938221
 20
-26.826142822497228
 30
0.0
 11
35.822096980670722
 21
-27.0
 31
0.0
  0
LINE
  5
FFBBDAE469BC1D67
  8
0
  6
CONTINUOUS
 10
46.478237048064948
 20
-26.826142822497228
 30
0.0
 11
46.177903019333819
 21
-27.0
 31
0.0
  0
LINE
  5
FFBBDAE469BC1D68
  8
0
  6
CONTINUOUS
 10
36.0
 20
-27.0
 30
0.0
 11
36.0
 21
-28.928613495237219
 31
0.0
  0
LINE
  5
FFBBDAE469BC1D69
  8
0
  6
CONTINUOUS
 10
46.000000000000909
 20
-27.0
 30
0.0
 11
46.000000000000462
 21
-28.928613495237219
 31
0.0
  0
LINE
  5
FFBBDAE469BC1D6A
  8
0
  6
CONTINUOUS
 10
38.293958516016467
 20
-29.466955134321349
 30
0.0
 11
35.999999999994472
 21
-31.000000000000231
 31
0.0
  0
LINE
  5
FFBBDAE469BC1D6B
  8
0
  6
CONTINUOUS
 10
35.999999999994472
 20
-31.000000000000231
 30
0.0
 11
36.0
 21
-29.466955134321349
 31
0.0
  0
LINE
  5
FFBBDAE469BC1D6C
  8
0
  6
CONTINUOUS
 10
46.000000000000348
 20
-29.466955134321349
 30
0.0
 11
46.0
 21
-31.000000000000231
 31
0.0
  0
LINE
  5
FFBBDAE469BC1D6D
  8
0
  6
CONTINUOUS
 10
46.0
 20
-31.000000000000231
 30
0.0
 11
43.706041483981672
 21
-29.466955134321349
 31
0.0
  0
LINE
  5
FFBBDAE469BC1D6E
  8
0
  6
CONTINUOUS
 10
41.00000000000076
 20
-28.928613495237219
 30
0.0
 11
43.706041483981672
 21
-29.466955134321349
 31
0.0
  0
LINE
  5
FFBBDAE469BC1D6F
  8
0
  6
CONTINUOUS
 10
46.000000000000462
 20
-28.928613495237219
 30
0.0
 11
46.000000000000348
 21
-29.466955134321349
 31
0.0
  0
LINE
  5
FFBBDAE469BC1D70
  8
0
  6
CONTINUOUS
 10
36.0
 20
-28.928613495237219
 30
0.0
 11
36.0
 21
-29.466955134321349
 31
0.0
  0
LINE
  5
FFBBDAE469BC1D71
  8
0
  6
CONTINUOUS
 10
41.00000000000076
 20
-28.928613495237219
 30
0.0
 11
38.293958516009411
 21
-29.466955134321349
 31
0.0
  0
ENDBLK
  5
FFBBDAE469BC1D73
  8
0
  0
BLOCK
  8
0
  2
*U12
 70
     1
 10
0.0
 20
0.0
 30
0.0
  3
*U12
  1

  0
SOLID
  5
FFBBDAE469BC1D75
  8
0
  6
CONTINUOUS
 10
26.500000000005809
 20
-43.003197753333403
 30
0.0
 11
26.173857177486362
 21
-43.121762951938351
 31
0.0
 12
26.826142822499289
 22
-43.121762951938351
 32
0.0
 13
26.826142822499289
 23
-43.121762951938351
 33
0.0
210
0.0
220
0.0
230
1.0
  0
SOLID
  5
FFBBDAE469BC1D76
  8
0
  6
CONTINUOUS
 10
26.17385717750448
 20
-43.121762951938351
 30
0.0
 11
25.9999999999926
 21
-43.422096980672052
 31
0.0
 12
27.000000000000909
 22
-43.422096980672052
 32
0.0
 13
27.000000000000909
 23
-43.422096980672052
 33
0.0
210
0.0
220
0.0
230
1.0
  0
SOLID
  5
FFBBDAE469BC1D77
  8
0
  6
CONTINUOUS
 10
-26.17385717750448
 20
-43.121762951938351
 30
0.0
 11
-26.826142822499289
 21
-43.121762951938351
 31
0.0
 12
-27.000000000000909
 22
-43.422096980672052
 32
0.0
 13
-27.000000000000909
 23
-43.422096980672052
 33
0.0
210
0.0
220
0.0
230
-1.0
  0
SOLID
  5
FFBBDAE469BC1D78
  8
0
  6
CONTINUOUS
 10
26.0
 20
-43.422096980672052
 30
0.0
 11
26.0
 21
-50.000000000000057
 31
0.0
 12
27.000000000000909
 22
-50.000000000000057
 32
0.0
 13
27.000000000000909
 23
-50.000000000000057
 33
0.0
210
0.0
220
0.0
230
1.0
  0
SOLID
  5
FFBBDAE469BC1D79
  8
0
  6
CONTINUOUS
 10
-26.0
 20
-43.422096980672052
 30
0.0
 11
-27.000000000000909
 21
-43.422096980672052
 31
0.0
 12
-27.000000000000909
 22
-50.000000000000057
 32
0.0
 13
-27.000000000000909
 23
-50.000000000000057
 33
0.0
210
0.0
220
0.0
230
-1.0
  0
SOLID
  5
FFBBDAE469BC1D7A
  8
0
  6
CONTINUOUS
 10
26.0
 20
-52.0
 30
0.0
 11
25.999999999999641
 21
-54.600000000000144
 31
0.0
 12
27.0
 22
-54.600000000000144
 32
0.0
 13
27.0
 23
-54.600000000000144
 33
0.0
210
0.0
220
0.0
230
1.0
  0
SOLID
  5
FFBBDAE469BC1D7B
  8
0
  6
CONTINUOUS
 10
-26.0
 20
-52.0
 30
0.0
 11
-27.0
 21
-52.0
 31
0.0
 12
-27.0
 22
-54.600000000000144
 32
0.0
 13
-27.0
 23
-54.600000000000144
 33
0.0
210
0.0
220
0.0
230
-1.0
  0
SOLID
  5
FFBBDAE469BC1D7C
  8
0
  6
CONTINUOUS
 10
25.999999999999641
 20
-54.600000000000144
 30
0.0
 11
25.999999999999091
 21
-58.577903019327323
 31
0.0
 12
27.0
 22
-58.577903019327323
 32
0.0
 13
27.0
 23
-58.577903019327323
 33
0.0
210
0.0
220
0.0
230
1.0
  0
SOLID
  5
FFBBDAE469BC1D7D
  8
0
  6
CONTINUOUS
 10
-25.999999999999641
 20
-54.600000000000144
 30
0.0
 11
-27.0
 21
-54.600000000000144
 31
0.0
 12
-27.0
 22
-58.577903019327323
 32
0.0
 13
-27.0
 23
-58.577903019327323
 33
0.0
210
0.0
220
0.0
230
-1.0
  0
SOLID
  5
FFBBDAE469BC1D7E
  8
0
  6
CONTINUOUS
 10
-26.173857177503869
 20
-58.878237048063667
 30
0.0
 11
-26.826142822486059
 21
-58.878237048063667
 31
0.0
 12
-26.50000000000276
 22
-58.996802246665041
 32
0.0
 13
-26.50000000000276
 23
-58.996802246665041
 33
0.0
210
0.0
220
0.0
230
-1.0
  0
SOLID
  5
FFBBDAE469BC1D7F
  8
0
  6
CONTINUOUS
 10
25.999999999999091
 20
-58.577903019327323
 30
0.0
 11
26.173857177503869
 21
-58.878237048063667
 31
0.0
 12
26.826142822496941
 22
-58.878237048063667
 32
0.0
 13
26.826142822496941
 23
-58.878237048063667
 33
0.0
210
0.0
220
0.0
230
1.0
  0
SOLID
  5
FFBBDAE469BC1D80
  8
0
  6
CONTINUOUS
 10
-25.999999999999091
 20
-58.577903019327323
 30
0.0
 11
-26.999999999995559
 21
-58.577903019327323
 31
0.0
 12
-26.826142822496941
 22
-58.878237048063667
 32
0.0
 13
-26.826142822496941
 23
-58.878237048063667
 33
0.0
210
0.0
220
0.0
230
-1.0
  0
LINE
  5
FFBBDAE469BC1D81
  8
0
  6
CONTINUOUS
 10
26.500000000005809
 20
-43.003197753333403
 30
0.0
 11
26.173857177486362
 21
-43.121762951938351
 31
0.0
  0
LINE
  5
FFBBDAE469BC1D82
  8
0
  6
CONTINUOUS
 10
26.826142822499289
 20
-43.121762951938351
 30
0.0
 11
26.500000000005809
 21
-43.003197753333403
 31
0.0
  0
LINE
  5
FFBBDAE469BC1D83
  8
0
  6
CONTINUOUS
 10
26.17385717750448
 20
-43.121762951938351
 30
0.0
 11
25.9999999999926
 21
-43.422096980672052
 31
0.0
  0
LINE
  5
FFBBDAE469BC1D84
  8
0
  6
CONTINUOUS
 10
26.826142822499289
 20
-43.121762951938351
 30
0.0
 11
27.000000000000909
 21
-43.422096980672052
 31
0.0
  0
LINE
  5
FFBBDAE469BC1D85
  8
0
  6
CONTINUOUS
 10
26.0
 20
-43.422096980672052
 30
0.0
 11
26.0
 21
-50.000000000000057
 31
0.0
  0
LINE
  5
FFBBDAE469BC1D86
  8
0
  6
CONTINUOUS
 10
27.000000000000909
 20
-43.422096980672052
 30
0.0
 11
27.000000000000909
 21
-50.000000000000057
 31
0.0
  0
LINE
  5
FFBBDAE469BC1D87
  8
0
  6
CONTINUOUS
 10
26.0
 20
-52.0
 30
0.0
 11
25.999999999999641
 21
-54.600000000000144
 31
0.0
  0
LINE
  5
FFBBDAE469BC1D88
  8
0
  6
CONTINUOUS
 10
27.0
 20
-52.0
 30
0.0
 11
27.0
 21
-54.600000000000144
 31
0.0
  0
LINE
  5
FFBBDAE469BC1D89
  8
0
  6
CONTINUOUS
 10
25.999999999999641
 20
-54.600000000000144
 30
0.0
 11
25.999999999999091
 21
-58.577903019327323
 31
0.0
  0
LINE
  5
FFBBDAE469BC1D8A
  8
0
  6
CONTINUOUS
 10
27.0
 20
-54.600000000000144
 30
0.0
 11
27.0
 21
-58.577903019327323
 31
0.0
  0
LINE
  5
FFBBDAE469BC1D8B
  8
0
  6
CONTINUOUS
 10
26.826142822486059
 20
-58.878237048063667
 30
0.0
 11
26.50000000000276
 21
-58.996802246665041
 31
0.0
  0
LINE
  5
FFBBDAE469BC1D8C
  8
0
  6
CONTINUOUS
 10
26.50000000000276
 20
-58.996802246665041
 30
0.0
 11
26.173857177503869
 21
-58.878237048063667
 31
0.0
  0
LINE
  5
FFBBDAE469BC1D8D
  8
0
  6
CONTINUOUS
 10
25.999999999999091
 20
-58.577903019327323
 30
0.0
 11
26.173857177503869
 21
-58.878237048063667
 31
0.0
  0
LINE
  5
FFBBDAE469BC1D8E
  8
0
  6
CONTINUOUS
 10
26.999999999995559
 20
-58.577903019327323
 30
0.0
 11
26.826142822496941
 21
-58.878237048063667
 31
0.0
  0
ENDBLK
  5
FFBBDAE469BC1D90
  8
0
  0
BLOCK
  8
0
  2
*U13
 70
     1
 10
0.0
 20
0.0
 30
0.0
  3
*U13
  1

  0
SOLID
  5
FFBBDAE469BC1DBC
  8
0
  6
CONTINUOUS
 10
26.41104849032951
 20
-12.411048490330179
 30
0.0
 11
26.28034496324981
 21
-12.49459688405212
 31
0.0
 12
26.79065517490849
 22
-12.49459688405212
 32
0.0
 13
26.79065517490849
 23
-12.49459688405212
 33
0.0
210
0.0
220
0.0
230
1.0
  0
SOLID
  5
FFBBDAE469BC1DBD
  8
0
  6
CONTINUOUS
 10
26.28034496324981
 20
-12.49459688405212
 30
0.0
 11
26.083548393721951
 21
-12.620393315421691
 31
0.0
 12
26.871066851714051
 22
-12.620393315421691
 32
0.0
 13
26.871066851714051
 23
-12.620393315421691
 33
0.0
210
0.0
220
0.0
230
1.0
  0
SOLID
  5
FFBBDAE469BC1DBE
  8
0
  6
CONTINUOUS
 10
-26.28034496324981
 20
-12.49459688405212
 30
0.0
 11
-26.79065517490849
 21
-12.49459688405212
 31
0.0
 12
-26.871066851714051
 22
-12.620393315421691
 32
0.0
 13
-26.871066851714051
 23
-12.620393315421691
 33
0.0
210
0.0
220
0.0
230
-1.0
  0
SOLID
  5
FFBBDAE469BC1DBF
  8
0
  6
CONTINUOUS
 10
26.083548393721951
 20
-12.620393315421691
 30
0.0
 11
26.03915503100454
 21
-12.822096980659691
 31
0.0
 12
27.0
 22
-12.822096980659691
 32
0.0
 13
27.0
 23
-12.822096980659691
 33
0.0
210
0.0
220
0.0
230
1.0
  0
SOLID
  5
FFBBDAE469BC1DC0
  8
0
  6
CONTINUOUS
 10
-26.083548393721951
 20
-12.620393315421691
 30
0.0
 11
-26.871066851714051
 21
-12.620393315421691
 31
0.0
 12
-27.0
 22
-12.822096980659691
 32
0.0
 13
-27.0
 23
-12.822096980659691
 33
0.0
210
0.0
220
0.0
230
-1.0
  0
SOLID
  5
FFBBDAE469BC1DC1
  8
0
  6
CONTINUOUS
 10
26.03915503100454
 20
-12.822096980659691
 30
0.0
 11
26.0
 21
-13.000000000000661
 31
0.0
 12
27.0
 22
-13.000000000000661
 32
0.0
 13
27.0
 23
-13.000000000000661
 33
0.0
210
0.0
220
0.0
230
1.0
  0
SOLID
  5
FFBBDAE469BC1DC2
  8
0
  6
CONTINUOUS
 10
-26.03915503100454
 20
-12.822096980659691
 30
0.0
 11
-27.0
 21
-12.822096980659691
 31
0.0
 12
-27.0
 22
-13.000000000000661
 32
0.0
 13
-27.0
 23
-13.000000000000661
 33
0.0
210
0.0
220
0.0
230
-1.0
  0
SOLID
  5
FFBBDAE469BC1DC3
  8
0
  6
CONTINUOUS
 10
26.0
 20
-13.000000000000661
 30
0.0
 11
26.0
 21
-26.00000000000011
 31
0.0
 12
27.0
 22
-26.00000000000011
 32
0.0
 13
27.0
 23
-26.00000000000011
 33
0.0
210
0.0
220
0.0
230
1.0
  0
SOLID
  5
FFBBDAE469BC1DC4
  8
0
  6
CONTINUOUS
 10
-26.0
 20
-13.000000000000661
 30
0.0
 11
-27.0
 21
-13.000000000000661
 31
0.0
 12
-27.0
 22
-26.00000000000011
 32
0.0
 13
-27.0
 23
-26.00000000000011
 33
0.0
210
0.0
220
0.0
230
-1.0
  0
SOLID
  5
FFBBDAE469BC1DC5
  8
0
  6
CONTINUOUS
 10
26.0
 20
-26.00000000000011
 30
0.0
 11
26.0
 21
-26.177903019320631
 31
0.0
 12
26.960844968996259
 22
-26.177903019320631
 32
0.0
 13
26.960844968996259
 23
-26.177903019320631
 33
0.0
210
0.0
220
0.0
230
1.0
  0
SOLID
  5
FFBBDAE469BC1DC6
  8
0
  6
CONTINUOUS
 10
-26.0
 20
-26.00000000000011
 30
0.0
 11
-27.0
 21
-26.00000000000011
 31
0.0
 12
-26.960844968996259
 22
-26.177903019320631
 32
0.0
 13
-26.960844968996259
 23
-26.177903019320631
 33
0.0
210
0.0
220
0.0
230
-1.0
  0
SOLID
  5
FFBBDAE469BC1DC7
  8
0
  6
CONTINUOUS
 10
26.0
 20
-26.177903019320631
 30
0.0
 11
26.12893314829147
 21
-26.379606684576089
 31
0.0
 12
26.916451606270829
 22
-26.379606684576089
 32
0.0
 13
26.916451606270829
 23
-26.379606684576089
 33
0.0
210
0.0
220
0.0
230
1.0
  0
SOLID
  5
FFBBDAE469BC1DC8
  8
0
  6
CONTINUOUS
 10
-26.0
 20
-26.177903019320631
 30
0.0
 11
-26.960844968996259
 21
-26.177903019320631
 31
0.0
 12
-26.916451606270829
 22
-26.379606684576089
 32
0.0
 13
-26.916451606270829
 23
-26.379606684576089
 33
0.0
210
0.0
220
0.0
230
-1.0
  0
SOLID
  5
FFBBDAE469BC1DC9
  8
0
  6
CONTINUOUS
 10
-26.20934482508428
 20
-26.505403115931198
 30
0.0
 11
-26.71965503675699
 21
-26.505403115931198
 31
0.0
 12
-26.588951509660269
 22
-26.588951509660369
 32
0.0
 13
-26.588951509660269
 23
-26.588951509660369
 33
0.0
210
0.0
220
0.0
230
-1.0
  0
SOLID
  5
FFBBDAE469BC1DCA
  8
0
  6
CONTINUOUS
 10
26.12893314829147
 20
-26.379606684576089
 30
0.0
 11
26.20934482508428
 21
-26.505403115931198
 31
0.0
 12
26.71965503675699
 22
-26.505403115931198
 32
0.0
 13
26.71965503675699
 23
-26.505403115931198
 33
0.0
210
0.0
220
0.0
230
1.0
  0
SOLID
  5
FFBBDAE469BC1DCB
  8
0
  6
CONTINUOUS
 10
-26.12893314829147
 20
-26.379606684576089
 30
0.0
 11
-26.916451606270829
 21
-26.379606684576089
 31
0.0
 12
-26.71965503675699
 22
-26.505403115931198
 32
0.0
 13
-26.71965503675699
 23
-26.505403115931198
 33
0.0
210
0.0
220
0.0
230
-1.0
  0
LINE
  5
FFBBDAE469BC1DCC
  8
0
  6
CONTINUOUS
 10
26.41104849032951
 20
-12.411048490330179
 30
0.0
 11
26.28034496324981
 21
-12.49459688405212
 31
0.0
  0
LINE
  5
FFBBDAE469BC1DCD
  8
0
  6
CONTINUOUS
 10
26.79065517490849
 20
-12.49459688405212
 30
0.0
 11
26.41104849032951
 21
-12.411048490330179
 31
0.0
  0
LINE
  5
FFBBDAE469BC1DCE
  8
0
  6
CONTINUOUS
 10
26.28034496324981
 20
-12.49459688405212
 30
0.0
 11
26.083548393721951
 21
-12.620393315421691
 31
0.0
  0
LINE
  5
FFBBDAE469BC1DCF
  8
0
  6
CONTINUOUS
 10
26.79065517490849
 20
-12.49459688405212
 30
0.0
 11
26.871066851714051
 21
-12.620393315421691
 31
0.0
  0
LINE
  5
FFBBDAE469BC1DD0
  8
0
  6
CONTINUOUS
 10
26.083548393721951
 20
-12.620393315421691
 30
0.0
 11
26.03915503100454
 21
-12.822096980659691
 31
0.0
  0
LINE
  5
FFBBDAE469BC1DD1
  8
0
  6
CONTINUOUS
 10
26.871066851714051
 20
-12.620393315421691
 30
0.0
 11
27.0
 21
-12.822096980659691
 31
0.0
  0
LINE
  5
FFBBDAE469BC1DD2
  8
0
  6
CONTINUOUS
 10
26.03915503100454
 20
-12.822096980659691
 30
0.0
 11
26.0
 21
-13.000000000000661
 31
0.0
  0
LINE
  5
FFBBDAE469BC1DD3
  8
0
  6
CONTINUOUS
 10
27.0
 20
-12.822096980659691
 30
0.0
 11
27.0
 21
-13.000000000000661
 31
0.0
  0
LINE
  5
FFBBDAE469BC1DD4
  8
0
  6
CONTINUOUS
 10
26.0
 20
-13.000000000000661
 30
0.0
 11
26.0
 21
-26.00000000000011
 31
0.0
  0
LINE
  5
FFBBDAE469BC1DD5
  8
0
  6
CONTINUOUS
 10
27.0
 20
-13.000000000000661
 30
0.0
 11
27.0
 21
-26.00000000000011
 31
0.0
  0
LINE
  5
FFBBDAE469BC1DD6
  8
0
  6
CONTINUOUS
 10
26.0
 20
-26.00000000000011
 30
0.0
 11
26.0
 21
-26.177903019320631
 31
0.0
  0
LINE
  5
FFBBDAE469BC1DD7
  8
0
  6
CONTINUOUS
 10
27.0
 20
-26.00000000000011
 30
0.0
 11
26.960844968996259
 21
-26.177903019320631
 31
0.0
  0
LINE
  5
FFBBDAE469BC1DD8
  8
0
  6
CONTINUOUS
 10
26.0
 20
-26.177903019320631
 30
0.0
 11
26.12893314829147
 21
-26.379606684576089
 31
0.0
  0
LINE
  5
FFBBDAE469BC1DD9
  8
0
  6
CONTINUOUS
 10
26.960844968996259
 20
-26.177903019320631
 30
0.0
 11
26.916451606270829
 21
-26.379606684576089
 31
0.0
  0
LINE
  5
FFBBDAE469BC1DDA
  8
0
  6
CONTINUOUS
 10
26.71965503675699
 20
-26.505403115931198
 30
0.0
 11
26.588951509660269
 21
-26.588951509660369
 31
0.0
  0
LINE
  5
FFBBDAE469BC1DDB
  8
0
  6
CONTINUOUS
 10
26.588951509660269
 20
-26.588951509660369
 30
0.0
 11
26.20934482508428
 21
-26.505403115931198
 31
0.0
  0
LINE
  5
FFBBDAE469BC1DDC
  8
0
  6
CONTINUOUS
 10
26.12893314829147
 20
-26.379606684576089
 30
0.0
 11
26.20934482508428
 21
-26.505403115931198
 31
0.0
  0
LINE
  5
FFBBDAE469BC1DDD
  8
0
  6
CONTINUOUS
 10
26.916451606270829
 20
-26.379606684576089
 30
0.0
 11
26.71965503675699
 21
-26.505403115931198
 31
0.0
  0
ENDBLK
  5
FFBBDAE469BC1DDF
  8
0
  0
BLOCK
  8
0
  2
*U14
 70
     1
 10
0.0
 20
0.0
 30
0.0
  3
*U14
  1

  0
SOLID
  5
FFBBDAE469BC1DE1
  8
0
  6
CONTINUOUS
 10
60.5
 20
-26.0
 30
0.0
 11
60.5
 21
-26.083548393723209
 31
0.0
 12
75.679606684567787
 22
-26.083548393723209
 32
0.0
 13
75.679606684567787
 23
-26.083548393723209
 33
0.0
210
0.0
220
0.0
230
1.0
  0
SOLID
  5
FFBBDAE469BC1DE2
  8
0
  6
CONTINUOUS
 10
-60.5
 20
-26.0
 30
0.0
 11
-75.299999999989325
 21
-26.0
 31
0.0
 12
-75.679606684567787
 22
-26.083548393723209
 32
0.0
 13
-75.679606684567787
 23
-26.083548393723209
 33
0.0
210
0.0
220
0.0
230
-1.0
  0
SOLID
  5
FFBBDAE469BC1DE3
  8
0
  6
CONTINUOUS
 10
60.5
 20
-26.083548393723209
 30
0.0
 11
60.5
 21
-26.4110484903313
 31
0.0
 12
75.888951509658028
 22
-26.4110484903313
 32
0.0
 13
75.888951509658028
 23
-26.4110484903313
 33
0.0
210
0.0
220
0.0
230
1.0
  0
SOLID
  5
FFBBDAE469BC1DE4
  8
0
  6
CONTINUOUS
 10
-60.5
 20
-26.083548393723209
 30
0.0
 11
-75.679606684567787
 21
-26.083548393723209
 31
0.0
 12
-75.888951509658028
 22
-26.4110484903313
 32
0.0
 13
-75.888951509658028
 23
-26.4110484903313
 33
0.0
210
0.0
220
0.0
230
-1.0
  0
SOLID
  5
FFBBDAE469BC1DE5
  8
0
  6
CONTINUOUS
 10
60.5
 20
-26.4110484903313
 30
0.0
 11
60.5
 21
-26.790655174909759
 31
0.0
 12
75.805403115934794
 22
-26.790655174909759
 32
0.0
 13
75.805403115934794
 23
-26.790655174909759
 33
0.0
210
0.0
220
0.0
230
1.0
  0
SOLID
  5
FFBBDAE469BC1DE6
  8
0
  6
CONTINUOUS
 10
-60.5
 20
-26.4110484903313
 30
0.0
 11
-75.888951509658028
 21
-26.4110484903313
 31
0.0
 12
-75.805403115934794
 22
-26.790655174909759
 32
0.0
 13
-75.805403115934794
 23
-26.790655174909759
 33
0.0
210
0.0
220
0.0
230
-1.0
  0
SOLID
  5
FFBBDAE469BC1DE7
  8
0
  6
CONTINUOUS
 10
60.5
 20
-26.790655174909759
 30
0.0
 11
60.5
 21
-27.0
 31
0.0
 12
75.477903019326703
 22
-27.0
 32
0.0
 13
75.477903019326703
 23
-27.0
 33
0.0
210
0.0
220
0.0
230
1.0
  0
SOLID
  5
FFBBDAE469BC1DE8
  8
0
  6
CONTINUOUS
 10
-60.5
 20
-26.790655174909759
 30
0.0
 11
-75.805403115934794
 21
-26.790655174909759
 31
0.0
 12
-75.477903019326703
 22
-27.0
 32
0.0
 13
-75.477903019326703
 23
-27.0
 33
0.0
210
0.0
220
0.0
230
-1.0
  0
LINE
  5
FFBBDAE469BC1DE9
  8
0
  6
CONTINUOUS
 10
60.5
 20
-26.0
 30
0.0
 11
60.5
 21
-26.083548393723209
 31
0.0
  0
LINE
  5
FFBBDAE469BC1DEA
  8
0
  6
CONTINUOUS
 10
75.299999999989325
 20
-26.0
 30
0.0
 11
75.679606684567787
 21
-26.083548393723209
 31
0.0
  0
LINE
  5
FFBBDAE469BC1DEB
  8
0
  6
CONTINUOUS
 10
60.5
 20
-26.083548393723209
 30
0.0
 11
60.5
 21
-26.4110484903313
 31
0.0
  0
LINE
  5
FFBBDAE469BC1DEC
  8
0
  6
CONTINUOUS
 10
75.679606684567787
 20
-26.083548393723209
 30
0.0
 11
75.888951509658028
 21
-26.4110484903313
 31
0.0
  0
LINE
  5
FFBBDAE469BC1DED
  8
0
  6
CONTINUOUS
 10
60.5
 20
-26.4110484903313
 30
0.0
 11
60.5
 21
-26.790655174909759
 31
0.0
  0
LINE
  5
FFBBDAE469BC1DEE
  8
0
  6
CONTINUOUS
 10
75.888951509658028
 20
-26.4110484903313
 30
0.0
 11
75.805403115934794
 21
-26.790655174909759
 31
0.0
  0
LINE
  5
FFBBDAE469BC1DEF
  8
0
  6
CONTINUOUS
 10
60.5
 20
-26.790655174909759
 30
0.0
 11
60.5
 21
-27.0
 31
0.0
  0
LINE
  5
FFBBDAE469BC1DF0
  8
0
  6
CONTINUOUS
 10
75.805403115934794
 20
-26.790655174909759
 30
0.0
 11
75.477903019326703
 21
-27.0
 31
0.0
  0
ENDBLK
  5
FFBBDAE469BC1DF2
  8
0
  0
BLOCK
  8
0
  2
*U15
 70
     1
 10
0.0
 20
0.0
 30
0.0
  3
*U15
  1

  0
TEXT
  5
FFBBDAE469BC1DF4
  8
DEFPOINTS
  6
CONTINUOUS
 10
-26.919595875100221
 20
-236.06382182534441
 30
0.0
 40
4.0
  1
Internal Corner
  7
ARIAL
  0
ENDBLK
  5
FFBBDAE469BC1DF6
  8
0
  0
BLOCK
  8
0
  2
*U16
 70
     1
 10
0.0
 20
0.0
 30
0.0
  3
*U16
  1

  0
SOLID
  5
FFBBDAE469BC1DFB
  8
0
  6
CONTINUOUS
 10
32.146208796559321
 20
-133.50749236266651
 30
0.0
 11
31.097445189224349
 21
-130.01176713091141
 31
0.0
 12
33.223267595651002
 22
-132.97839469370621
 32
0.0
 13
33.223267595651002
 23
-132.97839469370621
 33
0.0
  0
POLYLINE
  8
0
  5
80000103
  66
     1
 10
0.000000
 20
0.000000
 30
0.000000
  70
     8
  0
VERTEX
  8
0
  5
80000104
 10
32.6847
 20
-133.243
 30
0.000000
  70
    32
  0
VERTEX
  8
0
  5
80000105
 10
32.8256
 20
-133.535
 30
0.000000
  70
    32
  0
VERTEX
  8
0
  5
80000106
 10
32.9637
 20
-133.831
 30
0.000000
  70
    32
  0
VERTEX
  8
0
  5
80000107
 10
33.0991
 20
-134.132
 30
0.000000
  70
    32
  0
VERTEX
  8
0
  5
80000108
 10
33.2318
 20
-134.437
 30
0.000000
  70
    32
  0
VERTEX
  8
0
  5
80000109
 10
33.3620
 20
-134.746
 30
0.000000
  70
    32
  0
VERTEX
  8
0
  5
8000010A
 10
33.4897
 20
-135.059
 30
0.000000
  70
    32
  0
VERTEX
  8
0
  5
8000010B
 10
33.6149
 20
-135.376
 30
0.000000
  70
    32
  0
VERTEX
  8
0
  5
8000010C
 10
33.7378
 20
-135.697
 30
0.000000
  70
    32
  0
VERTEX
  8
0
  5
8000010D
 10
33.8583
 20
-136.021
 30
0.000000
  70
    32
  0
VERTEX
  8
0
  5
8000010E
 10
33.9767
 20
-136.349
 30
0.000000
  70
    32
  0
VERTEX
  8
0
  5
8000010F
 10
34.0928
 20
-136.681
 30
0.000000
  70
    32
  0
VERTEX
  8
0
  5
80000110
 10
34.2068
 20
-137.016
 30
0.000000
  70
    32
  0
VERTEX
  8
0
  5
80000111
 10
34.3189
 20
-137.354
 30
0.000000
  70
    32
  0
VERTEX
  8
0
  5
80000112
 10
34.4289
 20
-137.695
 30
0.000000
  70
    32
  0
VERTEX
  8
0
  5
80000113
 10
34.5370
 20
-138.040
 30
0.000000
  70
    32
  0
VERTEX
  8
0
  5
80000114
 10
34.6433
 20
-138.387
 30
0.000000
  70
    32
  0
VERTEX
  8
0
  5
80000115
 10
34.7479
 20
-138.737
 30
0.000000
  70
    32
  0
VERTEX
  8
0
  5
80000116
 10
34.8507
 20
-139.090
 30
0.000000
  70
    32
  0
VERTEX
  8
0
  5
80000117
 10
34.9519
 20
-139.446
 30
0.000000
  70
    32
  0
VERTEX
  8
0
  5
80000118
 10
35.0516
 20
-139.804
 30
0.000000
  70
    32
  0
VERTEX
  8
0
  5
80000119
 10
35.1497
 20
-140.165
 30
0.000000
  70
    32
  0
VERTEX
  8
0
  5
8000011A
 10
35.2464
 20
-140.527
 30
0.000000
  70
    32
  0
VERTEX
  8
0
  5
8000011B
 10
35.3418
 20
-140.892
 30
0.000000
  70
    32
  0
VERTEX
  8
0
  5
8000011C
 10
35.4358
 20
-141.259
 30
0.000000
  70
    32
  0
VERTEX
  8
0
  5
8000011D
 10
35.5286
 20
-141.628
 30
0.000000
  70
    32
  0
VERTEX
  8
0
  5
8000011E
 10
35.6203
 20
-141.999
 30
0.000000
  70
    32
  0
VERTEX
  8
0
  5
8000011F
 10
35.7108
 20
-142.372
 30
0.000000
  70
    32
  0
VERTEX
  8
0
  5
80000120
 10
35.8004
 20
-142.746
 30
0.000000
  70
    32
  0
VERTEX
  8
0
  5
80000121
 10
35.8889
 20
-143.122
 30
0.000000
  70
    32
  0
VERTEX
  8
0
  5
80000122
 10
35.9766
 20
-143.499
 30
0.000000
  70
    32
  0
VERTEX
  8
0
  5
80000123
 10
36.0634
 20
-143.878
 30
0.000000
  70
    32
  0
VERTEX
  8
0
  5
80000124
 10
36.1495
 20
-144.258
 30
0.000000
  70
    32
  0
VERTEX
  8
0
  5
80000125
 10
36.2349
 20
-144.639
 30
0.000000
  70
    32
  0
VERTEX
  8
0
  5
80000126
 10
36.3197
 20
-145.021
 30
0.000000
  70
    32
  0
VERTEX
  8
0
  5
80000127
 10
36.4039
 20
-145.404
 30
0.000000
  70
    32
  0
VERTEX
  8
0
  5
80000128
 10
36.4876
 20
-145.787
 30
0.000000
  70
    32
  0
VERTEX
  8
0
  5
80000129
 10
36.5709
 20
-146.172
 30
0.000000
  70
    32
  0
VERTEX
  8
0
  5
8000012A
 10
36.6538
 20
-146.557
 30
0.000000
  70
    32
  0
VERTEX
  8
0
  5
8000012B
 10
36.7364
 20
-146.942
 30
0.000000
  70
    32
  0
VERTEX
  8
0
  5
8000012C
 10
36.8189
 20
-147.328
 30
0.000000
  70
    32
  0
VERTEX
  8
0
  5
8000012D
 10
36.9011
 20
-147.714
 30
0.000000
  70
    32
  0
VERTEX
  8
0
  5
8000012E
 10
36.9833
 20
-148.100
 30
0.000000
  70
    32
  0
VERTEX
  8
0
  5
8000012F
 10
37.0654
 20
-148.486
 30
0.000000
  70
    32
  0
VERTEX
  8
0
  5
80000130
 10
37.1476
 20
-148.872
 30
0.000000
  70
    32
  0
VERTEX
  8
0
  5
80000131
 10
37.2299
 20
-149.258
 30
0.000000
  70
    32
  0
VERTEX
  8
0
  5
80000132
 10
37.3124
 20
-149.644
 30
0.000000
  70
    32
  0
VERTEX
  8
0
  5
80000133
 10
37.3951
 20
-150.029
 30
0.000000
  70
    32
  0
VERTEX
  8
0
  5
80000134
 10
37.4782
 20
-150.414
 30
0.000000
  70
    32
  0
VERTEX
  8
0
  5
80000135
 10
37.5616
 20
-150.798
 30
0.000000
  70
    32
  0
VERTEX
  8
0
  5
80000136
 10
37.6455
 20
-151.181
 30
0.000000
  70
    32
  0
VERTEX
  8
0
  5
80000137
 10
37.7298
 20
-151.564
 30
0.000000
  70
    32
  0
VERTEX
  8
0
  5
80000138
 10
37.8148
 20
-151.945
 30
0.000000
  70
    32
  0
VERTEX
  8
0
  5
80000139
 10
37.9004
 20
-152.326
 30
0.000000
  70
    32
  0
VERTEX
  8
0
  5
8000013A
 10
37.9867
 20
-152.705
 30
0.000000
  70
    32
  0
VERTEX
  8
0
  5
8000013B
 10
38.0738
 20
-153.084
 30
0.000000
  70
    32
  0
VERTEX
  8
0
  5
8000013C
 10
38.1618
 20
-153.460
 30
0.000000
  70
    32
  0
VERTEX
  8
0
  5
8000013D
 10
38.2507
 20
-153.836
 30
0.000000
  70
    32
  0
VERTEX
  8
0
  5
8000013E
 10
38.3406
 20
-154.210
 30
0.000000
  70
    32
  0
VERTEX
  8
0
  5
8000013F
 10
38.4315
 20
-154.582
 30
0.000000
  70
    32
  0
VERTEX
  8
0
  5
80000140
 10
38.5235
 20
-154.952
 30
0.000000
  70
    32
  0
VERTEX
  8
0
  5
80000141
 10
38.6167
 20
-155.320
 30
0.000000
  70
    32
  0
VERTEX
  8
0
  5
80000142
 10
38.7112
 20
-155.687
 30
0.000000
  70
    32
  0
VERTEX
  8
0
  5
80000143
 10
38.8070
 20
-156.051
 30
0.000000
  70
    32
  0
VERTEX
  8
0
  5
80000144
 10
38.9042
 20
-156.413
 30
0.000000
  70
    32
  0
VERTEX
  8
0
  5
80000145
 10
39.0028
 20
-156.773
 30
0.000000
  70
    32
  0
VERTEX
  8
0
  5
80000146
 10
39.1029
 20
-157.130
 30
0.000000
  70
    32
  0
VERTEX
  8
0
  5
80000147
 10
39.2047
 20
-157.485
 30
0.000000
  70
    32
  0
VERTEX
  8
0
  5
80000148
 10
39.3081
 20
-157.837
 30
0.000000
  70
    32
  0
VERTEX
  8
0
  5
80000149
 10
39.4132
 20
-158.186
 30
0.000000
  70
    32
  0
VERTEX
  8
0
  5
8000014A
 10
39.5201
 20
-158.532
 30
0.000000
  70
    32
  0
VERTEX
  8
0
  5
8000014B
 10
39.6289
 20
-158.876
 30
0.000000
  70
    32
  0
VERTEX
  8
0
  5
8000014C
 10
39.7396
 20
-159.216
 30
0.000000
  70
    32
  0
VERTEX
  8
0
  5
8000014D
 10
39.8523
 20
-159.553
 30
0.000000
  70
    32
  0
VERTEX
  8
0
  5
8000014E
 10
39.9670
 20
-159.887
 30
0.000000
  70
    32
  0
VERTEX
  8
0
  5
8000014F
 10
40.0839
 20
-160.218
 30
0.000000
  70
    32
  0
VERTEX
  8
0
  5
80000150
 10
40.2029
 20
-160.544
 30
0.000000
  70
    32
  0
VERTEX
  8
0
  5
80000151
 10
40.3242
 20
-160.868
 30
0.000000
  70
    32
  0
VERTEX
  8
0
  5
80000152
 10
40.4479
 20
-161.187
 30
0.000000
  70
    32
  0
VERTEX
  8
0
  5
80000153
 10
40.5739
 20
-161.503
 30
0.000000
  70
    32
  0
VERTEX
  8
0
  5
80000154
 10
40.7024
 20
-161.815
 30
0.000000
  70
    32
  0
VERTEX
  8
0
  5
80000155
 10
40.8334
 20
-162.122
 30
0.000000
  70
    32
  0
VERTEX
  8
0
  5
80000156
 10
40.9671
 20
-162.426
 30
0.000000
  70
    32
  0
VERTEX
  8
0
  5
80000157
 10
41.1033
 20
-162.725
 30
0.000000
  70
    32
  0
VERTEX
  8
0
  5
80000158
 10
41.2424
 20
-163.020
 30
0.000000
  70
    32
  0
VERTEX
  8
0
  5
80000159
 10
41.3842
 20
-163.310
 30
0.000000
  70
    32
  0
VERTEX
  8
0
  5
8000015A
 10
41.5288
 20
-163.596
 30
0.000000
  70
    32
  0
VERTEX
  8
0
  5
8000015B
 10
41.6764
 20
-163.877
 30
0.000000
  70
    32
  0
VERTEX
  8
0
  5
8000015C
 10
41.8270
 20
-164.154
 30
0.000000
  70
    32
  0
VERTEX
  8
0
  5
8000015D
 10
41.9807
 20
-164.425
 30
0.000000
  70
    32
  0
VERTEX
  8
0
  5
8000015E
 10
42.1375
 20
-164.691
 30
0.000000
  70
    32
  0
VERTEX
  8
0
  5
8000015F
 10
42.2975
 20
-164.952
 30
0.000000
  70
    32
  0
VERTEX
  8
0
  5
80000160
 10
42.4608
 20
-165.208
 30
0.000000
  70
    32
  0
VERTEX
  8
0
  5
80000161
 10
42.6274
 20
-165.459
 30
0.000000
  70
    32
  0
VERTEX
  8
0
  5
80000162
 10
42.7974
 20
-165.704
 30
0.000000
  70
    32
  0
VERTEX
  8
0
  5
80000163
 10
42.9708
 20
-165.944
 30
0.000000
  70
    32
  0
VERTEX
  8
0
  5
80000164
 10
43.1478
 20
-166.178
 30
0.000000
  70
    32
  0
VERTEX
  8
0
  5
80000165
 10
43.3284
 20
-166.406
 30
0.000000
  70
    32
  0
VERTEX
  8
0
  5
80000166
 10
43.5127
 20
-166.628
 30
0.000000
  70
    32
  0
VERTEX
  8
0
  5
80000167
 10
43.7007
 20
-166.844
 30
0.000000
  70
    32
  0
VERTEX
  8
0
  5
80000168
 10
43.8925
 20
-167.054
 30
0.000000
  70
    32
  0
VERTEX
  8
0
  5
80000169
 10
44.0882
 20
-167.258
 30
0.000000
  70
    32
  0
VERTEX
  8
0
  5
8000016A
 10
44.2878
 20
-167.456
 30
0.000000
  70
    32
  0
VERTEX
  8
0
  5
8000016B
 10
44.4914
 20
-167.647
 30
0.000000
  70
    32
  0
VERTEX
  8
0
  5
8000016C
 10
44.6991
 20
-167.832
 30
0.000000
  70
    32
  0
VERTEX
  8
0
  5
8000016D
 10
44.9109
 20
-168.009
 30
0.000000
  70
    32
  0
VERTEX
  8
0
  5
8000016E
 10
45.1270
 20
-168.181
 30
0.000000
  70
    32
  0
VERTEX
  8
0
  5
8000016F
 10
45.3473
 20
-168.345
 30
0.000000
  70
    32
  0
VERTEX
  8
0
  5
80000170
 10
45.5719
 20
-168.502
 30
0.000000
  70
    32
  0
VERTEX
  8
0
  5
80000171
 10
45.8010
 20
-168.653
 30
0.000000
  70
    32
  0
VERTEX
  8
0
  5
80000172
 10
46.0345
 20
-168.796
 30
0.000000
  70
    32
  0
VERTEX
  8
0
  5
80000173
 10
46.2726
 20
-168.932
 30
0.000000
  70
    32
  0
VERTEX
  8
0
  5
80000174
 10
46.5153
 20
-169.060
 30
0.000000
  70
    32
  0
VERTEX
  8
0
  5
80000175
 10
46.7626
 20
-169.181
 30
0.000000
  70
    32
  0
VERTEX
  8
0
  5
80000176
 10
47.0147
 20
-169.294
 30
0.000000
  70
    32
  0
VERTEX
  8
0
  5
80000177
 10
47.2716
 20
-169.400
 30
0.000000
  70
    32
  0
VERTEX
  8
0
  5
80000178
 10
47.5334
 20
-169.498
 30
0.000000
  70
    32
  0
VERTEX
  8
0
  5
80000179
 10
47.8001
 20
-169.588
 30
0.000000
  70
    32
  0
VERTEX
  8
0
  5
8000017A
 10
48.0719
 20
-169.670
 30
0.000000
  70
    32
  0
VERTEX
  8
0
  5
8000017B
 10
48.3487
 20
-169.743
 30
0.000000
  70
    32
  0
VERTEX
  8
0
  5
8000017C
 10
48.6306
 20
-169.809
 30
0.000000
  70
    32
  0
VERTEX
  8
0
  5
8000017D
 10
48.9178
 20
-169.866
 30
0.000000
  70
    32
  0
VERTEX
  8
0
  5
8000017E
 10
49.2103
 20
-169.914
 30
0.000000
  70
    32
  0
VERTEX
  8
0
  5
8000017F
 10
49.5081
 20
-169.954
 30
0.000000
  70
    32
  0
VERTEX
  8
0
  5
80000180
 10
49.8113
 20
-169.985
 30
0.000000
  70
    32
  0
VERTEX
  8
0
  5
80000181
 10
50.1200
 20
-170.008
 30
0.000000
  70
    32
  0
VERTEX
  8
0
  5
80000182
 10
50.4342
 20
-170.021
 30
0.000000
  70
    32
  0
VERTEX
  8
0
  5
80000183
 10
50.7541
 20
-170.026
 30
0.000000
  70
    32
  0
SEQEND
  8
0
  5
80000184
  0
ENDBLK
  5
FFBBDAE469BC1DFE
  8
0
  0
BLOCK
  8
0
  2
*U17
 70
     1
 10
0.0
 20
0.0
 30
0.0
  3
*U17
  1

  0
TEXT
  5
FFBBDAE469BC1E00
  8
0
  6
CONTINUOUS
 10
52.312070999712823
 20
-171.4378637530433
 30
0.0
 40
4.0
  1
EasyLap
  7
ARIAL
  0
TEXT
  5
FFBBDAE469BC1E01
  8
0
  6
CONTINUOUS
 10
73.992834983341737
 20
-169.10453041970999
 30
0.0
 40
2.0
  1
TM
  7
ARIAL
  0
TEXT
  5
FFBBDAE469BC1E02
  8
0
  6
CONTINUOUS
 10
74.05831929439222
 20
-169.77119708637659
 30
0.0
 40
2.0
  1

  7
ARIAL
  0
TEXT
  5
FFBBDAE469BC1E03
  8
0
  6
CONTINUOUS
 10
77.949178775974758
 20
-171.4378637530433
 30
0.0
 40
4.0
  1
 Panel
  7
ARIAL
  0
ENDBLK
  5
FFBBDAE469BC1E05
  8
0
  0
BLOCK
  8
0
  2
*U18
 70
     1
 10
0.0
 20
0.0
 30
0.0
  3
*U18
  1

  0
SOLID
  5
FFBBDAE469BC1E07
  8
0
  6
CONTINUOUS
 10
111.4349474635449
 20
-27.720482773365681
 30
0.0
 11
109.3946549438142
 21
-30.74657041815238
 31
0.0
 12
110.3432275506557
 22
-27.22233858560363
 32
0.0
 13
110.3432275506557
 23
-27.22233858560363
 33
0.0
  0
POLYLINE
  8
0
  5
80000185
  66
     1
 10
0.000000
 20
0.000000
 30
0.000000
  70
     8
  0
VERTEX
  8
0
  5
80000186
 10
110.889
 20
-27.4714
 30
0.000000
  70
    32
  0
VERTEX
  8
0
  5
80000187
 10
110.942
 20
-27.3530
 30
0.000000
  70
    32
  0
VERTEX
  8
0
  5
80000188
 10
110.994
 20
-27.2328
 30
0.000000
  70
    32
  0
VERTEX
  8
0
  5
80000189
 10
111.045
 20
-27.1108
 30
0.000000
  70
    32
  0
VERTEX
  8
0
  5
8000018A
 10
111.094
 20
-26.9871
 30
0.000000
  70
    32
  0
VERTEX
  8
0
  5
8000018B
 10
111.143
 20
-26.8618
 30
0.000000
  70
    32
  0
VERTEX
  8
0
  5
8000018C
 10
111.190
 20
-26.7348
 30
0.000000
  70
    32
  0
VERTEX
  8
0
  5
8000018D
 10
111.237
 20
-26.6062
 30
0.000000
  70
    32
  0
VERTEX
  8
0
  5
8000018E
 10
111.282
 20
-26.4761
 30
0.000000
  70
    32
  0
VERTEX
  8
0
  5
8000018F
 10
111.327
 20
-26.3445
 30
0.000000
  70
    32
  0
VERTEX
  8
0
  5
80000190
 10
111.370
 20
-26.2114
 30
0.000000
  70
    32
  0
VERTEX
  8
0
  5
80000191
 10
111.413
 20
-26.0769
 30
0.000000
  70
    32
  0
VERTEX
  8
0
  5
80000192
 10
111.455
 20
-25.9410
 30
0.000000
  70
    32
  0
VERTEX
  8
0
  5
80000193
 10
111.496
 20
-25.8038
 30
0.000000
  70
    32
  0
VERTEX
  8
0
  5
80000194
 10
111.536
 20
-25.6653
 30
0.000000
  70
    32
  0
VERTEX
  8
0
  5
80000195
 10
111.575
 20
-25.5256
 30
0.000000
  70
    32
  0
VERTEX
  8
0
  5
80000196
 10
111.614
 20
-25.3847
 30
0.000000
  70
    32
  0
VERTEX
  8
0
  5
80000197
 10
111.652
 20
-25.2427
 30
0.000000
  70
    32
  0
VERTEX
  8
0
  5
80000198
 10
111.689
 20
-25.0995
 30
0.000000
  70
    32
  0
VERTEX
  8
0
  5
80000199
 10
111.725
 20
-24.9553
 30
0.000000
  70
    32
  0
VERTEX
  8
0
  5
8000019A
 10
111.761
 20
-24.8100
 30
0.000000
  70
    32
  0
VERTEX
  8
0
  5
8000019B
 10
111.796
 20
-24.6638
 30
0.000000
  70
    32
  0
VERTEX
  8
0
  5
8000019C
 10
111.830
 20
-24.5166
 30
0.000000
  70
    32
  0
VERTEX
  8
0
  5
8000019D
 10
111.864
 20
-24.3686
 30
0.000000
  70
    32
  0
VERTEX
  8
0
  5
8000019E
 10
111.898
 20
-24.2197
 30
0.000000
  70
    32
  0
VERTEX
  8
0
  5
8000019F
 10
111.931
 20
-24.0700
 30
0.000000
  70
    32
  0
VERTEX
  8
0
  5
800001A0
 10
111.963
 20
-23.9196
 30
0.000000
  70
    32
  0
VERTEX
  8
0
  5
800001A1
 10
111.995
 20
-23.7684
 30
0.000000
  70
    32
  0
VERTEX
  8
0
  5
800001A2
 10
112.027
 20
-23.6166
 30
0.000000
  70
    32
  0
VERTEX
  8
0
  5
800001A3
 10
112.058
 20
-23.4641
 30
0.000000
  70
    32
  0
VERTEX
  8
0
  5
800001A4
 10
112.088
 20
-23.3111
 30
0.000000
  70
    32
  0
VERTEX
  8
0
  5
800001A5
 10
112.119
 20
-23.1575
 30
0.000000
  70
    32
  0
VERTEX
  8
0
  5
800001A6
 10
112.149
 20
-23.0034
 30
0.000000
  70
    32
  0
VERTEX
  8
0
  5
800001A7
 10
112.179
 20
-22.8489
 30
0.000000
  70
    32
  0
VERTEX
  8
0
  5
800001A8
 10
112.208
 20
-22.6940
 30
0.000000
  70
    32
  0
VERTEX
  8
0
  5
800001A9
 10
112.238
 20
-22.5387
 30
0.000000
  70
    32
  0
VERTEX
  8
0
  5
800001AA
 10
112.267
 20
-22.3830
 30
0.000000
  70
    32
  0
VERTEX
  8
0
  5
800001AB
 10
112.296
 20
-22.2271
 30
0.000000
  70
    32
  0
VERTEX
  8
0
  5
800001AC
 10
112.324
 20
-22.0710
 30
0.000000
  70
    32
  0
VERTEX
  8
0
  5
800001AD
 10
112.353
 20
-21.9147
 30
0.000000
  70
    32
  0
VERTEX
  8
0
  5
800001AE
 10
112.381
 20
-21.7582
 30
0.000000
  70
    32
  0
VERTEX
  8
0
  5
800001AF
 10
112.410
 20
-21.6017
 30
0.000000
  70
    32
  0
VERTEX
  8
0
  5
800001B0
 10
112.438
 20
-21.4450
 30
0.000000
  70
    32
  0
VERTEX
  8
0
  5
800001B1
 10
112.467
 20
-21.2884
 30
0.000000
  70
    32
  0
VERTEX
  8
0
  5
800001B2
 10
112.495
 20
-21.1318
 30
0.000000
  70
    32
  0
VERTEX
  8
0
  5
800001B3
 10
112.524
 20
-20.9752
 30
0.000000
  70
    32
  0
VERTEX
  8
0
  5
800001B4
 10
112.552
 20
-20.8188
 30
0.000000
  70
    32
  0
VERTEX
  8
0
  5
800001B5
 10
112.581
 20
-20.6626
 30
0.000000
  70
    32
  0
VERTEX
  8
0
  5
800001B6
 10
112.610
 20
-20.5065
 30
0.000000
  70
    32
  0
VERTEX
  8
0
  5
800001B7
 10
112.639
 20
-20.3507
 30
0.000000
  70
    32
  0
VERTEX
  8
0
  5
800001B8
 10
112.668
 20
-20.1952
 30
0.000000
  70
    32
  0
VERTEX
  8
0
  5
800001B9
 10
112.697
 20
-20.0400
 30
0.000000
  70
    32
  0
VERTEX
  8
0
  5
800001BA
 10
112.727
 20
-19.8852
 30
0.000000
  70
    32
  0
VERTEX
  8
0
  5
800001BB
 10
112.757
 20
-19.7308
 30
0.000000
  70
    32
  0
VERTEX
  8
0
  5
800001BC
 10
112.787
 20
-19.5769
 30
0.000000
  70
    32
  0
VERTEX
  8
0
  5
800001BD
 10
112.818
 20
-19.4235
 30
0.000000
  70
    32
  0
VERTEX
  8
0
  5
800001BE
 10
112.848
 20
-19.2706
 30
0.000000
  70
    32
  0
VERTEX
  8
0
  5
800001BF
 10
112.880
 20
-19.1184
 30
0.000000
  70
    32
  0
VERTEX
  8
0
  5
800001C0
 10
112.911
 20
-18.9668
 30
0.000000
  70
    32
  0
VERTEX
  8
0
  5
800001C1
 10
112.943
 20
-18.8158
 30
0.000000
  70
    32
  0
VERTEX
  8
0
  5
800001C2
 10
112.976
 20
-18.6656
 30
0.000000
  70
    32
  0
VERTEX
  8
0
  5
800001C3
 10
113.009
 20
-18.5162
 30
0.000000
  70
    32
  0
VERTEX
  8
0
  5
800001C4
 10
113.043
 20
-18.3676
 30
0.000000
  70
    32
  0
VERTEX
  8
0
  5
800001C5
 10
113.077
 20
-18.2198
 30
0.000000
  70
    32
  0
VERTEX
  8
0
  5
800001C6
 10
113.112
 20
-18.0730
 30
0.000000
  70
    32
  0
VERTEX
  8
0
  5
800001C7
 10
113.147
 20
-17.9271
 30
0.000000
  70
    32
  0
VERTEX
  8
0
  5
800001C8
 10
113.183
 20
-17.7822
 30
0.000000
  70
    32
  0
VERTEX
  8
0
  5
800001C9
 10
113.219
 20
-17.6383
 30
0.000000
  70
    32
  0
VERTEX
  8
0
  5
800001CA
 10
113.257
 20
-17.4955
 30
0.000000
  70
    32
  0
VERTEX
  8
0
  5
800001CB
 10
113.295
 20
-17.3538
 30
0.000000
  70
    32
  0
VERTEX
  8
0
  5
800001CC
 10
113.334
 20
-17.2133
 30
0.000000
  70
    32
  0
VERTEX
  8
0
  5
800001CD
 10
113.373
 20
-17.0740
 30
0.000000
  70
    32
  0
VERTEX
  8
0
  5
800001CE
 10
113.414
 20
-16.9359
 30
0.000000
  70
    32
  0
VERTEX
  8
0
  5
800001CF
 10
113.455
 20
-16.7992
 30
0.000000
  70
    32
  0
VERTEX
  8
0
  5
800001D0
 10
113.497
 20
-16.6638
 30
0.000000
  70
    32
  0
VERTEX
  8
0
  5
800001D1
 10
113.540
 20
-16.5297
 30
0.000000
  70
    32
  0
VERTEX
  8
0
  5
800001D2
 10
113.584
 20
-16.3971
 30
0.000000
  70
    32
  0
VERTEX
  8
0
  5
800001D3
 10
113.629
 20
-16.2660
 30
0.000000
  70
    32
  0
VERTEX
  8
0
  5
800001D4
 10
113.674
 20
-16.1364
 30
0.000000
  70
    32
  0
VERTEX
  8
0
  5
800001D5
 10
113.721
 20
-16.0083
 30
0.000000
  70
    32
  0
VERTEX
  8
0
  5
800001D6
 10
113.769
 20
-15.8819
 30
0.000000
  70
    32
  0
VERTEX
  8
0
  5
800001D7
 10
113.818
 20
-15.7571
 30
0.000000
  70
    32
  0
VERTEX
  8
0
  5
800001D8
 10
113.868
 20
-15.6340
 30
0.000000
  70
    32
  0
VERTEX
  8
0
  5
800001D9
 10
113.919
 20
-15.5126
 30
0.000000
  70
    32
  0
VERTEX
  8
0
  5
800001DA
 10
113.971
 20
-15.3930
 30
0.000000
  70
    32
  0
VERTEX
  8
0
  5
800001DB
 10
114.025
 20
-15.2752
 30
0.000000
  70
    32
  0
VERTEX
  8
0
  5
800001DC
 10
114.079
 20
-15.1592
 30
0.000000
  70
    32
  0
VERTEX
  8
0
  5
800001DD
 10
114.135
 20
-15.0452
 30
0.000000
  70
    32
  0
VERTEX
  8
0
  5
800001DE
 10
114.192
 20
-14.9332
 30
0.000000
  70
    32
  0
VERTEX
  8
0
  5
800001DF
 10
114.251
 20
-14.8231
 30
0.000000
  70
    32
  0
VERTEX
  8
0
  5
800001E0
 10
114.310
 20
-14.7151
 30
0.000000
  70
    32
  0
VERTEX
  8
0
  5
800001E1
 10
114.371
 20
-14.6091
 30
0.000000
  70
    32
  0
VERTEX
  8
0
  5
800001E2
 10
114.434
 20
-14.5053
 30
0.000000
  70
    32
  0
VERTEX
  8
0
  5
800001E3
 10
114.497
 20
-14.4037
 30
0.000000
  70
    32
  0
VERTEX
  8
0
  5
800001E4
 10
114.563
 20
-14.3042
 30
0.000000
  70
    32
  0
VERTEX
  8
0
  5
800001E5
 10
114.629
 20
-14.2071
 30
0.000000
  70
    32
  0
VERTEX
  8
0
  5
800001E6
 10
114.697
 20
-14.1122
 30
0.000000
  70
    32
  0
VERTEX
  8
0
  5
800001E7
 10
114.767
 20
-14.0197
 30
0.000000
  70
    32
  0
VERTEX
  8
0
  5
800001E8
 10
114.838
 20
-13.9295
 30
0.000000
  70
    32
  0
VERTEX
  8
0
  5
800001E9
 10
114.911
 20
-13.8418
 30
0.000000
  70
    32
  0
VERTEX
  8
0
  5
800001EA
 10
114.985
 20
-13.7566
 30
0.000000
  70
    32
  0
VERTEX
  8
0
  5
800001EB
 10
115.061
 20
-13.6739
 30
0.000000
  70
    32
  0
VERTEX
  8
0
  5
800001EC
 10
115.139
 20
-13.5937
 30
0.000000
  70
    32
  0
VERTEX
  8
0
  5
800001ED
 10
115.218
 20
-13.5162
 30
0.000000
  70
    32
  0
VERTEX
  8
0
  5
800001EE
 10
115.299
 20
-13.4413
 30
0.000000
  70
    32
  0
VERTEX
  8
0
  5
800001EF
 10
115.382
 20
-13.3691
 30
0.000000
  70
    32
  0
VERTEX
  8
0
  5
800001F0
 10
115.466
 20
-13.2997
 30
0.000000
  70
    32
  0
VERTEX
  8
0
  5
800001F1
 10
115.553
 20
-13.2330
 30
0.000000
  70
    32
  0
VERTEX
  8
0
  5
800001F2
 10
115.641
 20
-13.1692
 30
0.000000
  70
    32
  0
VERTEX
  8
0
  5
800001F3
 10
115.731
 20
-13.1082
 30
0.000000
  70
    32
  0
VERTEX
  8
0
  5
800001F4
 10
115.823
 20
-13.0501
 30
0.000000
  70
    32
  0
VERTEX
  8
0
  5
800001F5
 10
115.916
 20
-12.9950
 30
0.000000
  70
    32
  0
VERTEX
  8
0
  5
800001F6
 10
116.012
 20
-12.9429
 30
0.000000
  70
    32
  0
VERTEX
  8
0
  5
800001F7
 10
116.109
 20
-12.8939
 30
0.000000
  70
    32
  0
VERTEX
  8
0
  5
800001F8
 10
116.209
 20
-12.8479
 30
0.000000
  70
    32
  0
VERTEX
  8
0
  5
800001F9
 10
116.311
 20
-12.8051
 30
0.000000
  70
    32
  0
VERTEX
  8
0
  5
800001FA
 10
116.414
 20
-12.7654
 30
0.000000
  70
    32
  0
VERTEX
  8
0
  5
800001FB
 10
116.520
 20
-12.7290
 30
0.000000
  70
    32
  0
VERTEX
  8
0
  5
800001FC
 10
116.628
 20
-12.6958
 30
0.000000
  70
    32
  0
VERTEX
  8
0
  5
800001FD
 10
116.738
 20
-12.6659
 30
0.000000
  70
    32
  0
VERTEX
  8
0
  5
800001FE
 10
116.850
 20
-12.6394
 30
0.000000
  70
    32
  0
VERTEX
  8
0
  5
800001FF
 10
116.964
 20
-12.6163
 30
0.000000
  70
    32
  0
VERTEX
  8
0
  5
80000200
 10
117.081
 20
-12.5966
 30
0.000000
  70
    32
  0
VERTEX
  8
0
  5
80000201
 10
117.199
 20
-12.5804
 30
0.000000
  70
    32
  0
VERTEX
  8
0
  5
80000202
 10
117.320
 20
-12.5677
 30
0.000000
  70
    32
  0
VERTEX
  8
0
  5
80000203
 10
117.444
 20
-12.5586
 30
0.000000
  70
    32
  0
VERTEX
  8
0
  5
80000204
 10
117.569
 20
-12.5531
 30
0.000000
  70
    32
  0
VERTEX
  8
0
  5
80000205
 10
117.697
 20
-12.5512
 30
0.000000
  70
    32
  0
SEQEND
  8
0
  5
80000206
  0
ENDBLK
  5
FFBBDAE469BC1E0A
  8
0
  0
BLOCK
  8
0
  2
*U19
 70
     1
 10
0.0
 20
0.0
 30
0.0
  3
*U19
  1

  0
TEXT
  5
FFBBDAE469BC1E0C
  8
0
  6
CONTINUOUS
 10
119.2550406945446
 20
-13.96324022209345
 30
0.0
 40
4.0
  1
EasyLap
  7
ARIAL
  0
TEXT
  5
FFBBDAE469BC1E0D
  8
0
  6
CONTINUOUS
 10
140.93580467817361
 20
-11.62990688876012
 30
0.0
 40
2.0
  1
TM
  7
ARIAL
  0
TEXT
  5
FFBBDAE469BC1E0E
  8
0
  6
CONTINUOUS
 10
141.00128898922401
 20
-12.296573555426781
 30
0.0
 40
2.0
  1

  7
ARIAL
  0
TEXT
  5
FFBBDAE469BC1E0F
  8
0
  6
CONTINUOUS
 10
144.8921484708066
 20
-13.96324022209345
 30
0.0
 40
4.0
  1
 Panel
  7
ARIAL
  0
ENDBLK
  5
FFBBDAE469BC1E11
  8
0
  0
BLOCK
  8
0
  2
*U20
 70
     1
 10
0.0
 20
0.0
 30
0.0
  3
*U20
  1

  0
SOLID
  5
FFBBDAE469BC1E13
  8
0
  6
CONTINUOUS
 10
71.226059333267571
 20
-29.65336929256291
 30
0.0
 11
68.720140061366692
 21
-27.0
 31
0.0
 12
71.951156440482521
 22
-28.697213350726791
 32
0.0
 13
71.951156440482521
 23
-28.697213350726791
 33
0.0
  0
POLYLINE
  8
0
  5
80000207
  66
     1
 10
0.000000
 20
0.000000
 30
0.000000
  70
     8
  0
VERTEX
  8
0
  5
80000208
 10
71.5886
 20
-29.1753
 30
0.000000
  70
    32
  0
VERTEX
  8
0
  5
80000209
 10
71.9509
 20
-29.4528
 30
0.000000
  70
    32
  0
VERTEX
  8
0
  5
8000020A
 10
72.3119
 20
-29.7345
 30
0.000000
  70
    32
  0
VERTEX
  8
0
  5
8000020B
 10
72.6714
 20
-30.0203
 30
0.000000
  70
    32
  0
VERTEX
  8
0
  5
8000020C
 10
73.0295
 20
-30.3102
 30
0.000000
  70
    32
  0
VERTEX
  8
0
  5
8000020D
 10
73.3864
 20
-30.6040
 30
0.000000
  70
    32
  0
VERTEX
  8
0
  5
8000020E
 10
73.7420
 20
-30.9016
 30
0.000000
  70
    32
  0
VERTEX
  8
0
  5
8000020F
 10
74.0963
 20
-31.2029
 30
0.000000
  70
    32
  0
VERTEX
  8
0
  5
80000210
 10
74.4494
 20
-31.5079
 30
0.000000
  70
    32
  0
VERTEX
  8
0
  5
80000211
 10
74.8013
 20
-31.8164
 30
0.000000
  70
    32
  0
VERTEX
  8
0
  5
80000212
 10
75.1520
 20
-32.1283
 30
0.000000
  70
    32
  0
VERTEX
  8
0
  5
80000213
 10
75.5017
 20
-32.4435
 30
0.000000
  70
    32
  0
VERTEX
  8
0
  5
80000214
 10
75.8502
 20
-32.7619
 30
0.000000
  70
    32
  0
VERTEX
  8
0
  5
80000215
 10
76.1978
 20
-33.0834
 30
0.000000
  70
    32
  0
VERTEX
  8
0
  5
80000216
 10
76.5443
 20
-33.4079
 30
0.000000
  70
    32
  0
VERTEX
  8
0
  5
80000217
 10
76.8898
 20
-33.7353
 30
0.000000
  70
    32
  0
VERTEX
  8
0
  5
80000218
 10
77.2344
 20
-34.0655
 30
0.000000
  70
    32
  0
VERTEX
  8
0
  5
80000219
 10
77.5781
 20
-34.3985
 30
0.000000
  70
    32
  0
VERTEX
  8
0
  5
8000021A
 10
77.9209
 20
-34.7340
 30
0.000000
  70
    32
  0
VERTEX
  8
0
  5
8000021B
 10
78.2629
 20
-35.0720
 30
0.000000
  70
    32
  0
VERTEX
  8
0
  5
8000021C
 10
78.6041
 20
-35.4124
 30
0.000000
  70
    32
  0
VERTEX
  8
0
  5
8000021D
 10
78.9445
 20
-35.7551
 30
0.000000
  70
    32
  0
VERTEX
  8
0
  5
8000021E
 10
79.2842
 20
-36.0999
 30
0.000000
  70
    32
  0
VERTEX
  8
0
  5
8000021F
 10
79.6231
 20
-36.4469
 30
0.000000
  70
    32
  0
VERTEX
  8
0
  5
80000220
 10
79.9614
 20
-36.7958
 30
0.000000
  70
    32
  0
VERTEX
  8
0
  5
80000221
 10
80.2991
 20
-37.1466
 30
0.000000
  70
    32
  0
VERTEX
  8
0
  5
80000222
 10
80.6362
 20
-37.4992
 30
0.000000
  70
    32
  0
VERTEX
  8
0
  5
80000223
 10
80.9727
 20
-37.8535
 30
0.000000
  70
    32
  0
VERTEX
  8
0
  5
80000224
 10
81.3087
 20
-38.2093
 30
0.000000
  70
    32
  0
VERTEX
  8
0
  5
80000225
 10
81.6442
 20
-38.5666
 30
0.000000
  70
    32
  0
VERTEX
  8
0
  5
80000226
 10
81.9792
 20
-38.9252
 30
0.000000
  70
    32
  0
VERTEX
  8
0
  5
80000227
 10
82.3138
 20
-39.2852
 30
0.000000
  70
    32
  0
VERTEX
  8
0
  5
80000228
 10
82.6480
 20
-39.6462
 30
0.000000
  70
    32
  0
VERTEX
  8
0
  5
80000229
 10
82.9819
 20
-40.0084
 30
0.000000
  70
    32
  0
VERTEX
  8
0
  5
8000022A
 10
83.3154
 20
-40.3715
 30
0.000000
  70
    32
  0
VERTEX
  8
0
  5
8000022B
 10
83.6487
 20
-40.7354
 30
0.000000
  70
    32
  0
VERTEX
  8
0
  5
8000022C
 10
83.9817
 20
-41.1001
 30
0.000000
  70
    32
  0
VERTEX
  8
0
  5
8000022D
 10
84.3145
 20
-41.4655
 30
0.000000
  70
    32
  0
VERTEX
  8
0
  5
8000022E
 10
84.6471
 20
-41.8314
 30
0.000000
  70
    32
  0
VERTEX
  8
0
  5
8000022F
 10
84.9795
 20
-42.1977
 30
0.000000
  70
    32
  0
VERTEX
  8
0
  5
80000230
 10
85.3119
 20
-42.5644
 30
0.000000
  70
    32
  0
VERTEX
  8
0
  5
80000231
 10
85.6441
 20
-42.9313
 30
0.000000
  70
    32
  0
VERTEX
  8
0
  5
80000232
 10
85.9763
 20
-43.2984
 30
0.000000
  70
    32
  0
VERTEX
  8
0
  5
80000233
 10
86.3085
 20
-43.6655
 30
0.000000
  70
    32
  0
VERTEX
  8
0
  5
80000234
 10
86.6408
 20
-44.0325
 30
0.000000
  70
    32
  0
VERTEX
  8
0
  5
80000235
 10
86.9730
 20
-44.3994
 30
0.000000
  70
    32
  0
VERTEX
  8
0
  5
80000236
 10
87.3054
 20
-44.7660
 30
0.000000
  70
    32
  0
VERTEX
  8
0
  5
80000237
 10
87.6379
 20
-45.1322
 30
0.000000
  70
    32
  0
VERTEX
  8
0
  5
80000238
 10
87.9706
 20
-45.4979
 30
0.000000
  70
    32
  0
VERTEX
  8
0
  5
80000239
 10
88.3034
 20
-45.8630
 30
0.000000
  70
    32
  0
VERTEX
  8
0
  5
8000023A
 10
88.6365
 20
-46.2275
 30
0.000000
  70
    32
  0
VERTEX
  8
0
  5
8000023B
 10
88.9698
 20
-46.5912
 30
0.000000
  70
    32
  0
VERTEX
  8
0
  5
8000023C
 10
89.3035
 20
-46.9540
 30
0.000000
  70
    32
  0
VERTEX
  8
0
  5
8000023D
 10
89.6375
 20
-47.3158
 30
0.000000
  70
    32
  0
VERTEX
  8
0
  5
8000023E
 10
89.9718
 20
-47.6765
 30
0.000000
  70
    32
  0
VERTEX
  8
0
  5
8000023F
 10
90.3065
 20
-48.0360
 30
0.000000
  70
    32
  0
VERTEX
  8
0
  5
80000240
 10
90.6417
 20
-48.3942
 30
0.000000
  70
    32
  0
VERTEX
  8
0
  5
80000241
 10
90.9774
 20
-48.7510
 30
0.000000
  70
    32
  0
VERTEX
  8
0
  5
80000242
 10
91.3135
 20
-49.1063
 30
0.000000
  70
    32
  0
VERTEX
  8
0
  5
80000243
 10
91.6502
 20
-49.4601
 30
0.000000
  70
    32
  0
VERTEX
  8
0
  5
80000244
 10
91.9875
 20
-49.8121
 30
0.000000
  70
    32
  0
VERTEX
  8
0
  5
80000245
 10
92.3254
 20
-50.1622
 30
0.000000
  70
    32
  0
VERTEX
  8
0
  5
80000246
 10
92.6639
 20
-50.5105
 30
0.000000
  70
    32
  0
VERTEX
  8
0
  5
80000247
 10
93.0031
 20
-50.8568
 30
0.000000
  70
    32
  0
VERTEX
  8
0
  5
80000248
 10
93.3430
 20
-51.2009
 30
0.000000
  70
    32
  0
VERTEX
  8
0
  5
80000249
 10
93.6837
 20
-51.5429
 30
0.000000
  70
    32
  0
VERTEX
  8
0
  5
8000024A
 10
94.0251
 20
-51.8825
 30
0.000000
  70
    32
  0
VERTEX
  8
0
  5
8000024B
 10
94.3674
 20
-52.2197
 30
0.000000
  70
    32
  0
VERTEX
  8
0
  5
8000024C
 10
94.7105
 20
-52.5543
 30
0.000000
  70
    32
  0
VERTEX
  8
0
  5
8000024D
 10
95.0545
 20
-52.8864
 30
0.000000
  70
    32
  0
VERTEX
  8
0
  5
8000024E
 10
95.3994
 20
-53.2157
 30
0.000000
  70
    32
  0
VERTEX
  8
0
  5
8000024F
 10
95.7452
 20
-53.5421
 30
0.000000
  70
    32
  0
VERTEX
  8
0
  5
80000250
 10
96.0921
 20
-53.8657
 30
0.000000
  70
    32
  0
VERTEX
  8
0
  5
80000251
 10
96.4400
 20
-54.1862
 30
0.000000
  70
    32
  0
VERTEX
  8
0
  5
80000252
 10
96.7889
 20
-54.5035
 30
0.000000
  70
    32
  0
VERTEX
  8
0
  5
80000253
 10
97.1389
 20
-54.8176
 30
0.000000
  70
    32
  0
VERTEX
  8
0
  5
80000254
 10
97.4900
 20
-55.1284
 30
0.000000
  70
    32
  0
VERTEX
  8
0
  5
80000255
 10
97.8423
 20
-55.4357
 30
0.000000
  70
    32
  0
VERTEX
  8
0
  5
80000256
 10
98.1958
 20
-55.7395
 30
0.000000
  70
    32
  0
VERTEX
  8
0
  5
80000257
 10
98.5506
 20
-56.0396
 30
0.000000
  70
    32
  0
VERTEX
  8
0
  5
80000258
 10
98.9065
 20
-56.3359
 30
0.000000
  70
    32
  0
VERTEX
  8
0
  5
80000259
 10
99.2638
 20
-56.6284
 30
0.000000
  70
    32
  0
VERTEX
  8
0
  5
8000025A
 10
99.6224
 20
-56.9169
 30
0.000000
  70
    32
  0
VERTEX
  8
0
  5
8000025B
 10
99.9824
 20
-57.2014
 30
0.000000
  70
    32
  0
VERTEX
  8
0
  5
8000025C
 10
100.344
 20
-57.4817
 30
0.000000
  70
    32
  0
VERTEX
  8
0
  5
8000025D
 10
100.707
 20
-57.7578
 30
0.000000
  70
    32
  0
VERTEX
  8
0
  5
8000025E
 10
101.071
 20
-58.0294
 30
0.000000
  70
    32
  0
VERTEX
  8
0
  5
8000025F
 10
101.437
 20
-58.2966
 30
0.000000
  70
    32
  0
VERTEX
  8
0
  5
80000260
 10
101.804
 20
-58.5593
 30
0.000000
  70
    32
  0
VERTEX
  8
0
  5
80000261
 10
102.173
 20
-58.8172
 30
0.000000
  70
    32
  0
VERTEX
  8
0
  5
80000262
 10
102.543
 20
-59.0704
 30
0.000000
  70
    32
  0
VERTEX
  8
0
  5
80000263
 10
102.916
 20
-59.3187
 30
0.000000
  70
    32
  0
VERTEX
  8
0
  5
80000264
 10
103.289
 20
-59.5620
 30
0.000000
  70
    32
  0
VERTEX
  8
0
  5
80000265
 10
103.665
 20
-59.8002
 30
0.000000
  70
    32
  0
VERTEX
  8
0
  5
80000266
 10
104.042
 20
-60.0332
 30
0.000000
  70
    32
  0
VERTEX
  8
0
  5
80000267
 10
104.421
 20
-60.2609
 30
0.000000
  70
    32
  0
VERTEX
  8
0
  5
80000268
 10
104.802
 20
-60.4833
 30
0.000000
  70
    32
  0
VERTEX
  8
0
  5
80000269
 10
105.185
 20
-60.7001
 30
0.000000
  70
    32
  0
VERTEX
  8
0
  5
8000026A
 10
105.570
 20
-60.9114
 30
0.000000
  70
    32
  0
VERTEX
  8
0
  5
8000026B
 10
105.956
 20
-61.1169
 30
0.000000
  70
    32
  0
VERTEX
  8
0
  5
8000026C
 10
106.345
 20
-61.3166
 30
0.000000
  70
    32
  0
VERTEX
  8
0
  5
8000026D
 10
106.735
 20
-61.5105
 30
0.000000
  70
    32
  0
VERTEX
  8
0
  5
8000026E
 10
107.127
 20
-61.6983
 30
0.000000
  70
    32
  0
VERTEX
  8
0
  5
8000026F
 10
107.522
 20
-61.8800
 30
0.000000
  70
    32
  0
VERTEX
  8
0
  5
80000270
 10
107.919
 20
-62.0555
 30
0.000000
  70
    32
  0
VERTEX
  8
0
  5
80000271
 10
108.317
 20
-62.2247
 30
0.000000
  70
    32
  0
VERTEX
  8
0
  5
80000272
 10
108.718
 20
-62.3874
 30
0.000000
  70
    32
  0
VERTEX
  8
0
  5
80000273
 10
109.121
 20
-62.5437
 30
0.000000
  70
    32
  0
VERTEX
  8
0
  5
80000274
 10
109.527
 20
-62.6933
 30
0.000000
  70
    32
  0
VERTEX
  8
0
  5
80000275
 10
109.934
 20
-62.8362
 30
0.000000
  70
    32
  0
VERTEX
  8
0
  5
80000276
 10
110.344
 20
-62.9723
 30
0.000000
  70
    32
  0
VERTEX
  8
0
  5
80000277
 10
110.756
 20
-63.1014
 30
0.000000
  70
    32
  0
VERTEX
  8
0
  5
80000278
 10
111.171
 20
-63.2235
 30
0.000000
  70
    32
  0
VERTEX
  8
0
  5
80000279
 10
111.588
 20
-63.3385
 30
0.000000
  70
    32
  0
VERTEX
  8
0
  5
8000027A
 10
112.007
 20
-63.4462
 30
0.000000
  70
    32
  0
VERTEX
  8
0
  5
8000027B
 10
112.429
 20
-63.5466
 30
0.000000
  70
    32
  0
VERTEX
  8
0
  5
8000027C
 10
112.854
 20
-63.6395
 30
0.000000
  70
    32
  0
VERTEX
  8
0
  5
8000027D
 10
113.281
 20
-63.7249
 30
0.000000
  70
    32
  0
VERTEX
  8
0
  5
8000027E
 10
113.710
 20
-63.8027
 30
0.000000
  70
    32
  0
VERTEX
  8
0
  5
8000027F
 10
114.142
 20
-63.8727
 30
0.000000
  70
    32
  0
VERTEX
  8
0
  5
80000280
 10
114.577
 20
-63.9349
 30
0.000000
  70
    32
  0
VERTEX
  8
0
  5
80000281
 10
115.014
 20
-63.9891
 30
0.000000
  70
    32
  0
VERTEX
  8
0
  5
80000282
 10
115.455
 20
-64.0352
 30
0.000000
  70
    32
  0
VERTEX
  8
0
  5
80000283
 10
115.897
 20
-64.0732
 30
0.000000
  70
    32
  0
VERTEX
  8
0
  5
80000284
 10
116.343
 20
-64.1029
 30
0.000000
  70
    32
  0
VERTEX
  8
0
  5
80000285
 10
116.792
 20
-64.1242
 30
0.000000
  70
    32
  0
VERTEX
  8
0
  5
80000286
 10
117.243
 20
-64.1371
 30
0.000000
  70
    32
  0
VERTEX
  8
0
  5
80000287
 10
117.697
 20
-64.1415
 30
0.000000
  70
    32
  0
SEQEND
  8
0
  5
80000288
  0
ENDBLK
  5
FFBBDAE469BC1E16
  8
0
  0
BLOCK
  8
0
  2
*U21
 70
     1
 10
0.0
 20
0.0
 30
0.0
  3
*U21
  1

  0
TEXT
  5
FFBBDAE469BC1E18
  8
0
  6
CONTINUOUS
 10
119.6970597941354
 20
-59.380654564913392
 30
0.0
 40
4.0
  1
Apply continuous 6mm bead
  7
ARIAL
  0
TEXT
  5
FFBBDAE469BC1E19
  8
0
  6
CONTINUOUS
 10
119.5115209128257
 20
-66.11553405559097
 30
0.0
 40
4.0
  1
of Seal n Flex -1 or Sikaflex
  7
ARIAL
  0
TEXT
  5
FFBBDAE469BC1E1A
  8
0
  6
CONTINUOUS
 10
119.08860140395799
 20
-72.850413546268555
 30
0.0
 40
4.0
  1
11FC adhesive sealant
  7
ARIAL
  0
ENDBLK
  5
FFBBDAE469BC1E1C
  8
0
  0
BLOCK
  8
0
  2
*U22
 70
     1
 10
0.0
 20
0.0
 30
0.0
  3
*U22
  1

  0
SOLID
  5
FFBBDAE469BC1E1E
  8
0
  6
CONTINUOUS
 10
88.73931855377522
 20
-21.655588750544389
 30
0.0
 11
86.314325959589027
 21
-18.928060397228482
 31
0.0
 12
89.492841663272998
 22
-20.721670700899359
 32
0.0
 13
89.492841663272998
 23
-20.721670700899359
 33
0.0
  0
POLYLINE
  8
0
  5
80000289
  66
     1
 10
0.000000
 20
0.000000
 30
0.000000
  70
     8
  0
VERTEX
  8
0
  5
8000028A
 10
89.1161
 20
-21.1886
 30
0.000000
  70
    32
  0
VERTEX
  8
0
  5
8000028B
 10
89.3406
 20
-21.3716
 30
0.000000
  70
    32
  0
VERTEX
  8
0
  5
8000028C
 10
89.5642
 20
-21.5574
 30
0.000000
  70
    32
  0
VERTEX
  8
0
  5
8000028D
 10
89.7868
 20
-21.7459
 30
0.000000
  70
    32
  0
VERTEX
  8
0
  5
8000028E
 10
90.0084
 20
-21.9371
 30
0.000000
  70
    32
  0
VERTEX
  8
0
  5
8000028F
 10
90.2292
 20
-22.1309
 30
0.000000
  70
    32
  0
VERTEX
  8
0
  5
80000290
 10
90.4490
 20
-22.3271
 30
0.000000
  70
    32
  0
VERTEX
  8
0
  5
80000291
 10
90.6680
 20
-22.5259
 30
0.000000
  70
    32
  0
VERTEX
  8
0
  5
80000292
 10
90.8862
 20
-22.7270
 30
0.000000
  70
    32
  0
VERTEX
  8
0
  5
80000293
 10
91.1035
 20
-22.9304
 30
0.000000
  70
    32
  0
VERTEX
  8
0
  5
80000294
 10
91.3200
 20
-23.1361
 30
0.000000
  70
    32
  0
VERTEX
  8
0
  5
80000295
 10
91.5358
 20
-23.3440
 30
0.000000
  70
    32
  0
VERTEX
  8
0
  5
80000296
 10
91.7508
 20
-23.5540
 30
0.000000
  70
    32
  0
VERTEX
  8
0
  5
80000297
 10
91.9651
 20
-23.7660
 30
0.000000
  70
    32
  0
VERTEX
  8
0
  5
80000298
 10
92.1787
 20
-23.9800
 30
0.000000
  70
    32
  0
VERTEX
  8
0
  5
80000299
 10
92.3916
 20
-24.1960
 30
0.000000
  70
    32
  0
VERTEX
  8
0
  5
8000029A
 10
92.6039
 20
-24.4138
 30
0.000000
  70
    32
  0
VERTEX
  8
0
  5
8000029B
 10
92.8155
 20
-24.6333
 30
0.000000
  70
    32
  0
VERTEX
  8
0
  5
8000029C
 10
93.0265
 20
-24.8546
 30
0.000000
  70
    32
  0
VERTEX
  8
0
  5
8000029D
 10
93.2370
 20
-25.0775
 30
0.000000
  70
    32
  0
VERTEX
  8
0
  5
8000029E
 10
93.4469
 20
-25.3020
 30
0.000000
  70
    32
  0
VERTEX
  8
0
  5
8000029F
 10
93.6562
 20
-25.5280
 30
0.000000
  70
    32
  0
VERTEX
  8
0
  5
800002A0
 10
93.8651
 20
-25.7554
 30
0.000000
  70
    32
  0
VERTEX
  8
0
  5
800002A1
 10
94.0735
 20
-25.9843
 30
0.000000
  70
    32
  0
VERTEX
  8
0
  5
800002A2
 10
94.2814
 20
-26.2144
 30
0.000000
  70
    32
  0
VERTEX
  8
0
  5
800002A3
 10
94.4888
 20
-26.4457
 30
0.000000
  70
    32
  0
VERTEX
  8
0
  5
800002A4
 10
94.6959
 20
-26.6783
 30
0.000000
  70
    32
  0
VERTEX
  8
0
  5
800002A5
 10
94.9026
 20
-26.9119
 30
0.000000
  70
    32
  0
VERTEX
  8
0
  5
800002A6
 10
95.1088
 20
-27.1466
 30
0.000000
  70
    32
  0
VERTEX
  8
0
  5
800002A7
 10
95.3148
 20
-27.3822
 30
0.000000
  70
    32
  0
VERTEX
  8
0
  5
800002A8
 10
95.5204
 20
-27.6188
 30
0.000000
  70
    32
  0
VERTEX
  8
0
  5
800002A9
 10
95.7258
 20
-27.8561
 30
0.000000
  70
    32
  0
VERTEX
  8
0
  5
800002AA
 10
95.9309
 20
-28.0943
 30
0.000000
  70
    32
  0
VERTEX
  8
0
  5
800002AB
 10
96.1357
 20
-28.3331
 30
0.000000
  70
    32
  0
VERTEX
  8
0
  5
800002AC
 10
96.3403
 20
-28.5726
 30
0.000000
  70
    32
  0
VERTEX
  8
0
  5
800002AD
 10
96.5447
 20
-28.8126
 30
0.000000
  70
    32
  0
VERTEX
  8
0
  5
800002AE
 10
96.7489
 20
-29.0531
 30
0.000000
  70
    32
  0
VERTEX
  8
0
  5
800002AF
 10
96.9530
 20
-29.2941
 30
0.000000
  70
    32
  0
VERTEX
  8
0
  5
800002B0
 10
97.1570
 20
-29.5354
 30
0.000000
  70
    32
  0
VERTEX
  8
0
  5
800002B1
 10
97.3608
 20
-29.7770
 30
0.000000
  70
    32
  0
VERTEX
  8
0
  5
800002B2
 10
97.5646
 20
-30.0188
 30
0.000000
  70
    32
  0
VERTEX
  8
0
  5
800002B3
 10
97.7683
 20
-30.2608
 30
0.000000
  70
    32
  0
VERTEX
  8
0
  5
800002B4
 10
97.9720
 20
-30.5029
 30
0.000000
  70
    32
  0
VERTEX
  8
0
  5
800002B5
 10
98.1757
 20
-30.7450
 30
0.000000
  70
    32
  0
VERTEX
  8
0
  5
800002B6
 10
98.3794
 20
-30.9870
 30
0.000000
  70
    32
  0
VERTEX
  8
0
  5
800002B7
 10
98.5831
 20
-31.2290
 30
0.000000
  70
    32
  0
VERTEX
  8
0
  5
800002B8
 10
98.7869
 20
-31.4707
 30
0.000000
  70
    32
  0
VERTEX
  8
0
  5
800002B9
 10
98.9908
 20
-31.7122
 30
0.000000
  70
    32
  0
VERTEX
  8
0
  5
800002BA
 10
99.1948
 20
-31.9534
 30
0.000000
  70
    32
  0
VERTEX
  8
0
  5
800002BB
 10
99.3989
 20
-32.1942
 30
0.000000
  70
    32
  0
VERTEX
  8
0
  5
800002BC
 10
99.6032
 20
-32.4346
 30
0.000000
  70
    32
  0
VERTEX
  8
0
  5
800002BD
 10
99.8077
 20
-32.6745
 30
0.000000
  70
    32
  0
VERTEX
  8
0
  5
800002BE
 10
100.012
 20
-32.9137
 30
0.000000
  70
    32
  0
VERTEX
  8
0
  5
800002BF
 10
100.217
 20
-33.1523
 30
0.000000
  70
    32
  0
VERTEX
  8
0
  5
800002C0
 10
100.422
 20
-33.3902
 30
0.000000
  70
    32
  0
VERTEX
  8
0
  5
800002C1
 10
100.628
 20
-33.6273
 30
0.000000
  70
    32
  0
VERTEX
  8
0
  5
800002C2
 10
100.834
 20
-33.8636
 30
0.000000
  70
    32
  0
VERTEX
  8
0
  5
800002C3
 10
101.040
 20
-34.0989
 30
0.000000
  70
    32
  0
VERTEX
  8
0
  5
800002C4
 10
101.246
 20
-34.3332
 30
0.000000
  70
    32
  0
VERTEX
  8
0
  5
800002C5
 10
101.453
 20
-34.5665
 30
0.000000
  70
    32
  0
VERTEX
  8
0
  5
800002C6
 10
101.660
 20
-34.7986
 30
0.000000
  70
    32
  0
VERTEX
  8
0
  5
800002C7
 10
101.868
 20
-35.0296
 30
0.000000
  70
    32
  0
VERTEX
  8
0
  5
800002C8
 10
102.076
 20
-35.2593
 30
0.000000
  70
    32
  0
VERTEX
  8
0
  5
800002C9
 10
102.284
 20
-35.4877
 30
0.000000
  70
    32
  0
VERTEX
  8
0
  5
800002CA
 10
102.493
 20
-35.7146
 30
0.000000
  70
    32
  0
VERTEX
  8
0
  5
800002CB
 10
102.703
 20
-35.9401
 30
0.000000
  70
    32
  0
VERTEX
  8
0
  5
800002CC
 10
102.913
 20
-36.1641
 30
0.000000
  70
    32
  0
VERTEX
  8
0
  5
800002CD
 10
103.124
 20
-36.3865
 30
0.000000
  70
    32
  0
VERTEX
  8
0
  5
800002CE
 10
103.335
 20
-36.6072
 30
0.000000
  70
    32
  0
VERTEX
  8
0
  5
800002CF
 10
103.547
 20
-36.8262
 30
0.000000
  70
    32
  0
VERTEX
  8
0
  5
800002D0
 10
103.759
 20
-37.0433
 30
0.000000
  70
    32
  0
VERTEX
  8
0
  5
800002D1
 10
103.972
 20
-37.2586
 30
0.000000
  70
    32
  0
VERTEX
  8
0
  5
800002D2
 10
104.186
 20
-37.4720
 30
0.000000
  70
    32
  0
VERTEX
  8
0
  5
800002D3
 10
104.401
 20
-37.6834
 30
0.000000
  70
    32
  0
VERTEX
  8
0
  5
800002D4
 10
104.616
 20
-37.8927
 30
0.000000
  70
    32
  0
VERTEX
  8
0
  5
800002D5
 10
104.832
 20
-38.0998
 30
0.000000
  70
    32
  0
VERTEX
  8
0
  5
800002D6
 10
105.049
 20
-38.3048
 30
0.000000
  70
    32
  0
VERTEX
  8
0
  5
800002D7
 10
105.266
 20
-38.5074
 30
0.000000
  70
    32
  0
VERTEX
  8
0
  5
800002D8
 10
105.485
 20
-38.7078
 30
0.000000
  70
    32
  0
VERTEX
  8
0
  5
800002D9
 10
105.704
 20
-38.9057
 30
0.000000
  70
    32
  0
VERTEX
  8
0
  5
800002DA
 10
105.924
 20
-39.1011
 30
0.000000
  70
    32
  0
VERTEX
  8
0
  5
800002DB
 10
106.145
 20
-39.2941
 30
0.000000
  70
    32
  0
VERTEX
  8
0
  5
800002DC
 10
106.367
 20
-39.4843
 30
0.000000
  70
    32
  0
VERTEX
  8
0
  5
800002DD
 10
106.590
 20
-39.6720
 30
0.000000
  70
    32
  0
VERTEX
  8
0
  5
800002DE
 10
106.814
 20
-39.8568
 30
0.000000
  70
    32
  0
VERTEX
  8
0
  5
800002DF
 10
107.039
 20
-40.0389
 30
0.000000
  70
    32
  0
VERTEX
  8
0
  5
800002E0
 10
107.265
 20
-40.2180
 30
0.000000
  70
    32
  0
VERTEX
  8
0
  5
800002E1
 10
107.492
 20
-40.3943
 30
0.000000
  70
    32
  0
VERTEX
  8
0
  5
800002E2
 10
107.720
 20
-40.5675
 30
0.000000
  70
    32
  0
VERTEX
  8
0
  5
800002E3
 10
107.949
 20
-40.7376
 30
0.000000
  70
    32
  0
VERTEX
  8
0
  5
800002E4
 10
108.179
 20
-40.9045
 30
0.000000
  70
    32
  0
VERTEX
  8
0
  5
800002E5
 10
108.410
 20
-41.0683
 30
0.000000
  70
    32
  0
VERTEX
  8
0
  5
800002E6
 10
108.643
 20
-41.2287
 30
0.000000
  70
    32
  0
VERTEX
  8
0
  5
800002E7
 10
108.876
 20
-41.3858
 30
0.000000
  70
    32
  0
VERTEX
  8
0
  5
800002E8
 10
109.111
 20
-41.5395
 30
0.000000
  70
    32
  0
VERTEX
  8
0
  5
800002E9
 10
109.347
 20
-41.6897
 30
0.000000
  70
    32
  0
VERTEX
  8
0
  5
800002EA
 10
109.585
 20
-41.8363
 30
0.000000
  70
    32
  0
VERTEX
  8
0
  5
800002EB
 10
109.824
 20
-41.9794
 30
0.000000
  70
    32
  0
VERTEX
  8
0
  5
800002EC
 10
110.064
 20
-42.1187
 30
0.000000
  70
    32
  0
VERTEX
  8
0
  5
800002ED
 10
110.305
 20
-42.2542
 30
0.000000
  70
    32
  0
VERTEX
  8
0
  5
800002EE
 10
110.547
 20
-42.3860
 30
0.000000
  70
    32
  0
VERTEX
  8
0
  5
800002EF
 10
110.791
 20
-42.5138
 30
0.000000
  70
    32
  0
VERTEX
  8
0
  5
800002F0
 10
111.037
 20
-42.6377
 30
0.000000
  70
    32
  0
VERTEX
  8
0
  5
800002F1
 10
111.284
 20
-42.7575
 30
0.000000
  70
    32
  0
VERTEX
  8
0
  5
800002F2
 10
111.532
 20
-42.8732
 30
0.000000
  70
    32
  0
VERTEX
  8
0
  5
800002F3
 10
111.782
 20
-42.9848
 30
0.000000
  70
    32
  0
VERTEX
  8
0
  5
800002F4
 10
112.033
 20
-43.0922
 30
0.000000
  70
    32
  0
VERTEX
  8
0
  5
800002F5
 10
112.286
 20
-43.1952
 30
0.000000
  70
    32
  0
VERTEX
  8
0
  5
800002F6
 10
112.540
 20
-43.2939
 30
0.000000
  70
    32
  0
VERTEX
  8
0
  5
800002F7
 10
112.796
 20
-43.3881
 30
0.000000
  70
    32
  0
VERTEX
  8
0
  5
800002F8
 10
113.054
 20
-43.4778
 30
0.000000
  70
    32
  0
VERTEX
  8
0
  5
800002F9
 10
113.313
 20
-43.5630
 30
0.000000
  70
    32
  0
VERTEX
  8
0
  5
800002FA
 10
113.573
 20
-43.6435
 30
0.000000
  70
    32
  0
VERTEX
  8
0
  5
800002FB
 10
113.836
 20
-43.7194
 30
0.000000
  70
    32
  0
VERTEX
  8
0
  5
800002FC
 10
114.100
 20
-43.7904
 30
0.000000
  70
    32
  0
VERTEX
  8
0
  5
800002FD
 10
114.366
 20
-43.8566
 30
0.000000
  70
    32
  0
VERTEX
  8
0
  5
800002FE
 10
114.633
 20
-43.9179
 30
0.000000
  70
    32
  0
VERTEX
  8
0
  5
800002FF
 10
114.902
 20
-43.9742
 30
0.000000
  70
    32
  0
VERTEX
  8
0
  5
80000300
 10
115.173
 20
-44.0255
 30
0.000000
  70
    32
  0
VERTEX
  8
0
  5
80000301
 10
115.446
 20
-44.0717
 30
0.000000
  70
    32
  0
VERTEX
  8
0
  5
80000302
 10
115.721
 20
-44.1127
 30
0.000000
  70
    32
  0
VERTEX
  8
0
  5
80000303
 10
115.998
 20
-44.1484
 30
0.000000
  70
    32
  0
VERTEX
  8
0
  5
80000304
 10
116.276
 20
-44.1788
 30
0.000000
  70
    32
  0
VERTEX
  8
0
  5
80000305
 10
116.556
 20
-44.2039
 30
0.000000
  70
    32
  0
VERTEX
  8
0
  5
80000306
 10
116.839
 20
-44.2235
 30
0.000000
  70
    32
  0
VERTEX
  8
0
  5
80000307
 10
117.123
 20
-44.2376
 30
0.000000
  70
    32
  0
VERTEX
  8
0
  5
80000308
 10
117.409
 20
-44.2461
 30
0.000000
  70
    32
  0
VERTEX
  8
0
  5
80000309
 10
117.697
 20
-44.2489
 30
0.000000
  70
    32
  0
SEQEND
  8
0
  5
8000030A
  0
ENDBLK
  5
FFBBDAE469BC1E21
  8
0
  0
BLOCK
  8
0
  2
*U23
 70
     1
 10
0.0
 20
0.0
 30
0.0
  3
*U23
  1

  0
TEXT
  5
FFBBDAE469BC1E23
  8
0
  6
CONTINUOUS
 10
119.43239403697299
 20
-42.325459631036708
 30
0.0
 40
4.0
  1
70 x 19mm CLD
  7
ARIAL
  0
TEXT
  5
FFBBDAE469BC1E24
  8
0
  6
CONTINUOUS
 10
159.7972663425665
 20
-39.82005963103672
 30
0.0
 40
3.0323999999999991
  1
®
  7
ARIAL
  0
TEXT
  5
FFBBDAE469BC1E25
  8
0
  6
CONTINUOUS
 10
159.80347179959239
 20
-40.830859631036716
 30
0.0
 40
3.0323999999999991
  1

  7
ARIAL
  0
TEXT
  5
FFBBDAE469BC1E26
  8
0
  6
CONTINUOUS
 10
163.12752827981069
 20
-42.325459631036708
 30
0.0
 40
4.0
  1
 Structural
  7
ARIAL
  0
TEXT
  5
FFBBDAE469BC1E27
  8
0
  6
CONTINUOUS
 10
119.4187514721708
 20
-49.028373091700651
 30
0.0
 40
4.0
  1
Cavity Batten
  7
ARIAL
  0
ENDBLK
  5
FFBBDAE469BC1E29
  8
0
  0
BLOCK
  8
0
  2
*U24
 70
     1
 10
0.0
 20
0.0
 30
0.0
  3
*U24
  1

  0
SOLID
  5
FFBBDAE469BC1E2B
  8
0
  6
CONTINUOUS
 10
63.976436364075902
 20
-12.88896885438314
 30
0.0
 11
60.5
 21
-14.0
 31
0.0
 12
63.428186459331201
 22
-11.82153171714862
 32
0.0
 13
63.428186459331201
 23
-11.82153171714862
 33
0.0
  0
POLYLINE
  8
0
  5
8000030B
  66
     1
 10
0.000000
 20
0.000000
 30
0.000000
  70
     8
  0
VERTEX
  8
0
  5
8000030C
 10
63.7023
 20
-12.3553
 30
0.000000
  70
    32
  0
VERTEX
  8
0
  5
8000030D
 10
64.1271
 20
-12.1352
 30
0.000000
  70
    32
  0
VERTEX
  8
0
  5
8000030E
 10
64.5510
 20
-11.9117
 30
0.000000
  70
    32
  0
VERTEX
  8
0
  5
8000030F
 10
64.9741
 20
-11.6850
 30
0.000000
  70
    32
  0
VERTEX
  8
0
  5
80000310
 10
65.3965
 20
-11.4551
 30
0.000000
  70
    32
  0
VERTEX
  8
0
  5
80000311
 10
65.8181
 20
-11.2221
 30
0.000000
  70
    32
  0
VERTEX
  8
0
  5
80000312
 10
66.2390
 20
-10.9861
 30
0.000000
  70
    32
  0
VERTEX
  8
0
  5
80000313
 10
66.6592
 20
-10.7471
 30
0.000000
  70
    32
  0
VERTEX
  8
0
  5
80000314
 10
67.0786
 20
-10.5052
 30
0.000000
  70
    32
  0
VERTEX
  8
0
  5
80000315
 10
67.4974
 20
-10.2606
 30
0.000000
  70
    32
  0
VERTEX
  8
0
  5
80000316
 10
67.9156
 20
-10.0132
 30
0.000000
  70
    32
  0
VERTEX
  8
0
  5
80000317
 10
68.3331
 20
-9.76320
 30
0.000000
  70
    32
  0
VERTEX
  8
0
  5
80000318
 10
68.7500
 20
-9.51066
 30
0.000000
  70
    32
  0
VERTEX
  8
0
  5
80000319
 10
69.1663
 20
-9.25566
 30
0.000000
  70
    32
  0
VERTEX
  8
0
  5
8000031A
 10
69.5820
 20
-8.99828
 30
0.000000
  70
    32
  0
VERTEX
  8
0
  5
8000031B
 10
69.9972
 20
-8.73859
 30
0.000000
  70
    32
  0
VERTEX
  8
0
  5
8000031C
 10
70.4118
 20
-8.47669
 30
0.000000
  70
    32
  0
VERTEX
  8
0
  5
8000031D
 10
70.8259
 20
-8.21264
 30
0.000000
  70
    32
  0
VERTEX
  8
0
  5
8000031E
 10
71.2395
 20
-7.94654
 30
0.000000
  70
    32
  0
VERTEX
  8
0
  5
8000031F
 10
71.6526
 20
-7.67846
 30
0.000000
  70
    32
  0
VERTEX
  8
0
  5
80000320
 10
72.0653
 20
-7.40848
 30
0.000000
  70
    32
  0
VERTEX
  8
0
  5
80000321
 10
72.4776
 20
-7.13669
 30
0.000000
  70
    32
  0
VERTEX
  8
0
  5
80000322
 10
72.8894
 20
-6.86317
 30
0.000000
  70
    32
  0
VERTEX
  8
0
  5
80000323
 10
73.3008
 20
-6.58800
 30
0.000000
  70
    32
  0
VERTEX
  8
0
  5
80000324
 10
73.7118
 20
-6.31125
 30
0.000000
  70
    32
  0
VERTEX
  8
0
  5
80000325
 10
74.1225
 20
-6.03302
 30
0.000000
  70
    32
  0
VERTEX
  8
0
  5
80000326
 10
74.5328
 20
-5.75338
 30
0.000000
  70
    32
  0
VERTEX
  8
0
  5
80000327
 10
74.9429
 20
-5.47241
 30
0.000000
  70
    32
  0
VERTEX
  8
0
  5
80000328
 10
75.3526
 20
-5.19020
 30
0.000000
  70
    32
  0
VERTEX
  8
0
  5
80000329
 10
75.7620
 20
-4.90682
 30
0.000000
  70
    32
  0
VERTEX
  8
0
  5
8000032A
 10
76.1712
 20
-4.62236
 30
0.000000
  70
    32
  0
VERTEX
  8
0
  5
8000032B
 10
76.5801
 20
-4.33689
 30
0.000000
  70
    32
  0
VERTEX
  8
0
  5
8000032C
 10
76.9888
 20
-4.05051
 30
0.000000
  70
    32
  0
VERTEX
  8
0
  5
8000032D
 10
77.3973
 20
-3.76329
 30
0.000000
  70
    32
  0
VERTEX
  8
0
  5
8000032E
 10
77.8057
 20
-3.47531
 30
0.000000
  70
    32
  0
VERTEX
  8
0
  5
8000032F
 10
78.2138
 20
-3.18665
 30
0.000000
  70
    32
  0
VERTEX
  8
0
  5
80000330
 10
78.6218
 20
-2.89739
 30
0.000000
  70
    32
  0
VERTEX
  8
0
  5
80000331
 10
79.0297
 20
-2.60762
 30
0.000000
  70
    32
  0
VERTEX
  8
0
  5
80000332
 10
79.4375
 20
-2.31742
 30
0.000000
  70
    32
  0
VERTEX
  8
0
  5
80000333
 10
79.8452
 20
-2.02687
 30
0.000000
  70
    32
  0
VERTEX
  8
0
  5
80000334
 10
80.2529
 20
-1.73604
 30
0.000000
  70
    32
  0
VERTEX
  8
0
  5
80000335
 10
80.6604
 20
-1.44503
 30
0.000000
  70
    32
  0
VERTEX
  8
0
  5
80000336
 10
81.0680
 20
-1.15391
 30
0.000000
  70
    32
  0
VERTEX
  8
0
  5
80000337
 10
81.4756
 20
-0.862758
 30
0.000000
  70
    32
  0
VERTEX
  8
0
  5
80000338
 10
81.8831
 20
-0.571663
 30
0.000000
  70
    32
  0
VERTEX
  8
0
  5
80000339
 10
82.2907
 20
-0.280703
 30
0.000000
  70
    32
  0
VERTEX
  8
0
  5
8000033A
 10
82.6984
 20
0.0100406
 30
0.000000
  70
    32
  0
VERTEX
  8
0
  5
8000033B
 10
83.1061
 20
0.300486
 30
0.000000
  70
    32
  0
VERTEX
  8
0
  5
8000033C
 10
83.5139
 20
0.590553
 30
0.000000
  70
    32
  0
VERTEX
  8
0
  5
8000033D
 10
83.9219
 20
0.880159
 30
0.000000
  70
    32
  0
VERTEX
  8
0
  5
8000033E
 10
84.3299
 20
1.16922
 30
0.000000
  70
    32
  0
VERTEX
  8
0
  5
8000033F
 10
84.7381
 20
1.45766
 30
0.000000
  70
    32
  0
VERTEX
  8
0
  5
80000340
 10
85.1465
 20
1.74540
 30
0.000000
  70
    32
  0
VERTEX
  8
0
  5
80000341
 10
85.5551
 20
2.03236
 30
0.000000
  70
    32
  0
VERTEX
  8
0
  5
80000342
 10
85.9639
 20
2.31844
 30
0.000000
  70
    32
  0
VERTEX
  8
0
  5
80000343
 10
86.3729
 20
2.60358
 30
0.000000
  70
    32
  0
VERTEX
  8
0
  5
80000344
 10
86.7821
 20
2.88769
 30
0.000000
  70
    32
  0
VERTEX
  8
0
  5
80000345
 10
87.1917
 20
3.17069
 30
0.000000
  70
    32
  0
VERTEX
  8
0
  5
80000346
 10
87.6015
 20
3.45250
 30
0.000000
  70
    32
  0
VERTEX
  8
0
  5
80000347
 10
88.0116
 20
3.73303
 30
0.000000
  70
    32
  0
VERTEX
  8
0
  5
80000348
 10
88.4221
 20
4.01221
 30
0.000000
  70
    32
  0
VERTEX
  8
0
  5
80000349
 10
88.8329
 20
4.28996
 30
0.000000
  70
    32
  0
VERTEX
  8
0
  5
8000034A
 10
89.2440
 20
4.56619
 30
0.000000
  70
    32
  0
VERTEX
  8
0
  5
8000034B
 10
89.6556
 20
4.84082
 30
0.000000
  70
    32
  0
VERTEX
  8
0
  5
8000034C
 10
90.0675
 20
5.11377
 30
0.000000
  70
    32
  0
VERTEX
  8
0
  5
8000034D
 10
90.4799
 20
5.38497
 30
0.000000
  70
    32
  0
VERTEX
  8
0
  5
8000034E
 10
90.8927
 20
5.65432
 30
0.000000
  70
    32
  0
VERTEX
  8
0
  5
8000034F
 10
91.3060
 20
5.92175
 30
0.000000
  70
    32
  0
VERTEX
  8
0
  5
80000350
 10
91.7198
 20
6.18718
 30
0.000000
  70
    32
  0
VERTEX
  8
0
  5
80000351
 10
92.1341
 20
6.45052
 30
0.000000
  70
    32
  0
VERTEX
  8
0
  5
80000352
 10
92.5489
 20
6.71169
 30
0.000000
  70
    32
  0
VERTEX
  8
0
  5
80000353
 10
92.9642
 20
6.97062
 30
0.000000
  70
    32
  0
VERTEX
  8
0
  5
80000354
 10
93.3802
 20
7.22722
 30
0.000000
  70
    32
  0
VERTEX
  8
0
  5
80000355
 10
93.7966
 20
7.48141
 30
0.000000
  70
    32
  0
VERTEX
  8
0
  5
80000356
 10
94.2137
 20
7.73310
 30
0.000000
  70
    32
  0
VERTEX
  8
0
  5
80000357
 10
94.6315
 20
7.98223
 30
0.000000
  70
    32
  0
VERTEX
  8
0
  5
80000358
 10
95.0498
 20
8.22870
 30
0.000000
  70
    32
  0
VERTEX
  8
0
  5
80000359
 10
95.4688
 20
8.47244
 30
0.000000
  70
    32
  0
VERTEX
  8
0
  5
8000035A
 10
95.8885
 20
8.71336
 30
0.000000
  70
    32
  0
VERTEX
  8
0
  5
8000035B
 10
96.3089
 20
8.95138
 30
0.000000
  70
    32
  0
VERTEX
  8
0
  5
8000035C
 10
96.7301
 20
9.18643
 30
0.000000
  70
    32
  0
VERTEX
  8
0
  5
8000035D
 10
97.1519
 20
9.41841
 30
0.000000
  70
    32
  0
VERTEX
  8
0
  5
8000035E
 10
97.5745
 20
9.64726
 30
0.000000
  70
    32
  0
VERTEX
  8
0
  5
8000035F
 10
97.9980
 20
9.87288
 30
0.000000
  70
    32
  0
VERTEX
  8
0
  5
80000360
 10
98.4221
 20
10.0952
 30
0.000000
  70
    32
  0
VERTEX
  8
0
  5
80000361
 10
98.8472
 20
10.3141
 30
0.000000
  70
    32
  0
VERTEX
  8
0
  5
80000362
 10
99.2730
 20
10.5296
 30
0.000000
  70
    32
  0
VERTEX
  8
0
  5
80000363
 10
99.6997
 20
10.7415
 30
0.000000
  70
    32
  0
VERTEX
  8
0
  5
80000364
 10
100.127
 20
10.9498
 30
0.000000
  70
    32
  0
VERTEX
  8
0
  5
80000365
 10
100.556
 20
11.1544
 30
0.000000
  70
    32
  0
VERTEX
  8
0
  5
80000366
 10
100.985
 20
11.3552
 30
0.000000
  70
    32
  0
VERTEX
  8
0
  5
80000367
 10
101.416
 20
11.5521
 30
0.000000
  70
    32
  0
VERTEX
  8
0
  5
80000368
 10
101.847
 20
11.7451
 30
0.000000
  70
    32
  0
VERTEX
  8
0
  5
80000369
 10
102.279
 20
11.9340
 30
0.000000
  70
    32
  0
VERTEX
  8
0
  5
8000036A
 10
102.712
 20
12.1188
 30
0.000000
  70
    32
  0
VERTEX
  8
0
  5
8000036B
 10
103.147
 20
12.2994
 30
0.000000
  70
    32
  0
VERTEX
  8
0
  5
8000036C
 10
103.582
 20
12.4758
 30
0.000000
  70
    32
  0
VERTEX
  8
0
  5
8000036D
 10
104.018
 20
12.6478
 30
0.000000
  70
    32
  0
VERTEX
  8
0
  5
8000036E
 10
104.456
 20
12.8153
 30
0.000000
  70
    32
  0
VERTEX
  8
0
  5
8000036F
 10
104.894
 20
12.9783
 30
0.000000
  70
    32
  0
VERTEX
  8
0
  5
80000370
 10
105.334
 20
13.1367
 30
0.000000
  70
    32
  0
VERTEX
  8
0
  5
80000371
 10
105.775
 20
13.2905
 30
0.000000
  70
    32
  0
VERTEX
  8
0
  5
80000372
 10
106.217
 20
13.4394
 30
0.000000
  70
    32
  0
VERTEX
  8
0
  5
80000373
 10
106.660
 20
13.5836
 30
0.000000
  70
    32
  0
VERTEX
  8
0
  5
80000374
 10
107.104
 20
13.7228
 30
0.000000
  70
    32
  0
VERTEX
  8
0
  5
80000375
 10
107.550
 20
13.8569
 30
0.000000
  70
    32
  0
VERTEX
  8
0
  5
80000376
 10
107.996
 20
13.9860
 30
0.000000
  70
    32
  0
VERTEX
  8
0
  5
80000377
 10
108.444
 20
14.1099
 30
0.000000
  70
    32
  0
VERTEX
  8
0
  5
80000378
 10
108.894
 20
14.2286
 30
0.000000
  70
    32
  0
VERTEX
  8
0
  5
80000379
 10
109.344
 20
14.3419
 30
0.000000
  70
    32
  0
VERTEX
  8
0
  5
8000037A
 10
109.796
 20
14.4499
 30
0.000000
  70
    32
  0
VERTEX
  8
0
  5
8000037B
 10
110.249
 20
14.5523
 30
0.000000
  70
    32
  0
VERTEX
  8
0
  5
8000037C
 10
110.704
 20
14.6491
 30
0.000000
  70
    32
  0
VERTEX
  8
0
  5
8000037D
 10
111.160
 20
14.7403
 30
0.000000
  70
    32
  0
VERTEX
  8
0
  5
8000037E
 10
111.617
 20
14.8258
 30
0.000000
  70
    32
  0
VERTEX
  8
0
  5
8000037F
 10
112.076
 20
14.9054
 30
0.000000
  70
    32
  0
VERTEX
  8
0
  5
80000380
 10
112.536
 20
14.9791
 30
0.000000
  70
    32
  0
VERTEX
  8
0
  5
80000381
 10
112.997
 20
15.0468
 30
0.000000
  70
    32
  0
VERTEX
  8
0
  5
80000382
 10
113.460
 20
15.1085
 30
0.000000
  70
    32
  0
VERTEX
  8
0
  5
80000383
 10
113.925
 20
15.1640
 30
0.000000
  70
    32
  0
VERTEX
  8
0
  5
80000384
 10
114.391
 20
15.2133
 30
0.000000
  70
    32
  0
VERTEX
  8
0
  5
80000385
 10
114.859
 20
15.2563
 30
0.000000
  70
    32
  0
VERTEX
  8
0
  5
80000386
 10
115.328
 20
15.2929
 30
0.000000
  70
    32
  0
VERTEX
  8
0
  5
80000387
 10
115.798
 20
15.3230
 30
0.000000
  70
    32
  0
VERTEX
  8
0
  5
80000388
 10
116.271
 20
15.3466
 30
0.000000
  70
    32
  0
VERTEX
  8
0
  5
80000389
 10
116.744
 20
15.3635
 30
0.000000
  70
    32
  0
VERTEX
  8
0
  5
8000038A
 10
117.220
 20
15.3737
 30
0.000000
  70
    32
  0
VERTEX
  8
0
  5
8000038B
 10
117.697
 20
15.3772
 30
0.000000
  70
    32
  0
SEQEND
  8
0
  5
8000038C
  0
ENDBLK
  5
FFBBDAE469BC1E2E
  8
0
  0
BLOCK
  8
0
  2
*U25
 70
     1
 10
0.0
 20
0.0
 30
0.0
  3
*U25
  1

  0
TEXT
  5
FFBBDAE469BC1E30
  8
0
  6
CONTINUOUS
 10
119.4187514721708
 20
16.70913939439896
 30
0.0
 40
4.0
  1
C - 25mm 'T' head stainless
  7
ARIAL
  0
TEXT
  5
FFBBDAE469BC1E31
  8
0
  6
CONTINUOUS
 10
119.5251634776279
 20
10.04247272773229
 30
0.0
 40
4.0
  1
steel brad nail
  7
ARIAL
  0
ENDBLK
  5
FFBBDAE469BC1E33
  8
0
  0
BLOCK
  8
0
  2
*U26
 70
     1
 10
0.0
 20
0.0
 30
0.0
  3
*U26
  1

  0
SOLID
  5
FFBBDAE469BC1E35
  8
0
  6
CONTINUOUS
 10
58.840752613134129
 20
36.569929726952601
 30
0.0
 11
55.400000000000553
 21
35.352875309428732
 31
0.0
 12
58.260045633767817
 22
37.620062768102741
 32
0.0
 13
58.260045633767817
 23
37.620062768102741
 33
0.0
  0
POLYLINE
  8
0
  5
8000038D
  66
     1
 10
0.000000
 20
0.000000
 30
0.000000
  70
     8
  0
VERTEX
  8
0
  5
8000038E
 10
58.5504
 20
37.0950
 30
0.000000
  70
    32
  0
VERTEX
  8
0
  5
8000038F
 10
59.0156
 20
37.3545
 30
0.000000
  70
    32
  0
VERTEX
  8
0
  5
80000390
 10
59.4798
 20
37.6181
 30
0.000000
  70
    32
  0
VERTEX
  8
0
  5
80000391
 10
59.9430
 20
37.8854
 30
0.000000
  70
    32
  0
VERTEX
  8
0
  5
80000392
 10
60.4052
 20
38.1566
 30
0.000000
  70
    32
  0
VERTEX
  8
0
  5
80000393
 10
60.8664
 20
38.4314
 30
0.000000
  70
    32
  0
VERTEX
  8
0
  5
80000394
 10
61.3268
 20
38.7098
 30
0.000000
  70
    32
  0
VERTEX
  8
0
  5
80000395
 10
61.7862
 20
38.9916
 30
0.000000
  70
    32
  0
VERTEX
  8
0
  5
80000396
 10
62.2448
 20
39.2769
 30
0.000000
  70
    32
  0
VERTEX
  8
0
  5
80000397
 10
62.7025
 20
39.5654
 30
0.000000
  70
    32
  0
VERTEX
  8
0
  5
80000398
 10
63.1594
 20
39.8572
 30
0.000000
  70
    32
  0
VERTEX
  8
0
  5
80000399
 10
63.6155
 20
40.1520
 30
0.000000
  70
    32
  0
VERTEX
  8
0
  5
8000039A
 10
64.0708
 20
40.4499
 30
0.000000
  70
    32
  0
VERTEX
  8
0
  5
8000039B
 10
64.5254
 20
40.7506
 30
0.000000
  70
    32
  0
VERTEX
  8
0
  5
8000039C
 10
64.9792
 20
41.0542
 30
0.000000
  70
    32
  0
VERTEX
  8
0
  5
8000039D
 10
65.4324
 20
41.3604
 30
0.000000
  70
    32
  0
VERTEX
  8
0
  5
8000039E
 10
65.8849
 20
41.6693
 30
0.000000
  70
    32
  0
VERTEX
  8
0
  5
8000039F
 10
66.3367
 20
41.9807
 30
0.000000
  70
    32
  0
VERTEX
  8
0
  5
800003A0
 10
66.7879
 20
42.2946
 30
0.000000
  70
    32
  0
VERTEX
  8
0
  5
800003A1
 10
67.2385
 20
42.6107
 30
0.000000
  70
    32
  0
VERTEX
  8
0
  5
800003A2
 10
67.6885
 20
42.9291
 30
0.000000
  70
    32
  0
VERTEX
  8
0
  5
800003A3
 10
68.1379
 20
43.2497
 30
0.000000
  70
    32
  0
VERTEX
  8
0
  5
800003A4
 10
68.5869
 20
43.5723
 30
0.000000
  70
    32
  0
VERTEX
  8
0
  5
800003A5
 10
69.0353
 20
43.8968
 30
0.000000
  70
    32
  0
VERTEX
  8
0
  5
800003A6
 10
69.4832
 20
44.2232
 30
0.000000
  70
    32
  0
VERTEX
  8
0
  5
800003A7
 10
69.9307
 20
44.5513
 30
0.000000
  70
    32
  0
VERTEX
  8
0
  5
800003A8
 10
70.3778
 20
44.8811
 30
0.000000
  70
    32
  0
VERTEX
  8
0
  5
800003A9
 10
70.8245
 20
45.2125
 30
0.000000
  70
    32
  0
VERTEX
  8
0
  5
800003AA
 10
71.2708
 20
45.5453
 30
0.000000
  70
    32
  0
VERTEX
  8
0
  5
800003AB
 10
71.7167
 20
45.8796
 30
0.000000
  70
    32
  0
VERTEX
  8
0
  5
800003AC
 10
72.1623
 20
46.2150
 30
0.000000
  70
    32
  0
VERTEX
  8
0
  5
800003AD
 10
72.6076
 20
46.5517
 30
0.000000
  70
    32
  0
VERTEX
  8
0
  5
800003AE
 10
73.0526
 20
46.8895
 30
0.000000
  70
    32
  0
VERTEX
  8
0
  5
800003AF
 10
73.4974
 20
47.2282
 30
0.000000
  70
    32
  0
VERTEX
  8
0
  5
800003B0
 10
73.9419
 20
47.5679
 30
0.000000
  70
    32
  0
VERTEX
  8
0
  5
800003B1
 10
74.3862
 20
47.9083
 30
0.000000
  70
    32
  0
VERTEX
  8
0
  5
800003B2
 10
74.8304
 20
48.2494
 30
0.000000
  70
    32
  0
VERTEX
  8
0
  5
800003B3
 10
75.2744
 20
48.5912
 30
0.000000
  70
    32
  0
VERTEX
  8
0
  5
800003B4
 10
75.7182
 20
48.9334
 30
0.000000
  70
    32
  0
VERTEX
  8
0
  5
800003B5
 10
76.1620
 20
49.2761
 30
0.000000
  70
    32
  0
VERTEX
  8
0
  5
800003B6
 10
76.6057
 20
49.6191
 30
0.000000
  70
    32
  0
VERTEX
  8
0
  5
800003B7
 10
77.0493
 20
49.9623
 30
0.000000
  70
    32
  0
VERTEX
  8
0
  5
800003B8
 10
77.4928
 20
50.3057
 30
0.000000
  70
    32
  0
VERTEX
  8
0
  5
800003B9
 10
77.9364
 20
50.6491
 30
0.000000
  70
    32
  0
VERTEX
  8
0
  5
800003BA
 10
78.3800
 20
50.9924
 30
0.000000
  70
    32
  0
VERTEX
  8
0
  5
800003BB
 10
78.8236
 20
51.3355
 30
0.000000
  70
    32
  0
VERTEX
  8
0
  5
800003BC
 10
79.2673
 20
51.6784
 30
0.000000
  70
    32
  0
VERTEX
  8
0
  5
800003BD
 10
79.7111
 20
52.0210
 30
0.000000
  70
    32
  0
VERTEX
  8
0
  5
800003BE
 10
80.1550
 20
52.3631
 30
0.000000
  70
    32
  0
VERTEX
  8
0
  5
800003BF
 10
80.5990
 20
52.7046
 30
0.000000
  70
    32
  0
VERTEX
  8
0
  5
800003C0
 10
81.0432
 20
53.0455
 30
0.000000
  70
    32
  0
VERTEX
  8
0
  5
800003C1
 10
81.4876
 20
53.3857
 30
0.000000
  70
    32
  0
VERTEX
  8
0
  5
800003C2
 10
81.9322
 20
53.7251
 30
0.000000
  70
    32
  0
VERTEX
  8
0
  5
800003C3
 10
82.3771
 20
54.0635
 30
0.000000
  70
    32
  0
VERTEX
  8
0
  5
800003C4
 10
82.8222
 20
54.4009
 30
0.000000
  70
    32
  0
VERTEX
  8
0
  5
800003C5
 10
83.2676
 20
54.7372
 30
0.000000
  70
    32
  0
VERTEX
  8
0
  5
800003C6
 10
83.7133
 20
55.0723
 30
0.000000
  70
    32
  0
VERTEX
  8
0
  5
800003C7
 10
84.1593
 20
55.4060
 30
0.000000
  70
    32
  0
VERTEX
  8
0
  5
800003C8
 10
84.6058
 20
55.7384
 30
0.000000
  70
    32
  0
VERTEX
  8
0
  5
800003C9
 10
85.0526
 20
56.0693
 30
0.000000
  70
    32
  0
VERTEX
  8
0
  5
800003CA
 10
85.4998
 20
56.3985
 30
0.000000
  70
    32
  0
VERTEX
  8
0
  5
800003CB
 10
85.9474
 20
56.7261
 30
0.000000
  70
    32
  0
VERTEX
  8
0
  5
800003CC
 10
86.3955
 20
57.0519
 30
0.000000
  70
    32
  0
VERTEX
  8
0
  5
800003CD
 10
86.8441
 20
57.3758
 30
0.000000
  70
    32
  0
VERTEX
  8
0
  5
800003CE
 10
87.2932
 20
57.6977
 30
0.000000
  70
    32
  0
VERTEX
  8
0
  5
800003CF
 10
87.7429
 20
58.0175
 30
0.000000
  70
    32
  0
VERTEX
  8
0
  5
800003D0
 10
88.1931
 20
58.3352
 30
0.000000
  70
    32
  0
VERTEX
  8
0
  5
800003D1
 10
88.6439
 20
58.6506
 30
0.000000
  70
    32
  0
VERTEX
  8
0
  5
800003D2
 10
89.0953
 20
58.9636
 30
0.000000
  70
    32
  0
VERTEX
  8
0
  5
800003D3
 10
89.5473
 20
59.2742
 30
0.000000
  70
    32
  0
VERTEX
  8
0
  5
800003D4
 10
90.0000
 20
59.5822
 30
0.000000
  70
    32
  0
VERTEX
  8
0
  5
800003D5
 10
90.4534
 20
59.8876
 30
0.000000
  70
    32
  0
VERTEX
  8
0
  5
800003D6
 10
90.9074
 20
60.1902
 30
0.000000
  70
    32
  0
VERTEX
  8
0
  5
800003D7
 10
91.3623
 20
60.4900
 30
0.000000
  70
    32
  0
VERTEX
  8
0
  5
800003D8
 10
91.8178
 20
60.7869
 30
0.000000
  70
    32
  0
VERTEX
  8
0
  5
800003D9
 10
92.2742
 20
61.0807
 30
0.000000
  70
    32
  0
VERTEX
  8
0
  5
800003DA
 10
92.7314
 20
61.3714
 30
0.000000
  70
    32
  0
VERTEX
  8
0
  5
800003DB
 10
93.1894
 20
61.6588
 30
0.000000
  70
    32
  0
VERTEX
  8
0
  5
800003DC
 10
93.6482
 20
61.9430
 30
0.000000
  70
    32
  0
VERTEX
  8
0
  5
800003DD
 10
94.1080
 20
62.2237
 30
0.000000
  70
    32
  0
VERTEX
  8
0
  5
800003DE
 10
94.5686
 20
62.5009
 30
0.000000
  70
    32
  0
VERTEX
  8
0
  5
800003DF
 10
95.0302
 20
62.7745
 30
0.000000
  70
    32
  0
VERTEX
  8
0
  5
800003E0
 10
95.4927
 20
63.0444
 30
0.000000
  70
    32
  0
VERTEX
  8
0
  5
800003E1
 10
95.9562
 20
63.3105
 30
0.000000
  70
    32
  0
VERTEX
  8
0
  5
800003E2
 10
96.4207
 20
63.5727
 30
0.000000
  70
    32
  0
VERTEX
  8
0
  5
800003E3
 10
96.8863
 20
63.8309
 30
0.000000
  70
    32
  0
VERTEX
  8
0
  5
800003E4
 10
97.3529
 20
64.0850
 30
0.000000
  70
    32
  0
VERTEX
  8
0
  5
800003E5
 10
97.8206
 20
64.3350
 30
0.000000
  70
    32
  0
VERTEX
  8
0
  5
800003E6
 10
98.2894
 20
64.5806
 30
0.000000
  70
    32
  0
VERTEX
  8
0
  5
800003E7
 10
98.7593
 20
64.8219
 30
0.000000
  70
    32
  0
VERTEX
  8
0
  5
800003E8
 10
99.2304
 20
65.0587
 30
0.000000
  70
    32
  0
VERTEX
  8
0
  5
800003E9
 10
99.7026
 20
65.2910
 30
0.000000
  70
    32
  0
VERTEX
  8
0
  5
800003EA
 10
100.176
 20
65.5185
 30
0.000000
  70
    32
  0
VERTEX
  8
0
  5
800003EB
 10
100.651
 20
65.7414
 30
0.000000
  70
    32
  0
VERTEX
  8
0
  5
800003EC
 10
101.127
 20
65.9593
 30
0.000000
  70
    32
  0
VERTEX
  8
0
  5
800003ED
 10
101.604
 20
66.1723
 30
0.000000
  70
    32
  0
VERTEX
  8
0
  5
800003EE
 10
102.082
 20
66.3803
 30
0.000000
  70
    32
  0
VERTEX
  8
0
  5
800003EF
 10
102.562
 20
66.5832
 30
0.000000
  70
    32
  0
VERTEX
  8
0
  5
800003F0
 10
103.043
 20
66.7808
 30
0.000000
  70
    32
  0
VERTEX
  8
0
  5
800003F1
 10
103.526
 20
66.9730
 30
0.000000
  70
    32
  0
VERTEX
  8
0
  5
800003F2
 10
104.010
 20
67.1598
 30
0.000000
  70
    32
  0
VERTEX
  8
0
  5
800003F3
 10
104.495
 20
67.3412
 30
0.000000
  70
    32
  0
VERTEX
  8
0
  5
800003F4
 10
104.982
 20
67.5168
 30
0.000000
  70
    32
  0
VERTEX
  8
0
  5
800003F5
 10
105.471
 20
67.6868
 30
0.000000
  70
    32
  0
VERTEX
  8
0
  5
800003F6
 10
105.960
 20
67.8510
 30
0.000000
  70
    32
  0
VERTEX
  8
0
  5
800003F7
 10
106.452
 20
68.0092
 30
0.000000
  70
    32
  0
VERTEX
  8
0
  5
800003F8
 10
106.945
 20
68.1615
 30
0.000000
  70
    32
  0
VERTEX
  8
0
  5
800003F9
 10
107.439
 20
68.3076
 30
0.000000
  70
    32
  0
VERTEX
  8
0
  5
800003FA
 10
107.935
 20
68.4476
 30
0.000000
  70
    32
  0
VERTEX
  8
0
  5
800003FB
 10
108.433
 20
68.5812
 30
0.000000
  70
    32
  0
VERTEX
  8
0
  5
800003FC
 10
108.932
 20
68.7085
 30
0.000000
  70
    32
  0
VERTEX
  8
0
  5
800003FD
 10
109.433
 20
68.8293
 30
0.000000
  70
    32
  0
VERTEX
  8
0
  5
800003FE
 10
109.936
 20
68.9435
 30
0.000000
  70
    32
  0
VERTEX
  8
0
  5
800003FF
 10
110.440
 20
69.0511
 30
0.000000
  70
    32
  0
VERTEX
  8
0
  5
80000400
 10
110.946
 20
69.1518
 30
0.000000
  70
    32
  0
VERTEX
  8
0
  5
80000401
 10
111.454
 20
69.2457
 30
0.000000
  70
    32
  0
VERTEX
  8
0
  5
80000402
 10
111.964
 20
69.3327
 30
0.000000
  70
    32
  0
VERTEX
  8
0
  5
80000403
 10
112.476
 20
69.4126
 30
0.000000
  70
    32
  0
VERTEX
  8
0
  5
80000404
 10
112.989
 20
69.4853
 30
0.000000
  70
    32
  0
VERTEX
  8
0
  5
80000405
 10
113.504
 20
69.5508
 30
0.000000
  70
    32
  0
VERTEX
  8
0
  5
80000406
 10
114.022
 20
69.6089
 30
0.000000
  70
    32
  0
VERTEX
  8
0
  5
80000407
 10
114.541
 20
69.6596
 30
0.000000
  70
    32
  0
VERTEX
  8
0
  5
80000408
 10
115.062
 20
69.7028
 30
0.000000
  70
    32
  0
VERTEX
  8
0
  5
80000409
 10
115.585
 20
69.7383
 30
0.000000
  70
    32
  0
VERTEX
  8
0
  5
8000040A
 10
116.110
 20
69.7661
 30
0.000000
  70
    32
  0
VERTEX
  8
0
  5
8000040B
 10
116.637
 20
69.7861
 30
0.000000
  70
    32
  0
VERTEX
  8
0
  5
8000040C
 10
117.166
 20
69.7981
 30
0.000000
  70
    32
  0
VERTEX
  8
0
  5
8000040D
 10
117.697
 20
69.8022
 30
0.000000
  70
    32
  0
SEQEND
  8
0
  5
8000040E
  0
ENDBLK
  5
FFBBDAE469BC1E38
  8
0
  0
BLOCK
  8
0
  2
*U27
 70
     1
 10
0.0
 20
0.0
 30
0.0
  3
*U27
  1

  0
TEXT
  5
FFBBDAE469BC1E3A
  8
0
  6
CONTINUOUS
 10
119.4869642961817
 20
71.74941381440695
 30
0.0
 40
4.0
  1
65 x 2.8mm RounDrive ring
  7
ARIAL
  0
TEXT
  5
FFBBDAE469BC1E3B
  8
0
  6
CONTINUOUS
 10
119.5251634776279
 20
65.014534323729364
 30
0.0
 40
4.0
  1
shank nails for batten fixing
  7
ARIAL
  0
ENDBLK
  5
FFBBDAE469BC1E3D
  8
0
  0
BLOCK
  8
0
  2
*U28
 70
     1
 10
0.0
 20
0.0
 30
0.0
  3
*U28
  1

  0
SOLID
  5
FFBBDAE469BC1E3F
  8
0
  6
CONTINUOUS
 10
15.4567958125921
 20
-79.497837304541875
 30
0.0
 11
17.665476550330819
 21
-76.592371868722353
 31
0.0
 12
16.518497074897819
 22
-80.057114006737166
 32
0.0
 13
16.518497074897819
 23
-80.057114006737166
 33
0.0
  0
POLYLINE
  8
0
  5
8000040F
  66
     1
 10
0.000000
 20
0.000000
 30
0.000000
  70
     8
  0
VERTEX
  8
0
  5
80000410
 10
15.9876
 20
-79.7775
 30
0.000000
  70
    32
  0
VERTEX
  8
0
  5
80000411
 10
15.5640
 20
-80.5953
 30
0.000000
  70
    32
  0
VERTEX
  8
0
  5
80000412
 10
15.1479
 20
-81.4257
 30
0.000000
  70
    32
  0
VERTEX
  8
0
  5
80000413
 10
14.7391
 20
-82.2682
 30
0.000000
  70
    32
  0
VERTEX
  8
0
  5
80000414
 10
14.3375
 20
-83.1226
 30
0.000000
  70
    32
  0
VERTEX
  8
0
  5
80000415
 10
13.9428
 20
-83.9885
 30
0.000000
  70
    32
  0
VERTEX
  8
0
  5
80000416
 10
13.5550
 20
-84.8657
 30
0.000000
  70
    32
  0
VERTEX
  8
0
  5
80000417
 10
13.1738
 20
-85.7539
 30
0.000000
  70
    32
  0
VERTEX
  8
0
  5
80000418
 10
12.7990
 20
-86.6528
 30
0.000000
  70
    32
  0
VERTEX
  8
0
  5
80000419
 10
12.4305
 20
-87.5620
 30
0.000000
  70
    32
  0
VERTEX
  8
0
  5
8000041A
 10
12.0681
 20
-88.4813
 30
0.000000
  70
    32
  0
VERTEX
  8
0
  5
8000041B
 10
11.7115
 20
-89.4103
 30
0.000000
  70
    32
  0
VERTEX
  8
0
  5
8000041C
 10
11.3607
 20
-90.3489
 30
0.000000
  70
    32
  0
VERTEX
  8
0
  5
8000041D
 10
11.0153
 20
-91.2965
 30
0.000000
  70
    32
  0
VERTEX
  8
0
  5
8000041E
 10
10.6754
 20
-92.2530
 30
0.000000
  70
    32
  0
VERTEX
  8
0
  5
8000041F
 10
10.3405
 20
-93.2181
 30
0.000000
  70
    32
  0
VERTEX
  8
0
  5
80000420
 10
10.0107
 20
-94.1914
 30
0.000000
  70
    32
  0
VERTEX
  8
0
  5
80000421
 10
9.68567
 20
-95.1727
 30
0.000000
  70
    32
  0
VERTEX
  8
0
  5
80000422
 10
9.36525
 20
-96.1616
 30
0.000000
  70
    32
  0
VERTEX
  8
0
  5
80000423
 10
9.04926
 20
-97.1579
 30
0.000000
  70
    32
  0
VERTEX
  8
0
  5
80000424
 10
8.73752
 20
-98.1612
 30
0.000000
  70
    32
  0
VERTEX
  8
0
  5
80000425
 10
8.42985
 20
-99.1713
 30
0.000000
  70
    32
  0
VERTEX
  8
0
  5
80000426
 10
8.12607
 20
-100.188
 30
0.000000
  70
    32
  0
VERTEX
  8
0
  5
80000427
 10
7.82599
 20
-101.210
 30
0.000000
  70
    32
  0
VERTEX
  8
0
  5
80000428
 10
7.52944
 20
-102.239
 30
0.000000
  70
    32
  0
VERTEX
  8
0
  5
80000429
 10
7.23622
 20
-103.273
 30
0.000000
  70
    32
  0
VERTEX
  8
0
  5
8000042A
 10
6.94616
 20
-104.312
 30
0.000000
  70
    32
  0
VERTEX
  8
0
  5
8000042B
 10
6.65908
 20
-105.356
 30
0.000000
  70
    32
  0
VERTEX
  8
0
  5
8000042C
 10
6.37479
 20
-106.405
 30
0.000000
  70
    32
  0
VERTEX
  8
0
  5
8000042D
 10
6.09311
 20
-107.458
 30
0.000000
  70
    32
  0
VERTEX
  8
0
  5
8000042E
 10
5.81386
 20
-108.515
 30
0.000000
  70
    32
  0
VERTEX
  8
0
  5
8000042F
 10
5.53686
 20
-109.576
 30
0.000000
  70
    32
  0
VERTEX
  8
0
  5
80000430
 10
5.26193
 20
-110.640
 30
0.000000
  70
    32
  0
VERTEX
  8
0
  5
80000431
 10
4.98887
 20
-111.708
 30
0.000000
  70
    32
  0
VERTEX
  8
0
  5
80000432
 10
4.71752
 20
-112.778
 30
0.000000
  70
    32
  0
VERTEX
  8
0
  5
80000433
 10
4.44768
 20
-113.851
 30
0.000000
  70
    32
  0
VERTEX
  8
0
  5
80000434
 10
4.17918
 20
-114.926
 30
0.000000
  70
    32
  0
VERTEX
  8
0
  5
80000435
 10
3.91184
 20
-116.003
 30
0.000000
  70
    32
  0
VERTEX
  8
0
  5
80000436
 10
3.64546
 20
-117.081
 30
0.000000
  70
    32
  0
VERTEX
  8
0
  5
80000437
 10
3.37988
 20
-118.161
 30
0.000000
  70
    32
  0
VERTEX
  8
0
  5
80000438
 10
3.11490
 20
-119.242
 30
0.000000
  70
    32
  0
VERTEX
  8
0
  5
80000439
 10
2.85035
 20
-120.323
 30
0.000000
  70
    32
  0
VERTEX
  8
0
  5
8000043A
 10
2.58604
 20
-121.405
 30
0.000000
  70
    32
  0
VERTEX
  8
0
  5
8000043B
 10
2.32179
 20
-122.487
 30
0.000000
  70
    32
  0
VERTEX
  8
0
  5
8000043C
 10
2.05742
 20
-123.569
 30
0.000000
  70
    32
  0
VERTEX
  8
0
  5
8000043D
 10
1.79275
 20
-124.650
 30
0.000000
  70
    32
  0
VERTEX
  8
0
  5
8000043E
 10
1.52759
 20
-125.731
 30
0.000000
  70
    32
  0
VERTEX
  8
0
  5
8000043F
 10
1.26176
 20
-126.810
 30
0.000000
  70
    32
  0
VERTEX
  8
0
  5
80000440
 10
0.995080
 20
-127.888
 30
0.000000
  70
    32
  0
VERTEX
  8
0
  5
80000441
 10
0.727370
 20
-128.964
 30
0.000000
  70
    32
  0
VERTEX
  8
0
  5
80000442
 10
0.458445
 20
-130.039
 30
0.000000
  70
    32
  0
VERTEX
  8
0
  5
80000443
 10
0.188124
 20
-131.111
 30
0.000000
  70
    32
  0
VERTEX
  8
0
  5
80000444
 10
-0.0837768
 20
-132.180
 30
0.000000
  70
    32
  0
VERTEX
  8
0
  5
80000445
 10
-0.357438
 20
-133.246
 30
0.000000
  70
    32
  0
VERTEX
  8
0
  5
80000446
 10
-0.633043
 20
-134.310
 30
0.000000
  70
    32
  0
VERTEX
  8
0
  5
80000447
 10
-0.910774
 20
-135.369
 30
0.000000
  70
    32
  0
VERTEX
  8
0
  5
80000448
 10
-1.19081
 20
-136.425
 30
0.000000
  70
    32
  0
VERTEX
  8
0
  5
80000449
 10
-1.47334
 20
-137.477
 30
0.000000
  70
    32
  0
VERTEX
  8
0
  5
8000044A
 10
-1.75854
 20
-138.524
 30
0.000000
  70
    32
  0
VERTEX
  8
0
  5
8000044B
 10
-2.04659
 20
-139.567
 30
0.000000
  70
    32
  0
VERTEX
  8
0
  5
8000044C
 10
-2.33768
 20
-140.604
 30
0.000000
  70
    32
  0
VERTEX
  8
0
  5
8000044D
 10
-2.63199
 20
-141.636
 30
0.000000
  70
    32
  0
VERTEX
  8
0
  5
8000044E
 10
-2.92970
 20
-142.663
 30
0.000000
  70
    32
  0
VERTEX
  8
0
  5
8000044F
 10
-3.23099
 20
-143.683
 30
0.000000
  70
    32
  0
VERTEX
  8
0
  5
80000450
 10
-3.53605
 20
-144.698
 30
0.000000
  70
    32
  0
VERTEX
  8
0
  5
80000451
 10
-3.84506
 20
-145.706
 30
0.000000
  70
    32
  0
VERTEX
  8
0
  5
80000452
 10
-4.15819
 20
-146.707
 30
0.000000
  70
    32
  0
VERTEX
  8
0
  5
80000453
 10
-4.47564
 20
-147.701
 30
0.000000
  70
    32
  0
VERTEX
  8
0
  5
80000454
 10
-4.79758
 20
-148.687
 30
0.000000
  70
    32
  0
VERTEX
  8
0
  5
80000455
 10
-5.12419
 20
-149.666
 30
0.000000
  70
    32
  0
VERTEX
  8
0
  5
80000456
 10
-5.45567
 20
-150.636
 30
0.000000
  70
    32
  0
VERTEX
  8
0
  5
80000457
 10
-5.79218
 20
-151.598
 30
0.000000
  70
    32
  0
VERTEX
  8
0
  5
80000458
 10
-6.13392
 20
-152.552
 30
0.000000
  70
    32
  0
VERTEX
  8
0
  5
80000459
 10
-6.48106
 20
-153.497
 30
0.000000
  70
    32
  0
VERTEX
  8
0
  5
8000045A
 10
-6.83379
 20
-154.432
 30
0.000000
  70
    32
  0
VERTEX
  8
0
  5
8000045B
 10
-7.19229
 20
-155.358
 30
0.000000
  70
    32
  0
VERTEX
  8
0
  5
8000045C
 10
-7.55674
 20
-156.274
 30
0.000000
  70
    32
  0
VERTEX
  8
0
  5
8000045D
 10
-7.92732
 20
-157.180
 30
0.000000
  70
    32
  0
VERTEX
  8
0
  5
8000045E
 10
-8.30422
 20
-158.075
 30
0.000000
  70
    32
  0
VERTEX
  8
0
  5
8000045F
 10
-8.68762
 20
-158.960
 30
0.000000
  70
    32
  0
VERTEX
  8
0
  5
80000460
 10
-9.07770
 20
-159.833
 30
0.000000
  70
    32
  0
VERTEX
  8
0
  5
80000461
 10
-9.47463
 20
-160.695
 30
0.000000
  70
    32
  0
VERTEX
  8
0
  5
80000462
 10
-9.87862
 20
-161.546
 30
0.000000
  70
    32
  0
VERTEX
  8
0
  5
80000463
 10
-10.2898
 20
-162.384
 30
0.000000
  70
    32
  0
VERTEX
  8
0
  5
80000464
 10
-10.7084
 20
-163.210
 30
0.000000
  70
    32
  0
VERTEX
  8
0
  5
80000465
 10
-11.1347
 20
-164.024
 30
0.000000
  70
    32
  0
VERTEX
  8
0
  5
80000466
 10
-11.5686
 20
-164.825
 30
0.000000
  70
    32
  0
VERTEX
  8
0
  5
80000467
 10
-12.0106
 20
-165.612
 30
0.000000
  70
    32
  0
VERTEX
  8
0
  5
80000468
 10
-12.4607
 20
-166.386
 30
0.000000
  70
    32
  0
VERTEX
  8
0
  5
80000469
 10
-12.9190
 20
-167.147
 30
0.000000
  70
    32
  0
VERTEX
  8
0
  5
8000046A
 10
-13.3859
 20
-167.893
 30
0.000000
  70
    32
  0
VERTEX
  8
0
  5
8000046B
 10
-13.8615
 20
-168.625
 30
0.000000
  70
    32
  0
VERTEX
  8
0
  5
8000046C
 10
-14.3460
 20
-169.342
 30
0.000000
  70
    32
  0
VERTEX
  8
0
  5
8000046D
 10
-14.8395
 20
-170.044
 30
0.000000
  70
    32
  0
VERTEX
  8
0
  5
8000046E
 10
-15.3422
 20
-170.731
 30
0.000000
  70
    32
  0
VERTEX
  8
0
  5
8000046F
 10
-15.8543
 20
-171.402
 30
0.000000
  70
    32
  0
VERTEX
  8
0
  5
80000470
 10
-16.3761
 20
-172.057
 30
0.000000
  70
    32
  0
VERTEX
  8
0
  5
80000471
 10
-16.9076
 20
-172.697
 30
0.000000
  70
    32
  0
VERTEX
  8
0
  5
80000472
 10
-17.4491
 20
-173.319
 30
0.000000
  70
    32
  0
VERTEX
  8
0
  5
80000473
 10
-18.0007
 20
-173.925
 30
0.000000
  70
    32
  0
VERTEX
  8
0
  5
80000474
 10
-18.5626
 20
-174.514
 30
0.000000
  70
    32
  0
VERTEX
  8
0
  5
80000475
 10
-19.1350
 20
-175.085
 30
0.000000
  70
    32
  0
VERTEX
  8
0
  5
80000476
 10
-19.7182
 20
-175.639
 30
0.000000
  70
    32
  0
VERTEX
  8
0
  5
80000477
 10
-20.3122
 20
-176.174
 30
0.000000
  70
    32
  0
VERTEX
  8
0
  5
80000478
 10
-20.9172
 20
-176.692
 30
0.000000
  70
    32
  0
VERTEX
  8
0
  5
80000479
 10
-21.5335
 20
-177.190
 30
0.000000
  70
    32
  0
VERTEX
  8
0
  5
8000047A
 10
-22.1612
 20
-177.670
 30
0.000000
  70
    32
  0
VERTEX
  8
0
  5
8000047B
 10
-22.8005
 20
-178.130
 30
0.000000
  70
    32
  0
VERTEX
  8
0
  5
8000047C
 10
-23.4516
 20
-178.571
 30
0.000000
  70
    32
  0
VERTEX
  8
0
  5
8000047D
 10
-24.1147
 20
-178.993
 30
0.000000
  70
    32
  0
VERTEX
  8
0
  5
8000047E
 10
-24.7898
 20
-179.394
 30
0.000000
  70
    32
  0
VERTEX
  8
0
  5
8000047F
 10
-25.4774
 20
-179.774
 30
0.000000
  70
    32
  0
VERTEX
  8
0
  5
80000480
 10
-26.1774
 20
-180.134
 30
0.000000
  70
    32
  0
VERTEX
  8
0
  5
80000481
 10
-26.8901
 20
-180.473
 30
0.000000
  70
    32
  0
VERTEX
  8
0
  5
80000482
 10
-27.6157
 20
-180.791
 30
0.000000
  70
    32
  0
VERTEX
  8
0
  5
80000483
 10
-28.3544
 20
-181.087
 30
0.000000
  70
    32
  0
VERTEX
  8
0
  5
80000484
 10
-29.1063
 20
-181.360
 30
0.000000
  70
    32
  0
VERTEX
  8
0
  5
80000485
 10
-29.8716
 20
-181.612
 30
0.000000
  70
    32
  0
VERTEX
  8
0
  5
80000486
 10
-30.6505
 20
-181.841
 30
0.000000
  70
    32
  0
VERTEX
  8
0
  5
80000487
 10
-31.4432
 20
-182.048
 30
0.000000
  70
    32
  0
VERTEX
  8
0
  5
80000488
 10
-32.2499
 20
-182.231
 30
0.000000
  70
    32
  0
VERTEX
  8
0
  5
80000489
 10
-33.0707
 20
-182.391
 30
0.000000
  70
    32
  0
VERTEX
  8
0
  5
8000048A
 10
-33.9058
 20
-182.527
 30
0.000000
  70
    32
  0
VERTEX
  8
0
  5
8000048B
 10
-34.7555
 20
-182.639
 30
0.000000
  70
    32
  0
VERTEX
  8
0
  5
8000048C
 10
-35.6199
 20
-182.726
 30
0.000000
  70
    32
  0
VERTEX
  8
0
  5
8000048D
 10
-36.4991
 20
-182.789
 30
0.000000
  70
    32
  0
VERTEX
  8
0
  5
8000048E
 10
-37.3934
 20
-182.827
 30
0.000000
  70
    32
  0
VERTEX
  8
0
  5
8000048F
 10
-38.3029
 20
-182.840
 30
0.000000
  70
    32
  0
SEQEND
  8
0
  5
80000490
  0
ENDBLK
  5
FFBBDAE469BC1E42
  8
0
  0
BLOCK
  8
0
  2
*U29
 70
     1
 10
0.0
 20
0.0
 30
0.0
  3
*U29
  1

  0
TEXT
  5
FFBBDAE469BC1E44
  8
0
  6
CONTINUOUS
 10
-127.23726806289049
 20
-177.5489411622107
 30
0.0
 40
4.0
  1
70 x 19mm CLD
  7
ARIAL
  0
TEXT
  5
FFBBDAE469BC1E45
  8
0
  6
CONTINUOUS
 10
-86.872395757297099
 20
-175.04354116221069
 30
0.0
 40
3.0323999999999991
  1
®
  7
ARIAL
  0
TEXT
  5
FFBBDAE469BC1E46
  8
0
  6
CONTINUOUS
 10
-86.866190300271171
 20
-176.0543411622107
 30
0.0
 40
3.0323999999999991
  1

  7
ARIAL
  0
TEXT
  5
FFBBDAE469BC1E47
  8
0
  6
CONTINUOUS
 10
-83.542133820052896
 20
-176.96507196221069
 30
0.0
 40
2.8322615999999998
  1
 
  7
ARIAL
  0
TEXT
  5
FFBBDAE469BC1E48
  8
0
  6
CONTINUOUS
 10
-80.97961142005289
 20
-177.5489411622107
 30
0.0
 40
4.0
  1
Structural Cavity
  7
ARIAL
  0
TEXT
  5
FFBBDAE469BC1E49
  8
0
  6
CONTINUOUS
 10
-124.3820670817173
 20
-184.25185462287459
 30
0.0
 40
4.0
  1
Batten 
  7
ARIAL
  0
TEXT
  5
FFBBDAE469BC1E4A
  8
0
  6
CONTINUOUS
 10
-106.67401796848399
 20
-184.2859610348801
 30
0.0
 40
4.0
  1
(Ensure batten and panel
  7
ARIAL
  0
TEXT
  5
FFBBDAE469BC1E4B
  8
0
  6
CONTINUOUS
 10
-125.0969374773516
 20
-191.02084052555759
 30
0.0
 40
4.0
  1
relative orientation is as shown)
  7
ARIAL
  0
ENDBLK
  5
FFBBDAE469BC1E4D
  8
0
  0
BLOCK
  8
0
  2
*U30
 70
     1
 10
0.0
 20
0.0
 30
0.0
  3
*U30
  1

  0
SOLID
  5
FFBBDAE469BC1E4F
  8
0
  6
CONTINUOUS
 10
1.9471153392010729
 20
-100.4340569523693
 30
0.0
 11
4.499999999992724
 21
-97.825843021593187
 31
0.0
 12
2.9310163254415311
 22
-101.1210350082598
 32
0.0
 13
2.9310163254415311
 23
-101.1210350082598
 33
0.0
  0
POLYLINE
  8
0
  5
80000491
  66
     1
 10
0.000000
 20
0.000000
 30
0.000000
  70
     8
  0
VERTEX
  8
0
  5
80000492
 10
2.43907
 20
-100.778
 30
0.000000
  70
    32
  0
VERTEX
  8
0
  5
80000493
 10
2.16211
 20
-101.180
 30
0.000000
  70
    32
  0
VERTEX
  8
0
  5
80000494
 10
1.88834
 20
-101.588
 30
0.000000
  70
    32
  0
VERTEX
  8
0
  5
80000495
 10
1.61770
 20
-102.002
 30
0.000000
  70
    32
  0
VERTEX
  8
0
  5
80000496
 10
1.35011
 20
-102.422
 30
0.000000
  70
    32
  0
VERTEX
  8
0
  5
80000497
 10
1.08548
 20
-102.848
 30
0.000000
  70
    32
  0
VERTEX
  8
0
  5
80000498
 10
0.823739
 20
-103.279
 30
0.000000
  70
    32
  0
VERTEX
  8
0
  5
80000499
 10
0.564811
 20
-103.716
 30
0.000000
  70
    32
  0
VERTEX
  8
0
  5
8000049A
 10
0.308617
 20
-104.158
 30
0.000000
  70
    32
  0
VERTEX
  8
0
  5
8000049B
 10
0.0550810
 20
-104.605
 30
0.000000
  70
    32
  0
VERTEX
  8
0
  5
8000049C
 10
-0.195876
 20
-105.057
 30
0.000000
  70
    32
  0
VERTEX
  8
0
  5
8000049D
 10
-0.444330
 20
-105.514
 30
0.000000
  70
    32
  0
VERTEX
  8
0
  5
8000049E
 10
-0.690359
 20
-105.975
 30
0.000000
  70
    32
  0
VERTEX
  8
0
  5
8000049F
 10
-0.934041
 20
-106.441
 30
0.000000
  70
    32
  0
VERTEX
  8
0
  5
800004A0
 10
-1.17545
 20
-106.911
 30
0.000000
  70
    32
  0
VERTEX
  8
0
  5
800004A1
 10
-1.41467
 20
-107.386
 30
0.000000
  70
    32
  0
VERTEX
  8
0
  5
800004A2
 10
-1.65178
 20
-107.864
 30
0.000000
  70
    32
  0
VERTEX
  8
0
  5
800004A3
 10
-1.88684
 20
-108.347
 30
0.000000
  70
    32
  0
VERTEX
  8
0
  5
800004A4
 10
-2.11995
 20
-108.833
 30
0.000000
  70
    32
  0
VERTEX
  8
0
  5
800004A5
 10
-2.35117
 20
-109.323
 30
0.000000
  70
    32
  0
VERTEX
  8
0
  5
800004A6
 10
-2.58058
 20
-109.816
 30
0.000000
  70
    32
  0
VERTEX
  8
0
  5
800004A7
 10
-2.80827
 20
-110.313
 30
0.000000
  70
    32
  0
VERTEX
  8
0
  5
800004A8
 10
-3.03431
 20
-110.813
 30
0.000000
  70
    32
  0
VERTEX
  8
0
  5
800004A9
 10
-3.25877
 20
-111.315
 30
0.000000
  70
    32
  0
VERTEX
  8
0
  5
800004AA
 10
-3.48174
 20
-111.821
 30
0.000000
  70
    32
  0
VERTEX
  8
0
  5
800004AB
 10
-3.70328
 20
-112.329
 30
0.000000
  70
    32
  0
VERTEX
  8
0
  5
800004AC
 10
-3.92349
 20
-112.840
 30
0.000000
  70
    32
  0
VERTEX
  8
0
  5
800004AD
 10
-4.14243
 20
-113.354
 30
0.000000
  70
    32
  0
VERTEX
  8
0
  5
800004AE
 10
-4.36019
 20
-113.869
 30
0.000000
  70
    32
  0
VERTEX
  8
0
  5
800004AF
 10
-4.57683
 20
-114.387
 30
0.000000
  70
    32
  0
VERTEX
  8
0
  5
800004B0
 10
-4.79245
 20
-114.907
 30
0.000000
  70
    32
  0
VERTEX
  8
0
  5
800004B1
 10
-5.00711
 20
-115.429
 30
0.000000
  70
    32
  0
VERTEX
  8
0
  5
800004B2
 10
-5.22089
 20
-115.952
 30
0.000000
  70
    32
  0
VERTEX
  8
0
  5
800004B3
 10
-5.43387
 20
-116.477
 30
0.000000
  70
    32
  0
VERTEX
  8
0
  5
800004B4
 10
-5.64614
 20
-117.003
 30
0.000000
  70
    32
  0
VERTEX
  8
0
  5
800004B5
 10
-5.85775
 20
-117.530
 30
0.000000
  70
    32
  0
VERTEX
  8
0
  5
800004B6
 10
-6.06880
 20
-118.059
 30
0.000000
  70
    32
  0
VERTEX
  8
0
  5
800004B7
 10
-6.27936
 20
-118.588
 30
0.000000
  70
    32
  0
VERTEX
  8
0
  5
800004B8
 10
-6.48950
 20
-119.119
 30
0.000000
  70
    32
  0
VERTEX
  8
0
  5
800004B9
 10
-6.69931
 20
-119.649
 30
0.000000
  70
    32
  0
VERTEX
  8
0
  5
800004BA
 10
-6.90887
 20
-120.181
 30
0.000000
  70
    32
  0
VERTEX
  8
0
  5
800004BB
 10
-7.11824
 20
-120.713
 30
0.000000
  70
    32
  0
VERTEX
  8
0
  5
800004BC
 10
-7.32750
 20
-121.244
 30
0.000000
  70
    32
  0
VERTEX
  8
0
  5
800004BD
 10
-7.53675
 20
-121.776
 30
0.000000
  70
    32
  0
VERTEX
  8
0
  5
800004BE
 10
-7.74604
 20
-122.308
 30
0.000000
  70
    32
  0
VERTEX
  8
0
  5
800004BF
 10
-7.95546
 20
-122.840
 30
0.000000
  70
    32
  0
VERTEX
  8
0
  5
800004C0
 10
-8.16509
 20
-123.371
 30
0.000000
  70
    32
  0
VERTEX
  8
0
  5
800004C1
 10
-8.37501
 20
-123.902
 30
0.000000
  70
    32
  0
VERTEX
  8
0
  5
800004C2
 10
-8.58528
 20
-124.432
 30
0.000000
  70
    32
  0
VERTEX
  8
0
  5
800004C3
 10
-8.79599
 20
-124.961
 30
0.000000
  70
    32
  0
VERTEX
  8
0
  5
800004C4
 10
-9.00722
 20
-125.489
 30
0.000000
  70
    32
  0
VERTEX
  8
0
  5
800004C5
 10
-9.21904
 20
-126.016
 30
0.000000
  70
    32
  0
VERTEX
  8
0
  5
800004C6
 10
-9.43154
 20
-126.542
 30
0.000000
  70
    32
  0
VERTEX
  8
0
  5
800004C7
 10
-9.64478
 20
-127.066
 30
0.000000
  70
    32
  0
VERTEX
  8
0
  5
800004C8
 10
-9.85885
 20
-127.589
 30
0.000000
  70
    32
  0
VERTEX
  8
0
  5
800004C9
 10
-10.0738
 20
-128.110
 30
0.000000
  70
    32
  0
VERTEX
  8
0
  5
800004CA
 10
-10.2898
 20
-128.629
 30
0.000000
  70
    32
  0
VERTEX
  8
0
  5
800004CB
 10
-10.5068
 20
-129.146
 30
0.000000
  70
    32
  0
VERTEX
  8
0
  5
800004CC
 10
-10.7249
 20
-129.661
 30
0.000000
  70
    32
  0
VERTEX
  8
0
  5
800004CD
 10
-10.9443
 20
-130.174
 30
0.000000
  70
    32
  0
VERTEX
  8
0
  5
800004CE
 10
-11.1649
 20
-130.684
 30
0.000000
  70
    32
  0
VERTEX
  8
0
  5
800004CF
 10
-11.3869
 20
-131.191
 30
0.000000
  70
    32
  0
VERTEX
  8
0
  5
800004D0
 10
-11.6104
 20
-131.696
 30
0.000000
  70
    32
  0
VERTEX
  8
0
  5
800004D1
 10
-11.8354
 20
-132.198
 30
0.000000
  70
    32
  0
VERTEX
  8
0
  5
800004D2
 10
-12.0619
 20
-132.697
 30
0.000000
  70
    32
  0
VERTEX
  8
0
  5
800004D3
 10
-12.2902
 20
-133.192
 30
0.000000
  70
    32
  0
VERTEX
  8
0
  5
800004D4
 10
-12.5202
 20
-133.684
 30
0.000000
  70
    32
  0
VERTEX
  8
0
  5
800004D5
 10
-12.7520
 20
-134.173
 30
0.000000
  70
    32
  0
VERTEX
  8
0
  5
800004D6
 10
-12.9858
 20
-134.658
 30
0.000000
  70
    32
  0
VERTEX
  8
0
  5
800004D7
 10
-13.2215
 20
-135.139
 30
0.000000
  70
    32
  0
VERTEX
  8
0
  5
800004D8
 10
-13.4593
 20
-135.616
 30
0.000000
  70
    32
  0
VERTEX
  8
0
  5
800004D9
 10
-13.6993
 20
-136.090
 30
0.000000
  70
    32
  0
VERTEX
  8
0
  5
800004DA
 10
-13.9414
 20
-136.558
 30
0.000000
  70
    32
  0
VERTEX
  8
0
  5
800004DB
 10
-14.1859
 20
-137.023
 30
0.000000
  70
    32
  0
VERTEX
  8
0
  5
800004DC
 10
-14.4327
 20
-137.483
 30
0.000000
  70
    32
  0
VERTEX
  8
0
  5
800004DD
 10
-14.6820
 20
-137.938
 30
0.000000
  70
    32
  0
VERTEX
  8
0
  5
800004DE
 10
-14.9338
 20
-138.388
 30
0.000000
  70
    32
  0
VERTEX
  8
0
  5
800004DF
 10
-15.1882
 20
-138.834
 30
0.000000
  70
    32
  0
VERTEX
  8
0
  5
800004E0
 10
-15.4453
 20
-139.274
 30
0.000000
  70
    32
  0
VERTEX
  8
0
  5
800004E1
 10
-15.7052
 20
-139.709
 30
0.000000
  70
    32
  0
VERTEX
  8
0
  5
800004E2
 10
-15.9679
 20
-140.138
 30
0.000000
  70
    32
  0
VERTEX
  8
0
  5
800004E3
 10
-16.2335
 20
-140.562
 30
0.000000
  70
    32
  0
VERTEX
  8
0
  5
800004E4
 10
-16.5021
 20
-140.980
 30
0.000000
  70
    32
  0
VERTEX
  8
0
  5
800004E5
 10
-16.7737
 20
-141.393
 30
0.000000
  70
    32
  0
VERTEX
  8
0
  5
800004E6
 10
-17.0486
 20
-141.799
 30
0.000000
  70
    32
  0
VERTEX
  8
0
  5
800004E7
 10
-17.3266
 20
-142.199
 30
0.000000
  70
    32
  0
VERTEX
  8
0
  5
800004E8
 10
-17.6080
 20
-142.592
 30
0.000000
  70
    32
  0
VERTEX
  8
0
  5
800004E9
 10
-17.8927
 20
-142.980
 30
0.000000
  70
    32
  0
VERTEX
  8
0
  5
800004EA
 10
-18.1809
 20
-143.360
 30
0.000000
  70
    32
  0
VERTEX
  8
0
  5
800004EB
 10
-18.4726
 20
-143.734
 30
0.000000
  70
    32
  0
VERTEX
  8
0
  5
800004EC
 10
-18.7679
 20
-144.101
 30
0.000000
  70
    32
  0
VERTEX
  8
0
  5
800004ED
 10
-19.0669
 20
-144.461
 30
0.000000
  70
    32
  0
VERTEX
  8
0
  5
800004EE
 10
-19.3697
 20
-144.813
 30
0.000000
  70
    32
  0
VERTEX
  8
0
  5
800004EF
 10
-19.6763
 20
-145.159
 30
0.000000
  70
    32
  0
VERTEX
  8
0
  5
800004F0
 10
-19.9869
 20
-145.496
 30
0.000000
  70
    32
  0
VERTEX
  8
0
  5
800004F1
 10
-20.3014
 20
-145.826
 30
0.000000
  70
    32
  0
VERTEX
  8
0
  5
800004F2
 10
-20.6201
 20
-146.149
 30
0.000000
  70
    32
  0
VERTEX
  8
0
  5
800004F3
 10
-20.9428
 20
-146.463
 30
0.000000
  70
    32
  0
VERTEX
  8
0
  5
800004F4
 10
-21.2698
 20
-146.769
 30
0.000000
  70
    32
  0
VERTEX
  8
0
  5
800004F5
 10
-21.6012
 20
-147.067
 30
0.000000
  70
    32
  0
VERTEX
  8
0
  5
800004F6
 10
-21.9369
 20
-147.356
 30
0.000000
  70
    32
  0
VERTEX
  8
0
  5
800004F7
 10
-22.2770
 20
-147.637
 30
0.000000
  70
    32
  0
VERTEX
  8
0
  5
800004F8
 10
-22.6217
 20
-147.909
 30
0.000000
  70
    32
  0
VERTEX
  8
0
  5
800004F9
 10
-22.9710
 20
-148.173
 30
0.000000
  70
    32
  0
VERTEX
  8
0
  5
800004FA
 10
-23.3251
 20
-148.427
 30
0.000000
  70
    32
  0
VERTEX
  8
0
  5
800004FB
 10
-23.6839
 20
-148.672
 30
0.000000
  70
    32
  0
VERTEX
  8
0
  5
800004FC
 10
-24.0475
 20
-148.908
 30
0.000000
  70
    32
  0
VERTEX
  8
0
  5
800004FD
 10
-24.4161
 20
-149.134
 30
0.000000
  70
    32
  0
VERTEX
  8
0
  5
800004FE
 10
-24.7896
 20
-149.351
 30
0.000000
  70
    32
  0
VERTEX
  8
0
  5
800004FF
 10
-25.1683
 20
-149.558
 30
0.000000
  70
    32
  0
VERTEX
  8
0
  5
80000500
 10
-25.5521
 20
-149.756
 30
0.000000
  70
    32
  0
VERTEX
  8
0
  5
80000501
 10
-25.9411
 20
-149.943
 30
0.000000
  70
    32
  0
VERTEX
  8
0
  5
80000502
 10
-26.3355
 20
-150.120
 30
0.000000
  70
    32
  0
VERTEX
  8
0
  5
80000503
 10
-26.7353
 20
-150.286
 30
0.000000
  70
    32
  0
VERTEX
  8
0
  5
80000504
 10
-27.1405
 20
-150.442
 30
0.000000
  70
    32
  0
VERTEX
  8
0
  5
80000505
 10
-27.5513
 20
-150.588
 30
0.000000
  70
    32
  0
VERTEX
  8
0
  5
80000506
 10
-27.9677
 20
-150.723
 30
0.000000
  70
    32
  0
VERTEX
  8
0
  5
80000507
 10
-28.3898
 20
-150.846
 30
0.000000
  70
    32
  0
VERTEX
  8
0
  5
80000508
 10
-28.8176
 20
-150.959
 30
0.000000
  70
    32
  0
VERTEX
  8
0
  5
80000509
 10
-29.2514
 20
-151.060
 30
0.000000
  70
    32
  0
VERTEX
  8
0
  5
8000050A
 10
-29.6910
 20
-151.150
 30
0.000000
  70
    32
  0
VERTEX
  8
0
  5
8000050B
 10
-30.1367
 20
-151.229
 30
0.000000
  70
    32
  0
VERTEX
  8
0
  5
8000050C
 10
-30.5885
 20
-151.296
 30
0.000000
  70
    32
  0
VERTEX
  8
0
  5
8000050D
 10
-31.0464
 20
-151.351
 30
0.000000
  70
    32
  0
VERTEX
  8
0
  5
8000050E
 10
-31.5106
 20
-151.394
 30
0.000000
  70
    32
  0
VERTEX
  8
0
  5
8000050F
 10
-31.9810
 20
-151.425
 30
0.000000
  70
    32
  0
VERTEX
  8
0
  5
80000510
 10
-32.4579
 20
-151.444
 30
0.000000
  70
    32
  0
VERTEX
  8
0
  5
80000511
 10
-32.9413
 20
-151.450
 30
0.000000
  70
    32
  0
SEQEND
  8
0
  5
80000512
  0
ENDBLK
  5
FFBBDAE469BC1E52
  8
0
  0
BLOCK
  8
0
  2
*U31
 70
     1
 10
0.0
 20
0.0
 30
0.0
  3
*U31
  1

  0
TEXT
  5
FFBBDAE469BC1E54
  8
0
  6
CONTINUOUS
 10
-131.3041944334777
 20
-146.2197717647586
 30
0.0
 40
4.0
  1
Polypropylene / Polyethylene DPC or a
  7
ARIAL
  0
TEXT
  5
FFBBDAE469BC1E55
  8
0
  6
CONTINUOUS
 10
-131.49519034070821
 20
-152.9546512554362
 30
0.0
 40
4.0
  1
flashing tape applied to protect building
  7
ARIAL
  0
TEXT
  5
FFBBDAE469BC1E56
  8
0
  6
CONTINUOUS
 10
-105.5252039832731
 20
-159.6376889998655
 30
0.0
 40
4.0
  1
wrap 100mm wide each side
  7
ARIAL
  0
ENDBLK
  5
FFBBDAE469BC1E58
  8
0
  0
BLOCK
  8
0
  2
*U32
 70
     1
 10
0.0
 20
0.0
 30
0.0
  3
*U32
  1

  0
SOLID
  5
FFBBDAE469BC1E5A
  8
0
  6
CONTINUOUS
 10
29.282117850147412
 20
-17.741758069481961
 30
0.0
 11
25.94644177909322
 21
-19.222725708897649
 31
0.0
 12
28.621497206496151
 22
-16.739969486405769
 32
0.0
 13
28.621497206496151
 23
-16.739969486405769
 33
0.0
  0
POLYLINE
  8
0
  5
80000513
  66
     1
 10
0.000000
 20
0.000000
 30
0.000000
  70
     8
  0
VERTEX
  8
0
  5
80000514
 10
28.9518
 20
-17.2409
 30
0.000000
  70
    32
  0
VERTEX
  8
0
  5
80000515
 10
29.6495
 20
-16.7765
 30
0.000000
  70
    32
  0
VERTEX
  8
0
  5
80000516
 10
30.3451
 20
-16.3050
 30
0.000000
  70
    32
  0
VERTEX
  8
0
  5
80000517
 10
31.0386
 20
-15.8266
 30
0.000000
  70
    32
  0
VERTEX
  8
0
  5
80000518
 10
31.7301
 20
-15.3414
 30
0.000000
  70
    32
  0
VERTEX
  8
0
  5
80000519
 10
32.4196
 20
-14.8497
 30
0.000000
  70
    32
  0
VERTEX
  8
0
  5
8000051A
 10
33.1072
 20
-14.3516
 30
0.000000
  70
    32
  0
VERTEX
  8
0
  5
8000051B
 10
33.7929
 20
-13.8472
 30
0.000000
  70
    32
  0
VERTEX
  8
0
  5
8000051C
 10
34.4768
 20
-13.3368
 30
0.000000
  70
    32
  0
VERTEX
  8
0
  5
8000051D
 10
35.1589
 20
-12.8205
 30
0.000000
  70
    32
  0
VERTEX
  8
0
  5
8000051E
 10
35.8393
 20
-12.2985
 30
0.000000
  70
    32
  0
VERTEX
  8
0
  5
8000051F
 10
36.5181
 20
-11.7710
 30
0.000000
  70
    32
  0
VERTEX
  8
0
  5
80000520
 10
37.1952
 20
-11.2381
 30
0.000000
  70
    32
  0
VERTEX
  8
0
  5
80000521
 10
37.8708
 20
-10.7000
 30
0.000000
  70
    32
  0
VERTEX
  8
0
  5
80000522
 10
38.5449
 20
-10.1568
 30
0.000000
  70
    32
  0
VERTEX
  8
0
  5
80000523
 10
39.2175
 20
-9.60882
 30
0.000000
  70
    32
  0
VERTEX
  8
0
  5
80000524
 10
39.8887
 20
-9.05613
 30
0.000000
  70
    32
  0
VERTEX
  8
0
  5
80000525
 10
40.5586
 20
-8.49893
 30
0.000000
  70
    32
  0
VERTEX
  8
0
  5
80000526
 10
41.2271
 20
-7.93739
 30
0.000000
  70
    32
  0
VERTEX
  8
0
  5
80000527
 10
41.8944
 20
-7.37168
 30
0.000000
  70
    32
  0
VERTEX
  8
0
  5
80000528
 10
42.5606
 20
-6.80196
 30
0.000000
  70
    32
  0
VERTEX
  8
0
  5
80000529
 10
43.2255
 20
-6.22842
 30
0.000000
  70
    32
  0
VERTEX
  8
0
  5
8000052A
 10
43.8894
 20
-5.65122
 30
0.000000
  70
    32
  0
VERTEX
  8
0
  5
8000052B
 10
44.5522
 20
-5.07054
 30
0.000000
  70
    32
  0
VERTEX
  8
0
  5
8000052C
 10
45.2140
 20
-4.48654
 30
0.000000
  70
    32
  0
VERTEX
  8
0
  5
8000052D
 10
45.8749
 20
-3.89939
 30
0.000000
  70
    32
  0
VERTEX
  8
0
  5
8000052E
 10
46.5349
 20
-3.30928
 30
0.000000
  70
    32
  0
VERTEX
  8
0
  5
8000052F
 10
47.1940
 20
-2.71637
 30
0.000000
  70
    32
  0
VERTEX
  8
0
  5
80000530
 10
47.8524
 20
-2.12083
 30
0.000000
  70
    32
  0
VERTEX
  8
0
  5
80000531
 10
48.5100
 20
-1.52283
 30
0.000000
  70
    32
  0
VERTEX
  8
0
  5
80000532
 10
49.1669
 20
-0.922545
 30
0.000000
  70
    32
  0
VERTEX
  8
0
  5
80000533
 10
49.8232
 20
-0.320147
 30
0.000000
  70
    32
  0
VERTEX
  8
0
  5
80000534
 10
50.4789
 20
0.284194
 30
0.000000
  70
    32
  0
VERTEX
  8
0
  5
80000535
 10
51.1341
 20
0.890306
 30
0.000000
  70
    32
  0
VERTEX
  8
0
  5
80000536
 10
51.7888
 20
1.49802
 30
0.000000
  70
    32
  0
VERTEX
  8
0
  5
80000537
 10
52.4431
 20
2.10716
 30
0.000000
  70
    32
  0
VERTEX
  8
0
  5
80000538
 10
53.0970
 20
2.71756
 30
0.000000
  70
    32
  0
VERTEX
  8
0
  5
80000539
 10
53.7506
 20
3.32904
 30
0.000000
  70
    32
  0
VERTEX
  8
0
  5
8000053A
 10
54.4039
 20
3.94144
 30
0.000000
  70
    32
  0
VERTEX
  8
0
  5
8000053B
 10
55.0569
 20
4.55458
 30
0.000000
  70
    32
  0
VERTEX
  8
0
  5
8000053C
 10
55.7098
 20
5.16829
 30
0.000000
  70
    32
  0
VERTEX
  8
0
  5
8000053D
 10
56.3626
 20
5.78240
 30
0.000000
  70
    32
  0
VERTEX
  8
0
  5
8000053E
 10
57.0153
 20
6.39674
 30
0.000000
  70
    32
  0
VERTEX
  8
0
  5
8000053F
 10
57.6680
 20
7.01114
 30
0.000000
  70
    32
  0
VERTEX
  8
0
  5
80000540
 10
58.3208
 20
7.62542
 30
0.000000
  70
    32
  0
VERTEX
  8
0
  5
80000541
 10
58.9736
 20
8.23942
 30
0.000000
  70
    32
  0
VERTEX
  8
0
  5
80000542
 10
59.6265
 20
8.85296
 30
0.000000
  70
    32
  0
VERTEX
  8
0
  5
80000543
 10
60.2797
 20
9.46587
 30
0.000000
  70
    32
  0
VERTEX
  8
0
  5
80000544
 10
60.9331
 20
10.0780
 30
0.000000
  70
    32
  0
VERTEX
  8
0
  5
80000545
 10
61.5867
 20
10.6891
 30
0.000000
  70
    32
  0
VERTEX
  8
0
  5
80000546
 10
62.2408
 20
11.2991
 30
0.000000
  70
    32
  0
VERTEX
  8
0
  5
80000547
 10
62.8952
 20
11.9078
 30
0.000000
  70
    32
  0
VERTEX
  8
0
  5
80000548
 10
63.5500
 20
12.5150
 30
0.000000
  70
    32
  0
VERTEX
  8
0
  5
80000549
 10
64.2054
 20
13.1205
 30
0.000000
  70
    32
  0
VERTEX
  8
0
  5
8000054A
 10
64.8613
 20
13.7243
 30
0.000000
  70
    32
  0
VERTEX
  8
0
  5
8000054B
 10
65.5178
 20
14.3260
 30
0.000000
  70
    32
  0
VERTEX
  8
0
  5
8000054C
 10
66.1749
 20
14.9255
 30
0.000000
  70
    32
  0
VERTEX
  8
0
  5
8000054D
 10
66.8328
 20
15.5227
 30
0.000000
  70
    32
  0
VERTEX
  8
0
  5
8000054E
 10
67.4914
 20
16.1174
 30
0.000000
  70
    32
  0
VERTEX
  8
0
  5
8000054F
 10
68.1508
 20
16.7094
 30
0.000000
  70
    32
  0
VERTEX
  8
0
  5
80000550
 10
68.8111
 20
17.2985
 30
0.000000
  70
    32
  0
VERTEX
  8
0
  5
80000551
 10
69.4723
 20
17.8846
 30
0.000000
  70
    32
  0
VERTEX
  8
0
  5
80000552
 10
70.1344
 20
18.4676
 30
0.000000
  70
    32
  0
VERTEX
  8
0
  5
80000553
 10
70.7976
 20
19.0471
 30
0.000000
  70
    32
  0
VERTEX
  8
0
  5
80000554
 10
71.4618
 20
19.6231
 30
0.000000
  70
    32
  0
VERTEX
  8
0
  5
80000555
 10
72.1271
 20
20.1954
 30
0.000000
  70
    32
  0
VERTEX
  8
0
  5
80000556
 10
72.7936
 20
20.7638
 30
0.000000
  70
    32
  0
VERTEX
  8
0
  5
80000557
 10
73.4614
 20
21.3281
 30
0.000000
  70
    32
  0
VERTEX
  8
0
  5
80000558
 10
74.1303
 20
21.8882
 30
0.000000
  70
    32
  0
VERTEX
  8
0
  5
80000559
 10
74.8007
 20
22.4440
 30
0.000000
  70
    32
  0
VERTEX
  8
0
  5
8000055A
 10
75.4723
 20
22.9951
 30
0.000000
  70
    32
  0
VERTEX
  8
0
  5
8000055B
 10
76.1454
 20
23.5415
 30
0.000000
  70
    32
  0
VERTEX
  8
0
  5
8000055C
 10
76.8200
 20
24.0830
 30
0.000000
  70
    32
  0
VERTEX
  8
0
  5
8000055D
 10
77.4961
 20
24.6194
 30
0.000000
  70
    32
  0
VERTEX
  8
0
  5
8000055E
 10
78.1738
 20
25.1505
 30
0.000000
  70
    32
  0
VERTEX
  8
0
  5
8000055F
 10
78.8531
 20
25.6763
 30
0.000000
  70
    32
  0
VERTEX
  8
0
  5
80000560
 10
79.5341
 20
26.1964
 30
0.000000
  70
    32
  0
VERTEX
  8
0
  5
80000561
 10
80.2168
 20
26.7107
 30
0.000000
  70
    32
  0
VERTEX
  8
0
  5
80000562
 10
80.9013
 20
27.2191
 30
0.000000
  70
    32
  0
VERTEX
  8
0
  5
80000563
 10
81.5876
 20
27.7214
 30
0.000000
  70
    32
  0
VERTEX
  8
0
  5
80000564
 10
82.2758
 20
28.2174
 30
0.000000
  70
    32
  0
VERTEX
  8
0
  5
80000565
 10
82.9660
 20
28.7070
 30
0.000000
  70
    32
  0
VERTEX
  8
0
  5
80000566
 10
83.6581
 20
29.1899
 30
0.000000
  70
    32
  0
VERTEX
  8
0
  5
80000567
 10
84.3523
 20
29.6660
 30
0.000000
  70
    32
  0
VERTEX
  8
0
  5
80000568
 10
85.0486
 20
30.1351
 30
0.000000
  70
    32
  0
VERTEX
  8
0
  5
80000569
 10
85.7470
 20
30.5971
 30
0.000000
  70
    32
  0
VERTEX
  8
0
  5
8000056A
 10
86.4477
 20
31.0518
 30
0.000000
  70
    32
  0
VERTEX
  8
0
  5
8000056B
 10
87.1505
 20
31.4990
 30
0.000000
  70
    32
  0
VERTEX
  8
0
  5
8000056C
 10
87.8557
 20
31.9386
 30
0.000000
  70
    32
  0
VERTEX
  8
0
  5
8000056D
 10
88.5632
 20
32.3703
 30
0.000000
  70
    32
  0
VERTEX
  8
0
  5
8000056E
 10
89.2731
 20
32.7940
 30
0.000000
  70
    32
  0
VERTEX
  8
0
  5
8000056F
 10
89.9854
 20
33.2096
 30
0.000000
  70
    32
  0
VERTEX
  8
0
  5
80000570
 10
90.7003
 20
33.6168
 30
0.000000
  70
    32
  0
VERTEX
  8
0
  5
80000571
 10
91.4177
 20
34.0155
 30
0.000000
  70
    32
  0
VERTEX
  8
0
  5
80000572
 10
92.1378
 20
34.4055
 30
0.000000
  70
    32
  0
VERTEX
  8
0
  5
80000573
 10
92.8604
 20
34.7867
 30
0.000000
  70
    32
  0
VERTEX
  8
0
  5
80000574
 10
93.5858
 20
35.1588
 30
0.000000
  70
    32
  0
VERTEX
  8
0
  5
80000575
 10
94.3140
 20
35.5217
 30
0.000000
  70
    32
  0
VERTEX
  8
0
  5
80000576
 10
95.0449
 20
35.8753
 30
0.000000
  70
    32
  0
VERTEX
  8
0
  5
80000577
 10
95.7788
 20
36.2193
 30
0.000000
  70
    32
  0
VERTEX
  8
0
  5
80000578
 10
96.5155
 20
36.5536
 30
0.000000
  70
    32
  0
VERTEX
  8
0
  5
80000579
 10
97.2552
 20
36.8780
 30
0.000000
  70
    32
  0
VERTEX
  8
0
  5
8000057A
 10
97.9979
 20
37.1923
 30
0.000000
  70
    32
  0
VERTEX
  8
0
  5
8000057B
 10
98.7437
 20
37.4965
 30
0.000000
  70
    32
  0
VERTEX
  8
0
  5
8000057C
 10
99.4926
 20
37.7902
 30
0.000000
  70
    32
  0
VERTEX
  8
0
  5
8000057D
 10
100.245
 20
38.0733
 30
0.000000
  70
    32
  0
VERTEX
  8
0
  5
8000057E
 10
101.000
 20
38.3458
 30
0.000000
  70
    32
  0
VERTEX
  8
0
  5
8000057F
 10
101.759
 20
38.6073
 30
0.000000
  70
    32
  0
VERTEX
  8
0
  5
80000580
 10
102.520
 20
38.8577
 30
0.000000
  70
    32
  0
VERTEX
  8
0
  5
80000581
 10
103.286
 20
39.0968
 30
0.000000
  70
    32
  0
VERTEX
  8
0
  5
80000582
 10
104.054
 20
39.3246
 30
0.000000
  70
    32
  0
VERTEX
  8
0
  5
80000583
 10
104.827
 20
39.5407
 30
0.000000
  70
    32
  0
VERTEX
  8
0
  5
80000584
 10
105.602
 20
39.7451
 30
0.000000
  70
    32
  0
VERTEX
  8
0
  5
80000585
 10
106.382
 20
39.9375
 30
0.000000
  70
    32
  0
VERTEX
  8
0
  5
80000586
 10
107.165
 20
40.1178
 30
0.000000
  70
    32
  0
VERTEX
  8
0
  5
80000587
 10
107.951
 20
40.2858
 30
0.000000
  70
    32
  0
VERTEX
  8
0
  5
80000588
 10
108.742
 20
40.4414
 30
0.000000
  70
    32
  0
VERTEX
  8
0
  5
80000589
 10
109.536
 20
40.5843
 30
0.000000
  70
    32
  0
VERTEX
  8
0
  5
8000058A
 10
110.334
 20
40.7144
 30
0.000000
  70
    32
  0
VERTEX
  8
0
  5
8000058B
 10
111.136
 20
40.8316
 30
0.000000
  70
    32
  0
VERTEX
  8
0
  5
8000058C
 10
111.942
 20
40.9356
 30
0.000000
  70
    32
  0
VERTEX
  8
0
  5
8000058D
 10
112.751
 20
41.0263
 30
0.000000
  70
    32
  0
VERTEX
  8
0
  5
8000058E
 10
113.565
 20
41.1036
 30
0.000000
  70
    32
  0
VERTEX
  8
0
  5
8000058F
 10
114.383
 20
41.1671
 30
0.000000
  70
    32
  0
VERTEX
  8
0
  5
80000590
 10
115.205
 20
41.2169
 30
0.000000
  70
    32
  0
VERTEX
  8
0
  5
80000591
 10
116.032
 20
41.2526
 30
0.000000
  70
    32
  0
VERTEX
  8
0
  5
80000592
 10
116.862
 20
41.2742
 30
0.000000
  70
    32
  0
VERTEX
  8
0
  5
80000593
 10
117.697
 20
41.2814
 30
0.000000
  70
    32
  0
SEQEND
  8
0
  5
80000594
  0
ENDBLK
  5
FFBBDAE469BC1E5D
  8
0
  0
BLOCK
  8
0
  2
*U33
 70
     1
 10
0.0
 20
0.0
 30
0.0
  3
*U33
  1

  0
TEXT
  5
FFBBDAE469BC1E5F
  8
0
  6
CONTINUOUS
 10
119.6970597941354
 20
46.04221031032997
 30
0.0
 40
4.0
  1
Apply continuous 6mm bead
  7
ARIAL
  0
TEXT
  5
FFBBDAE469BC1E60
  8
0
  6
CONTINUOUS
 10
119.5115209128257
 20
39.307330819652393
 30
0.0
 40
4.0
  1
of Seal n Flex -1  or Sikaflex
  7
ARIAL
  0
TEXT
  5
FFBBDAE469BC1E61
  8
0
  6
CONTINUOUS
 10
119.08860140395799
 20
32.572451328974822
 30
0.0
 40
4.0
  1
11FC adhesive sealant
  7
ARIAL
  0
ENDBLK
  5
FFBBDAE469BC1E63
  8
0
  0
BLOCK
  8
0
  2
*U34
 70
     1
 10
0.0
 20
0.0
 30
0.0
  3
*U34
  1

  0
SOLID
  5
FFBBDAE469BC1E65
  8
0
  6
CONTINUOUS
 10
-1.025342084942646
 20
-16.083602128670311
 30
0.0
 11
2.0000000000009091
 21
-18.125
 31
0.0
 12
-1.5238850656472169
 22
-17.175139987102259
 32
0.0
 13
-1.5238850656472169
 23
-17.175139987102259
 33
0.0
  0
POLYLINE
  8
0
  5
80000595
  66
     1
 10
0.000000
 20
0.000000
 30
0.000000
  70
     8
  0
VERTEX
  8
0
  5
80000596
 10
-1.27461
 20
-16.6294
 30
0.000000
  70
    32
  0
VERTEX
  8
0
  5
80000597
 10
-1.79092
 20
-16.3915
 30
0.000000
  70
    32
  0
VERTEX
  8
0
  5
80000598
 10
-2.30643
 20
-16.1501
 30
0.000000
  70
    32
  0
VERTEX
  8
0
  5
80000599
 10
-2.82118
 20
-15.9051
 30
0.000000
  70
    32
  0
VERTEX
  8
0
  5
8000059A
 10
-3.33517
 20
-15.6566
 30
0.000000
  70
    32
  0
VERTEX
  8
0
  5
8000059B
 10
-3.84843
 20
-15.4048
 30
0.000000
  70
    32
  0
VERTEX
  8
0
  5
8000059C
 10
-4.36098
 20
-15.1497
 30
0.000000
  70
    32
  0
VERTEX
  8
0
  5
8000059D
 10
-4.87283
 20
-14.8914
 30
0.000000
  70
    32
  0
VERTEX
  8
0
  5
8000059E
 10
-5.38401
 20
-14.6300
 30
0.000000
  70
    32
  0
VERTEX
  8
0
  5
8000059F
 10
-5.89454
 20
-14.3655
 30
0.000000
  70
    32
  0
VERTEX
  8
0
  5
800005A0
 10
-6.40442
 20
-14.0982
 30
0.000000
  70
    32
  0
VERTEX
  8
0
  5
800005A1
 10
-6.91369
 20
-13.8280
 30
0.000000
  70
    32
  0
VERTEX
  8
0
  5
800005A2
 10
-7.42236
 20
-13.5551
 30
0.000000
  70
    32
  0
VERTEX
  8
0
  5
800005A3
 10
-7.93045
 20
-13.2795
 30
0.000000
  70
    32
  0
VERTEX
  8
0
  5
800005A4
 10
-8.43798
 20
-13.0013
 30
0.000000
  70
    32
  0
VERTEX
  8
0
  5
800005A5
 10
-8.94497
 20
-12.7207
 30
0.000000
  70
    32
  0
VERTEX
  8
0
  5
800005A6
 10
-9.45144
 20
-12.4376
 30
0.000000
  70
    32
  0
VERTEX
  8
0
  5
800005A7
 10
-9.95741
 20
-12.1523
 30
0.000000
  70
    32
  0
VERTEX
  8
0
  5
800005A8
 10
-10.4629
 20
-11.8647
 30
0.000000
  70
    32
  0
VERTEX
  8
0
  5
800005A9
 10
-10.9679
 20
-11.5750
 30
0.000000
  70
    32
  0
VERTEX
  8
0
  5
800005AA
 10
-11.4725
 20
-11.2832
 30
0.000000
  70
    32
  0
VERTEX
  8
0
  5
800005AB
 10
-11.9766
 20
-10.9895
 30
0.000000
  70
    32
  0
VERTEX
  8
0
  5
800005AC
 10
-12.4804
 20
-10.6938
 30
0.000000
  70
    32
  0
VERTEX
  8
0
  5
800005AD
 10
-12.9837
 20
-10.3965
 30
0.000000
  70
    32
  0
VERTEX
  8
0
  5
800005AE
 10
-13.4867
 20
-10.0974
 30
0.000000
  70
    32
  0
VERTEX
  8
0
  5
800005AF
 10
-13.9893
 20
-9.79666
 30
0.000000
  70
    32
  0
VERTEX
  8
0
  5
800005B0
 10
-14.4916
 20
-9.49444
 30
0.000000
  70
    32
  0
VERTEX
  8
0
  5
800005B1
 10
-14.9936
 20
-9.19079
 30
0.000000
  70
    32
  0
VERTEX
  8
0
  5
800005B2
 10
-15.4953
 20
-8.88579
 30
0.000000
  70
    32
  0
VERTEX
  8
0
  5
800005B3
 10
-15.9967
 20
-8.57953
 30
0.000000
  70
    32
  0
VERTEX
  8
0
  5
800005B4
 10
-16.4979
 20
-8.27210
 30
0.000000
  70
    32
  0
VERTEX
  8
0
  5
800005B5
 10
-16.9988
 20
-7.96358
 30
0.000000
  70
    32
  0
VERTEX
  8
0
  5
800005B6
 10
-17.4995
 20
-7.65408
 30
0.000000
  70
    32
  0
VERTEX
  8
0
  5
800005B7
 10
-18.0000
 20
-7.34366
 30
0.000000
  70
    32
  0
VERTEX
  8
0
  5
800005B8
 10
-18.5004
 20
-7.03243
 30
0.000000
  70
    32
  0
VERTEX
  8
0
  5
800005B9
 10
-19.0005
 20
-6.72046
 30
0.000000
  70
    32
  0
VERTEX
  8
0
  5
800005BA
 10
-19.5006
 20
-6.40785
 30
0.000000
  70
    32
  0
VERTEX
  8
0
  5
800005BB
 10
-20.0005
 20
-6.09469
 30
0.000000
  70
    32
  0
VERTEX
  8
0
  5
800005BC
 10
-20.5003
 20
-5.78105
 30
0.000000
  70
    32
  0
VERTEX
  8
0
  5
800005BD
 10
-21.0000
 20
-5.46704
 30
0.000000
  70
    32
  0
VERTEX
  8
0
  5
800005BE
 10
-21.4997
 20
-5.15273
 30
0.000000
  70
    32
  0
VERTEX
  8
0
  5
800005BF
 10
-21.9993
 20
-4.83822
 30
0.000000
  70
    32
  0
VERTEX
  8
0
  5
800005C0
 10
-22.4989
 20
-4.52359
 30
0.000000
  70
    32
  0
VERTEX
  8
0
  5
800005C1
 10
-22.9985
 20
-4.20893
 30
0.000000
  70
    32
  0
VERTEX
  8
0
  5
800005C2
 10
-23.4981
 20
-3.89434
 30
0.000000
  70
    32
  0
VERTEX
  8
0
  5
800005C3
 10
-23.9978
 20
-3.57988
 30
0.000000
  70
    32
  0
VERTEX
  8
0
  5
800005C4
 10
-24.4975
 20
-3.26566
 30
0.000000
  70
    32
  0
VERTEX
  8
0
  5
800005C5
 10
-24.9972
 20
-2.95177
 30
0.000000
  70
    32
  0
VERTEX
  8
0
  5
800005C6
 10
-25.4971
 20
-2.63828
 30
0.000000
  70
    32
  0
VERTEX
  8
0
  5
800005C7
 10
-25.9970
 20
-2.32529
 30
0.000000
  70
    32
  0
VERTEX
  8
0
  5
800005C8
 10
-26.4971
 20
-2.01288
 30
0.000000
  70
    32
  0
VERTEX
  8
0
  5
800005C9
 10
-26.9973
 20
-1.70115
 30
0.000000
  70
    32
  0
VERTEX
  8
0
  5
800005CA
 10
-27.4977
 20
-1.39018
 30
0.000000
  70
    32
  0
VERTEX
  8
0
  5
800005CB
 10
-27.9983
 20
-1.08006
 30
0.000000
  70
    32
  0
VERTEX
  8
0
  5
800005CC
 10
-28.4991
 20
-0.770874
 30
0.000000
  70
    32
  0
VERTEX
  8
0
  5
800005CD
 10
-29.0001
 20
-0.462713
 30
0.000000
  70
    32
  0
VERTEX
  8
0
  5
800005CE
 10
-29.5013
 20
-0.155664
 30
0.000000
  70
    32
  0
VERTEX
  8
0
  5
800005CF
 10
-30.0028
 20
0.150186
 30
0.000000
  70
    32
  0
VERTEX
  8
0
  5
800005D0
 10
-30.5046
 20
0.454748
 30
0.000000
  70
    32
  0
VERTEX
  8
0
  5
800005D1
 10
-31.0067
 20
0.757934
 30
0.000000
  70
    32
  0
VERTEX
  8
0
  5
800005D2
 10
-31.5091
 20
1.05966
 30
0.000000
  70
    32
  0
VERTEX
  8
0
  5
800005D3
 10
-32.0119
 20
1.35983
 30
0.000000
  70
    32
  0
VERTEX
  8
0
  5
800005D4
 10
-32.5150
 20
1.65836
 30
0.000000
  70
    32
  0
VERTEX
  8
0
  5
800005D5
 10
-33.0184
 20
1.95517
 30
0.000000
  70
    32
  0
VERTEX
  8
0
  5
800005D6
 10
-33.5223
 20
2.25016
 30
0.000000
  70
    32
  0
VERTEX
  8
0
  5
800005D7
 10
-34.0266
 20
2.54325
 30
0.000000
  70
    32
  0
VERTEX
  8
0
  5
800005D8
 10
-34.5313
 20
2.83435
 30
0.000000
  70
    32
  0
VERTEX
  8
0
  5
800005D9
 10
-35.0365
 20
3.12338
 30
0.000000
  70
    32
  0
VERTEX
  8
0
  5
800005DA
 10
-35.5421
 20
3.41024
 30
0.000000
  70
    32
  0
VERTEX
  8
0
  5
800005DB
 10
-36.0483
 20
3.69484
 30
0.000000
  70
    32
  0
VERTEX
  8
0
  5
800005DC
 10
-36.5549
 20
3.97710
 30
0.000000
  70
    32
  0
VERTEX
  8
0
  5
800005DD
 10
-37.0621
 20
4.25694
 30
0.000000
  70
    32
  0
VERTEX
  8
0
  5
800005DE
 10
-37.5698
 20
4.53425
 30
0.000000
  70
    32
  0
VERTEX
  8
0
  5
800005DF
 10
-38.0781
 20
4.80897
 30
0.000000
  70
    32
  0
VERTEX
  8
0
  5
800005E0
 10
-38.5869
 20
5.08099
 30
0.000000
  70
    32
  0
VERTEX
  8
0
  5
800005E1
 10
-39.0964
 20
5.35023
 30
0.000000
  70
    32
  0
VERTEX
  8
0
  5
800005E2
 10
-39.6065
 20
5.61660
 30
0.000000
  70
    32
  0
VERTEX
  8
0
  5
800005E3
 10
-40.1172
 20
5.88002
 30
0.000000
  70
    32
  0
VERTEX
  8
0
  5
800005E4
 10
-40.6286
 20
6.14039
 30
0.000000
  70
    32
  0
VERTEX
  8
0
  5
800005E5
 10
-41.1407
 20
6.39763
 30
0.000000
  70
    32
  0
VERTEX
  8
0
  5
800005E6
 10
-41.6535
 20
6.65166
 30
0.000000
  70
    32
  0
VERTEX
  8
0
  5
800005E7
 10
-42.1670
 20
6.90238
 30
0.000000
  70
    32
  0
VERTEX
  8
0
  5
800005E8
 10
-42.6812
 20
7.14970
 30
0.000000
  70
    32
  0
VERTEX
  8
0
  5
800005E9
 10
-43.1962
 20
7.39354
 30
0.000000
  70
    32
  0
VERTEX
  8
0
  5
800005EA
 10
-43.7120
 20
7.63381
 30
0.000000
  70
    32
  0
VERTEX
  8
0
  5
800005EB
 10
-44.2286
 20
7.87042
 30
0.000000
  70
    32
  0
VERTEX
  8
0
  5
800005EC
 10
-44.7460
 20
8.10328
 30
0.000000
  70
    32
  0
VERTEX
  8
0
  5
800005ED
 10
-45.2642
 20
8.33232
 30
0.000000
  70
    32
  0
VERTEX
  8
0
  5
800005EE
 10
-45.7833
 20
8.55743
 30
0.000000
  70
    32
  0
VERTEX
  8
0
  5
800005EF
 10
-46.3032
 20
8.77853
 30
0.000000
  70
    32
  0
VERTEX
  8
0
  5
800005F0
 10
-46.8241
 20
8.99553
 30
0.000000
  70
    32
  0
VERTEX
  8
0
  5
800005F1
 10
-47.3458
 20
9.20835
 30
0.000000
  70
    32
  0
VERTEX
  8
0
  5
800005F2
 10
-47.8685
 20
9.41690
 30
0.000000
  70
    32
  0
VERTEX
  8
0
  5
800005F3
 10
-48.3921
 20
9.62109
 30
0.000000
  70
    32
  0
VERTEX
  8
0
  5
800005F4
 10
-48.9167
 20
9.82083
 30
0.000000
  70
    32
  0
VERTEX
  8
0
  5
800005F5
 10
-49.4423
 20
10.0160
 30
0.000000
  70
    32
  0
VERTEX
  8
0
  5
800005F6
 10
-49.9689
 20
10.2066
 30
0.000000
  70
    32
  0
VERTEX
  8
0
  5
800005F7
 10
-50.4965
 20
10.3925
 30
0.000000
  70
    32
  0
VERTEX
  8
0
  5
800005F8
 10
-51.0251
 20
10.5736
 30
0.000000
  70
    32
  0
VERTEX
  8
0
  5
800005F9
 10
-51.5549
 20
10.7497
 30
0.000000
  70
    32
  0
VERTEX
  8
0
  5
800005FA
 10
-52.0857
 20
10.9209
 30
0.000000
  70
    32
  0
VERTEX
  8
0
  5
800005FB
 10
-52.6176
 20
11.0871
 30
0.000000
  70
    32
  0
VERTEX
  8
0
  5
800005FC
 10
-53.1506
 20
11.2481
 30
0.000000
  70
    32
  0
VERTEX
  8
0
  5
800005FD
 10
-53.6847
 20
11.4038
 30
0.000000
  70
    32
  0
VERTEX
  8
0
  5
800005FE
 10
-54.2201
 20
11.5543
 30
0.000000
  70
    32
  0
VERTEX
  8
0
  5
800005FF
 10
-54.7566
 20
11.6993
 30
0.000000
  70
    32
  0
VERTEX
  8
0
  5
80000600
 10
-55.2943
 20
11.8388
 30
0.000000
  70
    32
  0
VERTEX
  8
0
  5
80000601
 10
-55.8332
 20
11.9727
 30
0.000000
  70
    32
  0
VERTEX
  8
0
  5
80000602
 10
-56.3733
 20
12.1010
 30
0.000000
  70
    32
  0
VERTEX
  8
0
  5
80000603
 10
-56.9147
 20
12.2235
 30
0.000000
  70
    32
  0
VERTEX
  8
0
  5
80000604
 10
-57.4574
 20
12.3401
 30
0.000000
  70
    32
  0
VERTEX
  8
0
  5
80000605
 10
-58.0014
 20
12.4508
 30
0.000000
  70
    32
  0
VERTEX
  8
0
  5
80000606
 10
-58.5466
 20
12.5554
 30
0.000000
  70
    32
  0
VERTEX
  8
0
  5
80000607
 10
-59.0932
 20
12.6540
 30
0.000000
  70
    32
  0
VERTEX
  8
0
  5
80000608
 10
-59.6412
 20
12.7463
 30
0.000000
  70
    32
  0
VERTEX
  8
0
  5
80000609
 10
-60.1905
 20
12.8324
 30
0.000000
  70
    32
  0
VERTEX
  8
0
  5
8000060A
 10
-60.7412
 20
12.9120
 30
0.000000
  70
    32
  0
VERTEX
  8
0
  5
8000060B
 10
-61.2934
 20
12.9852
 30
0.000000
  70
    32
  0
VERTEX
  8
0
  5
8000060C
 10
-61.8469
 20
13.0519
 30
0.000000
  70
    32
  0
VERTEX
  8
0
  5
8000060D
 10
-62.4019
 20
13.1119
 30
0.000000
  70
    32
  0
VERTEX
  8
0
  5
8000060E
 10
-62.9584
 20
13.1652
 30
0.000000
  70
    32
  0
VERTEX
  8
0
  5
8000060F
 10
-63.5163
 20
13.2116
 30
0.000000
  70
    32
  0
VERTEX
  8
0
  5
80000610
 10
-64.0758
 20
13.2512
 30
0.000000
  70
    32
  0
VERTEX
  8
0
  5
80000611
 10
-64.6367
 20
13.2837
 30
0.000000
  70
    32
  0
VERTEX
  8
0
  5
80000612
 10
-65.1992
 20
13.3092
 30
0.000000
  70
    32
  0
VERTEX
  8
0
  5
80000613
 10
-65.7633
 20
13.3275
 30
0.000000
  70
    32
  0
VERTEX
  8
0
  5
80000614
 10
-66.3289
 20
13.3386
 30
0.000000
  70
    32
  0
VERTEX
  8
0
  5
80000615
 10
-66.8962
 20
13.3423
 30
0.000000
  70
    32
  0
SEQEND
  8
0
  5
80000616
  0
ENDBLK
  5
FFBBDAE469BC1E68
  8
0
  0
BLOCK
  8
0
  2
*U35
 70
     1
 10
0.0
 20
0.0
 30
0.0
  3
*U35
  1

  0
TEXT
  5
FFBBDAE469BC1E6A
  8
0
  6
CONTINUOUS
 10
-132.0896509363175
 20
15.29769633048231
 30
0.0
 40
4.0
  1
James Hardie rigid air
  7
ARIAL
  0
TEXT
  5
FFBBDAE469BC1E6B
  8
0
  6
CONTINUOUS
 10
-132.30520346019199
 20
8.5628168398047304
 30
0.0
 40
4.0
  1
barrier/Building underlay
  7
ARIAL
  0
ENDBLK
  5
FFBBDAE469BC1E6D
  8
0
  0
BLOCK
  8
0
  2
*U36
 70
     1
 10
0.0
 20
0.0
 30
0.0
  3
*U36
  1

  0
SOLID
  5
FFBBDAE469BC1E6F
  8
0
  6
CONTINUOUS
 10
37.529085820948751
 20
-24.384519382709321
 30
0.0
 11
40.36050557264025
 21
-26.687357238428039
 31
0.0
 12
36.935269205671943
 22
-25.42729540248596
 32
0.0
 13
36.935269205671943
 23
-25.42729540248596
 33
0.0
  0
POLYLINE
  8
0
  5
80000617
  66
     1
 10
0.000000
 20
0.000000
 30
0.000000
  70
     8
  0
VERTEX
  8
0
  5
80000618
 10
37.2322
 20
-24.9059
 30
0.000000
  70
    32
  0
VERTEX
  8
0
  5
80000619
 10
36.4116
 20
-24.4344
 30
0.000000
  70
    32
  0
VERTEX
  8
0
  5
8000061A
 10
35.5930
 20
-23.9558
 30
0.000000
  70
    32
  0
VERTEX
  8
0
  5
8000061B
 10
34.7762
 20
-23.4701
 30
0.000000
  70
    32
  0
VERTEX
  8
0
  5
8000061C
 10
33.9612
 20
-22.9775
 30
0.000000
  70
    32
  0
VERTEX
  8
0
  5
8000061D
 10
33.1480
 20
-22.4783
 30
0.000000
  70
    32
  0
VERTEX
  8
0
  5
8000061E
 10
32.3365
 20
-21.9726
 30
0.000000
  70
    32
  0
VERTEX
  8
0
  5
8000061F
 10
31.5266
 20
-21.4606
 30
0.000000
  70
    32
  0
VERTEX
  8
0
  5
80000620
 10
30.7184
 20
-20.9424
 30
0.000000
  70
    32
  0
VERTEX
  8
0
  5
80000621
 10
29.9118
 20
-20.4182
 30
0.000000
  70
    32
  0
VERTEX
  8
0
  5
80000622
 10
29.1067
 20
-19.8883
 30
0.000000
  70
    32
  0
VERTEX
  8
0
  5
80000623
 10
28.3032
 20
-19.3527
 30
0.000000
  70
    32
  0
VERTEX
  8
0
  5
80000624
 10
27.5010
 20
-18.8117
 30
0.000000
  70
    32
  0
VERTEX
  8
0
  5
80000625
 10
26.7003
 20
-18.2654
 30
0.000000
  70
    32
  0
VERTEX
  8
0
  5
80000626
 10
25.9009
 20
-17.7139
 30
0.000000
  70
    32
  0
VERTEX
  8
0
  5
80000627
 10
25.1028
 20
-17.1576
 30
0.000000
  70
    32
  0
VERTEX
  8
0
  5
80000628
 10
24.3059
 20
-16.5965
 30
0.000000
  70
    32
  0
VERTEX
  8
0
  5
80000629
 10
23.5103
 20
-16.0308
 30
0.000000
  70
    32
  0
VERTEX
  8
0
  5
8000062A
 10
22.7159
 20
-15.4607
 30
0.000000
  70
    32
  0
VERTEX
  8
0
  5
8000062B
 10
21.9225
 20
-14.8864
 30
0.000000
  70
    32
  0
VERTEX
  8
0
  5
8000062C
 10
21.1303
 20
-14.3080
 30
0.000000
  70
    32
  0
VERTEX
  8
0
  5
8000062D
 10
20.3391
 20
-13.7257
 30
0.000000
  70
    32
  0
VERTEX
  8
0
  5
8000062E
 10
19.5488
 20
-13.1397
 30
0.000000
  70
    32
  0
VERTEX
  8
0
  5
8000062F
 10
18.7595
 20
-12.5502
 30
0.000000
  70
    32
  0
VERTEX
  8
0
  5
80000630
 10
17.9711
 20
-11.9573
 30
0.000000
  70
    32
  0
VERTEX
  8
0
  5
80000631
 10
17.1835
 20
-11.3612
 30
0.000000
  70
    32
  0
VERTEX
  8
0
  5
80000632
 10
16.3968
 20
-10.7621
 30
0.000000
  70
    32
  0
VERTEX
  8
0
  5
80000633
 10
15.6107
 20
-10.1601
 30
0.000000
  70
    32
  0
VERTEX
  8
0
  5
80000634
 10
14.8254
 20
-9.55551
 30
0.000000
  70
    32
  0
VERTEX
  8
0
  5
80000635
 10
14.0408
 20
-8.94840
 30
0.000000
  70
    32
  0
VERTEX
  8
0
  5
80000636
 10
13.2567
 20
-8.33897
 30
0.000000
  70
    32
  0
VERTEX
  8
0
  5
80000637
 10
12.4733
 20
-7.72740
 30
0.000000
  70
    32
  0
VERTEX
  8
0
  5
80000638
 10
11.6903
 20
-7.11385
 30
0.000000
  70
    32
  0
VERTEX
  8
0
  5
80000639
 10
10.9079
 20
-6.49850
 30
0.000000
  70
    32
  0
VERTEX
  8
0
  5
8000063A
 10
10.1258
 20
-5.88153
 30
0.000000
  70
    32
  0
VERTEX
  8
0
  5
8000063B
 10
9.34416
 20
-5.26311
 30
0.000000
  70
    32
  0
VERTEX
  8
0
  5
8000063C
 10
8.56284
 20
-4.64341
 30
0.000000
  70
    32
  0
VERTEX
  8
0
  5
8000063D
 10
7.78182
 20
-4.02261
 30
0.000000
  70
    32
  0
VERTEX
  8
0
  5
8000063E
 10
7.00104
 20
-3.40089
 30
0.000000
  70
    32
  0
VERTEX
  8
0
  5
8000063F
 10
6.22046
 20
-2.77840
 30
0.000000
  70
    32
  0
VERTEX
  8
0
  5
80000640
 10
5.44003
 20
-2.15534
 30
0.000000
  70
    32
  0
VERTEX
  8
0
  5
80000641
 10
4.65971
 20
-1.53187
 30
0.000000
  70
    32
  0
VERTEX
  8
0
  5
80000642
 10
3.87945
 20
-0.908173
 30
0.000000
  70
    32
  0
VERTEX
  8
0
  5
80000643
 10
3.09921
 20
-0.284415
 30
0.000000
  70
    32
  0
VERTEX
  8
0
  5
80000644
 10
2.31893
 20
0.339227
 30
0.000000
  70
    32
  0
VERTEX
  8
0
  5
80000645
 10
1.53858
 20
0.962579
 30
0.000000
  70
    32
  0
VERTEX
  8
0
  5
80000646
 10
0.758110
 20
1.58547
 30
0.000000
  70
    32
  0
VERTEX
  8
0
  5
80000647
 10
-0.0225322
 20
2.20772
 30
0.000000
  70
    32
  0
VERTEX
  8
0
  5
80000648
 10
-0.803390
 20
2.82915
 30
0.000000
  70
    32
  0
VERTEX
  8
0
  5
80000649
 10
-1.58451
 20
3.44961
 30
0.000000
  70
    32
  0
VERTEX
  8
0
  5
8000064A
 10
-2.36593
 20
4.06890
 30
0.000000
  70
    32
  0
VERTEX
  8
0
  5
8000064B
 10
-3.14771
 20
4.68685
 30
0.000000
  70
    32
  0
VERTEX
  8
0
  5
8000064C
 10
-3.92989
 20
5.30330
 30
0.000000
  70
    32
  0
VERTEX
  8
0
  5
8000064D
 10
-4.71251
 20
5.91807
 30
0.000000
  70
    32
  0
VERTEX
  8
0
  5
8000064E
 10
-5.49563
 20
6.53098
 30
0.000000
  70
    32
  0
VERTEX
  8
0
  5
8000064F
 10
-6.27928
 20
7.14186
 30
0.000000
  70
    32
  0
VERTEX
  8
0
  5
80000650
 10
-7.06352
 20
7.75054
 30
0.000000
  70
    32
  0
VERTEX
  8
0
  5
80000651
 10
-7.84839
 20
8.35683
 30
0.000000
  70
    32
  0
VERTEX
  8
0
  5
80000652
 10
-8.63393
 20
8.96058
 30
0.000000
  70
    32
  0
VERTEX
  8
0
  5
80000653
 10
-9.42019
 20
9.56159
 30
0.000000
  70
    32
  0
VERTEX
  8
0
  5
80000654
 10
-10.2072
 20
10.1597
 30
0.000000
  70
    32
  0
VERTEX
  8
0
  5
80000655
 10
-10.9951
 20
10.7548
 30
0.000000
  70
    32
  0
VERTEX
  8
0
  5
80000656
 10
-11.7838
 20
11.3465
 30
0.000000
  70
    32
  0
VERTEX
  8
0
  5
80000657
 10
-12.5734
 20
11.9349
 30
0.000000
  70
    32
  0
VERTEX
  8
0
  5
80000658
 10
-13.3640
 20
12.5197
 30
0.000000
  70
    32
  0
VERTEX
  8
0
  5
80000659
 10
-14.1555
 20
13.1007
 30
0.000000
  70
    32
  0
VERTEX
  8
0
  5
8000065A
 10
-14.9481
 20
13.6778
 30
0.000000
  70
    32
  0
VERTEX
  8
0
  5
8000065B
 10
-15.7418
 20
14.2507
 30
0.000000
  70
    32
  0
VERTEX
  8
0
  5
8000065C
 10
-16.5367
 20
14.8193
 30
0.000000
  70
    32
  0
VERTEX
  8
0
  5
8000065D
 10
-17.3327
 20
15.3835
 30
0.000000
  70
    32
  0
VERTEX
  8
0
  5
8000065E
 10
-18.1299
 20
15.9431
 30
0.000000
  70
    32
  0
VERTEX
  8
0
  5
8000065F
 10
-18.9284
 20
16.4978
 30
0.000000
  70
    32
  0
VERTEX
  8
0
  5
80000660
 10
-19.7283
 20
17.0475
 30
0.000000
  70
    32
  0
VERTEX
  8
0
  5
80000661
 10
-20.5295
 20
17.5921
 30
0.000000
  70
    32
  0
VERTEX
  8
0
  5
80000662
 10
-21.3321
 20
18.1313
 30
0.000000
  70
    32
  0
VERTEX
  8
0
  5
80000663
 10
-22.1362
 20
18.6651
 30
0.000000
  70
    32
  0
VERTEX
  8
0
  5
80000664
 10
-22.9418
 20
19.1931
 30
0.000000
  70
    32
  0
VERTEX
  8
0
  5
80000665
 10
-23.7489
 20
19.7153
 30
0.000000
  70
    32
  0
VERTEX
  8
0
  5
80000666
 10
-24.5576
 20
20.2314
 30
0.000000
  70
    32
  0
VERTEX
  8
0
  5
80000667
 10
-25.3680
 20
20.7414
 30
0.000000
  70
    32
  0
VERTEX
  8
0
  5
80000668
 10
-26.1801
 20
21.2449
 30
0.000000
  70
    32
  0
VERTEX
  8
0
  5
80000669
 10
-26.9939
 20
21.7419
 30
0.000000
  70
    32
  0
VERTEX
  8
0
  5
8000066A
 10
-27.8095
 20
22.2322
 30
0.000000
  70
    32
  0
VERTEX
  8
0
  5
8000066B
 10
-28.6269
 20
22.7156
 30
0.000000
  70
    32
  0
VERTEX
  8
0
  5
8000066C
 10
-29.4462
 20
23.1919
 30
0.000000
  70
    32
  0
VERTEX
  8
0
  5
8000066D
 10
-30.2674
 20
23.6609
 30
0.000000
  70
    32
  0
VERTEX
  8
0
  5
8000066E
 10
-31.0906
 20
24.1226
 30
0.000000
  70
    32
  0
VERTEX
  8
0
  5
8000066F
 10
-31.9157
 20
24.5766
 30
0.000000
  70
    32
  0
VERTEX
  8
0
  5
80000670
 10
-32.7430
 20
25.0228
 30
0.000000
  70
    32
  0
VERTEX
  8
0
  5
80000671
 10
-33.5723
 20
25.4611
 30
0.000000
  70
    32
  0
VERTEX
  8
0
  5
80000672
 10
-34.4038
 20
25.8913
 30
0.000000
  70
    32
  0
VERTEX
  8
0
  5
80000673
 10
-35.2375
 20
26.3132
 30
0.000000
  70
    32
  0
VERTEX
  8
0
  5
80000674
 10
-36.0735
 20
26.7266
 30
0.000000
  70
    32
  0
VERTEX
  8
0
  5
80000675
 10
-36.9117
 20
27.1314
 30
0.000000
  70
    32
  0
VERTEX
  8
0
  5
80000676
 10
-37.7522
 20
27.5273
 30
0.000000
  70
    32
  0
VERTEX
  8
0
  5
80000677
 10
-38.5952
 20
27.9143
 30
0.000000
  70
    32
  0
VERTEX
  8
0
  5
80000678
 10
-39.4406
 20
28.2921
 30
0.000000
  70
    32
  0
VERTEX
  8
0
  5
80000679
 10
-40.2884
 20
28.6605
 30
0.000000
  70
    32
  0
VERTEX
  8
0
  5
8000067A
 10
-41.1388
 20
29.0195
 30
0.000000
  70
    32
  0
VERTEX
  8
0
  5
8000067B
 10
-41.9917
 20
29.3687
 30
0.000000
  70
    32
  0
VERTEX
  8
0
  5
8000067C
 10
-42.8472
 20
29.7081
 30
0.000000
  70
    32
  0
VERTEX
  8
0
  5
8000067D
 10
-43.7054
 20
30.0375
 30
0.000000
  70
    32
  0
VERTEX
  8
0
  5
8000067E
 10
-44.5663
 20
30.3566
 30
0.000000
  70
    32
  0
VERTEX
  8
0
  5
8000067F
 10
-45.4299
 20
30.6654
 30
0.000000
  70
    32
  0
VERTEX
  8
0
  5
80000680
 10
-46.2964
 20
30.9636
 30
0.000000
  70
    32
  0
VERTEX
  8
0
  5
80000681
 10
-47.1657
 20
31.2510
 30
0.000000
  70
    32
  0
VERTEX
  8
0
  5
80000682
 10
-48.0378
 20
31.5276
 30
0.000000
  70
    32
  0
VERTEX
  8
0
  5
80000683
 10
-48.9129
 20
31.7931
 30
0.000000
  70
    32
  0
VERTEX
  8
0
  5
80000684
 10
-49.7910
 20
32.0473
 30
0.000000
  70
    32
  0
VERTEX
  8
0
  5
80000685
 10
-50.6721
 20
32.2901
 30
0.000000
  70
    32
  0
VERTEX
  8
0
  5
80000686
 10
-51.5563
 20
32.5213
 30
0.000000
  70
    32
  0
VERTEX
  8
0
  5
80000687
 10
-52.4436
 20
32.7407
 30
0.000000
  70
    32
  0
VERTEX
  8
0
  5
80000688
 10
-53.3341
 20
32.9482
 30
0.000000
  70
    32
  0
VERTEX
  8
0
  5
80000689
 10
-54.2277
 20
33.1436
 30
0.000000
  70
    32
  0
VERTEX
  8
0
  5
8000068A
 10
-55.1247
 20
33.3266
 30
0.000000
  70
    32
  0
VERTEX
  8
0
  5
8000068B
 10
-56.0249
 20
33.4972
 30
0.000000
  70
    32
  0
VERTEX
  8
0
  5
8000068C
 10
-56.9285
 20
33.6551
 30
0.000000
  70
    32
  0
VERTEX
  8
0
  5
8000068D
 10
-57.8354
 20
33.8002
 30
0.000000
  70
    32
  0
VERTEX
  8
0
  5
8000068E
 10
-58.7459
 20
33.9324
 30
0.000000
  70
    32
  0
VERTEX
  8
0
  5
8000068F
 10
-59.6598
 20
34.0513
 30
0.000000
  70
    32
  0
VERTEX
  8
0
  5
80000690
 10
-60.5772
 20
34.1569
 30
0.000000
  70
    32
  0
VERTEX
  8
0
  5
80000691
 10
-61.4982
 20
34.2490
 30
0.000000
  70
    32
  0
VERTEX
  8
0
  5
80000692
 10
-62.4228
 20
34.3274
 30
0.000000
  70
    32
  0
VERTEX
  8
0
  5
80000693
 10
-63.3511
 20
34.3920
 30
0.000000
  70
    32
  0
VERTEX
  8
0
  5
80000694
 10
-64.2832
 20
34.4425
 30
0.000000
  70
    32
  0
VERTEX
  8
0
  5
80000695
 10
-65.2190
 20
34.4787
 30
0.000000
  70
    32
  0
VERTEX
  8
0
  5
80000696
 10
-66.1586
 20
34.5006
 30
0.000000
  70
    32
  0
VERTEX
  8
0
  5
80000697
 10
-67.1020
 20
34.5080
 30
0.000000
  70
    32
  0
SEQEND
  8
0
  5
80000698
  0
ENDBLK
  5
FFBBDAE469BC1E72
  8
0
  0
BLOCK
  8
0
  2
*U37
 70
     1
 10
0.0
 20
0.0
 30
0.0
  3
*U37
  1

  0
TEXT
  5
FFBBDAE469BC1E74
  8
0
  6
CONTINUOUS
 10
-125.59313798683731
 20
33.095969260293337
 30
0.0
 40
4.0
  1
Flexible sealant in joint
  7
ARIAL
  0
ENDBLK
  5
FFBBDAE469BC1E76
  8
0
  0
BLOCK
  8
0
  2
*U38
 70
     1
 10
0.0
 20
0.0
 30
0.0
  3
*U38
  1

  0
SOLID
  5
FFBBDAE469BC1E78
  8
0
  6
CONTINUOUS
 10
11.161476036540201
 20
40.506317432977703
 30
0.0
 11
13.38714181745399
 21
37.613842397360372
 31
0.0
 12
10.34368228341641
 22
39.628129880485801
 32
0.0
 13
10.34368228341641
 23
39.628129880485801
 33
0.0
  0
POLYLINE
  8
0
  5
80000699
  66
     1
 10
0.000000
 20
0.000000
 30
0.000000
  70
     8
  0
VERTEX
  8
0
  5
8000069A
 10
10.7526
 20
40.0672
 30
0.000000
  70
    32
  0
VERTEX
  8
0
  5
8000069B
 10
10.1091
 20
40.6728
 30
0.000000
  70
    32
  0
VERTEX
  8
0
  5
8000069C
 10
9.46931
 20
41.2877
 30
0.000000
  70
    32
  0
VERTEX
  8
0
  5
8000069D
 10
8.83304
 20
41.9116
 30
0.000000
  70
    32
  0
VERTEX
  8
0
  5
8000069E
 10
8.20023
 20
42.5442
 30
0.000000
  70
    32
  0
VERTEX
  8
0
  5
8000069F
 10
7.57080
 20
43.1855
 30
0.000000
  70
    32
  0
VERTEX
  8
0
  5
800006A0
 10
6.94465
 20
43.8350
 30
0.000000
  70
    32
  0
VERTEX
  8
0
  5
800006A1
 10
6.32169
 20
44.4927
 30
0.000000
  70
    32
  0
VERTEX
  8
0
  5
800006A2
 10
5.70184
 20
45.1583
 30
0.000000
  70
    32
  0
VERTEX
  8
0
  5
800006A3
 10
5.08501
 20
45.8316
 30
0.000000
  70
    32
  0
VERTEX
  8
0
  5
800006A4
 10
4.47112
 20
46.5124
 30
0.000000
  70
    32
  0
VERTEX
  8
0
  5
800006A5
 10
3.86007
 20
47.2003
 30
0.000000
  70
    32
  0
VERTEX
  8
0
  5
800006A6
 10
3.25177
 20
47.8953
 30
0.000000
  70
    32
  0
VERTEX
  8
0
  5
800006A7
 10
2.64615
 20
48.5970
 30
0.000000
  70
    32
  0
VERTEX
  8
0
  5
800006A8
 10
2.04310
 20
49.3053
 30
0.000000
  70
    32
  0
VERTEX
  8
0
  5
800006A9
 10
1.44255
 20
50.0199
 30
0.000000
  70
    32
  0
VERTEX
  8
0
  5
800006AA
 10
0.844398
 20
50.7407
 30
0.000000
  70
    32
  0
VERTEX
  8
0
  5
800006AB
 10
0.248566
 20
51.4673
 30
0.000000
  70
    32
  0
VERTEX
  8
0
  5
800006AC
 10
-0.345039
 20
52.1996
 30
0.000000
  70
    32
  0
VERTEX
  8
0
  5
800006AD
 10
-0.936502
 20
52.9373
 30
0.000000
  70
    32
  0
VERTEX
  8
0
  5
800006AE
 10
-1.52591
 20
53.6803
 30
0.000000
  70
    32
  0
VERTEX
  8
0
  5
800006AF
 10
-2.11336
 20
54.4282
 30
0.000000
  70
    32
  0
VERTEX
  8
0
  5
800006B0
 10
-2.69893
 20
55.1809
 30
0.000000
  70
    32
  0
VERTEX
  8
0
  5
800006B1
 10
-3.28271
 20
55.9382
 30
0.000000
  70
    32
  0
VERTEX
  8
0
  5
800006B2
 10
-3.86479
 20
56.6997
 30
0.000000
  70
    32
  0
VERTEX
  8
0
  5
800006B3
 10
-4.44526
 20
57.4654
 30
0.000000
  70
    32
  0
VERTEX
  8
0
  5
800006B4
 10
-5.02420
 20
58.2350
 30
0.000000
  70
    32
  0
VERTEX
  8
0
  5
800006B5
 10
-5.60171
 20
59.0082
 30
0.000000
  70
    32
  0
VERTEX
  8
0
  5
800006B6
 10
-6.17787
 20
59.7848
 30
0.000000
  70
    32
  0
VERTEX
  8
0
  5
800006B7
 10
-6.75276
 20
60.5646
 30
0.000000
  70
    32
  0
VERTEX
  8
0
  5
800006B8
 10
-7.32649
 20
61.3474
 30
0.000000
  70
    32
  0
VERTEX
  8
0
  5
800006B9
 10
-7.89912
 20
62.1330
 30
0.000000
  70
    32
  0
VERTEX
  8
0
  5
800006BA
 10
-8.47077
 20
62.9211
 30
0.000000
  70
    32
  0
VERTEX
  8
0
  5
800006BB
 10
-9.04150
 20
63.7115
 30
0.000000
  70
    32
  0
VERTEX
  8
0
  5
800006BC
 10
-9.61141
 20
64.5040
 30
0.000000
  70
    32
  0
VERTEX
  8
0
  5
800006BD
 10
-10.1806
 20
65.2984
 30
0.000000
  70
    32
  0
VERTEX
  8
0
  5
800006BE
 10
-10.7491
 20
66.0944
 30
0.000000
  70
    32
  0
VERTEX
  8
0
  5
800006BF
 10
-11.3171
 20
66.8918
 30
0.000000
  70
    32
  0
VERTEX
  8
0
  5
800006C0
 10
-11.8846
 20
67.6904
 30
0.000000
  70
    32
  0
VERTEX
  8
0
  5
800006C1
 10
-12.4517
 20
68.4900
 30
0.000000
  70
    32
  0
VERTEX
  8
0
  5
800006C2
 10
-13.0186
 20
69.2903
 30
0.000000
  70
    32
  0
VERTEX
  8
0
  5
800006C3
 10
-13.5852
 20
70.0911
 30
0.000000
  70
    32
  0
VERTEX
  8
0
  5
800006C4
 10
-14.1517
 20
70.8923
 30
0.000000
  70
    32
  0
VERTEX
  8
0
  5
800006C5
 10
-14.7182
 20
71.6935
 30
0.000000
  70
    32
  0
VERTEX
  8
0
  5
800006C6
 10
-15.2847
 20
72.4946
 30
0.000000
  70
    32
  0
VERTEX
  8
0
  5
800006C7
 10
-15.8514
 20
73.2953
 30
0.000000
  70
    32
  0
VERTEX
  8
0
  5
800006C8
 10
-16.4183
 20
74.0954
 30
0.000000
  70
    32
  0
VERTEX
  8
0
  5
800006C9
 10
-16.9856
 20
74.8946
 30
0.000000
  70
    32
  0
VERTEX
  8
0
  5
800006CA
 10
-17.5532
 20
75.6929
 30
0.000000
  70
    32
  0
VERTEX
  8
0
  5
800006CB
 10
-18.1214
 20
76.4898
 30
0.000000
  70
    32
  0
VERTEX
  8
0
  5
800006CC
 10
-18.6901
 20
77.2853
 30
0.000000
  70
    32
  0
VERTEX
  8
0
  5
800006CD
 10
-19.2595
 20
78.0791
 30
0.000000
  70
    32
  0
VERTEX
  8
0
  5
800006CE
 10
-19.8297
 20
78.8709
 30
0.000000
  70
    32
  0
VERTEX
  8
0
  5
800006CF
 10
-20.4007
 20
79.6606
 30
0.000000
  70
    32
  0
VERTEX
  8
0
  5
800006D0
 10
-20.9727
 20
80.4479
 30
0.000000
  70
    32
  0
VERTEX
  8
0
  5
800006D1
 10
-21.5457
 20
81.2325
 30
0.000000
  70
    32
  0
VERTEX
  8
0
  5
800006D2
 10
-22.1198
 20
82.0144
 30
0.000000
  70
    32
  0
VERTEX
  8
0
  5
800006D3
 10
-22.6951
 20
82.7932
 30
0.000000
  70
    32
  0
VERTEX
  8
0
  5
800006D4
 10
-23.2717
 20
83.5687
 30
0.000000
  70
    32
  0
VERTEX
  8
0
  5
800006D5
 10
-23.8497
 20
84.3407
 30
0.000000
  70
    32
  0
VERTEX
  8
0
  5
800006D6
 10
-24.4291
 20
85.1090
 30
0.000000
  70
    32
  0
VERTEX
  8
0
  5
800006D7
 10
-25.0101
 20
85.8733
 30
0.000000
  70
    32
  0
VERTEX
  8
0
  5
800006D8
 10
-25.5927
 20
86.6335
 30
0.000000
  70
    32
  0
VERTEX
  8
0
  5
800006D9
 10
-26.1771
 20
87.3892
 30
0.000000
  70
    32
  0
VERTEX
  8
0
  5
800006DA
 10
-26.7633
 20
88.1404
 30
0.000000
  70
    32
  0
VERTEX
  8
0
  5
800006DB
 10
-27.3514
 20
88.8867
 30
0.000000
  70
    32
  0
VERTEX
  8
0
  5
800006DC
 10
-27.9415
 20
89.6279
 30
0.000000
  70
    32
  0
VERTEX
  8
0
  5
800006DD
 10
-28.5336
 20
90.3638
 30
0.000000
  70
    32
  0
VERTEX
  8
0
  5
800006DE
 10
-29.1280
 20
91.0943
 30
0.000000
  70
    32
  0
VERTEX
  8
0
  5
800006DF
 10
-29.7246
 20
91.8190
 30
0.000000
  70
    32
  0
VERTEX
  8
0
  5
800006E0
 10
-30.3235
 20
92.5377
 30
0.000000
  70
    32
  0
VERTEX
  8
0
  5
800006E1
 10
-30.9249
 20
93.2502
 30
0.000000
  70
    32
  0
VERTEX
  8
0
  5
800006E2
 10
-31.5288
 20
93.9564
 30
0.000000
  70
    32
  0
VERTEX
  8
0
  5
800006E3
 10
-32.1353
 20
94.6559
 30
0.000000
  70
    32
  0
VERTEX
  8
0
  5
800006E4
 10
-32.7445
 20
95.3485
 30
0.000000
  70
    32
  0
VERTEX
  8
0
  5
800006E5
 10
-33.3565
 20
96.0341
 30
0.000000
  70
    32
  0
VERTEX
  8
0
  5
800006E6
 10
-33.9714
 20
96.7124
 30
0.000000
  70
    32
  0
VERTEX
  8
0
  5
800006E7
 10
-34.5892
 20
97.3831
 30
0.000000
  70
    32
  0
VERTEX
  8
0
  5
800006E8
 10
-35.2101
 20
98.0461
 30
0.000000
  70
    32
  0
VERTEX
  8
0
  5
800006E9
 10
-35.8341
 20
98.7011
 30
0.000000
  70
    32
  0
VERTEX
  8
0
  5
800006EA
 10
-36.4613
 20
99.3479
 30
0.000000
  70
    32
  0
VERTEX
  8
0
  5
800006EB
 10
-37.0919
 20
99.9863
 30
0.000000
  70
    32
  0
VERTEX
  8
0
  5
800006EC
 10
-37.7258
 20
100.616
 30
0.000000
  70
    32
  0
VERTEX
  8
0
  5
800006ED
 10
-38.3632
 20
101.237
 30
0.000000
  70
    32
  0
VERTEX
  8
0
  5
800006EE
 10
-39.0043
 20
101.849
 30
0.000000
  70
    32
  0
VERTEX
  8
0
  5
800006EF
 10
-39.6489
 20
102.451
 30
0.000000
  70
    32
  0
VERTEX
  8
0
  5
800006F0
 10
-40.2974
 20
103.044
 30
0.000000
  70
    32
  0
VERTEX
  8
0
  5
800006F1
 10
-40.9497
 20
103.627
 30
0.000000
  70
    32
  0
VERTEX
  8
0
  5
800006F2
 10
-41.6059
 20
104.201
 30
0.000000
  70
    32
  0
VERTEX
  8
0
  5
800006F3
 10
-42.2661
 20
104.764
 30
0.000000
  70
    32
  0
VERTEX
  8
0
  5
800006F4
 10
-42.9304
 20
105.316
 30
0.000000
  70
    32
  0
VERTEX
  8
0
  5
800006F5
 10
-43.5989
 20
105.858
 30
0.000000
  70
    32
  0
VERTEX
  8
0
  5
800006F6
 10
-44.2717
 20
106.389
 30
0.000000
  70
    32
  0
VERTEX
  8
0
  5
800006F7
 10
-44.9489
 20
106.909
 30
0.000000
  70
    32
  0
VERTEX
  8
0
  5
800006F8
 10
-45.6306
 20
107.418
 30
0.000000
  70
    32
  0
VERTEX
  8
0
  5
800006F9
 10
-46.3167
 20
107.915
 30
0.000000
  70
    32
  0
VERTEX
  8
0
  5
800006FA
 10
-47.0075
 20
108.400
 30
0.000000
  70
    32
  0
VERTEX
  8
0
  5
800006FB
 10
-47.7031
 20
108.873
 30
0.000000
  70
    32
  0
VERTEX
  8
0
  5
800006FC
 10
-48.4034
 20
109.334
 30
0.000000
  70
    32
  0
VERTEX
  8
0
  5
800006FD
 10
-49.1086
 20
109.783
 30
0.000000
  70
    32
  0
VERTEX
  8
0
  5
800006FE
 10
-49.8189
 20
110.219
 30
0.000000
  70
    32
  0
VERTEX
  8
0
  5
800006FF
 10
-50.5341
 20
110.642
 30
0.000000
  70
    32
  0
VERTEX
  8
0
  5
80000700
 10
-51.2546
 20
111.052
 30
0.000000
  70
    32
  0
VERTEX
  8
0
  5
80000701
 10
-51.9803
 20
111.448
 30
0.000000
  70
    32
  0
VERTEX
  8
0
  5
80000702
 10
-52.7113
 20
111.831
 30
0.000000
  70
    32
  0
VERTEX
  8
0
  5
80000703
 10
-53.4478
 20
112.201
 30
0.000000
  70
    32
  0
VERTEX
  8
0
  5
80000704
 10
-54.1898
 20
112.556
 30
0.000000
  70
    32
  0
VERTEX
  8
0
  5
80000705
 10
-54.9374
 20
112.897
 30
0.000000
  70
    32
  0
VERTEX
  8
0
  5
80000706
 10
-55.6906
 20
113.224
 30
0.000000
  70
    32
  0
VERTEX
  8
0
  5
80000707
 10
-56.4497
 20
113.535
 30
0.000000
  70
    32
  0
VERTEX
  8
0
  5
80000708
 10
-57.2146
 20
113.832
 30
0.000000
  70
    32
  0
VERTEX
  8
0
  5
80000709
 10
-57.9854
 20
114.114
 30
0.000000
  70
    32
  0
VERTEX
  8
0
  5
8000070A
 10
-58.7623
 20
114.381
 30
0.000000
  70
    32
  0
VERTEX
  8
0
  5
8000070B
 10
-59.5454
 20
114.632
 30
0.000000
  70
    32
  0
VERTEX
  8
0
  5
8000070C
 10
-60.3346
 20
114.867
 30
0.000000
  70
    32
  0
VERTEX
  8
0
  5
8000070D
 10
-61.1301
 20
115.086
 30
0.000000
  70
    32
  0
VERTEX
  8
0
  5
8000070E
 10
-61.9321
 20
115.289
 30
0.000000
  70
    32
  0
VERTEX
  8
0
  5
8000070F
 10
-62.7405
 20
115.475
 30
0.000000
  70
    32
  0
VERTEX
  8
0
  5
80000710
 10
-63.5555
 20
115.645
 30
0.000000
  70
    32
  0
VERTEX
  8
0
  5
80000711
 10
-64.3771
 20
115.798
 30
0.000000
  70
    32
  0
VERTEX
  8
0
  5
80000712
 10
-65.2055
 20
115.933
 30
0.000000
  70
    32
  0
VERTEX
  8
0
  5
80000713
 10
-66.0407
 20
116.052
 30
0.000000
  70
    32
  0
VERTEX
  8
0
  5
80000714
 10
-66.8829
 20
116.152
 30
0.000000
  70
    32
  0
VERTEX
  8
0
  5
80000715
 10
-67.7320
 20
116.235
 30
0.000000
  70
    32
  0
VERTEX
  8
0
  5
80000716
 10
-68.5883
 20
116.300
 30
0.000000
  70
    32
  0
VERTEX
  8
0
  5
80000717
 10
-69.4517
 20
116.347
 30
0.000000
  70
    32
  0
VERTEX
  8
0
  5
80000718
 10
-70.3224
 20
116.375
 30
0.000000
  70
    32
  0
VERTEX
  8
0
  5
80000719
 10
-71.2005
 20
116.384
 30
0.000000
  70
    32
  0
SEQEND
  8
0
  5
8000071A
  0
ENDBLK
  5
FFBBDAE469BC1E7B
  8
0
  0
BLOCK
  8
0
  2
*U39
 70
     1
 10
0.0
 20
0.0
 30
0.0
  3
*U39
  1

  0
TEXT
  5
FFBBDAE469BC1E7D
  8
0
  6
CONTINUOUS
 10
-124.6738667214843
 20
114.93953523688999
 30
0.0
 40
4.0
  1
Double stud required
  7
ARIAL
  0
ENDBLK
  5
FFBBDAE469BC1E7F
  8
0
  0
BLOCK
  8
0
  2
*U40
 70
     1
 10
0.0
 20
0.0
 30
0.0
  3
*U40
  1

  0
SOLID
  5
FFBBDAE469BC1EAA
  8
0
  6
CONTINUOUS
 10
48.489804673609889
 20
-34.805132306204897
 30
0.0
 11
46.0
 21
-32.136635971699206
 31
0.0
 12
49.220678907849042
 22
-33.85338504262841
 32
0.0
 13
49.220678907849042
 23
-33.85338504262841
 33
0.0
  0
POLYLINE
  8
0
  5
8000071B
  66
     1
 10
0.000000
 20
0.000000
 30
0.000000
  70
     8
  0
VERTEX
  8
0
  5
8000071C
 10
48.8552
 20
-34.3293
 30
0.000000
  70
    32
  0
VERTEX
  8
0
  5
8000071D
 10
49.3962
 20
-34.7488
 30
0.000000
  70
    32
  0
VERTEX
  8
0
  5
8000071E
 10
49.9350
 20
-35.1747
 30
0.000000
  70
    32
  0
VERTEX
  8
0
  5
8000071F
 10
50.4716
 20
-35.6069
 30
0.000000
  70
    32
  0
VERTEX
  8
0
  5
80000720
 10
51.0062
 20
-36.0451
 30
0.000000
  70
    32
  0
VERTEX
  8
0
  5
80000721
 10
51.5388
 20
-36.4893
 30
0.000000
  70
    32
  0
VERTEX
  8
0
  5
80000722
 10
52.0694
 20
-36.9393
 30
0.000000
  70
    32
  0
VERTEX
  8
0
  5
80000723
 10
52.5981
 20
-37.3949
 30
0.000000
  70
    32
  0
VERTEX
  8
0
  5
80000724
 10
53.1250
 20
-37.8559
 30
0.000000
  70
    32
  0
VERTEX
  8
0
  5
80000725
 10
53.6500
 20
-38.3223
 30
0.000000
  70
    32
  0
VERTEX
  8
0
  5
80000726
 10
54.1733
 20
-38.7939
 30
0.000000
  70
    32
  0
VERTEX
  8
0
  5
80000727
 10
54.6949
 20
-39.2704
 30
0.000000
  70
    32
  0
VERTEX
  8
0
  5
80000728
 10
55.2148
 20
-39.7518
 30
0.000000
  70
    32
  0
VERTEX
  8
0
  5
80000729
 10
55.7332
 20
-40.2379
 30
0.000000
  70
    32
  0
VERTEX
  8
0
  5
8000072A
 10
56.2499
 20
-40.7286
 30
0.000000
  70
    32
  0
VERTEX
  8
0
  5
8000072B
 10
56.7653
 20
-41.2236
 30
0.000000
  70
    32
  0
VERTEX
  8
0
  5
8000072C
 10
57.2791
 20
-41.7229
 30
0.000000
  70
    32
  0
VERTEX
  8
0
  5
8000072D
 10
57.7916
 20
-42.2262
 30
0.000000
  70
    32
  0
VERTEX
  8
0
  5
8000072E
 10
58.3028
 20
-42.7335
 30
0.000000
  70
    32
  0
VERTEX
  8
0
  5
8000072F
 10
58.8126
 20
-43.2445
 30
0.000000
  70
    32
  0
VERTEX
  8
0
  5
80000730
 10
59.3213
 20
-43.7592
 30
0.000000
  70
    32
  0
VERTEX
  8
0
  5
80000731
 10
59.8287
 20
-44.2773
 30
0.000000
  70
    32
  0
VERTEX
  8
0
  5
80000732
 10
60.3351
 20
-44.7987
 30
0.000000
  70
    32
  0
VERTEX
  8
0
  5
80000733
 10
60.8404
 20
-45.3232
 30
0.000000
  70
    32
  0
VERTEX
  8
0
  5
80000734
 10
61.3446
 20
-45.8508
 30
0.000000
  70
    32
  0
VERTEX
  8
0
  5
80000735
 10
61.8479
 20
-46.3812
 30
0.000000
  70
    32
  0
VERTEX
  8
0
  5
80000736
 10
62.3503
 20
-46.9142
 30
0.000000
  70
    32
  0
VERTEX
  8
0
  5
80000737
 10
62.8518
 20
-47.4498
 30
0.000000
  70
    32
  0
VERTEX
  8
0
  5
80000738
 10
63.3526
 20
-47.9878
 30
0.000000
  70
    32
  0
VERTEX
  8
0
  5
80000739
 10
63.8525
 20
-48.5280
 30
0.000000
  70
    32
  0
VERTEX
  8
0
  5
8000073A
 10
64.3518
 20
-49.0703
 30
0.000000
  70
    32
  0
VERTEX
  8
0
  5
8000073B
 10
64.8504
 20
-49.6145
 30
0.000000
  70
    32
  0
VERTEX
  8
0
  5
8000073C
 10
65.3484
 20
-50.1604
 30
0.000000
  70
    32
  0
VERTEX
  8
0
  5
8000073D
 10
65.8459
 20
-50.7079
 30
0.000000
  70
    32
  0
VERTEX
  8
0
  5
8000073E
 10
66.3429
 20
-51.2569
 30
0.000000
  70
    32
  0
VERTEX
  8
0
  5
8000073F
 10
66.8394
 20
-51.8071
 30
0.000000
  70
    32
  0
VERTEX
  8
0
  5
80000740
 10
67.3356
 20
-52.3585
 30
0.000000
  70
    32
  0
VERTEX
  8
0
  5
80000741
 10
67.8314
 20
-52.9109
 30
0.000000
  70
    32
  0
VERTEX
  8
0
  5
80000742
 10
68.3270
 20
-53.4641
 30
0.000000
  70
    32
  0
VERTEX
  8
0
  5
80000743
 10
68.8223
 20
-54.0180
 30
0.000000
  70
    32
  0
VERTEX
  8
0
  5
80000744
 10
69.3174
 20
-54.5724
 30
0.000000
  70
    32
  0
VERTEX
  8
0
  5
80000745
 10
69.8125
 20
-55.1271
 30
0.000000
  70
    32
  0
VERTEX
  8
0
  5
80000746
 10
70.3074
 20
-55.6821
 30
0.000000
  70
    32
  0
VERTEX
  8
0
  5
80000747
 10
70.8024
 20
-56.2371
 30
0.000000
  70
    32
  0
VERTEX
  8
0
  5
80000748
 10
71.2973
 20
-56.7920
 30
0.000000
  70
    32
  0
VERTEX
  8
0
  5
80000749
 10
71.7924
 20
-57.3467
 30
0.000000
  70
    32
  0
VERTEX
  8
0
  5
8000074A
 10
72.2876
 20
-57.9009
 30
0.000000
  70
    32
  0
VERTEX
  8
0
  5
8000074B
 10
72.7830
 20
-58.4546
 30
0.000000
  70
    32
  0
VERTEX
  8
0
  5
8000074C
 10
73.2786
 20
-59.0075
 30
0.000000
  70
    32
  0
VERTEX
  8
0
  5
8000074D
 10
73.7745
 20
-59.5596
 30
0.000000
  70
    32
  0
VERTEX
  8
0
  5
8000074E
 10
74.2708
 20
-60.1106
 30
0.000000
  70
    32
  0
VERTEX
  8
0
  5
8000074F
 10
74.7675
 20
-60.6605
 30
0.000000
  70
    32
  0
VERTEX
  8
0
  5
80000750
 10
75.2646
 20
-61.2090
 30
0.000000
  70
    32
  0
VERTEX
  8
0
  5
80000751
 10
75.7623
 20
-61.7560
 30
0.000000
  70
    32
  0
VERTEX
  8
0
  5
80000752
 10
76.2605
 20
-62.3014
 30
0.000000
  70
    32
  0
VERTEX
  8
0
  5
80000753
 10
76.7593
 20
-62.8449
 30
0.000000
  70
    32
  0
VERTEX
  8
0
  5
80000754
 10
77.2588
 20
-63.3865
 30
0.000000
  70
    32
  0
VERTEX
  8
0
  5
80000755
 10
77.7590
 20
-63.9260
 30
0.000000
  70
    32
  0
VERTEX
  8
0
  5
80000756
 10
78.2600
 20
-64.4632
 30
0.000000
  70
    32
  0
VERTEX
  8
0
  5
80000757
 10
78.7618
 20
-64.9979
 30
0.000000
  70
    32
  0
VERTEX
  8
0
  5
80000758
 10
79.2645
 20
-65.5301
 30
0.000000
  70
    32
  0
VERTEX
  8
0
  5
80000759
 10
79.7681
 20
-66.0596
 30
0.000000
  70
    32
  0
VERTEX
  8
0
  5
8000075A
 10
80.2727
 20
-66.5862
 30
0.000000
  70
    32
  0
VERTEX
  8
0
  5
8000075B
 10
80.7784
 20
-67.1097
 30
0.000000
  70
    32
  0
VERTEX
  8
0
  5
8000075C
 10
81.2851
 20
-67.6300
 30
0.000000
  70
    32
  0
VERTEX
  8
0
  5
8000075D
 10
81.7929
 20
-68.1470
 30
0.000000
  70
    32
  0
VERTEX
  8
0
  5
8000075E
 10
82.3020
 20
-68.6605
 30
0.000000
  70
    32
  0
VERTEX
  8
0
  5
8000075F
 10
82.8123
 20
-69.1702
 30
0.000000
  70
    32
  0
VERTEX
  8
0
  5
80000760
 10
83.3239
 20
-69.6762
 30
0.000000
  70
    32
  0
VERTEX
  8
0
  5
80000761
 10
83.8368
 20
-70.1782
 30
0.000000
  70
    32
  0
VERTEX
  8
0
  5
80000762
 10
84.3511
 20
-70.6761
 30
0.000000
  70
    32
  0
VERTEX
  8
0
  5
80000763
 10
84.8669
 20
-71.1697
 30
0.000000
  70
    32
  0
VERTEX
  8
0
  5
80000764
 10
85.3842
 20
-71.6588
 30
0.000000
  70
    32
  0
VERTEX
  8
0
  5
80000765
 10
85.9031
 20
-72.1434
 30
0.000000
  70
    32
  0
VERTEX
  8
0
  5
80000766
 10
86.4236
 20
-72.6232
 30
0.000000
  70
    32
  0
VERTEX
  8
0
  5
80000767
 10
86.9457
 20
-73.0981
 30
0.000000
  70
    32
  0
VERTEX
  8
0
  5
80000768
 10
87.4696
 20
-73.5679
 30
0.000000
  70
    32
  0
VERTEX
  8
0
  5
80000769
 10
87.9952
 20
-74.0326
 30
0.000000
  70
    32
  0
VERTEX
  8
0
  5
8000076A
 10
88.5227
 20
-74.4918
 30
0.000000
  70
    32
  0
VERTEX
  8
0
  5
8000076B
 10
89.0520
 20
-74.9456
 30
0.000000
  70
    32
  0
VERTEX
  8
0
  5
8000076C
 10
89.5833
 20
-75.3936
 30
0.000000
  70
    32
  0
VERTEX
  8
0
  5
8000076D
 10
90.1165
 20
-75.8359
 30
0.000000
  70
    32
  0
VERTEX
  8
0
  5
8000076E
 10
90.6518
 20
-76.2721
 30
0.000000
  70
    32
  0
VERTEX
  8
0
  5
8000076F
 10
91.1892
 20
-76.7022
 30
0.000000
  70
    32
  0
VERTEX
  8
0
  5
80000770
 10
91.7287
 20
-77.1260
 30
0.000000
  70
    32
  0
VERTEX
  8
0
  5
80000771
 10
92.2704
 20
-77.5433
 30
0.000000
  70
    32
  0
VERTEX
  8
0
  5
80000772
 10
92.8143
 20
-77.9541
 30
0.000000
  70
    32
  0
VERTEX
  8
0
  5
80000773
 10
93.3605
 20
-78.3581
 30
0.000000
  70
    32
  0
VERTEX
  8
0
  5
80000774
 10
93.9091
 20
-78.7551
 30
0.000000
  70
    32
  0
VERTEX
  8
0
  5
80000775
 10
94.4601
 20
-79.1451
 30
0.000000
  70
    32
  0
VERTEX
  8
0
  5
80000776
 10
95.0135
 20
-79.5279
 30
0.000000
  70
    32
  0
VERTEX
  8
0
  5
80000777
 10
95.5695
 20
-79.9033
 30
0.000000
  70
    32
  0
VERTEX
  8
0
  5
80000778
 10
96.1280
 20
-80.2711
 30
0.000000
  70
    32
  0
VERTEX
  8
0
  5
80000779
 10
96.6891
 20
-80.6313
 30
0.000000
  70
    32
  0
VERTEX
  8
0
  5
8000077A
 10
97.2529
 20
-80.9836
 30
0.000000
  70
    32
  0
VERTEX
  8
0
  5
8000077B
 10
97.8194
 20
-81.3279
 30
0.000000
  70
    32
  0
VERTEX
  8
0
  5
8000077C
 10
98.3887
 20
-81.6640
 30
0.000000
  70
    32
  0
VERTEX
  8
0
  5
8000077D
 10
98.9608
 20
-81.9919
 30
0.000000
  70
    32
  0
VERTEX
  8
0
  5
8000077E
 10
99.5357
 20
-82.3113
 30
0.000000
  70
    32
  0
VERTEX
  8
0
  5
8000077F
 10
100.114
 20
-82.6220
 30
0.000000
  70
    32
  0
VERTEX
  8
0
  5
80000780
 10
100.695
 20
-82.9240
 30
0.000000
  70
    32
  0
VERTEX
  8
0
  5
80000781
 10
101.278
 20
-83.2171
 30
0.000000
  70
    32
  0
VERTEX
  8
0
  5
80000782
 10
101.865
 20
-83.5010
 30
0.000000
  70
    32
  0
VERTEX
  8
0
  5
80000783
 10
102.456
 20
-83.7758
 30
0.000000
  70
    32
  0
VERTEX
  8
0
  5
80000784
 10
103.049
 20
-84.0411
 30
0.000000
  70
    32
  0
VERTEX
  8
0
  5
80000785
 10
103.645
 20
-84.2969
 30
0.000000
  70
    32
  0
VERTEX
  8
0
  5
80000786
 10
104.245
 20
-84.5430
 30
0.000000
  70
    32
  0
VERTEX
  8
0
  5
80000787
 10
104.849
 20
-84.7792
 30
0.000000
  70
    32
  0
VERTEX
  8
0
  5
80000788
 10
105.455
 20
-85.0054
 30
0.000000
  70
    32
  0
VERTEX
  8
0
  5
80000789
 10
106.065
 20
-85.2215
 30
0.000000
  70
    32
  0
VERTEX
  8
0
  5
8000078A
 10
106.679
 20
-85.4272
 30
0.000000
  70
    32
  0
VERTEX
  8
0
  5
8000078B
 10
107.296
 20
-85.6224
 30
0.000000
  70
    32
  0
VERTEX
  8
0
  5
8000078C
 10
107.917
 20
-85.8070
 30
0.000000
  70
    32
  0
VERTEX
  8
0
  5
8000078D
 10
108.541
 20
-85.9809
 30
0.000000
  70
    32
  0
VERTEX
  8
0
  5
8000078E
 10
109.169
 20
-86.1437
 30
0.000000
  70
    32
  0
VERTEX
  8
0
  5
8000078F
 10
109.801
 20
-86.2955
 30
0.000000
  70
    32
  0
VERTEX
  8
0
  5
80000790
 10
110.437
 20
-86.4360
 30
0.000000
  70
    32
  0
VERTEX
  8
0
  5
80000791
 10
111.076
 20
-86.5652
 30
0.000000
  70
    32
  0
VERTEX
  8
0
  5
80000792
 10
111.720
 20
-86.6827
 30
0.000000
  70
    32
  0
VERTEX
  8
0
  5
80000793
 10
112.367
 20
-86.7886
 30
0.000000
  70
    32
  0
VERTEX
  8
0
  5
80000794
 10
113.019
 20
-86.8825
 30
0.000000
  70
    32
  0
VERTEX
  8
0
  5
80000795
 10
113.675
 20
-86.9645
 30
0.000000
  70
    32
  0
VERTEX
  8
0
  5
80000796
 10
114.334
 20
-87.0342
 30
0.000000
  70
    32
  0
VERTEX
  8
0
  5
80000797
 10
114.998
 20
-87.0916
 30
0.000000
  70
    32
  0
VERTEX
  8
0
  5
80000798
 10
115.667
 20
-87.1366
 30
0.000000
  70
    32
  0
VERTEX
  8
0
  5
80000799
 10
116.339
 20
-87.1689
 30
0.000000
  70
    32
  0
VERTEX
  8
0
  5
8000079A
 10
117.016
 20
-87.1884
 30
0.000000
  70
    32
  0
VERTEX
  8
0
  5
8000079B
 10
117.697
 20
-87.1949
 30
0.000000
  70
    32
  0
SEQEND
  8
0
  5
8000079C
  0
ENDBLK
  5
FFBBDAE469BC1EAD
  8
0
  0
BLOCK
  8
0
  2
*U41
 70
     1
 10
0.0
 20
0.0
 30
0.0
  3
*U41
  1

  0
TEXT
  5
FFBBDAE469BC1EAF
  8
0
  6
CONTINUOUS
 10
119.4187514721708
 20
-85.273552736224303
 30
0.0
 40
4.0
  1
Cut panel edges to be
  7
ARIAL
  0
TEXT
  5
FFBBDAE469BC1EB0
  8
0
  6
CONTINUOUS
 10
119.5251634776279
 20
-92.008432226901903
 30
0.0
 40
4.0
  1
sealed before fixing
  7
ARIAL
  0
ENDBLK
  5
FFBBDAE469BC1EB2
  8
0
  0
BLOCK
  8
0
  2
*U42
 70
     1
 10
0.0
 20
0.0
 30
0.0
  3
*U42
  1

  0
TEXT
  5
FFBBDAE469BC1EB8
  8
0
  6
CONTINUOUS
 10
-106.4173475182061
 20
-63.940654843110558
 30
0.0
 40
4.0
  1
100mm
 50
90.0
  7
ARIAL
  0
ENDBLK
  5
FFBBDAE469BC1EBA
  8
0
  0
BLOCK
  8
0
  2
*U43
 70
     1
 10
0.0
 20
0.0
 30
0.0
  3
*U43
  1

  0
TEXT
  5
FFBBDAE469BC1EBC
  8
0
  6
CONTINUOUS
 10
64.788330721501595
 20
-107.4603870763322
 30
0.0
 40
4.0
  1
12mm minimum edge distance
  7
ARIAL
  0
ENDBLK
  5
FFBBDAE469BC1EBE
  8
0
  0
BLOCK
  8
0
  2
*U44
 70
     1
 10
0.0
 20
0.0
 30
0.0
  3
*U44
  1

  0
TEXT
  5
FFBBDAE469BC1EC0
  8
0
  6
CONTINUOUS
 10
71.753354271395082
 20
-120.4589566000038
 30
0.0
 40
4.0
  1
10mm gap
  7
ARIAL
  0
ENDBLK
  5
FFBBDAE469BC1EC2
  8
0
  0
ENDSEC
  0
SECTION
  2
ENTITIES
  0
POLYLINE
  5
FFBBDAE469BBF470
  8
0
  6
CONTINUOUS
 66
     1
 10
0.0
 20
0.0
 30
0.0
  0
VERTEX
  5
FFBBDAE469BC1CCF
  8
0
  6
CONTINUOUS
 10
27.0
 20
-27.0
 30
0.0
  0
VERTEX
  5
FFBBDAE469BC1CD0
  8
0
  6
CONTINUOUS
 10
27.0
 20
-38.465434961349793
 30
0.0
  0
SEQEND
  5
FFBBDAE469BC1CD1
  8
0
  6
CONTINUOUS
  0
LINE
  5
FFBBDAE469BBF471
  8
0
  6
CONTINUOUS
 10
36.0
 20
-134.28121233062811
 30
0.0
 11
36.0
 21
-27.0
 31
0.0
  0
POLYLINE
  5
FFBBDAE469BBF472
  8
0
  6
CONTINUOUS
 66
     1
 10
0.0
 20
0.0
 30
0.0
  0
VERTEX
  5
FFBBDAE469BC1CD2
  8
0
  6
CONTINUOUS
 10
36.0
 20
-27.0
 30
0.0
  0
VERTEX
  5
FFBBDAE469BC1CD3
  8
0
  6
CONTINUOUS
 10
27.0
 20
-27.0
 30
0.0
  0
SEQEND
  5
FFBBDAE469BC1CD4
  8
0
  6
CONTINUOUS
  0
LINE
  5
FFBBDAE469BBF49A
  8
0
  6
PHANTOM
 10
2.0000000000018181
 20
-1.9999999999999429
 30
0.0
 11
2.0
 21
-34.25
 31
0.0
  0
POLYLINE
  5
FFBBDAE469BBF49B
  8
0
  6
CONTINUOUS
 66
     1
 10
0.0
 20
0.0
 30
0.0
  0
VERTEX
  5
FFBBDAE469BC1CD5
  8
0
  6
CONTINUOUS
 10
0.0
 20
0.0
 30
0.0
  0
VERTEX
  5
FFBBDAE469BC1CD6
  8
0
  6
CONTINUOUS
 10
0.0
 20
-21.10000000000014
 30
0.0
  0
SEQEND
  5
FFBBDAE469BC1CD7
  8
0
  6
CONTINUOUS
  0
POLYLINE
  5
FFBBDAE469BBF49C
  8
0
  6
CONTINUOUS
 66
     1
 10
0.0
 20
0.0
 30
0.0
  0
VERTEX
  5
FFBBDAE469BC1CD8
  8
0
  6
CONTINUOUS
 10
27.0
 20
-38.465434961349793
 30
0.0
  0
VERTEX
  5
FFBBDAE469BC1CD9
  8
0
  6
CONTINUOUS
 10
27.0
 20
-50.0
 30
0.0
  0
SEQEND
  5
FFBBDAE469BC1CDA
  8
0
  6
CONTINUOUS
  0
POLYLINE
  5
FFBBDAE469BBF49E
  8
0
  6
CONTINUOUS
 66
     1
 10
0.0
 20
0.0
 30
0.0
  0
VERTEX
  5
FFBBDAE469BC1CDB
  8
0
  6
CONTINUOUS
 10
0.0
 20
-21.10000000000014
 30
0.0
  0
VERTEX
  5
FFBBDAE469BC1CDC
  8
0
  6
CONTINUOUS
 10
0.0
 20
-34.599999999999461
 30
0.0
  0
SEQEND
  5
FFBBDAE469BC1CDD
  8
0
  6
CONTINUOUS
  0
POLYLINE
  5
FFBBDAE469BBF4A0
  8
0
  6
CONTINUOUS
 66
     1
 10
0.0
 20
0.0
 30
0.0
  0
VERTEX
  5
FFBBDAE469BC1CDE
  8
0
  6
CONTINUOUS
 10
0.0
 20
90.0
 30
0.0
  0
VERTEX
  5
FFBBDAE469BC1CDF
  8
0
  6
CONTINUOUS
 10
45.0
 20
90.0
 30
0.0
  0
VERTEX
  5
FFBBDAE469BC1CE0
  8
0
  6
CONTINUOUS
 10
45.0
 20
0.0
 30
0.0
  0
VERTEX
  5
FFBBDAE469BC1CE1
  8
0
  6
CONTINUOUS
 10
31.60000000000219
 20
0.0
 30
0.0
  0
SEQEND
  5
FFBBDAE469BC1CE2
  8
0
  6
CONTINUOUS
  0
LINE
  5
FFBBDAE469BBF4A1
  8
0
  6
CONTINUOUS
 10
-90.0
 20
45.0
 30
0.0
 11
0.0
 21
90.0
 31
0.0
  0
POLYLINE
  5
FFBBDAE469BBF4A2
  8
0
  6
CONTINUOUS
 66
     1
 10
0.0
 20
0.0
 30
0.0
  0
VERTEX
  5
FFBBDAE469BC1CE3
  8
0
  6
CONTINUOUS
 10
-90.0
 20
45.0
 30
0.0
  0
VERTEX
  5
FFBBDAE469BC1CE4
  8
0
  6
CONTINUOUS
 10
-90.0
 20
90.0
 30
0.0
  0
VERTEX
  5
FFBBDAE469BC1CE5
  8
0
  6
CONTINUOUS
 10
0.0
 20
90.0
 30
0.0
  0
VERTEX
  5
FFBBDAE469BC1CE6
  8
0
  6
CONTINUOUS
 10
0.0
 20
45.0
 30
0.0
  0
VERTEX
  5
FFBBDAE469BC1CE7
  8
0
  6
CONTINUOUS
 10
-90.0
 20
45.0
 30
0.0
  0
SEQEND
  5
FFBBDAE469BC1CE8
  8
0
  6
CONTINUOUS
  0
LINE
  5
FFBBDAE469BBF4A3
  8
0
  6
CONTINUOUS
 10
-90.0
 20
90.0
 30
0.0
 11
0.0
 21
45.0
 31
0.0
  0
LINE
  5
FFBBDAE469BBF4A4
  8
0
  6
PHANTOM
 10
2.0000000000018181
 20
-2.0
 30
0.0
 11
52.25
 21
-2.0
 31
0.0
  0
POLYLINE
  5
FFBBDAE469BBF4A5
  8
0
  6
CONTINUOUS
 66
     1
 10
0.0
 20
0.0
 30
0.0
  0
VERTEX
  5
FFBBDAE469BC1CE9
  8
0
  6
CONTINUOUS
 10
46.0
 20
-27.0
 30
0.0
  0
VERTEX
  5
FFBBDAE469BC1CEA
  8
0
  6
CONTINUOUS
 10
46.0
 20
-36.0
 30
0.0
  0
SEQEND
  5
FFBBDAE469BC1CEB
  8
0
  6
CONTINUOUS
  0
POLYLINE
  5
FFBBDAE469BBF4A6
  8
0
  6
CONTINUOUS
 66
     1
 10
0.0
 20
0.0
 30
0.0
  0
VERTEX
  5
FFBBDAE469BC1CEC
  8
0
  6
CONTINUOUS
 10
115.78772588803891
 20
-27.0
 30
0.0
  0
VERTEX
  5
FFBBDAE469BC1CED
  8
0
  6
CONTINUOUS
 10
60.5
 20
-27.0
 30
0.0
  0
SEQEND
  5
FFBBDAE469BC1CEE
  8
0
  6
CONTINUOUS
  0
POLYLINE
  5
FFBBDAE469BBF4A8
  8
0
  6
CONTINUOUS
 66
     1
 10
0.0
 20
0.0
 30
0.0
  0
VERTEX
  5
FFBBDAE469BC1CEF
  8
0
  6
CONTINUOUS
 10
46.0
 20
-36.0
 30
0.0
  0
VERTEX
  5
FFBBDAE469BC1CF0
  8
0
  6
CONTINUOUS
 10
115.78772588803891
 20
-36.0
 30
0.0
  0
SEQEND
  5
FFBBDAE469BC1CF1
  8
0
  6
CONTINUOUS
  0
LINE
  5
FFBBDAE469BBF4AC
  8
0
  6
CONTINUOUS
 10
58.5
 20
-27.0
 30
0.0
 11
46.0
 21
-27.0
 31
0.0
  0
POLYLINE
  5
FFBBDAE469BBF4AE
  8
0
  6
CONTINUOUS
 66
     1
 10
0.0
 20
0.0
 30
0.0
  0
VERTEX
  5
FFBBDAE469BC1CF2
  8
0
  6
CONTINUOUS
 10
31.60000000000219
 20
0.0
 30
0.0
  0
VERTEX
  5
FFBBDAE469BC1CF3
  8
0
  6
CONTINUOUS
 10
0.0
 20
0.0
 30
0.0
  0
VERTEX
  5
FFBBDAE469BC1CF4
  8
0
  6
CONTINUOUS
 10
0.0
 20
90.0
 30
0.0
  0
SEQEND
  5
FFBBDAE469BC1CF5
  8
0
  6
CONTINUOUS
  0
LINE
  5
FFBBDAE469BBF4AF
  8
0
  6
CONTINUOUS
 10
0.0000000000063665
 20
90.0
 30
0.0
 11
45.0
 21
0.0
 31
0.0
  0
LINE
  5
FFBBDAE469BBF4B4
  8
0
  6
CONTINUOUS
 10
44.999999999997272
 20
90.0
 30
0.0
 11
0.0
 21
0.0
 31
0.0
  0
INSERT
  5
FFBBDAE469BBF4B6
  8
0
  6
CONTINUOUS
  2
*U9
 10
0.0
 20
0.0
 30
0.0
1001
ACAD
1000
DSTYLE
1002
{
1070
    40
1040
1.0
1002
}
  0
INSERT
  5
FFBBDAE469BBF4B7
  8
0
  6
CONTINUOUS
  2
*U10
 10
0.0
 20
0.0
 30
0.0
1001
ACAD
1000
DSTYLE
1002
{
1070
    40
1040
1.0
1002
}
  0
LINE
  5
FFBBDAE469BBF4BD
  8
0
  6
CONTINUOUS
 10
36.0
 20
-125.6721974557983
 30
0.0
 11
36.0
 21
-105.8036411828834
 31
0.0
  0
LINE
  5
FFBBDAE469BBF4BF
  8
0
  6
CONTINUOUS
 10
46.0
 20
-74.876502618038558
 30
0.0
 11
46.0
 21
-43.485082558128397
 31
0.0
  0
LINE
  5
FFBBDAE469BBF4C0
  8
0
  6
CONTINUOUS
 10
59.500000000007269
 20
-73.827133527034221
 30
0.0
 11
59.500000000010907
 21
-43.485082558128617
 31
0.0
  0
LINE
  5
FFBBDAE469BBF4C1
  8
0
  6
CONTINUOUS
 10
0.0
 20
0.0
 30
0.0
 11
-90.0
 21
-45.000000000003688
 31
0.0
  0
POLYLINE
  5
FFBBDAE469BBF4CF
  8
0
  6
CONTINUOUS
 66
     1
 10
0.0
 20
0.0
 30
0.0
  0
VERTEX
  5
FFBBDAE469BC1CFE
  8
0
  6
CONTINUOUS
 10
27.0
 20
-26.0
 30
0.0
  0
VERTEX
  5
FFBBDAE469BC1CFF
  8
0
  6
CONTINUOUS
 10
27.0
 20
-7.0
 30
0.0
  0
VERTEX
  5
FFBBDAE469BC1D00
  8
0
  6
CONTINUOUS
 10
52.600000000000371
 20
-7.0
 30
0.0
  0
SEQEND
  5
FFBBDAE469BC1D01
  8
0
  6
CONTINUOUS
  0
POLYLINE
  5
FFBBDAE469BBF4D5
  8
0
  6
CONTINUOUS
 66
     1
 10
0.0
 20
0.0
 30
0.0
  0
VERTEX
  5
FFBBDAE469BC1D02
  8
0
  6
CONTINUOUS
 10
45.0
 20
90.0
 30
0.0
  0
VERTEX
  5
FFBBDAE469BC1D03
  8
0
  6
CONTINUOUS
 10
90.0
 20
90.0
 30
0.0
  0
VERTEX
  5
FFBBDAE469BC1D04
  8
0
  6
CONTINUOUS
 10
90.0
 20
0.0
 30
0.0
  0
VERTEX
  5
FFBBDAE469BC1D05
  8
0
  6
CONTINUOUS
 10
76.600000000002183
 20
0.0
 30
0.0
  0
SEQEND
  5
FFBBDAE469BC1D06
  8
0
  6
CONTINUOUS
  0
POLYLINE
  5
FFBBDAE469BBF4D6
  8
0
  6
CONTINUOUS
 66
     1
 10
0.0
 20
0.0
 30
0.0
  0
VERTEX
  5
FFBBDAE469BC1D07
  8
0
  6
CONTINUOUS
 10
76.600000000002183
 20
0.0
 30
0.0
  0
VERTEX
  5
FFBBDAE469BC1D08
  8
0
  6
CONTINUOUS
 10
60.574999999989807
 20
0.0
 30
0.0
  0
SEQEND
  5
FFBBDAE469BC1D09
  8
0
  6
CONTINUOUS
  0
LINE
  5
FFBBDAE469BBF4D7
  8
0
  6
CONTINUOUS
 10
45.000000000006359
 20
90.0
 30
0.0
 11
65.33770363509484
 21
49.32459272981702
 31
0.0
  0
LINE
  5
FFBBDAE469BBF4D8
  8
0
  6
CONTINUOUS
 10
89.999999999997286
 20
90.0
 30
0.0
 11
55.400000000001448
 21
20.800000000004729
 31
0.0
  0
LINE
  5
FFBBDAE469BBF4DB
  8
0
  6
CONTINUOUS
 10
-64.480625043170221
 20
-12.759687478414889
 30
0.0
 11
-90.0
 21
0.0
 31
0.0
  0
LINE
  5
FFBBDAE469BBF4DE
  8
0
  6
CONTINUOUS
 10
65.33770363509484
 20
49.32459272981702
 30
0.0
 11
90.0
 21
0.0
 31
0.0
  0
POLYLINE
  5
FFBBDAE469BBF4DF
  8
0
  6
CONTINUOUS
 66
     1
 10
0.0
 20
0.0
 30
0.0
  0
VERTEX
  5
FFBBDAE469BC1D0A
  8
0
  6
CONTINUOUS
 10
60.574999999989807
 20
0.0
 30
0.0
  0
VERTEX
  5
FFBBDAE469BC1D0B
  8
0
  6
CONTINUOUS
 10
55.400000000000553
 20
0.0
 30
0.0
  0
SEQEND
  5
FFBBDAE469BC1D0C
  8
0
  6
CONTINUOUS
  0
POLYLINE
  5
FFBBDAE469BBF689
  8
0
  6
CONTINUOUS
 66
     1
 10
0.0
 20
0.0
 30
0.0
  0
VERTEX
  5
FFBBDAE469BC1D0D
  8
0
  6
CONTINUOUS
 10
58.5
 20
-26.0
 30
0.0
  0
VERTEX
  5
FFBBDAE469BC1D0E
  8
0
  6
CONTINUOUS
 10
27.0
 20
-26.0
 30
0.0
  0
SEQEND
  5
FFBBDAE469BC1D0F
  8
0
  6
CONTINUOUS
  0
POLYLINE
  5
FFBBDAE469BBF68A
  8
0
  6
CONTINUOUS
 66
     1
 10
0.0
 20
0.0
 30
0.0
  0
VERTEX
  5
FFBBDAE469BC1D10
  8
0
  6
CONTINUOUS
 10
56.540339912400668
 20
-7.0
 30
0.0
  0
VERTEX
  5
FFBBDAE469BC1D11
  8
0
  6
CONTINUOUS
 10
97.0
 20
-7.0
 30
0.0
  0
VERTEX
  5
FFBBDAE469BC1D12
  8
0
  6
CONTINUOUS
 10
97.0
 20
-26.0
 30
0.0
  0
VERTEX
  5
FFBBDAE469BC1D13
  8
0
  6
CONTINUOUS
 10
60.5
 20
-26.0
 30
0.0
  0
SEQEND
  5
FFBBDAE469BC1D14
  8
0
  6
CONTINUOUS
  0
POLYLINE
  5
FFBBDAE469BBF68C
  8
0
  6
CONTINUOUS
 66
     1
 10
0.0
 20
0.0
 30
0.0
  0
VERTEX
  5
FFBBDAE469BC1D15
  8
0
  6
CONTINUOUS
 10
0.0
 20
-37.399999999999643
 30
0.0
  0
VERTEX
  5
FFBBDAE469BC1D16
  8
0
  6
CONTINUOUS
 10
0.0
 20
-45.0
 30
0.0
  0
VERTEX
  5
FFBBDAE469BC1D17
  8
0
  6
CONTINUOUS
 10
-90.0
 20
-45.0
 30
0.0
  0
VERTEX
  5
FFBBDAE469BC1D18
  8
0
  6
CONTINUOUS
 10
-90.0
 20
0.0
 30
0.0
  0
VERTEX
  5
FFBBDAE469BC1D19
  8
0
  6
CONTINUOUS
 10
0.0
 20
0.0
 30
0.0
  0
SEQEND
  5
FFBBDAE469BC1D1A
  8
0
  6
CONTINUOUS
  0
POLYLINE
  5
FFBBDAE469BBFE1F
  8
0
  6
CONTINUOUS
 66
     1
 10
0.0
 20
0.0
 30
0.0
  0
VERTEX
  5
FFBBDAE469BC1D1B
  8
0
  6
CONTINUOUS
 10
0.0
 20
-45.0
 30
0.0
  0
VERTEX
  5
FFBBDAE469BC1D1C
  8
0
  6
CONTINUOUS
 10
0.0
 20
-63.425000000000182
 30
0.0
  0
SEQEND
  5
FFBBDAE469BC1D1D
  8
0
  6
CONTINUOUS
  0
LINE
  5
FFBBDAE469BBFE20
  8
0
  6
CONTINUOUS
 10
0.0
 20
-45.0
 30
0.0
 11
-90.0
 21
-90.0
 31
0.0
  0
POLYLINE
  5
FFBBDAE469BBFE21
  8
0
  6
CONTINUOUS
 66
     1
 10
0.0
 20
0.0
 30
0.0
  0
VERTEX
  5
FFBBDAE469BC1D1E
  8
0
  6
CONTINUOUS
 10
0.0
 20
-85.82889300065716
 30
0.0
  0
VERTEX
  5
FFBBDAE469BC1D1F
  8
0
  6
CONTINUOUS
 10
0.0
 20
-90.0
 30
0.0
  0
VERTEX
  5
FFBBDAE469BC1D20
  8
0
  6
CONTINUOUS
 10
-90.0
 20
-90.0
 30
0.0
  0
VERTEX
  5
FFBBDAE469BC1D21
  8
0
  6
CONTINUOUS
 10
-90.0
 20
-45.0
 30
0.0
  0
VERTEX
  5
FFBBDAE469BC1D22
  8
0
  6
CONTINUOUS
 10
0.0
 20
-45.0
 30
0.0
  0
SEQEND
  5
FFBBDAE469BC1D23
  8
0
  6
CONTINUOUS
  0
LINE
  5
FFBBDAE469BBFE22
  8
0
  6
CONTINUOUS
 10
0.0
 20
-90.0
 30
0.0
 11
-90.0
 21
-45.0
 31
0.0
  0
POLYLINE
  5
FFBBDAE469BBFE23
  8
0
  6
CONTINUOUS
 66
     1
 10
0.0
 20
0.0
 30
0.0
  0
VERTEX
  5
FFBBDAE469BC1D24
  8
0
  6
CONTINUOUS
 10
26.0
 20
-83.0
 30
0.0
  0
VERTEX
  5
FFBBDAE469BC1D25
  8
0
  6
CONTINUOUS
 10
7.0
 20
-83.0
 30
0.0
  0
VERTEX
  5
FFBBDAE469BC1D26
  8
0
  6
CONTINUOUS
 10
7.0
 20
-70.040339912412378
 30
0.0
  0
SEQEND
  5
FFBBDAE469BC1D27
  8
0
  6
CONTINUOUS
  0
POLYLINE
  5
FFBBDAE469BBFE27
  8
0
  6
CONTINUOUS
 66
     1
 10
0.0
 20
0.0
 30
0.0
  0
VERTEX
  5
FFBBDAE469BC1D28
  8
0
  6
CONTINUOUS
 10
26.0
 20
-52.0
 30
0.0
  0
VERTEX
  5
FFBBDAE469BC1D29
  8
0
  6
CONTINUOUS
 10
26.0
 20
-83.0
 30
0.0
  0
SEQEND
  5
FFBBDAE469BC1D2A
  8
0
  6
CONTINUOUS
  0
POLYLINE
  5
FFBBDAE469BBFF08
  8
0
  6
CONTINUOUS
 66
     1
 10
0.0
 20
0.0
 30
0.0
  0
VERTEX
  5
FFBBDAE469BC1D2B
  8
0
  6
CONTINUOUS
 10
27.0
 20
-54.600000000000144
 30
0.0
  0
VERTEX
  5
FFBBDAE469BC1D2C
  8
0
  6
CONTINUOUS
 10
27.0
 20
-134.28121233062811
 30
0.0
  0
SEQEND
  5
FFBBDAE469BC1D2D
  8
0
  6
CONTINUOUS
  0
POLYLINE
  5
FFBBDAE469BBFF0E
  8
0
  6
CONTINUOUS
 66
     1
 10
0.0
 20
0.0
 30
0.0
  0
VERTEX
  5
FFBBDAE469BC1D2E
  8
0
  6
CONTINUOUS
 10
0.0
 20
-63.425000000000182
 30
0.0
  0
VERTEX
  5
FFBBDAE469BC1D2F
  8
0
  6
CONTINUOUS
 10
0.0
 20
-85.82889300065716
 30
0.0
  0
SEQEND
  5
FFBBDAE469BC1D30
  8
0
  6
CONTINUOUS
  0
POLYLINE
  5
FFBBDAE469BBFF10
  8
0
  6
CONTINUOUS
 66
     1
 10
0.0
 20
0.0
 30
0.0
  0
VERTEX
  5
FFBBDAE469BC1D31
  8
0
  6
CONTINUOUS
 10
7.0
 20
-70.040339912412378
 30
0.0
  0
VERTEX
  5
FFBBDAE469BC1D32
  8
0
  6
CONTINUOUS
 10
7.0
 20
-37.399999999999643
 30
0.0
  0
SEQEND
  5
FFBBDAE469BC1D33
  8
0
  6
CONTINUOUS
  0
POLYLINE
  5
FFBBDAE469BBFFF8
  8
0
  6
CONTINUOUS
 66
     1
 10
0.0
 20
0.0
 30
0.0
  0
VERTEX
  5
FFBBDAE469BC1D34
  8
0
  6
CONTINUOUS
 10
55.400000000000553
 20
-7.0
 30
0.0
  0
VERTEX
  5
FFBBDAE469BC1D35
  8
0
  6
CONTINUOUS
 10
56.540339912400668
 20
-7.0
 30
0.0
  0
SEQEND
  5
FFBBDAE469BC1D36
  8
0
  6
CONTINUOUS
  0
LINE
  5
FFBBDAE469BBFFF9
  8
0
  6
PHANTOM
 10
55.75
 20
-2.0
 30
0.0
 11
115.78772588803891
 21
-2.0000000000004539
 31
0.0
  0
POLYLINE
  5
FFBBDAE469BBFFFA
  8
0
  6
CONTINUOUS
 66
     1
 10
0.0
 20
0.0
 30
0.0
  0
VERTEX
  5
FFBBDAE469BC1D37
  8
0
  6
CONTINUOUS
 10
52.600000000000371
 20
0.0
 30
0.0
  0
VERTEX
  5
FFBBDAE469BC1D38
  8
0
  6
CONTINUOUS
 10
45.0
 20
0.0
 30
0.0
  0
VERTEX
  5
FFBBDAE469BC1D39
  8
0
  6
CONTINUOUS
 10
45.0
 20
90.0
 30
0.0
  0
SEQEND
  5
FFBBDAE469BC1D3A
  8
0
  6
CONTINUOUS
  0
POLYLINE
  5
FFBBDAE469BC0011
  8
0
  6
CONTINUOUS
 66
     1
 10
0.0
 20
0.0
 30
0.0
  0
VERTEX
  5
FFBBDAE469BC1D3B
  8
0
  6
CONTINUOUS
 10
7.0
 20
-34.599999999999461
 30
0.0
  0
VERTEX
  5
FFBBDAE469BC1D3C
  8
0
  6
CONTINUOUS
 10
7.0
 20
-13.0
 30
0.0
  0
VERTEX
  5
FFBBDAE469BC1D3D
  8
0
  6
CONTINUOUS
 10
26.0
 20
-13.0
 30
0.0
  0
VERTEX
  5
FFBBDAE469BC1D3E
  8
0
  6
CONTINUOUS
 10
26.0
 20
-50.0
 30
0.0
  0
SEQEND
  5
FFBBDAE469BC1D3F
  8
0
  6
CONTINUOUS
  0
LINE
  5
FFBBDAE469BC0012
  8
0
  6
PHANTOM
 10
2.0
 20
-37.75
 30
0.0
 11
1.9999999999936331
 21
-134.28121233062811
 31
0.0
  0
LINE
  5
FFBBDAE469BC0014
  8
0
  6
CONTINUOUS
 10
0.0
 20
-45.0
 30
0.0
 11
-15.200000000001641
 21
-37.399999999999643
 31
0.0
  0
POLYLINE
  5
FFBBDAE469BC0017
  8
0
  6
CONTINUOUS
 66
     1
 10
0.0
 20
0.0
 30
0.0
  0
VERTEX
  5
FFBBDAE469BC1D40
  8
0
  6
CONTINUOUS
 10
27.0
 20
-52.0
 30
0.0
  0
VERTEX
  5
FFBBDAE469BC1D41
  8
0
  6
CONTINUOUS
 10
27.0
 20
-54.600000000000144
 30
0.0
  0
SEQEND
  5
FFBBDAE469BC1D42
  8
0
  6
CONTINUOUS
  0
ARC
  5
FFBBDAE469BC010B
  8
0
  6
CONTINUOUS
 10
40.999999999998181
 20
-35.998912057282674
 30
0.0
 40
7.0702985620454477
 50
44.993765869150529
 51
135.00623413080109
  0
ARC
  5
FFBBDAE469BC0150
  8
0
  6
CONTINUOUS
 10
46.088951509666913
 20
-26.49999999999892
 30
0.0
 40
0.5078507370016342
 50
259.9124461930387
 51
100.08755380706781
  0
ARC
  5
FFBBDAE469BC0153
  8
0
  6
CONTINUOUS
 10
35.911048490334913
 20
-26.499999999999719
 30
0.0
 40
0.5078507370002996
 50
79.912446193143623
 51
280.08755380685579
  0
ARC
  5
FFBBDAE469BC016A
  8
0
  6
CONTINUOUS
 10
26.499999999999091
 20
-43.511048490334467
 30
0.0
 40
0.5078507370011974
 50
349.912446193221
 51
190.08755380681691
  0
ARC
  5
FFBBDAE469BC016B
  8
0
  6
CONTINUOUS
 10
26.499999999999091
 20
-58.488951509666443
 30
0.0
 40
0.5078507369994066
 50
169.91244619317661
 51
10.08755380678539
  0
POLYLINE
  5
FFBBDAE469BC01FE
  8
0
  6
CONTINUOUS
 66
     1
 10
0.0
 20
0.0
 30
0.0
  0
VERTEX
  5
FFBBDAE469BC1D43
  8
0
  6
CONTINUOUS
 10
58.5
 20
-10.0
 30
0.0
  0
VERTEX
  5
FFBBDAE469BC1D44
  8
0
  6
CONTINUOUS
 10
60.5
 20
-10.0
 30
0.0
  0
VERTEX
  5
FFBBDAE469BC1D45
  8
0
  6
CONTINUOUS
 10
60.5
 20
-36.0
 30
0.0
  0
VERTEX
  5
FFBBDAE469BC1D46
  8
0
  6
CONTINUOUS
 10
58.5
 20
-36.0
 30
0.0
  0
VERTEX
  5
FFBBDAE469BC1D47
  8
0
  6
CONTINUOUS
 10
58.5
 20
-10.0
 30
0.0
  0
SEQEND
  5
FFBBDAE469BC1D48
  8
0
  6
CONTINUOUS
  0
LINE
  5
FFBBDAE469BC01FF
  8
0
  6
CENTER
 10
59.5
 20
-36.0
 30
0.0
 11
59.5
 21
-10.0
 31
0.0
  0
LINE
  5
FFBBDAE469BC0200
  8
0
  6
CONTINUOUS
 10
58.5
 20
-34.0
 30
0.0
 11
60.5
 21
-34.0
 31
0.0
  0
LINE
  5
FFBBDAE469BC0201
  8
0
  6
CONTINUOUS
 10
58.5
 20
-14.0
 30
0.0
 11
60.5
 21
-14.0
 31
0.0
  0
POLYLINE
  5
FFBBDAE469BC0204
  8
0
  6
CONTINUOUS
 66
     1
 10
0.0
 20
0.0
 30
0.0
  0
VERTEX
  5
FFBBDAE469BC1D49
  8
0
  6
CONTINUOUS
 10
10.0
 20
-52.0
 30
0.0
  0
VERTEX
  5
FFBBDAE469BC1D4A
  8
0
  6
CONTINUOUS
 10
10.0
 20
-50.0
 30
0.0
  0
VERTEX
  5
FFBBDAE469BC1D4B
  8
0
  6
CONTINUOUS
 10
36.0
 20
-50.0
 30
0.0
  0
VERTEX
  5
FFBBDAE469BC1D4C
  8
0
  6
CONTINUOUS
 10
36.0
 20
-52.0
 30
0.0
  0
VERTEX
  5
FFBBDAE469BC1D4D
  8
0
  6
CONTINUOUS
 10
10.0
 20
-52.0
 30
0.0
  0
SEQEND
  5
FFBBDAE469BC1D4E
  8
0
  6
CONTINUOUS
  0
LINE
  5
FFBBDAE469BC0205
  8
0
  6
CENTER
 10
36.0
 20
-51.0
 30
0.0
 11
10.0
 21
-51.0
 31
0.0
  0
LINE
  5
FFBBDAE469BC0206
  8
0
  6
CONTINUOUS
 10
34.0
 20
-52.0
 30
0.0
 11
34.0
 21
-50.0
 31
0.0
  0
LINE
  5
FFBBDAE469BC0207
  8
0
  6
CONTINUOUS
 10
14.0
 20
-52.0
 30
0.0
 11
14.0
 21
-50.0
 31
0.0
  0
INSERT
  5
FFBBDAE469BC0326
  8
0
  6
CONTINUOUS
  2
*U11
 10
0.0
 20
0.0
 30
0.0
1001
ACAD
1002
{
1000
R14_HATCH_DATA
1000
FFBBDAE469BC0326
1011
1.0
1021
0.0
1031
0.0
1021
0.0
1031
0.0
1011
0.0
1021
0.0
1031
0.0
1021
1.0
1031
0.0
1011
0.0
1021
0.0
1031
0.0
1021
0.0
1031
1.0
1040
0.0
1010
0.0
1020
0.0
1030
1.0
1000
SOLID
1070
     1
1070
     0
1071
        1
1071
        7
1070
     1
1070
     1
1071
        8
1040
35.822096980668
1040
-26.0
1040
0.8377984546699105
1040
35.822096980670722
1040
-27.0
1040
0.0
1040
36.0
1040
-26.99999999999994
1040
0.0
1040
36.0
1040
-30.999999999996529
1040
-0.4142773009522313
1040
46.0
1040
-31.000000000000231
1040
0.0
1040
46.000000000000909
1040
-27.0
1040
0.0
1040
46.177903019333819
1040
-27.0
1040
0.8377984546573417
1040
46.177903019345642
1040
-26.0
1040
0.0
1071
        0
1070
     0
1070
     1
1040
0.0703887309666243
1071
        1
1040
41.238618328577097
1040
-27.305265081542188
1040
0.0
1002
}
  0
INSERT
  5
FFBBDAE469BC0339
  8
0
  6
CONTINUOUS
  2
*U12
 10
0.0
 20
0.0
 30
0.0
1001
ACAD
1002
{
1000
R14_HATCH_DATA
1000
FFBBDAE469BC0339
1011
1.0
1021
0.0
1031
0.0
1021
0.0
1031
0.0
1011
0.0
1021
0.0
1031
0.0
1021
1.0
1031
0.0
1011
0.0
1021
0.0
1031
0.0
1021
0.0
1031
1.0
1040
0.0
1010
0.0
1020
0.0
1030
1.0
1000
SOLID
1070
     1
1070
     0
1071
        2
1071
        7
1070
     1
1070
     1
1071
        4
1040
27.000000000000909
1040
-43.422096980672052
1040
0.837798454663751
1040
26.0
1040
-43.422096980659262
1040
0.0
1040
26.0
1040
-50.0
1040
0.0
1040
27.000000000000909
1040
-50.000000000000057
1040
0.0
1071
        0
1071
        7
1070
     1
1070
     1
1071
        5
1040
25.999999999999091
1040
-58.577903019327323
1040
0.8377984546823531
1040
27.0
1040
-58.577903019319649
1040
0.0
1040
27.0
1040
-54.600000000000144
1040
0.0
1040
27.0
1040
-52.0
1040
0.0
1040
26.0
1040
-52.0
1040
0.0
1071
        0
1070
     0
1070
     1
1040
0.055984810236366
1071
        2
1040
26.646935118048528
1040
-46.764994816238179
1040
0.0
1040
26.310891399934921
1040
-54.826807842089352
1040
0.0
1002
}
  0
LINE
  5
FFBBDAE469BC038C
  8
0
  6
DIVIDE2
 10
37.0
 20
-104.0033391479387
 30
0.0
 11
37.0
 21
-30.168893038748141
 31
0.0
  0
POLYLINE
  5
FFBBDAE469BC038D
  8
0
  6
DIVIDE2
 66
     1
 10
0.0
 20
0.0
 30
0.0
  0
VERTEX
  5
FFBBDAE469BC1D91
  8
0
  6
DIVIDE2
 10
45.0
 20
-37.0
 30
0.0
  0
VERTEX
  5
FFBBDAE469BC1D92
  8
0
  6
DIVIDE2
 10
115.78772588803891
 20
-37.0
 30
0.0
  0
SEQEND
  5
FFBBDAE469BC1D93
  8
0
  6
DIVIDE2
  0
POLYLINE
  5
FFBBDAE469BC038E
  8
0
  6
DIVIDE2
 66
     1
 10
0.0
 20
0.0
 30
0.0
  0
VERTEX
  5
FFBBDAE469BC1D94
  8
0
  6
DIVIDE2
 10
45.000000000000909
 20
-30.16889303875087
 30
0.0
  0
VERTEX
  5
FFBBDAE469BC1D95
  8
0
  6
DIVIDE2
 10
45.0
 20
-37.0
 30
0.0
  0
SEQEND
  5
FFBBDAE469BC1D96
  8
0
  6
DIVIDE2
  0
LINE
  5
FFBBDAE469BC053D
  8
0
  6
CONTINUOUS
 10
4.5000000000027276
 20
-4.500000000000056
 30
0.0
 11
52.599999999999447
 21
-4.5000000000003411
 31
0.0
  0
LINE
  5
FFBBDAE469BC053E
  8
0
  6
CONTINUOUS
 10
4.5000000000018181
 20
-4.500000000000056
 30
0.0
 11
4.4999999999990896
 21
-34.599999999999461
 31
0.0
  0
LINE
  5
FFBBDAE469BC0540
  8
0
  6
CONTINUOUS
 10
52.599999999999447
 20
15.20000000000152
 30
0.0
 11
45.0
 21
0.0
 31
0.0
  0
LINE
  5
FFBBDAE469BC0543
  8
0
  6
CONTINUOUS
 10
-20.80000000000291
 20
-34.599999999999461
 30
0.0
 11
-64.480625043170221
 21
-12.759687478414889
 31
0.0
  0
LINE
  5
FFBBDAE469BC0548
  8
0
  6
CONTINUOUS
 10
4.499999999996362
 20
-37.3999999999997
 30
0.0
 11
4.5000000000027089
 21
-104.5
 31
0.0
  0
LINE
  5
FFBBDAE469BC05C2
  8
0
  6
CENTER
 10
54.0
 20
-28.52179476537049
 30
0.0
 11
54.0
 21
42.073418545082802
 31
0.0
  0
LINE
  5
FFBBDAE469BC05C3
  8
0
  6
CONTINUOUS
 10
50.5
 20
-26.0
 30
0.0
 11
57.5
 21
-26.0
 31
0.0
  0
LINE
  5
FFBBDAE469BC05C4
  8
0
  6
CONTINUOUS
 10
52.600000000000371
 20
35.352875309428732
 30
0.0
 11
54.0
 21
38.99999999999995
 31
0.0
  0
LINE
  5
FFBBDAE469BC05C5
  8
0
  6
CONTINUOUS
 10
52.600000000000371
 20
-24.93730669589468
 30
0.0
 11
52.600000000000371
 21
35.35287530942918
 31
0.0
  0
LINE
  5
FFBBDAE469BC05C6
  8
0
  6
CONTINUOUS
 10
55.400000000000553
 20
-24.93730669589468
 30
0.0
 11
55.400000000000553
 21
35.352875309428732
 31
0.0
  0
LINE
  5
FFBBDAE469BC05C7
  8
0
  6
CONTINUOUS
 10
55.400000000000553
 20
35.352875309428732
 30
0.0
 11
54.0
 21
38.99999999999995
 31
0.0
  0
LINE
  5
FFBBDAE469BC05C8
  8
0
  6
CONTINUOUS
 10
50.5
 20
-25.5
 30
0.0
 11
57.5
 21
-25.5
 31
0.0
  0
LINE
  5
FFBBDAE469BC05C9
  8
0
  6
CONTINUOUS
 10
50.5
 20
-26.0
 30
0.0
 11
50.5
 21
-25.5
 31
0.0
  0
LINE
  5
FFBBDAE469BC05CA
  8
0
  6
CONTINUOUS
 10
57.5
 20
-26.0
 30
0.0
 11
57.5
 21
-25.5
 31
0.0
  0
LINE
  5
FFBBDAE469BC05CB
  8
0
  6
CONTINUOUS
 10
55.400000000000553
 20
-24.93730669589468
 30
0.0
 11
57.5
 21
-25.5
 31
0.0
  0
LINE
  5
FFBBDAE469BC05CC
  8
0
  6
CONTINUOUS
 10
52.600000000000371
 20
-24.93730669589468
 30
0.0
 11
50.5
 21
-25.5
 31
0.0
  0
LINE
  5
FFBBDAE469BC05CD
  8
0
  6
CONTINUOUS
 10
52.600000000000371
 20
-24.93730669589468
 30
0.0
 11
55.400000000000553
 21
-24.93730669589468
 31
0.0
  0
LINE
  5
FFBBDAE469BC05CE
  8
0
  6
CONTINUOUS
 10
53.121711072102698
 20
-21.0
 30
0.0
 11
54.878288927899121
 21
-21.0
 31
0.0
  0
LINE
  5
FFBBDAE469BC05CF
  8
0
  6
CONTINUOUS
 10
53.121711072102698
 20
-13.0
 30
0.0
 11
54.878288927899121
 21
-13.0
 31
0.0
  0
LINE
  5
FFBBDAE469BC05D0
  8
0
  6
CONTINUOUS
 10
53.121711072102698
 20
-19.699999999999822
 30
0.0
 11
54.878288927899121
 21
-19.699999999999822
 31
0.0
  0
LINE
  5
FFBBDAE469BC05D1
  8
0
  6
CONTINUOUS
 10
53.121711072102698
 20
-18.400000000000091
 30
0.0
 11
54.878288927899121
 21
-18.400000000000091
 31
0.0
  0
LINE
  5
FFBBDAE469BC05D2
  8
0
  6
CONTINUOUS
 10
53.121711072102698
 20
-17.099999999999909
 30
0.0
 11
54.878288927899121
 21
-17.099999999999909
 31
0.0
  0
LINE
  5
FFBBDAE469BC05D3
  8
0
  6
CONTINUOUS
 10
53.121711072102698
 20
-15.80000000000018
 30
0.0
 11
54.878288927899121
 21
-15.80000000000018
 31
0.0
  0
LINE
  5
FFBBDAE469BC05D4
  8
0
  6
CONTINUOUS
 10
53.121711072102698
 20
-14.5
 30
0.0
 11
54.878288927899121
 21
-14.5
 31
0.0
  0
LINE
  5
FFBBDAE469BC05D5
  8
0
  6
CONTINUOUS
 10
52.25
 20
3.9999999999999432
 30
0.0
 11
55.75
 21
3.9999999999999432
 31
0.0
  0
LINE
  5
FFBBDAE469BC05D6
  8
0
  6
CONTINUOUS
 10
52.25
 20
5.4999999999999432
 30
0.0
 11
55.75
 21
5.4999999999999432
 31
0.0
  0
LINE
  5
FFBBDAE469BC05D7
  8
0
  6
CONTINUOUS
 10
52.25
 20
6.9999999999999432
 30
0.0
 11
55.75
 21
6.9999999999999432
 31
0.0
  0
LINE
  5
FFBBDAE469BC05D8
  8
0
  6
CONTINUOUS
 10
52.25
 20
8.4999999999999432
 30
0.0
 11
55.75
 21
8.4999999999999432
 31
0.0
  0
LINE
  5
FFBBDAE469BC05D9
  8
0
  6
CONTINUOUS
 10
52.25
 20
9.9999999999999432
 30
0.0
 11
55.75
 21
9.9999999999999432
 31
0.0
  0
LINE
  5
FFBBDAE469BC05DA
  8
0
  6
CONTINUOUS
 10
52.25
 20
11.49999999999994
 30
0.0
 11
55.75
 21
11.49999999999994
 31
0.0
  0
LINE
  5
FFBBDAE469BC05DB
  8
0
  6
CONTINUOUS
 10
52.25
 20
12.99999999999994
 30
0.0
 11
55.75
 21
12.99999999999994
 31
0.0
  0
LINE
  5
FFBBDAE469BC05DC
  8
0
  6
CONTINUOUS
 10
52.25
 20
14.49999999999994
 30
0.0
 11
55.75
 21
14.49999999999994
 31
0.0
  0
LINE
  5
FFBBDAE469BC05DD
  8
0
  6
CONTINUOUS
 10
52.25
 20
15.99999999999994
 30
0.0
 11
55.75
 21
15.99999999999994
 31
0.0
  0
LINE
  5
FFBBDAE469BC05DE
  8
0
  6
CONTINUOUS
 10
52.25
 20
17.49999999999994
 30
0.0
 11
55.75
 21
17.49999999999994
 31
0.0
  0
LINE
  5
FFBBDAE469BC05DF
  8
0
  6
CONTINUOUS
 10
52.25
 20
18.99999999999994
 30
0.0
 11
55.75
 21
18.99999999999994
 31
0.0
  0
LINE
  5
FFBBDAE469BC05E0
  8
0
  6
CONTINUOUS
 10
52.25
 20
20.49999999999994
 30
0.0
 11
55.75
 21
20.49999999999994
 31
0.0
  0
LINE
  5
FFBBDAE469BC05E1
  8
0
  6
CONTINUOUS
 10
52.25
 20
21.99999999999994
 30
0.0
 11
55.75
 21
21.99999999999994
 31
0.0
  0
LINE
  5
FFBBDAE469BC05E2
  8
0
  6
CONTINUOUS
 10
52.25
 20
23.49999999999994
 30
0.0
 11
55.75
 21
23.49999999999994
 31
0.0
  0
LINE
  5
FFBBDAE469BC05E3
  8
0
  6
CONTINUOUS
 10
52.25
 20
24.99999999999995
 30
0.0
 11
55.75
 21
24.99999999999995
 31
0.0
  0
LINE
  5
FFBBDAE469BC05E4
  8
0
  6
CONTINUOUS
 10
52.25
 20
26.49999999999995
 30
0.0
 11
55.75
 21
26.49999999999995
 31
0.0
  0
LINE
  5
FFBBDAE469BC05E5
  8
0
  6
CONTINUOUS
 10
52.25
 20
27.99999999999994
 30
0.0
 11
55.75
 21
27.99999999999994
 31
0.0
  0
LINE
  5
FFBBDAE469BC05E6
  8
0
  6
CONTINUOUS
 10
52.25
 20
29.49999999999994
 30
0.0
 11
55.75
 21
29.49999999999994
 31
0.0
  0
LINE
  5
FFBBDAE469BC05E7
  8
0
  6
CONTINUOUS
 10
52.25
 20
30.99999999999994
 30
0.0
 11
55.75
 21
30.99999999999994
 31
0.0
  0
LINE
  5
FFBBDAE469BC05E8
  8
0
  6
CONTINUOUS
 10
52.25
 20
32.49999999999995
 30
0.0
 11
55.75
 21
32.49999999999995
 31
0.0
  0
LINE
  5
FFBBDAE469BC05E9
  8
0
  6
CONTINUOUS
 10
52.25
 20
33.99999999999995
 30
0.0
 11
55.75
 21
33.99999999999995
 31
0.0
  0
LINE
  5
FFBBDAE469BC05EA
  8
0
  6
CONTINUOUS
 10
52.25
 20
-9.5
 30
0.0
 11
55.75
 21
-9.5
 31
0.0
  0
LINE
  5
FFBBDAE469BC05EB
  8
0
  6
CONTINUOUS
 10
52.25
 20
-8.0
 30
0.0
 11
55.75
 21
-8.0
 31
0.0
  0
LINE
  5
FFBBDAE469BC05EC
  8
0
  6
CONTINUOUS
 10
52.25
 20
-6.5
 30
0.0
 11
55.75
 21
-6.5
 31
0.0
  0
LINE
  5
FFBBDAE469BC05ED
  8
0
  6
CONTINUOUS
 10
52.25
 20
-5.0
 30
0.0
 11
55.75
 21
-5.0
 31
0.0
  0
LINE
  5
FFBBDAE469BC05EE
  8
0
  6
CONTINUOUS
 10
52.25
 20
-3.5
 30
0.0
 11
55.75
 21
-3.5
 31
0.0
  0
LINE
  5
FFBBDAE469BC05EF
  8
0
  6
CONTINUOUS
 10
52.25
 20
-2.0
 30
0.0
 11
55.75
 21
-2.0
 31
0.0
  0
LINE
  5
FFBBDAE469BC05F0
  8
0
  6
CONTINUOUS
 10
52.25
 20
-0.5
 30
0.0
 11
55.75
 21
-0.5
 31
0.0
  0
LINE
  5
FFBBDAE469BC05F1
  8
0
  6
CONTINUOUS
 10
52.25
 20
0.9999999999999431
 30
0.0
 11
55.75
 21
0.9999999999999431
 31
0.0
  0
LINE
  5
FFBBDAE469BC05F2
  8
0
  6
CONTINUOUS
 10
52.25
 20
2.4999999999999432
 30
0.0
 11
55.75
 21
2.4999999999999432
 31
0.0
  0
LINE
  5
FFBBDAE469BC05F4
  8
0
  6
CENTER
 10
28.521794765370029
 20
-36.0
 30
0.0
 11
-42.073418545082852
 21
-36.0
 31
0.0
  0
LINE
  5
FFBBDAE469BC05F5
  8
0
  6
CONTINUOUS
 10
26.0
 20
-39.5
 30
0.0
 11
26.0
 21
-32.5
 31
0.0
  0
LINE
  5
FFBBDAE469BC05F6
  8
0
  6
CONTINUOUS
 10
-35.352875309428782
 20
-37.399999999999643
 30
0.0
 11
-39.0
 21
-36.0
 31
0.0
  0
LINE
  5
FFBBDAE469BC05F7
  8
0
  6
CONTINUOUS
 10
25.5
 20
-37.399999999999643
 30
0.0
 11
-35.352875309429692
 21
-37.399999999999643
 31
0.0
  0
LINE
  5
FFBBDAE469BC05F8
  8
0
  6
CONTINUOUS
 10
24.937306695894222
 20
-34.599999999999461
 30
0.0
 11
-35.352875309428782
 21
-34.599999999999461
 31
0.0
  0
LINE
  5
FFBBDAE469BC05F9
  8
0
  6
CONTINUOUS
 10
-35.352875309428782
 20
-34.599999999999461
 30
0.0
 11
-39.0
 21
-36.0
 31
0.0
  0
LINE
  5
FFBBDAE469BC05FA
  8
0
  6
CONTINUOUS
 10
25.5
 20
-39.5
 30
0.0
 11
25.5
 21
-32.5
 31
0.0
  0
LINE
  5
FFBBDAE469BC05FB
  8
0
  6
CONTINUOUS
 10
26.0
 20
-39.5
 30
0.0
 11
25.5
 21
-39.5
 31
0.0
  0
LINE
  5
FFBBDAE469BC05FC
  8
0
  6
CONTINUOUS
 10
26.0
 20
-32.5
 30
0.0
 11
25.5
 21
-32.5
 31
0.0
  0
LINE
  5
FFBBDAE469BC05FD
  8
0
  6
CONTINUOUS
 10
24.937306695894222
 20
-34.599999999999461
 30
0.0
 11
25.5
 21
-32.5
 31
0.0
  0
LINE
  5
FFBBDAE469BC05FE
  8
0
  6
CONTINUOUS
 10
24.937306695894222
 20
-37.399999999999643
 30
0.0
 11
25.5
 21
-39.5
 31
0.0
  0
LINE
  5
FFBBDAE469BC05FF
  8
0
  6
CONTINUOUS
 10
24.937306695894222
 20
-37.399999999999643
 30
0.0
 11
24.937306695894222
 21
-34.599999999999461
 31
0.0
  0
LINE
  5
FFBBDAE469BC0600
  8
0
  6
CONTINUOUS
 10
21.0
 20
-36.878288927897302
 30
0.0
 11
21.0
 21
-35.121711072100879
 31
0.0
  0
LINE
  5
FFBBDAE469BC0601
  8
0
  6
CONTINUOUS
 10
13.0
 20
-36.878288927897302
 30
0.0
 11
13.0
 21
-35.121711072100879
 31
0.0
  0
LINE
  5
FFBBDAE469BC0602
  8
0
  6
CONTINUOUS
 10
19.699999999999822
 20
-36.878288927897302
 30
0.0
 11
19.699999999999822
 21
-35.121711072100879
 31
0.0
  0
LINE
  5
FFBBDAE469BC0603
  8
0
  6
CONTINUOUS
 10
18.399999999999629
 20
-36.878288927897302
 30
0.0
 11
18.399999999999629
 21
-35.121711072100879
 31
0.0
  0
LINE
  5
FFBBDAE469BC0604
  8
0
  6
CONTINUOUS
 10
17.099999999999451
 20
-36.878288927897302
 30
0.0
 11
17.099999999999451
 21
-35.121711072100879
 31
0.0
  0
LINE
  5
FFBBDAE469BC0605
  8
0
  6
CONTINUOUS
 10
15.80000000000018
 20
-36.878288927897302
 30
0.0
 11
15.80000000000018
 21
-35.121711072100879
 31
0.0
  0
LINE
  5
FFBBDAE469BC0606
  8
0
  6
CONTINUOUS
 10
14.5
 20
-36.878288927897302
 30
0.0
 11
14.5
 21
-35.121711072100879
 31
0.0
  0
LINE
  5
FFBBDAE469BC0607
  8
0
  6
CONTINUOUS
 10
-4.0
 20
-37.75
 30
0.0
 11
-4.0
 21
-34.25
 31
0.0
  0
LINE
  5
FFBBDAE469BC0608
  8
0
  6
CONTINUOUS
 10
-5.5
 20
-37.75
 30
0.0
 11
-5.5
 21
-34.25
 31
0.0
  0
LINE
  5
FFBBDAE469BC0609
  8
0
  6
CONTINUOUS
 10
-7.0
 20
-37.75
 30
0.0
 11
-7.0
 21
-34.25
 31
0.0
  0
LINE
  5
FFBBDAE469BC060A
  8
0
  6
CONTINUOUS
 10
-8.5
 20
-37.75
 30
0.0
 11
-8.5
 21
-34.25
 31
0.0
  0
LINE
  5
FFBBDAE469BC060B
  8
0
  6
CONTINUOUS
 10
-10.0
 20
-37.75
 30
0.0
 11
-10.0
 21
-34.25
 31
0.0
  0
LINE
  5
FFBBDAE469BC060C
  8
0
  6
CONTINUOUS
 10
-11.5
 20
-37.75
 30
0.0
 11
-11.5
 21
-34.25
 31
0.0
  0
LINE
  5
FFBBDAE469BC060D
  8
0
  6
CONTINUOUS
 10
-13.0
 20
-37.75
 30
0.0
 11
-13.0
 21
-34.25
 31
0.0
  0
LINE
  5
FFBBDAE469BC060E
  8
0
  6
CONTINUOUS
 10
-14.5
 20
-37.75
 30
0.0
 11
-14.5
 21
-34.25
 31
0.0
  0
LINE
  5
FFBBDAE469BC060F
  8
0
  6
CONTINUOUS
 10
-16.0
 20
-37.75
 30
0.0
 11
-16.0
 21
-34.25
 31
0.0
  0
LINE
  5
FFBBDAE469BC0610
  8
0
  6
CONTINUOUS
 10
-17.5
 20
-37.75
 30
0.0
 11
-17.5
 21
-34.25
 31
0.0
  0
LINE
  5
FFBBDAE469BC0611
  8
0
  6
CONTINUOUS
 10
-19.0
 20
-37.75
 30
0.0
 11
-19.0
 21
-34.25
 31
0.0
  0
LINE
  5
FFBBDAE469BC0612
  8
0
  6
CONTINUOUS
 10
-20.5
 20
-37.75
 30
0.0
 11
-20.5
 21
-34.25
 31
0.0
  0
LINE
  5
FFBBDAE469BC0613
  8
0
  6
CONTINUOUS
 10
-22.0
 20
-37.75
 30
0.0
 11
-22.0
 21
-34.25
 31
0.0
  0
LINE
  5
FFBBDAE469BC0614
  8
0
  6
CONTINUOUS
 10
-23.5
 20
-37.75
 30
0.0
 11
-23.5
 21
-34.25
 31
0.0
  0
LINE
  5
FFBBDAE469BC0615
  8
0
  6
CONTINUOUS
 10
-25.0
 20
-37.75
 30
0.0
 11
-25.0
 21
-34.25
 31
0.0
  0
LINE
  5
FFBBDAE469BC0616
  8
0
  6
CONTINUOUS
 10
-26.5
 20
-37.75
 30
0.0
 11
-26.5
 21
-34.25
 31
0.0
  0
LINE
  5
FFBBDAE469BC0617
  8
0
  6
CONTINUOUS
 10
-28.0
 20
-37.75
 30
0.0
 11
-28.0
 21
-34.25
 31
0.0
  0
LINE
  5
FFBBDAE469BC0618
  8
0
  6
CONTINUOUS
 10
-29.5
 20
-37.75
 30
0.0
 11
-29.5
 21
-34.25
 31
0.0
  0
LINE
  5
FFBBDAE469BC0619
  8
0
  6
CONTINUOUS
 10
-31.0
 20
-37.75
 30
0.0
 11
-31.0
 21
-34.25
 31
0.0
  0
LINE
  5
FFBBDAE469BC061A
  8
0
  6
CONTINUOUS
 10
-32.5
 20
-37.75
 30
0.0
 11
-32.5
 21
-34.25
 31
0.0
  0
LINE
  5
FFBBDAE469BC061B
  8
0
  6
CONTINUOUS
 10
-34.0
 20
-37.75
 30
0.0
 11
-34.0
 21
-34.25
 31
0.0
  0
LINE
  5
FFBBDAE469BC061C
  8
0
  6
CONTINUOUS
 10
9.5
 20
-37.75
 30
0.0
 11
9.5
 21
-34.25
 31
0.0
  0
LINE
  5
FFBBDAE469BC061D
  8
0
  6
CONTINUOUS
 10
8.0
 20
-37.75
 30
0.0
 11
8.0
 21
-34.25
 31
0.0
  0
LINE
  5
FFBBDAE469BC061E
  8
0
  6
CONTINUOUS
 10
6.5
 20
-37.75
 30
0.0
 11
6.5
 21
-34.25
 31
0.0
  0
LINE
  5
FFBBDAE469BC061F
  8
0
  6
CONTINUOUS
 10
5.0
 20
-37.75
 30
0.0
 11
5.0
 21
-34.25
 31
0.0
  0
LINE
  5
FFBBDAE469BC0620
  8
0
  6
CONTINUOUS
 10
3.5
 20
-37.75
 30
0.0
 11
3.5
 21
-34.25
 31
0.0
  0
LINE
  5
FFBBDAE469BC0621
  8
0
  6
CONTINUOUS
 10
2.0
 20
-37.75
 30
0.0
 11
2.0
 21
-34.25
 31
0.0
  0
LINE
  5
FFBBDAE469BC0622
  8
0
  6
CONTINUOUS
 10
0.5
 20
-37.75
 30
0.0
 11
0.5
 21
-34.25
 31
0.0
  0
LINE
  5
FFBBDAE469BC0623
  8
0
  6
CONTINUOUS
 10
-1.0
 20
-37.75
 30
0.0
 11
-1.0
 21
-34.25
 31
0.0
  0
LINE
  5
FFBBDAE469BC0624
  8
0
  6
CONTINUOUS
 10
-2.5
 20
-37.75
 30
0.0
 11
-2.5
 21
-34.25
 31
0.0
  0
ARC
  5
FFBBDAE469BC078C
  8
0
  6
CONTINUOUS
 10
26.499999999999091
 20
-12.91104849032507
 30
0.0
 40
0.5078507370011974
 50
349.912446193221
 51
190.08755380681691
  0
ARC
  5
FFBBDAE469BC078D
  8
0
  6
CONTINUOUS
 10
26.499999999999091
 20
-26.08895150965526
 30
0.0
 40
0.5078507369994066
 50
169.91244619317661
 51
10.08755380678539
  0
INSERT
  5
FFBBDAE469BC0792
  8
0
  6
CONTINUOUS
  2
*U13
 10
0.0
 20
0.0
 30
0.0
1001
ACAD
1002
{
1000
R14_HATCH_DATA
1000
FFBBDAE469BC0792
1011
1.0
1021
0.0
1031
0.0
1021
0.0
1031
0.0
1011
0.0
1021
0.0
1031
0.0
1021
1.0
1031
0.0
1011
0.0
1021
0.0
1031
0.0
1021
0.0
1031
1.0
1040
0.0
1010
0.0
1020
0.0
1030
1.0
1000
SOLID
1070
     1
1070
     1
1071
        1
1071
        7
1070
     1
1070
     1
1071
        4
1040
27.0
1040
-12.822096980659691
1040
1.0
1040
26.0
1040
-13.000000000000661
1040
0.0
1040
26.0
1040
-26.177903019320631
1040
1.0
1040
27.0
1040
-26.00000000000011
1040
0.0
1071
        4
1005
FFBBDAE469BC078C
1005
FFBBDAE469BC0011
1005
FFBBDAE469BC078D
1005
FFBBDAE469BBF4CF
1070
     0
1070
     1
1040
0.0982878632752399
1071
        1
1040
26.500368858997721
1040
-17.299886432526481
1040
0.0
1002
}
  0
DIMENSION
  5
FFBBDAE469BC07C2
  8
0
  6
CONTINUOUS
  2
*D2
 10
46.0
 20
-123.6431312248333
 30
0.0
 11
85.146260137697936
 21
-123.6431312248333
 31
0.0
 70
   128
  1
10mm gap
 13
36.0
 23
-105.8036411828834
 33
0.0
 14
46.0
 24
-84.320865341794374
 34
0.0
  0
DIMENSION
  5
FFBBDAE469BC0808
  8
0
  6
CONTINUOUS
  2
*D3
 10
59.287505961641727
 20
-110.64456170116171
 30
0.0
 11
103.0216185796189
 21
-112.1670849375665
 31
0.0
 70
   128
  1
12mm minimum edge distance
 13
46.0
 23
-84.320865341794374
 33
0.0
 14
59.287505961641727
 24
-84.334446723168085
 34
0.0
  0
ARC
  5
FFBBDAE469BC08C9
  8
0
  6
CONTINUOUS
 10
75.388951509663457
 20
-26.49999999999903
 30
0.0
 40
0.5078507370008851
 50
259.91244619346122
 51
100.08755380664481
  0
INSERT
  5
FFBBDAE469BC08CF
  8
0
  6
CONTINUOUS
  2
*U14
 10
0.0
 20
0.0
 30
0.0
1001
ACAD
1002
{
1000
R14_HATCH_DATA
1000
FFBBDAE469BC08CF
1011
1.0
1021
0.0
1031
0.0
1021
0.0
1031
0.0
1011
0.0
1021
0.0
1031
0.0
1021
1.0
1031
0.0
1011
0.0
1021
0.0
1031
0.0
1021
0.0
1031
1.0
1040
0.0
1010
0.0
1020
0.0
1030
1.0
1000
SOLID
1070
     1
1070
     1
1071
        1
1071
        7
1070
     1
1070
     1
1071
        4
1040
75.477903019326703
1040
-27.0
1040
1.0
1040
75.299999999989325
1040
-26.0
1040
0.0
1040
60.5
1040
-26.0
1040
0.0
1040
60.5
1040
-27.0
1040
0.0
1071
        4
1005
FFBBDAE469BBF68A
1005
FFBBDAE469BC01FE
1005
FFBBDAE469BBF4A6
1005
FFBBDAE469BC08C9
1070
     0
1070
     1
1040
0.0707414637270496
1071
        1
1040
70.287502900324398
1040
-26.77995000523925
1040
0.0
1002
}
  0
INSERT
  5
FFBBDAE469BC0A2C
  8
0
  6
CONTINUOUS
  2
*U15
 10
0.0
 20
0.0
 30
0.0
  0
INSERT
  5
FFBBDAE469BC0D3D
  8
0
  6
CONTINUOUS
  2
*U16
 10
0.0
 20
0.0
 30
0.0
1001
ACAD
1000
DSTYLE
1002
{
1070
    40
1040
2.0
1070
    77
1070
     0
1002
}
  0
INSERT
  5
FFBBDAE469BC0D3E
  8
0
  6
CONTINUOUS
  2
*U17
 10
0.0
 20
0.0
 30
0.0
  0
INSERT
  5
FFBBDAE469BC0D3F
  8
0
  6
CONTINUOUS
  2
*U18
 10
0.0
 20
0.0
 30
0.0
1001
ACAD
1000
DSTYLE
1002
{
1070
    40
1040
2.0
1070
    77
1070
     0
1002
}
  0
INSERT
  5
FFBBDAE469BC0D40
  8
0
  6
CONTINUOUS
  2
*U19
 10
0.0
 20
0.0
 30
0.0
  0
INSERT
  5
FFBBDAE469BC0D41
  8
0
  6
CONTINUOUS
  2
*U20
 10
0.0
 20
0.0
 30
0.0
1001
ACAD
1000
DSTYLE
1002
{
1070
    40
1040
2.0
1070
    77
1070
     0
1002
}
  0
INSERT
  5
FFBBDAE469BC0D42
  8
0
  6
CONTINUOUS
  2
*U21
 10
0.0
 20
0.0
 30
0.0
  0
INSERT
  5
FFBBDAE469BC0D43
  8
0
  6
CONTINUOUS
  2
*U22
 10
0.0
 20
0.0
 30
0.0
1001
ACAD
1000
DSTYLE
1002
{
1070
    40
1040
2.0
1070
    77
1070
     0
1002
}
  0
INSERT
  5
FFBBDAE469BC0D44
  8
0
  6
CONTINUOUS
  2
*U23
 10
0.0
 20
0.0
 30
0.0
  0
INSERT
  5
FFBBDAE469BC0D45
  8
0
  6
CONTINUOUS
  2
*U24
 10
0.0
 20
0.0
 30
0.0
1001
ACAD
1000
DSTYLE
1002
{
1070
    40
1040
2.0
1070
    77
1070
     0
1002
}
  0
INSERT
  5
FFBBDAE469BC0D46
  8
0
  6
CONTINUOUS
  2
*U25
 10
0.0
 20
0.0
 30
0.0
  0
INSERT
  5
FFBBDAE469BC0D47
  8
0
  6
CONTINUOUS
  2
*U26
 10
0.0
 20
0.0
 30
0.0
1001
ACAD
1000
DSTYLE
1002
{
1070
    40
1040
2.0
1070
    77
1070
     0
1002
}
  0
INSERT
  5
FFBBDAE469BC0D48
  8
0
  6
CONTINUOUS
  2
*U27
 10
0.0
 20
0.0
 30
0.0
  0
INSERT
  5
FFBBDAE469BC0D49
  8
0
  6
CONTINUOUS
  2
*U28
 10
0.0
 20
0.0
 30
0.0
1001
ACAD
1000
DSTYLE
1002
{
1070
    40
1040
2.0
1070
    77
1070
     0
1002
}
  0
INSERT
  5
FFBBDAE469BC0D4A
  8
0
  6
CONTINUOUS
  2
*U29
 10
0.0
 20
0.0
 30
0.0
  0
INSERT
  5
FFBBDAE469BC0D4B
  8
0
  6
CONTINUOUS
  2
*U30
 10
0.0
 20
0.0
 30
0.0
1001
ACAD
1000
DSTYLE
1002
{
1070
    40
1040
2.0
1070
    77
1070
     0
1002
}
  0
INSERT
  5
FFBBDAE469BC0D4C
  8
0
  6
CONTINUOUS
  2
*U31
 10
0.0
 20
0.0
 30
0.0
  0
INSERT
  5
FFBBDAE469BC0D50
  8
0
  6
CONTINUOUS
  2
*U32
 10
0.0
 20
0.0
 30
0.0
1001
ACAD
1000
DSTYLE
1002
{
1070
    40
1040
2.0
1070
    77
1070
     0
1002
}
  0
INSERT
  5
FFBBDAE469BC0D51
  8
0
  6
CONTINUOUS
  2
*U33
 10
0.0
 20
0.0
 30
0.0
  0
INSERT
  5
FFBBDAE469BC0D52
  8
0
  6
CONTINUOUS
  2
*U34
 10
0.0
 20
0.0
 30
0.0
1001
ACAD
1000
DSTYLE
1002
{
1070
    40
1040
2.0
1070
    77
1070
     0
1002
}
  0
INSERT
  5
FFBBDAE469BC0D53
  8
0
  6
CONTINUOUS
  2
*U35
 10
0.0
 20
0.0
 30
0.0
  0
INSERT
  5
FFBBDAE469BC0D54
  8
0
  6
CONTINUOUS
  2
*U36
 10
0.0
 20
0.0
 30
0.0
1001
ACAD
1000
DSTYLE
1002
{
1070
    40
1040
2.0
1070
    77
1070
     0
1002
}
  0
INSERT
  5
FFBBDAE469BC0D55
  8
0
  6
CONTINUOUS
  2
*U37
 10
0.0
 20
0.0
 30
0.0
  0
INSERT
  5
FFBBDAE469BC0D56
  8
0
  6
CONTINUOUS
  2
*U38
 10
0.0
 20
0.0
 30
0.0
1001
ACAD
1000
DSTYLE
1002
{
1070
    40
1040
2.0
1070
    77
1070
     0
1002
}
  0
INSERT
  5
FFBBDAE469BC0D57
  8
0
  6
CONTINUOUS
  2
*U39
 10
0.0
 20
0.0
 30
0.0
  0
POLYLINE
  5
FFBBDAE469BC0D70
  8
0
  6
CONTINUOUS
 66
     1
 10
0.0
 20
0.0
 30
0.0
  0
VERTEX
  5
FFBBDAE469BC1E80
  8
0
  6
CONTINUOUS
 10
62.384532961389603
 20
-134.28121233062811
 30
0.0
  0
VERTEX
  5
FFBBDAE469BC1E81
  8
0
  6
CONTINUOUS
 10
-24.882568113763231
 20
-134.28121233062811
 30
0.0
  0
VERTEX
  5
FFBBDAE469BC1E82
  8
0
  6
CONTINUOUS
 10
-25.88256811376505
 20
-131.53373491117381
 30
0.0
  0
VERTEX
  5
FFBBDAE469BC1E83
  8
0
  6
CONTINUOUS
 10
-27.88256811376505
 20
-137.02868975008289
 30
0.0
  0
VERTEX
  5
FFBBDAE469BC1E84
  8
0
  6
CONTINUOUS
 10
-28.882568113763231
 20
-134.28121233062811
 30
0.0
  0
VERTEX
  5
FFBBDAE469BC1E85
  8
0
  6
CONTINUOUS
 10
-116.1496691889169
 20
-134.28121233062811
 30
0.0
  0
SEQEND
  5
FFBBDAE469BC1E86
  8
0
  6
CONTINUOUS
  0
POLYLINE
  5
FFBBDAE469BC0D7A
  8
0
  6
CONTINUOUS
 66
     1
 10
0.0
 20
0.0
 30
0.0
  0
VERTEX
  5
FFBBDAE469BC1E87
  8
0
  6
CONTINUOUS
 10
115.78772588803891
 20
100.67520217865589
 30
0.0
  0
VERTEX
  5
FFBBDAE469BC1E88
  8
0
  6
CONTINUOUS
 10
115.78772588803891
 20
24.970040682423591
 30
0.0
  0
VERTEX
  5
FFBBDAE469BC1E89
  8
0
  6
CONTINUOUS
 10
113.0402484685828
 20
23.970040682424841
 30
0.0
  0
VERTEX
  5
FFBBDAE469BC1E8A
  8
0
  6
CONTINUOUS
 10
118.5352033074914
 20
21.970040682424841
 30
0.0
  0
VERTEX
  5
FFBBDAE469BC1E8B
  8
0
  6
CONTINUOUS
 10
115.78772588803891
 20
20.970040682423591
 30
0.0
  0
VERTEX
  5
FFBBDAE469BC1E8C
  8
0
  6
CONTINUOUS
 10
115.78772588803891
 20
-54.735120813808742
 30
0.0
  0
SEQEND
  5
FFBBDAE469BC1E8D
  8
0
  6
CONTINUOUS
  0
LINE
  5
FFBBDAE469BC0D7C
  8
0
  6
CONTINUOUS
 10
90.0
 20
90.0
 30
0.0
 11
115.78772588803891
 21
90.0
 31
0.0
  0
LINE
  5
FFBBDAE469BC0D7D
  8
0
  6
CONTINUOUS
 10
90.0
 20
0.0
 30
0.0
 11
115.78772588803891
 21
0.0
 31
0.0
  0
LINE
  5
FFBBDAE469BC0D7E
  8
0
  6
CONTINUOUS
 10
-90.0
 20
-90.0
 30
0.0
 11
-90.0
 21
-134.28121233062811
 31
0.0
  0
LINE
  5
FFBBDAE469BC0D7F
  8
0
  6
CONTINUOUS
 10
0.0
 20
-90.0
 30
0.0
 11
0.0
 21
-134.28121233062811
 31
0.0
  0
LINE
  5
FFBBDAE469BC157F
  8
0
  6
CONTINUOUS
 10
55.400000000000553
 20
-4.500000000000056
 30
0.0
 11
104.5000000000018
 21
-4.500000000000056
 31
0.0
  0
DIMENSION
  5
FFBBDAE469BC15E6
  8
0
  6
CONTINUOUS
  2
*D7
 10
-104.34094915531399
 20
-104.5
 30
0.0
 11
-108.3832411062007
 21
-54.50000000000005
 31
0.0
 70
     0
 13
4.5000000000027276
 23
-4.500000000000056
 33
0.0
 14
4.5000000000027089
 24
-104.5
 34
0.0
 50
90.0
  0
INSERT
  5
FFBBDAE469BC1A70
  8
0
  6
CONTINUOUS
  2
*U40
 10
0.0
 20
0.0
 30
0.0
1001
ACAD
1000
DSTYLE
1002
{
1070
    40
1040
2.0
1070
    77
1070
     0
1002
}
  0
INSERT
  5
FFBBDAE469BC1A71
  8
0
  6
CONTINUOUS
  2
*U41
 10
0.0
 20
0.0
 30
0.0
  0
ENDSEC
  0
EOF
