  0
SECTION
  2
HEADER
  9
$ACADVER
  1
AC1009
  9
$INSBASE
 10
0.0
 20
0.0
 30
0.0
  9
$EXTMIN
 10
-372.05588337814129
 20
-204.21844233182901
 30
-0.0015258207003583
  9
$EXTMAX
 10
544.57310022834508
 20
998.54065194095199
 30
0.0000000349246037
  9
$LIMMIN
 10
0.0
 20
0.0
  9
$LIMMAX
 10
420.0
 20
297.0
  9
$ORTHOMODE
 70
     0
  9
$REGENMODE
 70
     1
  9
$FILLMODE
 70
     1
  9
$QTEXTMODE
 70
     0
  9
$MIRRTEXT
 70
     0
  9
$DRAGMODE
 70
     2
  9
$LTSCALE
 40
1.0
  9
$OSMODE
 70
     0
  9
$ATTMODE
 70
     1
  9
$TEXTSIZE
 40
35.0
  9
$TRACEWID
 40
1.0
  9
$TEXTSTYLE
  7
ARIAL
  9
$CLAYER
  8
0
  9
$CELTYPE
  6
CONTINUOUS
  9
$CECOLOR
 62
   256
  9
$DIMSCALE
 40
5.0
  9
$DIMASZ
 40
1.8
  9
$DIMEXO
 40
1.8
  9
$DIMDLI
 40
5.0
  9
$DIMRND
 40
0.0
  9
$DIMDLE
 40
1.8
  9
$DIMEXE
 40
1.8
  9
$DIMTP
 40
0.0
  9
$DIMTM
 40
0.0
  9
$DIMTXT
 40
2.5
  9
$DIMCEN
 40
1.8
  9
$DIMTSZ
 40
0.0
  9
$DIMTOL
 70
     0
  9
$DIMLIM
 70
     0
  9
$DIMTIH
 70
     0
  9
$DIMTOH
 70
     0
  9
$DIMSE1
 70
     0
  9
$DIMSE2
 70
     0
  9
$DIMTAD
 70
     0
  9
$DIMZIN
 70
     0
  9
$DIMBLK
  1
ARCHTICK
  9
$DIMASO
 70
     1
  9
$DIMSHO
 70
     1
  9
$DIMPOST
  1

  9
$DIMAPOST
  1

  9
$DIMALT
 70
     0
  9
$DIMALTD
 70
     2
  9
$DIMALTF
 40
0.0394
  9
$DIMLFAC
 40
1.0
  9
$DIMTOFL
 70
     1
  9
$DIMTVP
 40
0.0
  9
$DIMTIX
 70
     1
  9
$DIMSOXD
 70
     0
  9
$DIMSAH
 70
     0
  9
$DIMBLK1
  1

  9
$DIMBLK2
  1

  9
$DIMSTYLE
  2
1_TO_5_LEADER
  9
$DIMCLRD
 70
     0
  9
$DIMCLRE
 70
     0
  9
$DIMCLRT
 70
     0
  9
$DIMTFAC
 40
1.0
  9
$DIMGAP
 40
1.0
  9
$LUNITS
 70
     2
  9
$LUPREC
 70
     1
  9
$SKETCHINC
 40
1.0
  9
$FILLETRAD
 40
0.0
  9
$AUNITS
 70
     1
  9
$AUPREC
 70
     4
  9
$MENU
  1
acad
  9
$ELEVATION
 40
0.0
  9
$PELEVATION
 40
0.0
  9
$THICKNESS
 40
0.0
  9
$LIMCHECK
 70
     0
  9
$BLIPMODE
 70
     0
  9
$CHAMFERA
 40
10.0
  9
$CHAMFERB
 40
10.0
  9
$SKPOLY
 70
     0
  9
$TDCREATE
 40
2450935.42424213
  9
$TDUPDATE
 40
2457100.7031544442
  9
$TDINDWG
 40
7.7853876619999998
  9
$TDUSRTIMER
 40
7.7853876619999998
  9
$USRTIMER
 70
     1
  9
$ANGBASE
 50
0.0
  9
$ANGDIR
 70
     0
  9
$PDMODE
 70
     0
  9
$PDSIZE
 40
-1.0
  9
$PLINEWID
 40
0.0
  9
$COORDS
 70
     2
  9
$SPLFRAME
 70
     0
  9
$SPLINETYPE
 70
     6
  9
$SPLINESEGS
 70
     8
  9
$ATTDIA
 70
     0
  9
$ATTREQ
 70
     1
  9
$HANDLING
 70
     1
  9
$HANDSEED
  5
80000699
  9
$SURFTAB1
 70
     6
  9
$SURFTAB2
 70
     6
  9
$SURFTYPE
 70
     6
  9
$SURFU
 70
     6
  9
$SURFV
 70
     6
  9
$UCSNAME
  2

  9
$UCSORG
 10
0.0
 20
0.0
 30
0.0
  9
$UCSXDIR
 10
1.0
 20
0.0
 30
0.0
  9
$UCSYDIR
 10
0.0
 20
1.0
 30
0.0
  9
$PUCSNAME
  2

  9
$PUCSORG
 10
0.0
 20
0.0
 30
0.0
  9
$PUCSXDIR
 10
1.0
 20
0.0
 30
0.0
  9
$PUCSYDIR
 10
0.0
 20
1.0
 30
0.0
  9
$USERI1
 70
    50
  9
$USERI2
 70
     1
  9
$USERI3
 70
     0
  9
$USERI4
 70
     2
  9
$USERI5
 70
     0
  9
$USERR1
 40
50.0
  9
$USERR2
 40
0.0
  9
$USERR3
 40
50.0
  9
$USERR4
 40
100.0
  9
$USERR5
 40
100.0
  9
$WORLDVIEW
 70
     1
  9
$SHADEDGE
 70
     3
  9
$SHADEDIF
 70
    70
  9
$TILEMODE
 70
     1
  9
$MAXACTVP
 70
    16
  9
$PLIMCHECK
 70
     0
  9
$PEXTMIN
 10
0.0
 20
0.0
 30
0.0
  9
$PEXTMAX
 10
0.0
 20
0.0
 30
0.0
  9
$PLIMMIN
 10
0.0
 20
0.0
  9
$PLIMMAX
 10
12.0
 20
9.0
  9
$UNITMODE
 70
     0
  9
$VISRETAIN
 70
     0
  9
$PLINEGEN
 70
     0
  9
$PSLTSCALE
 70
     1
  0
ENDSEC
  0
SECTION
  2
TABLES
  0
TABLE
  2
VPORT
 70
     1
  0
VPORT
  2
*ACTIVE
 70
     0
 10
0.0
 20
0.0
 11
1.0
 21
1.0
 12
86.258608425101812
 22
397.16110480456149
 13
0.0
 23
0.0
 14
1.0
 24
1.0
 15
10.0
 25
10.0
 16
0.0
 26
0.0
 36
1.0
 17
0.0
 27
0.0
 37
0.0
 40
1210.931862750286
 41
1.0918367346938771
 42
50.0
 43
0.0
 44
0.0
 50
0.0
 51
0.0
 71
     0
 72
   100
 73
     1
 74
     3
 75
     0
 76
     0
 77
     0
 78
     2
  0
ENDTAB
  0
TABLE
  2
LTYPE
 70
     2
  0
LTYPE
  2
CONTINUOUS
 70
     0
  3
Solid line
 72
    65
 73
     0
 40
0.0
  0
ENDTAB
  0
TABLE
  2
LAYER
 70
    11
  0
LAYER
  2
0
 70
     0
 62
     7
  6
CONTINUOUS
  0
LAYER
  2
DEFPOINTS
 70
     0
 62
     7
  6
CONTINUOUS
  0
LAYER
  2
JH_G-PLANOTM
 70
     0
 62
     7
  6
CONTINUOUS
  0
LAYER
  2
A-WALL
 70
     0
 62
     7
  6
CONTINUOUS
  0
LAYER
  2
G-PLANOTM
 70
     0
 62
     7
  6
CONTINUOUS
  0
ENDTAB
  0
TABLE
  2
STYLE
 70
     5
  0
STYLE
  2
STANDARD
 70
     0
 40
0.0
 41
1.0
 50
0.0
 71
     0
 42
3.5
  3
txt
  4

  0
STYLE
  2
2_5
 70
     0
 40
2.5
 41
1.0
 50
0.0
 71
     0
 42
2.0
  3
txt
  4

  0
STYLE
  2
ARIAL
 70
     0
 40
0.0
 41
1.0
 50
0.0
 71
     0
 42
35.0
  3
txt
  4

  0
ENDTAB
  0
TABLE
  2
VIEW
 70
     5
  0
VIEW
  2
A
 70
     1
 40
27750.0
 10
17125.0
 20
13875.0
 41
34250.0
 11
0.0
 21
0.0
 31
1.0
 12
0.0
 22
0.0
 32
0.0
 42
50.0
 43
0.0
 44
0.0
 50
0.0
 71
     0
  0
VIEW
  2
MS-A
 70
     1
 40
27750.0
 10
17125.0
 20
13875.0
 41
34250.0
 11
0.0
 21
0.0
 31
1.0
 12
0.0
 22
0.0
 32
0.0
 42
50.0
 43
0.0
 44
0.0
 50
0.0
 71
     0
  0
VIEW
  2
PS-A
 70
     1
 40
560.0
 10
394.84013230429991
 20
280.0
 41
789.68026460859983
 11
0.0
 21
0.0
 31
1.0
 12
0.0
 22
0.0
 32
0.0
 42
50.0
 43
0.0
 44
0.0
 50
0.0
 71
     0
  0
VIEW
  2
VA
 70
     1
 40
560.0
 10
392.50000000000011
 20
280.0
 41
785.00000000000023
 11
0.0
 21
0.0
 31
1.0
 12
0.0
 22
0.0
 32
0.0
 42
50.0
 43
0.0
 44
0.0
 50
0.0
 71
     0
  0
ENDTAB
  0
TABLE
  2
UCS
 70
     0
  0
ENDTAB
  0
TABLE
  2
APPID
 70
    21
  0
APPID
  2
ACAD
 70
     0
  0
APPID
  2
CONTENTTABDATA
 70
     0
  0
APPID
  2
CONTENTCURRENTTAB
 70
     0
  0
APPID
  2
CONTENTBLOCKICON
 70
     0
  0
APPID
  2
CONTENTBLOCKDESCRIPTION
 70
     0
  0
APPID
  2
ACAD_PSEXT
 70
     0
  0
APPID
  2
ACAD_MLEADERVER
 70
     0
  0
APPID
  2
ACADANNOPO
 70
     0
  0
APPID
  2
ACAD_EXEMPT_FROM_CAD_STANDARDS
 70
     0
  0
APPID
  2
ACADANNOTATIVE
 70
     0
  0
APPID
  2
REVIT
 70
     0
  0
APPID
  2
AEC_XDATA_BOUND_SPACE
 70
     0
  0
APPID
  2
ACADANNOAV
 70
     0
  0
APPID
  2
ACAUTHENVIRON
 70
     0
  0
APPID
  2
ACDBDYNAMICBLOCKTRUENAME
 70
     0
  0
APPID
  2
ACDBDYNAMICBLOCKGUID
 70
     0
  0
APPID
  2
ACAD_DSTYLE_DIMEXT_ENABLED
 70
     0
  0
APPID
  2
ACAD_DSTYLE_DIMEXT_LENGTH
 70
     0
  0
APPID
  2
ACAD_NAV_VCDISPLAY
 70
     0
  0
APPID
  2
GRADIENTCOLOR1ACI
 70
     0
  0
APPID
  2
GRADIENTCOLOR2ACI
 70
     0
  0
ENDTAB
  0
TABLE
  2
DIMSTYLE
 70
     1
  0
DIMSTYLE
  2
1_TO_5_LEADER
 70
     0
  3

  4

  5
ARCHTICK
  6

  7

 40
5.0
 41
1.8
 42
1.8
 43
5.0
 44
1.8
 45
0.0
 46
1.8
 47
0.0
 48
0.0
140
2.5
141
1.8
142
0.0
143
0.0394
144
1.0
145
0.0
146
1.0
147
1.0
 71
     0
 72
     0
 73
     0
 74
     0
 75
     0
 76
     0
 77
     0
 78
     0
170
     0
171
     2
172
     1
173
     0
174
     1
175
     0
176
     0
177
     0
178
     0
  0
ENDTAB
  0
ENDSEC
  0
SECTION
  2
BLOCKS
  0
BLOCK
  8
0
  2
$MODEL_SPACE
 70
     0
 10
0.0
 20
0.0
 30
0.0
  3
$MODEL_SPACE
  1

  0
ENDBLK
  5
FFBBDAE469BA29CD
  8
0
  0
BLOCK
 67
     1
  8
0
  2
$PAPER_SPACE
 70
     0
 10
0.0
 20
0.0
 30
0.0
  3
$PAPER_SPACE
  1

  0
ENDBLK
  5
FFBBDAE469BC87D0
 67
     1
  8
0
  0
BLOCK
  8
0
  2
_ARCHTICK
 70
     0
 10
0.0
 20
0.0
 30
0.0
  3
_ARCHTICK
  1

  0
POLYLINE
  5
FFBBDAE469BBD01A
  8
0
  6
BYBLOCK
 62
     0
 66
     1
 10
0.0
 20
0.0
 30
0.0
 40
0.15
 41
0.15
  0
VERTEX
  5
FFBBDAE469BC8A6A
  8
0
  6
BYBLOCK
 62
     0
 10
-0.5
 20
-0.5
 30
0.0
  0
VERTEX
  5
FFBBDAE469BC8A6B
  8
0
  6
BYBLOCK
 62
     0
 10
0.5
 20
0.5
 30
0.0
  0
SEQEND
  5
FFBBDAE469BC8A6C
  8
0
  6
BYBLOCK
 62
     0
  0
ENDBLK
  5
FFBBDAE469BBD01C
  8
0
  0
BLOCK
  8
0
  2
*D11
 70
     1
 10
0.0
 20
0.0
 30
0.0
  3
*D11
  1

  0
LINE
  5
FFBBDAE469BC8A12
  8
0
  6
CONTINUOUS
 62
     0
 10
321.14634221672532
 20
280.29550757159973
 30
0.0
 11
355.14634221672532
 21
280.29550757159973
 31
0.0
  0
LINE
  5
FFBBDAE469BC8A13
  8
0
  6
CONTINUOUS
 62
     0
 10
321.14634221672532
 20
295.74330149433189
 30
0.0
 11
355.14634221672532
 21
295.74330149433189
 31
0.0
  0
LINE
  5
FFBBDAE469BC8A14
  8
0
  6
CONTINUOUS
 62
     0
 10
346.14634221672532
 20
271.29550757159973
 30
0.0
 11
346.14634221672532
 21
304.74330149433189
 31
0.0
  0
INSERT
  5
FFBBDAE469BC8A15
  8
0
  6
CONTINUOUS
  2
*U52
 10
0.0
 20
0.0
 30
0.0
  0
INSERT
  5
FFBBDAE469BC8A16
  8
0
  6
CONTINUOUS
 62
     0
  2
_ARCHTICK
 10
346.14634221672532
 20
280.29550757159973
 30
0.0
 41
9.0
 42
9.0
 43
9.0
 50
270.0
  0
INSERT
  5
FFBBDAE469BC8A17
  8
0
  6
CONTINUOUS
 62
     0
  2
_ARCHTICK
 10
346.14634221672532
 20
295.74330149433189
 30
0.0
 41
9.0
 42
9.0
 43
9.0
 50
90.0
  0
POINT
  5
FFBBDAE469BC8A18
  8
DEFPOINTS
  6
CONTINUOUS
 62
     0
 10
285.04843995832829
 20
280.29550757159973
 30
0.0
  0
POINT
  5
FFBBDAE469BC8A19
  8
DEFPOINTS
  6
CONTINUOUS
 62
     0
 10
284.9619589310833
 20
295.74330149433189
 30
0.0
  0
POINT
  5
FFBBDAE469BC8A1A
  8
DEFPOINTS
  6
CONTINUOUS
 62
     0
 10
346.14634221672532
 20
295.74330149433189
 30
0.0
  0
ENDBLK
  5
FFBBDAE469BC064C
  8
0
  0
BLOCK
  8
0
  2
*X13
 70
     1
 10
0.0
 20
0.0
 30
0.0
  3
*X13
  1

  0
LINE
  5
FFBBDAE469BC8A70
  8
0
  6
CONTINUOUS
 62
     0
 10
-136.68621761945181
 20
154.72068381790331
 30
0.0
 11
-106.9703834268241
 21
125.0048496252757
 31
0.0
  0
LINE
  5
FFBBDAE469BC8A71
  8
0
  6
CONTINUOUS
 62
     0
 10
-141.99169114338309
 20
174.1682929655662
 30
0.0
 11
-97.115180275697185
 21
129.29178209788029
 31
0.0
  0
LINE
  5
FFBBDAE469BC8A72
  8
0
  6
CONTINUOUS
 62
     0
 10
-142.1595975787175
 20
188.47833502463121
 30
0.0
 11
-87.337062550371911
 21
133.65579999628559
 31
0.0
  0
LINE
  5
FFBBDAE469BC8A73
  8
0
  6
CONTINUOUS
 62
     0
 10
-142.15959757871721
 20
202.6204706483625
 30
0.0
 11
-83.5822100100022
 21
144.0430830796474
 31
0.0
  0
LINE
  5
FFBBDAE469BC8A74
  8
0
  6
CONTINUOUS
 62
     0
 10
-142.15959757871789
 20
216.76260627209379
 30
0.0
 11
-83.582210010002882
 21
158.18521870337869
 31
0.0
  0
LINE
  5
FFBBDAE469BC8A75
  8
0
  6
CONTINUOUS
 62
     0
 10
-142.1595975787175
 20
230.90474189582409
 30
0.0
 11
-83.582210010002427
 21
172.32735432710891
 31
0.0
  0
LINE
  5
FFBBDAE469BC8A76
  8
0
  6
CONTINUOUS
 62
     0
 10
-142.15959757871721
 20
245.04687751955521
 30
0.0
 11
-83.582210010001972
 21
186.46948995083989
 31
0.0
  0
LINE
  5
FFBBDAE469BC8A77
  8
0
  6
CONTINUOUS
 62
     0
 10
-142.15959757871789
 20
259.1890131432865
 30
0.0
 11
-83.582210010002882
 21
200.61162557457149
 31
0.0
  0
LINE
  5
FFBBDAE469BC8A78
  8
0
  6
CONTINUOUS
 62
     0
 10
-142.15959757871769
 20
273.33114876701779
 30
0.0
 11
-83.582210010002655
 21
214.75376119830281
 31
0.0
  0
LINE
  5
FFBBDAE469BC8A79
  8
0
  6
CONTINUOUS
 62
     0
 10
-142.15959757871721
 20
287.47328439074818
 30
0.0
 11
-83.582210010001972
 21
228.89589682203271
 31
0.0
  0
LINE
  5
FFBBDAE469BC8A7A
  8
0
  6
CONTINUOUS
 62
     0
 10
-142.15959757871789
 20
301.61542001447918
 30
0.0
 11
-83.582210010002882
 21
243.0380324457642
 31
0.0
  0
LINE
  5
FFBBDAE469BC8A7B
  8
0
  6
CONTINUOUS
 62
     0
 10
-142.15959757871769
 20
315.75755563821048
 30
0.0
 11
-83.582210010002655
 21
257.18016806949549
 31
0.0
  0
LINE
  5
FFBBDAE469BC8A7C
  8
0
  6
CONTINUOUS
 62
     0
 10
-142.1595975787175
 20
329.89969126194092
 30
0.0
 11
-83.5822100100022
 21
271.32230369322588
 31
0.0
  0
LINE
  5
FFBBDAE469BC8A7D
  8
0
  6
CONTINUOUS
 62
     0
 10
-142.15959757871789
 20
344.04182688567221
 30
0.0
 11
-83.582210010002655
 21
285.46443931695671
 31
0.0
  0
LINE
  5
FFBBDAE469BC8A7E
  8
0
  6
CONTINUOUS
 62
     0
 10
-142.1595975787175
 20
358.18396250940299
 30
0.0
 11
-83.582210010002655
 21
299.60657494068818
 31
0.0
  0
LINE
  5
FFBBDAE469BC8A7F
  8
0
  6
CONTINUOUS
 62
     0
 10
-142.1595975787175
 20
372.3260981331336
 30
0.0
 11
-83.582210010002427
 21
313.74871056441862
 31
0.0
  0
LINE
  5
FFBBDAE469BC8A80
  8
0
  6
CONTINUOUS
 62
     0
 10
-142.15959757871809
 20
386.468233756865
 30
0.0
 11
-83.582210010002882
 21
327.89084618814991
 31
0.0
  0
LINE
  5
FFBBDAE469BC8A81
  8
0
  6
CONTINUOUS
 62
     0
 10
-142.1595975787175
 20
400.61036938059573
 30
0.0
 11
-83.582210010002427
 21
342.03298181188069
 31
0.0
  0
LINE
  5
FFBBDAE469BC8A82
  8
0
  6
CONTINUOUS
 62
     0
 10
-142.1595975787175
 20
414.75250500432628
 30
0.0
 11
-96.727326151408093
 21
369.32023357701718
 31
0.0
  0
LINE
  5
FFBBDAE469BC8A83
  8
0
  6
CONTINUOUS
 62
     0
 10
-142.15959757871721
 20
428.89464062805769
 30
0.0
 11
-96.727326151407397
 21
383.46236920074813
 31
0.0
  0
LINE
  5
FFBBDAE469BC8A84
  8
0
  6
CONTINUOUS
 62
     0
 10
-142.1595975787175
 20
443.03677625178869
 30
0.0
 11
-96.378183359580134
 21
397.25536203265119
 31
0.0
  0
LINE
  5
FFBBDAE469BC8A85
  8
0
  6
CONTINUOUS
 62
     0
 10
-142.15959757871721
 20
457.17891187551891
 30
0.0
 11
-90.343456517559844
 21
405.36277081436151
 31
0.0
  0
LINE
  5
FFBBDAE469BC8A86
  8
0
  6
CONTINUOUS
 62
     0
 10
-142.15959757871721
 20
471.32104749925043
 30
0.0
 11
-88.173203886635505
 21
417.33465380716882
 31
0.0
  0
LINE
  5
FFBBDAE469BC8A87
  8
0
  6
CONTINUOUS
 62
     0
 10
-142.1595975787175
 20
485.46318312298149
 30
0.0
 11
-88.173203886635974
 21
431.47678943089983
 31
0.0
  0
LINE
  5
FFBBDAE469BC8A88
  8
0
  6
CONTINUOUS
 62
     0
 10
-142.15959757871721
 20
499.60531874671187
 30
0.0
 11
-88.173203886635065
 21
445.61892505462941
 31
0.0
  0
LINE
  5
FFBBDAE469BC8A89
  8
0
  6
CONTINUOUS
 62
     0
 10
-142.15959757871701
 20
513.74745437044294
 30
0.0
 11
-88.173203886634369
 21
459.76106067836031
 31
0.0
  0
LINE
  5
FFBBDAE469BC8A8A
  8
0
  6
CONTINUOUS
 62
     0
 10
-142.15959757871769
 20
527.88958999417423
 30
0.0
 11
-88.173203886633701
 21
473.90319630209018
 31
0.0
  0
LINE
  5
FFBBDAE469BC8A8B
  8
0
  6
CONTINUOUS
 62
     0
 10
-142.15959757871721
 20
542.03172561790552
 30
0.0
 11
-88.173203886633473
 21
488.04533192582147
 31
0.0
  0
LINE
  5
FFBBDAE469BC8A8C
  8
0
  6
CONTINUOUS
 62
     0
 10
-142.15959757871701
 20
556.1738612416359
 30
0.0
 11
-88.173203886632791
 21
502.18746754955151
 31
0.0
  0
LINE
  5
FFBBDAE469BC8A8D
  8
0
  6
CONTINUOUS
 62
     0
 10
-136.5806622198233
 20
564.73706150647286
 30
0.0
 11
-88.173203886632564
 21
516.32960317328184
 31
0.0
  0
LINE
  5
FFBBDAE469BC8A8E
  8
0
  6
CONTINUOUS
 62
     0
 10
-130.66071862668781
 20
572.95925353706889
 30
0.0
 11
-88.173203886631896
 21
530.47173879701268
 31
0.0
  0
LINE
  5
FFBBDAE469BC8A8F
  8
0
  6
CONTINUOUS
 62
     0
 10
-124.74077503355331
 20
581.18144556766492
 30
0.0
 11
-88.173203886630517
 21
544.61387442074215
 31
0.0
  0
LINE
  5
FFBBDAE469BC8A90
  8
0
  6
CONTINUOUS
 62
     0
 10
-118.8208314404182
 20
589.40363759826107
 30
0.0
 11
-88.173203886629381
 21
558.7560100444723
 31
0.0
  0
LINE
  5
FFBBDAE469BC8A91
  8
0
  6
CONTINUOUS
 62
     0
 10
-112.90088784728459
 20
597.62582962885836
 30
0.0
 11
-87.062845958869502
 21
571.78778774044315
 31
0.0
  0
LINE
  5
FFBBDAE469BC8A92
  8
0
  6
CONTINUOUS
 62
     0
 10
-106.98094425414909
 20
605.84802165945325
 30
0.0
 11
-81.142902365733789
 21
580.00997977103793
 31
0.0
  0
LINE
  5
FFBBDAE469BC8A93
  8
0
  6
CONTINUOUS
 62
     0
 10
-101.0610006610145
 20
614.07021369005042
 30
0.0
 11
-75.222958772597849
 21
588.23217180163374
 31
0.0
  0
LINE
  5
FFBBDAE469BC8A94
  8
0
  6
CONTINUOUS
 62
     0
 10
-95.141057067880183
 20
622.29240572064668
 30
0.0
 11
-69.303015179463713
 21
596.45436383222989
 31
0.0
  0
LINE
  5
FFBBDAE469BC8A95
  8
0
  6
CONTINUOUS
 62
     0
 10
-89.221113474745394
 20
630.51459775124249
 30
0.0
 11
-63.383071586327787
 21
604.6765558628249
 31
0.0
  0
LINE
  5
FFBBDAE469BC8A96
  8
0
  6
CONTINUOUS
 62
     0
 10
-83.301169881610576
 20
638.73678978183921
 30
0.0
 11
-57.46312799319162
 21
612.89874789342025
 31
0.0
  0
LINE
  5
FFBBDAE469BC8A97
  8
0
  6
CONTINUOUS
 62
     0
 10
84.551009118550823
 20
485.02674640540812
 30
0.0
 11
87.090358810508647
 21
482.48739671345038
 31
0.0
  0
LINE
  5
FFBBDAE469BC8A98
  8
0
  6
CONTINUOUS
 62
     0
 10
-77.381226288476682
 20
646.95898181243558
 30
0.0
 11
-51.543184400057733
 21
621.12093992401697
 31
0.0
  0
LINE
  5
FFBBDAE469BC8A99
  8
0
  6
CONTINUOUS
 62
     0
 10
84.551009118554703
 20
499.16888202913509
 30
0.0
 11
104.4710475863198
 21
479.24884356136971
 31
0.0
  0
LINE
  5
FFBBDAE469BC8A9A
  8
0
  6
CONTINUOUS
 62
     0
 10
-71.461282695340742
 20
655.18117384303059
 30
0.0
 11
-45.623240806922702
 21
629.3431319546122
 31
0.0
  0
LINE
  5
FFBBDAE469BC8A9B
  8
0
  6
CONTINUOUS
 62
     0
 10
-39.703297213788119
 20
637.56532398520915
 30
0.0
 11
-37.528540196432459
 21
635.39056696785383
 31
0.0
  0
LINE
  5
FFBBDAE469BC8A9C
  8
0
  6
CONTINUOUS
 62
     0
 10
84.551009118557886
 20
513.31101765286337
 30
0.0
 11
121.1852350901229
 21
476.6767916812982
 31
0.0
  0
LINE
  5
FFBBDAE469BC8A9D
  8
0
  6
CONTINUOUS
 62
     0
 10
-65.541339102206621
 20
663.40336587362799
 30
0.0
 11
-39.703297213789028
 21
637.5653239852104
 31
0.0
  0
LINE
  5
FFBBDAE469BC8A9E
  8
0
  6
CONTINUOUS
 62
     0
 10
-33.90141199153345
 20
645.90557438668509
 30
0.0
 11
-15.10850753948989
 21
627.11266993464164
 31
0.0
  0
LINE
  5
FFBBDAE469BC8A9F
  8
0
  6
CONTINUOUS
 62
     0
 10
84.551009118560614
 20
527.45315327659114
 30
0.0
 11
136.73629592735711
 21
475.26786646779482
 31
0.0
  0
LINE
  5
FFBBDAE469BC8AA0
  8
0
  6
CONTINUOUS
 62
     0
 10
-59.621395509072272
 20
671.62555790422425
 30
0.0
 11
-34.033888307608322
 21
646.03805070276007
 31
0.0
  0
LINE
  5
FFBBDAE469BC8AA1
  8
0
  6
CONTINUOUS
 62
     0
 10
-33.93206180483503
 20
660.07835982371853
 30
0.0
 11
-9.1885639463591815
 21
635.33486196524257
 31
0.0
  0
LINE
  5
FFBBDAE469BC8AA2
  8
0
  6
CONTINUOUS
 62
     0
 10
84.55100911856357
 20
541.5952889003197
 30
0.0
 11
139.21711342472801
 21
486.92918459415517
 31
0.0
  0
LINE
  5
FFBBDAE469BC8AA3
  8
0
  6
CONTINUOUS
 62
     0
 10
-53.701451915937241
 20
679.84774993482051
 30
0.0
 11
-34.033888307608322
 21
660.18018632649159
 31
0.0
  0
LINE
  5
FFBBDAE469BC8AA4
  8
0
  6
CONTINUOUS
 62
     0
 10
-33.962711618137057
 20
674.25114526075106
 30
0.0
 11
11.82551615288571
 21
628.4629174897284
 31
0.0
  0
LINE
  5
FFBBDAE469BC8AA5
  8
0
  6
CONTINUOUS
 62
     0
 10
84.551009118566753
 20
555.73742452404713
 30
0.0
 11
139.21711342472821
 21
501.0713202178855
 31
0.0
  0
LINE
  5
FFBBDAE469BC8AA6
  8
0
  6
CONTINUOUS
 62
     0
 10
-47.781508322802431
 20
688.06994196541632
 30
0.0
 11
-34.033888307608102
 21
674.32232195022186
 31
0.0
  0
LINE
  5
FFBBDAE469BC8AA7
  8
0
  6
CONTINUOUS
 62
     0
 10
-33.993361431440007
 20
688.42393069778473
 30
0.0
 11
34.464104058027942
 21
619.96646520831655
 31
0.0
  0
LINE
  5
FFBBDAE469BC8AA8
  8
0
  6
CONTINUOUS
 62
     0
 10
84.551009118569709
 20
569.8795601477749
 30
0.0
 11
139.21711342472801
 21
515.21345584161645
 31
0.0
  0
LINE
  5
FFBBDAE469BC8AA9
  8
0
  6
CONTINUOUS
 62
     0
 10
-41.861564729668309
 20
696.29213399601304
 30
0.0
 11
-34.033888307608549
 21
688.46445757395327
 31
0.0
  0
LINE
  5
FFBBDAE469BC8AAA
  8
0
  6
CONTINUOUS
 62
     0
 10
-34.024011244741359
 20
702.5967161348176
 30
0.0
 11
57.102691963170628
 21
611.4700129269055
 31
0.0
  0
LINE
  5
FFBBDAE469BC8AAB
  8
0
  6
CONTINUOUS
 62
     0
 10
84.551009118572892
 20
584.02169577150335
 30
0.0
 11
139.21711342472801
 21
529.35559146534786
 31
0.0
  0
LINE
  5
FFBBDAE469BC8AAC
  8
0
  6
CONTINUOUS
 62
     0
 10
-35.941621136533513
 20
704.51432602660975
 30
0.0
 11
-34.033888307608102
 21
702.60659319768411
 31
0.0
  0
LINE
  5
FFBBDAE469BC8AAD
  8
0
  6
CONTINUOUS
 62
     0
 10
84.551009118576076
 20
598.16383139523066
 30
0.0
 11
139.21711342472821
 21
543.49772708907835
 31
0.0
  0
LINE
  5
FFBBDAE469BC8AAE
  8
0
  6
CONTINUOUS
 62
     0
 10
-18.690703925778511
 20
701.40554443958536
 30
0.0
 11
79.741279868313086
 21
602.97356064549354
 31
0.0
  0
LINE
  5
FFBBDAE469BC8AAF
  8
0
  6
CONTINUOUS
 62
     0
 10
3.9478839793607672
 20
692.90909215817726
 30
0.0
 11
139.2171134247285
 21
557.63986271280965
 31
0.0
  0
LINE
  5
FFBBDAE469BC8AB0
  8
0
  6
CONTINUOUS
 62
     0
 10
26.58647188449936
 20
684.41263987676962
 30
0.0
 11
139.21711342472801
 21
571.78199833654094
 31
0.0
  0
LINE
  5
FFBBDAE469BC8AB1
  8
0
  6
CONTINUOUS
 62
     0
 10
49.225059789638863
 20
675.9161875953605
 30
0.0
 11
139.21711342472821
 21
585.92413396027109
 31
0.0
  0
LINE
  5
FFBBDAE469BC8AB2
  8
0
  6
CONTINUOUS
 62
     0
 10
71.863647694778592
 20
667.41973531395229
 30
0.0
 11
139.21711342472821
 21
600.06626958400284
 31
0.0
  0
LINE
  5
FFBBDAE469BC8AB3
  8
0
  6
CONTINUOUS
 62
     0
 10
94.502235599917412
 20
658.92328303254408
 30
0.0
 11
139.21711342472781
 21
614.20840520773356
 31
0.0
  0
LINE
  5
FFBBDAE469BC8AB4
  8
0
  6
CONTINUOUS
 62
     0
 10
117.1408235050571
 20
650.42683075113484
 30
0.0
 11
139.21711342472821
 21
628.35054083146395
 31
0.0
  0
ENDBLK
  5
FFBBDAE469BC8AB6
  8
0
  0
BLOCK
  8
0
  2
*U14
 70
     1
 10
0.0
 20
0.0
 30
0.0
  3
*U14
  1

  0
TEXT
  5
FFBBDAE469BC8AB8
  8
DEFPOINTS
  6
CONTINUOUS
 10
-37.014215372538573
 20
-110.63979672240851
 30
0.0
 40
8.0
  1
Internal Corner at 'H' Mould Joint Detail
  7
2_5
  0
ENDBLK
  5
FFBBDAE469BC8ABA
  8
0
  0
BLOCK
  8
0
  2
*U15
 70
     1
 10
0.0
 20
0.0
 30
0.0
  3
*U15
  1

  0
TEXT
  5
FFBBDAE469BC8ABC
  8
DEFPOINTS
  6
CONTINUOUS
 10
17.908811807541699
 20
-121.3282475433146
 30
0.0
 40
5.0
  1
Scale 1:5
  7
ARIAL
  0
ENDBLK
  5
FFBBDAE469BC8ABE
  8
0
  0
BLOCK
  8
0
  2
*U16
 70
     1
 10
0.0
 20
0.0
 30
0.0
  3
*U16
  1

  0
TEXT
  5
FFBBDAE469BC8AC0
  8
0
  6
CONTINUOUS
 10
145.21248281519769
 20
930.93546533364554
 30
0.0
 40
12.5
  1
Studs
  7
ARIAL
  0
ENDBLK
  5
FFBBDAE469BC8AC2
  8
0
  0
BLOCK
  8
0
  2
*U17
 70
     1
 10
0.0
 20
0.0
 30
0.0
  3
*U17
  1

  0
TEXT
  5
FFBBDAE469BC8AC4
  8
0
  6
CONTINUOUS
 10
-372.02791392280278
 20
491.37967712825298
 30
0.0
 40
12.5
  1
EasyLap
  7
ARIAL
  0
TEXT
  5
FFBBDAE469BC8AC5
  8
0
  6
CONTINUOUS
 10
-304.27552647396237
 20
498.67134379491972
 30
0.0
 40
6.25
  1
TM
  7
ARIAL
  0
TEXT
  5
FFBBDAE469BC8AC6
  8
0
  6
CONTINUOUS
 10
-304.07088800192969
 20
496.58801046158641
 30
0.0
 40
6.25
  1

  7
ARIAL
  0
TEXT
  5
FFBBDAE469BC8AC7
  8
0
  6
CONTINUOUS
 10
-291.9119521219842
 20
491.37967712825298
 30
0.0
 40
12.5
  1
 Panel
  7
ARIAL
  0
ENDBLK
  5
FFBBDAE469BC8AC9
  8
0
  0
BLOCK
  8
0
  2
*U18
 70
     1
 10
0.0
 20
0.0
 30
0.0
  3
*U18
  1

  0
TEXT
  5
FFBBDAE469BC8ACB
  8
0
  6
CONTINUOUS
 10
323.53557670952
 20
734.13140742588894
 30
0.0
 40
12.5
  1
Coating manufacturers
  7
ARIAL
  0
TEXT
  5
FFBBDAE469BC8ACC
  8
0
  6
CONTINUOUS
 10
323.77432159355811
 20
713.29807409255545
 30
0.0
 40
12.5
  1
approved sealant applied in
  7
ARIAL
  0
TEXT
  5
FFBBDAE469BC8ACD
  8
0
  6
CONTINUOUS
 10
323.77432159355811
 20
692.4647407592222
 30
0.0
 40
12.5
  1
accordance with
  7
ARIAL
  0
TEXT
  5
FFBBDAE469BC8ACE
  8
0
  6
CONTINUOUS
 10
323.25419881047492
 20
671.41824235085471
 30
0.0
 40
12.5
  1
manufacturers specifications
  7
ARIAL
  0
ENDBLK
  5
FFBBDAE469BC8AD0
  8
0
  0
BLOCK
  8
0
  2
*U19
 70
     1
 10
0.0
 20
0.0
 30
0.0
  3
*U19
  1

  0
TEXT
  5
FFBBDAE469BC8AD2
  8
0
  6
CONTINUOUS
 10
323.93632705058411
 20
142.23744749263869
 30
0.0
 40
12.5
  1
JH 9mm panel aluminium
  7
ARIAL
  0
TEXT
  5
FFBBDAE469BC8AD3
  8
0
  6
CONTINUOUS
 10
323.25419881047492
 20
121.40411415930539
 30
0.0
 40
12.5
  1
horizontal 'h' mould mitre at
  7
ARIAL
  0
TEXT
  5
FFBBDAE469BC8AD4
  8
0
  6
CONTINUOUS
 10
323.72316197554989
 20
100.357615750938
 30
0.0
 40
12.5
  1
corner and seal with flexible
  7
ARIAL
  0
TEXT
  5
FFBBDAE469BC8AD5
  8
0
  6
CONTINUOUS
 10
323.86811422657308
 20
79.524282417604653
 30
0.0
 40
12.5
  1
sealant
  7
ARIAL
  0
ENDBLK
  5
FFBBDAE469BC8AD7
  8
0
  0
BLOCK
  8
0
  2
*U20
 70
     1
 10
0.0
 20
0.0
 30
0.0
  3
*U20
  1

  0
TEXT
  5
FFBBDAE469BC8AD9
  8
0
  6
CONTINUOUS
 10
323.12629976545452
 20
569.61033167664255
 30
0.0
 40
12.5
  1
Building underlay / James
  7
ARIAL
  0
TEXT
  5
FFBBDAE469BC8ADA
  8
0
  6
CONTINUOUS
 10
323.00692732343532
 20
548.670415805792
 30
0.0
 40
12.5
  1
Hardie rigid air barrier
  7
ARIAL
  0
ENDBLK
  5
FFBBDAE469BC8ADC
  8
0
  0
BLOCK
  8
0
  2
*U21
 70
     1
 10
0.0
 20
0.0
 30
0.0
  3
*U21
  1

  0
TEXT
  5
FFBBDAE469BC8ADE
  8
0
  6
CONTINUOUS
 10
-343.50402431835062
 20
664.93538432320997
 30
0.0
 40
12.5
  1
CLD
  7
ARIAL
  0
TEXT
  5
FFBBDAE469BC8ADF
  8
0
  6
CONTINUOUS
 10
-308.58332172626319
 20
672.22705098987672
 30
0.0
 40
6.25
  1
®
  7
ARIAL
  0
TEXT
  5
FFBBDAE469BC8AE0
  8
0
  6
CONTINUOUS
 10
-308.57053182176122
 20
670.14371765654334
 30
0.0
 40
6.25
  1

  7
ARIAL
  0
TEXT
  5
FFBBDAE469BC8AE1
  8
0
  6
CONTINUOUS
 10
-301.71940631016503
 20
664.93538432320997
 30
0.0
 40
12.5
  1
 Structural
  7
ARIAL
  0
TEXT
  5
FFBBDAE469BC8AE2
  8
0
  6
CONTINUOUS
 10
-326.0202248640532
 20
643.8888859148426
 30
0.0
 40
12.5
  1
Cavity Batten
  7
ARIAL
  0
ENDBLK
  5
FFBBDAE469BC8AE4
  8
0
  0
BLOCK
  8
0
  2
*U22
 70
     1
 10
0.0
 20
0.0
 30
0.0
  3
*U22
  1

  0
TEXT
  5
FFBBDAE469BC8AE6
  8
0
  6
CONTINUOUS
 10
323.02398052943812
 20
474.17279202188541
 30
0.0
 40
12.5
  1
EasyLap
  7
ARIAL
  0
TEXT
  5
FFBBDAE469BC8AE7
  8
0
  6
CONTINUOUS
 10
390.77636797827842
 20
481.46445868855199
 30
0.0
 40
6.25
  1
TM
  7
ARIAL
  0
TEXT
  5
FFBBDAE469BC8AE8
  8
0
  6
CONTINUOUS
 10
390.98100645031121
 20
479.38112535521873
 30
0.0
 40
6.25
  1

  7
ARIAL
  0
TEXT
  5
FFBBDAE469BC8AE9
  8
0
  6
CONTINUOUS
 10
403.13994233025647
 20
474.17279202188541
 30
0.0
 40
12.5
  1
 Panel
  7
ARIAL
  0
ENDBLK
  5
FFBBDAE469BC8AEB
  8
0
  0
BLOCK
  8
0
  2
*U23
 70
     1
 10
0.0
 20
0.0
 30
0.0
  3
*U23
  1

  0
TEXT
  5
FFBBDAE469BC8AED
  8
0
  6
CONTINUOUS
 10
191.30280097971939
 20
863.68862485655654
 30
0.0
 40
12.5
  1
Site cut edge of sheet to be
  7
ARIAL
  0
TEXT
  5
FFBBDAE469BC8AEE
  8
0
  6
CONTINUOUS
 10
191.55007246675899
 20
842.64212644818895
 30
0.0
 40
12.5
  1
sealed before sealant is
  7
ARIAL
  0
TEXT
  5
FFBBDAE469BC8AEF
  8
0
  6
CONTINUOUS
 10
191.45627983374391
 20
821.70221057733841
 30
0.0
 40
12.5
  1
applied - ensure
  7
ARIAL
  0
TEXT
  5
FFBBDAE469BC8AF0
  8
0
  6
CONTINUOUS
 10
191.40512021573579
 20
800.76229470648809
 30
0.0
 40
12.5
  1
compatibility of the sealant
  7
ARIAL
  0
ENDBLK
  5
FFBBDAE469BC8AF2
  8
0
  0
BLOCK
  8
0
  2
*U24
 70
     1
 10
0.0
 20
0.0
 30
0.0
  3
*U24
  1

  0
TEXT
  5
FFBBDAE469BC8AF4
  8
0
  6
CONTINUOUS
 10
-378.47992080295728
 20
982.69562412171115
 30
0.0
 40
12.5
  1
Polypropylene/Polyethylene
  7
ARIAL
  0
TEXT
  5
FFBBDAE469BC8AF5
  8
0
  6
CONTINUOUS
 10
-338.66068478658622
 20
961.64912571334355
 30
0.0
 40
12.5
  1
DPC or a flashing tape
  7
ARIAL
  0
TEXT
  5
FFBBDAE469BC8AF6
  8
0
  6
CONTINUOUS
 10
-297.53687851100648
 20
940.70920984249301
 30
0.0
 40
12.5
  1
applied to protect
  7
ARIAL
  0
TEXT
  5
FFBBDAE469BC8AF7
  8
0
  6
CONTINUOUS
 10
-357.68353608262993
 20
919.85029670015547
 30
0.0
 40
12.5
  1
building underlay 100mm
  7
ARIAL
  0
TEXT
  5
FFBBDAE469BC8AF8
  8
0
  6
CONTINUOUS
 10
-282.54711043460799
 20
898.99138355781815
 30
0.0
 40
12.5
  1
wide each side.
  7
ARIAL
  0
ENDBLK
  5
FFBBDAE469BC8AFA
  8
0
  0
BLOCK
  8
0
  2
*U25
 70
     1
 10
0.0
 20
0.0
 30
0.0
  3
*U25
  1

  0
TEXT
  5
FFBBDAE469BC8B00
  8
0
  6
CONTINUOUS
 10
-359.01665203279589
 20
195.68339237455521
 30
0.0
 40
12.5
  1
Batten Corner
  7
ARIAL
  0
TEXT
  5
FFBBDAE469BC8B01
  8
0
  6
CONTINUOUS
 10
-314.90000810373732
 20
174.74347650370481
 30
0.0
 40
12.5
  1
Flashing
  7
ARIAL
  0
TEXT
  5
FFBBDAE469BC8B02
  8
0
  6
CONTINUOUS
 10
-348.8529412551697
 20
153.9101431703715
 30
0.0
 40
12.5
  1
installed with
  7
ARIAL
  0
TEXT
  5
FFBBDAE469BC8B03
  8
0
  6
CONTINUOUS
 10
-306.67183620742071
 20
133.0768098370381
 30
0.0
 40
12.5
  1
battens
  7
ARIAL
  0
ENDBLK
  5
FFBBDAE469BC8B05
  8
0
  0
BLOCK
  8
0
  2
*U26
 70
     1
 10
0.0
 20
0.0
 30
0.0
  3
*U26
  1

  0
SOLID
  5
FFBBDAE469BC8B07
  8
0
  6
CONTINUOUS
 10
31.287493552756139
 20
793.62366030528324
 30
0.0
 11
24.579335769615678
 21
787.43895181122355
 31
0.0
 12
28.919039025864379
 22
795.46497047851472
 32
0.0
 13
28.919039025864379
 23
795.46497047851472
 33
0.0
  0
POLYLINE
  8
0
  5
7FFFFFFF
  66
     1
 10
0.000000
 20
0.000000
 30
0.000000
  70
     8
  0
VERTEX
  8
0
  5
80000000
 10
30.1033
 20
794.544
 30
0.000000
  70
    32
  0
VERTEX
  8
0
  5
80000001
 10
30.9722
 20
795.676
 30
0.000000
  70
    32
  0
VERTEX
  8
0
  5
80000002
 10
31.8326
 20
796.825
 30
0.000000
  70
    32
  0
VERTEX
  8
0
  5
80000003
 10
32.6848
 20
797.992
 30
0.000000
  70
    32
  0
VERTEX
  8
0
  5
80000004
 10
33.5289
 20
799.174
 30
0.000000
  70
    32
  0
VERTEX
  8
0
  5
80000005
 10
34.3653
 20
800.372
 30
0.000000
  70
    32
  0
VERTEX
  8
0
  5
80000006
 10
35.1939
 20
801.587
 30
0.000000
  70
    32
  0
VERTEX
  8
0
  5
80000007
 10
36.0152
 20
802.816
 30
0.000000
  70
    32
  0
VERTEX
  8
0
  5
80000008
 10
36.8292
 20
804.060
 30
0.000000
  70
    32
  0
VERTEX
  8
0
  5
80000009
 10
37.6363
 20
805.318
 30
0.000000
  70
    32
  0
VERTEX
  8
0
  5
8000000A
 10
38.4365
 20
806.591
 30
0.000000
  70
    32
  0
VERTEX
  8
0
  5
8000000B
 10
39.2301
 20
807.876
 30
0.000000
  70
    32
  0
VERTEX
  8
0
  5
8000000C
 10
40.0173
 20
809.175
 30
0.000000
  70
    32
  0
VERTEX
  8
0
  5
8000000D
 10
40.7982
 20
810.487
 30
0.000000
  70
    32
  0
VERTEX
  8
0
  5
8000000E
 10
41.5732
 20
811.811
 30
0.000000
  70
    32
  0
VERTEX
  8
0
  5
8000000F
 10
42.3425
 20
813.147
 30
0.000000
  70
    32
  0
VERTEX
  8
0
  5
80000010
 10
43.1061
 20
814.494
 30
0.000000
  70
    32
  0
VERTEX
  8
0
  5
80000011
 10
43.8643
 20
815.852
 30
0.000000
  70
    32
  0
VERTEX
  8
0
  5
80000012
 10
44.6174
 20
817.220
 30
0.000000
  70
    32
  0
VERTEX
  8
0
  5
80000013
 10
45.3654
 20
818.599
 30
0.000000
  70
    32
  0
VERTEX
  8
0
  5
80000014
 10
46.1088
 20
819.988
 30
0.000000
  70
    32
  0
VERTEX
  8
0
  5
80000015
 10
46.8475
 20
821.386
 30
0.000000
  70
    32
  0
VERTEX
  8
0
  5
80000016
 10
47.5819
 20
822.793
 30
0.000000
  70
    32
  0
VERTEX
  8
0
  5
80000017
 10
48.3121
 20
824.208
 30
0.000000
  70
    32
  0
VERTEX
  8
0
  5
80000018
 10
49.0384
 20
825.631
 30
0.000000
  70
    32
  0
VERTEX
  8
0
  5
80000019
 10
49.7609
 20
827.063
 30
0.000000
  70
    32
  0
VERTEX
  8
0
  5
8000001A
 10
50.4799
 20
828.501
 30
0.000000
  70
    32
  0
VERTEX
  8
0
  5
8000001B
 10
51.1956
 20
829.946
 30
0.000000
  70
    32
  0
VERTEX
  8
0
  5
8000001C
 10
51.9081
 20
831.398
 30
0.000000
  70
    32
  0
VERTEX
  8
0
  5
8000001D
 10
52.6177
 20
832.855
 30
0.000000
  70
    32
  0
VERTEX
  8
0
  5
8000001E
 10
53.3246
 20
834.318
 30
0.000000
  70
    32
  0
VERTEX
  8
0
  5
8000001F
 10
54.0289
 20
835.787
 30
0.000000
  70
    32
  0
VERTEX
  8
0
  5
80000020
 10
54.7309
 20
837.260
 30
0.000000
  70
    32
  0
VERTEX
  8
0
  5
80000021
 10
55.4308
 20
838.737
 30
0.000000
  70
    32
  0
VERTEX
  8
0
  5
80000022
 10
56.1288
 20
840.218
 30
0.000000
  70
    32
  0
VERTEX
  8
0
  5
80000023
 10
56.8251
 20
841.703
 30
0.000000
  70
    32
  0
VERTEX
  8
0
  5
80000024
 10
57.5199
 20
843.191
 30
0.000000
  70
    32
  0
VERTEX
  8
0
  5
80000025
 10
58.2135
 20
844.681
 30
0.000000
  70
    32
  0
VERTEX
  8
0
  5
80000026
 10
58.9059
 20
846.174
 30
0.000000
  70
    32
  0
VERTEX
  8
0
  5
80000027
 10
59.5974
 20
847.668
 30
0.000000
  70
    32
  0
VERTEX
  8
0
  5
80000028
 10
60.2883
 20
849.164
 30
0.000000
  70
    32
  0
VERTEX
  8
0
  5
80000029
 10
60.9786
 20
850.661
 30
0.000000
  70
    32
  0
VERTEX
  8
0
  5
8000002A
 10
61.6687
 20
852.158
 30
0.000000
  70
    32
  0
VERTEX
  8
0
  5
8000002B
 10
62.3588
 20
853.656
 30
0.000000
  70
    32
  0
VERTEX
  8
0
  5
8000002C
 10
63.0489
 20
855.153
 30
0.000000
  70
    32
  0
VERTEX
  8
0
  5
8000002D
 10
63.7394
 20
856.650
 30
0.000000
  70
    32
  0
VERTEX
  8
0
  5
8000002E
 10
64.4305
 20
858.145
 30
0.000000
  70
    32
  0
VERTEX
  8
0
  5
8000002F
 10
65.1223
 20
859.639
 30
0.000000
  70
    32
  0
VERTEX
  8
0
  5
80000030
 10
65.8151
 20
861.131
 30
0.000000
  70
    32
  0
VERTEX
  8
0
  5
80000031
 10
66.5090
 20
862.620
 30
0.000000
  70
    32
  0
VERTEX
  8
0
  5
80000032
 10
67.2043
 20
864.107
 30
0.000000
  70
    32
  0
VERTEX
  8
0
  5
80000033
 10
67.9011
 20
865.591
 30
0.000000
  70
    32
  0
VERTEX
  8
0
  5
80000034
 10
68.5997
 20
867.071
 30
0.000000
  70
    32
  0
VERTEX
  8
0
  5
80000035
 10
69.3003
 20
868.547
 30
0.000000
  70
    32
  0
VERTEX
  8
0
  5
80000036
 10
70.0031
 20
870.018
 30
0.000000
  70
    32
  0
VERTEX
  8
0
  5
80000037
 10
70.7083
 20
871.485
 30
0.000000
  70
    32
  0
VERTEX
  8
0
  5
80000038
 10
71.4160
 20
872.946
 30
0.000000
  70
    32
  0
VERTEX
  8
0
  5
80000039
 10
72.1265
 20
874.402
 30
0.000000
  70
    32
  0
VERTEX
  8
0
  5
8000003A
 10
72.8401
 20
875.851
 30
0.000000
  70
    32
  0
VERTEX
  8
0
  5
8000003B
 10
73.5568
 20
877.294
 30
0.000000
  70
    32
  0
VERTEX
  8
0
  5
8000003C
 10
74.2770
 20
878.730
 30
0.000000
  70
    32
  0
VERTEX
  8
0
  5
8000003D
 10
75.0007
 20
880.159
 30
0.000000
  70
    32
  0
VERTEX
  8
0
  5
8000003E
 10
75.7283
 20
881.579
 30
0.000000
  70
    32
  0
VERTEX
  8
0
  5
8000003F
 10
76.4599
 20
882.992
 30
0.000000
  70
    32
  0
VERTEX
  8
0
  5
80000040
 10
77.1957
 20
884.396
 30
0.000000
  70
    32
  0
VERTEX
  8
0
  5
80000041
 10
77.9360
 20
885.791
 30
0.000000
  70
    32
  0
VERTEX
  8
0
  5
80000042
 10
78.6809
 20
887.176
 30
0.000000
  70
    32
  0
VERTEX
  8
0
  5
80000043
 10
79.4306
 20
888.552
 30
0.000000
  70
    32
  0
VERTEX
  8
0
  5
80000044
 10
80.1853
 20
889.917
 30
0.000000
  70
    32
  0
VERTEX
  8
0
  5
80000045
 10
80.9453
 20
891.271
 30
0.000000
  70
    32
  0
VERTEX
  8
0
  5
80000046
 10
81.7108
 20
892.615
 30
0.000000
  70
    32
  0
VERTEX
  8
0
  5
80000047
 10
82.4819
 20
893.947
 30
0.000000
  70
    32
  0
VERTEX
  8
0
  5
80000048
 10
83.2589
 20
895.266
 30
0.000000
  70
    32
  0
VERTEX
  8
0
  5
80000049
 10
84.0419
 20
896.574
 30
0.000000
  70
    32
  0
VERTEX
  8
0
  5
8000004A
 10
84.8312
 20
897.868
 30
0.000000
  70
    32
  0
VERTEX
  8
0
  5
8000004B
 10
85.6270
 20
899.150
 30
0.000000
  70
    32
  0
VERTEX
  8
0
  5
8000004C
 10
86.4295
 20
900.417
 30
0.000000
  70
    32
  0
VERTEX
  8
0
  5
8000004D
 10
87.2388
 20
901.671
 30
0.000000
  70
    32
  0
VERTEX
  8
0
  5
8000004E
 10
88.0552
 20
902.910
 30
0.000000
  70
    32
  0
VERTEX
  8
0
  5
8000004F
 10
88.8789
 20
904.135
 30
0.000000
  70
    32
  0
VERTEX
  8
0
  5
80000050
 10
89.7101
 20
905.344
 30
0.000000
  70
    32
  0
VERTEX
  8
0
  5
80000051
 10
90.5491
 20
906.537
 30
0.000000
  70
    32
  0
VERTEX
  8
0
  5
80000052
 10
91.3959
 20
907.714
 30
0.000000
  70
    32
  0
VERTEX
  8
0
  5
80000053
 10
92.2508
 20
908.874
 30
0.000000
  70
    32
  0
VERTEX
  8
0
  5
80000054
 10
93.1140
 20
910.018
 30
0.000000
  70
    32
  0
VERTEX
  8
0
  5
80000055
 10
93.9858
 20
911.144
 30
0.000000
  70
    32
  0
VERTEX
  8
0
  5
80000056
 10
94.8662
 20
912.252
 30
0.000000
  70
    32
  0
VERTEX
  8
0
  5
80000057
 10
95.7556
 20
913.342
 30
0.000000
  70
    32
  0
VERTEX
  8
0
  5
80000058
 10
96.6541
 20
914.413
 30
0.000000
  70
    32
  0
VERTEX
  8
0
  5
80000059
 10
97.5620
 20
915.466
 30
0.000000
  70
    32
  0
VERTEX
  8
0
  5
8000005A
 10
98.4794
 20
916.498
 30
0.000000
  70
    32
  0
VERTEX
  8
0
  5
8000005B
 10
99.4065
 20
917.511
 30
0.000000
  70
    32
  0
VERTEX
  8
0
  5
8000005C
 10
100.344
 20
918.504
 30
0.000000
  70
    32
  0
VERTEX
  8
0
  5
8000005D
 10
101.291
 20
919.476
 30
0.000000
  70
    32
  0
VERTEX
  8
0
  5
8000005E
 10
102.248
 20
920.426
 30
0.000000
  70
    32
  0
VERTEX
  8
0
  5
8000005F
 10
103.217
 20
921.355
 30
0.000000
  70
    32
  0
VERTEX
  8
0
  5
80000060
 10
104.196
 20
922.262
 30
0.000000
  70
    32
  0
VERTEX
  8
0
  5
80000061
 10
105.185
 20
923.147
 30
0.000000
  70
    32
  0
VERTEX
  8
0
  5
80000062
 10
106.187
 20
924.009
 30
0.000000
  70
    32
  0
VERTEX
  8
0
  5
80000063
 10
107.199
 20
924.847
 30
0.000000
  70
    32
  0
VERTEX
  8
0
  5
80000064
 10
108.223
 20
925.662
 30
0.000000
  70
    32
  0
VERTEX
  8
0
  5
80000065
 10
109.259
 20
926.453
 30
0.000000
  70
    32
  0
VERTEX
  8
0
  5
80000066
 10
110.307
 20
927.219
 30
0.000000
  70
    32
  0
VERTEX
  8
0
  5
80000067
 10
111.367
 20
927.960
 30
0.000000
  70
    32
  0
VERTEX
  8
0
  5
80000068
 10
112.439
 20
928.676
 30
0.000000
  70
    32
  0
VERTEX
  8
0
  5
80000069
 10
113.524
 20
929.366
 30
0.000000
  70
    32
  0
VERTEX
  8
0
  5
8000006A
 10
114.622
 20
930.030
 30
0.000000
  70
    32
  0
VERTEX
  8
0
  5
8000006B
 10
115.733
 20
930.668
 30
0.000000
  70
    32
  0
VERTEX
  8
0
  5
8000006C
 10
116.857
 20
931.278
 30
0.000000
  70
    32
  0
VERTEX
  8
0
  5
8000006D
 10
117.994
 20
931.861
 30
0.000000
  70
    32
  0
VERTEX
  8
0
  5
8000006E
 10
119.145
 20
932.416
 30
0.000000
  70
    32
  0
VERTEX
  8
0
  5
8000006F
 10
120.310
 20
932.943
 30
0.000000
  70
    32
  0
VERTEX
  8
0
  5
80000070
 10
121.489
 20
933.441
 30
0.000000
  70
    32
  0
VERTEX
  8
0
  5
80000071
 10
122.682
 20
933.910
 30
0.000000
  70
    32
  0
VERTEX
  8
0
  5
80000072
 10
123.890
 20
934.349
 30
0.000000
  70
    32
  0
VERTEX
  8
0
  5
80000073
 10
125.112
 20
934.759
 30
0.000000
  70
    32
  0
VERTEX
  8
0
  5
80000074
 10
126.349
 20
935.138
 30
0.000000
  70
    32
  0
VERTEX
  8
0
  5
80000075
 10
127.602
 20
935.486
 30
0.000000
  70
    32
  0
VERTEX
  8
0
  5
80000076
 10
128.869
 20
935.804
 30
0.000000
  70
    32
  0
VERTEX
  8
0
  5
80000077
 10
130.152
 20
936.089
 30
0.000000
  70
    32
  0
VERTEX
  8
0
  5
80000078
 10
131.451
 20
936.343
 30
0.000000
  70
    32
  0
VERTEX
  8
0
  5
80000079
 10
132.765
 20
936.564
 30
0.000000
  70
    32
  0
VERTEX
  8
0
  5
8000007A
 10
134.096
 20
936.752
 30
0.000000
  70
    32
  0
VERTEX
  8
0
  5
8000007B
 10
135.443
 20
936.907
 30
0.000000
  70
    32
  0
VERTEX
  8
0
  5
8000007C
 10
136.806
 20
937.028
 30
0.000000
  70
    32
  0
VERTEX
  8
0
  5
8000007D
 10
138.186
 20
937.115
 30
0.000000
  70
    32
  0
VERTEX
  8
0
  5
8000007E
 10
139.583
 20
937.168
 30
0.000000
  70
    32
  0
VERTEX
  8
0
  5
8000007F
 10
140.997
 20
937.185
 30
0.000000
  70
    32
  0
SEQEND
  8
0
  5
80000080
  0
ENDBLK
  5
FFBBDAE469BC8B0A
  8
0
  0
BLOCK
  8
0
  2
*U27
 70
     1
 10
0.0
 20
0.0
 30
0.0
  3
*U27
  1

  0
SOLID
  5
FFBBDAE469BC8B0C
  8
0
  6
CONTINUOUS
 10
-41.066935356166297
 20
428.41226567143502
 30
0.0
 11
-33.064236341751887
 21
424.02970837178771
 31
0.0
 12
-42.055726966083519
 22
425.57990073164387
 32
0.0
 13
-42.055726966083519
 23
425.57990073164387
 33
0.0
  0
POLYLINE
  8
0
  5
80000081
  66
     1
 10
0.000000
 20
0.000000
 30
0.000000
  70
     8
  0
VERTEX
  8
0
  5
80000082
 10
-41.5613
 20
426.996
 30
0.000000
  70
    32
  0
VERTEX
  8
0
  5
80000083
 10
-43.1123
 20
427.542
 30
0.000000
  70
    32
  0
VERTEX
  8
0
  5
80000084
 10
-44.6619
 20
428.096
 30
0.000000
  70
    32
  0
VERTEX
  8
0
  5
80000085
 10
-46.2100
 20
428.659
 30
0.000000
  70
    32
  0
VERTEX
  8
0
  5
80000086
 10
-47.7569
 20
429.229
 30
0.000000
  70
    32
  0
VERTEX
  8
0
  5
80000087
 10
-49.3024
 20
429.807
 30
0.000000
  70
    32
  0
VERTEX
  8
0
  5
80000088
 10
-50.8467
 20
430.393
 30
0.000000
  70
    32
  0
VERTEX
  8
0
  5
80000089
 10
-52.3897
 20
430.985
 30
0.000000
  70
    32
  0
VERTEX
  8
0
  5
8000008A
 10
-53.9315
 20
431.585
 30
0.000000
  70
    32
  0
VERTEX
  8
0
  5
8000008B
 10
-55.4721
 20
432.192
 30
0.000000
  70
    32
  0
VERTEX
  8
0
  5
8000008C
 10
-57.0116
 20
432.806
 30
0.000000
  70
    32
  0
VERTEX
  8
0
  5
8000008D
 10
-58.5500
 20
433.426
 30
0.000000
  70
    32
  0
VERTEX
  8
0
  5
8000008E
 10
-60.0873
 20
434.053
 30
0.000000
  70
    32
  0
VERTEX
  8
0
  5
8000008F
 10
-61.6236
 20
434.685
 30
0.000000
  70
    32
  0
VERTEX
  8
0
  5
80000090
 10
-63.1589
 20
435.324
 30
0.000000
  70
    32
  0
VERTEX
  8
0
  5
80000091
 10
-64.6932
 20
435.968
 30
0.000000
  70
    32
  0
VERTEX
  8
0
  5
80000092
 10
-66.2266
 20
436.618
 30
0.000000
  70
    32
  0
VERTEX
  8
0
  5
80000093
 10
-67.7590
 20
437.273
 30
0.000000
  70
    32
  0
VERTEX
  8
0
  5
80000094
 10
-69.2906
 20
437.933
 30
0.000000
  70
    32
  0
VERTEX
  8
0
  5
80000095
 10
-70.8214
 20
438.598
 30
0.000000
  70
    32
  0
VERTEX
  8
0
  5
80000096
 10
-72.3514
 20
439.268
 30
0.000000
  70
    32
  0
VERTEX
  8
0
  5
80000097
 10
-73.8806
 20
439.942
 30
0.000000
  70
    32
  0
VERTEX
  8
0
  5
80000098
 10
-75.4091
 20
440.620
 30
0.000000
  70
    32
  0
VERTEX
  8
0
  5
80000099
 10
-76.9369
 20
441.303
 30
0.000000
  70
    32
  0
VERTEX
  8
0
  5
8000009A
 10
-78.4641
 20
441.989
 30
0.000000
  70
    32
  0
VERTEX
  8
0
  5
8000009B
 10
-79.9906
 20
442.680
 30
0.000000
  70
    32
  0
VERTEX
  8
0
  5
8000009C
 10
-81.5165
 20
443.373
 30
0.000000
  70
    32
  0
VERTEX
  8
0
  5
8000009D
 10
-83.0418
 20
444.070
 30
0.000000
  70
    32
  0
VERTEX
  8
0
  5
8000009E
 10
-84.5667
 20
444.771
 30
0.000000
  70
    32
  0
VERTEX
  8
0
  5
8000009F
 10
-86.0910
 20
445.473
 30
0.000000
  70
    32
  0
VERTEX
  8
0
  5
800000A0
 10
-87.6149
 20
446.179
 30
0.000000
  70
    32
  0
VERTEX
  8
0
  5
800000A1
 10
-89.1384
 20
446.887
 30
0.000000
  70
    32
  0
VERTEX
  8
0
  5
800000A2
 10
-90.6615
 20
447.598
 30
0.000000
  70
    32
  0
VERTEX
  8
0
  5
800000A3
 10
-92.1842
 20
448.310
 30
0.000000
  70
    32
  0
VERTEX
  8
0
  5
800000A4
 10
-93.7066
 20
449.025
 30
0.000000
  70
    32
  0
VERTEX
  8
0
  5
800000A5
 10
-95.2287
 20
449.741
 30
0.000000
  70
    32
  0
VERTEX
  8
0
  5
800000A6
 10
-96.7506
 20
450.458
 30
0.000000
  70
    32
  0
VERTEX
  8
0
  5
800000A7
 10
-98.2723
 20
451.177
 30
0.000000
  70
    32
  0
VERTEX
  8
0
  5
800000A8
 10
-99.7937
 20
451.897
 30
0.000000
  70
    32
  0
VERTEX
  8
0
  5
800000A9
 10
-101.315
 20
452.618
 30
0.000000
  70
    32
  0
VERTEX
  8
0
  5
800000AA
 10
-102.836
 20
453.339
 30
0.000000
  70
    32
  0
VERTEX
  8
0
  5
800000AB
 10
-104.357
 20
454.061
 30
0.000000
  70
    32
  0
VERTEX
  8
0
  5
800000AC
 10
-105.879
 20
454.783
 30
0.000000
  70
    32
  0
VERTEX
  8
0
  5
800000AD
 10
-107.400
 20
455.506
 30
0.000000
  70
    32
  0
VERTEX
  8
0
  5
800000AE
 10
-108.921
 20
456.228
 30
0.000000
  70
    32
  0
VERTEX
  8
0
  5
800000AF
 10
-110.442
 20
456.950
 30
0.000000
  70
    32
  0
VERTEX
  8
0
  5
800000B0
 10
-111.963
 20
457.671
 30
0.000000
  70
    32
  0
VERTEX
  8
0
  5
800000B1
 10
-113.484
 20
458.391
 30
0.000000
  70
    32
  0
VERTEX
  8
0
  5
800000B2
 10
-115.006
 20
459.111
 30
0.000000
  70
    32
  0
VERTEX
  8
0
  5
800000B3
 10
-116.528
 20
459.829
 30
0.000000
  70
    32
  0
VERTEX
  8
0
  5
800000B4
 10
-118.050
 20
460.546
 30
0.000000
  70
    32
  0
VERTEX
  8
0
  5
800000B5
 10
-119.572
 20
461.262
 30
0.000000
  70
    32
  0
VERTEX
  8
0
  5
800000B6
 10
-121.094
 20
461.976
 30
0.000000
  70
    32
  0
VERTEX
  8
0
  5
800000B7
 10
-122.617
 20
462.688
 30
0.000000
  70
    32
  0
VERTEX
  8
0
  5
800000B8
 10
-124.140
 20
463.397
 30
0.000000
  70
    32
  0
VERTEX
  8
0
  5
800000B9
 10
-125.664
 20
464.105
 30
0.000000
  70
    32
  0
VERTEX
  8
0
  5
800000BA
 10
-127.188
 20
464.809
 30
0.000000
  70
    32
  0
VERTEX
  8
0
  5
800000BB
 10
-128.713
 20
465.511
 30
0.000000
  70
    32
  0
VERTEX
  8
0
  5
800000BC
 10
-130.238
 20
466.211
 30
0.000000
  70
    32
  0
VERTEX
  8
0
  5
800000BD
 10
-131.763
 20
466.906
 30
0.000000
  70
    32
  0
VERTEX
  8
0
  5
800000BE
 10
-133.289
 20
467.599
 30
0.000000
  70
    32
  0
VERTEX
  8
0
  5
800000BF
 10
-134.816
 20
468.288
 30
0.000000
  70
    32
  0
VERTEX
  8
0
  5
800000C0
 10
-136.343
 20
468.973
 30
0.000000
  70
    32
  0
VERTEX
  8
0
  5
800000C1
 10
-137.871
 20
469.655
 30
0.000000
  70
    32
  0
VERTEX
  8
0
  5
800000C2
 10
-139.400
 20
470.332
 30
0.000000
  70
    32
  0
VERTEX
  8
0
  5
800000C3
 10
-140.930
 20
471.004
 30
0.000000
  70
    32
  0
VERTEX
  8
0
  5
800000C4
 10
-142.460
 20
471.673
 30
0.000000
  70
    32
  0
VERTEX
  8
0
  5
800000C5
 10
-143.991
 20
472.336
 30
0.000000
  70
    32
  0
VERTEX
  8
0
  5
800000C6
 10
-145.523
 20
472.994
 30
0.000000
  70
    32
  0
VERTEX
  8
0
  5
800000C7
 10
-147.056
 20
473.648
 30
0.000000
  70
    32
  0
VERTEX
  8
0
  5
800000C8
 10
-148.589
 20
474.296
 30
0.000000
  70
    32
  0
VERTEX
  8
0
  5
800000C9
 10
-150.124
 20
474.938
 30
0.000000
  70
    32
  0
VERTEX
  8
0
  5
800000CA
 10
-151.659
 20
475.575
 30
0.000000
  70
    32
  0
VERTEX
  8
0
  5
800000CB
 10
-153.196
 20
476.205
 30
0.000000
  70
    32
  0
VERTEX
  8
0
  5
800000CC
 10
-154.734
 20
476.829
 30
0.000000
  70
    32
  0
VERTEX
  8
0
  5
800000CD
 10
-156.273
 20
477.447
 30
0.000000
  70
    32
  0
VERTEX
  8
0
  5
800000CE
 10
-157.812
 20
478.059
 30
0.000000
  70
    32
  0
VERTEX
  8
0
  5
800000CF
 10
-159.353
 20
478.664
 30
0.000000
  70
    32
  0
VERTEX
  8
0
  5
800000D0
 10
-160.896
 20
479.261
 30
0.000000
  70
    32
  0
VERTEX
  8
0
  5
800000D1
 10
-162.439
 20
479.852
 30
0.000000
  70
    32
  0
VERTEX
  8
0
  5
800000D2
 10
-163.984
 20
480.435
 30
0.000000
  70
    32
  0
VERTEX
  8
0
  5
800000D3
 10
-165.530
 20
481.010
 30
0.000000
  70
    32
  0
VERTEX
  8
0
  5
800000D4
 10
-167.077
 20
481.578
 30
0.000000
  70
    32
  0
VERTEX
  8
0
  5
800000D5
 10
-168.626
 20
482.138
 30
0.000000
  70
    32
  0
VERTEX
  8
0
  5
800000D6
 10
-170.176
 20
482.689
 30
0.000000
  70
    32
  0
VERTEX
  8
0
  5
800000D7
 10
-171.727
 20
483.232
 30
0.000000
  70
    32
  0
VERTEX
  8
0
  5
800000D8
 10
-173.280
 20
483.767
 30
0.000000
  70
    32
  0
VERTEX
  8
0
  5
800000D9
 10
-174.834
 20
484.292
 30
0.000000
  70
    32
  0
VERTEX
  8
0
  5
800000DA
 10
-176.390
 20
484.809
 30
0.000000
  70
    32
  0
VERTEX
  8
0
  5
800000DB
 10
-177.948
 20
485.317
 30
0.000000
  70
    32
  0
VERTEX
  8
0
  5
800000DC
 10
-179.507
 20
485.815
 30
0.000000
  70
    32
  0
VERTEX
  8
0
  5
800000DD
 10
-181.068
 20
486.303
 30
0.000000
  70
    32
  0
VERTEX
  8
0
  5
800000DE
 10
-182.630
 20
486.782
 30
0.000000
  70
    32
  0
VERTEX
  8
0
  5
800000DF
 10
-184.194
 20
487.251
 30
0.000000
  70
    32
  0
VERTEX
  8
0
  5
800000E0
 10
-185.760
 20
487.709
 30
0.000000
  70
    32
  0
VERTEX
  8
0
  5
800000E1
 10
-187.327
 20
488.157
 30
0.000000
  70
    32
  0
VERTEX
  8
0
  5
800000E2
 10
-188.897
 20
488.595
 30
0.000000
  70
    32
  0
VERTEX
  8
0
  5
800000E3
 10
-190.468
 20
489.021
 30
0.000000
  70
    32
  0
VERTEX
  8
0
  5
800000E4
 10
-192.041
 20
489.437
 30
0.000000
  70
    32
  0
VERTEX
  8
0
  5
800000E5
 10
-193.616
 20
489.841
 30
0.000000
  70
    32
  0
VERTEX
  8
0
  5
800000E6
 10
-195.193
 20
490.234
 30
0.000000
  70
    32
  0
VERTEX
  8
0
  5
800000E7
 10
-196.772
 20
490.616
 30
0.000000
  70
    32
  0
VERTEX
  8
0
  5
800000E8
 10
-198.353
 20
490.985
 30
0.000000
  70
    32
  0
VERTEX
  8
0
  5
800000E9
 10
-199.936
 20
491.343
 30
0.000000
  70
    32
  0
VERTEX
  8
0
  5
800000EA
 10
-201.520
 20
491.688
 30
0.000000
  70
    32
  0
VERTEX
  8
0
  5
800000EB
 10
-203.108
 20
492.021
 30
0.000000
  70
    32
  0
VERTEX
  8
0
  5
800000EC
 10
-204.697
 20
492.341
 30
0.000000
  70
    32
  0
VERTEX
  8
0
  5
800000ED
 10
-206.288
 20
492.649
 30
0.000000
  70
    32
  0
VERTEX
  8
0
  5
800000EE
 10
-207.882
 20
492.943
 30
0.000000
  70
    32
  0
VERTEX
  8
0
  5
800000EF
 10
-209.478
 20
493.224
 30
0.000000
  70
    32
  0
VERTEX
  8
0
  5
800000F0
 10
-211.076
 20
493.492
 30
0.000000
  70
    32
  0
VERTEX
  8
0
  5
800000F1
 10
-212.676
 20
493.746
 30
0.000000
  70
    32
  0
VERTEX
  8
0
  5
800000F2
 10
-214.279
 20
493.986
 30
0.000000
  70
    32
  0
VERTEX
  8
0
  5
800000F3
 10
-215.884
 20
494.212
 30
0.000000
  70
    32
  0
VERTEX
  8
0
  5
800000F4
 10
-217.492
 20
494.424
 30
0.000000
  70
    32
  0
VERTEX
  8
0
  5
800000F5
 10
-219.102
 20
494.622
 30
0.000000
  70
    32
  0
VERTEX
  8
0
  5
800000F6
 10
-220.714
 20
494.805
 30
0.000000
  70
    32
  0
VERTEX
  8
0
  5
800000F7
 10
-222.329
 20
494.973
 30
0.000000
  70
    32
  0
VERTEX
  8
0
  5
800000F8
 10
-223.947
 20
495.126
 30
0.000000
  70
    32
  0
VERTEX
  8
0
  5
800000F9
 10
-225.567
 20
495.263
 30
0.000000
  70
    32
  0
VERTEX
  8
0
  5
800000FA
 10
-227.190
 20
495.386
 30
0.000000
  70
    32
  0
VERTEX
  8
0
  5
800000FB
 10
-228.815
 20
495.492
 30
0.000000
  70
    32
  0
VERTEX
  8
0
  5
800000FC
 10
-230.444
 20
495.583
 30
0.000000
  70
    32
  0
VERTEX
  8
0
  5
800000FD
 10
-232.074
 20
495.658
 30
0.000000
  70
    32
  0
VERTEX
  8
0
  5
800000FE
 10
-233.708
 20
495.716
 30
0.000000
  70
    32
  0
VERTEX
  8
0
  5
800000FF
 10
-235.344
 20
495.758
 30
0.000000
  70
    32
  0
VERTEX
  8
0
  5
80000100
 10
-236.984
 20
495.784
 30
0.000000
  70
    32
  0
VERTEX
  8
0
  5
80000101
 10
-238.626
 20
495.792
 30
0.000000
  70
    32
  0
SEQEND
  8
0
  5
80000102
  0
ENDBLK
  5
FFBBDAE469BC8B0F
  8
0
  0
BLOCK
  8
0
  2
*U28
 70
     1
 10
0.0
 20
0.0
 30
0.0
  3
*U28
  1

  0
SOLID
  5
FFBBDAE469BC8B11
  8
0
  6
CONTINUOUS
 10
3.1701374356512728
 20
512.45179409950993
 30
0.0
 11
-5.2921093038785321
 21
509.03999397064581
 31
0.0
 12
1.606188921450491
 22
515.01188492698634
 32
0.0
 13
1.606188921450491
 23
515.01188492698634
 33
0.0
  0
POLYLINE
  8
0
  5
80000103
  66
     1
 10
0.000000
 20
0.000000
 30
0.000000
  70
     8
  0
VERTEX
  8
0
  5
80000104
 10
2.38816
 20
513.732
 30
0.000000
  70
    32
  0
VERTEX
  8
0
  5
80000105
 10
4.88101
 20
515.269
 30
0.000000
  70
    32
  0
VERTEX
  8
0
  5
80000106
 10
7.36726
 20
516.829
 30
0.000000
  70
    32
  0
VERTEX
  8
0
  5
80000107
 10
9.84708
 20
518.412
 30
0.000000
  70
    32
  0
VERTEX
  8
0
  5
80000108
 10
12.3206
 20
520.018
 30
0.000000
  70
    32
  0
VERTEX
  8
0
  5
80000109
 10
14.7880
 20
521.645
 30
0.000000
  70
    32
  0
VERTEX
  8
0
  5
8000010A
 10
17.2495
 20
523.293
 30
0.000000
  70
    32
  0
VERTEX
  8
0
  5
8000010B
 10
19.7052
 20
524.962
 30
0.000000
  70
    32
  0
VERTEX
  8
0
  5
8000010C
 10
22.1552
 20
526.651
 30
0.000000
  70
    32
  0
VERTEX
  8
0
  5
8000010D
 10
24.5998
 20
528.360
 30
0.000000
  70
    32
  0
VERTEX
  8
0
  5
8000010E
 10
27.0390
 20
530.087
 30
0.000000
  70
    32
  0
VERTEX
  8
0
  5
8000010F
 10
29.4731
 20
531.833
 30
0.000000
  70
    32
  0
VERTEX
  8
0
  5
80000110
 10
31.9021
 20
533.597
 30
0.000000
  70
    32
  0
VERTEX
  8
0
  5
80000111
 10
34.3264
 20
535.377
 30
0.000000
  70
    32
  0
VERTEX
  8
0
  5
80000112
 10
36.7459
 20
537.175
 30
0.000000
  70
    32
  0
VERTEX
  8
0
  5
80000113
 10
39.1610
 20
538.988
 30
0.000000
  70
    32
  0
VERTEX
  8
0
  5
80000114
 10
41.5716
 20
540.817
 30
0.000000
  70
    32
  0
VERTEX
  8
0
  5
80000115
 10
43.9781
 20
542.661
 30
0.000000
  70
    32
  0
VERTEX
  8
0
  5
80000116
 10
46.3805
 20
544.519
 30
0.000000
  70
    32
  0
VERTEX
  8
0
  5
80000117
 10
48.7791
 20
546.391
 30
0.000000
  70
    32
  0
VERTEX
  8
0
  5
80000118
 10
51.1739
 20
548.277
 30
0.000000
  70
    32
  0
VERTEX
  8
0
  5
80000119
 10
53.5652
 20
550.175
 30
0.000000
  70
    32
  0
VERTEX
  8
0
  5
8000011A
 10
55.9530
 20
552.085
 30
0.000000
  70
    32
  0
VERTEX
  8
0
  5
8000011B
 10
58.3376
 20
554.006
 30
0.000000
  70
    32
  0
VERTEX
  8
0
  5
8000011C
 10
60.7192
 20
555.939
 30
0.000000
  70
    32
  0
VERTEX
  8
0
  5
8000011D
 10
63.0978
 20
557.882
 30
0.000000
  70
    32
  0
VERTEX
  8
0
  5
8000011E
 10
65.4736
 20
559.835
 30
0.000000
  70
    32
  0
VERTEX
  8
0
  5
8000011F
 10
67.8468
 20
561.797
 30
0.000000
  70
    32
  0
VERTEX
  8
0
  5
80000120
 10
70.2176
 20
563.768
 30
0.000000
  70
    32
  0
VERTEX
  8
0
  5
80000121
 10
72.5861
 20
565.747
 30
0.000000
  70
    32
  0
VERTEX
  8
0
  5
80000122
 10
74.9525
 20
567.733
 30
0.000000
  70
    32
  0
VERTEX
  8
0
  5
80000123
 10
77.3169
 20
569.727
 30
0.000000
  70
    32
  0
VERTEX
  8
0
  5
80000124
 10
79.6795
 20
571.727
 30
0.000000
  70
    32
  0
VERTEX
  8
0
  5
80000125
 10
82.0404
 20
573.732
 30
0.000000
  70
    32
  0
VERTEX
  8
0
  5
80000126
 10
84.3999
 20
575.743
 30
0.000000
  70
    32
  0
VERTEX
  8
0
  5
80000127
 10
86.7580
 20
577.759
 30
0.000000
  70
    32
  0
VERTEX
  8
0
  5
80000128
 10
89.1149
 20
579.779
 30
0.000000
  70
    32
  0
VERTEX
  8
0
  5
80000129
 10
91.4709
 20
581.803
 30
0.000000
  70
    32
  0
VERTEX
  8
0
  5
8000012A
 10
93.8260
 20
583.829
 30
0.000000
  70
    32
  0
VERTEX
  8
0
  5
8000012B
 10
96.1804
 20
585.858
 30
0.000000
  70
    32
  0
VERTEX
  8
0
  5
8000012C
 10
98.5342
 20
587.889
 30
0.000000
  70
    32
  0
VERTEX
  8
0
  5
8000012D
 10
100.888
 20
589.921
 30
0.000000
  70
    32
  0
VERTEX
  8
0
  5
8000012E
 10
103.241
 20
591.954
 30
0.000000
  70
    32
  0
VERTEX
  8
0
  5
8000012F
 10
105.594
 20
593.988
 30
0.000000
  70
    32
  0
VERTEX
  8
0
  5
80000130
 10
107.948
 20
596.020
 30
0.000000
  70
    32
  0
VERTEX
  8
0
  5
80000131
 10
110.301
 20
598.052
 30
0.000000
  70
    32
  0
VERTEX
  8
0
  5
80000132
 10
112.655
 20
600.083
 30
0.000000
  70
    32
  0
VERTEX
  8
0
  5
80000133
 10
115.010
 20
602.111
 30
0.000000
  70
    32
  0
VERTEX
  8
0
  5
80000134
 10
117.365
 20
604.137
 30
0.000000
  70
    32
  0
VERTEX
  8
0
  5
80000135
 10
119.721
 20
606.159
 30
0.000000
  70
    32
  0
VERTEX
  8
0
  5
80000136
 10
122.079
 20
608.178
 30
0.000000
  70
    32
  0
VERTEX
  8
0
  5
80000137
 10
124.437
 20
610.192
 30
0.000000
  70
    32
  0
VERTEX
  8
0
  5
80000138
 10
126.797
 20
612.201
 30
0.000000
  70
    32
  0
VERTEX
  8
0
  5
80000139
 10
129.159
 20
614.205
 30
0.000000
  70
    32
  0
VERTEX
  8
0
  5
8000013A
 10
131.522
 20
616.203
 30
0.000000
  70
    32
  0
VERTEX
  8
0
  5
8000013B
 10
133.887
 20
618.194
 30
0.000000
  70
    32
  0
VERTEX
  8
0
  5
8000013C
 10
136.254
 20
620.178
 30
0.000000
  70
    32
  0
VERTEX
  8
0
  5
8000013D
 10
138.623
 20
622.154
 30
0.000000
  70
    32
  0
VERTEX
  8
0
  5
8000013E
 10
140.995
 20
624.122
 30
0.000000
  70
    32
  0
VERTEX
  8
0
  5
8000013F
 10
143.369
 20
626.081
 30
0.000000
  70
    32
  0
VERTEX
  8
0
  5
80000140
 10
145.746
 20
628.031
 30
0.000000
  70
    32
  0
VERTEX
  8
0
  5
80000141
 10
148.125
 20
629.971
 30
0.000000
  70
    32
  0
VERTEX
  8
0
  5
80000142
 10
150.508
 20
631.900
 30
0.000000
  70
    32
  0
VERTEX
  8
0
  5
80000143
 10
152.893
 20
633.818
 30
0.000000
  70
    32
  0
VERTEX
  8
0
  5
80000144
 10
155.282
 20
635.724
 30
0.000000
  70
    32
  0
VERTEX
  8
0
  5
80000145
 10
157.675
 20
637.617
 30
0.000000
  70
    32
  0
VERTEX
  8
0
  5
80000146
 10
160.071
 20
639.498
 30
0.000000
  70
    32
  0
VERTEX
  8
0
  5
80000147
 10
162.471
 20
641.366
 30
0.000000
  70
    32
  0
VERTEX
  8
0
  5
80000148
 10
164.874
 20
643.220
 30
0.000000
  70
    32
  0
VERTEX
  8
0
  5
80000149
 10
167.282
 20
645.059
 30
0.000000
  70
    32
  0
VERTEX
  8
0
  5
8000014A
 10
169.694
 20
646.882
 30
0.000000
  70
    32
  0
VERTEX
  8
0
  5
8000014B
 10
172.111
 20
648.691
 30
0.000000
  70
    32
  0
VERTEX
  8
0
  5
8000014C
 10
174.532
 20
650.483
 30
0.000000
  70
    32
  0
VERTEX
  8
0
  5
8000014D
 10
176.958
 20
652.258
 30
0.000000
  70
    32
  0
VERTEX
  8
0
  5
8000014E
 10
179.389
 20
654.015
 30
0.000000
  70
    32
  0
VERTEX
  8
0
  5
8000014F
 10
181.824
 20
655.755
 30
0.000000
  70
    32
  0
VERTEX
  8
0
  5
80000150
 10
184.265
 20
657.476
 30
0.000000
  70
    32
  0
VERTEX
  8
0
  5
80000151
 10
186.712
 20
659.178
 30
0.000000
  70
    32
  0
VERTEX
  8
0
  5
80000152
 10
189.164
 20
660.861
 30
0.000000
  70
    32
  0
VERTEX
  8
0
  5
80000153
 10
191.621
 20
662.523
 30
0.000000
  70
    32
  0
VERTEX
  8
0
  5
80000154
 10
194.085
 20
664.164
 30
0.000000
  70
    32
  0
VERTEX
  8
0
  5
80000155
 10
196.554
 20
665.784
 30
0.000000
  70
    32
  0
VERTEX
  8
0
  5
80000156
 10
199.030
 20
667.382
 30
0.000000
  70
    32
  0
VERTEX
  8
0
  5
80000157
 10
201.512
 20
668.958
 30
0.000000
  70
    32
  0
VERTEX
  8
0
  5
80000158
 10
204.000
 20
670.511
 30
0.000000
  70
    32
  0
VERTEX
  8
0
  5
80000159
 10
206.495
 20
672.039
 30
0.000000
  70
    32
  0
VERTEX
  8
0
  5
8000015A
 10
208.997
 20
673.544
 30
0.000000
  70
    32
  0
VERTEX
  8
0
  5
8000015B
 10
211.506
 20
675.024
 30
0.000000
  70
    32
  0
VERTEX
  8
0
  5
8000015C
 10
214.022
 20
676.479
 30
0.000000
  70
    32
  0
VERTEX
  8
0
  5
8000015D
 10
216.545
 20
677.907
 30
0.000000
  70
    32
  0
VERTEX
  8
0
  5
8000015E
 10
219.076
 20
679.309
 30
0.000000
  70
    32
  0
VERTEX
  8
0
  5
8000015F
 10
221.614
 20
680.685
 30
0.000000
  70
    32
  0
VERTEX
  8
0
  5
80000160
 10
224.160
 20
682.032
 30
0.000000
  70
    32
  0
VERTEX
  8
0
  5
80000161
 10
226.714
 20
683.352
 30
0.000000
  70
    32
  0
VERTEX
  8
0
  5
80000162
 10
229.276
 20
684.642
 30
0.000000
  70
    32
  0
VERTEX
  8
0
  5
80000163
 10
231.847
 20
685.904
 30
0.000000
  70
    32
  0
VERTEX
  8
0
  5
80000164
 10
234.425
 20
687.135
 30
0.000000
  70
    32
  0
VERTEX
  8
0
  5
80000165
 10
237.013
 20
688.336
 30
0.000000
  70
    32
  0
VERTEX
  8
0
  5
80000166
 10
239.609
 20
689.506
 30
0.000000
  70
    32
  0
VERTEX
  8
0
  5
80000167
 10
242.214
 20
690.644
 30
0.000000
  70
    32
  0
VERTEX
  8
0
  5
80000168
 10
244.828
 20
691.751
 30
0.000000
  70
    32
  0
VERTEX
  8
0
  5
80000169
 10
247.451
 20
692.824
 30
0.000000
  70
    32
  0
VERTEX
  8
0
  5
8000016A
 10
250.083
 20
693.864
 30
0.000000
  70
    32
  0
VERTEX
  8
0
  5
8000016B
 10
252.725
 20
694.871
 30
0.000000
  70
    32
  0
VERTEX
  8
0
  5
8000016C
 10
255.377
 20
695.843
 30
0.000000
  70
    32
  0
VERTEX
  8
0
  5
8000016D
 10
258.039
 20
696.780
 30
0.000000
  70
    32
  0
VERTEX
  8
0
  5
8000016E
 10
260.710
 20
697.681
 30
0.000000
  70
    32
  0
VERTEX
  8
0
  5
8000016F
 10
263.392
 20
698.547
 30
0.000000
  70
    32
  0
VERTEX
  8
0
  5
80000170
 10
266.084
 20
699.376
 30
0.000000
  70
    32
  0
VERTEX
  8
0
  5
80000171
 10
268.786
 20
700.167
 30
0.000000
  70
    32
  0
VERTEX
  8
0
  5
80000172
 10
271.500
 20
700.921
 30
0.000000
  70
    32
  0
VERTEX
  8
0
  5
80000173
 10
274.224
 20
701.636
 30
0.000000
  70
    32
  0
VERTEX
  8
0
  5
80000174
 10
276.958
 20
702.312
 30
0.000000
  70
    32
  0
VERTEX
  8
0
  5
80000175
 10
279.704
 20
702.949
 30
0.000000
  70
    32
  0
VERTEX
  8
0
  5
80000176
 10
282.462
 20
703.546
 30
0.000000
  70
    32
  0
VERTEX
  8
0
  5
80000177
 10
285.230
 20
704.102
 30
0.000000
  70
    32
  0
VERTEX
  8
0
  5
80000178
 10
288.011
 20
704.616
 30
0.000000
  70
    32
  0
VERTEX
  8
0
  5
80000179
 10
290.803
 20
705.089
 30
0.000000
  70
    32
  0
VERTEX
  8
0
  5
8000017A
 10
293.607
 20
705.520
 30
0.000000
  70
    32
  0
VERTEX
  8
0
  5
8000017B
 10
296.423
 20
705.908
 30
0.000000
  70
    32
  0
VERTEX
  8
0
  5
8000017C
 10
299.251
 20
706.252
 30
0.000000
  70
    32
  0
VERTEX
  8
0
  5
8000017D
 10
302.092
 20
706.552
 30
0.000000
  70
    32
  0
VERTEX
  8
0
  5
8000017E
 10
304.945
 20
706.808
 30
0.000000
  70
    32
  0
VERTEX
  8
0
  5
8000017F
 10
307.811
 20
707.018
 30
0.000000
  70
    32
  0
VERTEX
  8
0
  5
80000180
 10
310.690
 20
707.183
 30
0.000000
  70
    32
  0
VERTEX
  8
0
  5
80000181
 10
313.582
 20
707.301
 30
0.000000
  70
    32
  0
VERTEX
  8
0
  5
80000182
 10
316.487
 20
707.372
 30
0.000000
  70
    32
  0
VERTEX
  8
0
  5
80000183
 10
319.405
 20
707.396
 30
0.000000
  70
    32
  0
SEQEND
  8
0
  5
80000184
  0
ENDBLK
  5
FFBBDAE469BC8B14
  8
0
  0
BLOCK
  8
0
  2
*U29
 70
     1
 10
0.0
 20
0.0
 30
0.0
  3
*U29
  1

  0
SOLID
  5
FFBBDAE469BC8B16
  8
0
  6
CONTINUOUS
 10
190.06764317544801
 20
297.8797588736382
 30
0.0
 11
186.10717555955671
 21
306.0995335824411
 31
0.0
 12
192.5194367233899
 22
299.60854700359232
 32
0.0
 13
192.5194367233899
 23
299.60854700359232
 33
0.0
  0
POLYLINE
  8
0
  5
80000185
  66
     1
 10
0.000000
 20
0.000000
 30
0.000000
  70
     8
  0
VERTEX
  8
0
  5
80000186
 10
191.294
 20
298.744
 30
0.000000
  70
    32
  0
VERTEX
  8
0
  5
80000187
 10
192.296
 20
297.302
 30
0.000000
  70
    32
  0
VERTEX
  8
0
  5
80000188
 10
193.288
 20
295.839
 30
0.000000
  70
    32
  0
VERTEX
  8
0
  5
80000189
 10
194.268
 20
294.353
 30
0.000000
  70
    32
  0
VERTEX
  8
0
  5
8000018A
 10
195.238
 20
292.847
 30
0.000000
  70
    32
  0
VERTEX
  8
0
  5
8000018B
 10
196.197
 20
291.320
 30
0.000000
  70
    32
  0
VERTEX
  8
0
  5
8000018C
 10
197.146
 20
289.774
 30
0.000000
  70
    32
  0
VERTEX
  8
0
  5
8000018D
 10
198.084
 20
288.208
 30
0.000000
  70
    32
  0
VERTEX
  8
0
  5
8000018E
 10
199.013
 20
286.624
 30
0.000000
  70
    32
  0
VERTEX
  8
0
  5
8000018F
 10
199.933
 20
285.021
 30
0.000000
  70
    32
  0
VERTEX
  8
0
  5
80000190
 10
200.843
 20
283.400
 30
0.000000
  70
    32
  0
VERTEX
  8
0
  5
80000191
 10
201.744
 20
281.762
 30
0.000000
  70
    32
  0
VERTEX
  8
0
  5
80000192
 10
202.637
 20
280.108
 30
0.000000
  70
    32
  0
VERTEX
  8
0
  5
80000193
 10
203.521
 20
278.437
 30
0.000000
  70
    32
  0
VERTEX
  8
0
  5
80000194
 10
204.398
 20
276.751
 30
0.000000
  70
    32
  0
VERTEX
  8
0
  5
80000195
 10
205.266
 20
275.049
 30
0.000000
  70
    32
  0
VERTEX
  8
0
  5
80000196
 10
206.127
 20
273.334
 30
0.000000
  70
    32
  0
VERTEX
  8
0
  5
80000197
 10
206.980
 20
271.604
 30
0.000000
  70
    32
  0
VERTEX
  8
0
  5
80000198
 10
207.827
 20
269.860
 30
0.000000
  70
    32
  0
VERTEX
  8
0
  5
80000199
 10
208.667
 20
268.104
 30
0.000000
  70
    32
  0
VERTEX
  8
0
  5
8000019A
 10
209.500
 20
266.335
 30
0.000000
  70
    32
  0
VERTEX
  8
0
  5
8000019B
 10
210.328
 20
264.555
 30
0.000000
  70
    32
  0
VERTEX
  8
0
  5
8000019C
 10
211.149
 20
262.763
 30
0.000000
  70
    32
  0
VERTEX
  8
0
  5
8000019D
 10
211.965
 20
260.960
 30
0.000000
  70
    32
  0
VERTEX
  8
0
  5
8000019E
 10
212.775
 20
259.147
 30
0.000000
  70
    32
  0
VERTEX
  8
0
  5
8000019F
 10
213.581
 20
257.324
 30
0.000000
  70
    32
  0
VERTEX
  8
0
  5
800001A0
 10
214.381
 20
255.492
 30
0.000000
  70
    32
  0
VERTEX
  8
0
  5
800001A1
 10
215.177
 20
253.651
 30
0.000000
  70
    32
  0
VERTEX
  8
0
  5
800001A2
 10
215.969
 20
251.802
 30
0.000000
  70
    32
  0
VERTEX
  8
0
  5
800001A3
 10
216.757
 20
249.945
 30
0.000000
  70
    32
  0
VERTEX
  8
0
  5
800001A4
 10
217.541
 20
248.082
 30
0.000000
  70
    32
  0
VERTEX
  8
0
  5
800001A5
 10
218.322
 20
246.212
 30
0.000000
  70
    32
  0
VERTEX
  8
0
  5
800001A6
 10
219.100
 20
244.335
 30
0.000000
  70
    32
  0
VERTEX
  8
0
  5
800001A7
 10
219.875
 20
242.454
 30
0.000000
  70
    32
  0
VERTEX
  8
0
  5
800001A8
 10
220.647
 20
240.567
 30
0.000000
  70
    32
  0
VERTEX
  8
0
  5
800001A9
 10
221.417
 20
238.676
 30
0.000000
  70
    32
  0
VERTEX
  8
0
  5
800001AA
 10
222.185
 20
236.781
 30
0.000000
  70
    32
  0
VERTEX
  8
0
  5
800001AB
 10
222.951
 20
234.882
 30
0.000000
  70
    32
  0
VERTEX
  8
0
  5
800001AC
 10
223.716
 20
232.981
 30
0.000000
  70
    32
  0
VERTEX
  8
0
  5
800001AD
 10
224.479
 20
231.077
 30
0.000000
  70
    32
  0
VERTEX
  8
0
  5
800001AE
 10
225.242
 20
229.172
 30
0.000000
  70
    32
  0
VERTEX
  8
0
  5
800001AF
 10
226.004
 20
227.265
 30
0.000000
  70
    32
  0
VERTEX
  8
0
  5
800001B0
 10
226.766
 20
225.358
 30
0.000000
  70
    32
  0
VERTEX
  8
0
  5
800001B1
 10
227.527
 20
223.451
 30
0.000000
  70
    32
  0
VERTEX
  8
0
  5
800001B2
 10
228.289
 20
221.544
 30
0.000000
  70
    32
  0
VERTEX
  8
0
  5
800001B3
 10
229.051
 20
219.637
 30
0.000000
  70
    32
  0
VERTEX
  8
0
  5
800001B4
 10
229.814
 20
217.732
 30
0.000000
  70
    32
  0
VERTEX
  8
0
  5
800001B5
 10
230.578
 20
215.830
 30
0.000000
  70
    32
  0
VERTEX
  8
0
  5
800001B6
 10
231.343
 20
213.929
 30
0.000000
  70
    32
  0
VERTEX
  8
0
  5
800001B7
 10
232.110
 20
212.032
 30
0.000000
  70
    32
  0
VERTEX
  8
0
  5
800001B8
 10
232.878
 20
210.138
 30
0.000000
  70
    32
  0
VERTEX
  8
0
  5
800001B9
 10
233.649
 20
208.248
 30
0.000000
  70
    32
  0
VERTEX
  8
0
  5
800001BA
 10
234.422
 20
206.363
 30
0.000000
  70
    32
  0
VERTEX
  8
0
  5
800001BB
 10
235.198
 20
204.483
 30
0.000000
  70
    32
  0
VERTEX
  8
0
  5
800001BC
 10
235.977
 20
202.609
 30
0.000000
  70
    32
  0
VERTEX
  8
0
  5
800001BD
 10
236.759
 20
200.741
 30
0.000000
  70
    32
  0
VERTEX
  8
0
  5
800001BE
 10
237.544
 20
198.879
 30
0.000000
  70
    32
  0
VERTEX
  8
0
  5
800001BF
 10
238.333
 20
197.025
 30
0.000000
  70
    32
  0
VERTEX
  8
0
  5
800001C0
 10
239.126
 20
195.179
 30
0.000000
  70
    32
  0
VERTEX
  8
0
  5
800001C1
 10
239.924
 20
193.341
 30
0.000000
  70
    32
  0
VERTEX
  8
0
  5
800001C2
 10
240.726
 20
191.512
 30
0.000000
  70
    32
  0
VERTEX
  8
0
  5
800001C3
 10
241.533
 20
189.692
 30
0.000000
  70
    32
  0
VERTEX
  8
0
  5
800001C4
 10
242.345
 20
187.883
 30
0.000000
  70
    32
  0
VERTEX
  8
0
  5
800001C5
 10
243.163
 20
186.083
 30
0.000000
  70
    32
  0
VERTEX
  8
0
  5
800001C6
 10
243.986
 20
184.295
 30
0.000000
  70
    32
  0
VERTEX
  8
0
  5
800001C7
 10
244.816
 20
182.518
 30
0.000000
  70
    32
  0
VERTEX
  8
0
  5
800001C8
 10
245.651
 20
180.754
 30
0.000000
  70
    32
  0
VERTEX
  8
0
  5
800001C9
 10
246.493
 20
179.002
 30
0.000000
  70
    32
  0
VERTEX
  8
0
  5
800001CA
 10
247.342
 20
177.263
 30
0.000000
  70
    32
  0
VERTEX
  8
0
  5
800001CB
 10
248.198
 20
175.537
 30
0.000000
  70
    32
  0
VERTEX
  8
0
  5
800001CC
 10
249.062
 20
173.826
 30
0.000000
  70
    32
  0
VERTEX
  8
0
  5
800001CD
 10
249.933
 20
172.130
 30
0.000000
  70
    32
  0
VERTEX
  8
0
  5
800001CE
 10
250.811
 20
170.449
 30
0.000000
  70
    32
  0
VERTEX
  8
0
  5
800001CF
 10
251.699
 20
168.784
 30
0.000000
  70
    32
  0
VERTEX
  8
0
  5
800001D0
 10
252.594
 20
167.135
 30
0.000000
  70
    32
  0
VERTEX
  8
0
  5
800001D1
 10
253.498
 20
165.502
 30
0.000000
  70
    32
  0
VERTEX
  8
0
  5
800001D2
 10
254.412
 20
163.888
 30
0.000000
  70
    32
  0
VERTEX
  8
0
  5
800001D3
 10
255.334
 20
162.291
 30
0.000000
  70
    32
  0
VERTEX
  8
0
  5
800001D4
 10
256.266
 20
160.712
 30
0.000000
  70
    32
  0
VERTEX
  8
0
  5
800001D5
 10
257.208
 20
159.153
 30
0.000000
  70
    32
  0
VERTEX
  8
0
  5
800001D6
 10
258.160
 20
157.613
 30
0.000000
  70
    32
  0
VERTEX
  8
0
  5
800001D7
 10
259.123
 20
156.093
 30
0.000000
  70
    32
  0
VERTEX
  8
0
  5
800001D8
 10
260.096
 20
154.594
 30
0.000000
  70
    32
  0
VERTEX
  8
0
  5
800001D9
 10
261.080
 20
153.116
 30
0.000000
  70
    32
  0
VERTEX
  8
0
  5
800001DA
 10
262.075
 20
151.659
 30
0.000000
  70
    32
  0
VERTEX
  8
0
  5
800001DB
 10
263.082
 20
150.225
 30
0.000000
  70
    32
  0
VERTEX
  8
0
  5
800001DC
 10
264.101
 20
148.813
 30
0.000000
  70
    32
  0
VERTEX
  8
0
  5
800001DD
 10
265.132
 20
147.425
 30
0.000000
  70
    32
  0
VERTEX
  8
0
  5
800001DE
 10
266.174
 20
146.060
 30
0.000000
  70
    32
  0
VERTEX
  8
0
  5
800001DF
 10
267.230
 20
144.720
 30
0.000000
  70
    32
  0
VERTEX
  8
0
  5
800001E0
 10
268.298
 20
143.404
 30
0.000000
  70
    32
  0
VERTEX
  8
0
  5
800001E1
 10
269.380
 20
142.114
 30
0.000000
  70
    32
  0
VERTEX
  8
0
  5
800001E2
 10
270.475
 20
140.850
 30
0.000000
  70
    32
  0
VERTEX
  8
0
  5
800001E3
 10
271.584
 20
139.612
 30
0.000000
  70
    32
  0
VERTEX
  8
0
  5
800001E4
 10
272.707
 20
138.401
 30
0.000000
  70
    32
  0
VERTEX
  8
0
  5
800001E5
 10
273.844
 20
137.218
 30
0.000000
  70
    32
  0
VERTEX
  8
0
  5
800001E6
 10
274.995
 20
136.063
 30
0.000000
  70
    32
  0
VERTEX
  8
0
  5
800001E7
 10
276.161
 20
134.936
 30
0.000000
  70
    32
  0
VERTEX
  8
0
  5
800001E8
 10
277.343
 20
133.838
 30
0.000000
  70
    32
  0
VERTEX
  8
0
  5
800001E9
 10
278.540
 20
132.770
 30
0.000000
  70
    32
  0
VERTEX
  8
0
  5
800001EA
 10
279.752
 20
131.732
 30
0.000000
  70
    32
  0
VERTEX
  8
0
  5
800001EB
 10
280.980
 20
130.725
 30
0.000000
  70
    32
  0
VERTEX
  8
0
  5
800001EC
 10
282.225
 20
129.749
 30
0.000000
  70
    32
  0
VERTEX
  8
0
  5
800001ED
 10
283.486
 20
128.805
 30
0.000000
  70
    32
  0
VERTEX
  8
0
  5
800001EE
 10
284.763
 20
127.893
 30
0.000000
  70
    32
  0
VERTEX
  8
0
  5
800001EF
 10
286.058
 20
127.014
 30
0.000000
  70
    32
  0
VERTEX
  8
0
  5
800001F0
 10
287.370
 20
126.168
 30
0.000000
  70
    32
  0
VERTEX
  8
0
  5
800001F1
 10
288.700
 20
125.356
 30
0.000000
  70
    32
  0
VERTEX
  8
0
  5
800001F2
 10
290.047
 20
124.579
 30
0.000000
  70
    32
  0
VERTEX
  8
0
  5
800001F3
 10
291.413
 20
123.836
 30
0.000000
  70
    32
  0
VERTEX
  8
0
  5
800001F4
 10
292.797
 20
123.129
 30
0.000000
  70
    32
  0
VERTEX
  8
0
  5
800001F5
 10
294.199
 20
122.458
 30
0.000000
  70
    32
  0
VERTEX
  8
0
  5
800001F6
 10
295.621
 20
121.824
 30
0.000000
  70
    32
  0
VERTEX
  8
0
  5
800001F7
 10
297.061
 20
121.227
 30
0.000000
  70
    32
  0
VERTEX
  8
0
  5
800001F8
 10
298.522
 20
120.667
 30
0.000000
  70
    32
  0
VERTEX
  8
0
  5
800001F9
 10
300.002
 20
120.145
 30
0.000000
  70
    32
  0
VERTEX
  8
0
  5
800001FA
 10
301.502
 20
119.662
 30
0.000000
  70
    32
  0
VERTEX
  8
0
  5
800001FB
 10
303.022
 20
119.218
 30
0.000000
  70
    32
  0
VERTEX
  8
0
  5
800001FC
 10
304.563
 20
118.814
 30
0.000000
  70
    32
  0
VERTEX
  8
0
  5
800001FD
 10
306.125
 20
118.451
 30
0.000000
  70
    32
  0
VERTEX
  8
0
  5
800001FE
 10
307.708
 20
118.128
 30
0.000000
  70
    32
  0
VERTEX
  8
0
  5
800001FF
 10
309.313
 20
117.846
 30
0.000000
  70
    32
  0
VERTEX
  8
0
  5
80000200
 10
310.939
 20
117.606
 30
0.000000
  70
    32
  0
VERTEX
  8
0
  5
80000201
 10
312.587
 20
117.409
 30
0.000000
  70
    32
  0
VERTEX
  8
0
  5
80000202
 10
314.258
 20
117.254
 30
0.000000
  70
    32
  0
VERTEX
  8
0
  5
80000203
 10
315.951
 20
117.144
 30
0.000000
  70
    32
  0
VERTEX
  8
0
  5
80000204
 10
317.666
 20
117.077
 30
0.000000
  70
    32
  0
VERTEX
  8
0
  5
80000205
 10
319.405
 20
117.054
 30
0.000000
  70
    32
  0
SEQEND
  8
0
  5
80000206
  0
ENDBLK
  5
FFBBDAE469BC8B19
  8
0
  0
BLOCK
  8
0
  2
*U30
 70
     1
 10
0.0
 20
0.0
 30
0.0
  3
*U30
  1

  0
SOLID
  5
FFBBDAE469BC8B1B
  8
0
  6
CONTINUOUS
 10
266.53905569266669
 20
508.59788963122872
 30
0.0
 11
259.11545412052152
 21
503.29316157994822
 31
0.0
 12
264.4173275910544
 22
510.71880213834169
 32
0.0
 13
264.4173275910544
 23
510.71880213834169
 33
0.0
  0
POLYLINE
  8
0
  5
80000207
  66
     1
 10
0.000000
 20
0.000000
 30
0.000000
  70
     8
  0
VERTEX
  8
0
  5
80000208
 10
265.478
 20
509.658
 30
0.000000
  70
    32
  0
VERTEX
  8
0
  5
80000209
 10
265.901
 20
510.086
 30
0.000000
  70
    32
  0
VERTEX
  8
0
  5
8000020A
 10
266.322
 20
510.521
 30
0.000000
  70
    32
  0
VERTEX
  8
0
  5
8000020B
 10
266.740
 20
510.962
 30
0.000000
  70
    32
  0
VERTEX
  8
0
  5
8000020C
 10
267.155
 20
511.409
 30
0.000000
  70
    32
  0
VERTEX
  8
0
  5
8000020D
 10
267.568
 20
511.863
 30
0.000000
  70
    32
  0
VERTEX
  8
0
  5
8000020E
 10
267.978
 20
512.322
 30
0.000000
  70
    32
  0
VERTEX
  8
0
  5
8000020F
 10
268.386
 20
512.787
 30
0.000000
  70
    32
  0
VERTEX
  8
0
  5
80000210
 10
268.792
 20
513.257
 30
0.000000
  70
    32
  0
VERTEX
  8
0
  5
80000211
 10
269.195
 20
513.733
 30
0.000000
  70
    32
  0
VERTEX
  8
0
  5
80000212
 10
269.597
 20
514.214
 30
0.000000
  70
    32
  0
VERTEX
  8
0
  5
80000213
 10
269.996
 20
514.701
 30
0.000000
  70
    32
  0
VERTEX
  8
0
  5
80000214
 10
270.393
 20
515.192
 30
0.000000
  70
    32
  0
VERTEX
  8
0
  5
80000215
 10
270.788
 20
515.688
 30
0.000000
  70
    32
  0
VERTEX
  8
0
  5
80000216
 10
271.181
 20
516.189
 30
0.000000
  70
    32
  0
VERTEX
  8
0
  5
80000217
 10
271.573
 20
516.694
 30
0.000000
  70
    32
  0
VERTEX
  8
0
  5
80000218
 10
271.962
 20
517.203
 30
0.000000
  70
    32
  0
VERTEX
  8
0
  5
80000219
 10
272.350
 20
517.717
 30
0.000000
  70
    32
  0
VERTEX
  8
0
  5
8000021A
 10
272.736
 20
518.235
 30
0.000000
  70
    32
  0
VERTEX
  8
0
  5
8000021B
 10
273.121
 20
518.756
 30
0.000000
  70
    32
  0
VERTEX
  8
0
  5
8000021C
 10
273.504
 20
519.281
 30
0.000000
  70
    32
  0
VERTEX
  8
0
  5
8000021D
 10
273.885
 20
519.810
 30
0.000000
  70
    32
  0
VERTEX
  8
0
  5
8000021E
 10
274.265
 20
520.342
 30
0.000000
  70
    32
  0
VERTEX
  8
0
  5
8000021F
 10
274.644
 20
520.877
 30
0.000000
  70
    32
  0
VERTEX
  8
0
  5
80000220
 10
275.022
 20
521.416
 30
0.000000
  70
    32
  0
VERTEX
  8
0
  5
80000221
 10
275.398
 20
521.957
 30
0.000000
  70
    32
  0
VERTEX
  8
0
  5
80000222
 10
275.773
 20
522.501
 30
0.000000
  70
    32
  0
VERTEX
  8
0
  5
80000223
 10
276.148
 20
523.048
 30
0.000000
  70
    32
  0
VERTEX
  8
0
  5
80000224
 10
276.521
 20
523.597
 30
0.000000
  70
    32
  0
VERTEX
  8
0
  5
80000225
 10
276.893
 20
524.148
 30
0.000000
  70
    32
  0
VERTEX
  8
0
  5
80000226
 10
277.264
 20
524.701
 30
0.000000
  70
    32
  0
VERTEX
  8
0
  5
80000227
 10
277.635
 20
525.256
 30
0.000000
  70
    32
  0
VERTEX
  8
0
  5
80000228
 10
278.005
 20
525.814
 30
0.000000
  70
    32
  0
VERTEX
  8
0
  5
80000229
 10
278.374
 20
526.372
 30
0.000000
  70
    32
  0
VERTEX
  8
0
  5
8000022A
 10
278.742
 20
526.932
 30
0.000000
  70
    32
  0
VERTEX
  8
0
  5
8000022B
 10
279.110
 20
527.494
 30
0.000000
  70
    32
  0
VERTEX
  8
0
  5
8000022C
 10
279.478
 20
528.057
 30
0.000000
  70
    32
  0
VERTEX
  8
0
  5
8000022D
 10
279.845
 20
528.620
 30
0.000000
  70
    32
  0
VERTEX
  8
0
  5
8000022E
 10
280.211
 20
529.185
 30
0.000000
  70
    32
  0
VERTEX
  8
0
  5
8000022F
 10
280.578
 20
529.750
 30
0.000000
  70
    32
  0
VERTEX
  8
0
  5
80000230
 10
280.944
 20
530.316
 30
0.000000
  70
    32
  0
VERTEX
  8
0
  5
80000231
 10
281.310
 20
530.882
 30
0.000000
  70
    32
  0
VERTEX
  8
0
  5
80000232
 10
281.676
 20
531.448
 30
0.000000
  70
    32
  0
VERTEX
  8
0
  5
80000233
 10
282.042
 20
532.015
 30
0.000000
  70
    32
  0
VERTEX
  8
0
  5
80000234
 10
282.408
 20
532.581
 30
0.000000
  70
    32
  0
VERTEX
  8
0
  5
80000235
 10
282.774
 20
533.147
 30
0.000000
  70
    32
  0
VERTEX
  8
0
  5
80000236
 10
283.141
 20
533.713
 30
0.000000
  70
    32
  0
VERTEX
  8
0
  5
80000237
 10
283.507
 20
534.278
 30
0.000000
  70
    32
  0
VERTEX
  8
0
  5
80000238
 10
283.874
 20
534.842
 30
0.000000
  70
    32
  0
VERTEX
  8
0
  5
80000239
 10
284.241
 20
535.405
 30
0.000000
  70
    32
  0
VERTEX
  8
0
  5
8000023A
 10
284.609
 20
535.967
 30
0.000000
  70
    32
  0
VERTEX
  8
0
  5
8000023B
 10
284.977
 20
536.529
 30
0.000000
  70
    32
  0
VERTEX
  8
0
  5
8000023C
 10
285.346
 20
537.088
 30
0.000000
  70
    32
  0
VERTEX
  8
0
  5
8000023D
 10
285.715
 20
537.647
 30
0.000000
  70
    32
  0
VERTEX
  8
0
  5
8000023E
 10
286.085
 20
538.203
 30
0.000000
  70
    32
  0
VERTEX
  8
0
  5
8000023F
 10
286.456
 20
538.758
 30
0.000000
  70
    32
  0
VERTEX
  8
0
  5
80000240
 10
286.827
 20
539.310
 30
0.000000
  70
    32
  0
VERTEX
  8
0
  5
80000241
 10
287.200
 20
539.861
 30
0.000000
  70
    32
  0
VERTEX
  8
0
  5
80000242
 10
287.573
 20
540.409
 30
0.000000
  70
    32
  0
VERTEX
  8
0
  5
80000243
 10
287.948
 20
540.955
 30
0.000000
  70
    32
  0
VERTEX
  8
0
  5
80000244
 10
288.324
 20
541.498
 30
0.000000
  70
    32
  0
VERTEX
  8
0
  5
80000245
 10
288.700
 20
542.038
 30
0.000000
  70
    32
  0
VERTEX
  8
0
  5
80000246
 10
289.078
 20
542.576
 30
0.000000
  70
    32
  0
VERTEX
  8
0
  5
80000247
 10
289.458
 20
543.110
 30
0.000000
  70
    32
  0
VERTEX
  8
0
  5
80000248
 10
289.838
 20
543.641
 30
0.000000
  70
    32
  0
VERTEX
  8
0
  5
80000249
 10
290.220
 20
544.168
 30
0.000000
  70
    32
  0
VERTEX
  8
0
  5
8000024A
 10
290.604
 20
544.692
 30
0.000000
  70
    32
  0
VERTEX
  8
0
  5
8000024B
 10
290.989
 20
545.213
 30
0.000000
  70
    32
  0
VERTEX
  8
0
  5
8000024C
 10
291.376
 20
545.729
 30
0.000000
  70
    32
  0
VERTEX
  8
0
  5
8000024D
 10
291.764
 20
546.241
 30
0.000000
  70
    32
  0
VERTEX
  8
0
  5
8000024E
 10
292.154
 20
546.749
 30
0.000000
  70
    32
  0
VERTEX
  8
0
  5
8000024F
 10
292.546
 20
547.253
 30
0.000000
  70
    32
  0
VERTEX
  8
0
  5
80000250
 10
292.940
 20
547.752
 30
0.000000
  70
    32
  0
VERTEX
  8
0
  5
80000251
 10
293.336
 20
548.247
 30
0.000000
  70
    32
  0
VERTEX
  8
0
  5
80000252
 10
293.733
 20
548.736
 30
0.000000
  70
    32
  0
VERTEX
  8
0
  5
80000253
 10
294.133
 20
549.221
 30
0.000000
  70
    32
  0
VERTEX
  8
0
  5
80000254
 10
294.535
 20
549.700
 30
0.000000
  70
    32
  0
VERTEX
  8
0
  5
80000255
 10
294.939
 20
550.174
 30
0.000000
  70
    32
  0
VERTEX
  8
0
  5
80000256
 10
295.346
 20
550.643
 30
0.000000
  70
    32
  0
VERTEX
  8
0
  5
80000257
 10
295.755
 20
551.106
 30
0.000000
  70
    32
  0
VERTEX
  8
0
  5
80000258
 10
296.166
 20
551.563
 30
0.000000
  70
    32
  0
VERTEX
  8
0
  5
80000259
 10
296.579
 20
552.015
 30
0.000000
  70
    32
  0
VERTEX
  8
0
  5
8000025A
 10
296.996
 20
552.460
 30
0.000000
  70
    32
  0
VERTEX
  8
0
  5
8000025B
 10
297.414
 20
552.899
 30
0.000000
  70
    32
  0
VERTEX
  8
0
  5
8000025C
 10
297.836
 20
553.331
 30
0.000000
  70
    32
  0
VERTEX
  8
0
  5
8000025D
 10
298.260
 20
553.757
 30
0.000000
  70
    32
  0
VERTEX
  8
0
  5
8000025E
 10
298.687
 20
554.176
 30
0.000000
  70
    32
  0
VERTEX
  8
0
  5
8000025F
 10
299.117
 20
554.588
 30
0.000000
  70
    32
  0
VERTEX
  8
0
  5
80000260
 10
299.549
 20
554.994
 30
0.000000
  70
    32
  0
VERTEX
  8
0
  5
80000261
 10
299.985
 20
555.392
 30
0.000000
  70
    32
  0
VERTEX
  8
0
  5
80000262
 10
300.424
 20
555.782
 30
0.000000
  70
    32
  0
VERTEX
  8
0
  5
80000263
 10
300.866
 20
556.165
 30
0.000000
  70
    32
  0
VERTEX
  8
0
  5
80000264
 10
301.311
 20
556.541
 30
0.000000
  70
    32
  0
VERTEX
  8
0
  5
80000265
 10
301.759
 20
556.908
 30
0.000000
  70
    32
  0
VERTEX
  8
0
  5
80000266
 10
302.211
 20
557.268
 30
0.000000
  70
    32
  0
VERTEX
  8
0
  5
80000267
 10
302.666
 20
557.619
 30
0.000000
  70
    32
  0
VERTEX
  8
0
  5
80000268
 10
303.124
 20
557.962
 30
0.000000
  70
    32
  0
VERTEX
  8
0
  5
80000269
 10
303.586
 20
558.297
 30
0.000000
  70
    32
  0
VERTEX
  8
0
  5
8000026A
 10
304.052
 20
558.623
 30
0.000000
  70
    32
  0
VERTEX
  8
0
  5
8000026B
 10
304.521
 20
558.940
 30
0.000000
  70
    32
  0
VERTEX
  8
0
  5
8000026C
 10
304.994
 20
559.248
 30
0.000000
  70
    32
  0
VERTEX
  8
0
  5
8000026D
 10
305.471
 20
559.547
 30
0.000000
  70
    32
  0
VERTEX
  8
0
  5
8000026E
 10
305.952
 20
559.837
 30
0.000000
  70
    32
  0
VERTEX
  8
0
  5
8000026F
 10
306.436
 20
560.117
 30
0.000000
  70
    32
  0
VERTEX
  8
0
  5
80000270
 10
306.924
 20
560.388
 30
0.000000
  70
    32
  0
VERTEX
  8
0
  5
80000271
 10
307.417
 20
560.649
 30
0.000000
  70
    32
  0
VERTEX
  8
0
  5
80000272
 10
307.913
 20
560.900
 30
0.000000
  70
    32
  0
VERTEX
  8
0
  5
80000273
 10
308.414
 20
561.141
 30
0.000000
  70
    32
  0
VERTEX
  8
0
  5
80000274
 10
308.919
 20
561.372
 30
0.000000
  70
    32
  0
VERTEX
  8
0
  5
80000275
 10
309.428
 20
561.592
 30
0.000000
  70
    32
  0
VERTEX
  8
0
  5
80000276
 10
309.942
 20
561.802
 30
0.000000
  70
    32
  0
VERTEX
  8
0
  5
80000277
 10
310.460
 20
562.002
 30
0.000000
  70
    32
  0
VERTEX
  8
0
  5
80000278
 10
310.983
 20
562.190
 30
0.000000
  70
    32
  0
VERTEX
  8
0
  5
80000279
 10
311.510
 20
562.367
 30
0.000000
  70
    32
  0
VERTEX
  8
0
  5
8000027A
 10
312.042
 20
562.534
 30
0.000000
  70
    32
  0
VERTEX
  8
0
  5
8000027B
 10
312.578
 20
562.688
 30
0.000000
  70
    32
  0
VERTEX
  8
0
  5
8000027C
 10
313.119
 20
562.832
 30
0.000000
  70
    32
  0
VERTEX
  8
0
  5
8000027D
 10
313.665
 20
562.964
 30
0.000000
  70
    32
  0
VERTEX
  8
0
  5
8000027E
 10
314.216
 20
563.084
 30
0.000000
  70
    32
  0
VERTEX
  8
0
  5
8000027F
 10
314.772
 20
563.192
 30
0.000000
  70
    32
  0
VERTEX
  8
0
  5
80000280
 10
315.333
 20
563.287
 30
0.000000
  70
    32
  0
VERTEX
  8
0
  5
80000281
 10
315.899
 20
563.371
 30
0.000000
  70
    32
  0
VERTEX
  8
0
  5
80000282
 10
316.470
 20
563.442
 30
0.000000
  70
    32
  0
VERTEX
  8
0
  5
80000283
 10
317.046
 20
563.501
 30
0.000000
  70
    32
  0
VERTEX
  8
0
  5
80000284
 10
317.628
 20
563.547
 30
0.000000
  70
    32
  0
VERTEX
  8
0
  5
80000285
 10
318.215
 20
563.580
 30
0.000000
  70
    32
  0
VERTEX
  8
0
  5
80000286
 10
318.807
 20
563.600
 30
0.000000
  70
    32
  0
VERTEX
  8
0
  5
80000287
 10
319.405
 20
563.606
 30
0.000000
  70
    32
  0
SEQEND
  8
0
  5
80000288
  0
ENDBLK
  5
FFBBDAE469BC8B1E
  8
0
  0
BLOCK
  8
0
  2
*U31
 70
     1
 10
0.0
 20
0.0
 30
0.0
  3
*U31
  1

  0
SOLID
  5
FFBBDAE469BC8B20
  8
0
  6
CONTINUOUS
 10
-79.925043564768757
 20
549.68064876858523
 30
0.0
 11
-73.726438645542231
 21
542.98532972799126
 31
0.0
 12
-81.761438663381597
 22
547.3083812790743
 32
0.0
 13
-81.761438663381597
 23
547.3083812790743
 33
0.0
  0
POLYLINE
  8
0
  5
80000289
  66
     1
 10
0.000000
 20
0.000000
 30
0.000000
  70
     8
  0
VERTEX
  8
0
  5
8000028A
 10
-80.8432
 20
548.495
 30
0.000000
  70
    32
  0
VERTEX
  8
0
  5
8000028B
 10
-81.9632
 20
549.370
 30
0.000000
  70
    32
  0
VERTEX
  8
0
  5
8000028C
 10
-83.0785
 20
550.259
 30
0.000000
  70
    32
  0
VERTEX
  8
0
  5
8000028D
 10
-84.1894
 20
551.161
 30
0.000000
  70
    32
  0
VERTEX
  8
0
  5
8000028E
 10
-85.2960
 20
552.075
 30
0.000000
  70
    32
  0
VERTEX
  8
0
  5
8000028F
 10
-86.3983
 20
553.003
 30
0.000000
  70
    32
  0
VERTEX
  8
0
  5
80000290
 10
-87.4965
 20
553.942
 30
0.000000
  70
    32
  0
VERTEX
  8
0
  5
80000291
 10
-88.5907
 20
554.892
 30
0.000000
  70
    32
  0
VERTEX
  8
0
  5
80000292
 10
-89.6810
 20
555.855
 30
0.000000
  70
    32
  0
VERTEX
  8
0
  5
80000293
 10
-90.7675
 20
556.828
 30
0.000000
  70
    32
  0
VERTEX
  8
0
  5
80000294
 10
-91.8503
 20
557.812
 30
0.000000
  70
    32
  0
VERTEX
  8
0
  5
80000295
 10
-92.9295
 20
558.807
 30
0.000000
  70
    32
  0
VERTEX
  8
0
  5
80000296
 10
-94.0053
 20
559.811
 30
0.000000
  70
    32
  0
VERTEX
  8
0
  5
80000297
 10
-95.0777
 20
560.826
 30
0.000000
  70
    32
  0
VERTEX
  8
0
  5
80000298
 10
-96.1469
 20
561.850
 30
0.000000
  70
    32
  0
VERTEX
  8
0
  5
80000299
 10
-97.2130
 20
562.883
 30
0.000000
  70
    32
  0
VERTEX
  8
0
  5
8000029A
 10
-98.2760
 20
563.925
 30
0.000000
  70
    32
  0
VERTEX
  8
0
  5
8000029B
 10
-99.3361
 20
564.975
 30
0.000000
  70
    32
  0
VERTEX
  8
0
  5
8000029C
 10
-100.393
 20
566.034
 30
0.000000
  70
    32
  0
VERTEX
  8
0
  5
8000029D
 10
-101.448
 20
567.101
 30
0.000000
  70
    32
  0
VERTEX
  8
0
  5
8000029E
 10
-102.500
 20
568.175
 30
0.000000
  70
    32
  0
VERTEX
  8
0
  5
8000029F
 10
-103.550
 20
569.256
 30
0.000000
  70
    32
  0
VERTEX
  8
0
  5
800002A0
 10
-104.597
 20
570.344
 30
0.000000
  70
    32
  0
VERTEX
  8
0
  5
800002A1
 10
-105.642
 20
571.439
 30
0.000000
  70
    32
  0
VERTEX
  8
0
  5
800002A2
 10
-106.685
 20
572.540
 30
0.000000
  70
    32
  0
VERTEX
  8
0
  5
800002A3
 10
-107.726
 20
573.647
 30
0.000000
  70
    32
  0
VERTEX
  8
0
  5
800002A4
 10
-108.765
 20
574.759
 30
0.000000
  70
    32
  0
VERTEX
  8
0
  5
800002A5
 10
-109.802
 20
575.877
 30
0.000000
  70
    32
  0
VERTEX
  8
0
  5
800002A6
 10
-110.837
 20
577.000
 30
0.000000
  70
    32
  0
VERTEX
  8
0
  5
800002A7
 10
-111.871
 20
578.127
 30
0.000000
  70
    32
  0
VERTEX
  8
0
  5
800002A8
 10
-112.903
 20
579.259
 30
0.000000
  70
    32
  0
VERTEX
  8
0
  5
800002A9
 10
-113.934
 20
580.395
 30
0.000000
  70
    32
  0
VERTEX
  8
0
  5
800002AA
 10
-114.964
 20
581.534
 30
0.000000
  70
    32
  0
VERTEX
  8
0
  5
800002AB
 10
-115.993
 20
582.677
 30
0.000000
  70
    32
  0
VERTEX
  8
0
  5
800002AC
 10
-117.020
 20
583.822
 30
0.000000
  70
    32
  0
VERTEX
  8
0
  5
800002AD
 10
-118.047
 20
584.971
 30
0.000000
  70
    32
  0
VERTEX
  8
0
  5
800002AE
 10
-119.073
 20
586.121
 30
0.000000
  70
    32
  0
VERTEX
  8
0
  5
800002AF
 10
-120.098
 20
587.274
 30
0.000000
  70
    32
  0
VERTEX
  8
0
  5
800002B0
 10
-121.122
 20
588.429
 30
0.000000
  70
    32
  0
VERTEX
  8
0
  5
800002B1
 10
-122.146
 20
589.585
 30
0.000000
  70
    32
  0
VERTEX
  8
0
  5
800002B2
 10
-123.170
 20
590.742
 30
0.000000
  70
    32
  0
VERTEX
  8
0
  5
800002B3
 10
-124.194
 20
591.900
 30
0.000000
  70
    32
  0
VERTEX
  8
0
  5
800002B4
 10
-125.217
 20
593.058
 30
0.000000
  70
    32
  0
VERTEX
  8
0
  5
800002B5
 10
-126.240
 20
594.216
 30
0.000000
  70
    32
  0
VERTEX
  8
0
  5
800002B6
 10
-127.264
 20
595.374
 30
0.000000
  70
    32
  0
VERTEX
  8
0
  5
800002B7
 10
-128.287
 20
596.532
 30
0.000000
  70
    32
  0
VERTEX
  8
0
  5
800002B8
 10
-129.311
 20
597.688
 30
0.000000
  70
    32
  0
VERTEX
  8
0
  5
800002B9
 10
-130.335
 20
598.844
 30
0.000000
  70
    32
  0
VERTEX
  8
0
  5
800002BA
 10
-131.360
 20
599.998
 30
0.000000
  70
    32
  0
VERTEX
  8
0
  5
800002BB
 10
-132.385
 20
601.150
 30
0.000000
  70
    32
  0
VERTEX
  8
0
  5
800002BC
 10
-133.411
 20
602.300
 30
0.000000
  70
    32
  0
VERTEX
  8
0
  5
800002BD
 10
-134.438
 20
603.448
 30
0.000000
  70
    32
  0
VERTEX
  8
0
  5
800002BE
 10
-135.466
 20
604.592
 30
0.000000
  70
    32
  0
VERTEX
  8
0
  5
800002BF
 10
-136.495
 20
605.734
 30
0.000000
  70
    32
  0
VERTEX
  8
0
  5
800002C0
 10
-137.525
 20
606.872
 30
0.000000
  70
    32
  0
VERTEX
  8
0
  5
800002C1
 10
-138.557
 20
608.006
 30
0.000000
  70
    32
  0
VERTEX
  8
0
  5
800002C2
 10
-139.590
 20
609.137
 30
0.000000
  70
    32
  0
VERTEX
  8
0
  5
800002C3
 10
-140.624
 20
610.263
 30
0.000000
  70
    32
  0
VERTEX
  8
0
  5
800002C4
 10
-141.660
 20
611.384
 30
0.000000
  70
    32
  0
VERTEX
  8
0
  5
800002C5
 10
-142.698
 20
612.500
 30
0.000000
  70
    32
  0
VERTEX
  8
0
  5
800002C6
 10
-143.737
 20
613.611
 30
0.000000
  70
    32
  0
VERTEX
  8
0
  5
800002C7
 10
-144.779
 20
614.715
 30
0.000000
  70
    32
  0
VERTEX
  8
0
  5
800002C8
 10
-145.822
 20
615.814
 30
0.000000
  70
    32
  0
VERTEX
  8
0
  5
800002C9
 10
-146.868
 20
616.907
 30
0.000000
  70
    32
  0
VERTEX
  8
0
  5
800002CA
 10
-147.916
 20
617.993
 30
0.000000
  70
    32
  0
VERTEX
  8
0
  5
800002CB
 10
-148.966
 20
619.072
 30
0.000000
  70
    32
  0
VERTEX
  8
0
  5
800002CC
 10
-150.019
 20
620.143
 30
0.000000
  70
    32
  0
VERTEX
  8
0
  5
800002CD
 10
-151.075
 20
621.207
 30
0.000000
  70
    32
  0
VERTEX
  8
0
  5
800002CE
 10
-152.133
 20
622.263
 30
0.000000
  70
    32
  0
VERTEX
  8
0
  5
800002CF
 10
-153.194
 20
623.311
 30
0.000000
  70
    32
  0
VERTEX
  8
0
  5
800002D0
 10
-154.258
 20
624.350
 30
0.000000
  70
    32
  0
VERTEX
  8
0
  5
800002D1
 10
-155.325
 20
625.380
 30
0.000000
  70
    32
  0
VERTEX
  8
0
  5
800002D2
 10
-156.395
 20
626.401
 30
0.000000
  70
    32
  0
VERTEX
  8
0
  5
800002D3
 10
-157.469
 20
627.412
 30
0.000000
  70
    32
  0
VERTEX
  8
0
  5
800002D4
 10
-158.546
 20
628.414
 30
0.000000
  70
    32
  0
VERTEX
  8
0
  5
800002D5
 10
-159.626
 20
629.405
 30
0.000000
  70
    32
  0
VERTEX
  8
0
  5
800002D6
 10
-160.710
 20
630.385
 30
0.000000
  70
    32
  0
VERTEX
  8
0
  5
800002D7
 10
-161.798
 20
631.355
 30
0.000000
  70
    32
  0
VERTEX
  8
0
  5
800002D8
 10
-162.890
 20
632.313
 30
0.000000
  70
    32
  0
VERTEX
  8
0
  5
800002D9
 10
-163.985
 20
633.260
 30
0.000000
  70
    32
  0
VERTEX
  8
0
  5
800002DA
 10
-165.085
 20
634.196
 30
0.000000
  70
    32
  0
VERTEX
  8
0
  5
800002DB
 10
-166.188
 20
635.118
 30
0.000000
  70
    32
  0
VERTEX
  8
0
  5
800002DC
 10
-167.296
 20
636.029
 30
0.000000
  70
    32
  0
VERTEX
  8
0
  5
800002DD
 10
-168.409
 20
636.926
 30
0.000000
  70
    32
  0
VERTEX
  8
0
  5
800002DE
 10
-169.526
 20
637.811
 30
0.000000
  70
    32
  0
VERTEX
  8
0
  5
800002DF
 10
-170.647
 20
638.682
 30
0.000000
  70
    32
  0
VERTEX
  8
0
  5
800002E0
 10
-171.773
 20
639.539
 30
0.000000
  70
    32
  0
VERTEX
  8
0
  5
800002E1
 10
-172.904
 20
640.382
 30
0.000000
  70
    32
  0
VERTEX
  8
0
  5
800002E2
 10
-174.040
 20
641.211
 30
0.000000
  70
    32
  0
VERTEX
  8
0
  5
800002E3
 10
-175.181
 20
642.025
 30
0.000000
  70
    32
  0
VERTEX
  8
0
  5
800002E4
 10
-176.327
 20
642.824
 30
0.000000
  70
    32
  0
VERTEX
  8
0
  5
800002E5
 10
-177.479
 20
643.607
 30
0.000000
  70
    32
  0
VERTEX
  8
0
  5
800002E6
 10
-178.636
 20
644.375
 30
0.000000
  70
    32
  0
VERTEX
  8
0
  5
800002E7
 10
-179.798
 20
645.126
 30
0.000000
  70
    32
  0
VERTEX
  8
0
  5
800002E8
 10
-180.966
 20
645.862
 30
0.000000
  70
    32
  0
VERTEX
  8
0
  5
800002E9
 10
-182.139
 20
646.580
 30
0.000000
  70
    32
  0
VERTEX
  8
0
  5
800002EA
 10
-183.319
 20
647.282
 30
0.000000
  70
    32
  0
VERTEX
  8
0
  5
800002EB
 10
-184.504
 20
647.966
 30
0.000000
  70
    32
  0
VERTEX
  8
0
  5
800002EC
 10
-185.695
 20
648.633
 30
0.000000
  70
    32
  0
VERTEX
  8
0
  5
800002ED
 10
-186.893
 20
649.281
 30
0.000000
  70
    32
  0
VERTEX
  8
0
  5
800002EE
 10
-188.097
 20
649.911
 30
0.000000
  70
    32
  0
VERTEX
  8
0
  5
800002EF
 10
-189.307
 20
650.523
 30
0.000000
  70
    32
  0
VERTEX
  8
0
  5
800002F0
 10
-190.523
 20
651.116
 30
0.000000
  70
    32
  0
VERTEX
  8
0
  5
800002F1
 10
-191.747
 20
651.689
 30
0.000000
  70
    32
  0
VERTEX
  8
0
  5
800002F2
 10
-192.977
 20
652.243
 30
0.000000
  70
    32
  0
VERTEX
  8
0
  5
800002F3
 10
-194.213
 20
652.777
 30
0.000000
  70
    32
  0
VERTEX
  8
0
  5
800002F4
 10
-195.457
 20
653.290
 30
0.000000
  70
    32
  0
VERTEX
  8
0
  5
800002F5
 10
-196.708
 20
653.783
 30
0.000000
  70
    32
  0
VERTEX
  8
0
  5
800002F6
 10
-197.965
 20
654.255
 30
0.000000
  70
    32
  0
VERTEX
  8
0
  5
800002F7
 10
-199.231
 20
654.706
 30
0.000000
  70
    32
  0
VERTEX
  8
0
  5
800002F8
 10
-200.503
 20
655.135
 30
0.000000
  70
    32
  0
VERTEX
  8
0
  5
800002F9
 10
-201.783
 20
655.543
 30
0.000000
  70
    32
  0
VERTEX
  8
0
  5
800002FA
 10
-203.070
 20
655.928
 30
0.000000
  70
    32
  0
VERTEX
  8
0
  5
800002FB
 10
-204.366
 20
656.291
 30
0.000000
  70
    32
  0
VERTEX
  8
0
  5
800002FC
 10
-205.669
 20
656.631
 30
0.000000
  70
    32
  0
VERTEX
  8
0
  5
800002FD
 10
-206.980
 20
656.948
 30
0.000000
  70
    32
  0
VERTEX
  8
0
  5
800002FE
 10
-208.299
 20
657.241
 30
0.000000
  70
    32
  0
VERTEX
  8
0
  5
800002FF
 10
-209.626
 20
657.510
 30
0.000000
  70
    32
  0
VERTEX
  8
0
  5
80000300
 10
-210.961
 20
657.756
 30
0.000000
  70
    32
  0
VERTEX
  8
0
  5
80000301
 10
-212.305
 20
657.977
 30
0.000000
  70
    32
  0
VERTEX
  8
0
  5
80000302
 10
-213.657
 20
658.173
 30
0.000000
  70
    32
  0
VERTEX
  8
0
  5
80000303
 10
-215.018
 20
658.344
 30
0.000000
  70
    32
  0
VERTEX
  8
0
  5
80000304
 10
-216.387
 20
658.489
 30
0.000000
  70
    32
  0
VERTEX
  8
0
  5
80000305
 10
-217.765
 20
658.609
 30
0.000000
  70
    32
  0
VERTEX
  8
0
  5
80000306
 10
-219.152
 20
658.703
 30
0.000000
  70
    32
  0
VERTEX
  8
0
  5
80000307
 10
-220.549
 20
658.770
 30
0.000000
  70
    32
  0
VERTEX
  8
0
  5
80000308
 10
-221.954
 20
658.811
 30
0.000000
  70
    32
  0
VERTEX
  8
0
  5
80000309
 10
-223.368
 20
658.825
 30
0.000000
  70
    32
  0
SEQEND
  8
0
  5
8000030A
  0
ENDBLK
  5
FFBBDAE469BC8B23
  8
0
  0
BLOCK
  8
0
  2
*U32
 70
     1
 10
0.0
 20
0.0
 30
0.0
  3
*U32
  1

  0
SOLID
  5
FFBBDAE469BC8B25
  8
0
  6
CONTINUOUS
 10
218.65735912723019
 20
383.2359971592615
 30
0.0
 11
211.03492961545811
 21
378.22116233266269
 31
0.0
 12
216.61890299364291
 22
385.4370643075876
 32
0.0
 13
216.61890299364291
 23
385.4370643075876
 33
0.0
  0
POLYLINE
  8
0
  5
8000030B
  66
     1
 10
0.000000
 20
0.000000
 30
0.000000
  70
     8
  0
VERTEX
  8
0
  5
8000030C
 10
217.638
 20
384.337
 30
0.000000
  70
    32
  0
VERTEX
  8
0
  5
8000030D
 10
218.437
 20
385.084
 30
0.000000
  70
    32
  0
VERTEX
  8
0
  5
8000030E
 10
219.232
 20
385.844
 30
0.000000
  70
    32
  0
VERTEX
  8
0
  5
8000030F
 10
220.022
 20
386.614
 30
0.000000
  70
    32
  0
VERTEX
  8
0
  5
80000310
 10
220.808
 20
387.396
 30
0.000000
  70
    32
  0
VERTEX
  8
0
  5
80000311
 10
221.590
 20
388.187
 30
0.000000
  70
    32
  0
VERTEX
  8
0
  5
80000312
 10
222.367
 20
388.990
 30
0.000000
  70
    32
  0
VERTEX
  8
0
  5
80000313
 10
223.141
 20
389.802
 30
0.000000
  70
    32
  0
VERTEX
  8
0
  5
80000314
 10
223.911
 20
390.624
 30
0.000000
  70
    32
  0
VERTEX
  8
0
  5
80000315
 10
224.678
 20
391.455
 30
0.000000
  70
    32
  0
VERTEX
  8
0
  5
80000316
 10
225.440
 20
392.296
 30
0.000000
  70
    32
  0
VERTEX
  8
0
  5
80000317
 10
226.199
 20
393.146
 30
0.000000
  70
    32
  0
VERTEX
  8
0
  5
80000318
 10
226.955
 20
394.004
 30
0.000000
  70
    32
  0
VERTEX
  8
0
  5
80000319
 10
227.708
 20
394.870
 30
0.000000
  70
    32
  0
VERTEX
  8
0
  5
8000031A
 10
228.457
 20
395.745
 30
0.000000
  70
    32
  0
VERTEX
  8
0
  5
8000031B
 10
229.203
 20
396.628
 30
0.000000
  70
    32
  0
VERTEX
  8
0
  5
8000031C
 10
229.947
 20
397.518
 30
0.000000
  70
    32
  0
VERTEX
  8
0
  5
8000031D
 10
230.687
 20
398.415
 30
0.000000
  70
    32
  0
VERTEX
  8
0
  5
8000031E
 10
231.425
 20
399.320
 30
0.000000
  70
    32
  0
VERTEX
  8
0
  5
8000031F
 10
232.160
 20
400.231
 30
0.000000
  70
    32
  0
VERTEX
  8
0
  5
80000320
 10
232.893
 20
401.148
 30
0.000000
  70
    32
  0
VERTEX
  8
0
  5
80000321
 10
233.623
 20
402.072
 30
0.000000
  70
    32
  0
VERTEX
  8
0
  5
80000322
 10
234.351
 20
403.001
 30
0.000000
  70
    32
  0
VERTEX
  8
0
  5
80000323
 10
235.076
 20
403.937
 30
0.000000
  70
    32
  0
VERTEX
  8
0
  5
80000324
 10
235.800
 20
404.877
 30
0.000000
  70
    32
  0
VERTEX
  8
0
  5
80000325
 10
236.521
 20
405.823
 30
0.000000
  70
    32
  0
VERTEX
  8
0
  5
80000326
 10
237.241
 20
406.773
 30
0.000000
  70
    32
  0
VERTEX
  8
0
  5
80000327
 10
237.959
 20
407.728
 30
0.000000
  70
    32
  0
VERTEX
  8
0
  5
80000328
 10
238.675
 20
408.687
 30
0.000000
  70
    32
  0
VERTEX
  8
0
  5
80000329
 10
239.390
 20
409.650
 30
0.000000
  70
    32
  0
VERTEX
  8
0
  5
8000032A
 10
240.103
 20
410.617
 30
0.000000
  70
    32
  0
VERTEX
  8
0
  5
8000032B
 10
240.815
 20
411.587
 30
0.000000
  70
    32
  0
VERTEX
  8
0
  5
8000032C
 10
241.526
 20
412.560
 30
0.000000
  70
    32
  0
VERTEX
  8
0
  5
8000032D
 10
242.236
 20
413.536
 30
0.000000
  70
    32
  0
VERTEX
  8
0
  5
8000032E
 10
242.944
 20
414.515
 30
0.000000
  70
    32
  0
VERTEX
  8
0
  5
8000032F
 10
243.652
 20
415.496
 30
0.000000
  70
    32
  0
VERTEX
  8
0
  5
80000330
 10
244.359
 20
416.479
 30
0.000000
  70
    32
  0
VERTEX
  8
0
  5
80000331
 10
245.065
 20
417.464
 30
0.000000
  70
    32
  0
VERTEX
  8
0
  5
80000332
 10
245.771
 20
418.450
 30
0.000000
  70
    32
  0
VERTEX
  8
0
  5
80000333
 10
246.476
 20
419.438
 30
0.000000
  70
    32
  0
VERTEX
  8
0
  5
80000334
 10
247.181
 20
420.426
 30
0.000000
  70
    32
  0
VERTEX
  8
0
  5
80000335
 10
247.885
 20
421.415
 30
0.000000
  70
    32
  0
VERTEX
  8
0
  5
80000336
 10
248.590
 20
422.404
 30
0.000000
  70
    32
  0
VERTEX
  8
0
  5
80000337
 10
249.294
 20
423.394
 30
0.000000
  70
    32
  0
VERTEX
  8
0
  5
80000338
 10
249.998
 20
424.383
 30
0.000000
  70
    32
  0
VERTEX
  8
0
  5
80000339
 10
250.703
 20
425.372
 30
0.000000
  70
    32
  0
VERTEX
  8
0
  5
8000033A
 10
251.408
 20
426.360
 30
0.000000
  70
    32
  0
VERTEX
  8
0
  5
8000033B
 10
252.113
 20
427.347
 30
0.000000
  70
    32
  0
VERTEX
  8
0
  5
8000033C
 10
252.819
 20
428.333
 30
0.000000
  70
    32
  0
VERTEX
  8
0
  5
8000033D
 10
253.525
 20
429.317
 30
0.000000
  70
    32
  0
VERTEX
  8
0
  5
8000033E
 10
254.233
 20
430.300
 30
0.000000
  70
    32
  0
VERTEX
  8
0
  5
8000033F
 10
254.941
 20
431.280
 30
0.000000
  70
    32
  0
VERTEX
  8
0
  5
80000340
 10
255.649
 20
432.258
 30
0.000000
  70
    32
  0
VERTEX
  8
0
  5
80000341
 10
256.359
 20
433.233
 30
0.000000
  70
    32
  0
VERTEX
  8
0
  5
80000342
 10
257.071
 20
434.205
 30
0.000000
  70
    32
  0
VERTEX
  8
0
  5
80000343
 10
257.783
 20
435.174
 30
0.000000
  70
    32
  0
VERTEX
  8
0
  5
80000344
 10
258.497
 20
436.140
 30
0.000000
  70
    32
  0
VERTEX
  8
0
  5
80000345
 10
259.212
 20
437.102
 30
0.000000
  70
    32
  0
VERTEX
  8
0
  5
80000346
 10
259.929
 20
438.059
 30
0.000000
  70
    32
  0
VERTEX
  8
0
  5
80000347
 10
260.647
 20
439.013
 30
0.000000
  70
    32
  0
VERTEX
  8
0
  5
80000348
 10
261.367
 20
439.961
 30
0.000000
  70
    32
  0
VERTEX
  8
0
  5
80000349
 10
262.090
 20
440.905
 30
0.000000
  70
    32
  0
VERTEX
  8
0
  5
8000034A
 10
262.814
 20
441.844
 30
0.000000
  70
    32
  0
VERTEX
  8
0
  5
8000034B
 10
263.540
 20
442.777
 30
0.000000
  70
    32
  0
VERTEX
  8
0
  5
8000034C
 10
264.269
 20
443.705
 30
0.000000
  70
    32
  0
VERTEX
  8
0
  5
8000034D
 10
265.000
 20
444.627
 30
0.000000
  70
    32
  0
VERTEX
  8
0
  5
8000034E
 10
265.733
 20
445.542
 30
0.000000
  70
    32
  0
VERTEX
  8
0
  5
8000034F
 10
266.469
 20
446.451
 30
0.000000
  70
    32
  0
VERTEX
  8
0
  5
80000350
 10
267.208
 20
447.353
 30
0.000000
  70
    32
  0
VERTEX
  8
0
  5
80000351
 10
267.949
 20
448.248
 30
0.000000
  70
    32
  0
VERTEX
  8
0
  5
80000352
 10
268.694
 20
449.136
 30
0.000000
  70
    32
  0
VERTEX
  8
0
  5
80000353
 10
269.441
 20
450.016
 30
0.000000
  70
    32
  0
VERTEX
  8
0
  5
80000354
 10
270.191
 20
450.888
 30
0.000000
  70
    32
  0
VERTEX
  8
0
  5
80000355
 10
270.945
 20
451.752
 30
0.000000
  70
    32
  0
VERTEX
  8
0
  5
80000356
 10
271.702
 20
452.607
 30
0.000000
  70
    32
  0
VERTEX
  8
0
  5
80000357
 10
272.462
 20
453.454
 30
0.000000
  70
    32
  0
VERTEX
  8
0
  5
80000358
 10
273.226
 20
454.291
 30
0.000000
  70
    32
  0
VERTEX
  8
0
  5
80000359
 10
273.994
 20
455.120
 30
0.000000
  70
    32
  0
VERTEX
  8
0
  5
8000035A
 10
274.765
 20
455.938
 30
0.000000
  70
    32
  0
VERTEX
  8
0
  5
8000035B
 10
275.540
 20
456.747
 30
0.000000
  70
    32
  0
VERTEX
  8
0
  5
8000035C
 10
276.319
 20
457.546
 30
0.000000
  70
    32
  0
VERTEX
  8
0
  5
8000035D
 10
277.102
 20
458.334
 30
0.000000
  70
    32
  0
VERTEX
  8
0
  5
8000035E
 10
277.890
 20
459.112
 30
0.000000
  70
    32
  0
VERTEX
  8
0
  5
8000035F
 10
278.681
 20
459.879
 30
0.000000
  70
    32
  0
VERTEX
  8
0
  5
80000360
 10
279.477
 20
460.635
 30
0.000000
  70
    32
  0
VERTEX
  8
0
  5
80000361
 10
280.278
 20
461.379
 30
0.000000
  70
    32
  0
VERTEX
  8
0
  5
80000362
 10
281.083
 20
462.111
 30
0.000000
  70
    32
  0
VERTEX
  8
0
  5
80000363
 10
281.893
 20
462.831
 30
0.000000
  70
    32
  0
VERTEX
  8
0
  5
80000364
 10
282.708
 20
463.539
 30
0.000000
  70
    32
  0
VERTEX
  8
0
  5
80000365
 10
283.527
 20
464.234
 30
0.000000
  70
    32
  0
VERTEX
  8
0
  5
80000366
 10
284.352
 20
464.917
 30
0.000000
  70
    32
  0
VERTEX
  8
0
  5
80000367
 10
285.182
 20
465.586
 30
0.000000
  70
    32
  0
VERTEX
  8
0
  5
80000368
 10
286.017
 20
466.242
 30
0.000000
  70
    32
  0
VERTEX
  8
0
  5
80000369
 10
286.858
 20
466.884
 30
0.000000
  70
    32
  0
VERTEX
  8
0
  5
8000036A
 10
287.704
 20
467.512
 30
0.000000
  70
    32
  0
VERTEX
  8
0
  5
8000036B
 10
288.555
 20
468.126
 30
0.000000
  70
    32
  0
VERTEX
  8
0
  5
8000036C
 10
289.412
 20
468.725
 30
0.000000
  70
    32
  0
VERTEX
  8
0
  5
8000036D
 10
290.276
 20
469.309
 30
0.000000
  70
    32
  0
VERTEX
  8
0
  5
8000036E
 10
291.145
 20
469.879
 30
0.000000
  70
    32
  0
VERTEX
  8
0
  5
8000036F
 10
292.020
 20
470.433
 30
0.000000
  70
    32
  0
VERTEX
  8
0
  5
80000370
 10
292.901
 20
470.971
 30
0.000000
  70
    32
  0
VERTEX
  8
0
  5
80000371
 10
293.788
 20
471.494
 30
0.000000
  70
    32
  0
VERTEX
  8
0
  5
80000372
 10
294.682
 20
472.000
 30
0.000000
  70
    32
  0
VERTEX
  8
0
  5
80000373
 10
295.582
 20
472.490
 30
0.000000
  70
    32
  0
VERTEX
  8
0
  5
80000374
 10
296.489
 20
472.963
 30
0.000000
  70
    32
  0
VERTEX
  8
0
  5
80000375
 10
297.402
 20
473.419
 30
0.000000
  70
    32
  0
VERTEX
  8
0
  5
80000376
 10
298.323
 20
473.858
 30
0.000000
  70
    32
  0
VERTEX
  8
0
  5
80000377
 10
299.250
 20
474.279
 30
0.000000
  70
    32
  0
VERTEX
  8
0
  5
80000378
 10
300.184
 20
474.682
 30
0.000000
  70
    32
  0
VERTEX
  8
0
  5
80000379
 10
301.125
 20
475.067
 30
0.000000
  70
    32
  0
VERTEX
  8
0
  5
8000037A
 10
302.073
 20
475.434
 30
0.000000
  70
    32
  0
VERTEX
  8
0
  5
8000037B
 10
303.029
 20
475.782
 30
0.000000
  70
    32
  0
VERTEX
  8
0
  5
8000037C
 10
303.992
 20
476.111
 30
0.000000
  70
    32
  0
VERTEX
  8
0
  5
8000037D
 10
304.963
 20
476.421
 30
0.000000
  70
    32
  0
VERTEX
  8
0
  5
8000037E
 10
305.942
 20
476.711
 30
0.000000
  70
    32
  0
VERTEX
  8
0
  5
8000037F
 10
306.928
 20
476.982
 30
0.000000
  70
    32
  0
VERTEX
  8
0
  5
80000380
 10
307.922
 20
477.232
 30
0.000000
  70
    32
  0
VERTEX
  8
0
  5
80000381
 10
308.924
 20
477.463
 30
0.000000
  70
    32
  0
VERTEX
  8
0
  5
80000382
 10
309.934
 20
477.672
 30
0.000000
  70
    32
  0
VERTEX
  8
0
  5
80000383
 10
310.952
 20
477.861
 30
0.000000
  70
    32
  0
VERTEX
  8
0
  5
80000384
 10
311.978
 20
478.028
 30
0.000000
  70
    32
  0
VERTEX
  8
0
  5
80000385
 10
313.013
 20
478.175
 30
0.000000
  70
    32
  0
VERTEX
  8
0
  5
80000386
 10
314.057
 20
478.299
 30
0.000000
  70
    32
  0
VERTEX
  8
0
  5
80000387
 10
315.109
 20
478.401
 30
0.000000
  70
    32
  0
VERTEX
  8
0
  5
80000388
 10
316.170
 20
478.481
 30
0.000000
  70
    32
  0
VERTEX
  8
0
  5
80000389
 10
317.239
 20
478.539
 30
0.000000
  70
    32
  0
VERTEX
  8
0
  5
8000038A
 10
318.318
 20
478.574
 30
0.000000
  70
    32
  0
VERTEX
  8
0
  5
8000038B
 10
319.405
 20
478.585
 30
0.000000
  70
    32
  0
SEQEND
  8
0
  5
8000038C
  0
ENDBLK
  5
FFBBDAE469BC8B28
  8
0
  0
BLOCK
  8
0
  2
*U33
 70
     1
 10
0.0
 20
0.0
 30
0.0
  3
*U33
  1

  0
SOLID
  5
FFBBDAE469BC8B2A
  8
0
  6
CONTINUOUS
 10
-5.012225111623521
 20
545.37613238113795
 30
0.0
 11
-11.248278309903981
 21
538.71567890496863
 31
0.0
 12
-7.5094561416395429
 22
547.03861160889528
 32
0.0
 13
-7.5094561416395429
 23
547.03861160889528
 33
0.0
  0
POLYLINE
  8
0
  5
8000038D
  66
     1
 10
0.000000
 20
0.000000
 30
0.000000
  70
     8
  0
VERTEX
  8
0
  5
8000038E
 10
-6.26084
 20
546.207
 30
0.000000
  70
    32
  0
VERTEX
  8
0
  5
8000038F
 10
-4.74798
 20
548.512
 30
0.000000
  70
    32
  0
VERTEX
  8
0
  5
80000390
 10
-3.25396
 20
550.852
 30
0.000000
  70
    32
  0
VERTEX
  8
0
  5
80000391
 10
-1.77831
 20
553.226
 30
0.000000
  70
    32
  0
VERTEX
  8
0
  5
80000392
 10
-0.320588
 20
555.634
 30
0.000000
  70
    32
  0
VERTEX
  8
0
  5
80000393
 10
1.11967
 20
558.074
 30
0.000000
  70
    32
  0
VERTEX
  8
0
  5
80000394
 10
2.54292
 20
560.546
 30
0.000000
  70
    32
  0
VERTEX
  8
0
  5
80000395
 10
3.94961
 20
563.049
 30
0.000000
  70
    32
  0
VERTEX
  8
0
  5
80000396
 10
5.34020
 20
565.582
 30
0.000000
  70
    32
  0
VERTEX
  8
0
  5
80000397
 10
6.71515
 20
568.144
 30
0.000000
  70
    32
  0
VERTEX
  8
0
  5
80000398
 10
8.07492
 20
570.735
 30
0.000000
  70
    32
  0
VERTEX
  8
0
  5
80000399
 10
9.41994
 20
573.353
 30
0.000000
  70
    32
  0
VERTEX
  8
0
  5
8000039A
 10
10.7507
 20
575.998
 30
0.000000
  70
    32
  0
VERTEX
  8
0
  5
8000039B
 10
12.0676
 20
578.668
 30
0.000000
  70
    32
  0
VERTEX
  8
0
  5
8000039C
 10
13.3712
 20
581.364
 30
0.000000
  70
    32
  0
VERTEX
  8
0
  5
8000039D
 10
14.6618
 20
584.083
 30
0.000000
  70
    32
  0
VERTEX
  8
0
  5
8000039E
 10
15.9401
 20
586.826
 30
0.000000
  70
    32
  0
VERTEX
  8
0
  5
8000039F
 10
17.2063
 20
589.591
 30
0.000000
  70
    32
  0
VERTEX
  8
0
  5
800003A0
 10
18.4609
 20
592.378
 30
0.000000
  70
    32
  0
VERTEX
  8
0
  5
800003A1
 10
19.7045
 20
595.186
 30
0.000000
  70
    32
  0
VERTEX
  8
0
  5
800003A2
 10
20.9374
 20
598.013
 30
0.000000
  70
    32
  0
VERTEX
  8
0
  5
800003A3
 10
22.1602
 20
600.859
 30
0.000000
  70
    32
  0
VERTEX
  8
0
  5
800003A4
 10
23.3732
 20
603.724
 30
0.000000
  70
    32
  0
VERTEX
  8
0
  5
800003A5
 10
24.5770
 20
606.606
 30
0.000000
  70
    32
  0
VERTEX
  8
0
  5
800003A6
 10
25.7720
 20
609.504
 30
0.000000
  70
    32
  0
VERTEX
  8
0
  5
800003A7
 10
26.9586
 20
612.418
 30
0.000000
  70
    32
  0
VERTEX
  8
0
  5
800003A8
 10
28.1373
 20
615.346
 30
0.000000
  70
    32
  0
VERTEX
  8
0
  5
800003A9
 10
29.3086
 20
618.289
 30
0.000000
  70
    32
  0
VERTEX
  8
0
  5
800003AA
 10
30.4729
 20
621.244
 30
0.000000
  70
    32
  0
VERTEX
  8
0
  5
800003AB
 10
31.6307
 20
624.212
 30
0.000000
  70
    32
  0
VERTEX
  8
0
  5
800003AC
 10
32.7823
 20
627.191
 30
0.000000
  70
    32
  0
VERTEX
  8
0
  5
800003AD
 10
33.9284
 20
630.180
 30
0.000000
  70
    32
  0
VERTEX
  8
0
  5
800003AE
 10
35.0693
 20
633.180
 30
0.000000
  70
    32
  0
VERTEX
  8
0
  5
800003AF
 10
36.2055
 20
636.188
 30
0.000000
  70
    32
  0
VERTEX
  8
0
  5
800003B0
 10
37.3374
 20
639.204
 30
0.000000
  70
    32
  0
VERTEX
  8
0
  5
800003B1
 10
38.4656
 20
642.227
 30
0.000000
  70
    32
  0
VERTEX
  8
0
  5
800003B2
 10
39.5904
 20
645.256
 30
0.000000
  70
    32
  0
VERTEX
  8
0
  5
800003B3
 10
40.7123
 20
648.290
 30
0.000000
  70
    32
  0
VERTEX
  8
0
  5
800003B4
 10
41.8318
 20
651.330
 30
0.000000
  70
    32
  0
VERTEX
  8
0
  5
800003B5
 10
42.9493
 20
654.372
 30
0.000000
  70
    32
  0
VERTEX
  8
0
  5
800003B6
 10
44.0653
 20
657.418
 30
0.000000
  70
    32
  0
VERTEX
  8
0
  5
800003B7
 10
45.1802
 20
660.466
 30
0.000000
  70
    32
  0
VERTEX
  8
0
  5
800003B8
 10
46.2945
 20
663.515
 30
0.000000
  70
    32
  0
VERTEX
  8
0
  5
800003B9
 10
47.4087
 20
666.564
 30
0.000000
  70
    32
  0
VERTEX
  8
0
  5
800003BA
 10
48.5232
 20
669.612
 30
0.000000
  70
    32
  0
VERTEX
  8
0
  5
800003BB
 10
49.6384
 20
672.659
 30
0.000000
  70
    32
  0
VERTEX
  8
0
  5
800003BC
 10
50.7549
 20
675.704
 30
0.000000
  70
    32
  0
VERTEX
  8
0
  5
800003BD
 10
51.8730
 20
678.746
 30
0.000000
  70
    32
  0
VERTEX
  8
0
  5
800003BE
 10
52.9932
 20
681.784
 30
0.000000
  70
    32
  0
VERTEX
  8
0
  5
800003BF
 10
54.1161
 20
684.817
 30
0.000000
  70
    32
  0
VERTEX
  8
0
  5
800003C0
 10
55.2419
 20
687.844
 30
0.000000
  70
    32
  0
VERTEX
  8
0
  5
800003C1
 10
56.3713
 20
690.865
 30
0.000000
  70
    32
  0
VERTEX
  8
0
  5
800003C2
 10
57.5046
 20
693.878
 30
0.000000
  70
    32
  0
VERTEX
  8
0
  5
800003C3
 10
58.6423
 20
696.883
 30
0.000000
  70
    32
  0
VERTEX
  8
0
  5
800003C4
 10
59.7849
 20
699.879
 30
0.000000
  70
    32
  0
VERTEX
  8
0
  5
800003C5
 10
60.9328
 20
702.865
 30
0.000000
  70
    32
  0
VERTEX
  8
0
  5
800003C6
 10
62.0864
 20
705.841
 30
0.000000
  70
    32
  0
VERTEX
  8
0
  5
800003C7
 10
63.2463
 20
708.804
 30
0.000000
  70
    32
  0
VERTEX
  8
0
  5
800003C8
 10
64.4129
 20
711.756
 30
0.000000
  70
    32
  0
VERTEX
  8
0
  5
800003C9
 10
65.5866
 20
714.694
 30
0.000000
  70
    32
  0
VERTEX
  8
0
  5
800003CA
 10
66.7679
 20
717.617
 30
0.000000
  70
    32
  0
VERTEX
  8
0
  5
800003CB
 10
67.9572
 20
720.526
 30
0.000000
  70
    32
  0
VERTEX
  8
0
  5
800003CC
 10
69.1551
 20
723.419
 30
0.000000
  70
    32
  0
VERTEX
  8
0
  5
800003CD
 10
70.3619
 20
726.295
 30
0.000000
  70
    32
  0
VERTEX
  8
0
  5
800003CE
 10
71.5781
 20
729.154
 30
0.000000
  70
    32
  0
VERTEX
  8
0
  5
800003CF
 10
72.8042
 20
731.994
 30
0.000000
  70
    32
  0
VERTEX
  8
0
  5
800003D0
 10
74.0407
 20
734.814
 30
0.000000
  70
    32
  0
VERTEX
  8
0
  5
800003D1
 10
75.2879
 20
737.615
 30
0.000000
  70
    32
  0
VERTEX
  8
0
  5
800003D2
 10
76.5464
 20
740.395
 30
0.000000
  70
    32
  0
VERTEX
  8
0
  5
800003D3
 10
77.8165
 20
743.153
 30
0.000000
  70
    32
  0
VERTEX
  8
0
  5
800003D4
 10
79.0988
 20
745.888
 30
0.000000
  70
    32
  0
VERTEX
  8
0
  5
800003D5
 10
80.3937
 20
748.600
 30
0.000000
  70
    32
  0
VERTEX
  8
0
  5
800003D6
 10
81.7017
 20
751.287
 30
0.000000
  70
    32
  0
VERTEX
  8
0
  5
800003D7
 10
83.0232
 20
753.949
 30
0.000000
  70
    32
  0
VERTEX
  8
0
  5
800003D8
 10
84.3586
 20
756.585
 30
0.000000
  70
    32
  0
VERTEX
  8
0
  5
800003D9
 10
85.7085
 20
759.194
 30
0.000000
  70
    32
  0
VERTEX
  8
0
  5
800003DA
 10
87.0733
 20
761.775
 30
0.000000
  70
    32
  0
VERTEX
  8
0
  5
800003DB
 10
88.4534
 20
764.327
 30
0.000000
  70
    32
  0
VERTEX
  8
0
  5
800003DC
 10
89.8493
 20
766.851
 30
0.000000
  70
    32
  0
VERTEX
  8
0
  5
800003DD
 10
91.2615
 20
769.343
 30
0.000000
  70
    32
  0
VERTEX
  8
0
  5
800003DE
 10
92.6904
 20
771.805
 30
0.000000
  70
    32
  0
VERTEX
  8
0
  5
800003DF
 10
94.1364
 20
774.234
 30
0.000000
  70
    32
  0
VERTEX
  8
0
  5
800003E0
 10
95.6000
 20
776.631
 30
0.000000
  70
    32
  0
VERTEX
  8
0
  5
800003E1
 10
97.0818
 20
778.994
 30
0.000000
  70
    32
  0
VERTEX
  8
0
  5
800003E2
 10
98.5820
 20
781.322
 30
0.000000
  70
    32
  0
VERTEX
  8
0
  5
800003E3
 10
100.101
 20
783.615
 30
0.000000
  70
    32
  0
VERTEX
  8
0
  5
800003E4
 10
101.640
 20
785.871
 30
0.000000
  70
    32
  0
VERTEX
  8
0
  5
800003E5
 10
103.198
 20
788.091
 30
0.000000
  70
    32
  0
VERTEX
  8
0
  5
800003E6
 10
104.777
 20
790.272
 30
0.000000
  70
    32
  0
VERTEX
  8
0
  5
800003E7
 10
106.377
 20
792.415
 30
0.000000
  70
    32
  0
VERTEX
  8
0
  5
800003E8
 10
107.998
 20
794.517
 30
0.000000
  70
    32
  0
VERTEX
  8
0
  5
800003E9
 10
109.641
 20
796.580
 30
0.000000
  70
    32
  0
VERTEX
  8
0
  5
800003EA
 10
111.306
 20
798.601
 30
0.000000
  70
    32
  0
VERTEX
  8
0
  5
800003EB
 10
112.993
 20
800.579
 30
0.000000
  70
    32
  0
VERTEX
  8
0
  5
800003EC
 10
114.704
 20
802.515
 30
0.000000
  70
    32
  0
VERTEX
  8
0
  5
800003ED
 10
116.438
 20
804.406
 30
0.000000
  70
    32
  0
VERTEX
  8
0
  5
800003EE
 10
118.196
 20
806.253
 30
0.000000
  70
    32
  0
VERTEX
  8
0
  5
800003EF
 10
119.979
 20
808.054
 30
0.000000
  70
    32
  0
VERTEX
  8
0
  5
800003F0
 10
121.786
 20
809.809
 30
0.000000
  70
    32
  0
VERTEX
  8
0
  5
800003F1
 10
123.619
 20
811.516
 30
0.000000
  70
    32
  0
VERTEX
  8
0
  5
800003F2
 10
125.478
 20
813.175
 30
0.000000
  70
    32
  0
VERTEX
  8
0
  5
800003F3
 10
127.363
 20
814.785
 30
0.000000
  70
    32
  0
VERTEX
  8
0
  5
800003F4
 10
129.274
 20
816.345
 30
0.000000
  70
    32
  0
VERTEX
  8
0
  5
800003F5
 10
131.213
 20
817.854
 30
0.000000
  70
    32
  0
VERTEX
  8
0
  5
800003F6
 10
133.180
 20
819.312
 30
0.000000
  70
    32
  0
VERTEX
  8
0
  5
800003F7
 10
135.175
 20
820.717
 30
0.000000
  70
    32
  0
VERTEX
  8
0
  5
800003F8
 10
137.198
 20
822.069
 30
0.000000
  70
    32
  0
VERTEX
  8
0
  5
800003F9
 10
139.250
 20
823.367
 30
0.000000
  70
    32
  0
VERTEX
  8
0
  5
800003FA
 10
141.332
 20
824.610
 30
0.000000
  70
    32
  0
VERTEX
  8
0
  5
800003FB
 10
143.443
 20
825.797
 30
0.000000
  70
    32
  0
VERTEX
  8
0
  5
800003FC
 10
145.585
 20
826.927
 30
0.000000
  70
    32
  0
VERTEX
  8
0
  5
800003FD
 10
147.758
 20
827.999
 30
0.000000
  70
    32
  0
VERTEX
  8
0
  5
800003FE
 10
149.962
 20
829.013
 30
0.000000
  70
    32
  0
VERTEX
  8
0
  5
800003FF
 10
152.198
 20
829.968
 30
0.000000
  70
    32
  0
VERTEX
  8
0
  5
80000400
 10
154.466
 20
830.863
 30
0.000000
  70
    32
  0
VERTEX
  8
0
  5
80000401
 10
156.766
 20
831.697
 30
0.000000
  70
    32
  0
VERTEX
  8
0
  5
80000402
 10
159.100
 20
832.469
 30
0.000000
  70
    32
  0
VERTEX
  8
0
  5
80000403
 10
161.468
 20
833.178
 30
0.000000
  70
    32
  0
VERTEX
  8
0
  5
80000404
 10
163.869
 20
833.824
 30
0.000000
  70
    32
  0
VERTEX
  8
0
  5
80000405
 10
166.305
 20
834.406
 30
0.000000
  70
    32
  0
VERTEX
  8
0
  5
80000406
 10
168.775
 20
834.922
 30
0.000000
  70
    32
  0
VERTEX
  8
0
  5
80000407
 10
171.282
 20
835.372
 30
0.000000
  70
    32
  0
VERTEX
  8
0
  5
80000408
 10
173.824
 20
835.755
 30
0.000000
  70
    32
  0
VERTEX
  8
0
  5
80000409
 10
176.402
 20
836.071
 30
0.000000
  70
    32
  0
VERTEX
  8
0
  5
8000040A
 10
179.017
 20
836.318
 30
0.000000
  70
    32
  0
VERTEX
  8
0
  5
8000040B
 10
181.669
 20
836.495
 30
0.000000
  70
    32
  0
VERTEX
  8
0
  5
8000040C
 10
184.359
 20
836.602
 30
0.000000
  70
    32
  0
VERTEX
  8
0
  5
8000040D
 10
187.087
 20
836.638
 30
0.000000
  70
    32
  0
SEQEND
  8
0
  5
8000040E
  0
ENDBLK
  5
FFBBDAE469BC8B2D
  8
0
  0
BLOCK
  8
0
  2
*U34
 70
     1
 10
0.0
 20
0.0
 30
0.0
  3
*U34
  1

  0
SOLID
  5
FFBBDAE469BC8B2F
  8
0
  6
CONTINUOUS
 10
-54.451283060271429
 20
663.73445013042385
 30
0.0
 11
-52.795743223518002
 21
654.76175890376715
 31
0.0
 12
-57.271856439903161
 22
662.71250795490084
 32
0.0
 13
-57.271856439903161
 23
662.71250795490084
 33
0.0
  0
POLYLINE
  8
0
  5
8000040F
  66
     1
 10
0.000000
 20
0.000000
 30
0.000000
  70
     8
  0
VERTEX
  8
0
  5
80000410
 10
-55.8616
 20
663.223
 30
0.000000
  70
    32
  0
VERTEX
  8
0
  5
80000411
 10
-56.6590
 20
665.476
 30
0.000000
  70
    32
  0
VERTEX
  8
0
  5
80000412
 10
-57.4324
 20
667.762
 30
0.000000
  70
    32
  0
VERTEX
  8
0
  5
80000413
 10
-58.1823
 20
670.083
 30
0.000000
  70
    32
  0
VERTEX
  8
0
  5
80000414
 10
-58.9092
 20
672.435
 30
0.000000
  70
    32
  0
VERTEX
  8
0
  5
80000415
 10
-59.6138
 20
674.820
 30
0.000000
  70
    32
  0
VERTEX
  8
0
  5
80000416
 10
-60.2966
 20
677.236
 30
0.000000
  70
    32
  0
VERTEX
  8
0
  5
80000417
 10
-60.9582
 20
679.682
 30
0.000000
  70
    32
  0
VERTEX
  8
0
  5
80000418
 10
-61.5992
 20
682.157
 30
0.000000
  70
    32
  0
VERTEX
  8
0
  5
80000419
 10
-62.2202
 20
684.661
 30
0.000000
  70
    32
  0
VERTEX
  8
0
  5
8000041A
 10
-62.8218
 20
687.193
 30
0.000000
  70
    32
  0
VERTEX
  8
0
  5
8000041B
 10
-63.4045
 20
689.751
 30
0.000000
  70
    32
  0
VERTEX
  8
0
  5
8000041C
 10
-63.9689
 20
692.336
 30
0.000000
  70
    32
  0
VERTEX
  8
0
  5
8000041D
 10
-64.5157
 20
694.945
 30
0.000000
  70
    32
  0
VERTEX
  8
0
  5
8000041E
 10
-65.0454
 20
697.580
 30
0.000000
  70
    32
  0
VERTEX
  8
0
  5
8000041F
 10
-65.5585
 20
700.237
 30
0.000000
  70
    32
  0
VERTEX
  8
0
  5
80000420
 10
-66.0557
 20
702.918
 30
0.000000
  70
    32
  0
VERTEX
  8
0
  5
80000421
 10
-66.5376
 20
705.620
 30
0.000000
  70
    32
  0
VERTEX
  8
0
  5
80000422
 10
-67.0047
 20
708.343
 30
0.000000
  70
    32
  0
VERTEX
  8
0
  5
80000423
 10
-67.4576
 20
711.087
 30
0.000000
  70
    32
  0
VERTEX
  8
0
  5
80000424
 10
-67.8969
 20
713.850
 30
0.000000
  70
    32
  0
VERTEX
  8
0
  5
80000425
 10
-68.3232
 20
716.632
 30
0.000000
  70
    32
  0
VERTEX
  8
0
  5
80000426
 10
-68.7370
 20
719.431
 30
0.000000
  70
    32
  0
VERTEX
  8
0
  5
80000427
 10
-69.1390
 20
722.247
 30
0.000000
  70
    32
  0
VERTEX
  8
0
  5
80000428
 10
-69.5297
 20
725.079
 30
0.000000
  70
    32
  0
VERTEX
  8
0
  5
80000429
 10
-69.9097
 20
727.927
 30
0.000000
  70
    32
  0
VERTEX
  8
0
  5
8000042A
 10
-70.2796
 20
730.789
 30
0.000000
  70
    32
  0
VERTEX
  8
0
  5
8000042B
 10
-70.6400
 20
733.664
 30
0.000000
  70
    32
  0
VERTEX
  8
0
  5
8000042C
 10
-70.9915
 20
736.553
 30
0.000000
  70
    32
  0
VERTEX
  8
0
  5
8000042D
 10
-71.3346
 20
739.453
 30
0.000000
  70
    32
  0
VERTEX
  8
0
  5
8000042E
 10
-71.6699
 20
742.364
 30
0.000000
  70
    32
  0
VERTEX
  8
0
  5
8000042F
 10
-71.9980
 20
745.285
 30
0.000000
  70
    32
  0
VERTEX
  8
0
  5
80000430
 10
-72.3195
 20
748.216
 30
0.000000
  70
    32
  0
VERTEX
  8
0
  5
80000431
 10
-72.6350
 20
751.156
 30
0.000000
  70
    32
  0
VERTEX
  8
0
  5
80000432
 10
-72.9451
 20
754.103
 30
0.000000
  70
    32
  0
VERTEX
  8
0
  5
80000433
 10
-73.2503
 20
757.057
 30
0.000000
  70
    32
  0
VERTEX
  8
0
  5
80000434
 10
-73.5512
 20
760.018
 30
0.000000
  70
    32
  0
VERTEX
  8
0
  5
80000435
 10
-73.8485
 20
762.983
 30
0.000000
  70
    32
  0
VERTEX
  8
0
  5
80000436
 10
-74.1426
 20
765.953
 30
0.000000
  70
    32
  0
VERTEX
  8
0
  5
80000437
 10
-74.4342
 20
768.927
 30
0.000000
  70
    32
  0
VERTEX
  8
0
  5
80000438
 10
-74.7238
 20
771.903
 30
0.000000
  70
    32
  0
VERTEX
  8
0
  5
80000439
 10
-75.0121
 20
774.882
 30
0.000000
  70
    32
  0
VERTEX
  8
0
  5
8000043A
 10
-75.2996
 20
777.861
 30
0.000000
  70
    32
  0
VERTEX
  8
0
  5
8000043B
 10
-75.5870
 20
780.841
 30
0.000000
  70
    32
  0
VERTEX
  8
0
  5
8000043C
 10
-75.8747
 20
783.820
 30
0.000000
  70
    32
  0
VERTEX
  8
0
  5
8000043D
 10
-76.1634
 20
786.798
 30
0.000000
  70
    32
  0
VERTEX
  8
0
  5
8000043E
 10
-76.4536
 20
789.773
 30
0.000000
  70
    32
  0
VERTEX
  8
0
  5
8000043F
 10
-76.7460
 20
792.746
 30
0.000000
  70
    32
  0
VERTEX
  8
0
  5
80000440
 10
-77.0411
 20
795.714
 30
0.000000
  70
    32
  0
VERTEX
  8
0
  5
80000441
 10
-77.3395
 20
798.678
 30
0.000000
  70
    32
  0
VERTEX
  8
0
  5
80000442
 10
-77.6417
 20
801.637
 30
0.000000
  70
    32
  0
VERTEX
  8
0
  5
80000443
 10
-77.9485
 20
804.589
 30
0.000000
  70
    32
  0
VERTEX
  8
0
  5
80000444
 10
-78.2603
 20
807.533
 30
0.000000
  70
    32
  0
VERTEX
  8
0
  5
80000445
 10
-78.5778
 20
810.470
 30
0.000000
  70
    32
  0
VERTEX
  8
0
  5
80000446
 10
-78.9014
 20
813.398
 30
0.000000
  70
    32
  0
VERTEX
  8
0
  5
80000447
 10
-79.2319
 20
816.316
 30
0.000000
  70
    32
  0
VERTEX
  8
0
  5
80000448
 10
-79.5697
 20
819.224
 30
0.000000
  70
    32
  0
VERTEX
  8
0
  5
80000449
 10
-79.9156
 20
822.120
 30
0.000000
  70
    32
  0
VERTEX
  8
0
  5
8000044A
 10
-80.2699
 20
825.004
 30
0.000000
  70
    32
  0
VERTEX
  8
0
  5
8000044B
 10
-80.6334
 20
827.875
 30
0.000000
  70
    32
  0
VERTEX
  8
0
  5
8000044C
 10
-81.0066
 20
830.732
 30
0.000000
  70
    32
  0
VERTEX
  8
0
  5
8000044D
 10
-81.3902
 20
833.575
 30
0.000000
  70
    32
  0
VERTEX
  8
0
  5
8000044E
 10
-81.7846
 20
836.402
 30
0.000000
  70
    32
  0
VERTEX
  8
0
  5
8000044F
 10
-82.1904
 20
839.213
 30
0.000000
  70
    32
  0
VERTEX
  8
0
  5
80000450
 10
-82.6084
 20
842.006
 30
0.000000
  70
    32
  0
VERTEX
  8
0
  5
80000451
 10
-83.0389
 20
844.782
 30
0.000000
  70
    32
  0
VERTEX
  8
0
  5
80000452
 10
-83.4827
 20
847.538
 30
0.000000
  70
    32
  0
VERTEX
  8
0
  5
80000453
 10
-83.9402
 20
850.275
 30
0.000000
  70
    32
  0
VERTEX
  8
0
  5
80000454
 10
-84.4122
 20
852.992
 30
0.000000
  70
    32
  0
VERTEX
  8
0
  5
80000455
 10
-84.8991
 20
855.687
 30
0.000000
  70
    32
  0
VERTEX
  8
0
  5
80000456
 10
-85.4015
 20
858.360
 30
0.000000
  70
    32
  0
VERTEX
  8
0
  5
80000457
 10
-85.9201
 20
861.010
 30
0.000000
  70
    32
  0
VERTEX
  8
0
  5
80000458
 10
-86.4554
 20
863.636
 30
0.000000
  70
    32
  0
VERTEX
  8
0
  5
80000459
 10
-87.0080
 20
866.237
 30
0.000000
  70
    32
  0
VERTEX
  8
0
  5
8000045A
 10
-87.5785
 20
868.813
 30
0.000000
  70
    32
  0
VERTEX
  8
0
  5
8000045B
 10
-88.1674
 20
871.363
 30
0.000000
  70
    32
  0
VERTEX
  8
0
  5
8000045C
 10
-88.7754
 20
873.885
 30
0.000000
  70
    32
  0
VERTEX
  8
0
  5
8000045D
 10
-89.4030
 20
876.380
 30
0.000000
  70
    32
  0
VERTEX
  8
0
  5
8000045E
 10
-90.0509
 20
878.845
 30
0.000000
  70
    32
  0
VERTEX
  8
0
  5
8000045F
 10
-90.7195
 20
881.281
 30
0.000000
  70
    32
  0
VERTEX
  8
0
  5
80000460
 10
-91.4095
 20
883.687
 30
0.000000
  70
    32
  0
VERTEX
  8
0
  5
80000461
 10
-92.1214
 20
886.061
 30
0.000000
  70
    32
  0
VERTEX
  8
0
  5
80000462
 10
-92.8559
 20
888.403
 30
0.000000
  70
    32
  0
VERTEX
  8
0
  5
80000463
 10
-93.6136
 20
890.712
 30
0.000000
  70
    32
  0
VERTEX
  8
0
  5
80000464
 10
-94.3949
 20
892.987
 30
0.000000
  70
    32
  0
VERTEX
  8
0
  5
80000465
 10
-95.2005
 20
895.228
 30
0.000000
  70
    32
  0
VERTEX
  8
0
  5
80000466
 10
-96.0310
 20
897.433
 30
0.000000
  70
    32
  0
VERTEX
  8
0
  5
80000467
 10
-96.8870
 20
899.602
 30
0.000000
  70
    32
  0
VERTEX
  8
0
  5
80000468
 10
-97.7690
 20
901.734
 30
0.000000
  70
    32
  0
VERTEX
  8
0
  5
80000469
 10
-98.6776
 20
903.828
 30
0.000000
  70
    32
  0
VERTEX
  8
0
  5
8000046A
 10
-99.6135
 20
905.882
 30
0.000000
  70
    32
  0
VERTEX
  8
0
  5
8000046B
 10
-100.577
 20
907.898
 30
0.000000
  70
    32
  0
VERTEX
  8
0
  5
8000046C
 10
-101.569
 20
909.873
 30
0.000000
  70
    32
  0
VERTEX
  8
0
  5
8000046D
 10
-102.590
 20
911.806
 30
0.000000
  70
    32
  0
VERTEX
  8
0
  5
8000046E
 10
-103.641
 20
913.698
 30
0.000000
  70
    32
  0
VERTEX
  8
0
  5
8000046F
 10
-104.721
 20
915.546
 30
0.000000
  70
    32
  0
VERTEX
  8
0
  5
80000470
 10
-105.833
 20
917.351
 30
0.000000
  70
    32
  0
VERTEX
  8
0
  5
80000471
 10
-106.975
 20
919.111
 30
0.000000
  70
    32
  0
VERTEX
  8
0
  5
80000472
 10
-108.150
 20
920.826
 30
0.000000
  70
    32
  0
VERTEX
  8
0
  5
80000473
 10
-109.357
 20
922.494
 30
0.000000
  70
    32
  0
VERTEX
  8
0
  5
80000474
 10
-110.597
 20
924.115
 30
0.000000
  70
    32
  0
VERTEX
  8
0
  5
80000475
 10
-111.870
 20
925.689
 30
0.000000
  70
    32
  0
VERTEX
  8
0
  5
80000476
 10
-113.178
 20
927.213
 30
0.000000
  70
    32
  0
VERTEX
  8
0
  5
80000477
 10
-114.521
 20
928.688
 30
0.000000
  70
    32
  0
VERTEX
  8
0
  5
80000478
 10
-115.899
 20
930.113
 30
0.000000
  70
    32
  0
VERTEX
  8
0
  5
80000479
 10
-117.312
 20
931.486
 30
0.000000
  70
    32
  0
VERTEX
  8
0
  5
8000047A
 10
-118.763
 20
932.807
 30
0.000000
  70
    32
  0
VERTEX
  8
0
  5
8000047B
 10
-120.250
 20
934.075
 30
0.000000
  70
    32
  0
VERTEX
  8
0
  5
8000047C
 10
-121.776
 20
935.290
 30
0.000000
  70
    32
  0
VERTEX
  8
0
  5
8000047D
 10
-123.339
 20
936.450
 30
0.000000
  70
    32
  0
VERTEX
  8
0
  5
8000047E
 10
-124.942
 20
937.554
 30
0.000000
  70
    32
  0
VERTEX
  8
0
  5
8000047F
 10
-126.584
 20
938.602
 30
0.000000
  70
    32
  0
VERTEX
  8
0
  5
80000480
 10
-128.266
 20
939.593
 30
0.000000
  70
    32
  0
VERTEX
  8
0
  5
80000481
 10
-129.988
 20
940.527
 30
0.000000
  70
    32
  0
VERTEX
  8
0
  5
80000482
 10
-131.752
 20
941.401
 30
0.000000
  70
    32
  0
VERTEX
  8
0
  5
80000483
 10
-133.557
 20
942.216
 30
0.000000
  70
    32
  0
VERTEX
  8
0
  5
80000484
 10
-135.405
 20
942.970
 30
0.000000
  70
    32
  0
VERTEX
  8
0
  5
80000485
 10
-137.296
 20
943.664
 30
0.000000
  70
    32
  0
VERTEX
  8
0
  5
80000486
 10
-139.230
 20
944.295
 30
0.000000
  70
    32
  0
VERTEX
  8
0
  5
80000487
 10
-141.209
 20
944.863
 30
0.000000
  70
    32
  0
VERTEX
  8
0
  5
80000488
 10
-143.232
 20
945.368
 30
0.000000
  70
    32
  0
VERTEX
  8
0
  5
80000489
 10
-145.300
 20
945.807
 30
0.000000
  70
    32
  0
VERTEX
  8
0
  5
8000048A
 10
-147.415
 20
946.182
 30
0.000000
  70
    32
  0
VERTEX
  8
0
  5
8000048B
 10
-149.576
 20
946.490
 30
0.000000
  70
    32
  0
VERTEX
  8
0
  5
8000048C
 10
-151.783
 20
946.731
 30
0.000000
  70
    32
  0
VERTEX
  8
0
  5
8000048D
 10
-154.039
 20
946.905
 30
0.000000
  70
    32
  0
VERTEX
  8
0
  5
8000048E
 10
-156.342
 20
947.009
 30
0.000000
  70
    32
  0
VERTEX
  8
0
  5
8000048F
 10
-158.695
 20
947.044
 30
0.000000
  70
    32
  0
SEQEND
  8
0
  5
80000490
  0
ENDBLK
  5
FFBBDAE469BC8B32
  8
0
  0
BLOCK
  8
0
  2
*U35
 70
     1
 10
0.0
 20
0.0
 30
0.0
  3
*U35
  1

  0
SOLID
  5
FFBBDAE469BC8B34
  8
0
  6
CONTINUOUS
 10
-91.162181357850088
 20
347.31694814891182
 30
0.0
 11
-84.083593300430948
 21
353.07399523169329
 31
0.0
 12
-88.912404571141536
 22
345.33238159422348
 32
0.0
 13
-88.912404571141536
 23
345.33238159422348
 33
0.0
  0
POLYLINE
  8
0
  5
80000491
  66
     1
 10
0.000000
 20
0.000000
 30
0.000000
  70
     8
  0
VERTEX
  8
0
  5
80000492
 10
-90.0373
 20
346.325
 30
0.000000
  70
    32
  0
VERTEX
  8
0
  5
80000493
 10
-91.2531
 20
344.930
 30
0.000000
  70
    32
  0
VERTEX
  8
0
  5
80000494
 10
-92.4593
 20
343.514
 30
0.000000
  70
    32
  0
VERTEX
  8
0
  5
80000495
 10
-93.6561
 20
342.077
 30
0.000000
  70
    32
  0
VERTEX
  8
0
  5
80000496
 10
-94.8438
 20
340.621
 30
0.000000
  70
    32
  0
VERTEX
  8
0
  5
80000497
 10
-96.0226
 20
339.144
 30
0.000000
  70
    32
  0
VERTEX
  8
0
  5
80000498
 10
-97.1927
 20
337.648
 30
0.000000
  70
    32
  0
VERTEX
  8
0
  5
80000499
 10
-98.3544
 20
336.134
 30
0.000000
  70
    32
  0
VERTEX
  8
0
  5
8000049A
 10
-99.5078
 20
334.601
 30
0.000000
  70
    32
  0
VERTEX
  8
0
  5
8000049B
 10
-100.653
 20
333.050
 30
0.000000
  70
    32
  0
VERTEX
  8
0
  5
8000049C
 10
-101.791
 20
331.483
 30
0.000000
  70
    32
  0
VERTEX
  8
0
  5
8000049D
 10
-102.921
 20
329.899
 30
0.000000
  70
    32
  0
VERTEX
  8
0
  5
8000049E
 10
-104.044
 20
328.298
 30
0.000000
  70
    32
  0
VERTEX
  8
0
  5
8000049F
 10
-105.160
 20
326.682
 30
0.000000
  70
    32
  0
VERTEX
  8
0
  5
800004A0
 10
-106.269
 20
325.051
 30
0.000000
  70
    32
  0
VERTEX
  8
0
  5
800004A1
 10
-107.372
 20
323.405
 30
0.000000
  70
    32
  0
VERTEX
  8
0
  5
800004A2
 10
-108.468
 20
321.746
 30
0.000000
  70
    32
  0
VERTEX
  8
0
  5
800004A3
 10
-109.558
 20
320.072
 30
0.000000
  70
    32
  0
VERTEX
  8
0
  5
800004A4
 10
-110.642
 20
318.386
 30
0.000000
  70
    32
  0
VERTEX
  8
0
  5
800004A5
 10
-111.720
 20
316.687
 30
0.000000
  70
    32
  0
VERTEX
  8
0
  5
800004A6
 10
-112.794
 20
314.976
 30
0.000000
  70
    32
  0
VERTEX
  8
0
  5
800004A7
 10
-113.861
 20
313.254
 30
0.000000
  70
    32
  0
VERTEX
  8
0
  5
800004A8
 10
-114.924
 20
311.521
 30
0.000000
  70
    32
  0
VERTEX
  8
0
  5
800004A9
 10
-115.983
 20
309.777
 30
0.000000
  70
    32
  0
VERTEX
  8
0
  5
800004AA
 10
-117.036
 20
308.023
 30
0.000000
  70
    32
  0
VERTEX
  8
0
  5
800004AB
 10
-118.086
 20
306.260
 30
0.000000
  70
    32
  0
VERTEX
  8
0
  5
800004AC
 10
-119.131
 20
304.488
 30
0.000000
  70
    32
  0
VERTEX
  8
0
  5
800004AD
 10
-120.173
 20
302.707
 30
0.000000
  70
    32
  0
VERTEX
  8
0
  5
800004AE
 10
-121.211
 20
300.919
 30
0.000000
  70
    32
  0
VERTEX
  8
0
  5
800004AF
 10
-122.245
 20
299.123
 30
0.000000
  70
    32
  0
VERTEX
  8
0
  5
800004B0
 10
-123.277
 20
297.320
 30
0.000000
  70
    32
  0
VERTEX
  8
0
  5
800004B1
 10
-124.306
 20
295.511
 30
0.000000
  70
    32
  0
VERTEX
  8
0
  5
800004B2
 10
-125.332
 20
293.697
 30
0.000000
  70
    32
  0
VERTEX
  8
0
  5
800004B3
 10
-126.356
 20
291.876
 30
0.000000
  70
    32
  0
VERTEX
  8
0
  5
800004B4
 10
-127.377
 20
290.051
 30
0.000000
  70
    32
  0
VERTEX
  8
0
  5
800004B5
 10
-128.397
 20
288.222
 30
0.000000
  70
    32
  0
VERTEX
  8
0
  5
800004B6
 10
-129.415
 20
286.389
 30
0.000000
  70
    32
  0
VERTEX
  8
0
  5
800004B7
 10
-130.431
 20
284.553
 30
0.000000
  70
    32
  0
VERTEX
  8
0
  5
800004B8
 10
-131.446
 20
282.714
 30
0.000000
  70
    32
  0
VERTEX
  8
0
  5
800004B9
 10
-132.461
 20
280.873
 30
0.000000
  70
    32
  0
VERTEX
  8
0
  5
800004BA
 10
-133.474
 20
279.030
 30
0.000000
  70
    32
  0
VERTEX
  8
0
  5
800004BB
 10
-134.487
 20
277.185
 30
0.000000
  70
    32
  0
VERTEX
  8
0
  5
800004BC
 10
-135.500
 20
275.340
 30
0.000000
  70
    32
  0
VERTEX
  8
0
  5
800004BD
 10
-136.512
 20
273.495
 30
0.000000
  70
    32
  0
VERTEX
  8
0
  5
800004BE
 10
-137.525
 20
271.651
 30
0.000000
  70
    32
  0
VERTEX
  8
0
  5
800004BF
 10
-138.538
 20
269.807
 30
0.000000
  70
    32
  0
VERTEX
  8
0
  5
800004C0
 10
-139.551
 20
267.964
 30
0.000000
  70
    32
  0
VERTEX
  8
0
  5
800004C1
 10
-140.566
 20
266.124
 30
0.000000
  70
    32
  0
VERTEX
  8
0
  5
800004C2
 10
-141.582
 20
264.286
 30
0.000000
  70
    32
  0
VERTEX
  8
0
  5
800004C3
 10
-142.598
 20
262.450
 30
0.000000
  70
    32
  0
VERTEX
  8
0
  5
800004C4
 10
-143.617
 20
260.618
 30
0.000000
  70
    32
  0
VERTEX
  8
0
  5
800004C5
 10
-144.637
 20
258.791
 30
0.000000
  70
    32
  0
VERTEX
  8
0
  5
800004C6
 10
-145.659
 20
256.967
 30
0.000000
  70
    32
  0
VERTEX
  8
0
  5
800004C7
 10
-146.684
 20
255.149
 30
0.000000
  70
    32
  0
VERTEX
  8
0
  5
800004C8
 10
-147.711
 20
253.336
 30
0.000000
  70
    32
  0
VERTEX
  8
0
  5
800004C9
 10
-148.741
 20
251.529
 30
0.000000
  70
    32
  0
VERTEX
  8
0
  5
800004CA
 10
-149.773
 20
249.728
 30
0.000000
  70
    32
  0
VERTEX
  8
0
  5
800004CB
 10
-150.809
 20
247.935
 30
0.000000
  70
    32
  0
VERTEX
  8
0
  5
800004CC
 10
-151.848
 20
246.149
 30
0.000000
  70
    32
  0
VERTEX
  8
0
  5
800004CD
 10
-152.891
 20
244.371
 30
0.000000
  70
    32
  0
VERTEX
  8
0
  5
800004CE
 10
-153.938
 20
242.602
 30
0.000000
  70
    32
  0
VERTEX
  8
0
  5
800004CF
 10
-154.989
 20
240.842
 30
0.000000
  70
    32
  0
VERTEX
  8
0
  5
800004D0
 10
-156.044
 20
239.092
 30
0.000000
  70
    32
  0
VERTEX
  8
0
  5
800004D1
 10
-157.104
 20
237.351
 30
0.000000
  70
    32
  0
VERTEX
  8
0
  5
800004D2
 10
-158.168
 20
235.621
 30
0.000000
  70
    32
  0
VERTEX
  8
0
  5
800004D3
 10
-159.238
 20
233.903
 30
0.000000
  70
    32
  0
VERTEX
  8
0
  5
800004D4
 10
-160.313
 20
232.196
 30
0.000000
  70
    32
  0
VERTEX
  8
0
  5
800004D5
 10
-161.393
 20
230.501
 30
0.000000
  70
    32
  0
VERTEX
  8
0
  5
800004D6
 10
-162.479
 20
228.819
 30
0.000000
  70
    32
  0
VERTEX
  8
0
  5
800004D7
 10
-163.571
 20
227.150
 30
0.000000
  70
    32
  0
VERTEX
  8
0
  5
800004D8
 10
-164.669
 20
225.495
 30
0.000000
  70
    32
  0
VERTEX
  8
0
  5
800004D9
 10
-165.774
 20
223.854
 30
0.000000
  70
    32
  0
VERTEX
  8
0
  5
800004DA
 10
-166.885
 20
222.228
 30
0.000000
  70
    32
  0
VERTEX
  8
0
  5
800004DB
 10
-168.004
 20
220.617
 30
0.000000
  70
    32
  0
VERTEX
  8
0
  5
800004DC
 10
-169.129
 20
219.022
 30
0.000000
  70
    32
  0
VERTEX
  8
0
  5
800004DD
 10
-170.262
 20
217.444
 30
0.000000
  70
    32
  0
VERTEX
  8
0
  5
800004DE
 10
-171.402
 20
215.882
 30
0.000000
  70
    32
  0
VERTEX
  8
0
  5
800004DF
 10
-172.550
 20
214.337
 30
0.000000
  70
    32
  0
VERTEX
  8
0
  5
800004E0
 10
-173.706
 20
212.810
 30
0.000000
  70
    32
  0
VERTEX
  8
0
  5
800004E1
 10
-174.871
 20
211.302
 30
0.000000
  70
    32
  0
VERTEX
  8
0
  5
800004E2
 10
-176.044
 20
209.813
 30
0.000000
  70
    32
  0
VERTEX
  8
0
  5
800004E3
 10
-177.225
 20
208.342
 30
0.000000
  70
    32
  0
VERTEX
  8
0
  5
800004E4
 10
-178.416
 20
206.892
 30
0.000000
  70
    32
  0
VERTEX
  8
0
  5
800004E5
 10
-179.616
 20
205.462
 30
0.000000
  70
    32
  0
VERTEX
  8
0
  5
800004E6
 10
-180.825
 20
204.054
 30
0.000000
  70
    32
  0
VERTEX
  8
0
  5
800004E7
 10
-182.044
 20
202.666
 30
0.000000
  70
    32
  0
VERTEX
  8
0
  5
800004E8
 10
-183.273
 20
201.301
 30
0.000000
  70
    32
  0
VERTEX
  8
0
  5
800004E9
 10
-184.512
 20
199.958
 30
0.000000
  70
    32
  0
VERTEX
  8
0
  5
800004EA
 10
-185.762
 20
198.638
 30
0.000000
  70
    32
  0
VERTEX
  8
0
  5
800004EB
 10
-187.022
 20
197.341
 30
0.000000
  70
    32
  0
VERTEX
  8
0
  5
800004EC
 10
-188.293
 20
196.069
 30
0.000000
  70
    32
  0
VERTEX
  8
0
  5
800004ED
 10
-189.575
 20
194.821
 30
0.000000
  70
    32
  0
VERTEX
  8
0
  5
800004EE
 10
-190.868
 20
193.598
 30
0.000000
  70
    32
  0
VERTEX
  8
0
  5
800004EF
 10
-192.173
 20
192.401
 30
0.000000
  70
    32
  0
VERTEX
  8
0
  5
800004F0
 10
-193.490
 20
191.230
 30
0.000000
  70
    32
  0
VERTEX
  8
0
  5
800004F1
 10
-194.818
 20
190.085
 30
0.000000
  70
    32
  0
VERTEX
  8
0
  5
800004F2
 10
-196.159
 20
188.967
 30
0.000000
  70
    32
  0
VERTEX
  8
0
  5
800004F3
 10
-197.513
 20
187.878
 30
0.000000
  70
    32
  0
VERTEX
  8
0
  5
800004F4
 10
-198.879
 20
186.816
 30
0.000000
  70
    32
  0
VERTEX
  8
0
  5
800004F5
 10
-200.258
 20
185.783
 30
0.000000
  70
    32
  0
VERTEX
  8
0
  5
800004F6
 10
-201.650
 20
184.779
 30
0.000000
  70
    32
  0
VERTEX
  8
0
  5
800004F7
 10
-203.055
 20
183.805
 30
0.000000
  70
    32
  0
VERTEX
  8
0
  5
800004F8
 10
-204.475
 20
182.861
 30
0.000000
  70
    32
  0
VERTEX
  8
0
  5
800004F9
 10
-205.908
 20
181.947
 30
0.000000
  70
    32
  0
VERTEX
  8
0
  5
800004FA
 10
-207.355
 20
181.065
 30
0.000000
  70
    32
  0
VERTEX
  8
0
  5
800004FB
 10
-208.816
 20
180.215
 30
0.000000
  70
    32
  0
VERTEX
  8
0
  5
800004FC
 10
-210.292
 20
179.397
 30
0.000000
  70
    32
  0
VERTEX
  8
0
  5
800004FD
 10
-211.783
 20
178.612
 30
0.000000
  70
    32
  0
VERTEX
  8
0
  5
800004FE
 10
-213.289
 20
177.860
 30
0.000000
  70
    32
  0
VERTEX
  8
0
  5
800004FF
 10
-214.810
 20
177.141
 30
0.000000
  70
    32
  0
VERTEX
  8
0
  5
80000500
 10
-216.347
 20
176.458
 30
0.000000
  70
    32
  0
VERTEX
  8
0
  5
80000501
 10
-217.899
 20
175.808
 30
0.000000
  70
    32
  0
VERTEX
  8
0
  5
80000502
 10
-219.467
 20
175.195
 30
0.000000
  70
    32
  0
VERTEX
  8
0
  5
80000503
 10
-221.052
 20
174.617
 30
0.000000
  70
    32
  0
VERTEX
  8
0
  5
80000504
 10
-222.653
 20
174.075
 30
0.000000
  70
    32
  0
VERTEX
  8
0
  5
80000505
 10
-224.270
 20
173.571
 30
0.000000
  70
    32
  0
VERTEX
  8
0
  5
80000506
 10
-225.904
 20
173.104
 30
0.000000
  70
    32
  0
VERTEX
  8
0
  5
80000507
 10
-227.556
 20
172.675
 30
0.000000
  70
    32
  0
VERTEX
  8
0
  5
80000508
 10
-229.225
 20
172.284
 30
0.000000
  70
    32
  0
VERTEX
  8
0
  5
80000509
 10
-230.911
 20
171.932
 30
0.000000
  70
    32
  0
VERTEX
  8
0
  5
8000050A
 10
-232.616
 20
171.619
 30
0.000000
  70
    32
  0
VERTEX
  8
0
  5
8000050B
 10
-234.338
 20
171.347
 30
0.000000
  70
    32
  0
VERTEX
  8
0
  5
8000050C
 10
-236.078
 20
171.115
 30
0.000000
  70
    32
  0
VERTEX
  8
0
  5
8000050D
 10
-237.838
 20
170.924
 30
0.000000
  70
    32
  0
VERTEX
  8
0
  5
8000050E
 10
-239.615
 20
170.775
 30
0.000000
  70
    32
  0
VERTEX
  8
0
  5
8000050F
 10
-241.412
 20
170.668
 30
0.000000
  70
    32
  0
VERTEX
  8
0
  5
80000510
 10
-243.228
 20
170.603
 30
0.000000
  70
    32
  0
VERTEX
  8
0
  5
80000511
 10
-245.064
 20
170.581
 30
0.000000
  70
    32
  0
SEQEND
  8
0
  5
80000512
  0
ENDBLK
  5
FFBBDAE469BC8B37
  8
0
  0
BLOCK
  8
0
  2
*U36
 70
     1
 10
0.0
 20
0.0
 30
0.0
  3
*U36
  1

  0
SOLID
  5
FFBBDAE469BC8B3D
  8
0
  6
CONTINUOUS
 10
-31.586463293658898
 20
364.85126903715383
 30
0.0
 11
-32.06724285662348
 21
364.18351573361468
 31
0.0
 12
-30.193053733920081
 22
364.18351573361468
 32
0.0
 13
-30.193053733920081
 23
364.18351573361468
 33
0.0
210
0.0
220
0.0
230
1.0
  0
SOLID
  5
FFBBDAE469BC8B3E
  8
0
  6
CONTINUOUS
 10
-32.06724285662348
 20
364.18351573361468
 30
0.0
 11
-32.486162538179592
 21
363.6016794351836
 31
0.0
 12
-29.342099010495112
 22
363.6016794351836
 32
0.0
 13
-29.342099010495112
 23
363.6016794351836
 33
0.0
210
0.0
220
0.0
230
1.0
  0
SOLID
  5
FFBBDAE469BC8B3F
  8
0
  6
CONTINUOUS
 10
32.06724285662348
 20
364.18351573361468
 30
0.0
 11
30.193053733920081
 21
364.18351573361468
 31
0.0
 12
29.342099010495112
 22
363.6016794351836
 32
0.0
 13
29.342099010495112
 23
363.6016794351836
 33
0.0
210
0.0
220
0.0
230
-1.0
  0
SOLID
  5
FFBBDAE469BC8B40
  8
0
  6
CONTINUOUS
 10
-32.486162538179592
 20
363.6016794351836
 30
0.0
 11
-32.982152105648787
 21
362.91280100167393
 31
0.0
 12
-28.59012590545715
 22
362.91280100167393
 32
0.0
 13
-28.59012590545715
 23
362.91280100167393
 33
0.0
210
0.0
220
0.0
230
1.0
  0
SOLID
  5
FFBBDAE469BC8B41
  8
0
  6
CONTINUOUS
 10
32.486162538179592
 20
363.6016794351836
 30
0.0
 11
29.342099010495112
 21
363.6016794351836
 31
0.0
 12
28.59012590545715
 22
362.91280100167393
 32
0.0
 13
28.59012590545715
 23
362.91280100167393
 33
0.0
210
0.0
220
0.0
230
-1.0
  0
SOLID
  5
FFBBDAE469BC8B42
  8
0
  6
CONTINUOUS
 10
-32.982152105648787
 20
362.91280100167393
 30
0.0
 11
-33.529158181725087
 21
362.15306589125521
 31
0.0
 12
-27.97663411862775
 22
362.15306589125521
 32
0.0
 13
-27.97663411862775
 23
362.15306589125521
 33
0.0
  0
SOLID
  5
FFBBDAE469BC8B43
  8
0
  6
CONTINUOUS
 10
32.982152105648787
 20
362.91280100167393
 30
0.0
 11
28.59012590545715
 21
362.91280100167393
 31
0.0
 12
27.97663411862775
 22
362.15306589125521
 32
0.0
 13
27.97663411862775
 23
362.15306589125521
 33
0.0
210
0.0
220
0.0
230
-1.0
  0
SOLID
  5
FFBBDAE469BC8B44
  8
0
  6
CONTINUOUS
 10
-33.529158181725087
 20
362.15306589125521
 30
0.0
 11
-34.098447590097393
 21
361.3623815269566
 31
0.0
 12
-27.533849192739581
 22
361.3623815269566
 32
0.0
 13
-27.533849192739581
 23
361.3623815269566
 33
0.0
210
0.0
220
0.0
230
1.0
  0
SOLID
  5
FFBBDAE469BC8B45
  8
0
  6
CONTINUOUS
 10
33.529158181725087
 20
362.15306589125521
 30
0.0
 11
27.97663411862775
 21
362.15306589125521
 31
0.0
 12
27.533849192739581
 22
361.3623815269566
 32
0.0
 13
27.533849192739581
 23
361.3623815269566
 33
0.0
210
0.0
220
0.0
230
-1.0
  0
SOLID
  5
FFBBDAE469BC8B46
  8
0
  6
CONTINUOUS
 10
-34.098447590097393
 20
361.3623815269566
 30
0.0
 11
-34.660116653897639
 21
360.58228103654528
 31
0.0
 12
-27.285029767679589
 22
360.58228103654528
 32
0.0
 13
-27.285029767679589
 23
360.58228103654528
 33
0.0
210
0.0
220
0.0
230
1.0
  0
SOLID
  5
FFBBDAE469BC8B47
  8
0
  6
CONTINUOUS
 10
34.098447590097393
 20
361.3623815269566
 30
0.0
 11
27.533849192739581
 21
361.3623815269566
 31
0.0
 12
27.285029767679589
 22
360.58228103654528
 32
0.0
 13
27.285029767679589
 23
360.58228103654528
 33
0.0
210
0.0
220
0.0
230
-1.0
  0
SOLID
  5
FFBBDAE469BC8B48
  8
0
  6
CONTINUOUS
 10
-34.660116653897639
 20
360.58228103654528
 30
0.0
 11
-35.184661978293548
 21
359.85374159726138
 31
0.0
 12
-27.243245848927469
 22
359.85374159726138
 32
0.0
 13
-27.243245848927469
 23
359.85374159726138
 33
0.0
210
0.0
220
0.0
230
1.0
  0
SOLID
  5
FFBBDAE469BC8B49
  8
0
  6
CONTINUOUS
 10
34.660116653897639
 20
360.58228103654528
 30
0.0
 11
27.285029767679589
 21
360.58228103654528
 31
0.0
 12
27.243245848927469
 22
359.85374159726138
 32
0.0
 13
27.243245848927469
 23
359.85374159726138
 33
0.0
210
0.0
220
0.0
230
-1.0
  0
SOLID
  5
FFBBDAE469BC8B4A
  8
0
  6
CONTINUOUS
 10
-21.830803413900021
 20
356.21234626662698
 30
0.0
 11
-27.26014991317491
 21
348.67154307899909
 31
0.0
 12
-21.831274088155009
 22
348.67154307899909
 32
0.0
 13
-21.831274088155009
 23
348.67154307899909
 33
0.0
210
0.0
220
0.0
230
1.0
  0
SOLID
  5
FFBBDAE469BC8B4B
  8
0
  6
CONTINUOUS
 10
-35.184661978293548
 20
359.85374159726138
 30
0.0
 11
-43.235797761672337
 21
348.67154307899909
 31
0.0
 12
-29.196048435533161
 22
348.67154307899909
 32
0.0
 13
-29.196048435533161
 23
348.67154307899909
 33
0.0
210
0.0
220
0.0
230
1.0
  0
SOLID
  5
FFBBDAE469BC8B4C
  8
0
  6
CONTINUOUS
 10
35.184661978293548
 20
359.85374159726138
 30
0.0
 11
27.243245848927469
 21
359.85374159726138
 31
0.0
 12
29.196048435533161
 22
348.67154307899909
 32
0.0
 13
29.196048435533161
 23
348.67154307899909
 33
0.0
210
0.0
220
0.0
230
-1.0
  0
SOLID
  5
FFBBDAE469BC8B4D
  8
0
  6
CONTINUOUS
 10
-27.26014991317491
 20
348.67154307899909
 30
0.0
 11
-27.742889688409669
 21
348.00106724247422
 31
0.0
 12
-21.83131593724017
 22
348.00106724247422
 32
0.0
 13
-21.83131593724017
 23
348.00106724247422
 33
0.0
210
0.0
220
0.0
230
1.0
  0
SOLID
  5
FFBBDAE469BC8B4E
  8
0
  6
CONTINUOUS
 10
27.26014991317491
 20
348.67154307899909
 30
0.0
 11
21.831274088155009
 21
348.67154307899909
 31
0.0
 12
21.83131593724017
 22
348.00106724247422
 32
0.0
 13
21.83131593724017
 23
348.00106724247422
 33
0.0
210
0.0
220
0.0
230
-1.0
  0
SOLID
  5
FFBBDAE469BC8B4F
  8
0
  6
CONTINUOUS
 10
-43.235797761672337
 20
348.67154307899909
 30
0.0
 11
-43.718537536907128
 21
348.00106724247422
 31
0.0
 12
-30.104094853073551
 22
348.00106724247422
 32
0.0
 13
-30.104094853073551
 23
348.00106724247422
 33
0.0
210
0.0
220
0.0
230
1.0
  0
SOLID
  5
FFBBDAE469BC8B50
  8
0
  6
CONTINUOUS
 10
43.235797761672337
 20
348.67154307899909
 30
0.0
 11
29.196048435533161
 21
348.67154307899909
 31
0.0
 12
30.104094853073551
 22
348.00106724247422
 32
0.0
 13
30.104094853073551
 23
348.00106724247422
 33
0.0
210
0.0
220
0.0
230
-1.0
  0
SOLID
  5
FFBBDAE469BC8B51
  8
0
  6
CONTINUOUS
 10
-27.742889688409669
 20
348.00106724247422
 30
0.0
 11
-28.684553291976648
 21
346.69319346716821
 31
0.0
 12
-21.831397570787619
 22
346.69319346716821
 32
0.0
 13
-21.831397570787619
 23
346.69319346716821
 33
0.0
  0
SOLID
  5
FFBBDAE469BC8B52
  8
0
  6
CONTINUOUS
 10
27.742889688409669
 20
348.00106724247422
 30
0.0
 11
21.83131593724017
 21
348.00106724247422
 31
0.0
 12
21.831397570787619
 22
346.69319346716821
 32
0.0
 13
21.831397570787619
 23
346.69319346716821
 33
0.0
210
0.0
220
0.0
230
-1.0
  0
SOLID
  5
FFBBDAE469BC8B53
  8
0
  6
CONTINUOUS
 10
-43.718537536907128
 20
348.00106724247422
 30
0.0
 11
-44.660201140474172
 21
346.69319346716821
 31
0.0
 12
-28.684553291976648
 22
346.69319346716821
 32
0.0
 13
-28.684553291976648
 23
346.69319346716821
 33
0.0
210
0.0
220
0.0
230
1.0
  0
SOLID
  5
FFBBDAE469BC8B54
  8
0
  6
CONTINUOUS
 10
43.718537536907128
 20
348.00106724247422
 30
0.0
 11
30.104094853073551
 21
348.00106724247422
 31
0.0
 12
28.684553291976648
 22
346.69319346716821
 32
0.0
 13
28.684553291976648
 23
346.69319346716821
 33
0.0
210
0.0
220
0.0
230
-1.0
  0
SOLID
  5
FFBBDAE469BC8B55
  8
0
  6
CONTINUOUS
 10
-44.660201140474172
 20
346.69319346716821
 30
0.0
 11
-46.897502479469132
 21
343.58581229872919
 31
0.0
 12
-21.831591524174289
 22
343.58581229872919
 32
0.0
 13
-21.831591524174289
 23
343.58581229872919
 33
0.0
210
0.0
220
0.0
230
1.0
  0
SOLID
  5
FFBBDAE469BC8B56
  8
0
  6
CONTINUOUS
 10
44.660201140474172
 20
346.69319346716821
 30
0.0
 11
21.831397570787619
 21
346.69319346716821
 31
0.0
 12
21.831591524174289
 22
343.58581229872919
 32
0.0
 13
21.831591524174289
 23
343.58581229872919
 33
0.0
210
0.0
220
0.0
230
-1.0
  0
SOLID
  5
FFBBDAE469BC8B57
  8
0
  6
CONTINUOUS
 10
-46.897502479469132
 20
343.58581229872919
 30
0.0
 11
-58.503221840710466
 21
326.7359124519424
 31
0.0
 12
-21.832643244244359
 22
326.7359124519424
 32
0.0
 13
-21.832643244244359
 23
326.7359124519424
 33
0.0
  0
SOLID
  5
FFBBDAE469BC8B58
  8
0
  6
CONTINUOUS
 10
46.897502479469132
 20
343.58581229872919
 30
0.0
 11
21.831591524174289
 21
343.58581229872919
 31
0.0
 12
21.832643244244359
 22
326.7359124519424
 32
0.0
 13
21.832643244244359
 23
326.7359124519424
 33
0.0
210
0.0
220
0.0
230
-1.0
  0
SOLID
  5
FFBBDAE469BC8B59
  8
0
  6
CONTINUOUS
 10
-58.503221840710466
 20
326.7359124519424
 30
0.0
 11
-58.345664226473268
 21
197.45779836718589
 31
0.0
 12
-21.84071239530407
 22
197.45779836718589
 32
0.0
 13
-21.84071239530407
 23
197.45779836718589
 33
0.0
210
0.0
220
0.0
230
1.0
  0
SOLID
  5
FFBBDAE469BC8B5A
  8
0
  6
CONTINUOUS
 10
58.503221840710466
 20
326.7359124519424
 30
0.0
 11
21.832643244244359
 21
326.7359124519424
 31
0.0
 12
21.84071239530407
 22
197.45779836718589
 32
0.0
 13
21.84071239530407
 23
197.45779836718589
 33
0.0
210
0.0
220
0.0
230
-1.0
  0
SOLID
  5
FFBBDAE469BC8B5B
  8
0
  6
CONTINUOUS
 10
58.302699691957429
 20
162.20482743570579
 30
0.0
 11
50.73959245237527
 21
162.20482743570579
 31
0.0
 12
58.294744308032023
 22
155.67732931588779
 32
0.0
 13
58.294744308032023
 23
155.67732931588779
 33
0.0
210
0.0
220
0.0
230
-1.0
  0
SOLID
  5
FFBBDAE469BC8B5C
  8
0
  6
CONTINUOUS
 10
-58.345664226473268
 20
197.45779836718589
 30
0.0
 11
-58.302699691957429
 21
162.20482743570579
 31
0.0
 12
-50.73959245237527
 22
162.20482743570579
 32
0.0
 13
-50.73959245237527
 23
162.20482743570579
 33
0.0
210
0.0
220
0.0
230
1.0
  0
SOLID
  5
FFBBDAE469BC8B5D
  8
0
  6
CONTINUOUS
 10
58.345664226473268
 20
197.45779836718589
 30
0.0
 11
21.84071239530407
 21
197.45779836718589
 31
0.0
 12
50.73959245237527
 22
162.20482743570579
 32
0.0
 13
50.73959245237527
 23
162.20482743570579
 33
0.0
210
0.0
220
0.0
230
-1.0
  0
LINE
  5
FFBBDAE469BC8B5E
  8
0
  6
CONTINUOUS
 10
-31.586463293658898
 20
364.85126903715383
 30
0.0
 11
-32.06724285662348
 21
364.18351573361468
 31
0.0
  0
LINE
  5
FFBBDAE469BC8B5F
  8
0
  6
CONTINUOUS
 10
-30.193053733920081
 20
364.18351573361468
 30
0.0
 11
-31.586463293658898
 21
364.85126903715383
 31
0.0
  0
LINE
  5
FFBBDAE469BC8B60
  8
0
  6
CONTINUOUS
 10
-32.06724285662348
 20
364.18351573361468
 30
0.0
 11
-32.486162538179592
 21
363.6016794351836
 31
0.0
  0
LINE
  5
FFBBDAE469BC8B61
  8
0
  6
CONTINUOUS
 10
-30.193053733920081
 20
364.18351573361468
 30
0.0
 11
-29.342099010495112
 21
363.6016794351836
 31
0.0
  0
LINE
  5
FFBBDAE469BC8B62
  8
0
  6
CONTINUOUS
 10
-32.486162538179592
 20
363.6016794351836
 30
0.0
 11
-32.982152105648787
 21
362.91280100167393
 31
0.0
  0
LINE
  5
FFBBDAE469BC8B63
  8
0
  6
CONTINUOUS
 10
-29.342099010495112
 20
363.6016794351836
 30
0.0
 11
-28.59012590545715
 21
362.91280100167393
 31
0.0
  0
LINE
  5
FFBBDAE469BC8B64
  8
0
  6
CONTINUOUS
 10
-32.982152105648787
 20
362.91280100167393
 30
0.0
 11
-33.529158181725087
 21
362.15306589125521
 31
0.0
  0
LINE
  5
FFBBDAE469BC8B65
  8
0
  6
CONTINUOUS
 10
-28.59012590545715
 20
362.91280100167393
 30
0.0
 11
-27.97663411862775
 21
362.15306589125521
 31
0.0
  0
LINE
  5
FFBBDAE469BC8B66
  8
0
  6
CONTINUOUS
 10
-33.529158181725087
 20
362.15306589125521
 30
0.0
 11
-34.098447590097393
 21
361.3623815269566
 31
0.0
  0
LINE
  5
FFBBDAE469BC8B67
  8
0
  6
CONTINUOUS
 10
-27.97663411862775
 20
362.15306589125521
 30
0.0
 11
-27.533849192739581
 21
361.3623815269566
 31
0.0
  0
LINE
  5
FFBBDAE469BC8B68
  8
0
  6
CONTINUOUS
 10
-34.098447590097393
 20
361.3623815269566
 30
0.0
 11
-34.660116653897639
 21
360.58228103654528
 31
0.0
  0
LINE
  5
FFBBDAE469BC8B69
  8
0
  6
CONTINUOUS
 10
-27.533849192739581
 20
361.3623815269566
 30
0.0
 11
-27.285029767679589
 21
360.58228103654528
 31
0.0
  0
LINE
  5
FFBBDAE469BC8B6A
  8
0
  6
CONTINUOUS
 10
-34.660116653897639
 20
360.58228103654528
 30
0.0
 11
-35.184661978293548
 21
359.85374159726138
 31
0.0
  0
LINE
  5
FFBBDAE469BC8B6B
  8
0
  6
CONTINUOUS
 10
-27.285029767679589
 20
360.58228103654528
 30
0.0
 11
-27.243245848927469
 21
359.85374159726138
 31
0.0
  0
LINE
  5
FFBBDAE469BC8B6C
  8
0
  6
CONTINUOUS
 10
-21.830803413900021
 20
356.21234626662698
 30
0.0
 11
-27.26014991317491
 21
348.67154307899909
 31
0.0
  0
LINE
  5
FFBBDAE469BC8B6D
  8
0
  6
CONTINUOUS
 10
-21.831274088155009
 20
348.67154307899909
 30
0.0
 11
-21.830803413900021
 21
356.21234626662698
 31
0.0
  0
LINE
  5
FFBBDAE469BC8B6E
  8
0
  6
CONTINUOUS
 10
-35.184661978293548
 20
359.85374159726138
 30
0.0
 11
-43.235797761672337
 21
348.67154307899909
 31
0.0
  0
LINE
  5
FFBBDAE469BC8B6F
  8
0
  6
CONTINUOUS
 10
-27.243245848927469
 20
359.85374159726138
 30
0.0
 11
-29.196048435533161
 21
348.67154307899909
 31
0.0
  0
LINE
  5
FFBBDAE469BC8B70
  8
0
  6
CONTINUOUS
 10
-27.26014991317491
 20
348.67154307899909
 30
0.0
 11
-27.742889688409669
 21
348.00106724247422
 31
0.0
  0
LINE
  5
FFBBDAE469BC8B71
  8
0
  6
CONTINUOUS
 10
-21.831274088155009
 20
348.67154307899909
 30
0.0
 11
-21.83131593724017
 21
348.00106724247422
 31
0.0
  0
LINE
  5
FFBBDAE469BC8B72
  8
0
  6
CONTINUOUS
 10
-43.235797761672337
 20
348.67154307899909
 30
0.0
 11
-43.718537536907128
 21
348.00106724247422
 31
0.0
  0
LINE
  5
FFBBDAE469BC8B73
  8
0
  6
CONTINUOUS
 10
-29.196048435533161
 20
348.67154307899909
 30
0.0
 11
-30.104094853073551
 21
348.00106724247422
 31
0.0
  0
LINE
  5
FFBBDAE469BC8B74
  8
0
  6
CONTINUOUS
 10
-21.83131593724017
 20
348.00106724247422
 30
0.0
 11
-21.831397570787619
 21
346.69319346716821
 31
0.0
  0
LINE
  5
FFBBDAE469BC8B75
  8
0
  6
CONTINUOUS
 10
-43.718537536907128
 20
348.00106724247422
 30
0.0
 11
-44.660201140474172
 21
346.69319346716821
 31
0.0
  0
LINE
  5
FFBBDAE469BC8B76
  8
0
  6
CONTINUOUS
 10
-44.660201140474172
 20
346.69319346716821
 30
0.0
 11
-46.897502479469132
 21
343.58581229872919
 31
0.0
  0
LINE
  5
FFBBDAE469BC8B77
  8
0
  6
CONTINUOUS
 10
-21.831397570787619
 20
346.69319346716821
 30
0.0
 11
-21.831591524174289
 21
343.58581229872919
 31
0.0
  0
LINE
  5
FFBBDAE469BC8B78
  8
0
  6
CONTINUOUS
 10
-46.897502479469132
 20
343.58581229872919
 30
0.0
 11
-58.503221840710466
 21
326.7359124519424
 31
0.0
  0
LINE
  5
FFBBDAE469BC8B79
  8
0
  6
CONTINUOUS
 10
-21.831591524174289
 20
343.58581229872919
 30
0.0
 11
-21.832643244244359
 21
326.7359124519424
 31
0.0
  0
LINE
  5
FFBBDAE469BC8B7A
  8
0
  6
CONTINUOUS
 10
-58.503221840710466
 20
326.7359124519424
 30
0.0
 11
-58.345664226473268
 21
197.45779836718589
 31
0.0
  0
LINE
  5
FFBBDAE469BC8B7B
  8
0
  6
CONTINUOUS
 10
-21.832643244244359
 20
326.7359124519424
 30
0.0
 11
-21.84071239530407
 21
197.45779836718589
 31
0.0
  0
LINE
  5
FFBBDAE469BC8B7C
  8
0
  6
CONTINUOUS
 10
-50.73959245237527
 20
162.20482743570579
 30
0.0
 11
-58.294744308032023
 21
155.67732931588779
 31
0.0
  0
LINE
  5
FFBBDAE469BC8B7D
  8
0
  6
CONTINUOUS
 10
-58.294744308032023
 20
155.67732931588779
 30
0.0
 11
-58.302699691957429
 21
162.20482743570579
 31
0.0
  0
LINE
  5
FFBBDAE469BC8B7E
  8
0
  6
CONTINUOUS
 10
-58.345664226473268
 20
197.45779836718589
 30
0.0
 11
-58.302699691957429
 21
162.20482743570579
 31
0.0
  0
LINE
  5
FFBBDAE469BC8B7F
  8
0
  6
CONTINUOUS
 10
-21.84071239530407
 20
197.45779836718589
 30
0.0
 11
-50.73959245237527
 21
162.20482743570579
 31
0.0
  0
ENDBLK
  5
FFBBDAE469BC8B81
  8
0
  0
BLOCK
  8
0
  2
*U37
 70
     1
 10
0.0
 20
0.0
 30
0.0
  3
*U37
  1

  0
SOLID
  5
FFBBDAE469BC8B83
  8
0
  6
CONTINUOUS
 10
-78.429558225708845
 20
349.77058494796751
 30
0.0
 11
-81.198556025734803
 21
345.6868042127835
 31
0.0
 12
-71.439860449454486
 22
345.6868042127835
 32
0.0
 13
-71.439860449454486
 23
345.6868042127835
 33
0.0
210
0.0
220
0.0
230
1.0
  0
SOLID
  5
FFBBDAE469BC8B84
  8
0
  6
CONTINUOUS
 10
83.582210010003109
 20
342.1713372737313
 30
0.0
 11
71.439860449454486
 21
342.1713372737313
 31
0.0
 12
71.439860449454486
 22
337.6142114469049
 32
0.0
 13
71.439860449454486
 23
337.6142114469049
 33
0.0
210
0.0
220
0.0
230
-1.0
  0
SOLID
  5
FFBBDAE469BC8B85
  8
0
  6
CONTINUOUS
 10
-81.198556025734803
 20
345.6868042127835
 30
0.0
 11
-83.582210010003109
 21
342.1713372737313
 31
0.0
 12
-71.439860449454486
 22
342.1713372737313
 32
0.0
 13
-71.439860449454486
 23
342.1713372737313
 33
0.0
  0
SOLID
  5
FFBBDAE469BC8B86
  8
0
  6
CONTINUOUS
 10
81.198556025734803
 20
345.6868042127835
 30
0.0
 11
71.439860449454486
 21
345.6868042127835
 31
0.0
 12
71.439860449454486
 22
342.1713372737313
 32
0.0
 13
71.439860449454486
 23
342.1713372737313
 33
0.0
210
0.0
220
0.0
230
-1.0
  0
LINE
  5
FFBBDAE469BC8B87
  8
0
  6
CONTINUOUS
 10
-78.429558225708845
 20
349.77058494796751
 30
0.0
 11
-81.198556025734803
 21
345.6868042127835
 31
0.0
  0
LINE
  5
FFBBDAE469BC8B88
  8
0
  6
CONTINUOUS
 10
-71.439860449454486
 20
345.6868042127835
 30
0.0
 11
-78.429558225708845
 21
349.77058494796751
 31
0.0
  0
LINE
  5
FFBBDAE469BC8B89
  8
0
  6
CONTINUOUS
 10
-71.439860449454486
 20
342.1713372737313
 30
0.0
 11
-71.439860449454486
 21
337.6142114469049
 31
0.0
  0
LINE
  5
FFBBDAE469BC8B8A
  8
0
  6
CONTINUOUS
 10
-71.439860449454486
 20
337.6142114469049
 30
0.0
 11
-83.582210010003109
 21
342.1713372737313
 31
0.0
  0
LINE
  5
FFBBDAE469BC8B8B
  8
0
  6
CONTINUOUS
 10
-81.198556025734803
 20
345.6868042127835
 30
0.0
 11
-83.582210010003109
 21
342.1713372737313
 31
0.0
  0
LINE
  5
FFBBDAE469BC8B8C
  8
0
  6
CONTINUOUS
 10
-71.439860449454486
 20
345.6868042127835
 30
0.0
 11
-71.439860449454486
 21
342.1713372737313
 31
0.0
  0
ENDBLK
  5
FFBBDAE469BC8B8E
  8
0
  0
BLOCK
  8
0
  2
*U38
 70
     1
 10
0.0
 20
0.0
 30
0.0
  3
*U38
  1

  0
SOLID
  5
FFBBDAE469BC8B90
  8
0
  6
CONTINUOUS
 10
-48.228421726914348
 20
433.95226760224062
 30
0.0
 11
-62.88573818466157
 21
413.55066929597348
 31
0.0
 12
-48.228421726914348
 22
413.55066929597348
 32
0.0
 13
-48.228421726914348
 23
413.55066929597348
 33
0.0
210
0.0
220
0.0
230
1.0
  0
SOLID
  5
FFBBDAE469BC8B91
  8
0
  6
CONTINUOUS
 10
62.885738184662237
 20
390.0726947768124
 30
0.0
 11
48.228421726914348
 21
390.0726947768124
 31
0.0
 12
62.885738184662841
 22
368.7508281865567
 32
0.0
 13
62.885738184662841
 23
368.7508281865567
 33
0.0
210
0.0
220
0.0
230
-1.0
  0
SOLID
  5
FFBBDAE469BC8B92
  8
0
  6
CONTINUOUS
 10
-62.88573818466157
 20
413.55066929597348
 30
0.0
 11
-62.885738184662237
 21
390.0726947768124
 31
0.0
 12
-48.228421726914348
 22
390.0726947768124
 32
0.0
 13
-48.228421726914348
 23
390.0726947768124
 33
0.0
210
0.0
220
0.0
230
1.0
  0
SOLID
  5
FFBBDAE469BC8B93
  8
0
  6
CONTINUOUS
 10
62.88573818466157
 20
413.55066929597348
 30
0.0
 11
48.228421726914348
 21
413.55066929597348
 31
0.0
 12
48.228421726914348
 22
390.0726947768124
 32
0.0
 13
48.228421726914348
 23
390.0726947768124
 33
0.0
210
0.0
220
0.0
230
-1.0
  0
LINE
  5
FFBBDAE469BC8B94
  8
0
  6
CONTINUOUS
 10
-48.228421726914348
 20
433.95226760224062
 30
0.0
 11
-62.88573818466157
 21
413.55066929597348
 31
0.0
  0
LINE
  5
FFBBDAE469BC8B95
  8
0
  6
CONTINUOUS
 10
-48.228421726914348
 20
413.55066929597348
 30
0.0
 11
-48.228421726914348
 21
433.95226760224062
 31
0.0
  0
LINE
  5
FFBBDAE469BC8B96
  8
0
  6
CONTINUOUS
 10
-48.228421726914348
 20
390.0726947768124
 30
0.0
 11
-62.885738184662841
 21
368.7508281865567
 31
0.0
  0
LINE
  5
FFBBDAE469BC8B97
  8
0
  6
CONTINUOUS
 10
-62.885738184662841
 20
368.7508281865567
 30
0.0
 11
-62.885738184662237
 21
390.0726947768124
 31
0.0
  0
LINE
  5
FFBBDAE469BC8B98
  8
0
  6
CONTINUOUS
 10
-62.88573818466157
 20
413.55066929597348
 30
0.0
 11
-62.885738184662237
 21
390.0726947768124
 31
0.0
  0
LINE
  5
FFBBDAE469BC8B99
  8
0
  6
CONTINUOUS
 10
-48.228421726914348
 20
413.55066929597348
 30
0.0
 11
-48.228421726914348
 21
390.0726947768124
 31
0.0
  0
ENDBLK
  5
FFBBDAE469BC8B9B
  8
0
  0
BLOCK
  8
0
  2
*U39
 70
     1
 10
0.0
 20
0.0
 30
0.0
  3
*U39
  1

  0
SOLID
  5
FFBBDAE469BC8B9D
  8
0
  6
CONTINUOUS
 10
-88.17320388663029
 20
570.24561492052999
 30
0.0
 11
-88.173203886630645
 21
560.75501654244897
 31
0.0
 12
-62.885738184657392
 22
560.75501654244897
 32
0.0
 13
-62.885738184657392
 23
560.75501654244897
 33
0.0
210
0.0
220
0.0
230
1.0
  0
SOLID
  5
FFBBDAE469BC8B9E
  8
0
  6
CONTINUOUS
 10
88.173203886637566
 20
378.24142656463852
 30
0.0
 11
62.885738184662571
 21
378.24142656463852
 31
0.0
 12
62.885738184662841
 22
368.7508281865567
 32
0.0
 13
62.885738184662841
 23
368.7508281865567
 33
0.0
210
0.0
220
0.0
230
-1.0
  0
SOLID
  5
FFBBDAE469BC8B9F
  8
0
  6
CONTINUOUS
 10
-88.173203886630645
 20
560.75501654244897
 30
0.0
 11
-88.173203886637566
 21
378.24142656463852
 31
0.0
 12
-62.885738184662571
 22
378.24142656463852
 32
0.0
 13
-62.885738184662571
 23
378.24142656463852
 33
0.0
210
0.0
220
0.0
230
1.0
  0
SOLID
  5
FFBBDAE469BC8BA0
  8
0
  6
CONTINUOUS
 10
88.173203886630645
 20
560.75501654244897
 30
0.0
 11
62.885738184657392
 21
560.75501654244897
 31
0.0
 12
62.885738184662571
 22
378.24142656463852
 32
0.0
 13
62.885738184662571
 23
378.24142656463852
 33
0.0
210
0.0
220
0.0
230
-1.0
  0
LINE
  5
FFBBDAE469BC8BA1
  8
0
  6
CONTINUOUS
 10
-88.17320388663029
 20
570.24561492052999
 30
0.0
 11
-88.173203886630645
 21
560.75501654244897
 31
0.0
  0
LINE
  5
FFBBDAE469BC8BA2
  8
0
  6
CONTINUOUS
 10
-62.885738184657392
 20
560.75501654244897
 30
0.0
 11
-88.17320388663029
 21
570.24561492052999
 31
0.0
  0
LINE
  5
FFBBDAE469BC8BA3
  8
0
  6
CONTINUOUS
 10
-62.885738184662571
 20
378.24142656463852
 30
0.0
 11
-62.885738184662841
 21
368.7508281865567
 31
0.0
  0
LINE
  5
FFBBDAE469BC8BA4
  8
0
  6
CONTINUOUS
 10
-62.885738184662841
 20
368.7508281865567
 30
0.0
 11
-88.173203886637566
 21
378.24142656463852
 31
0.0
  0
LINE
  5
FFBBDAE469BC8BA5
  8
0
  6
CONTINUOUS
 10
-88.173203886630645
 20
560.75501654244897
 30
0.0
 11
-88.173203886637566
 21
378.24142656463852
 31
0.0
  0
LINE
  5
FFBBDAE469BC8BA6
  8
0
  6
CONTINUOUS
 10
-62.885738184657392
 20
560.75501654244897
 30
0.0
 11
-62.885738184662571
 21
378.24142656463852
 31
0.0
  0
ENDBLK
  5
FFBBDAE469BC8BA8
  8
0
  0
BLOCK
  8
0
  2
*U40
 70
     1
 10
0.0
 20
0.0
 30
0.0
  3
*U40
  1

  0
SOLID
  5
FFBBDAE469BC8BAA
  8
0
  6
CONTINUOUS
 10
-21.758454345624159
 20
617.87657861451771
 30
0.0
 11
-21.758454345624891
 21
601.16842883990171
 31
0.0
 12
22.75999934267923
 22
601.16842883990171
 32
0.0
 13
22.75999934267923
 23
601.16842883990171
 33
0.0
210
0.0
220
0.0
230
1.0
  0
SOLID
  5
FFBBDAE469BC8BAB
  8
0
  6
CONTINUOUS
 10
84.551009118579714
 20
601.16842883990171
 30
0.0
 11
71.40589297715178
 21
582.91121616905025
 31
0.0
 12
84.551009118575266
 22
582.91121616905025
 32
0.0
 13
84.551009118575266
 23
582.91121616905025
 33
0.0
210
0.0
220
0.0
230
1.0
  0
SOLID
  5
FFBBDAE469BC8BAC
  8
0
  6
CONTINUOUS
 10
-21.758454345624891
 20
601.16842883990171
 30
0.0
 11
-21.758454345625701
 21
582.91121616905025
 31
0.0
 12
71.40589297715178
 22
582.91121616905025
 32
0.0
 13
71.40589297715178
 23
582.91121616905025
 33
0.0
210
0.0
220
0.0
230
1.0
  0
SOLID
  5
FFBBDAE469BC8BAD
  8
0
  6
CONTINUOUS
 10
21.758454345624891
 20
601.16842883990171
 30
0.0
 11
-22.75999934267923
 21
601.16842883990171
 31
0.0
 12
-71.40589297715178
 22
582.91121616905025
 32
0.0
 13
-71.40589297715178
 23
582.91121616905025
 33
0.0
210
0.0
220
0.0
230
-1.0
  0
SOLID
  5
FFBBDAE469BC8BAE
  8
0
  6
CONTINUOUS
 10
-21.758454345625701
 20
582.91121616905025
 30
0.0
 11
-21.758454345626429
 21
566.21241018084368
 31
0.0
 12
84.551009118571173
 22
566.21241018084368
 32
0.0
 13
84.551009118571173
 23
566.21241018084368
 33
0.0
210
0.0
220
0.0
230
1.0
  0
SOLID
  5
FFBBDAE469BC8BAF
  8
0
  6
CONTINUOUS
 10
21.758454345625701
 20
582.91121616905025
 30
0.0
 11
-84.551009118575266
 21
582.91121616905025
 31
0.0
 12
-84.551009118571173
 22
566.21241018084368
 32
0.0
 13
-84.551009118571173
 23
566.21241018084368
 33
0.0
210
0.0
220
0.0
230
-1.0
  0
SOLID
  5
FFBBDAE469BC8BB0
  8
0
  6
CONTINUOUS
 10
-21.758454345626429
 20
566.21241018084368
 30
0.0
 11
-21.54984440349654
 21
566.1341171165343
 31
0.0
 12
84.551009118571145
 22
566.1341171165343
 32
0.0
 13
84.551009118571145
 23
566.1341171165343
 33
0.0
210
0.0
220
0.0
230
1.0
  0
SOLID
  5
FFBBDAE469BC8BB1
  8
0
  6
CONTINUOUS
 10
21.758454345626429
 20
566.21241018084368
 30
0.0
 11
-84.551009118571173
 21
566.21241018084368
 31
0.0
 12
-84.551009118571145
 22
566.1341171165343
 32
0.0
 13
-84.551009118571145
 23
566.1341171165343
 33
0.0
210
0.0
220
0.0
230
-1.0
  0
SOLID
  5
FFBBDAE469BC8BB2
  8
0
  6
CONTINUOUS
 10
-21.54984440349654
 20
566.1341171165343
 30
0.0
 11
-21.758454345626429
 21
565.84437938902215
 31
0.0
 12
84.551009118571073
 22
565.84437938902215
 32
0.0
 13
84.551009118571073
 23
565.84437938902215
 33
0.0
210
0.0
220
0.0
230
1.0
  0
SOLID
  5
FFBBDAE469BC8BB3
  8
0
  6
CONTINUOUS
 10
21.54984440349654
 20
566.1341171165343
 30
0.0
 11
-84.551009118571145
 21
566.1341171165343
 31
0.0
 12
-84.551009118571073
 22
565.84437938902215
 32
0.0
 13
-84.551009118571073
 23
565.84437938902215
 33
0.0
210
0.0
220
0.0
230
-1.0
  0
SOLID
  5
FFBBDAE469BC8BB4
  8
0
  6
CONTINUOUS
 10
-21.758454345626429
 20
565.84437938902215
 30
0.0
 11
-21.758454345627548
 21
541.21320479393785
 31
0.0
 12
84.551009118565062
 22
541.21320479393785
 32
0.0
 13
84.551009118565062
 23
541.21320479393785
 33
0.0
210
0.0
220
0.0
230
1.0
  0
SOLID
  5
FFBBDAE469BC8BB5
  8
0
  6
CONTINUOUS
 10
21.758454345626429
 20
565.84437938902215
 30
0.0
 11
-84.551009118571073
 21
565.84437938902215
 31
0.0
 12
-84.551009118565062
 22
541.21320479393785
 32
0.0
 13
-84.551009118565062
 23
541.21320479393785
 33
0.0
210
0.0
220
0.0
230
-1.0
  0
SOLID
  5
FFBBDAE469BC8BB6
  8
0
  6
CONTINUOUS
 10
21.758454345627779
 20
536.21815301599986
 30
0.0
 11
21.499290765731061
 21
536.21815301599986
 31
0.0
 12
21.758454345627801
 22
535.85820149150913
 32
0.0
 13
21.758454345627801
 23
535.85820149150913
 33
0.0
210
0.0
220
0.0
230
-1.0
  0
SOLID
  5
FFBBDAE469BC8BB7
  8
0
  6
CONTINUOUS
 10
-17.902874547265132
 20
541.21320479393785
 30
0.0
 11
-4.5936820725410143
 21
536.21815301599986
 31
0.0
 12
84.551009118563854
 22
536.21815301599986
 32
0.0
 13
84.551009118563854
 23
536.21815301599986
 33
0.0
210
0.0
220
0.0
230
1.0
  0
SOLID
  5
FFBBDAE469BC8BB8
  8
0
  6
CONTINUOUS
 10
17.902874547265132
 20
541.21320479393785
 30
0.0
 11
-84.551009118565062
 21
541.21320479393785
 31
0.0
 12
-84.551009118563854
 22
536.21815301599986
 32
0.0
 13
-84.551009118563854
 23
536.21815301599986
 33
0.0
210
0.0
220
0.0
230
-1.0
  0
SOLID
  5
FFBBDAE469BC8BB9
  8
0
  6
CONTINUOUS
 10
-21.758454345627548
 20
541.21320479393785
 30
0.0
 11
-21.758454345627779
 21
536.21815301599986
 31
0.0
 12
-21.499290765731061
 22
536.21815301599986
 32
0.0
 13
-21.499290765731061
 23
536.21815301599986
 33
0.0
210
0.0
220
0.0
230
1.0
  0
SOLID
  5
FFBBDAE469BC8BBA
  8
0
  6
CONTINUOUS
 10
21.758454345627548
 20
541.21320479393785
 30
0.0
 11
17.902874547265132
 21
541.21320479393785
 31
0.0
 12
21.499290765731061
 22
536.21815301599986
 32
0.0
 13
21.499290765731061
 23
536.21815301599986
 33
0.0
210
0.0
220
0.0
230
-1.0
  0
SOLID
  5
FFBBDAE469BC8BBB
  8
0
  6
CONTINUOUS
 10
-4.5936820725410143
 20
536.21815301599986
 30
0.0
 11
-4.5936820725410143
 21
530.97396304623919
 31
0.0
 12
84.551009118562561
 22
530.97396304623919
 32
0.0
 13
84.551009118562561
 23
530.97396304623919
 33
0.0
210
0.0
220
0.0
230
1.0
  0
SOLID
  5
FFBBDAE469BC8BBC
  8
0
  6
CONTINUOUS
 10
4.5936820725410143
 20
536.21815301599986
 30
0.0
 11
-84.551009118563854
 21
536.21815301599986
 31
0.0
 12
-84.551009118562561
 22
530.97396304623919
 32
0.0
 13
-84.551009118562561
 23
530.97396304623919
 33
0.0
210
0.0
220
0.0
230
-1.0
  0
SOLID
  5
FFBBDAE469BC8BBD
  8
0
  6
CONTINUOUS
 10
-4.5936820725410143
 20
530.97396304623919
 30
0.0
 11
-4.5936820725410143
 21
521.36490374579284
 31
0.0
 12
-0.8648102724609998
 22
521.36490374579284
 32
0.0
 13
-0.8648102724609998
 23
521.36490374579284
 33
0.0
210
0.0
220
0.0
230
1.0
  0
SOLID
  5
FFBBDAE469BC8BBE
  8
0
  6
CONTINUOUS
 10
4.5936820725410143
 20
530.97396304623919
 30
0.0
 11
-6.0536719072360929
 21
530.97396304623919
 31
0.0
 12
0.8648102724609998
 22
521.36490374579284
 32
0.0
 13
0.8648102724609998
 23
521.36490374579284
 33
0.0
210
0.0
220
0.0
230
-1.0
  0
SOLID
  5
FFBBDAE469BC8BBF
  8
0
  6
CONTINUOUS
 10
4.5936820725410143
 20
518.592972226656
 30
0.0
 11
0.8648102724609998
 21
518.592972226656
 31
0.0
 12
0.8648102724609998
 22
517.19349530496766
 32
0.0
 13
0.8648102724609998
 23
517.19349530496766
 33
0.0
210
0.0
220
0.0
230
-1.0
  0
SOLID
  5
FFBBDAE469BC8BC0
  8
0
  6
CONTINUOUS
 10
-4.5936820725410143
 20
521.36490374579284
 30
0.0
 11
-4.5936820725410143
 21
518.592972226656
 31
0.0
 12
-0.8648102724609998
 22
518.592972226656
 32
0.0
 13
-0.8648102724609998
 23
518.592972226656
 33
0.0
210
0.0
220
0.0
230
1.0
  0
SOLID
  5
FFBBDAE469BC8BC1
  8
0
  6
CONTINUOUS
 10
4.5936820725410143
 20
521.36490374579284
 30
0.0
 11
0.8648102724609998
 21
521.36490374579284
 31
0.0
 12
0.8648102724609998
 22
518.592972226656
 32
0.0
 13
0.8648102724609998
 23
518.592972226656
 33
0.0
210
0.0
220
0.0
230
-1.0
  0
SOLID
  5
FFBBDAE469BC8BC2
  8
0
  6
CONTINUOUS
 10
6.0536719072360929
 20
530.97396304623919
 30
0.0
 11
27.496551423831079
 21
509.10429104049308
 31
0.0
 12
84.551009118557204
 22
509.10429104049308
 32
0.0
 13
84.551009118557204
 23
509.10429104049308
 33
0.0
210
0.0
220
0.0
230
1.0
  0
SOLID
  5
FFBBDAE469BC8BC3
  8
0
  6
CONTINUOUS
 10
-6.0536719072360929
 20
530.97396304623919
 30
0.0
 11
-84.551009118562561
 21
530.97396304623919
 31
0.0
 12
-84.551009118557204
 22
509.10429104049308
 32
0.0
 13
-84.551009118557204
 23
509.10429104049308
 33
0.0
210
0.0
220
0.0
230
-1.0
  0
SOLID
  5
FFBBDAE469BC8BC4
  8
0
  6
CONTINUOUS
 10
27.496551423831079
 20
509.10429104049308
 30
0.0
 11
52.834901326593346
 21
493.64639548847413
 31
0.0
 12
84.551009118553438
 22
493.64639548847413
 32
0.0
 13
84.551009118553438
 23
493.64639548847413
 33
0.0
210
0.0
220
0.0
230
1.0
  0
SOLID
  5
FFBBDAE469BC8BC5
  8
0
  6
CONTINUOUS
 10
-27.496551423831079
 20
509.10429104049308
 30
0.0
 11
-84.551009118557204
 21
509.10429104049308
 31
0.0
 12
-84.551009118553438
 22
493.64639548847413
 32
0.0
 13
-84.551009118553438
 23
493.64639548847413
 33
0.0
210
0.0
220
0.0
230
-1.0
  0
SOLID
  5
FFBBDAE469BC8BC6
  8
0
  6
CONTINUOUS
 10
-82.148445223033363
 20
483.40822614848929
 30
0.0
 11
-84.551009118550965
 21
483.40822614848929
 31
0.0
 12
-84.551009118550823
 22
482.96055511673308
 32
0.0
 13
-84.551009118550823
 23
482.96055511673308
 33
0.0
210
0.0
220
0.0
230
-1.0
  0
SOLID
  5
FFBBDAE469BC8BC7
  8
0
  6
CONTINUOUS
 10
52.834901326593346
 20
493.64639548847413
 30
0.0
 11
82.148445223033363
 21
483.40822614848929
 31
0.0
 12
84.551009118550965
 22
483.40822614848929
 32
0.0
 13
84.551009118550965
 23
483.40822614848929
 33
0.0
210
0.0
220
0.0
230
1.0
  0
SOLID
  5
FFBBDAE469BC8BC8
  8
0
  6
CONTINUOUS
 10
-52.834901326593346
 20
493.64639548847413
 30
0.0
 11
-84.551009118553438
 21
493.64639548847413
 31
0.0
 12
-84.551009118550965
 22
483.40822614848929
 32
0.0
 13
-84.551009118550965
 23
483.40822614848929
 33
0.0
210
0.0
220
0.0
230
-1.0
  0
LINE
  5
FFBBDAE469BC8BC9
  8
0
  6
CONTINUOUS
 10
-21.758454345624159
 20
617.87657861451771
 30
0.0
 11
-21.758454345624891
 21
601.16842883990171
 31
0.0
  0
LINE
  5
FFBBDAE469BC8BCA
  8
0
  6
CONTINUOUS
 10
22.75999934267923
 20
601.16842883990171
 30
0.0
 11
-21.758454345624159
 21
617.87657861451771
 31
0.0
  0
LINE
  5
FFBBDAE469BC8BCB
  8
0
  6
CONTINUOUS
 10
84.551009118575266
 20
582.91121616905025
 30
0.0
 11
84.551009118579714
 21
601.16842883990171
 31
0.0
  0
LINE
  5
FFBBDAE469BC8BCC
  8
0
  6
CONTINUOUS
 10
-21.758454345624891
 20
601.16842883990171
 30
0.0
 11
-21.758454345625701
 21
582.91121616905025
 31
0.0
  0
LINE
  5
FFBBDAE469BC8BCD
  8
0
  6
CONTINUOUS
 10
-21.758454345625701
 20
582.91121616905025
 30
0.0
 11
-21.758454345626429
 21
566.21241018084368
 31
0.0
  0
LINE
  5
FFBBDAE469BC8BCE
  8
0
  6
CONTINUOUS
 10
84.551009118575266
 20
582.91121616905025
 30
0.0
 11
84.551009118571173
 21
566.21241018084368
 31
0.0
  0
LINE
  5
FFBBDAE469BC8BCF
  8
0
  6
CONTINUOUS
 10
-21.758454345626429
 20
566.21241018084368
 30
0.0
 11
-21.54984440349654
 21
566.1341171165343
 31
0.0
  0
LINE
  5
FFBBDAE469BC8BD0
  8
0
  6
CONTINUOUS
 10
84.551009118571173
 20
566.21241018084368
 30
0.0
 11
84.551009118571145
 21
566.1341171165343
 31
0.0
  0
LINE
  5
FFBBDAE469BC8BD1
  8
0
  6
CONTINUOUS
 10
-21.54984440349654
 20
566.1341171165343
 30
0.0
 11
-21.758454345626429
 21
565.84437938902215
 31
0.0
  0
LINE
  5
FFBBDAE469BC8BD2
  8
0
  6
CONTINUOUS
 10
84.551009118571145
 20
566.1341171165343
 30
0.0
 11
84.551009118571073
 21
565.84437938902215
 31
0.0
  0
LINE
  5
FFBBDAE469BC8BD3
  8
0
  6
CONTINUOUS
 10
-21.758454345626429
 20
565.84437938902215
 30
0.0
 11
-21.758454345627548
 21
541.21320479393785
 31
0.0
  0
LINE
  5
FFBBDAE469BC8BD4
  8
0
  6
CONTINUOUS
 10
84.551009118571073
 20
565.84437938902215
 30
0.0
 11
84.551009118565062
 21
541.21320479393785
 31
0.0
  0
LINE
  5
FFBBDAE469BC8BD5
  8
0
  6
CONTINUOUS
 10
-21.499290765731061
 20
536.21815301599986
 30
0.0
 11
-21.758454345627801
 21
535.85820149150913
 31
0.0
  0
LINE
  5
FFBBDAE469BC8BD6
  8
0
  6
CONTINUOUS
 10
-21.758454345627801
 20
535.85820149150913
 30
0.0
 11
-21.758454345627779
 21
536.21815301599986
 31
0.0
  0
LINE
  5
FFBBDAE469BC8BD7
  8
0
  6
CONTINUOUS
 10
-17.902874547265132
 20
541.21320479393785
 30
0.0
 11
-4.5936820725410143
 21
536.21815301599986
 31
0.0
  0
LINE
  5
FFBBDAE469BC8BD8
  8
0
  6
CONTINUOUS
 10
84.551009118565062
 20
541.21320479393785
 30
0.0
 11
84.551009118563854
 21
536.21815301599986
 31
0.0
  0
LINE
  5
FFBBDAE469BC8BD9
  8
0
  6
CONTINUOUS
 10
-21.758454345627548
 20
541.21320479393785
 30
0.0
 11
-21.758454345627779
 21
536.21815301599986
 31
0.0
  0
LINE
  5
FFBBDAE469BC8BDA
  8
0
  6
CONTINUOUS
 10
-17.902874547265132
 20
541.21320479393785
 30
0.0
 11
-21.499290765731061
 21
536.21815301599986
 31
0.0
  0
LINE
  5
FFBBDAE469BC8BDB
  8
0
  6
CONTINUOUS
 10
-4.5936820725410143
 20
536.21815301599986
 30
0.0
 11
-4.5936820725410143
 21
530.97396304623919
 31
0.0
  0
LINE
  5
FFBBDAE469BC8BDC
  8
0
  6
CONTINUOUS
 10
84.551009118563854
 20
536.21815301599986
 30
0.0
 11
84.551009118562561
 21
530.97396304623919
 31
0.0
  0
LINE
  5
FFBBDAE469BC8BDD
  8
0
  6
CONTINUOUS
 10
-4.5936820725410143
 20
530.97396304623919
 30
0.0
 11
-4.5936820725410143
 21
521.36490374579284
 31
0.0
  0
LINE
  5
FFBBDAE469BC8BDE
  8
0
  6
CONTINUOUS
 10
6.0536719072360929
 20
530.97396304623919
 30
0.0
 11
-0.8648102724609998
 21
521.36490374579284
 31
0.0
  0
LINE
  5
FFBBDAE469BC8BDF
  8
0
  6
CONTINUOUS
 10
-0.8648102724609998
 20
518.592972226656
 30
0.0
 11
-0.8648102724609998
 21
517.19349530496766
 31
0.0
  0
LINE
  5
FFBBDAE469BC8BE0
  8
0
  6
CONTINUOUS
 10
-0.8648102724609998
 20
517.19349530496766
 30
0.0
 11
-4.5936820725410143
 21
518.592972226656
 31
0.0
  0
LINE
  5
FFBBDAE469BC8BE1
  8
0
  6
CONTINUOUS
 10
-4.5936820725410143
 20
521.36490374579284
 30
0.0
 11
-4.5936820725410143
 21
518.592972226656
 31
0.0
  0
LINE
  5
FFBBDAE469BC8BE2
  8
0
  6
CONTINUOUS
 10
-0.8648102724609998
 20
521.36490374579284
 30
0.0
 11
-0.8648102724609998
 21
518.592972226656
 31
0.0
  0
LINE
  5
FFBBDAE469BC8BE3
  8
0
  6
CONTINUOUS
 10
6.0536719072360929
 20
530.97396304623919
 30
0.0
 11
27.496551423831079
 21
509.10429104049308
 31
0.0
  0
LINE
  5
FFBBDAE469BC8BE4
  8
0
  6
CONTINUOUS
 10
84.551009118562561
 20
530.97396304623919
 30
0.0
 11
84.551009118557204
 21
509.10429104049308
 31
0.0
  0
LINE
  5
FFBBDAE469BC8BE5
  8
0
  6
CONTINUOUS
 10
27.496551423831079
 20
509.10429104049308
 30
0.0
 11
52.834901326593346
 21
493.64639548847413
 31
0.0
  0
LINE
  5
FFBBDAE469BC8BE6
  8
0
  6
CONTINUOUS
 10
84.551009118557204
 20
509.10429104049308
 30
0.0
 11
84.551009118553438
 21
493.64639548847413
 31
0.0
  0
LINE
  5
FFBBDAE469BC8BE7
  8
0
  6
CONTINUOUS
 10
84.551009118550965
 20
483.40822614848929
 30
0.0
 11
84.551009118550823
 21
482.96055511673308
 31
0.0
  0
LINE
  5
FFBBDAE469BC8BE8
  8
0
  6
CONTINUOUS
 10
84.551009118550823
 20
482.96055511673308
 30
0.0
 11
82.148445223033363
 21
483.40822614848929
 31
0.0
  0
LINE
  5
FFBBDAE469BC8BE9
  8
0
  6
CONTINUOUS
 10
52.834901326593346
 20
493.64639548847413
 30
0.0
 11
82.148445223033363
 21
483.40822614848929
 31
0.0
  0
LINE
  5
FFBBDAE469BC8BEA
  8
0
  6
CONTINUOUS
 10
84.551009118553438
 20
493.64639548847413
 30
0.0
 11
84.551009118550965
 21
483.40822614848929
 31
0.0
  0
ENDBLK
  5
FFBBDAE469BC8BEC
  8
0
  0
BLOCK
  8
0
  2
*U41
 70
     1
 10
0.0
 20
0.0
 30
0.0
  3
*U41
  1

  0
SOLID
  5
FFBBDAE469BC8BEE
  8
0
  6
CONTINUOUS
 10
-8.6133382044845277
 20
636.13379128546865
 30
0.0
 11
-21.758454345908831
 21
617.87657861462412
 31
0.0
 12
40.032555429972163
 22
617.87657861462412
 32
0.0
 13
40.032555429972163
 23
617.87657861462412
 33
0.0
210
0.0
220
0.0
230
1.0
  0
SOLID
  5
FFBBDAE469BC8BEF
  8
0
  6
CONTINUOUS
 10
-22.759999342691849
 20
601.16842883989636
 30
0.0
 11
-84.551009118575152
 21
601.16842883989636
 31
0.0
 12
-71.40589297715087
 22
582.91121616905002
 32
0.0
 13
-71.40589297715087
 23
582.91121616905002
 33
0.0
210
0.0
220
0.0
230
-1.0
  0
SOLID
  5
FFBBDAE469BC8BF0
  8
0
  6
CONTINUOUS
 10
-21.758454345908831
 20
617.87657861462412
 30
0.0
 11
22.759999342691849
 21
601.16842883989636
 31
0.0
 12
84.551009118575124
 22
601.16842883989636
 32
0.0
 13
84.551009118575124
 23
601.16842883989636
 33
0.0
210
0.0
220
0.0
230
1.0
  0
SOLID
  5
FFBBDAE469BC8BF1
  8
0
  6
CONTINUOUS
 10
21.758454345908831
 20
617.87657861462412
 30
0.0
 11
-40.032555429972163
 21
617.87657861462412
 31
0.0
 12
-84.551009118575124
 22
601.16842883989636
 32
0.0
 13
-84.551009118575124
 23
601.16842883989636
 33
0.0
210
0.0
220
0.0
230
-1.0
  0
LINE
  5
FFBBDAE469BC8BF2
  8
0
  6
CONTINUOUS
 10
-8.6133382044845277
 20
636.13379128546865
 30
0.0
 11
-21.758454345908831
 21
617.87657861462412
 31
0.0
  0
LINE
  5
FFBBDAE469BC8BF3
  8
0
  6
CONTINUOUS
 10
40.032555429972163
 20
617.87657861462412
 30
0.0
 11
-8.6133382044845277
 21
636.13379128546865
 31
0.0
  0
LINE
  5
FFBBDAE469BC8BF4
  8
0
  6
CONTINUOUS
 10
84.551009118575152
 20
601.16842883989636
 30
0.0
 11
71.40589297715087
 21
582.91121616905002
 31
0.0
  0
LINE
  5
FFBBDAE469BC8BF5
  8
0
  6
CONTINUOUS
 10
71.40589297715087
 20
582.91121616905002
 30
0.0
 11
22.759999342691849
 21
601.16842883989636
 31
0.0
  0
LINE
  5
FFBBDAE469BC8BF6
  8
0
  6
CONTINUOUS
 10
-21.758454345908831
 20
617.87657861462412
 30
0.0
 11
22.759999342691849
 21
601.16842883989636
 31
0.0
  0
LINE
  5
FFBBDAE469BC8BF7
  8
0
  6
CONTINUOUS
 10
40.032555429972163
 20
617.87657861462412
 30
0.0
 11
84.551009118575124
 21
601.16842883989636
 31
0.0
  0
ENDBLK
  5
FFBBDAE469BC8BF9
  8
0
  0
BLOCK
  8
0
  2
*U42
 70
     1
 10
0.0
 20
0.0
 30
0.0
  3
*U42
  1

  0
SOLID
  5
FFBBDAE469BC8BFB
  8
0
  6
CONTINUOUS
 10
-11.15869854407719
 20
371.03480094543738
 30
0.0
 11
-21.830803413900039
 21
356.21234626662698
 31
0.0
 12
28.335366990834238
 22
356.21234626662698
 32
0.0
 13
28.335366990834238
 23
356.21234626662698
 33
0.0
210
0.0
220
0.0
230
1.0
  0
SOLID
  5
FFBBDAE469BC8BFC
  8
0
  6
CONTINUOUS
 10
-21.830803413900039
 20
356.21234626662698
 30
0.0
 11
-21.831822696481879
 21
339.88213644338259
 31
0.0
 12
71.846808984315643
 22
339.88213644338259
 32
0.0
 13
71.846808984315643
 23
339.88213644338259
 33
0.0
210
0.0
220
0.0
230
1.0
  0
SOLID
  5
FFBBDAE469BC8BFD
  8
0
  6
CONTINUOUS
 10
21.830803413900039
 20
356.21234626662698
 30
0.0
 11
-28.335366990834238
 21
356.21234626662698
 31
0.0
 12
-71.846808984315643
 22
339.88213644338259
 32
0.0
 13
-71.846808984315643
 23
339.88213644338259
 33
0.0
210
0.0
220
0.0
230
-1.0
  0
SOLID
  5
FFBBDAE469BC8BFE
  8
0
  6
CONTINUOUS
 10
21.84056839304472
 20
199.7648986277645
 30
0.0
 11
19.94945012865173
 21
199.7648986277645
 31
0.0
 12
21.84071239530407
 22
197.45779836718589
 32
0.0
 13
21.84071239530407
 23
197.45779836718589
 33
0.0
210
0.0
220
0.0
230
-1.0
  0
SOLID
  5
FFBBDAE469BC8BFF
  8
0
  6
CONTINUOUS
 10
-21.831822696481879
 20
339.88213644338259
 30
0.0
 11
-21.84056839304472
 21
199.7648986277645
 31
0.0
 12
72.127318497642165
 22
199.7648986277645
 32
0.0
 13
72.127318497642165
 23
199.7648986277645
 33
0.0
210
0.0
220
0.0
230
1.0
  0
SOLID
  5
FFBBDAE469BC8C00
  8
0
  6
CONTINUOUS
 10
21.831822696481879
 20
339.88213644338259
 30
0.0
 11
-71.846808984315643
 21
339.88213644338259
 31
0.0
 12
-72.127318497642165
 22
199.7648986277645
 32
0.0
 13
-72.127318497642165
 23
199.7648986277645
 33
0.0
210
0.0
220
0.0
230
-1.0
  0
SOLID
  5
FFBBDAE469BC8C01
  8
0
  6
CONTINUOUS
 10
-19.94945012865173
 20
199.7648986277645
 30
0.0
 11
-13.802238289496691
 21
197.45779836718589
 31
0.0
 12
72.131937226796254
 22
197.45779836718589
 32
0.0
 13
72.131937226796254
 23
197.45779836718589
 33
0.0
210
0.0
220
0.0
230
1.0
  0
SOLID
  5
FFBBDAE469BC8C02
  8
0
  6
CONTINUOUS
 10
19.94945012865173
 20
199.7648986277645
 30
0.0
 11
-72.127318497642165
 21
199.7648986277645
 31
0.0
 12
-72.131937226796254
 22
197.45779836718589
 32
0.0
 13
-72.131937226796254
 23
197.45779836718589
 33
0.0
210
0.0
220
0.0
230
-1.0
  0
SOLID
  5
FFBBDAE469BC8C03
  8
0
  6
CONTINUOUS
 10
-13.802238289496691
 20
197.45779836718589
 30
0.0
 11
-6.6402576539276188
 21
194.76984684982739
 31
0.0
 12
72.137318406041132
 22
194.76984684982739
 32
0.0
 13
72.137318406041132
 23
194.76984684982739
 33
0.0
210
0.0
220
0.0
230
1.0
  0
SOLID
  5
FFBBDAE469BC8C04
  8
0
  6
CONTINUOUS
 10
13.802238289496691
 20
197.45779836718589
 30
0.0
 11
-72.131937226796254
 21
197.45779836718589
 31
0.0
 12
-72.137318406041132
 22
194.76984684982739
 32
0.0
 13
-72.137318406041132
 23
194.76984684982739
 33
0.0
210
0.0
220
0.0
230
-1.0
  0
SOLID
  5
FFBBDAE469BC8C05
  8
0
  6
CONTINUOUS
 10
-6.6402576539276188
 20
194.76984684982739
 30
0.0
 11
-6.6402576539275682
 21
189.68113785105379
 31
0.0
 12
72.147505812722557
 22
189.68113785105379
 32
0.0
 13
72.147505812722557
 23
189.68113785105379
 33
0.0
210
0.0
220
0.0
230
1.0
  0
SOLID
  5
FFBBDAE469BC8C06
  8
0
  6
CONTINUOUS
 10
6.6402576539276188
 20
194.76984684982739
 30
0.0
 11
-72.137318406041132
 21
194.76984684982739
 31
0.0
 12
-72.147505812722557
 22
189.68113785105379
 32
0.0
 13
-72.147505812722557
 23
189.68113785105379
 33
0.0
210
0.0
220
0.0
230
-1.0
  0
SOLID
  5
FFBBDAE469BC8C07
  8
0
  6
CONTINUOUS
 10
-6.6402576539275682
 20
189.68113785105379
 30
0.0
 11
-6.6402576539274714
 21
180.07207855060909
 31
0.0
 12
0.0
 22
180.07207855060909
 32
0.0
 13
0.0
 23
180.07207855060909
 33
0.0
210
0.0
220
0.0
230
1.0
  0
SOLID
  5
FFBBDAE469BC8C08
  8
0
  6
CONTINUOUS
 10
6.6402576539275682
 20
189.68113785105379
 30
0.0
 11
-6.918482179693461
 21
189.68113785105379
 31
0.0
 12
0.0
 22
180.07207855060909
 32
0.0
 13
0.0
 23
180.07207855060909
 33
0.0
210
0.0
220
0.0
230
-1.0
  0
SOLID
  5
FFBBDAE469BC8C09
  8
0
  6
CONTINUOUS
 10
-66.149960973290916
 20
172.6553319227942
 30
0.0
 11
-72.181590844724198
 21
172.6553319227942
 31
0.0
 12
-72.182828096334561
 22
172.03731267606639
 32
0.0
 13
-72.182828096334561
 23
172.03731267606639
 33
0.0
210
0.0
220
0.0
230
-1.0
  0
SOLID
  5
FFBBDAE469BC8C0A
  8
0
  6
CONTINUOUS
 10
6.918482179693461
 20
189.68113785105379
 30
0.0
 11
66.149960973290916
 21
172.6553319227942
 31
0.0
 12
72.181590844724198
 22
172.6553319227942
 32
0.0
 13
72.181590844724198
 23
172.6553319227942
 33
0.0
  0
SOLID
  5
FFBBDAE469BC8C0B
  8
0
  6
CONTINUOUS
 10
-6.918482179693461
 20
189.68113785105379
 30
0.0
 11
-72.147505812722557
 21
189.68113785105379
 31
0.0
 12
-72.181590844724198
 22
172.6553319227942
 32
0.0
 13
-72.181590844724198
 23
172.6553319227942
 33
0.0
210
0.0
220
0.0
230
-1.0
  0
SOLID
  5
FFBBDAE469BC8C0C
  8
0
  6
CONTINUOUS
 10
6.6402576539258611
 20
20.648009902238758
 30
0.0
 11
0.0000000000000035
 21
20.648009902238758
 31
0.0
 12
0.0000000000000036
 22
18.155865404125962
 32
0.0
 13
0.0000000000000036
 23
18.155865404125962
 33
0.0
210
0.0
220
0.0
230
-1.0
  0
SOLID
  5
FFBBDAE469BC8C0D
  8
0
  6
CONTINUOUS
 10
-6.6402576539274714
 20
180.07207855060909
 30
0.0
 11
-6.6402576539258611
 21
20.648009902238758
 31
0.0
 12
-0.0000000000000035
 22
20.648009902238758
 32
0.0
 13
-0.0000000000000035
 23
20.648009902238758
 33
0.0
210
0.0
220
0.0
230
1.0
  0
SOLID
  5
FFBBDAE469BC8C0E
  8
0
  6
CONTINUOUS
 10
6.6402576539274714
 20
180.07207855060909
 30
0.0
 11
0.0
 21
180.07207855060909
 31
0.0
 12
0.0000000000000035
 22
20.648009902238758
 32
0.0
 13
0.0000000000000035
 23
20.648009902238758
 33
0.0
210
0.0
220
0.0
230
-1.0
  0
LINE
  5
FFBBDAE469BC8C0F
  8
0
  6
CONTINUOUS
 10
-11.15869854407719
 20
371.03480094543738
 30
0.0
 11
-21.830803413900039
 21
356.21234626662698
 31
0.0
  0
LINE
  5
FFBBDAE469BC8C10
  8
0
  6
CONTINUOUS
 10
28.335366990834238
 20
356.21234626662698
 30
0.0
 11
-11.15869854407719
 21
371.03480094543738
 31
0.0
  0
LINE
  5
FFBBDAE469BC8C11
  8
0
  6
CONTINUOUS
 10
-21.830803413900039
 20
356.21234626662698
 30
0.0
 11
-21.831822696481879
 21
339.88213644338259
 31
0.0
  0
LINE
  5
FFBBDAE469BC8C12
  8
0
  6
CONTINUOUS
 10
28.335366990834238
 20
356.21234626662698
 30
0.0
 11
71.846808984315643
 21
339.88213644338259
 31
0.0
  0
LINE
  5
FFBBDAE469BC8C13
  8
0
  6
CONTINUOUS
 10
-19.94945012865173
 20
199.7648986277645
 30
0.0
 11
-21.84071239530407
 21
197.45779836718589
 31
0.0
  0
LINE
  5
FFBBDAE469BC8C14
  8
0
  6
CONTINUOUS
 10
-21.84071239530407
 20
197.45779836718589
 30
0.0
 11
-21.84056839304472
 21
199.7648986277645
 31
0.0
  0
LINE
  5
FFBBDAE469BC8C15
  8
0
  6
CONTINUOUS
 10
-21.831822696481879
 20
339.88213644338259
 30
0.0
 11
-21.84056839304472
 21
199.7648986277645
 31
0.0
  0
LINE
  5
FFBBDAE469BC8C16
  8
0
  6
CONTINUOUS
 10
71.846808984315643
 20
339.88213644338259
 30
0.0
 11
72.127318497642165
 21
199.7648986277645
 31
0.0
  0
LINE
  5
FFBBDAE469BC8C17
  8
0
  6
CONTINUOUS
 10
72.127318497642165
 20
199.7648986277645
 30
0.0
 11
72.131937226796254
 21
197.45779836718589
 31
0.0
  0
LINE
  5
FFBBDAE469BC8C18
  8
0
  6
CONTINUOUS
 10
-13.802238289496691
 20
197.45779836718589
 30
0.0
 11
-6.6402576539276188
 21
194.76984684982739
 31
0.0
  0
LINE
  5
FFBBDAE469BC8C19
  8
0
  6
CONTINUOUS
 10
72.131937226796254
 20
197.45779836718589
 30
0.0
 11
72.137318406041132
 21
194.76984684982739
 31
0.0
  0
LINE
  5
FFBBDAE469BC8C1A
  8
0
  6
CONTINUOUS
 10
-6.6402576539276188
 20
194.76984684982739
 30
0.0
 11
-6.6402576539275682
 21
189.68113785105379
 31
0.0
  0
LINE
  5
FFBBDAE469BC8C1B
  8
0
  6
CONTINUOUS
 10
72.137318406041132
 20
194.76984684982739
 30
0.0
 11
72.147505812722557
 21
189.68113785105379
 31
0.0
  0
LINE
  5
FFBBDAE469BC8C1C
  8
0
  6
CONTINUOUS
 10
-6.6402576539275682
 20
189.68113785105379
 30
0.0
 11
-6.6402576539274714
 21
180.07207855060909
 31
0.0
  0
LINE
  5
FFBBDAE469BC8C1D
  8
0
  6
CONTINUOUS
 10
6.918482179693461
 20
189.68113785105379
 30
0.0
 11
0.0
 21
180.07207855060909
 31
0.0
  0
LINE
  5
FFBBDAE469BC8C1E
  8
0
  6
CONTINUOUS
 10
72.181590844724198
 20
172.6553319227942
 30
0.0
 11
72.182828096334561
 21
172.03731267606639
 31
0.0
  0
LINE
  5
FFBBDAE469BC8C1F
  8
0
  6
CONTINUOUS
 10
72.182828096334561
 20
172.03731267606639
 30
0.0
 11
66.149960973290916
 21
172.6553319227942
 31
0.0
  0
LINE
  5
FFBBDAE469BC8C20
  8
0
  6
CONTINUOUS
 10
6.918482179693461
 20
189.68113785105379
 30
0.0
 11
66.149960973290916
 21
172.6553319227942
 31
0.0
  0
LINE
  5
FFBBDAE469BC8C21
  8
0
  6
CONTINUOUS
 10
72.147505812722557
 20
189.68113785105379
 30
0.0
 11
72.181590844724198
 21
172.6553319227942
 31
0.0
  0
LINE
  5
FFBBDAE469BC8C22
  8
0
  6
CONTINUOUS
 10
-0.0000000000000035
 20
20.648009902238758
 30
0.0
 11
-0.0000000000000036
 21
18.155865404125962
 31
0.0
  0
LINE
  5
FFBBDAE469BC8C23
  8
0
  6
CONTINUOUS
 10
-0.0000000000000036
 20
18.155865404125962
 30
0.0
 11
-6.6402576539258611
 21
20.648009902238758
 31
0.0
  0
LINE
  5
FFBBDAE469BC8C24
  8
0
  6
CONTINUOUS
 10
-6.6402576539274714
 20
180.07207855060909
 30
0.0
 11
-6.6402576539258611
 21
20.648009902238758
 31
0.0
  0
LINE
  5
FFBBDAE469BC8C25
  8
0
  6
CONTINUOUS
 10
0.0
 20
180.07207855060909
 30
0.0
 11
-0.0000000000000035
 21
20.648009902238758
 31
0.0
  0
ENDBLK
  5
FFBBDAE469BC8C27
  8
0
  0
BLOCK
  8
0
  2
*U43
 70
     1
 10
0.0
 20
0.0
 30
0.0
  3
*U43
  1

  0
SOLID
  5
FFBBDAE469BC8C29
  8
0
  6
CONTINUOUS
 10
71.846808984315643
 20
339.88213644338322
 30
0.0
 11
71.8561215220614
 21
335.23043301089132
 31
0.0
 12
84.241158246481973
 22
335.23043301089132
 32
0.0
 13
84.241158246481973
 23
335.23043301089132
 33
0.0
210
0.0
220
0.0
230
1.0
  0
SOLID
  5
FFBBDAE469BC8C2A
  8
0
  6
CONTINUOUS
 10
-72.182828096334561
 20
172.0373126760667
 30
0.0
 11
-84.241158246481973
 21
172.0373126760667
 31
0.0
 12
-84.241158246481973
 22
170.8020326733423
 32
0.0
 13
-84.241158246481973
 23
170.8020326733423
 33
0.0
210
0.0
220
0.0
230
-1.0
  0
SOLID
  5
FFBBDAE469BC8C2B
  8
0
  6
CONTINUOUS
 10
71.8561215220614
 20
335.23043301089132
 30
0.0
 11
72.182828096334561
 21
172.0373126760667
 31
0.0
 12
84.241158246481973
 22
172.0373126760667
 32
0.0
 13
84.241158246481973
 23
172.0373126760667
 33
0.0
210
0.0
220
0.0
230
1.0
  0
SOLID
  5
FFBBDAE469BC8C2C
  8
0
  6
CONTINUOUS
 10
-71.8561215220614
 20
335.23043301089132
 30
0.0
 11
-84.241158246481973
 21
335.23043301089132
 31
0.0
 12
-84.241158246481973
 22
172.0373126760667
 32
0.0
 13
-84.241158246481973
 23
172.0373126760667
 33
0.0
210
0.0
220
0.0
230
-1.0
  0
LINE
  5
FFBBDAE469BC8C2D
  8
0
  6
CONTINUOUS
 10
71.846808984315643
 20
339.88213644338322
 30
0.0
 11
71.8561215220614
 21
335.23043301089132
 31
0.0
  0
LINE
  5
FFBBDAE469BC8C2E
  8
0
  6
CONTINUOUS
 10
84.241158246481973
 20
335.23043301089132
 30
0.0
 11
71.846808984315643
 21
339.88213644338322
 31
0.0
  0
LINE
  5
FFBBDAE469BC8C2F
  8
0
  6
CONTINUOUS
 10
84.241158246481973
 20
172.0373126760667
 30
0.0
 11
84.241158246481973
 21
170.8020326733423
 31
0.0
  0
LINE
  5
FFBBDAE469BC8C30
  8
0
  6
CONTINUOUS
 10
84.241158246481973
 20
170.8020326733423
 30
0.0
 11
72.182828096334561
 21
172.0373126760667
 31
0.0
  0
LINE
  5
FFBBDAE469BC8C31
  8
0
  6
CONTINUOUS
 10
71.8561215220614
 20
335.23043301089132
 30
0.0
 11
72.182828096334561
 21
172.0373126760667
 31
0.0
  0
LINE
  5
FFBBDAE469BC8C32
  8
0
  6
CONTINUOUS
 10
84.241158246481973
 20
335.23043301089132
 30
0.0
 11
84.241158246481973
 21
172.0373126760667
 31
0.0
  0
ENDBLK
  5
FFBBDAE469BC8C34
  8
0
  0
BLOCK
  8
0
  2
*U44
 70
     1
 10
0.0
 20
0.0
 30
0.0
  3
*U44
  1

  0
SOLID
  5
FFBBDAE469BC8C36
  8
0
  6
CONTINUOUS
 10
-21.758454345625069
 20
617.87657861500804
 30
0.0
 11
-62.885738184657392
 21
560.75501654244897
 31
0.0
 12
-21.75845434562887
 22
560.75501654244897
 32
0.0
 13
-21.75845434562887
 23
560.75501654244897
 33
0.0
210
0.0
220
0.0
230
1.0
  0
SOLID
  5
FFBBDAE469BC8C37
  8
0
  6
CONTINUOUS
 10
-62.885738184657392
 20
560.75501654244897
 30
0.0
 11
-62.885738184658102
 21
535.85820149150641
 31
0.0
 12
-21.758454345630518
 22
535.85820149150641
 32
0.0
 13
-21.758454345630518
 23
535.85820149150641
 33
0.0
  0
SOLID
  5
FFBBDAE469BC8C38
  8
0
  6
CONTINUOUS
 10
62.885738184657392
 20
560.75501654244897
 30
0.0
 11
21.75845434562887
 21
560.75501654244897
 31
0.0
 12
21.758454345630518
 22
535.85820149150641
 32
0.0
 13
21.758454345630518
 23
535.85820149150641
 33
0.0
210
0.0
220
0.0
230
-1.0
  0
SOLID
  5
FFBBDAE469BC8C39
  8
0
  6
CONTINUOUS
 10
-62.885738184658102
 20
535.85820149150641
 30
0.0
 11
-62.885738184658749
 21
512.88946585268786
 31
0.0
 12
-38.295847157844037
 22
512.88946585268786
 32
0.0
 13
-38.295847157844037
 23
512.88946585268786
 33
0.0
210
0.0
220
0.0
230
1.0
  0
SOLID
  5
FFBBDAE469BC8C3A
  8
0
  6
CONTINUOUS
 10
62.885738184658102
 20
535.85820149150641
 30
0.0
 11
21.758454345630518
 21
535.85820149150641
 31
0.0
 12
38.295847157844037
 22
512.88946585268786
 32
0.0
 13
38.295847157844037
 23
512.88946585268786
 33
0.0
210
0.0
220
0.0
230
-1.0
  0
SOLID
  5
FFBBDAE469BC8C3B
  8
0
  6
CONTINUOUS
 10
-62.885738184658749
 20
512.88946585268786
 30
0.0
 11
-62.88573818465904
 21
502.59275443008693
 31
0.0
 12
-41.109639165060003
 22
502.59275443008693
 32
0.0
 13
-41.109639165060003
 23
502.59275443008693
 33
0.0
210
0.0
220
0.0
230
1.0
  0
SOLID
  5
FFBBDAE469BC8C3C
  8
0
  6
CONTINUOUS
 10
62.885738184658749
 20
512.88946585268786
 30
0.0
 11
38.295847157844037
 21
512.88946585268786
 31
0.0
 12
41.109639165060003
 22
502.59275443008693
 32
0.0
 13
41.109639165060003
 23
502.59275443008693
 33
0.0
210
0.0
220
0.0
230
-1.0
  0
SOLID
  5
FFBBDAE469BC8C3D
  8
0
  6
CONTINUOUS
 10
-62.88573818465904
 20
502.59275443008693
 30
0.0
 11
-62.885738184659303
 21
493.17771476648949
 31
0.0
 12
-43.107209633970903
 22
493.17771476648949
 32
0.0
 13
-43.107209633970903
 23
493.17771476648949
 33
0.0
210
0.0
220
0.0
230
1.0
  0
SOLID
  5
FFBBDAE469BC8C3E
  8
0
  6
CONTINUOUS
 10
62.88573818465904
 20
502.59275443008693
 30
0.0
 11
41.109639165060003
 21
502.59275443008693
 31
0.0
 12
43.107209633970903
 22
493.17771476648949
 32
0.0
 13
43.107209633970903
 23
493.17771476648949
 33
0.0
210
0.0
220
0.0
230
-1.0
  0
SOLID
  5
FFBBDAE469BC8C3F
  8
0
  6
CONTINUOUS
 10
-62.885738184659303
 20
493.17771476648949
 30
0.0
 11
-62.885738184659552
 21
484.56214357487562
 31
0.0
 12
-44.382694199738999
 22
484.56214357487562
 32
0.0
 13
-44.382694199738999
 23
484.56214357487562
 33
0.0
  0
SOLID
  5
FFBBDAE469BC8C40
  8
0
  6
CONTINUOUS
 10
62.885738184659303
 20
493.17771476648949
 30
0.0
 11
43.107209633970903
 21
493.17771476648949
 31
0.0
 12
44.382694199738999
 22
484.56214357487562
 32
0.0
 13
44.382694199738999
 23
484.56214357487562
 33
0.0
210
0.0
220
0.0
230
-1.0
  0
SOLID
  5
FFBBDAE469BC8C41
  8
0
  6
CONTINUOUS
 10
-62.885738184659552
 20
484.56214357487562
 30
0.0
 11
-62.885738184659772
 21
476.66306098638228
 31
0.0
 12
-45.030373442643388
 22
476.66306098638228
 32
0.0
 13
-45.030373442643388
 23
476.66306098638228
 33
0.0
210
0.0
220
0.0
230
1.0
  0
SOLID
  5
FFBBDAE469BC8C42
  8
0
  6
CONTINUOUS
 10
62.885738184659552
 20
484.56214357487562
 30
0.0
 11
44.382694199738999
 21
484.56214357487562
 31
0.0
 12
45.030373442643388
 22
476.66306098638228
 32
0.0
 13
45.030373442643388
 23
476.66306098638228
 33
0.0
210
0.0
220
0.0
230
-1.0
  0
SOLID
  5
FFBBDAE469BC8C43
  8
0
  6
CONTINUOUS
 10
-62.885738184659772
 20
476.66306098638228
 30
0.0
 11
-62.885738184659978
 21
469.39816176516291
 31
0.0
 12
-45.144432898922027
 22
469.39816176516291
 32
0.0
 13
-45.144432898922027
 23
469.39816176516291
 33
0.0
210
0.0
220
0.0
230
1.0
  0
SOLID
  5
FFBBDAE469BC8C44
  8
0
  6
CONTINUOUS
 10
62.885738184659772
 20
476.66306098638228
 30
0.0
 11
45.030373442643388
 21
476.66306098638228
 31
0.0
 12
45.144432898922027
 22
469.39816176516291
 32
0.0
 13
45.144432898922027
 23
469.39816176516291
 33
0.0
210
0.0
220
0.0
230
-1.0
  0
SOLID
  5
FFBBDAE469BC8C45
  8
0
  6
CONTINUOUS
 10
-62.885738184659978
 20
469.39816176516291
 30
0.0
 11
-62.88573818466017
 21
462.68458179902422
 31
0.0
 12
-44.819073789432487
 22
462.68458179902422
 32
0.0
 13
-44.819073789432487
 23
462.68458179902422
 33
0.0
210
0.0
220
0.0
230
1.0
  0
SOLID
  5
FFBBDAE469BC8C46
  8
0
  6
CONTINUOUS
 10
62.885738184659978
 20
469.39816176516291
 30
0.0
 11
45.144432898922027
 21
469.39816176516291
 31
0.0
 12
44.819073789432487
 22
462.68458179902422
 32
0.0
 13
44.819073789432487
 23
462.68458179902422
 33
0.0
210
0.0
220
0.0
230
-1.0
  0
SOLID
  5
FFBBDAE469BC8C47
  8
0
  6
CONTINUOUS
 10
-62.88573818466017
 20
462.68458179902422
 30
0.0
 11
-62.88573818466034
 21
456.43998012971019
 31
0.0
 12
-44.148512693072931
 22
456.43998012971019
 32
0.0
 13
-44.148512693072931
 23
456.43998012971019
 33
0.0
  0
SOLID
  5
FFBBDAE469BC8C48
  8
0
  6
CONTINUOUS
 10
62.88573818466017
 20
462.68458179902422
 30
0.0
 11
44.819073789432487
 21
462.68458179902422
 31
0.0
 12
44.148512693072931
 22
456.43998012971019
 32
0.0
 13
44.148512693072931
 23
456.43998012971019
 33
0.0
210
0.0
220
0.0
230
-1.0
  0
SOLID
  5
FFBBDAE469BC8C49
  8
0
  6
CONTINUOUS
 10
-62.88573818466034
 20
456.43998012971019
 30
0.0
 11
-62.885738184660397
 21
454.89541709870139
 31
0.0
 12
-43.905540802211632
 22
454.89541709870139
 32
0.0
 13
-43.905540802211632
 23
454.89541709870139
 33
0.0
210
0.0
220
0.0
230
1.0
  0
SOLID
  5
FFBBDAE469BC8C4A
  8
0
  6
CONTINUOUS
 10
62.88573818466034
 20
456.43998012971019
 30
0.0
 11
44.148512693072931
 21
456.43998012971019
 31
0.0
 12
43.905540802211632
 22
454.89541709870139
 32
0.0
 13
43.905540802211632
 23
454.89541709870139
 33
0.0
210
0.0
220
0.0
230
-1.0
  0
SOLID
  5
FFBBDAE469BC8C4B
  8
0
  6
CONTINUOUS
 10
-62.885738184660397
 20
454.89541709870139
 30
0.0
 11
-62.885738184660568
 21
448.89138065322908
 31
0.0
 12
-48.228421726915258
 22
448.89138065322908
 32
0.0
 13
-48.228421726915258
 23
448.89138065322908
 33
0.0
210
0.0
220
0.0
230
1.0
  0
SOLID
  5
FFBBDAE469BC8C4C
  8
0
  6
CONTINUOUS
 10
62.885738184660397
 20
454.89541709870139
 30
0.0
 11
43.905540802211632
 21
454.89541709870139
 31
0.0
 12
48.228421726915258
 22
448.89138065322908
 32
0.0
 13
48.228421726915258
 23
448.89138065322908
 33
0.0
210
0.0
220
0.0
230
-1.0
  0
SOLID
  5
FFBBDAE469BC8C4D
  8
0
  6
CONTINUOUS
 10
62.88573818466098
 20
433.95226760223949
 30
0.0
 11
48.228421726915258
 21
433.95226760223949
 31
0.0
 12
62.88573818466157
 22
413.55066929597342
 32
0.0
 13
62.88573818466157
 23
413.55066929597342
 33
0.0
210
0.0
220
0.0
230
-1.0
  0
SOLID
  5
FFBBDAE469BC8C4E
  8
0
  6
CONTINUOUS
 10
-62.885738184660568
 20
448.89138065322908
 30
0.0
 11
-62.88573818466098
 21
433.95226760223949
 31
0.0
 12
-48.228421726915258
 22
433.95226760223949
 32
0.0
 13
-48.228421726915258
 23
433.95226760223949
 33
0.0
210
0.0
220
0.0
230
1.0
  0
SOLID
  5
FFBBDAE469BC8C4F
  8
0
  6
CONTINUOUS
 10
62.885738184660568
 20
448.89138065322908
 30
0.0
 11
48.228421726915258
 21
448.89138065322908
 31
0.0
 12
48.228421726915258
 22
433.95226760223949
 32
0.0
 13
48.228421726915258
 23
433.95226760223949
 33
0.0
210
0.0
220
0.0
230
-1.0
  0
LINE
  5
FFBBDAE469BC8C50
  8
0
  6
CONTINUOUS
 10
-21.758454345625069
 20
617.87657861500804
 30
0.0
 11
-62.885738184657392
 21
560.75501654244897
 31
0.0
  0
LINE
  5
FFBBDAE469BC8C51
  8
0
  6
CONTINUOUS
 10
-21.75845434562887
 20
560.75501654244897
 30
0.0
 11
-21.758454345625069
 21
617.87657861500804
 31
0.0
  0
LINE
  5
FFBBDAE469BC8C52
  8
0
  6
CONTINUOUS
 10
-62.885738184657392
 20
560.75501654244897
 30
0.0
 11
-62.885738184658102
 21
535.85820149150641
 31
0.0
  0
LINE
  5
FFBBDAE469BC8C53
  8
0
  6
CONTINUOUS
 10
-21.75845434562887
 20
560.75501654244897
 30
0.0
 11
-21.758454345630518
 21
535.85820149150641
 31
0.0
  0
LINE
  5
FFBBDAE469BC8C54
  8
0
  6
CONTINUOUS
 10
-62.885738184658102
 20
535.85820149150641
 30
0.0
 11
-62.885738184658749
 21
512.88946585268786
 31
0.0
  0
LINE
  5
FFBBDAE469BC8C55
  8
0
  6
CONTINUOUS
 10
-21.758454345630518
 20
535.85820149150641
 30
0.0
 11
-38.295847157844037
 21
512.88946585268786
 31
0.0
  0
LINE
  5
FFBBDAE469BC8C56
  8
0
  6
CONTINUOUS
 10
-62.885738184658749
 20
512.88946585268786
 30
0.0
 11
-62.88573818465904
 21
502.59275443008693
 31
0.0
  0
LINE
  5
FFBBDAE469BC8C57
  8
0
  6
CONTINUOUS
 10
-38.295847157844037
 20
512.88946585268786
 30
0.0
 11
-41.109639165060003
 21
502.59275443008693
 31
0.0
  0
LINE
  5
FFBBDAE469BC8C58
  8
0
  6
CONTINUOUS
 10
-62.88573818465904
 20
502.59275443008693
 30
0.0
 11
-62.885738184659303
 21
493.17771476648949
 31
0.0
  0
LINE
  5
FFBBDAE469BC8C59
  8
0
  6
CONTINUOUS
 10
-41.109639165060003
 20
502.59275443008693
 30
0.0
 11
-43.107209633970903
 21
493.17771476648949
 31
0.0
  0
LINE
  5
FFBBDAE469BC8C5A
  8
0
  6
CONTINUOUS
 10
-62.885738184659303
 20
493.17771476648949
 30
0.0
 11
-62.885738184659552
 21
484.56214357487562
 31
0.0
  0
LINE
  5
FFBBDAE469BC8C5B
  8
0
  6
CONTINUOUS
 10
-43.107209633970903
 20
493.17771476648949
 30
0.0
 11
-44.382694199738999
 21
484.56214357487562
 31
0.0
  0
LINE
  5
FFBBDAE469BC8C5C
  8
0
  6
CONTINUOUS
 10
-62.885738184659552
 20
484.56214357487562
 30
0.0
 11
-62.885738184659772
 21
476.66306098638228
 31
0.0
  0
LINE
  5
FFBBDAE469BC8C5D
  8
0
  6
CONTINUOUS
 10
-44.382694199738999
 20
484.56214357487562
 30
0.0
 11
-45.030373442643388
 21
476.66306098638228
 31
0.0
  0
LINE
  5
FFBBDAE469BC8C5E
  8
0
  6
CONTINUOUS
 10
-62.885738184659772
 20
476.66306098638228
 30
0.0
 11
-62.885738184659978
 21
469.39816176516291
 31
0.0
  0
LINE
  5
FFBBDAE469BC8C5F
  8
0
  6
CONTINUOUS
 10
-45.030373442643388
 20
476.66306098638228
 30
0.0
 11
-45.144432898922027
 21
469.39816176516291
 31
0.0
  0
LINE
  5
FFBBDAE469BC8C60
  8
0
  6
CONTINUOUS
 10
-62.885738184659978
 20
469.39816176516291
 30
0.0
 11
-62.88573818466017
 21
462.68458179902422
 31
0.0
  0
LINE
  5
FFBBDAE469BC8C61
  8
0
  6
CONTINUOUS
 10
-45.144432898922027
 20
469.39816176516291
 30
0.0
 11
-44.819073789432487
 21
462.68458179902422
 31
0.0
  0
LINE
  5
FFBBDAE469BC8C62
  8
0
  6
CONTINUOUS
 10
-62.88573818466017
 20
462.68458179902422
 30
0.0
 11
-62.88573818466034
 21
456.43998012971019
 31
0.0
  0
LINE
  5
FFBBDAE469BC8C63
  8
0
  6
CONTINUOUS
 10
-44.819073789432487
 20
462.68458179902422
 30
0.0
 11
-44.148512693072931
 21
456.43998012971019
 31
0.0
  0
LINE
  5
FFBBDAE469BC8C64
  8
0
  6
CONTINUOUS
 10
-62.88573818466034
 20
456.43998012971019
 30
0.0
 11
-62.885738184660397
 21
454.89541709870139
 31
0.0
  0
LINE
  5
FFBBDAE469BC8C65
  8
0
  6
CONTINUOUS
 10
-44.148512693072931
 20
456.43998012971019
 30
0.0
 11
-43.905540802211632
 21
454.89541709870139
 31
0.0
  0
LINE
  5
FFBBDAE469BC8C66
  8
0
  6
CONTINUOUS
 10
-62.885738184660397
 20
454.89541709870139
 30
0.0
 11
-62.885738184660568
 21
448.89138065322908
 31
0.0
  0
LINE
  5
FFBBDAE469BC8C67
  8
0
  6
CONTINUOUS
 10
-43.905540802211632
 20
454.89541709870139
 30
0.0
 11
-48.228421726915258
 21
448.89138065322908
 31
0.0
  0
LINE
  5
FFBBDAE469BC8C68
  8
0
  6
CONTINUOUS
 10
-48.228421726915258
 20
433.95226760223949
 30
0.0
 11
-62.88573818466157
 21
413.55066929597342
 31
0.0
  0
LINE
  5
FFBBDAE469BC8C69
  8
0
  6
CONTINUOUS
 10
-62.88573818466157
 20
413.55066929597342
 30
0.0
 11
-62.88573818466098
 21
433.95226760223949
 31
0.0
  0
LINE
  5
FFBBDAE469BC8C6A
  8
0
  6
CONTINUOUS
 10
-62.885738184660568
 20
448.89138065322908
 30
0.0
 11
-62.88573818466098
 21
433.95226760223949
 31
0.0
  0
LINE
  5
FFBBDAE469BC8C6B
  8
0
  6
CONTINUOUS
 10
-48.228421726915258
 20
448.89138065322908
 30
0.0
 11
-48.228421726915258
 21
433.95226760223949
 31
0.0
  0
ENDBLK
  5
FFBBDAE469BC8C6D
  8
0
  0
BLOCK
  8
0
  2
*U45
 70
     1
 10
0.0
 20
0.0
 30
0.0
  3
*U45
  1

  0
SOLID
  5
FFBBDAE469BC8C6F
  8
0
  6
CONTINUOUS
 10
-83.582210010003109
 20
342.1713372737313
 30
0.0
 11
-83.582210010003109
 21
337.6142114469049
 31
0.0
 12
-71.439860449454486
 22
337.6142114469049
 32
0.0
 13
-71.439860449454486
 23
337.6142114469049
 33
0.0
210
0.0
220
0.0
230
1.0
  0
SOLID
  5
FFBBDAE469BC8C70
  8
0
  6
CONTINUOUS
 10
-58.503221840710459
 20
326.7359124519424
 30
0.0
 11
-69.764896610282079
 21
310.38551778290639
 31
0.0
 12
-58.483294808249262
 22
310.38551778290639
 32
0.0
 13
-58.483294808249262
 23
310.38551778290639
 33
0.0
210
0.0
220
0.0
230
1.0
  0
SOLID
  5
FFBBDAE469BC8C71
  8
0
  6
CONTINUOUS
 10
-83.582210010003109
 20
337.6142114469049
 30
0.0
 11
-83.582210010003109
 21
310.38551778290639
 31
0.0
 12
-71.439860449454486
 22
310.38551778290639
 32
0.0
 13
-71.439860449454486
 23
310.38551778290639
 33
0.0
210
0.0
220
0.0
230
1.0
  0
SOLID
  5
FFBBDAE469BC8C72
  8
0
  6
CONTINUOUS
 10
83.582210010003109
 20
337.6142114469049
 30
0.0
 11
71.439860449454486
 21
337.6142114469049
 31
0.0
 12
71.439860449454486
 22
310.38551778290639
 32
0.0
 13
71.439860449454486
 23
310.38551778290639
 33
0.0
210
0.0
220
0.0
230
-1.0
  0
SOLID
  5
FFBBDAE469BC8C73
  8
0
  6
CONTINUOUS
 10
-69.764896610282079
 20
310.38551778290639
 30
0.0
 11
-70.108941201980997
 21
309.88601260511308
 31
0.0
 12
-58.482686036651153
 22
309.88601260511308
 32
0.0
 13
-58.482686036651153
 23
309.88601260511308
 33
0.0
210
0.0
220
0.0
230
1.0
  0
SOLID
  5
FFBBDAE469BC8C74
  8
0
  6
CONTINUOUS
 10
69.764896610282079
 20
310.38551778290639
 30
0.0
 11
58.483294808249262
 21
310.38551778290639
 31
0.0
 12
58.482686036651153
 22
309.88601260511308
 32
0.0
 13
58.482686036651153
 23
309.88601260511308
 33
0.0
210
0.0
220
0.0
230
-1.0
  0
SOLID
  5
FFBBDAE469BC8C75
  8
0
  6
CONTINUOUS
 10
-83.582210010003109
 20
310.38551778290639
 30
0.0
 11
-83.582210010003109
 21
309.88601260511308
 31
0.0
 12
-70.108941201980997
 22
309.88601260511308
 32
0.0
 13
-70.108941201980997
 23
309.88601260511308
 33
0.0
210
0.0
220
0.0
230
1.0
  0
SOLID
  5
FFBBDAE469BC8C76
  8
0
  6
CONTINUOUS
 10
83.582210010003109
 20
310.38551778290639
 30
0.0
 11
71.439860449454486
 21
310.38551778290639
 31
0.0
 12
70.108941201980997
 22
309.88601260511308
 32
0.0
 13
70.108941201980997
 23
309.88601260511308
 33
0.0
210
0.0
220
0.0
230
-1.0
  0
SOLID
  5
FFBBDAE469BC8C77
  8
0
  6
CONTINUOUS
 10
-83.582210010003109
 20
309.88601260511308
 30
0.0
 11
-83.582210010003109
 21
155.67732931588779
 31
0.0
 12
-58.294744308032023
 22
155.67732931588779
 32
0.0
 13
-58.294744308032023
 23
155.67732931588779
 33
0.0
210
0.0
220
0.0
230
1.0
  0
SOLID
  5
FFBBDAE469BC8C78
  8
0
  6
CONTINUOUS
 10
83.582210010003109
 20
309.88601260511308
 30
0.0
 11
58.482686036651153
 21
309.88601260511308
 31
0.0
 12
58.294744308032023
 22
155.67732931588779
 32
0.0
 13
58.294744308032023
 23
155.67732931588779
 33
0.0
210
0.0
220
0.0
230
-1.0
  0
SOLID
  5
FFBBDAE469BC8C79
  8
0
  6
CONTINUOUS
 10
83.582210010003109
 20
136.93670666536849
 30
0.0
 11
79.985788471547494
 21
136.93670666536849
 31
0.0
 12
83.582210010003109
 22
135.3316075650186
 32
0.0
 13
83.582210010003109
 23
135.3316075650186
 33
0.0
210
0.0
220
0.0
230
-1.0
  0
SOLID
  5
FFBBDAE469BC8C7A
  8
0
  6
CONTINUOUS
 10
-83.582210010003109
 20
155.67732931588779
 30
0.0
 11
-83.582210010003109
 21
136.93670666536849
 31
0.0
 12
-79.985788471547494
 22
136.93670666536849
 32
0.0
 13
-79.985788471547494
 23
136.93670666536849
 33
0.0
210
0.0
220
0.0
230
1.0
  0
SOLID
  5
FFBBDAE469BC8C7B
  8
0
  6
CONTINUOUS
 10
83.582210010003109
 20
155.67732931588779
 30
0.0
 11
58.294744308032023
 21
155.67732931588779
 31
0.0
 12
79.985788471547494
 22
136.93670666536849
 32
0.0
 13
79.985788471547494
 23
136.93670666536849
 33
0.0
210
0.0
220
0.0
230
-1.0
  0
LINE
  5
FFBBDAE469BC8C7C
  8
0
  6
CONTINUOUS
 10
-83.582210010003109
 20
342.1713372737313
 30
0.0
 11
-83.582210010003109
 21
337.6142114469049
 31
0.0
  0
LINE
  5
FFBBDAE469BC8C7D
  8
0
  6
CONTINUOUS
 10
-71.439860449454486
 20
337.6142114469049
 30
0.0
 11
-83.582210010003109
 21
342.1713372737313
 31
0.0
  0
LINE
  5
FFBBDAE469BC8C7E
  8
0
  6
CONTINUOUS
 10
-58.503221840710459
 20
326.7359124519424
 30
0.0
 11
-69.764896610282079
 21
310.38551778290639
 31
0.0
  0
LINE
  5
FFBBDAE469BC8C7F
  8
0
  6
CONTINUOUS
 10
-58.483294808249262
 20
310.38551778290639
 30
0.0
 11
-58.503221840710459
 21
326.7359124519424
 31
0.0
  0
LINE
  5
FFBBDAE469BC8C80
  8
0
  6
CONTINUOUS
 10
-83.582210010003109
 20
337.6142114469049
 30
0.0
 11
-83.582210010003109
 21
310.38551778290639
 31
0.0
  0
LINE
  5
FFBBDAE469BC8C81
  8
0
  6
CONTINUOUS
 10
-71.439860449454486
 20
337.6142114469049
 30
0.0
 11
-71.439860449454486
 21
310.38551778290639
 31
0.0
  0
LINE
  5
FFBBDAE469BC8C82
  8
0
  6
CONTINUOUS
 10
-69.764896610282079
 20
310.38551778290639
 30
0.0
 11
-70.108941201980997
 21
309.88601260511308
 31
0.0
  0
LINE
  5
FFBBDAE469BC8C83
  8
0
  6
CONTINUOUS
 10
-58.483294808249262
 20
310.38551778290639
 30
0.0
 11
-58.482686036651153
 21
309.88601260511308
 31
0.0
  0
LINE
  5
FFBBDAE469BC8C84
  8
0
  6
CONTINUOUS
 10
-83.582210010003109
 20
310.38551778290639
 30
0.0
 11
-83.582210010003109
 21
309.88601260511308
 31
0.0
  0
LINE
  5
FFBBDAE469BC8C85
  8
0
  6
CONTINUOUS
 10
-71.439860449454486
 20
310.38551778290639
 30
0.0
 11
-70.108941201980997
 21
309.88601260511308
 31
0.0
  0
LINE
  5
FFBBDAE469BC8C86
  8
0
  6
CONTINUOUS
 10
-83.582210010003109
 20
309.88601260511308
 30
0.0
 11
-83.582210010003109
 21
155.67732931588779
 31
0.0
  0
LINE
  5
FFBBDAE469BC8C87
  8
0
  6
CONTINUOUS
 10
-58.482686036651153
 20
309.88601260511308
 30
0.0
 11
-58.294744308032023
 21
155.67732931588779
 31
0.0
  0
LINE
  5
FFBBDAE469BC8C88
  8
0
  6
CONTINUOUS
 10
-79.985788471547494
 20
136.93670666536849
 30
0.0
 11
-83.582210010003109
 21
135.3316075650186
 31
0.0
  0
LINE
  5
FFBBDAE469BC8C89
  8
0
  6
CONTINUOUS
 10
-83.582210010003109
 20
135.3316075650186
 30
0.0
 11
-83.582210010003109
 21
136.93670666536849
 31
0.0
  0
LINE
  5
FFBBDAE469BC8C8A
  8
0
  6
CONTINUOUS
 10
-83.582210010003109
 20
155.67732931588779
 30
0.0
 11
-83.582210010003109
 21
136.93670666536849
 31
0.0
  0
LINE
  5
FFBBDAE469BC8C8B
  8
0
  6
CONTINUOUS
 10
-58.294744308032023
 20
155.67732931588779
 30
0.0
 11
-79.985788471547494
 21
136.93670666536849
 31
0.0
  0
ENDBLK
  5
FFBBDAE469BC8C8D
  8
0
  0
BLOCK
  8
0
  2
*X46
 70
     1
 10
0.0
 20
0.0
 30
0.0
  3
*X46
  1

  0
LINE
  5
FFBBDAE469BC8C8F
  8
0
  6
CONTINUOUS
 62
     0
 10
84.241158246479245
 20
184.4594186044088
 30
0.0
 11
99.457318783626064
 21
169.24325806726199
 31
0.0
  0
LINE
  5
FFBBDAE469BC8C90
  8
0
  6
CONTINUOUS
 62
     0
 10
84.241158246479245
 20
198.6015542281398
 30
0.0
 11
115.2135555243116
 21
167.62915695030739
 31
0.0
  0
LINE
  5
FFBBDAE469BC8C91
  8
0
  6
CONTINUOUS
 62
     0
 10
84.241158246479245
 20
212.74368985187081
 30
0.0
 11
129.30275708295071
 21
167.68209101539921
 31
0.0
  0
LINE
  5
FFBBDAE469BC8C92
  8
0
  6
CONTINUOUS
 62
     0
 10
84.241158246479245
 20
226.88582547560171
 30
0.0
 11
139.21711342472821
 21
171.9098702973526
 31
0.0
  0
LINE
  5
FFBBDAE469BC8C93
  8
0
  6
CONTINUOUS
 62
     0
 10
84.24115824647923
 20
241.02796109933271
 30
0.0
 11
139.21711342472821
 21
186.05200592108361
 31
0.0
  0
LINE
  5
FFBBDAE469BC8C94
  8
0
  6
CONTINUOUS
 62
     0
 10
84.241158246479245
 20
255.17009672306361
 30
0.0
 11
139.2171134247283
 21
200.19414154481461
 31
0.0
  0
LINE
  5
FFBBDAE469BC8C95
  8
0
  6
CONTINUOUS
 62
     0
 10
84.241158246479287
 20
269.31223234679447
 30
0.0
 11
139.2171134247283
 21
214.33627716854551
 31
0.0
  0
LINE
  5
FFBBDAE469BC8C96
  8
0
  6
CONTINUOUS
 62
     0
 10
84.241158246479287
 20
283.45436797052548
 30
0.0
 11
139.21711342472821
 21
228.47841279227649
 31
0.0
  0
LINE
  5
FFBBDAE469BC8C97
  8
0
  6
CONTINUOUS
 62
     0
 10
84.241158246479287
 20
297.59650359425638
 30
0.0
 11
139.21711342472821
 21
242.62054841600749
 31
0.0
  0
LINE
  5
FFBBDAE469BC8C98
  8
0
  6
CONTINUOUS
 62
     0
 10
84.241158246479245
 20
311.7386392179875
 30
0.0
 11
139.21711342472821
 21
256.76268403973842
 31
0.0
  0
LINE
  5
FFBBDAE469BC8C99
  8
0
  6
CONTINUOUS
 62
     0
 10
84.241158246479245
 20
325.88077484171839
 30
0.0
 11
139.21711342472821
 21
270.90481966346931
 31
0.0
  0
LINE
  5
FFBBDAE469BC8C9A
  8
0
  6
CONTINUOUS
 62
     0
 10
91.912907763316184
 20
332.3511609486124
 30
0.0
 11
139.21711342472821
 21
285.04695528720032
 31
0.0
  0
LINE
  5
FFBBDAE469BC8C9B
  8
0
  6
CONTINUOUS
 62
     0
 10
114.5514956684557
 20
323.85470866720379
 30
0.0
 11
139.21711342472821
 21
299.18909091093133
 31
0.0
  0
LINE
  5
FFBBDAE469BC8C9C
  8
0
  6
CONTINUOUS
 62
     0
 10
137.1900835735951
 20
315.3582563857953
 30
0.0
 11
139.21711342472821
 21
313.33122653466222
 31
0.0
  0
ENDBLK
  5
FFBBDAE469BC8C9E
  8
0
  0
BLOCK
  8
0
  2
*U47
 70
     1
 10
0.0
 20
0.0
 30
0.0
  3
*U47
  1

  0
SOLID
  5
FFBBDAE469BC8CA0
  8
0
  6
CONTINUOUS
 10
-40.473361976890367
 20
636.49578332850979
 30
0.0
 11
-47.306552791975811
 21
627.00518495042934
 31
0.0
 12
-15.18589627491327
 22
627.00518495042934
 32
0.0
 13
-15.18589627491327
 23
627.00518495042934
 33
0.0
210
0.0
220
0.0
230
1.0
  0
SOLID
  5
FFBBDAE469BC8CA1
  8
0
  6
CONTINUOUS
 10
88.17320388663029
 20
570.24561492052999
 30
0.0
 11
56.052547369571059
 21
570.24561492052999
 31
0.0
 12
62.885738184657392
 22
560.75501654244897
 32
0.0
 13
62.885738184657392
 23
560.75501654244897
 33
0.0
210
0.0
220
0.0
230
-1.0
  0
SOLID
  5
FFBBDAE469BC8CA2
  8
0
  6
CONTINUOUS
 10
-47.306552791975811
 20
627.00518495042934
 30
0.0
 11
-88.17320388663029
 21
570.24561492052999
 31
0.0
 12
-56.052547369571059
 22
570.24561492052999
 32
0.0
 13
-56.052547369571059
 23
570.24561492052999
 33
0.0
210
0.0
220
0.0
230
1.0
  0
SOLID
  5
FFBBDAE469BC8CA3
  8
0
  6
CONTINUOUS
 10
47.306552791975811
 20
627.00518495042934
 30
0.0
 11
15.18589627491327
 21
627.00518495042934
 31
0.0
 12
56.052547369571059
 22
570.24561492052999
 32
0.0
 13
56.052547369571059
 23
570.24561492052999
 33
0.0
210
0.0
220
0.0
230
-1.0
  0
LINE
  5
FFBBDAE469BC8CA4
  8
0
  6
CONTINUOUS
 10
-40.473361976890367
 20
636.49578332850979
 30
0.0
 11
-47.306552791975811
 21
627.00518495042934
 31
0.0
  0
LINE
  5
FFBBDAE469BC8CA5
  8
0
  6
CONTINUOUS
 10
-15.18589627491327
 20
627.00518495042934
 30
0.0
 11
-40.473361976890367
 21
636.49578332850979
 31
0.0
  0
LINE
  5
FFBBDAE469BC8CA6
  8
0
  6
CONTINUOUS
 10
-56.052547369571059
 20
570.24561492052999
 30
0.0
 11
-62.885738184657392
 21
560.75501654244897
 31
0.0
  0
LINE
  5
FFBBDAE469BC8CA7
  8
0
  6
CONTINUOUS
 10
-62.885738184657392
 20
560.75501654244897
 30
0.0
 11
-88.17320388663029
 21
570.24561492052999
 31
0.0
  0
LINE
  5
FFBBDAE469BC8CA8
  8
0
  6
CONTINUOUS
 10
-47.306552791975811
 20
627.00518495042934
 30
0.0
 11
-88.17320388663029
 21
570.24561492052999
 31
0.0
  0
LINE
  5
FFBBDAE469BC8CA9
  8
0
  6
CONTINUOUS
 10
-15.18589627491327
 20
627.00518495042934
 30
0.0
 11
-56.052547369571059
 21
570.24561492052999
 31
0.0
  0
ENDBLK
  5
FFBBDAE469BC8CAB
  8
0
  0
BLOCK
  8
0
  2
*U48
 70
     1
 10
0.0
 20
0.0
 30
0.0
  3
*U48
  1

  0
SOLID
  5
FFBBDAE469BC8CB1
  8
0
  6
CONTINUOUS
 10
8.4815867792650472
 20
533.14018620188324
 30
0.0
 11
2.594430817385728
 21
526.16943339601585
 31
0.0
 12
5.9025774388821288
 22
534.67273663244589
 32
0.0
 13
5.9025774388821288
 23
534.67273663244589
 33
0.0
  0
POLYLINE
  8
0
  5
80000513
  66
     1
 10
0.000000
 20
0.000000
 30
0.000000
  70
     8
  0
VERTEX
  8
0
  5
80000514
 10
7.19208
 20
533.906
 30
0.000000
  70
    32
  0
VERTEX
  8
0
  5
80000515
 10
8.60858
 20
536.290
 30
0.000000
  70
    32
  0
VERTEX
  8
0
  5
80000516
 10
10.0251
 20
538.674
 30
0.000000
  70
    32
  0
VERTEX
  8
0
  5
80000517
 10
11.4416
 20
541.058
 30
0.000000
  70
    32
  0
VERTEX
  8
0
  5
80000518
 10
12.8581
 20
543.441
 30
0.000000
  70
    32
  0
VERTEX
  8
0
  5
80000519
 10
14.2746
 20
545.825
 30
0.000000
  70
    32
  0
VERTEX
  8
0
  5
8000051A
 10
15.6911
 20
548.209
 30
0.000000
  70
    32
  0
VERTEX
  8
0
  5
8000051B
 10
17.1076
 20
550.592
 30
0.000000
  70
    32
  0
VERTEX
  8
0
  5
8000051C
 10
18.5241
 20
552.976
 30
0.000000
  70
    32
  0
VERTEX
  8
0
  5
8000051D
 10
19.9406
 20
555.360
 30
0.000000
  70
    32
  0
VERTEX
  8
0
  5
8000051E
 10
21.3571
 20
557.744
 30
0.000000
  70
    32
  0
VERTEX
  8
0
  5
8000051F
 10
22.7736
 20
560.127
 30
0.000000
  70
    32
  0
VERTEX
  8
0
  5
80000520
 10
24.1901
 20
562.511
 30
0.000000
  70
    32
  0
VERTEX
  8
0
  5
80000521
 10
25.6065
 20
564.895
 30
0.000000
  70
    32
  0
VERTEX
  8
0
  5
80000522
 10
27.0230
 20
567.278
 30
0.000000
  70
    32
  0
VERTEX
  8
0
  5
80000523
 10
28.4395
 20
569.662
 30
0.000000
  70
    32
  0
VERTEX
  8
0
  5
80000524
 10
29.8560
 20
572.046
 30
0.000000
  70
    32
  0
VERTEX
  8
0
  5
80000525
 10
31.2725
 20
574.430
 30
0.000000
  70
    32
  0
VERTEX
  8
0
  5
80000526
 10
32.6890
 20
576.813
 30
0.000000
  70
    32
  0
VERTEX
  8
0
  5
80000527
 10
34.1055
 20
579.197
 30
0.000000
  70
    32
  0
VERTEX
  8
0
  5
80000528
 10
35.5220
 20
581.581
 30
0.000000
  70
    32
  0
VERTEX
  8
0
  5
80000529
 10
36.9385
 20
583.964
 30
0.000000
  70
    32
  0
VERTEX
  8
0
  5
8000052A
 10
38.3550
 20
586.348
 30
0.000000
  70
    32
  0
VERTEX
  8
0
  5
8000052B
 10
39.7715
 20
588.732
 30
0.000000
  70
    32
  0
VERTEX
  8
0
  5
8000052C
 10
41.1880
 20
591.116
 30
0.000000
  70
    32
  0
VERTEX
  8
0
  5
8000052D
 10
42.6045
 20
593.499
 30
0.000000
  70
    32
  0
VERTEX
  8
0
  5
8000052E
 10
44.0210
 20
595.883
 30
0.000000
  70
    32
  0
VERTEX
  8
0
  5
8000052F
 10
45.4375
 20
598.267
 30
0.000000
  70
    32
  0
VERTEX
  8
0
  5
80000530
 10
46.8540
 20
600.650
 30
0.000000
  70
    32
  0
VERTEX
  8
0
  5
80000531
 10
48.2705
 20
603.034
 30
0.000000
  70
    32
  0
VERTEX
  8
0
  5
80000532
 10
49.6870
 20
605.418
 30
0.000000
  70
    32
  0
VERTEX
  8
0
  5
80000533
 10
51.1035
 20
607.802
 30
0.000000
  70
    32
  0
VERTEX
  8
0
  5
80000534
 10
52.5200
 20
610.185
 30
0.000000
  70
    32
  0
VERTEX
  8
0
  5
80000535
 10
53.9365
 20
612.569
 30
0.000000
  70
    32
  0
VERTEX
  8
0
  5
80000536
 10
55.3530
 20
614.953
 30
0.000000
  70
    32
  0
VERTEX
  8
0
  5
80000537
 10
56.7695
 20
617.336
 30
0.000000
  70
    32
  0
VERTEX
  8
0
  5
80000538
 10
58.1860
 20
619.720
 30
0.000000
  70
    32
  0
VERTEX
  8
0
  5
80000539
 10
59.6025
 20
622.104
 30
0.000000
  70
    32
  0
VERTEX
  8
0
  5
8000053A
 10
61.0190
 20
624.488
 30
0.000000
  70
    32
  0
VERTEX
  8
0
  5
8000053B
 10
62.4355
 20
626.871
 30
0.000000
  70
    32
  0
VERTEX
  8
0
  5
8000053C
 10
63.8520
 20
629.255
 30
0.000000
  70
    32
  0
VERTEX
  8
0
  5
8000053D
 10
65.2685
 20
631.639
 30
0.000000
  70
    32
  0
VERTEX
  8
0
  5
8000053E
 10
66.6850
 20
634.022
 30
0.000000
  70
    32
  0
VERTEX
  8
0
  5
8000053F
 10
68.1015
 20
636.406
 30
0.000000
  70
    32
  0
VERTEX
  8
0
  5
80000540
 10
69.5180
 20
638.790
 30
0.000000
  70
    32
  0
VERTEX
  8
0
  5
80000541
 10
70.9345
 20
641.174
 30
0.000000
  70
    32
  0
VERTEX
  8
0
  5
80000542
 10
72.3510
 20
643.557
 30
0.000000
  70
    32
  0
VERTEX
  8
0
  5
80000543
 10
73.7675
 20
645.941
 30
0.000000
  70
    32
  0
VERTEX
  8
0
  5
80000544
 10
75.1840
 20
648.325
 30
0.000000
  70
    32
  0
VERTEX
  8
0
  5
80000545
 10
76.6005
 20
650.708
 30
0.000000
  70
    32
  0
VERTEX
  8
0
  5
80000546
 10
78.0170
 20
653.092
 30
0.000000
  70
    32
  0
VERTEX
  8
0
  5
80000547
 10
79.4334
 20
655.476
 30
0.000000
  70
    32
  0
VERTEX
  8
0
  5
80000548
 10
80.8499
 20
657.860
 30
0.000000
  70
    32
  0
VERTEX
  8
0
  5
80000549
 10
82.2664
 20
660.243
 30
0.000000
  70
    32
  0
VERTEX
  8
0
  5
8000054A
 10
83.6829
 20
662.627
 30
0.000000
  70
    32
  0
VERTEX
  8
0
  5
8000054B
 10
85.0994
 20
665.011
 30
0.000000
  70
    32
  0
VERTEX
  8
0
  5
8000054C
 10
86.5159
 20
667.394
 30
0.000000
  70
    32
  0
VERTEX
  8
0
  5
8000054D
 10
87.9324
 20
669.778
 30
0.000000
  70
    32
  0
VERTEX
  8
0
  5
8000054E
 10
89.3489
 20
672.162
 30
0.000000
  70
    32
  0
VERTEX
  8
0
  5
8000054F
 10
90.7654
 20
674.546
 30
0.000000
  70
    32
  0
VERTEX
  8
0
  5
80000550
 10
92.1819
 20
676.929
 30
0.000000
  70
    32
  0
VERTEX
  8
0
  5
80000551
 10
93.5984
 20
679.313
 30
0.000000
  70
    32
  0
VERTEX
  8
0
  5
80000552
 10
95.0149
 20
681.697
 30
0.000000
  70
    32
  0
VERTEX
  8
0
  5
80000553
 10
96.4314
 20
684.080
 30
0.000000
  70
    32
  0
VERTEX
  8
0
  5
80000554
 10
97.8479
 20
686.464
 30
0.000000
  70
    32
  0
VERTEX
  8
0
  5
80000555
 10
99.2644
 20
688.848
 30
0.000000
  70
    32
  0
VERTEX
  8
0
  5
80000556
 10
100.681
 20
691.232
 30
0.000000
  70
    32
  0
VERTEX
  8
0
  5
80000557
 10
102.097
 20
693.615
 30
0.000000
  70
    32
  0
VERTEX
  8
0
  5
80000558
 10
103.514
 20
695.999
 30
0.000000
  70
    32
  0
VERTEX
  8
0
  5
80000559
 10
104.930
 20
698.383
 30
0.000000
  70
    32
  0
VERTEX
  8
0
  5
8000055A
 10
106.347
 20
700.766
 30
0.000000
  70
    32
  0
VERTEX
  8
0
  5
8000055B
 10
107.763
 20
703.150
 30
0.000000
  70
    32
  0
VERTEX
  8
0
  5
8000055C
 10
109.180
 20
705.534
 30
0.000000
  70
    32
  0
VERTEX
  8
0
  5
8000055D
 10
110.596
 20
707.917
 30
0.000000
  70
    32
  0
VERTEX
  8
0
  5
8000055E
 10
112.013
 20
710.301
 30
0.000000
  70
    32
  0
VERTEX
  8
0
  5
8000055F
 10
113.429
 20
712.685
 30
0.000000
  70
    32
  0
VERTEX
  8
0
  5
80000560
 10
114.846
 20
715.069
 30
0.000000
  70
    32
  0
VERTEX
  8
0
  5
80000561
 10
116.262
 20
717.452
 30
0.000000
  70
    32
  0
VERTEX
  8
0
  5
80000562
 10
117.679
 20
719.836
 30
0.000000
  70
    32
  0
VERTEX
  8
0
  5
80000563
 10
119.095
 20
722.220
 30
0.000000
  70
    32
  0
VERTEX
  8
0
  5
80000564
 10
120.512
 20
724.603
 30
0.000000
  70
    32
  0
VERTEX
  8
0
  5
80000565
 10
121.928
 20
726.987
 30
0.000000
  70
    32
  0
VERTEX
  8
0
  5
80000566
 10
123.345
 20
729.371
 30
0.000000
  70
    32
  0
VERTEX
  8
0
  5
80000567
 10
124.761
 20
731.755
 30
0.000000
  70
    32
  0
VERTEX
  8
0
  5
80000568
 10
126.178
 20
734.138
 30
0.000000
  70
    32
  0
VERTEX
  8
0
  5
80000569
 10
127.594
 20
736.522
 30
0.000000
  70
    32
  0
VERTEX
  8
0
  5
8000056A
 10
129.011
 20
738.906
 30
0.000000
  70
    32
  0
VERTEX
  8
0
  5
8000056B
 10
130.427
 20
741.289
 30
0.000000
  70
    32
  0
VERTEX
  8
0
  5
8000056C
 10
131.844
 20
743.673
 30
0.000000
  70
    32
  0
VERTEX
  8
0
  5
8000056D
 10
133.260
 20
746.057
 30
0.000000
  70
    32
  0
VERTEX
  8
0
  5
8000056E
 10
134.677
 20
748.441
 30
0.000000
  70
    32
  0
VERTEX
  8
0
  5
8000056F
 10
136.093
 20
750.824
 30
0.000000
  70
    32
  0
VERTEX
  8
0
  5
80000570
 10
137.510
 20
753.208
 30
0.000000
  70
    32
  0
VERTEX
  8
0
  5
80000571
 10
138.926
 20
755.592
 30
0.000000
  70
    32
  0
VERTEX
  8
0
  5
80000572
 10
140.343
 20
757.975
 30
0.000000
  70
    32
  0
VERTEX
  8
0
  5
80000573
 10
141.759
 20
760.359
 30
0.000000
  70
    32
  0
VERTEX
  8
0
  5
80000574
 10
143.176
 20
762.743
 30
0.000000
  70
    32
  0
VERTEX
  8
0
  5
80000575
 10
144.592
 20
765.127
 30
0.000000
  70
    32
  0
VERTEX
  8
0
  5
80000576
 10
146.009
 20
767.510
 30
0.000000
  70
    32
  0
VERTEX
  8
0
  5
80000577
 10
147.425
 20
769.894
 30
0.000000
  70
    32
  0
VERTEX
  8
0
  5
80000578
 10
148.842
 20
772.278
 30
0.000000
  70
    32
  0
VERTEX
  8
0
  5
80000579
 10
150.258
 20
774.661
 30
0.000000
  70
    32
  0
VERTEX
  8
0
  5
8000057A
 10
151.675
 20
777.045
 30
0.000000
  70
    32
  0
VERTEX
  8
0
  5
8000057B
 10
153.091
 20
779.429
 30
0.000000
  70
    32
  0
VERTEX
  8
0
  5
8000057C
 10
154.508
 20
781.813
 30
0.000000
  70
    32
  0
VERTEX
  8
0
  5
8000057D
 10
155.924
 20
784.196
 30
0.000000
  70
    32
  0
VERTEX
  8
0
  5
8000057E
 10
157.341
 20
786.580
 30
0.000000
  70
    32
  0
VERTEX
  8
0
  5
8000057F
 10
158.757
 20
788.964
 30
0.000000
  70
    32
  0
VERTEX
  8
0
  5
80000580
 10
160.174
 20
791.347
 30
0.000000
  70
    32
  0
VERTEX
  8
0
  5
80000581
 10
161.590
 20
793.731
 30
0.000000
  70
    32
  0
VERTEX
  8
0
  5
80000582
 10
163.007
 20
796.115
 30
0.000000
  70
    32
  0
VERTEX
  8
0
  5
80000583
 10
164.423
 20
798.499
 30
0.000000
  70
    32
  0
VERTEX
  8
0
  5
80000584
 10
165.840
 20
800.882
 30
0.000000
  70
    32
  0
VERTEX
  8
0
  5
80000585
 10
167.256
 20
803.266
 30
0.000000
  70
    32
  0
VERTEX
  8
0
  5
80000586
 10
168.673
 20
805.650
 30
0.000000
  70
    32
  0
VERTEX
  8
0
  5
80000587
 10
170.089
 20
808.033
 30
0.000000
  70
    32
  0
VERTEX
  8
0
  5
80000588
 10
171.506
 20
810.417
 30
0.000000
  70
    32
  0
VERTEX
  8
0
  5
80000589
 10
172.922
 20
812.801
 30
0.000000
  70
    32
  0
VERTEX
  8
0
  5
8000058A
 10
174.339
 20
815.185
 30
0.000000
  70
    32
  0
VERTEX
  8
0
  5
8000058B
 10
175.755
 20
817.568
 30
0.000000
  70
    32
  0
VERTEX
  8
0
  5
8000058C
 10
177.172
 20
819.952
 30
0.000000
  70
    32
  0
VERTEX
  8
0
  5
8000058D
 10
178.588
 20
822.336
 30
0.000000
  70
    32
  0
VERTEX
  8
0
  5
8000058E
 10
180.005
 20
824.719
 30
0.000000
  70
    32
  0
VERTEX
  8
0
  5
8000058F
 10
181.421
 20
827.103
 30
0.000000
  70
    32
  0
VERTEX
  8
0
  5
80000590
 10
182.838
 20
829.487
 30
0.000000
  70
    32
  0
VERTEX
  8
0
  5
80000591
 10
184.254
 20
831.871
 30
0.000000
  70
    32
  0
VERTEX
  8
0
  5
80000592
 10
185.671
 20
834.254
 30
0.000000
  70
    32
  0
VERTEX
  8
0
  5
80000593
 10
187.087
 20
836.638
 30
0.000000
  70
    32
  0
SEQEND
  8
0
  5
80000594
  0
ENDBLK
  5
FFBBDAE469BC8CB4
  8
0
  0
BLOCK
  8
0
  2
*U49
 70
     1
 10
0.0
 20
0.0
 30
0.0
  3
*U49
  1

  0
TEXT
  5
FFBBDAE469BC8CB6
  8
0
  6
CONTINUOUS
 10
-363.22671298589529
 20
311.63744956714032
 30
0.0
 40
12.5
  1
James Hardie
  7
ARIAL
  0
TEXT
  5
FFBBDAE469BC8CB7
  8
0
  6
CONTINUOUS
 10
-363.89178802000163
 20
290.80411623380689
 30
0.0
 40
12.5
  1
rigid air barrier
  7
ARIAL
  0
TEXT
  5
FFBBDAE469BC8CB8
  8
0
  6
CONTINUOUS
 10
-362.75774982082021
 20
269.75761782543952
 30
0.0
 40
12.5
  1
/Building underlay
  7
ARIAL
  0
ENDBLK
  5
FFBBDAE469BC8CBA
  8
0
  0
BLOCK
  8
0
  2
*U50
 70
     1
 10
0.0
 20
0.0
 30
0.0
  3
*U50
  1

  0
SOLID
  5
FFBBDAE469BC8CBC
  8
0
  6
CONTINUOUS
 10
-175.02706357123699
 20
358.77184465947659
 30
0.0
 11
-167.4072877605586
 21
363.79071072612942
 31
0.0
 12
-172.98744345174529
 22
356.57185607583239
 32
0.0
 13
-172.98744345174529
 23
356.57185607583239
 33
0.0
  0
POLYLINE
  8
0
  5
80000595
  66
     1
 10
0.000000
 20
0.000000
 30
0.000000
  70
     8
  0
VERTEX
  8
0
  5
80000596
 10
-174.007
 20
357.672
 30
0.000000
  70
    32
  0
VERTEX
  8
0
  5
80000597
 10
-174.501
 20
357.209
 30
0.000000
  70
    32
  0
VERTEX
  8
0
  5
80000598
 10
-174.992
 20
356.739
 30
0.000000
  70
    32
  0
VERTEX
  8
0
  5
80000599
 10
-175.481
 20
356.263
 30
0.000000
  70
    32
  0
VERTEX
  8
0
  5
8000059A
 10
-175.966
 20
355.779
 30
0.000000
  70
    32
  0
VERTEX
  8
0
  5
8000059B
 10
-176.450
 20
355.289
 30
0.000000
  70
    32
  0
VERTEX
  8
0
  5
8000059C
 10
-176.930
 20
354.793
 30
0.000000
  70
    32
  0
VERTEX
  8
0
  5
8000059D
 10
-177.409
 20
354.290
 30
0.000000
  70
    32
  0
VERTEX
  8
0
  5
8000059E
 10
-177.884
 20
353.782
 30
0.000000
  70
    32
  0
VERTEX
  8
0
  5
8000059F
 10
-178.358
 20
353.267
 30
0.000000
  70
    32
  0
VERTEX
  8
0
  5
800005A0
 10
-178.829
 20
352.747
 30
0.000000
  70
    32
  0
VERTEX
  8
0
  5
800005A1
 10
-179.299
 20
352.221
 30
0.000000
  70
    32
  0
VERTEX
  8
0
  5
800005A2
 10
-179.766
 20
351.690
 30
0.000000
  70
    32
  0
VERTEX
  8
0
  5
800005A3
 10
-180.231
 20
351.154
 30
0.000000
  70
    32
  0
VERTEX
  8
0
  5
800005A4
 10
-180.694
 20
350.613
 30
0.000000
  70
    32
  0
VERTEX
  8
0
  5
800005A5
 10
-181.155
 20
350.067
 30
0.000000
  70
    32
  0
VERTEX
  8
0
  5
800005A6
 10
-181.614
 20
349.516
 30
0.000000
  70
    32
  0
VERTEX
  8
0
  5
800005A7
 10
-182.072
 20
348.961
 30
0.000000
  70
    32
  0
VERTEX
  8
0
  5
800005A8
 10
-182.528
 20
348.401
 30
0.000000
  70
    32
  0
VERTEX
  8
0
  5
800005A9
 10
-182.982
 20
347.838
 30
0.000000
  70
    32
  0
VERTEX
  8
0
  5
800005AA
 10
-183.435
 20
347.270
 30
0.000000
  70
    32
  0
VERTEX
  8
0
  5
800005AB
 10
-183.886
 20
346.698
 30
0.000000
  70
    32
  0
VERTEX
  8
0
  5
800005AC
 10
-184.336
 20
346.123
 30
0.000000
  70
    32
  0
VERTEX
  8
0
  5
800005AD
 10
-184.784
 20
345.545
 30
0.000000
  70
    32
  0
VERTEX
  8
0
  5
800005AE
 10
-185.231
 20
344.963
 30
0.000000
  70
    32
  0
VERTEX
  8
0
  5
800005AF
 10
-185.677
 20
344.378
 30
0.000000
  70
    32
  0
VERTEX
  8
0
  5
800005B0
 10
-186.122
 20
343.790
 30
0.000000
  70
    32
  0
VERTEX
  8
0
  5
800005B1
 10
-186.566
 20
343.199
 30
0.000000
  70
    32
  0
VERTEX
  8
0
  5
800005B2
 10
-187.008
 20
342.605
 30
0.000000
  70
    32
  0
VERTEX
  8
0
  5
800005B3
 10
-187.450
 20
342.009
 30
0.000000
  70
    32
  0
VERTEX
  8
0
  5
800005B4
 10
-187.891
 20
341.411
 30
0.000000
  70
    32
  0
VERTEX
  8
0
  5
800005B5
 10
-188.331
 20
340.811
 30
0.000000
  70
    32
  0
VERTEX
  8
0
  5
800005B6
 10
-188.770
 20
340.209
 30
0.000000
  70
    32
  0
VERTEX
  8
0
  5
800005B7
 10
-189.208
 20
339.605
 30
0.000000
  70
    32
  0
VERTEX
  8
0
  5
800005B8
 10
-189.646
 20
338.999
 30
0.000000
  70
    32
  0
VERTEX
  8
0
  5
800005B9
 10
-190.083
 20
338.392
 30
0.000000
  70
    32
  0
VERTEX
  8
0
  5
800005BA
 10
-190.520
 20
337.784
 30
0.000000
  70
    32
  0
VERTEX
  8
0
  5
800005BB
 10
-190.957
 20
337.175
 30
0.000000
  70
    32
  0
VERTEX
  8
0
  5
800005BC
 10
-191.393
 20
336.565
 30
0.000000
  70
    32
  0
VERTEX
  8
0
  5
800005BD
 10
-191.828
 20
335.954
 30
0.000000
  70
    32
  0
VERTEX
  8
0
  5
800005BE
 10
-192.264
 20
335.342
 30
0.000000
  70
    32
  0
VERTEX
  8
0
  5
800005BF
 10
-192.699
 20
334.730
 30
0.000000
  70
    32
  0
VERTEX
  8
0
  5
800005C0
 10
-193.135
 20
334.118
 30
0.000000
  70
    32
  0
VERTEX
  8
0
  5
800005C1
 10
-193.570
 20
333.506
 30
0.000000
  70
    32
  0
VERTEX
  8
0
  5
800005C2
 10
-194.005
 20
332.894
 30
0.000000
  70
    32
  0
VERTEX
  8
0
  5
800005C3
 10
-194.441
 20
332.282
 30
0.000000
  70
    32
  0
VERTEX
  8
0
  5
800005C4
 10
-194.876
 20
331.670
 30
0.000000
  70
    32
  0
VERTEX
  8
0
  5
800005C5
 10
-195.312
 20
331.060
 30
0.000000
  70
    32
  0
VERTEX
  8
0
  5
800005C6
 10
-195.748
 20
330.450
 30
0.000000
  70
    32
  0
VERTEX
  8
0
  5
800005C7
 10
-196.185
 20
329.841
 30
0.000000
  70
    32
  0
VERTEX
  8
0
  5
800005C8
 10
-196.622
 20
329.233
 30
0.000000
  70
    32
  0
VERTEX
  8
0
  5
800005C9
 10
-197.059
 20
328.626
 30
0.000000
  70
    32
  0
VERTEX
  8
0
  5
800005CA
 10
-197.497
 20
328.021
 30
0.000000
  70
    32
  0
VERTEX
  8
0
  5
800005CB
 10
-197.936
 20
327.418
 30
0.000000
  70
    32
  0
VERTEX
  8
0
  5
800005CC
 10
-198.375
 20
326.816
 30
0.000000
  70
    32
  0
VERTEX
  8
0
  5
800005CD
 10
-198.815
 20
326.217
 30
0.000000
  70
    32
  0
VERTEX
  8
0
  5
800005CE
 10
-199.256
 20
325.619
 30
0.000000
  70
    32
  0
VERTEX
  8
0
  5
800005CF
 10
-199.698
 20
325.024
 30
0.000000
  70
    32
  0
VERTEX
  8
0
  5
800005D0
 10
-200.141
 20
324.432
 30
0.000000
  70
    32
  0
VERTEX
  8
0
  5
800005D1
 10
-200.585
 20
323.842
 30
0.000000
  70
    32
  0
VERTEX
  8
0
  5
800005D2
 10
-201.030
 20
323.255
 30
0.000000
  70
    32
  0
VERTEX
  8
0
  5
800005D3
 10
-201.477
 20
322.671
 30
0.000000
  70
    32
  0
VERTEX
  8
0
  5
800005D4
 10
-201.924
 20
322.090
 30
0.000000
  70
    32
  0
VERTEX
  8
0
  5
800005D5
 10
-202.373
 20
321.512
 30
0.000000
  70
    32
  0
VERTEX
  8
0
  5
800005D6
 10
-202.823
 20
320.938
 30
0.000000
  70
    32
  0
VERTEX
  8
0
  5
800005D7
 10
-203.275
 20
320.368
 30
0.000000
  70
    32
  0
VERTEX
  8
0
  5
800005D8
 10
-203.728
 20
319.802
 30
0.000000
  70
    32
  0
VERTEX
  8
0
  5
800005D9
 10
-204.183
 20
319.239
 30
0.000000
  70
    32
  0
VERTEX
  8
0
  5
800005DA
 10
-204.640
 20
318.681
 30
0.000000
  70
    32
  0
VERTEX
  8
0
  5
800005DB
 10
-205.098
 20
318.128
 30
0.000000
  70
    32
  0
VERTEX
  8
0
  5
800005DC
 10
-205.558
 20
317.578
 30
0.000000
  70
    32
  0
VERTEX
  8
0
  5
800005DD
 10
-206.020
 20
317.034
 30
0.000000
  70
    32
  0
VERTEX
  8
0
  5
800005DE
 10
-206.483
 20
316.494
 30
0.000000
  70
    32
  0
VERTEX
  8
0
  5
800005DF
 10
-206.949
 20
315.960
 30
0.000000
  70
    32
  0
VERTEX
  8
0
  5
800005E0
 10
-207.417
 20
315.431
 30
0.000000
  70
    32
  0
VERTEX
  8
0
  5
800005E1
 10
-207.887
 20
314.907
 30
0.000000
  70
    32
  0
VERTEX
  8
0
  5
800005E2
 10
-208.359
 20
314.388
 30
0.000000
  70
    32
  0
VERTEX
  8
0
  5
800005E3
 10
-208.833
 20
313.876
 30
0.000000
  70
    32
  0
VERTEX
  8
0
  5
800005E4
 10
-209.310
 20
313.369
 30
0.000000
  70
    32
  0
VERTEX
  8
0
  5
800005E5
 10
-209.789
 20
312.869
 30
0.000000
  70
    32
  0
VERTEX
  8
0
  5
800005E6
 10
-210.271
 20
312.375
 30
0.000000
  70
    32
  0
VERTEX
  8
0
  5
800005E7
 10
-210.755
 20
311.887
 30
0.000000
  70
    32
  0
VERTEX
  8
0
  5
800005E8
 10
-211.241
 20
311.406
 30
0.000000
  70
    32
  0
VERTEX
  8
0
  5
800005E9
 10
-211.730
 20
310.931
 30
0.000000
  70
    32
  0
VERTEX
  8
0
  5
800005EA
 10
-212.222
 20
310.464
 30
0.000000
  70
    32
  0
VERTEX
  8
0
  5
800005EB
 10
-212.717
 20
310.003
 30
0.000000
  70
    32
  0
VERTEX
  8
0
  5
800005EC
 10
-213.215
 20
309.550
 30
0.000000
  70
    32
  0
VERTEX
  8
0
  5
800005ED
 10
-213.716
 20
309.105
 30
0.000000
  70
    32
  0
VERTEX
  8
0
  5
800005EE
 10
-214.219
 20
308.667
 30
0.000000
  70
    32
  0
VERTEX
  8
0
  5
800005EF
 10
-214.726
 20
308.236
 30
0.000000
  70
    32
  0
VERTEX
  8
0
  5
800005F0
 10
-215.236
 20
307.814
 30
0.000000
  70
    32
  0
VERTEX
  8
0
  5
800005F1
 10
-215.749
 20
307.400
 30
0.000000
  70
    32
  0
VERTEX
  8
0
  5
800005F2
 10
-216.265
 20
306.994
 30
0.000000
  70
    32
  0
VERTEX
  8
0
  5
800005F3
 10
-216.784
 20
306.597
 30
0.000000
  70
    32
  0
VERTEX
  8
0
  5
800005F4
 10
-217.307
 20
306.208
 30
0.000000
  70
    32
  0
VERTEX
  8
0
  5
800005F5
 10
-217.834
 20
305.829
 30
0.000000
  70
    32
  0
VERTEX
  8
0
  5
800005F6
 10
-218.364
 20
305.458
 30
0.000000
  70
    32
  0
VERTEX
  8
0
  5
800005F7
 10
-218.897
 20
305.096
 30
0.000000
  70
    32
  0
VERTEX
  8
0
  5
800005F8
 10
-219.434
 20
304.744
 30
0.000000
  70
    32
  0
VERTEX
  8
0
  5
800005F9
 10
-219.975
 20
304.401
 30
0.000000
  70
    32
  0
VERTEX
  8
0
  5
800005FA
 10
-220.520
 20
304.068
 30
0.000000
  70
    32
  0
VERTEX
  8
0
  5
800005FB
 10
-221.069
 20
303.745
 30
0.000000
  70
    32
  0
VERTEX
  8
0
  5
800005FC
 10
-221.621
 20
303.431
 30
0.000000
  70
    32
  0
VERTEX
  8
0
  5
800005FD
 10
-222.178
 20
303.128
 30
0.000000
  70
    32
  0
VERTEX
  8
0
  5
800005FE
 10
-222.738
 20
302.836
 30
0.000000
  70
    32
  0
VERTEX
  8
0
  5
800005FF
 10
-223.303
 20
302.554
 30
0.000000
  70
    32
  0
VERTEX
  8
0
  5
80000600
 10
-223.872
 20
302.282
 30
0.000000
  70
    32
  0
VERTEX
  8
0
  5
80000601
 10
-224.445
 20
302.022
 30
0.000000
  70
    32
  0
VERTEX
  8
0
  5
80000602
 10
-225.022
 20
301.772
 30
0.000000
  70
    32
  0
VERTEX
  8
0
  5
80000603
 10
-225.604
 20
301.534
 30
0.000000
  70
    32
  0
VERTEX
  8
0
  5
80000604
 10
-226.191
 20
301.307
 30
0.000000
  70
    32
  0
VERTEX
  8
0
  5
80000605
 10
-226.782
 20
301.091
 30
0.000000
  70
    32
  0
VERTEX
  8
0
  5
80000606
 10
-227.377
 20
300.888
 30
0.000000
  70
    32
  0
VERTEX
  8
0
  5
80000607
 10
-227.977
 20
300.696
 30
0.000000
  70
    32
  0
VERTEX
  8
0
  5
80000608
 10
-228.582
 20
300.516
 30
0.000000
  70
    32
  0
VERTEX
  8
0
  5
80000609
 10
-229.192
 20
300.349
 30
0.000000
  70
    32
  0
VERTEX
  8
0
  5
8000060A
 10
-229.807
 20
300.194
 30
0.000000
  70
    32
  0
VERTEX
  8
0
  5
8000060B
 10
-230.426
 20
300.051
 30
0.000000
  70
    32
  0
VERTEX
  8
0
  5
8000060C
 10
-231.051
 20
299.922
 30
0.000000
  70
    32
  0
VERTEX
  8
0
  5
8000060D
 10
-231.680
 20
299.805
 30
0.000000
  70
    32
  0
VERTEX
  8
0
  5
8000060E
 10
-232.315
 20
299.701
 30
0.000000
  70
    32
  0
VERTEX
  8
0
  5
8000060F
 10
-232.955
 20
299.611
 30
0.000000
  70
    32
  0
VERTEX
  8
0
  5
80000610
 10
-233.600
 20
299.534
 30
0.000000
  70
    32
  0
VERTEX
  8
0
  5
80000611
 10
-234.251
 20
299.471
 30
0.000000
  70
    32
  0
VERTEX
  8
0
  5
80000612
 10
-234.906
 20
299.421
 30
0.000000
  70
    32
  0
VERTEX
  8
0
  5
80000613
 10
-235.568
 20
299.386
 30
0.000000
  70
    32
  0
VERTEX
  8
0
  5
80000614
 10
-236.235
 20
299.364
 30
0.000000
  70
    32
  0
VERTEX
  8
0
  5
80000615
 10
-236.907
 20
299.357
 30
0.000000
  70
    32
  0
SEQEND
  8
0
  5
80000616
  0
ENDBLK
  5
FFBBDAE469BC8CBF
  8
0
  0
BLOCK
  8
0
  2
*U51
 70
     1
 10
0.0
 20
0.0
 30
0.0
  3
*U51
  1

  0
SOLID
  5
FFBBDAE469BC8CC1
  8
0
  6
CONTINUOUS
 10
-8.3390653508389683
 20
593.41484706421625
 30
0.0
 11
-0.1882821506560859
 21
589.31426988245084
 31
0.0
 12
-9.2283993989692696
 22
590.54969698946695
 32
0.0
 13
-9.2283993989692696
 23
590.54969698946695
 33
0.0
  0
POLYLINE
  8
0
  5
80000617
  66
     1
 10
0.000000
 20
0.000000
 30
0.000000
  70
     8
  0
VERTEX
  8
0
  5
80000618
 10
-8.78373
 20
591.982
 30
0.000000
  70
    32
  0
VERTEX
  8
0
  5
80000619
 10
-10.4728
 20
592.511
 30
0.000000
  70
    32
  0
VERTEX
  8
0
  5
8000061A
 10
-12.1606
 20
593.047
 30
0.000000
  70
    32
  0
VERTEX
  8
0
  5
8000061B
 10
-13.8472
 20
593.592
 30
0.000000
  70
    32
  0
VERTEX
  8
0
  5
8000061C
 10
-15.5326
 20
594.144
 30
0.000000
  70
    32
  0
VERTEX
  8
0
  5
8000061D
 10
-17.2169
 20
594.704
 30
0.000000
  70
    32
  0
VERTEX
  8
0
  5
8000061E
 10
-18.9001
 20
595.271
 30
0.000000
  70
    32
  0
VERTEX
  8
0
  5
8000061F
 10
-20.5822
 20
595.845
 30
0.000000
  70
    32
  0
VERTEX
  8
0
  5
80000620
 10
-22.2633
 20
596.426
 30
0.000000
  70
    32
  0
VERTEX
  8
0
  5
80000621
 10
-23.9434
 20
597.013
 30
0.000000
  70
    32
  0
VERTEX
  8
0
  5
80000622
 10
-25.6225
 20
597.607
 30
0.000000
  70
    32
  0
VERTEX
  8
0
  5
80000623
 10
-27.3006
 20
598.208
 30
0.000000
  70
    32
  0
VERTEX
  8
0
  5
80000624
 10
-28.9778
 20
598.814
 30
0.000000
  70
    32
  0
VERTEX
  8
0
  5
80000625
 10
-30.6541
 20
599.427
 30
0.000000
  70
    32
  0
VERTEX
  8
0
  5
80000626
 10
-32.3295
 20
600.045
 30
0.000000
  70
    32
  0
VERTEX
  8
0
  5
80000627
 10
-34.0041
 20
600.669
 30
0.000000
  70
    32
  0
VERTEX
  8
0
  5
80000628
 10
-35.6779
 20
601.298
 30
0.000000
  70
    32
  0
VERTEX
  8
0
  5
80000629
 10
-37.3509
 20
601.932
 30
0.000000
  70
    32
  0
VERTEX
  8
0
  5
8000062A
 10
-39.0232
 20
602.571
 30
0.000000
  70
    32
  0
VERTEX
  8
0
  5
8000062B
 10
-40.6947
 20
603.215
 30
0.000000
  70
    32
  0
VERTEX
  8
0
  5
8000062C
 10
-42.3656
 20
603.863
 30
0.000000
  70
    32
  0
VERTEX
  8
0
  5
8000062D
 10
-44.0358
 20
604.516
 30
0.000000
  70
    32
  0
VERTEX
  8
0
  5
8000062E
 10
-45.7053
 20
605.173
 30
0.000000
  70
    32
  0
VERTEX
  8
0
  5
8000062F
 10
-47.3743
 20
605.834
 30
0.000000
  70
    32
  0
VERTEX
  8
0
  5
80000630
 10
-49.0427
 20
606.498
 30
0.000000
  70
    32
  0
VERTEX
  8
0
  5
80000631
 10
-50.7105
 20
607.167
 30
0.000000
  70
    32
  0
VERTEX
  8
0
  5
80000632
 10
-52.3778
 20
607.838
 30
0.000000
  70
    32
  0
VERTEX
  8
0
  5
80000633
 10
-54.0447
 20
608.513
 30
0.000000
  70
    32
  0
VERTEX
  8
0
  5
80000634
 10
-55.7111
 20
609.191
 30
0.000000
  70
    32
  0
VERTEX
  8
0
  5
80000635
 10
-57.3770
 20
609.872
 30
0.000000
  70
    32
  0
VERTEX
  8
0
  5
80000636
 10
-59.0426
 20
610.555
 30
0.000000
  70
    32
  0
VERTEX
  8
0
  5
80000637
 10
-60.7078
 20
611.240
 30
0.000000
  70
    32
  0
VERTEX
  8
0
  5
80000638
 10
-62.3727
 20
611.928
 30
0.000000
  70
    32
  0
VERTEX
  8
0
  5
80000639
 10
-64.0373
 20
612.618
 30
0.000000
  70
    32
  0
VERTEX
  8
0
  5
8000063A
 10
-65.7015
 20
613.310
 30
0.000000
  70
    32
  0
VERTEX
  8
0
  5
8000063B
 10
-67.3656
 20
614.003
 30
0.000000
  70
    32
  0
VERTEX
  8
0
  5
8000063C
 10
-69.0294
 20
614.698
 30
0.000000
  70
    32
  0
VERTEX
  8
0
  5
8000063D
 10
-70.6931
 20
615.394
 30
0.000000
  70
    32
  0
VERTEX
  8
0
  5
8000063E
 10
-72.3565
 20
616.091
 30
0.000000
  70
    32
  0
VERTEX
  8
0
  5
8000063F
 10
-74.0199
 20
616.789
 30
0.000000
  70
    32
  0
VERTEX
  8
0
  5
80000640
 10
-75.6831
 20
617.487
 30
0.000000
  70
    32
  0
VERTEX
  8
0
  5
80000641
 10
-77.3463
 20
618.186
 30
0.000000
  70
    32
  0
VERTEX
  8
0
  5
80000642
 10
-79.0095
 20
618.885
 30
0.000000
  70
    32
  0
VERTEX
  8
0
  5
80000643
 10
-80.6726
 20
619.584
 30
0.000000
  70
    32
  0
VERTEX
  8
0
  5
80000644
 10
-82.3358
 20
620.284
 30
0.000000
  70
    32
  0
VERTEX
  8
0
  5
80000645
 10
-83.9990
 20
620.982
 30
0.000000
  70
    32
  0
VERTEX
  8
0
  5
80000646
 10
-85.6623
 20
621.681
 30
0.000000
  70
    32
  0
VERTEX
  8
0
  5
80000647
 10
-87.3257
 20
622.378
 30
0.000000
  70
    32
  0
VERTEX
  8
0
  5
80000648
 10
-88.9892
 20
623.075
 30
0.000000
  70
    32
  0
VERTEX
  8
0
  5
80000649
 10
-90.6529
 20
623.770
 30
0.000000
  70
    32
  0
VERTEX
  8
0
  5
8000064A
 10
-92.3168
 20
624.465
 30
0.000000
  70
    32
  0
VERTEX
  8
0
  5
8000064B
 10
-93.9809
 20
625.157
 30
0.000000
  70
    32
  0
VERTEX
  8
0
  5
8000064C
 10
-95.6453
 20
625.849
 30
0.000000
  70
    32
  0
VERTEX
  8
0
  5
8000064D
 10
-97.3100
 20
626.538
 30
0.000000
  70
    32
  0
VERTEX
  8
0
  5
8000064E
 10
-98.9749
 20
627.225
 30
0.000000
  70
    32
  0
VERTEX
  8
0
  5
8000064F
 10
-100.640
 20
627.910
 30
0.000000
  70
    32
  0
VERTEX
  8
0
  5
80000650
 10
-102.306
 20
628.592
 30
0.000000
  70
    32
  0
VERTEX
  8
0
  5
80000651
 10
-103.972
 20
629.272
 30
0.000000
  70
    32
  0
VERTEX
  8
0
  5
80000652
 10
-105.639
 20
629.949
 30
0.000000
  70
    32
  0
VERTEX
  8
0
  5
80000653
 10
-107.306
 20
630.622
 30
0.000000
  70
    32
  0
VERTEX
  8
0
  5
80000654
 10
-108.973
 20
631.293
 30
0.000000
  70
    32
  0
VERTEX
  8
0
  5
80000655
 10
-110.641
 20
631.960
 30
0.000000
  70
    32
  0
VERTEX
  8
0
  5
80000656
 10
-112.310
 20
632.623
 30
0.000000
  70
    32
  0
VERTEX
  8
0
  5
80000657
 10
-113.979
 20
633.283
 30
0.000000
  70
    32
  0
VERTEX
  8
0
  5
80000658
 10
-115.649
 20
633.939
 30
0.000000
  70
    32
  0
VERTEX
  8
0
  5
80000659
 10
-117.319
 20
634.590
 30
0.000000
  70
    32
  0
VERTEX
  8
0
  5
8000065A
 10
-118.990
 20
635.237
 30
0.000000
  70
    32
  0
VERTEX
  8
0
  5
8000065B
 10
-120.662
 20
635.879
 30
0.000000
  70
    32
  0
VERTEX
  8
0
  5
8000065C
 10
-122.334
 20
636.517
 30
0.000000
  70
    32
  0
VERTEX
  8
0
  5
8000065D
 10
-124.008
 20
637.149
 30
0.000000
  70
    32
  0
VERTEX
  8
0
  5
8000065E
 10
-125.682
 20
637.776
 30
0.000000
  70
    32
  0
VERTEX
  8
0
  5
8000065F
 10
-127.357
 20
638.398
 30
0.000000
  70
    32
  0
VERTEX
  8
0
  5
80000660
 10
-129.032
 20
639.015
 30
0.000000
  70
    32
  0
VERTEX
  8
0
  5
80000661
 10
-130.709
 20
639.625
 30
0.000000
  70
    32
  0
VERTEX
  8
0
  5
80000662
 10
-132.386
 20
640.230
 30
0.000000
  70
    32
  0
VERTEX
  8
0
  5
80000663
 10
-134.065
 20
640.828
 30
0.000000
  70
    32
  0
VERTEX
  8
0
  5
80000664
 10
-135.744
 20
641.420
 30
0.000000
  70
    32
  0
VERTEX
  8
0
  5
80000665
 10
-137.425
 20
642.005
 30
0.000000
  70
    32
  0
VERTEX
  8
0
  5
80000666
 10
-139.106
 20
642.584
 30
0.000000
  70
    32
  0
VERTEX
  8
0
  5
80000667
 10
-140.789
 20
643.156
 30
0.000000
  70
    32
  0
VERTEX
  8
0
  5
80000668
 10
-142.472
 20
643.720
 30
0.000000
  70
    32
  0
VERTEX
  8
0
  5
80000669
 10
-144.157
 20
644.277
 30
0.000000
  70
    32
  0
VERTEX
  8
0
  5
8000066A
 10
-145.843
 20
644.827
 30
0.000000
  70
    32
  0
VERTEX
  8
0
  5
8000066B
 10
-147.530
 20
645.369
 30
0.000000
  70
    32
  0
VERTEX
  8
0
  5
8000066C
 10
-149.218
 20
645.903
 30
0.000000
  70
    32
  0
VERTEX
  8
0
  5
8000066D
 10
-150.907
 20
646.429
 30
0.000000
  70
    32
  0
VERTEX
  8
0
  5
8000066E
 10
-152.598
 20
646.946
 30
0.000000
  70
    32
  0
VERTEX
  8
0
  5
8000066F
 10
-154.290
 20
647.455
 30
0.000000
  70
    32
  0
VERTEX
  8
0
  5
80000670
 10
-155.983
 20
647.955
 30
0.000000
  70
    32
  0
VERTEX
  8
0
  5
80000671
 10
-157.678
 20
648.447
 30
0.000000
  70
    32
  0
VERTEX
  8
0
  5
80000672
 10
-159.374
 20
648.929
 30
0.000000
  70
    32
  0
VERTEX
  8
0
  5
80000673
 10
-161.071
 20
649.402
 30
0.000000
  70
    32
  0
VERTEX
  8
0
  5
80000674
 10
-162.770
 20
649.865
 30
0.000000
  70
    32
  0
VERTEX
  8
0
  5
80000675
 10
-164.471
 20
650.319
 30
0.000000
  70
    32
  0
VERTEX
  8
0
  5
80000676
 10
-166.173
 20
650.763
 30
0.000000
  70
    32
  0
VERTEX
  8
0
  5
80000677
 10
-167.876
 20
651.197
 30
0.000000
  70
    32
  0
VERTEX
  8
0
  5
80000678
 10
-169.581
 20
651.620
 30
0.000000
  70
    32
  0
VERTEX
  8
0
  5
80000679
 10
-171.287
 20
652.033
 30
0.000000
  70
    32
  0
VERTEX
  8
0
  5
8000067A
 10
-172.996
 20
652.436
 30
0.000000
  70
    32
  0
VERTEX
  8
0
  5
8000067B
 10
-174.705
 20
652.827
 30
0.000000
  70
    32
  0
VERTEX
  8
0
  5
8000067C
 10
-176.417
 20
653.208
 30
0.000000
  70
    32
  0
VERTEX
  8
0
  5
8000067D
 10
-178.130
 20
653.577
 30
0.000000
  70
    32
  0
VERTEX
  8
0
  5
8000067E
 10
-179.845
 20
653.935
 30
0.000000
  70
    32
  0
VERTEX
  8
0
  5
8000067F
 10
-181.562
 20
654.281
 30
0.000000
  70
    32
  0
VERTEX
  8
0
  5
80000680
 10
-183.280
 20
654.615
 30
0.000000
  70
    32
  0
VERTEX
  8
0
  5
80000681
 10
-185.000
 20
654.938
 30
0.000000
  70
    32
  0
VERTEX
  8
0
  5
80000682
 10
-186.723
 20
655.248
 30
0.000000
  70
    32
  0
VERTEX
  8
0
  5
80000683
 10
-188.447
 20
655.545
 30
0.000000
  70
    32
  0
VERTEX
  8
0
  5
80000684
 10
-190.173
 20
655.830
 30
0.000000
  70
    32
  0
VERTEX
  8
0
  5
80000685
 10
-191.900
 20
656.102
 30
0.000000
  70
    32
  0
VERTEX
  8
0
  5
80000686
 10
-193.630
 20
656.362
 30
0.000000
  70
    32
  0
VERTEX
  8
0
  5
80000687
 10
-195.362
 20
656.608
 30
0.000000
  70
    32
  0
VERTEX
  8
0
  5
80000688
 10
-197.096
 20
656.840
 30
0.000000
  70
    32
  0
VERTEX
  8
0
  5
80000689
 10
-198.832
 20
657.059
 30
0.000000
  70
    32
  0
VERTEX
  8
0
  5
8000068A
 10
-200.570
 20
657.264
 30
0.000000
  70
    32
  0
VERTEX
  8
0
  5
8000068B
 10
-202.310
 20
657.456
 30
0.000000
  70
    32
  0
VERTEX
  8
0
  5
8000068C
 10
-204.053
 20
657.633
 30
0.000000
  70
    32
  0
VERTEX
  8
0
  5
8000068D
 10
-205.797
 20
657.795
 30
0.000000
  70
    32
  0
VERTEX
  8
0
  5
8000068E
 10
-207.544
 20
657.943
 30
0.000000
  70
    32
  0
VERTEX
  8
0
  5
8000068F
 10
-209.293
 20
658.077
 30
0.000000
  70
    32
  0
VERTEX
  8
0
  5
80000690
 10
-211.044
 20
658.195
 30
0.000000
  70
    32
  0
VERTEX
  8
0
  5
80000691
 10
-212.797
 20
658.298
 30
0.000000
  70
    32
  0
VERTEX
  8
0
  5
80000692
 10
-214.553
 20
658.386
 30
0.000000
  70
    32
  0
VERTEX
  8
0
  5
80000693
 10
-216.312
 20
658.459
 30
0.000000
  70
    32
  0
VERTEX
  8
0
  5
80000694
 10
-218.072
 20
658.515
 30
0.000000
  70
    32
  0
VERTEX
  8
0
  5
80000695
 10
-219.835
 20
658.556
 30
0.000000
  70
    32
  0
VERTEX
  8
0
  5
80000696
 10
-221.601
 20
658.581
 30
0.000000
  70
    32
  0
VERTEX
  8
0
  5
80000697
 10
-223.368
 20
658.589
 30
0.000000
  70
    32
  0
SEQEND
  8
0
  5
80000698
  0
ENDBLK
  5
FFBBDAE469BC8CC4
  8
0
  0
BLOCK
  8
0
  2
*U52
 70
     1
 10
0.0
 20
0.0
 30
0.0
  3
*U52
  1

  0
TEXT
  5
FFBBDAE469BC8CCA
  8
0
  6
CONTINUOUS
 62
     0
 10
373.7262245259725
 20
244.13637532316429
 30
0.0
 40
12.5
  1
15mm gap
 50
90.0
  7
ARIAL
  0
ENDBLK
  5
FFBBDAE469BC8CCC
  8
0
  0
ENDSEC
  0
SECTION
  2
ENTITIES
  0
INSERT
  5
FFBBDAE469BC0613
  8
0
  6
CONTINUOUS
  2
*X13
 10
0.0
 20
0.0
 30
0.0
1001
ACAD
1000
HATCH
1002
{
1070
    19
1000
_USER
1040
10.0
1040
5.4977871437821371
1000
R14_HATCH_DATA
1000
FFBBDAE469BC0613
1011
1.0
1021
0.0
1031
0.0
1021
0.0
1031
0.0
1011
0.0
1021
0.0
1031
0.0
1021
1.0
1031
0.0
1011
0.0
1021
0.0
1031
0.0
1021
0.0
1031
1.0
1040
0.0
1010
0.0
1020
0.0
1030
1.0
1000
_USER
1070
     0
1070
     0
1071
        2
1071
        1
1071
       11
1070
     1
1040
139.21711342472821
1040
642.14141362887563
1040
-34.033888307608322
1040
707.16397047266275
1070
     1
1040
-34.033888307608322
1040
707.16397047266275
1040
-33.900803906460169
1040
645.62438966354807
1070
     1
1040
-33.900803906460169
1040
645.62438966354807
1040
-40.473361976890367
1040
636.49578332850979
1070
     1
1040
-40.473361976890367
1040
636.49578332850979
1040
-15.185896274912009
1040
627.00518495042877
1070
     1
1040
-15.185896274912009
1040
627.00518495042877
1040
-8.6133382044845348
1040
636.13379128546865
1070
     1
1040
-8.6133382044845348
1040
636.13379128546865
1040
84.551009118576076
1040
601.16842883989671
1070
     1
1040
84.551009118576076
1040
601.16842883989671
1040
84.551009118550823
1040
482.96055511673308
1070
     1
1040
84.551009118550823
1040
482.96055511673308
1040
82.148445223033363
1040
483.40822614848929
1070
     1
1040
82.148445223033363
1040
483.40822614848929
1040
115.5202571945874
1040
477.19003835138051
1070
     1
1040
115.5202571945874
1040
477.19003835138051
1040
139.21711342472821
1040
475.04310454584419
1070
     1
1040
139.21711342472821
1040
475.04310454584419
1040
139.21711342472821
1040
642.14141362887563
1071
        0
1071
        1
1071
       16
1070
     1
1040
-47.045920047600703
1040
627.36717699308815
1040
-34.033888307608322
1040
645.43954913503671
1070
     1
1040
-34.033888307608322
1040
645.43954913503671
1040
-34.033888307608322
1040
707.1639704726623
1070
     1
1040
-34.033888307608322
1040
707.1639704726623
1040
-142.15959757871769
1040
556.98849479710191
1070
     1
1040
-142.15959757871769
1040
556.98849479710191
1040
-142.15959757871769
1040
176.17059433571669
1070
     1
1040
-142.15959757871769
1040
176.17059433571669
1040
-141.5406853922986
1040
168.79000337503311
1070
     1
1040
-141.5406853922986
1040
168.79000337503311
1040
-131.30699879481199
1040
139.13051983846361
1070
     1
1040
-131.30699879481199
1040
139.13051983846361
1040
-114.8220000712908
1040
122.66955494223581
1070
     1
1040
-114.8220000712908
1040
122.66955494223581
1040
-106.2215117962923
1040
125.227585402664
1070
     1
1040
-106.2215117962923
1040
125.227585402664
1040
-83.5822100100022
1040
135.3316075650184
1070
     1
1040
-83.5822100100022
1040
135.3316075650184
1040
-83.5822100100022
1040
342.17133727373152
1070
     1
1040
-83.5822100100022
1040
342.17133727373152
1040
-78.616946328919767
1040
349.8800677826186
1070
     1
1040
-78.616946328919767
1040
349.8800677826186
1040
-96.727326151408306
1040
360.46118625060291
1070
     1
1040
-96.727326151408306
1040
360.46118625060291
1040
-96.727326151408306
1040
396.78630296657519
1070
     1
1040
-96.727326151408306
1040
396.78630296657519
1040
-88.173203886636429
1040
408.27841649296442
1070
     1
1040
-88.173203886636429
1040
408.27841649296442
1040
-88.17320388663029
1040
570.24561492052999
1070
     1
1040
-88.17320388663029
1040
570.24561492052999
1040
-47.045920047600703
1040
627.36717699308815
1071
        0
1070
     0
1070
     0
1040
5.4977871437821371
1040
10.0
1070
     0
1070
     1
1040
5.4977871437821371
1040
-5890.5056508351881
1040
-2859.5839696795492
1040
7.0710678118654773
1040
7.0710678118654728
1070
     0
1071
        2
1040
101.75561105970969
1040
608.42946420725207
1040
0.0
1040
-110.20121448438471
1040
611.384842139478
1040
0.0
1002
}
  0
INSERT
  5
FFBBDAE469BC061A
  8
0
  6
CONTINUOUS
  2
*U14
 10
0.0
 20
0.0
 30
0.0
  0
INSERT
  5
FFBBDAE469BC061B
  8
0
  6
CONTINUOUS
  2
*U15
 10
0.0
 20
0.0
 30
0.0
  0
INSERT
  5
FFBBDAE469BC061D
  8
0
  6
CONTINUOUS
  2
*U16
 10
0.0
 20
0.0
 30
0.0
  0
INSERT
  5
FFBBDAE469BC061E
  8
0
  6
CONTINUOUS
  2
*U17
 10
0.0
 20
0.0
 30
0.0
  0
INSERT
  5
FFBBDAE469BC061F
  8
0
  6
CONTINUOUS
  2
*U18
 10
0.0
 20
0.0
 30
0.0
  0
INSERT
  5
FFBBDAE469BC0620
  8
0
  6
CONTINUOUS
  2
*U19
 10
0.0
 20
0.0
 30
0.0
  0
INSERT
  5
FFBBDAE469BC0621
  8
0
  6
CONTINUOUS
  2
*U20
 10
0.0
 20
0.0
 30
0.0
  0
INSERT
  5
FFBBDAE469BC0622
  8
0
  6
CONTINUOUS
  2
*U21
 10
0.0
 20
0.0
 30
0.0
  0
DIMENSION
  5
FFBBDAE469BC0623
  8
0
  6
CONTINUOUS
  2
*D11
 10
346.14634221672532
 20
295.74330149433189
 30
0.0
 11
369.31370747276651
 21
285.98920615536082
 31
0.0
 70
   128
  1
15mm gap
 13
285.04843995832829
 23
280.29550757159973
 33
0.0
 14
284.9619589310833
 24
295.74330149433189
 34
0.0
 50
90.0
  0
INSERT
  5
FFBBDAE469BC0624
  8
0
  6
CONTINUOUS
  2
*U22
 10
0.0
 20
0.0
 30
0.0
  0
INSERT
  5
FFBBDAE469BC0626
  8
0
  6
CONTINUOUS
  2
*U23
 10
0.0
 20
0.0
 30
0.0
  0
LINE
  5
FFBBDAE469BC0627
  8
0
  6
CONTINUOUS
 10
-88.173203886637566
 20
378.35290857883058
 30
0.0
 11
-33.900803906460169
 21
453.89495658635718
 31
0.0
  0
LINE
  5
FFBBDAE469BC0628
  8
0
  6
CONTINUOUS
 10
-8.7464226056335974
 20
444.21911730821529
 30
0.0
 11
84.551009118577895
 21
409.25375486263982
 31
0.0
  0
LINE
  5
FFBBDAE469BC0629
  8
0
  6
CONTINUOUS
 10
84.551009118577895
 20
409.25375486263982
 30
0.0
 11
71.405892977139956
 21
390.99654219178069
 31
0.0
  0
LINE
  5
FFBBDAE469BC062A
  8
0
  6
CONTINUOUS
 10
71.405892977139956
 20
390.99654219178069
 30
0.0
 11
-21.61003677746794
 21
425.90620227673003
 31
0.0
  0
LINE
  5
FFBBDAE469BC062B
  8
0
  6
CONTINUOUS
 10
84.551009118576985
 20
409.69939622932009
 30
0.0
 11
84.551009118558795
 21
482.04752144924919
 31
0.0
  0
LINE
  5
FFBBDAE469BC062C
  8
0
  6
CONTINUOUS
 10
71.40589297713359
 20
488.25344639813028
 30
0.0
 11
71.405892977139956
 21
390.99654219178069
 31
0.0
  0
LINE
  5
FFBBDAE469BC062D
  8
0
  6
CONTINUOUS
 10
-62.885738184662841
 20
368.7508281865567
 30
0.0
 11
-10.967688924153659
 21
445.33556922260232
 31
0.0
  0
INSERT
  5
FFBBDAE469BC062E
  8
0
  6
CONTINUOUS
  2
*U24
 10
0.0
 20
0.0
 30
0.0
  0
LINE
  5
FFBBDAE469BC062F
  8
0
  6
CONTINUOUS
 10
-186.2279324477613
 20
546.43624740675409
 30
0.0
 11
-186.2279324477613
 21
541.74021749083499
 31
0.0
  0
LINE
  5
FFBBDAE469BC0630
  8
0
  6
CONTINUOUS
 10
-66.445200175255195
 20
712.80212762158067
 30
0.0
 11
-66.445200175255195
 21
708.10609770567419
 31
0.0
  0
LINE
  5
FFBBDAE469BC0631
  8
0
  6
CONTINUOUS
 10
-35.312030366633742
 20
756.04289447360338
 30
0.0
 11
-35.312030366633742
 21
751.34686455766064
 31
0.0
  0
LINE
  5
FFBBDAE469BC0632
  8
0
  6
CONTINUOUS
 10
24.579335769615678
 20
733.56516147288517
 30
0.0
 11
24.579335769615678
 21
731.12403671267452
 31
0.0
  0
LINE
  5
FFBBDAE469BC0633
  8
0
  6
CONTINUOUS
 10
86.845675386889525
 20
710.19608096694833
 30
0.0
 11
86.845675386889525
 21
707.75495620672859
 31
0.0
  0
POLYLINE
  5
FFBBDAE469BC0634
  8
0
  6
CONTINUOUS
 66
     1
 10
0.0
 20
0.0
 30
0.0
  0
VERTEX
  5
FFBBDAE469BC8AFB
  8
0
  6
CONTINUOUS
 10
-21.67956594438056
 20
565.95394725463143
 30
0.0
  0
VERTEX
  5
FFBBDAE469BC8AFC
  8
0
  6
CONTINUOUS
 10
-21.54984440349654
 20
566.1341171165343
 30
0.0
  0
VERTEX
  5
FFBBDAE469BC8AFD
  8
0
  6
CONTINUOUS
 10
-20.218925156023939
 20
565.63461193874014
 30
0.0
  0
SEQEND
  5
FFBBDAE469BC8AFE
  8
0
  6
CONTINUOUS
  0
ARC
  5
FFBBDAE469BC0635
  8
0
  6
CONTINUOUS
 10
60.132053185388031
 20
368.66363452176421
 30
0.0
 40
64.2119885167088
 50
150.66051394141749
 51
160.2965388569026
  0
INSERT
  5
FFBBDAE469BC0636
  8
0
  6
CONTINUOUS
  2
*U25
 10
0.0
 20
0.0
 30
0.0
  0
LINE
  5
FFBBDAE469BC0637
  8
0
  6
CONTINUOUS
 10
139.21711342472821
 20
642.14141362887563
 30
0.0
 11
139.21711342472821
 21
475.04310454584419
 31
0.0
  0
LINE
  5
FFBBDAE469BC0638
  8
0
  6
CONTINUOUS
 10
-142.15959757871769
 20
556.98849479710145
 30
0.0
 11
-142.15959757871769
 21
176.1705943357162
 31
0.0
  0
LINE
  5
FFBBDAE469BC0639
  8
0
  6
CONTINUOUS
 10
-6.6402576539248912
 20
20.648009902238471
 30
0.0
 11
0.0000000000009095
 21
18.15586540412567
 31
0.0
  0
LINE
  5
FFBBDAE469BC063A
  8
0
  6
CONTINUOUS
 10
-21.830803490336621
 20
356.21112165470208
 30
0.0
 11
-21.840897730814511
 21
194.48848659143209
 31
0.0
  0
INSERT
  5
FFBBDAE469BC063B
  8
0
  6
CONTINUOUS
  2
*U26
 10
0.0
 20
0.0
 30
0.0
  0
INSERT
  5
FFBBDAE469BC063C
  8
0
  6
CONTINUOUS
  2
*U27
 10
0.0
 20
0.0
 30
0.0
  0
INSERT
  5
FFBBDAE469BC063D
  8
0
  6
CONTINUOUS
  2
*U28
 10
0.0
 20
0.0
 30
0.0
  0
INSERT
  5
FFBBDAE469BC063E
  8
0
  6
CONTINUOUS
  2
*U29
 10
0.0
 20
0.0
 30
0.0
  0
INSERT
  5
FFBBDAE469BC063F
  8
0
  6
CONTINUOUS
  2
*U30
 10
0.0
 20
0.0
 30
0.0
  0
INSERT
  5
FFBBDAE469BC0640
  8
0
  6
CONTINUOUS
  2
*U31
 10
0.0
 20
0.0
 30
0.0
  0
INSERT
  5
FFBBDAE469BC0641
  8
0
  6
CONTINUOUS
  2
*U32
 10
0.0
 20
0.0
 30
0.0
  0
INSERT
  5
FFBBDAE469BC0643
  8
0
  6
CONTINUOUS
  2
*U33
 10
0.0
 20
0.0
 30
0.0
  0
INSERT
  5
FFBBDAE469BC0644
  8
0
  6
CONTINUOUS
  2
*U34
 10
0.0
 20
0.0
 30
0.0
  0
INSERT
  5
FFBBDAE469BC0645
  8
0
  6
CONTINUOUS
  2
*U35
 10
0.0
 20
0.0
 30
0.0
  0
POLYLINE
  5
FFBBDAE469BC0646
  8
0
  6
CONTINUOUS
 66
     1
 10
0.0
 20
0.0
 30
0.0
  0
VERTEX
  5
FFBBDAE469BC8B38
  8
0
  6
CONTINUOUS
 10
-142.15959757871769
 20
556.98849479710145
 30
0.0
  0
VERTEX
  5
FFBBDAE469BC8B39
  8
0
  6
CONTINUOUS
 10
-34.033888307608322
 20
707.16397047266275
 30
0.0
  0
VERTEX
  5
FFBBDAE469BC8B3A
  8
0
  6
CONTINUOUS
 10
139.21711342472821
 20
642.14141362887563
 30
0.0
  0
SEQEND
  5
FFBBDAE469BC8B3B
  8
0
  6
CONTINUOUS
  0
LINE
  5
FFBBDAE469BC0647
  8
0
  6
CONTINUOUS
 10
-34.033888307608322
 20
707.1639704726623
 30
0.0
 11
-33.875707656096338
 21
634.01962821933375
 31
0.0
  0
LINE
  5
FFBBDAE469BC0648
  8
0
  6
CONTINUOUS
 10
71.846808984315643
 20
339.88213644338322
 30
0.0
 11
72.182828096334561
 21
172.0373126760667
 31
0.0
  0
LINE
  5
FFBBDAE469BC0649
  8
0
  6
CONTINUOUS
 10
139.21711342472821
 20
314.59749504876783
 30
0.0
 11
139.21711342472821
 21
168.8190393284988
 31
0.0
  0
LINE
  5
FFBBDAE469BC0847
  8
0
  6
CONTINUOUS
 10
-33.900803906460169
 20
453.89495658635718
 30
0.0
 11
-11.32752040454807
 21
445.98441274630841
 31
0.0
  0
LINE
  5
FFBBDAE469BC084A
  8
0
  6
CONTINUOUS
 10
-33.900803906460169
 20
511.23996918723509
 30
0.0
 11
-33.900803906460169
 21
453.89495658635718
 31
0.0
  0
LINE
  5
FFBBDAE469BC084B
  8
0
  6
CONTINUOUS
 10
-11.248278309903069
 20
538.71567890496885
 30
0.0
 11
-11.32752040454807
 21
445.98441274630841
 31
0.0
  0
INSERT
  5
FFBBDAE469BC28D6
  8
0
  6
CONTINUOUS
  2
*U36
 10
0.0
 20
0.0
 30
0.0
1001
GRADIENTCOLOR1ACI
1070
     5
1001
GRADIENTCOLOR2ACI
1070
     2
1001
ACAD
1002
{
1000
R14_HATCH_DATA
1000
FFBBDAE469BC28D6
1011
1.0
1021
0.0
1031
0.0
1021
0.0
1031
0.0
1011
0.0
1021
0.0
1031
0.0
1021
1.0
1031
0.0
1011
0.0
1021
0.0
1031
0.0
1021
0.0
1031
1.0
1040
0.0
1010
0.0
1020
0.0
1030
1.0
1000
SOLID
1070
     1
1070
     0
1071
        1
1071
        7
1070
     0
1070
     1
1071
       17
1040
-58.294744308032023
1040
155.67732931588779
1040
-50.73959245237527
1040
162.20482743570579
1040
-21.84071239530407
1040
197.45779836718589
1040
-21.830803413900021
1040
356.21234626662698
1040
-28.684553291976648
1040
346.69319346716821
1040
-30.104094853073551
1040
348.00106724247422
1040
-29.196048435533161
1040
348.67154307899909
1040
-27.243245848927469
1040
359.85374159726138
1040
-27.285029767679589
1040
360.58228103654528
1040
-27.533849192739581
1040
361.3623815269566
1040
-27.97663411862775
1040
362.15306589125521
1040
-28.59012590545715
1040
362.91280100167393
1040
-29.342099010495112
1040
363.6016794351836
1040
-30.193053733920081
1040
364.18351573361468
1040
-31.586463293658898
1040
364.85126903715383
1040
-46.897502479469132
1040
343.58581229872919
1040
-58.503221840710466
1040
326.7359124519424
1071
        0
1070
     0
1070
     1
1040
1.3283426582453539
1071
        1
1040
-55.604385292514962
1040
288.05421875573421
1040
0.0
1002
}
  0
INSERT
  5
FFBBDAE469BC28D7
  8
0
  6
CONTINUOUS
  2
*U37
 10
0.0
 20
0.0
 30
0.0
1001
GRADIENTCOLOR1ACI
1070
     5
1001
GRADIENTCOLOR2ACI
1070
     2
1001
ACAD
1002
{
1000
R14_HATCH_DATA
1000
FFBBDAE469BC28D7
1011
1.0
1021
0.0
1031
0.0
1021
0.0
1031
0.0
1011
0.0
1021
0.0
1031
0.0
1021
1.0
1031
0.0
1011
0.0
1021
0.0
1031
0.0
1021
0.0
1031
1.0
1040
0.0
1010
0.0
1020
0.0
1030
1.0
1000
SOLID
1070
     1
1070
     0
1071
        1
1071
       23
1070
     0
1070
     1
1071
        4
1040
-71.439860449454486
1040
337.6142114469049
1040
-71.439860449454486
1040
345.6868042127835
1040
-78.429558225708845
1040
349.77058494796751
1040
-83.582210010003109
1040
342.1713372737313
1071
        0
1070
     0
1070
     1
1040
1.3283426582453539
1071
        1
1040
-76.052012768677741
1040
341.46320441239209
1040
0.0
1002
}
  0
INSERT
  5
FFBBDAE469BC28D8
  8
0
  6
CONTINUOUS
  2
*U38
 10
0.0
 20
0.0
 30
0.0
1001
GRADIENTCOLOR1ACI
1070
     5
1001
GRADIENTCOLOR2ACI
1070
     2
1001
ACAD
1002
{
1000
R14_HATCH_DATA
1000
FFBBDAE469BC28D8
1011
1.0
1021
0.0
1031
0.0
1021
0.0
1031
0.0
1011
0.0
1021
0.0
1031
0.0
1021
1.0
1031
0.0
1011
0.0
1021
0.0
1031
0.0
1021
0.0
1031
1.0
1040
0.0
1010
0.0
1020
0.0
1030
1.0
1000
SOLID
1070
     1
1070
     0
1071
        1
1071
        1
1071
        4
1070
     1
1040
-48.228421726914348
1040
433.95226760224062
1040
-62.88573818466157
1040
413.55066929597348
1070
     1
1040
-62.88573818466157
1040
413.55066929597348
1040
-62.885738184662841
1040
368.7508281865567
1070
     1
1040
-62.885738184662841
1040
368.7508281865567
1040
-48.228421726914348
1040
390.0726947768124
1070
     1
1040
-48.228421726914348
1040
390.0726947768124
1040
-48.228421726914348
1040
433.95226760224062
1071
        0
1070
     0
1070
     1
1071
        1
1040
-51.62366090526757
1040
402.27800400450923
1040
0.0
1002
}
  0
INSERT
  5
FFBBDAE469BC28DA
  8
0
  6
CONTINUOUS
  2
*U39
 10
0.0
 20
0.0
 30
0.0
1001
GRADIENTCOLOR1ACI
1070
     5
1001
GRADIENTCOLOR2ACI
1070
     2
1001
ACAD
1002
{
1000
R14_HATCH_DATA
1000
FFBBDAE469BC28DA
1011
1.0
1021
0.0
1031
0.0
1021
0.0
1031
0.0
1011
0.0
1021
0.0
1031
0.0
1021
1.0
1031
0.0
1011
0.0
1021
0.0
1031
0.0
1021
0.0
1031
1.0
1040
0.0
1010
0.0
1020
0.0
1030
1.0
1000
SOLID
1070
     1
1070
     0
1071
        1
1071
        1
1071
        4
1070
     1
1040
-88.173203886637566
1040
378.24142656463852
1040
-62.885738184662841
1040
368.7508281865567
1070
     1
1040
-62.885738184662841
1040
368.7508281865567
1040
-62.885738184657392
1040
560.75501654244897
1070
     1
1040
-62.885738184657392
1040
560.75501654244897
1040
-88.17320388663029
1040
570.24561492052999
1070
     1
1040
-88.17320388663029
1040
570.24561492052999
1040
-88.173203886637566
1040
378.24142656463852
1071
        0
1070
     0
1070
     1
1071
        1
1040
-70.752084316043693
1040
505.79912507189709
1040
0.0
1002
}
  0
INSERT
  5
FFBBDAE469BC28DB
  8
0
  6
CONTINUOUS
  2
*U40
 10
0.0
 20
0.0
 30
0.0
1001
GRADIENTCOLOR1ACI
1070
     5
1001
GRADIENTCOLOR2ACI
1070
     2
1001
ACAD
1002
{
1000
R14_HATCH_DATA
1000
FFBBDAE469BC28DB
1011
1.0
1021
0.0
1031
0.0
1021
0.0
1031
0.0
1011
0.0
1021
0.0
1031
0.0
1021
1.0
1031
0.0
1011
0.0
1021
0.0
1031
0.0
1021
0.0
1031
1.0
1040
0.0
1010
0.0
1020
0.0
1030
1.0
1000
SOLID
1070
     1
1070
     0
1071
        1
1071
        7
1070
     0
1070
     1
1071
       17
1040
-21.758454345624159
1040
617.87657861451771
1040
-21.758454345626429
1040
566.21241018084368
1040
-21.54984440349654
1040
566.1341171165343
1040
-21.758454345626429
1040
565.84437938902215
1040
-21.758454345627801
1040
535.85820149150913
1040
-17.902874547265132
1040
541.21320479393785
1040
-4.5936820725410143
1040
536.21815301599986
1040
-4.5936820725410143
1040
518.592972226656
1040
-0.8648102724609998
1040
517.19349530496766
1040
-0.8648102724609998
1040
521.36490374579284
1040
6.0536719072360929
1040
530.97396304623919
1040
27.496551423831079
1040
509.10429104049308
1040
52.834901326593346
1040
493.64639548847413
1040
82.148445223033363
1040
483.40822614848929
1040
84.551009118550823
1040
482.96055511673308
1040
84.551009118579714
1040
601.16842883990171
1040
71.40589297715178
1040
582.91121616905025
1071
        0
1070
     0
1070
     1
1040
1.3283426582453539
1071
        1
1040
11.69801146796817
1040
587.56103092458227
1040
0.0
1002
}
  0
INSERT
  5
FFBBDAE469BC28DC
  8
0
  6
CONTINUOUS
  2
*U41
 10
0.0
 20
0.0
 30
0.0
1001
GRADIENTCOLOR1ACI
1070
     5
1001
GRADIENTCOLOR2ACI
1070
     2
1001
ACAD
1002
{
1000
R14_HATCH_DATA
1000
FFBBDAE469BC28DC
1011
1.0
1021
0.0
1031
0.0
1021
0.0
1031
0.0
1011
0.0
1021
0.0
1031
0.0
1021
1.0
1031
0.0
1011
0.0
1021
0.0
1031
0.0
1021
0.0
1031
1.0
1040
0.0
1010
0.0
1020
0.0
1030
1.0
1000
SOLID
1070
     1
1070
     0
1071
        1
1071
        7
1070
     0
1070
     1
1071
        4
1040
71.40589297715087
1040
582.91121616905002
1040
84.551009118575152
1040
601.16842883989636
1040
-8.6133382044845277
1040
636.13379128546865
1040
-21.758454345908831
1040
617.87657861462412
1071
        0
1070
     0
1070
     1
1040
1.3283426582453539
1071
        1
1040
-1.4940033405664499
1040
615.25457837774331
1040
0.0
1002
}
  0
INSERT
  5
FFBBDAE469BC3914
  8
0
  6
CONTINUOUS
  2
*U42
 10
0.0
 20
0.0
 30
0.0
1001
GRADIENTCOLOR1ACI
1070
     5
1001
GRADIENTCOLOR2ACI
1070
     2
1001
ACAD
1002
{
1000
R14_HATCH_DATA
1000
FFBBDAE469BC3914
1011
1.0
1021
0.0
1031
0.0
1021
0.0
1031
0.0
1011
0.0
1021
0.0
1031
0.0
1021
1.0
1031
0.0
1011
0.0
1021
0.0
1031
0.0
1021
0.0
1031
1.0
1040
0.0
1010
0.0
1020
0.0
1030
1.0
1000
SOLID
1070
     1
1070
     0
1071
        1
1071
        7
1070
     0
1070
     1
1071
       12
1040
-21.84071239530407
1040
197.45779836718589
1040
-19.94945012865173
1040
199.7648986277645
1040
-6.6402576539276188
1040
194.76984684982739
1040
-6.6402576539258611
1040
20.648009902238758
1040
-0.0000000000000036
1040
18.155865404125962
1040
0.0
1040
180.07207855060909
1040
6.918482179693461
1040
189.68113785105379
1040
66.149960973290916
1040
172.6553319227942
1040
72.182828096334561
1040
172.03731267606639
1040
71.846808984315643
1040
339.88213644338259
1040
-11.15869854407719
1040
371.03480094543738
1040
-21.830803413900039
1040
356.21234626662698
1071
        0
1070
     0
1070
     1
1040
0.9320599389928705
1071
        1
1040
21.667965861463021
1040
312.2053375410344
1040
0.0
1002
}
  0
INSERT
  5
FFBBDAE469BC3915
  8
0
  6
CONTINUOUS
  2
*U43
 10
0.0
 20
0.0
 30
0.0
1001
GRADIENTCOLOR1ACI
1070
     5
1001
GRADIENTCOLOR2ACI
1070
     2
1001
ACAD
1002
{
1000
R14_HATCH_DATA
1000
FFBBDAE469BC3915
1011
1.0
1021
0.0
1031
0.0
1021
0.0
1031
0.0
1011
0.0
1021
0.0
1031
0.0
1021
1.0
1031
0.0
1011
0.0
1021
0.0
1031
0.0
1021
0.0
1031
1.0
1040
0.0
1010
0.0
1020
0.0
1030
1.0
1000
SOLID
1070
     1
1070
     0
1071
        1
1071
        7
1070
     0
1070
     1
1071
        4
1040
84.241158246481973
1040
335.23043301089132
1040
71.846808984315643
1040
339.88213644338322
1040
72.182828096334561
1040
172.0373126760667
1040
84.241158246481973
1040
170.8020326733423
1071
        0
1070
     0
1070
     1
1040
0.9320599389928705
1071
        1
1040
78.543507929798565
1040
296.36031929811571
1040
0.0
1002
}
  0
INSERT
  5
FFBBDAE469BC6811
  8
0
  6
CONTINUOUS
  2
*U44
 10
0.0
 20
0.0
 30
0.0
1001
GRADIENTCOLOR1ACI
1070
     5
1001
GRADIENTCOLOR2ACI
1070
     2
1001
ACAD
1002
{
1000
R14_HATCH_DATA
1000
FFBBDAE469BC6811
1011
1.0
1021
0.0
1031
0.0
1021
0.0
1031
0.0
1011
0.0
1021
0.0
1031
0.0
1021
1.0
1031
0.0
1011
0.0
1021
0.0
1031
0.0
1021
0.0
1031
1.0
1040
0.0
1010
0.0
1020
0.0
1030
1.0
1000
SOLID
1070
     1
1070
     0
1071
        1
1071
        7
1070
     0
1070
     1
1071
       15
1040
-62.885738184657392
1040
560.75501654244897
1040
-62.88573818466157
1040
413.55066929597342
1040
-48.228421726915258
1040
433.95226760223949
1040
-48.228421726915258
1040
448.89138065322908
1040
-43.905540802211632
1040
454.89541709870139
1040
-44.148512693072931
1040
456.43998012971019
1040
-44.819073789432487
1040
462.68458179902422
1040
-45.144432898922027
1040
469.39816176516291
1040
-45.030373442643388
1040
476.66306098638228
1040
-44.382694199738999
1040
484.56214357487562
1040
-43.107209633970903
1040
493.17771476648949
1040
-41.109639165060003
1040
502.59275443008693
1040
-38.295847157844037
1040
512.88946585268786
1040
-21.758454345630518
1040
535.85820149150641
1040
-21.758454345625069
1040
617.87657861500804
1071
        0
1070
     0
1070
     1
1040
0.4313032051223476
1071
        1
1040
-42.312205240879841
1040
555.54093240220288
1040
0.0
1002
}
  0
INSERT
  5
FFBBDAE469BC6E4E
  8
0
  6
CONTINUOUS
  2
*U45
 10
0.0
 20
0.0
 30
0.0
1001
GRADIENTCOLOR1ACI
1070
     5
1001
GRADIENTCOLOR2ACI
1070
     2
1001
ACAD
1002
{
1000
R14_HATCH_DATA
1000
FFBBDAE469BC6E4E
1011
1.0
1021
0.0
1031
0.0
1021
0.0
1031
0.0
1011
0.0
1021
0.0
1031
0.0
1021
1.0
1031
0.0
1011
0.0
1021
0.0
1031
0.0
1021
0.0
1031
1.0
1040
0.0
1010
0.0
1020
0.0
1030
1.0
1000
SOLID
1070
     1
1070
     0
1071
        1
1071
        7
1070
     0
1070
     1
1071
        8
1040
-58.503221840710459
1040
326.7359124519424
1040
-70.108941201980997
1040
309.88601260511308
1040
-71.439860449454486
1040
310.38551778290639
1040
-71.439860449454486
1040
337.6142114469049
1040
-83.582210010003109
1040
342.1713372737313
1040
-83.582210010003109
1040
135.3316075650186
1040
-79.985788471547494
1040
136.93670666536849
1040
-58.294744308032023
1040
155.67732931588779
1071
        0
1070
     0
1070
     1
1040
0.5174092695918083
1071
        1
1040
-66.278722460298923
1040
190.60556078603119
1040
0.0
1002
}
  0
INSERT
  5
FFBBDAE469BC6FC2
  8
0
  6
CONTINUOUS
  2
*X46
 10
0.0
 20
0.0
 30
0.0
1001
GRADIENTCOLOR1ACI
1070
     5
1001
GRADIENTCOLOR2ACI
1070
     2
1001
ACAD
1000
HATCH
1002
{
1070
    19
1000
_USER
1040
10.0
1040
5.4977871437821371
1000
R14_HATCH_DATA
1000
FFBBDAE469BC6FC2
1011
1.0
1021
0.0
1031
0.0
1021
0.0
1031
0.0
1011
0.0
1021
0.0
1031
0.0
1021
1.0
1031
0.0
1011
0.0
1021
0.0
1031
0.0
1021
0.0
1031
1.0
1040
0.0
1010
0.0
1020
0.0
1030
1.0
1000
_USER
1070
     0
1070
     0
1071
        1
1071
        7
1070
     0
1070
     1
1071
        5
1040
139.21711342472821
1040
314.5974950487672
1040
84.241158246479245
1040
335.23043301089177
1040
84.241158246479245
1040
170.80203267334221
1040
122.41132609105991
1040
166.8918026123028
1040
139.21711342472821
1040
168.81903932849869
1071
        0
1070
     0
1070
     0
1040
5.4977871437821371
1040
10.0
1070
     0
1070
     1
1040
5.4977871437821371
1040
0.0
1040
0.0
1040
7.0710678118654773
1040
7.0710678118654728
1070
     0
1040
0.9287792881735338
1071
        1
1040
115.835495117044
1040
208.63233241636959
1040
0.0
1002
}
  0
INSERT
  5
FFBBDAE469BC73B3
  8
0
  6
CONTINUOUS
  2
*U47
 10
0.0
 20
0.0
 30
0.0
1001
GRADIENTCOLOR1ACI
1070
     5
1001
GRADIENTCOLOR2ACI
1070
     2
1001
ACAD
1002
{
1000
R14_HATCH_DATA
1000
FFBBDAE469BC73B3
1011
1.0
1021
0.0
1031
0.0
1021
0.0
1031
0.0
1011
0.0
1021
0.0
1031
0.0
1021
1.0
1031
0.0
1011
0.0
1021
0.0
1031
0.0
1021
0.0
1031
1.0
1040
0.0
1010
0.0
1020
0.0
1030
1.0
1000
SOLID
1070
     1
1070
     0
1071
        1
1071
        7
1070
     0
1070
     1
1071
        4
1040
-15.18589627491327
1040
627.00518495042934
1040
-40.473361976890367
1040
636.49578332850979
1040
-88.17320388663029
1040
570.24561492052999
1040
-62.885738184657392
1040
560.75501654244897
1071
        0
1070
     0
1070
     1
1040
0.2428204237624179
1071
        1
1040
-53.081853768213477
1040
594.70304963573653
1040
0.0
1002
}
  0
INSERT
  5
FFBBDAE469BC79BD
  8
0
  6
CONTINUOUS
  2
*U48
 10
0.0
 20
0.0
 30
0.0
  0
INSERT
  5
FFBBDAE469BC79BE
  8
0
  6
CONTINUOUS
  2
*U49
 10
0.0
 20
0.0
 30
0.0
  0
INSERT
  5
FFBBDAE469BC79BF
  8
0
  6
CONTINUOUS
  2
*U50
 10
0.0
 20
0.0
 30
0.0
  0
INSERT
  5
FFBBDAE469BC79CA
  8
0
  6
CONTINUOUS
  2
*U51
 10
0.0
 20
0.0
 30
0.0
  0
LINE
  5
FFBBDAE469BC87D2
  8
0
  6
CONTINUOUS
 10
26.954309250630111
 20
946.31047593754181
 30
0.0
 11
-35.312030366638282
 21
859.82894223353276
 31
0.0
  0
LINE
  5
FFBBDAE469BC87D3
  8
0
  6
CONTINUOUS
 10
-35.312030366638282
 20
859.82894223353276
 30
0.0
 11
24.579335769620229
 21
837.35120923281283
 31
0.0
  0
LINE
  5
FFBBDAE469BC87D4
  8
0
  6
CONTINUOUS
 10
24.579335769620229
 20
837.35120923281283
 30
0.0
 11
86.845675386888615
 21
923.83274293682189
 31
0.0
  0
LINE
  5
FFBBDAE469BC87D5
  8
0
  6
CONTINUOUS
 10
86.845675386888615
 20
923.83274293682189
 30
0.0
 11
26.954309250630111
 21
946.31047593754181
 31
0.0
  0
LINE
  5
FFBBDAE469BC87D6
  8
0
  6
CONTINUOUS
 10
-35.312030366634652
 20
756.04289447360316
 30
0.0
 11
-35.312030366638282
 21
859.82894223353276
 31
0.0
  0
LINE
  5
FFBBDAE469BC87D7
  8
0
  6
CONTINUOUS
 10
24.579335769620229
 20
733.56516147288312
 30
0.0
 11
24.579335769620229
 21
837.35120923281283
 31
0.0
  0
LINE
  5
FFBBDAE469BC87D8
  8
0
  6
CONTINUOUS
 10
24.579335769614769
 20
837.35120923281465
 30
0.0
 11
26.954309250630111
 21
946.31047593754181
 31
0.0
  0
LINE
  5
FFBBDAE469BC87D9
  8
0
  6
CONTINUOUS
 10
26.954309250630111
 20
946.31047593754181
 30
0.0
 11
-35.312030366638282
 21
859.82894223353367
 31
0.0
  0
LINE
  5
FFBBDAE469BC87DA
  8
0
  6
CONTINUOUS
 10
-35.312030366638282
 20
859.82894223353367
 30
0.0
 11
24.579335769614769
 21
837.35120923281465
 31
0.0
  0
LINE
  5
FFBBDAE469BC87DB
  8
0
  6
CONTINUOUS
 10
-35.312030366638282
 20
756.04289447360395
 30
0.0
 11
-35.312030366638282
 21
859.82894223353367
 31
0.0
  0
LINE
  5
FFBBDAE469BC87DC
  8
0
  6
CONTINUOUS
 10
24.579335769614769
 20
837.35120923281465
 30
0.0
 11
24.579335769614769
 21
733.56516147288585
 31
0.0
  0
LINE
  5
FFBBDAE469BC87DD
  8
0
  6
CONTINUOUS
 10
-35.312030366638282
 20
859.82894223353276
 30
0.0
 11
24.579335769614769
 21
837.35120923281374
 31
0.0
  0
LINE
  5
FFBBDAE469BC87DE
  8
0
  6
CONTINUOUS
 10
24.579335769614769
 20
837.35120923281374
 30
0.0
 11
86.845675386883158
 21
923.83274293682189
 31
0.0
  0
LINE
  5
FFBBDAE469BC87DF
  8
0
  6
CONTINUOUS
 10
86.845675386883158
 20
923.83274293682189
 30
0.0
 11
-35.312030366638282
 21
859.82894223353276
 31
0.0
  0
LINE
  5
FFBBDAE469BC87E0
  8
0
  6
CONTINUOUS
 10
24.579335769614769
 20
837.35120923281374
 30
0.0
 11
24.579335769614769
 21
733.56516147288494
 31
0.0
  0
LINE
  5
FFBBDAE469BC87E1
  8
0
  6
CONTINUOUS
 10
-35.312030366638282
 20
756.04289447360316
 30
0.0
 11
-35.312030366638282
 21
859.82894223353276
 31
0.0
  0
LINE
  5
FFBBDAE469BC87E3
  8
0
  6
CONTINUOUS
 10
-186.22793244776221
 20
861.54364138294829
 30
0.0
 11
-66.445200175252467
 21
816.58817538151015
 31
0.0
  0
LINE
  5
FFBBDAE469BC87E4
  8
0
  6
CONTINUOUS
 10
-66.445200175252467
 20
816.58817538151015
 30
0.0
 11
-35.312030366620093
 21
859.82894223351468
 31
0.0
  0
LINE
  5
FFBBDAE469BC87E5
  8
0
  6
CONTINUOUS
 10
-35.312030366620093
 20
859.82894223351468
 30
0.0
 11
-155.0947626391262
 21
904.78440823495384
 31
0.0
  0
LINE
  5
FFBBDAE469BC87E6
  8
0
  6
CONTINUOUS
 10
-155.0947626391262
 20
904.78440823495384
 30
0.0
 11
-186.22793244776221
 21
861.54364138294829
 31
0.0
  0
LINE
  5
FFBBDAE469BC87E7
  8
0
  6
CONTINUOUS
 10
-66.445200175252467
 20
712.80212762158226
 30
0.0
 11
-66.445200175252467
 21
816.58817538151015
 31
0.0
  0
LINE
  5
FFBBDAE469BC87E8
  8
0
  6
CONTINUOUS
 10
-35.312030366620093
 20
756.04289447358678
 30
0.0
 11
-35.312030366620093
 21
859.82894223351468
 31
0.0
  0
LINE
  5
FFBBDAE469BC87E9
  8
0
  6
CONTINUOUS
 10
-35.312030366621912
 20
859.82894223351195
 30
0.0
 11
-186.22793244776221
 21
861.54364138294648
 31
0.0
  0
LINE
  5
FFBBDAE469BC87EA
  8
0
  6
CONTINUOUS
 10
-186.22793244776221
 20
861.54364138294648
 30
0.0
 11
-66.445200175256105
 21
816.58817538150834
 31
0.0
  0
LINE
  5
FFBBDAE469BC87EB
  8
0
  6
CONTINUOUS
 10
-66.445200175256105
 20
816.58817538150834
 30
0.0
 11
-35.312030366621912
 21
859.82894223351195
 31
0.0
  0
LINE
  5
FFBBDAE469BC87EC
  8
0
  6
CONTINUOUS
 10
-66.445200175256105
 20
712.80212762158044
 30
0.0
 11
-66.445200175256105
 21
816.58817538150834
 31
0.0
  0
LINE
  5
FFBBDAE469BC87ED
  8
0
  6
CONTINUOUS
 10
-35.312030366621912
 20
859.82894223351195
 30
0.0
 11
-35.312030366621912
 21
756.04289447358485
 31
0.0
  0
LINE
  5
FFBBDAE469BC87EE
  8
0
  6
CONTINUOUS
 10
-66.445200175256105
 20
816.58817538150663
 30
0.0
 11
-35.312030366620093
 21
859.82894223351104
 31
0.0
  0
LINE
  5
FFBBDAE469BC87EF
  8
0
  6
CONTINUOUS
 10
-35.312030366620093
 20
859.82894223351104
 30
0.0
 11
-155.0947626391262
 21
904.7844082349493
 31
0.0
  0
LINE
  5
FFBBDAE469BC87F0
  8
0
  6
CONTINUOUS
 10
-155.0947626391262
 20
904.7844082349493
 30
0.0
 11
-66.445200175256105
 21
816.58817538150663
 31
0.0
  0
LINE
  5
FFBBDAE469BC87F1
  8
0
  6
CONTINUOUS
 10
-35.312030366620093
 20
859.82894223351104
 30
0.0
 11
-35.312030366620093
 21
756.04289447358485
 31
0.0
  0
LINE
  5
FFBBDAE469BC87F2
  8
0
  6
CONTINUOUS
 10
-66.445200175256105
 20
712.80212762158226
 30
0.0
 11
-66.445200175256105
 21
816.58817538150663
 31
0.0
  0
LINE
  5
FFBBDAE469BC87F3
  8
0
  6
CONTINUOUS
 10
-208.1440890768736
 20
-187.7013845488745
 30
0.0
 11
-210.80592757181881
 21
-186.70237419328529
 31
0.0
1001
REVIT
1002
{
1070
     1
1000
178827
1002
}
1002
{
1070
     5
1000
142001
1002
}
1002
{
1070
     2
1000
-2000011
1002
}
  0
LINE
  5
FFBBDAE469BC87F4
  8
0
  6
CONTINUOUS
 10
-177.54177469388921
 20
-145.19792121699629
 30
0.0
 11
-208.1440890768736
 21
-187.7013845488745
 31
0.0
1001
REVIT
1002
{
1070
     1
1000
178827
1002
}
1002
{
1070
     5
1000
142001
1002
}
1002
{
1070
     2
1000
-2000011
1002
}
  0
LINE
  5
FFBBDAE469BC87F5
  8
0
  6
CONTINUOUS
 10
-210.80592757181881
 20
512.29994315692784
 30
0.0
 11
-210.80592757181881
 21
-186.70237419328529
 31
0.0
1001
REVIT
1002
{
1070
     1
1000
178827
1002
}
1002
{
1070
     5
1000
142001
1002
}
1002
{
1070
     2
1000
-2000011
1002
}
  0
LINE
  5
FFBBDAE469BC87F6
  8
0
  6
CONTINUOUS
 10
-208.1440890768736
 20
-187.7013845488745
 30
0.0
 11
-208.1440890768736
 21
511.30093280133951
 31
0.0
1001
REVIT
1002
{
1070
     1
1000
178827
1002
}
1002
{
1070
     5
1000
142001
1002
}
1002
{
1070
     2
1000
-2000011
1002
}
  0
LINE
  5
FFBBDAE469BC87F7
  8
0
  6
CONTINUOUS
 10
-208.1440890768736
 20
511.30093280133951
 30
0.0
 11
-210.80592757181881
 21
512.29994315692784
 31
0.0
1001
REVIT
1002
{
1070
     1
1000
178827
1002
}
1002
{
1070
     5
1000
142001
1002
}
1002
{
1070
     2
1000
-2000011
1002
}
  0
LINE
  5
FFBBDAE469BC87F8
  8
0
  6
CONTINUOUS
 10
-210.80592757181881
 20
512.29994315692784
 30
0.0
 11
-35.312030366616462
 21
756.04289447360497
 31
0.0
1001
REVIT
1002
{
1070
     1
1000
178827
1002
}
1002
{
1070
     5
1000
142001
1002
}
1002
{
1070
     2
1000
-2000011
1002
}
  0
LINE
  5
FFBBDAE469BC87F9
  8
0
  6
CONTINUOUS
 10
-34.033888307609232
 20
634.07899474709848
 30
0.0
 11
-34.033888307609232
 21
753.12207225792906
 31
0.0
1001
REVIT
1002
{
1070
     1
1000
178827
1002
}
1002
{
1070
     5
1000
142001
1002
}
1002
{
1070
     2
1000
-2000011
1002
}
  0
LINE
  5
FFBBDAE469BC87FA
  8
0
  6
CONTINUOUS
 10
-34.033888307609232
 20
753.12207225792906
 30
0.0
 11
-208.1440890768736
 21
511.30093280133951
 31
0.0
1001
REVIT
1002
{
1070
     1
1000
178827
1002
}
1002
{
1070
     5
1000
142001
1002
}
1002
{
1070
     2
1000
-2000011
1002
}
  0
LINE
  5
FFBBDAE469BC87FB
  8
0
  6
CONTINUOUS
 10
310.07685578136801
 20
-72.586774281284306
 30
0.0
 11
308.69315934542652
 21
-74.508586141371779
 31
0.0
1001
REVIT
1002
{
1070
     1
1000
178930
1002
}
1002
{
1070
     5
1000
142001
1002
}
1002
{
1070
     2
1000
-2000011
1002
}
  0
LINE
  5
FFBBDAE469BC87FC
  8
0
  6
CONTINUOUS
 10
308.69315934542652
 20
-74.508586141371779
 30
0.0
 11
292.17528314140333
 21
-68.309288396046213
 31
0.0
1001
REVIT
1002
{
1070
     1
1000
178930
1002
}
1002
{
1070
     5
1000
142001
1002
}
1002
{
1070
     2
1000
-2000011
1002
}
  0
LINE
  5
FFBBDAE469BC87FD
  8
0
  6
CONTINUOUS
 10
308.69315934542652
 20
624.49373120884218
 30
0.0
 11
308.69315934542652
 21
-74.508586141371779
 31
0.0
1001
REVIT
1002
{
1070
     1
1000
178930
1002
}
1002
{
1070
     5
1000
142001
1002
}
1002
{
1070
     2
1000
-2000011
1002
}
  0
LINE
  5
FFBBDAE469BC87FE
  8
0
  6
CONTINUOUS
 10
310.07685578136801
 20
-72.586774281284306
 30
0.0
 11
310.07685578136261
 21
626.41554306892886
 31
0.0
1001
REVIT
1002
{
1070
     1
1000
178930
1002
}
1002
{
1070
     5
1000
142001
1002
}
1002
{
1070
     2
1000
-2000011
1002
}
  0
LINE
  5
FFBBDAE469BC87FF
  8
0
  6
CONTINUOUS
 10
310.07685578136261
 20
626.41554306892886
 30
0.0
 11
308.69315934542652
 21
624.49373120884218
 31
0.0
1001
REVIT
1002
{
1070
     1
1000
178930
1002
}
1002
{
1070
     5
1000
142001
1002
}
1002
{
1070
     2
1000
-2000011
1002
}
  0
LINE
  5
FFBBDAE469BC8800
  8
0
  6
CONTINUOUS
 10
308.69315934542652
 20
624.49373120884218
 30
0.0
 11
-34.033888307609232
 21
753.12207225792906
 31
0.0
1001
REVIT
1002
{
1070
     1
1000
178930
1002
}
1002
{
1070
     5
1000
142001
1002
}
1002
{
1070
     2
1000
-2000011
1002
}
  0
LINE
  5
FFBBDAE469BC8801
  8
0
  6
CONTINUOUS
 10
-35.312030366616462
 20
756.04289447360497
 30
0.0
 11
310.07685578136261
 21
626.41554306892886
 31
0.0
1001
REVIT
1002
{
1070
     1
1000
178930
1002
}
1002
{
1070
     5
1000
142001
1002
}
1002
{
1070
     2
1000
-2000011
1002
}
  0
LINE
  5
FFBBDAE469BC8802
  8
0
  6
CONTINUOUS
 10
-83.582210010003109
 20
342.1713372737313
 30
0.0
 11
-71.439860449454486
 21
337.6142114469049
 31
0.0
  0
LINE
  5
FFBBDAE469BC8803
  8
0
  6
CONTINUOUS
 10
-78.429558225709116
 20
349.77058494796711
 30
0.0
 11
-83.582210010003109
 21
342.1713372737313
 31
0.0
  0
LINE
  5
FFBBDAE469BC8804
  8
0
  6
CONTINUOUS
 10
-83.582210010003109
 20
342.1713372737313
 30
0.0
 11
-83.582210010003109
 21
135.3316075650182
 31
0.0
  0
LINE
  5
FFBBDAE469BC8805
  8
0
  6
CONTINUOUS
 10
-58.294744308032023
 20
155.67732931588941
 30
0.0
 11
-58.503221840710459
 21
326.73591245193887
 31
0.0
  0
LINE
  5
FFBBDAE469BC8806
  8
0
  6
CONTINUOUS
 10
84.241158246479245
 20
170.80203267334221
 30
0.0
 11
84.241158246479245
 21
335.2304330108891
 31
0.0
  0
LINE
  5
FFBBDAE469BC8807
  8
0
  6
CONTINUOUS
 10
-164.23258221916689
 20
-204.18174207755871
 30
0.0
 11
-177.54177469388921
 21
-199.18669029962069
 31
0.0
1001
REVIT
1002
{
1070
     1
1000
179521
1002
}
1002
{
1070
     5
1000
142470
1002
}
1002
{
1070
     2
1000
-2000011
1002
}
  0
LINE
  5
FFBBDAE469BC8808
  8
0
  6
CONTINUOUS
 10
-6.6402576539257998
 20
14.697768299218289
 30
0.0
 11
-164.23258221916689
 21
-204.18174207755871
 31
0.0
1001
REVIT
1002
{
1070
     1
1000
179521
1002
}
1002
{
1070
     5
1000
142470
1002
}
1002
{
1070
     2
1000
-2000011
1002
}
  0
LINE
  5
FFBBDAE469BC8809
  8
0
  6
CONTINUOUS
 10
-177.54177469388921
 20
188.45748377082779
 30
0.0
 11
-177.54177469388921
 21
-199.18669029962069
 31
0.0
1001
REVIT
1002
{
1070
     1
1000
179521
1002
}
1002
{
1070
     5
1000
142470
1002
}
1002
{
1070
     2
1000
-2000011
1002
}
  0
LINE
  5
FFBBDAE469BC880A
  8
0
  6
CONTINUOUS
 10
-164.23258221916689
 20
-204.18174207755871
 30
0.0
 11
-164.23258221916689
 21
183.4624319928916
 31
0.0
1001
REVIT
1002
{
1070
     1
1000
179521
1002
}
1002
{
1070
     5
1000
142470
1002
}
1002
{
1070
     2
1000
-2000011
1002
}
  0
LINE
  5
FFBBDAE469BC880B
  8
0
  6
CONTINUOUS
 10
-164.23258221916689
 20
183.4624319928916
 30
0.0
 11
-177.54177469388921
 21
188.45748377082779
 31
0.0
1001
REVIT
1002
{
1070
     1
1000
179521
1002
}
1002
{
1070
     5
1000
142470
1002
}
1002
{
1070
     2
1000
-2000011
1002
}
  0
LINE
  5
FFBBDAE469BC880C
  8
0
  6
CONTINUOUS
 10
-177.54177469388921
 20
188.45748377082779
 30
0.0
 11
-158.319093722579
 21
215.15580813869749
 31
0.0
1001
REVIT
1002
{
1070
     1
1000
179521
1002
}
1002
{
1070
     5
1000
142470
1002
}
1002
{
1070
     2
1000
-2000011
1002
}
  0
POLYLINE
  5
FFBBDAE469BC880D
  8
0
  6
CONTINUOUS
 66
     1
 10
0.0
 20
0.0
 30
0.0
 70
     8
1001
REVIT
1002
{
1070
     1
1000
179521
1002
}
1002
{
1070
     5
1000
142470
1002
}
1002
{
1070
     2
1000
-2000011
1002
}
  0
VERTEX
  5
FFBBDAE469BC880E
  8
0
  6
CONTINUOUS
 10
-106.2215117962932
 20
125.22758540266381
 30
0.0
 70
    32
  0
VERTEX
  5
FFBBDAE469BC880F
  8
0
  6
CONTINUOUS
 10
-79.985788471547494
 20
136.93670666536849
 30
0.0
 70
    32
  0
VERTEX
  5
FFBBDAE469BC8810
  8
0
  6
CONTINUOUS
 10
-50.739592452375291
 20
162.20482743570571
 30
0.0
 70
    32
  0
VERTEX
  5
FFBBDAE469BC8811
  8
0
  6
CONTINUOUS
 10
-19.94945012865173
 20
199.7648986277645
 30
0.0
 70
    32
  0
SEQEND
  5
FFBBDAE469BC8812
  8
0
  6
CONTINUOUS
  0
LINE
  5
FFBBDAE469BC8813
  8
0
  6
CONTINUOUS
 10
-6.6402576539257998
 20
14.697768299218289
 30
0.0
 11
-6.6402576539276188
 21
194.76984684982739
 31
0.0
1001
REVIT
1002
{
1070
     1
1000
179521
1002
}
1002
{
1070
     5
1000
142470
1002
}
1002
{
1070
     2
1000
-2000011
1002
}
  0
POLYLINE
  5
FFBBDAE469BC8814
  8
0
  6
CONTINUOUS
 66
     1
 10
0.0
 20
0.0
 30
0.0
 70
     8
1001
REVIT
1002
{
1070
     1
1000
179521
1002
}
1002
{
1070
     5
1000
142470
1002
}
1002
{
1070
     2
1000
-2000011
1002
}
  0
VERTEX
  5
FFBBDAE469BC8815
  8
0
  6
CONTINUOUS
 10
-6.6402576539276188
 20
194.76984684982739
 30
0.0
 70
    32
  0
VERTEX
  5
FFBBDAE469BC8816
  8
0
  6
CONTINUOUS
 10
-37.430399977651177
 20
157.20977565776951
 30
0.0
 70
    32
  0
VERTEX
  5
FFBBDAE469BC8817
  8
0
  6
CONTINUOUS
 10
-66.676595996825199
 20
131.9416548874305
 30
0.0
 70
    32
  0
VERTEX
  5
FFBBDAE469BC8818
  8
0
  6
CONTINUOUS
 10
-92.912319321569157
 20
120.23253362472489
 30
0.0
 70
    32
  0
VERTEX
  5
FFBBDAE469BC8819
  8
0
  6
CONTINUOUS
 10
-114.82199852657681
 20
122.6695547704166
 30
0.0
 70
    32
  0
SEQEND
  5
FFBBDAE469BC881A
  8
0
  6
CONTINUOUS
  0
POLYLINE
  5
FFBBDAE469BC881B
  8
0
  6
CONTINUOUS
 66
     1
 10
0.0
 20
0.0
 30
0.0
 70
     8
1001
REVIT
1002
{
1070
     1
1000
179521
1002
}
1002
{
1070
     5
1000
142470
1002
}
1002
{
1070
     2
1000
-2000011
1002
}
  0
VERTEX
  5
FFBBDAE469BC881C
  8
0
  6
CONTINUOUS
 10
-114.8220012335423
 20
122.6695561027918
 30
0.0
 70
    32
  0
VERTEX
  5
FFBBDAE469BC881D
  8
0
  6
CONTINUOUS
 10
-131.3069987948129
 20
139.13051983846341
 30
0.0
 70
    32
  0
VERTEX
  5
FFBBDAE469BC881E
  8
0
  6
CONTINUOUS
 10
-141.54068539229951
 20
168.79000337503291
 30
0.0
 70
    32
  0
VERTEX
  5
FFBBDAE469BC881F
  8
0
  6
CONTINUOUS
 10
-145.00990124785849
 20
210.16075636075951
 30
0.0
 70
    32
  0
SEQEND
  5
FFBBDAE469BC8820
  8
0
  6
CONTINUOUS
  0
LINE
  5
FFBBDAE469BC8821
  8
0
  6
CONTINUOUS
 10
-145.00990124785849
 20
210.16075636075951
 30
0.0
 11
-164.23258221916689
 21
183.4624319928916
 31
0.0
1001
REVIT
1002
{
1070
     1
1000
179521
1002
}
1002
{
1070
     5
1000
142470
1002
}
1002
{
1070
     2
1000
-2000011
1002
}
  0
LINE
  5
FFBBDAE469BC8822
  8
0
  6
CONTINUOUS
 10
-145.00990124785849
 20
210.16075636076221
 30
0.0
 11
-158.319093722579
 21
215.15580813869931
 31
0.0
1001
REVIT
1002
{
1070
     1
1000
179521
1002
}
1002
{
1070
     5
1000
142470
1002
}
1002
{
1070
     2
1000
-2000011
1002
}
  0
LINE
  5
FFBBDAE469BC8823
  8
0
  6
CONTINUOUS
 10
-19.94945012865173
 20
199.7648986277645
 30
0.0
 11
-6.6402576539276188
 21
194.76984684982739
 31
0.0
1001
REVIT
1002
{
1070
     1
1000
179521
1002
}
1002
{
1070
     5
1000
142470
1002
}
1002
{
1070
     2
1000
-2000011
1002
}
  0
LINE
  5
FFBBDAE469BC8824
  8
0
  6
CONTINUOUS
 10
292.17528314140333
 20
-97.450215221182589
 30
0.0
 11
285.25680096170441
 21
-107.0592745216308
 31
0.0
1001
REVIT
1002
{
1070
     1
1000
179522
1002
}
1002
{
1070
     5
1000
142470
1002
}
1002
{
1070
     2
1000
-2000011
1002
}
  0
LINE
  5
FFBBDAE469BC8825
  8
0
  6
CONTINUOUS
 10
285.25680096170441
 20
-107.0592745216308
 30
0.0
 11
0.0
 21
0.0
 31
0.0
1001
REVIT
1002
{
1070
     1
1000
179522
1002
}
1002
{
1070
     5
1000
142470
1002
}
1002
{
1070
     2
1000
-2000011
1002
}
  0
LINE
  5
FFBBDAE469BC8826
  8
0
  6
CONTINUOUS
 10
285.25680096170441
 20
280.58489954882128
 30
0.0
 11
285.25680096170441
 21
-107.0592745216308
 31
0.0
1001
REVIT
1002
{
1070
     1
1000
179522
1002
}
1002
{
1070
     5
1000
142470
1002
}
1002
{
1070
     2
1000
-2000011
1002
}
  0
LINE
  5
FFBBDAE469BC8827
  8
0
  6
CONTINUOUS
 10
292.17528314140333
 20
-97.450215221182589
 30
0.0
 11
292.17528314140333
 21
290.19395884926598
 31
0.0
1001
REVIT
1002
{
1070
     1
1000
179522
1002
}
1002
{
1070
     5
1000
142470
1002
}
1002
{
1070
     2
1000
-2000011
1002
}
  0
LINE
  5
FFBBDAE469BC8828
  8
0
  6
CONTINUOUS
 10
292.17528314140333
 20
290.19395884926598
 30
0.0
 11
285.25680096170441
 21
280.58489954882128
 31
0.0
1001
REVIT
1002
{
1070
     1
1000
179522
1002
}
1002
{
1070
     5
1000
142470
1002
}
1002
{
1070
     2
1000
-2000011
1002
}
  0
LINE
  5
FFBBDAE469BC8829
  8
0
  6
CONTINUOUS
 10
285.25680096170441
 20
280.58489954882128
 30
0.0
 11
284.30215804219728
 21
280.94318505873798
 31
0.0
1001
REVIT
1002
{
1070
     1
1000
179522
1002
}
1002
{
1070
     5
1000
142470
1002
}
1002
{
1070
     2
1000
-2000011
1002
}
  0
POLYLINE
  5
FFBBDAE469BC882A
  8
0
  6
CONTINUOUS
 66
     1
 10
0.0
 20
0.0
 30
0.0
 70
     8
1001
REVIT
1002
{
1070
     1
1000
179522
1002
}
1002
{
1070
     5
1000
142470
1002
}
1002
{
1070
     2
1000
-2000011
1002
}
  0
VERTEX
  5
FFBBDAE469BC882B
  8
0
  6
CONTINUOUS
 10
264.78940163453262
 20
267.18251013086052
 30
0.0
 70
    32
  0
VERTEX
  5
FFBBDAE469BC882C
  8
0
  6
CONTINUOUS
 10
259.51006464415332
 20
244.05872949001241
 30
0.0
 70
    32
  0
VERTEX
  5
FFBBDAE469BC882D
  8
0
  6
CONTINUOUS
 10
239.8233615329282
 20
207.5742942201868
 30
0.0
 70
    32
  0
VERTEX
  5
FFBBDAE469BC882E
  8
0
  6
CONTINUOUS
 10
208.11091365929491
 20
180.11931463239119
 30
0.0
 70
    32
  0
VERTEX
  5
FFBBDAE469BC882F
  8
0
  6
CONTINUOUS
 10
165.96291557929541
 20
163.07049804516919
 30
0.0
 70
    32
  0
VERTEX
  5
FFBBDAE469BC8830
  8
0
  6
CONTINUOUS
 10
115.4928439113628
 20
157.28274331185821
 30
0.0
 70
    32
  0
VERTEX
  5
FFBBDAE469BC8831
  8
0
  6
CONTINUOUS
 10
59.231478793593851
 20
163.0462726223486
 30
0.0
 70
    32
  0
VERTEX
  5
FFBBDAE469BC8832
  8
0
  6
CONTINUOUS
 10
0.0
 20
180.07207855060909
 30
0.0
 70
    32
  0
SEQEND
  5
FFBBDAE469BC8833
  8
0
  6
CONTINUOUS
  0
LINE
  5
FFBBDAE469BC8834
  8
0
  6
CONTINUOUS
 10
0.0
 20
180.07207855060909
 30
0.0
 11
0.0
 21
0.0
 31
0.0
1001
REVIT
1002
{
1070
     1
1000
179522
1002
}
1002
{
1070
     5
1000
142470
1002
}
1002
{
1070
     2
1000
-2000011
1002
}
  0
POLYLINE
  5
FFBBDAE469BC8835
  8
0
  6
CONTINUOUS
 66
     1
 10
0.0
 20
0.0
 30
0.0
 70
     8
1001
REVIT
1002
{
1070
     1
1000
179522
1002
}
1002
{
1070
     5
1000
142470
1002
}
1002
{
1070
     2
1000
-2000011
1002
}
  0
VERTEX
  5
FFBBDAE469BC8836
  8
0
  6
CONTINUOUS
 10
6.9184821796934548
 20
189.68113785105379
 30
0.0
 70
    32
  0
VERTEX
  5
FFBBDAE469BC8837
  8
0
  6
CONTINUOUS
 10
66.149960973290945
 20
172.6553319227942
 30
0.0
 70
    32
  0
VERTEX
  5
FFBBDAE469BC8838
  8
0
  6
CONTINUOUS
 10
122.41132609105991
 20
166.8918026123028
 30
0.0
 70
    32
  0
VERTEX
  5
FFBBDAE469BC8839
  8
0
  6
CONTINUOUS
 10
172.88139775899069
 20
172.67955734561471
 30
0.0
 70
    32
  0
VERTEX
  5
FFBBDAE469BC883A
  8
0
  6
CONTINUOUS
 10
215.02939583899391
 20
189.72837393283771
 30
0.0
 70
    32
  0
VERTEX
  5
FFBBDAE469BC883B
  8
0
  6
CONTINUOUS
 10
244.03461087675711
 20
213.94468805375249
 30
0.0
 70
    32
  0
SEQEND
  5
FFBBDAE469BC883C
  8
0
  6
CONTINUOUS
  0
LINE
  5
FFBBDAE469BC883D
  8
0
  6
CONTINUOUS
 10
0.0
 20
180.07207855060909
 30
0.0
 11
6.9184821796934548
 21
189.68113785105379
 31
0.0
1001
REVIT
1002
{
1070
     1
1000
179522
1002
}
1002
{
1070
     5
1000
142470
1002
}
1002
{
1070
     2
1000
-2000011
1002
}
  0
POLYLINE
  5
FFBBDAE469BC883F
  8
0
  6
CONTINUOUS
 66
     1
 10
0.0
 20
0.0
 30
0.0
 70
     8
1001
REVIT
1002
{
1070
     1
1000
183165
1002
}
1002
{
1070
     5
1000
142470
1002
}
1002
{
1070
     2
1000
-2000011
1002
}
  0
VERTEX
  5
FFBBDAE469BC8840
  8
0
  6
CONTINUOUS
 10
-46.883750422095538
 20
380.35964910708299
 30
0.0
 70
    32
  0
VERTEX
  5
FFBBDAE469BC8841
  8
0
  6
CONTINUOUS
 10
-43.468779717877617
 20
388.02282768042642
 30
0.0
 70
    32
  0
VERTEX
  5
FFBBDAE469BC8842
  8
0
  6
CONTINUOUS
 10
-40.933340915933513
 20
395.0814146422108
 30
0.0
 70
    32
  0
VERTEX
  5
FFBBDAE469BC8843
  8
0
  6
CONTINUOUS
 10
-39.183223884141633
 20
401.61798775688379
 30
0.0
 70
    32
  0
VERTEX
  5
FFBBDAE469BC8844
  8
0
  6
CONTINUOUS
 10
-38.124218490398562
 20
407.71512478889781
 30
0.0
 70
    32
  0
VERTEX
  5
FFBBDAE469BC8845
  8
0
  6
CONTINUOUS
 10
-37.662114602580907
 20
413.45540350270852
 30
0.0
 70
    32
  0
VERTEX
  5
FFBBDAE469BC8846
  8
0
  6
CONTINUOUS
 10
-37.702702088568913
 20
418.92140166276658
 30
0.0
 70
    32
  0
VERTEX
  5
FFBBDAE469BC8847
  8
0
  6
CONTINUOUS
 10
-38.151770816253702
 20
424.19569703352141
 30
0.0
 70
    32
  0
VERTEX
  5
FFBBDAE469BC8848
  8
0
  6
CONTINUOUS
 10
-38.915110653520969
 20
429.36086737942958
 30
0.0
 70
    32
  0
VERTEX
  5
FFBBDAE469BC8849
  8
0
  6
CONTINUOUS
 10
-39.898511468252771
 20
434.4994904649393
 30
0.0
 70
    32
  0
VERTEX
  5
FFBBDAE469BC884A
  8
0
  6
CONTINUOUS
 10
-41.007763128325671
 20
439.69414405450328
 30
0.0
 70
    32
  0
VERTEX
  5
FFBBDAE469BC884B
  8
0
  6
CONTINUOUS
 10
-42.148655501639936
 20
445.02740591257668
 30
0.0
 70
    32
  0
VERTEX
  5
FFBBDAE469BC884C
  8
0
  6
CONTINUOUS
 10
-43.22697845606853
 20
450.5818538036101
 30
0.0
 70
    32
  0
SEQEND
  5
FFBBDAE469BC884D
  8
0
  6
CONTINUOUS
  0
LINE
  5
FFBBDAE469BC884E
  8
0
  6
CONTINUOUS
 10
-43.227027091856137
 20
450.58213135468941
 30
0.0
 11
-44.148500094890551
 21
456.439900043546
 31
0.0
1001
REVIT
1002
{
1070
     1
1000
183165
1002
}
1002
{
1070
     5
1000
142470
1002
}
1002
{
1070
     2
1000
-2000011
1002
}
  0
LINE
  5
FFBBDAE469BC884F
  8
0
  6
CONTINUOUS
 10
-44.148521859497123
 20
456.44006549205551
 30
0.0
 11
-44.819070099407327
 21
462.6845474356569
 31
0.0
1001
REVIT
1002
{
1070
     1
1000
183165
1002
}
1002
{
1070
     5
1000
142470
1002
}
1002
{
1070
     2
1000
-2000011
1002
}
  0
POLYLINE
  5
FFBBDAE469BC8850
  8
0
  6
CONTINUOUS
 66
     1
 10
0.0
 20
0.0
 30
0.0
 70
     8
1001
REVIT
1002
{
1070
     1
1000
183165
1002
}
1002
{
1070
     5
1000
142470
1002
}
1002
{
1070
     2
1000
-2000011
1002
}
  0
VERTEX
  5
FFBBDAE469BC8851
  8
0
  6
CONTINUOUS
 10
-44.819075579811397
 20
462.6846187423634
 30
0.0
 70
    32
  0
VERTEX
  5
FFBBDAE469BC8852
  8
0
  6
CONTINUOUS
 10
-45.144429484900677
 20
469.39809131898619
 30
0.0
 70
    32
  0
VERTEX
  5
FFBBDAE469BC8853
  8
0
  6
CONTINUOUS
 10
-45.144429484900677
 20
469.39809131898619
 30
0.0
 70
    32
  0
SEQEND
  5
FFBBDAE469BC8854
  8
0
  6
CONTINUOUS
  0
POLYLINE
  5
FFBBDAE469BC8855
  8
0
  6
CONTINUOUS
 66
     1
 10
0.0
 20
0.0
 30
0.0
 70
     8
1001
REVIT
1002
{
1070
     1
1000
183165
1002
}
1002
{
1070
     5
1000
142470
1002
}
1002
{
1070
     2
1000
-2000011
1002
}
  0
VERTEX
  5
FFBBDAE469BC8856
  8
0
  6
CONTINUOUS
 10
-45.144431702039583
 20
469.39823799935402
 30
0.0
 70
    32
  0
VERTEX
  5
FFBBDAE469BC8857
  8
0
  6
CONTINUOUS
 10
-45.030373442643388
 20
476.66306098638228
 30
0.0
 70
    32
  0
VERTEX
  5
FFBBDAE469BC8858
  8
0
  6
CONTINUOUS
 10
-44.382697320921579
 20
484.56210550899772
 30
0.0
 70
    32
  0
VERTEX
  5
FFBBDAE469BC8859
  8
0
  6
CONTINUOUS
 10
-44.382697320921579
 20
484.56210550899772
 30
0.0
 70
    32
  0
SEQEND
  5
FFBBDAE469BC885A
  8
0
  6
CONTINUOUS
  0
LINE
  5
FFBBDAE469BC885B
  8
0
  6
CONTINUOUS
 10
-44.382688052870442
 20
484.56218509539673
 30
0.0
 11
-43.107221540682083
 21
493.17763433970862
 31
0.0
1001
REVIT
1002
{
1070
     1
1000
183165
1002
}
1002
{
1070
     5
1000
142470
1002
}
1002
{
1070
     2
1000
-2000011
1002
}
  0
POLYLINE
  5
FFBBDAE469BC885C
  8
0
  6
CONTINUOUS
 66
     1
 10
0.0
 20
0.0
 30
0.0
 70
     8
1001
REVIT
1002
{
1070
     1
1000
183165
1002
}
1002
{
1070
     5
1000
142470
1002
}
1002
{
1070
     2
1000
-2000011
1002
}
  0
VERTEX
  5
FFBBDAE469BC885D
  8
0
  6
CONTINUOUS
 10
-43.107190987626382
 20
493.17780265128567
 30
0.0
 70
    32
  0
VERTEX
  5
FFBBDAE469BC885E
  8
0
  6
CONTINUOUS
 10
-41.10964431064167
 20
502.59273017769829
 30
0.0
 70
    32
  0
VERTEX
  5
FFBBDAE469BC885F
  8
0
  6
CONTINUOUS
 10
-41.10964431064167
 20
502.59273017769829
 30
0.0
 70
    32
  0
SEQEND
  5
FFBBDAE469BC8860
  8
0
  6
CONTINUOUS
  0
LINE
  5
FFBBDAE469BC8861
  8
0
  6
CONTINUOUS
 10
-41.10963191681185
 20
502.59278095412259
 30
0.0
 11
-38.295847157844037
 21
512.88946585268786
 31
0.0
1001
REVIT
1002
{
1070
     1
1000
183165
1002
}
1002
{
1070
     5
1000
142470
1002
}
1002
{
1070
     2
1000
-2000011
1002
}
  0
LINE
  5
FFBBDAE469BC8862
  8
0
  6
CONTINUOUS
 10
-38.295847157844037
 20
512.88946585268786
 30
0.0
 11
-17.902874547266041
 21
541.21320479393762
 31
0.0
1001
REVIT
1002
{
1070
     1
1000
183165
1002
}
1002
{
1070
     5
1000
142470
1002
}
1002
{
1070
     2
1000
-2000011
1002
}
  0
LINE
  5
FFBBDAE469BC8863
  8
0
  6
CONTINUOUS
 10
-4.593682072541923
 20
518.76510152444735
 30
0.0
 11
-4.593682072541923
 21
536.21815301599963
 31
0.0
1001
REVIT
1002
{
1070
     1
1000
183165
1002
}
1002
{
1070
     5
1000
142470
1002
}
1002
{
1070
     2
1000
-2000011
1002
}
  0
LINE
  5
FFBBDAE469BC8864
  8
0
  6
CONTINUOUS
 10
-4.593682072541923
 20
536.21815301599963
 30
0.0
 11
-24.986648656455149
 21
507.89442244516982
 31
0.0
1001
REVIT
1002
{
1070
     1
1000
183165
1002
}
1002
{
1070
     5
1000
142470
1002
}
1002
{
1070
     2
1000
-2000011
1002
}
  0
POLYLINE
  5
FFBBDAE469BC8865
  8
0
  6
CONTINUOUS
 66
     1
 10
0.0
 20
0.0
 30
0.0
 70
     8
1001
REVIT
1002
{
1070
     1
1000
183165
1002
}
1002
{
1070
     5
1000
142470
1002
}
1002
{
1070
     2
1000
-2000011
1002
}
  0
VERTEX
  5
FFBBDAE469BC8866
  8
0
  6
CONTINUOUS
 10
-24.98665468311993
 20
507.89441407475158
 30
0.0
 70
    32
  0
VERTEX
  5
FFBBDAE469BC8867
  8
0
  6
CONTINUOUS
 10
-27.80045183591756
 20
497.5976783997603
 30
0.0
 70
    32
  0
VERTEX
  5
FFBBDAE469BC8868
  8
0
  6
CONTINUOUS
 10
-29.797998512902272
 20
488.18275087334769
 30
0.0
 70
    32
  0
VERTEX
  5
FFBBDAE469BC8869
  8
0
  6
CONTINUOUS
 10
-29.797998512902272
 20
488.18275087334769
 30
0.0
 70
    32
  0
SEQEND
  5
FFBBDAE469BC886A
  8
0
  6
CONTINUOUS
  0
POLYLINE
  5
FFBBDAE469BC886B
  8
0
  6
CONTINUOUS
 66
     1
 10
0.0
 20
0.0
 30
0.0
 70
     8
1001
REVIT
1002
{
1070
     1
1000
183165
1002
}
1002
{
1070
     5
1000
142470
1002
}
1002
{
1070
     2
1000
-2000011
1002
}
  0
VERTEX
  5
FFBBDAE469BC886C
  8
0
  6
CONTINUOUS
 10
-29.798026315262181
 20
488.1825977149328
 30
0.0
 70
    32
  0
VERTEX
  5
FFBBDAE469BC886D
  8
0
  6
CONTINUOUS
 10
-31.073504846199281
 20
479.56705373105979
 30
0.0
 70
    32
  0
VERTEX
  5
FFBBDAE469BC886E
  8
0
  6
CONTINUOUS
 10
-31.721177768095
 20
471.6680729079489
 30
0.0
 70
    32
  0
SEQEND
  5
FFBBDAE469BC886F
  8
0
  6
CONTINUOUS
  0
LINE
  5
FFBBDAE469BC8870
  8
0
  6
CONTINUOUS
 10
-31.721180967919281
 20
471.66800920844429
 30
0.0
 11
-31.835239437894419
 21
464.40320015328138
 31
0.0
1001
REVIT
1002
{
1070
     1
1000
183165
1002
}
1002
{
1070
     5
1000
142470
1002
}
1002
{
1070
     2
1000
-2000011
1002
}
  0
LINE
  5
FFBBDAE469BC8871
  8
0
  6
CONTINUOUS
 10
-31.835237010178389
 20
464.40303954105087
 30
0.0
 11
-31.509883105090921
 21
457.68956696442552
 31
0.0
1001
REVIT
1002
{
1070
     1
1000
183165
1002
}
1002
{
1070
     5
1000
142470
1002
}
1002
{
1070
     2
1000
-2000011
1002
}
  0
LINE
  5
FFBBDAE469BC8872
  8
0
  6
CONTINUOUS
 10
-31.50987877947955
 20
457.68951068293597
 30
0.0
 11
-30.839329384774832
 21
451.44501371411741
 31
0.0
1001
REVIT
1002
{
1070
     1
1000
183165
1002
}
1002
{
1070
     5
1000
142470
1002
}
1002
{
1070
     2
1000
-2000011
1002
}
  0
POLYLINE
  5
FFBBDAE469BC8873
  8
0
  6
CONTINUOUS
 66
     1
 10
0.0
 20
0.0
 30
0.0
 70
     8
1001
REVIT
1002
{
1070
     1
1000
183165
1002
}
1002
{
1070
     5
1000
142470
1002
}
1002
{
1070
     2
1000
-2000011
1002
}
  0
VERTEX
  5
FFBBDAE469BC8874
  8
0
  6
CONTINUOUS
 10
-30.839309588021941
 20
451.44486322460028
 30
0.0
 70
    32
  0
VERTEX
  5
FFBBDAE469BC8875
  8
0
  6
CONTINUOUS
 10
-29.91778598134443
 20
445.5868020256712
 30
0.0
 70
    32
  0
VERTEX
  5
FFBBDAE469BC8876
  8
0
  6
CONTINUOUS
 10
-28.83946302691766
 20
440.03235413463881
 30
0.0
 70
    32
  0
VERTEX
  5
FFBBDAE469BC8877
  8
0
  6
CONTINUOUS
 10
-27.698570653605209
 20
434.6990922765662
 30
0.0
 70
    32
  0
VERTEX
  5
FFBBDAE469BC8878
  8
0
  6
CONTINUOUS
 10
-26.589318993526831
 20
429.50443868700131
 30
0.0
 70
    32
  0
VERTEX
  5
FFBBDAE469BC8879
  8
0
  6
CONTINUOUS
 10
-25.605918178796859
 20
424.36581560149068
 30
0.0
 70
    32
  0
VERTEX
  5
FFBBDAE469BC887A
  8
0
  6
CONTINUOUS
 10
-24.84257834153323
 20
419.2006452555861
 30
0.0
 70
    32
  0
VERTEX
  5
FFBBDAE469BC887B
  8
0
  6
CONTINUOUS
 10
-24.393509613846621
 20
413.92634988482848
 30
0.0
 70
    32
  0
VERTEX
  5
FFBBDAE469BC887C
  8
0
  6
CONTINUOUS
 10
-24.3529221278568
 20
408.46035172477048
 30
0.0
 70
    32
  0
VERTEX
  5
FFBBDAE469BC887D
  8
0
  6
CONTINUOUS
 10
-24.81502601567809
 20
402.72007301096158
 30
0.0
 70
    32
  0
VERTEX
  5
FFBBDAE469BC887E
  8
0
  6
CONTINUOUS
 10
-25.87403140942115
 20
396.62293597894683
 30
0.0
 70
    32
  0
VERTEX
  5
FFBBDAE469BC887F
  8
0
  6
CONTINUOUS
 10
-27.6241484412094
 20
390.08636286427281
 30
0.0
 70
    32
  0
VERTEX
  5
FFBBDAE469BC8880
  8
0
  6
CONTINUOUS
 10
-30.15958724315351
 20
383.02777590248837
 30
0.0
 70
    32
  0
VERTEX
  5
FFBBDAE469BC8881
  8
0
  6
CONTINUOUS
 10
-33.574557947371432
 20
375.36459732914409
 30
0.0
 70
    32
  0
SEQEND
  5
FFBBDAE469BC8882
  8
0
  6
CONTINUOUS
  0
LINE
  5
FFBBDAE469BC8883
  8
0
  6
CONTINUOUS
 10
-33.574557947371432
 20
375.36459732914409
 30
0.0
 11
-10.96768892415821
 21
406.76321040630052
 31
0.0
1001
REVIT
1002
{
1070
     1
1000
183165
1002
}
1002
{
1070
     5
1000
142470
1002
}
1002
{
1070
     2
1000
-2000011
1002
}
  0
LINE
  5
FFBBDAE469BC8884
  8
0
  6
CONTINUOUS
 10
-38.295847157844037
 20
512.88946585268786
 30
0.0
 11
-24.98665468311993
 21
507.89441407475158
 31
0.0
1001
REVIT
1002
{
1070
     1
1000
183165
1002
}
1002
{
1070
     5
1000
142470
1002
}
1002
{
1070
     2
1000
-2000011
1002
}
  0
LINE
  5
FFBBDAE469BC8885
  8
0
  6
CONTINUOUS
 10
-4.593682072541923
 20
536.21815301599963
 30
0.0
 11
-17.902874547266041
 21
541.21320479393762
 31
0.0
1001
REVIT
1002
{
1070
     1
1000
183165
1002
}
1002
{
1070
     5
1000
142470
1002
}
1002
{
1070
     2
1000
-2000011
1002
}
  0
LINE
  5
FFBBDAE469BC8886
  8
0
  6
CONTINUOUS
 10
-33.574557947371432
 20
375.36459732914318
 30
0.0
 11
-46.883750422095538
 21
380.3596491070802
 31
0.0
1001
REVIT
1002
{
1070
     1
1000
183165
1002
}
1002
{
1070
     5
1000
142470
1002
}
1002
{
1070
     2
1000
-2000011
1002
}
  0
LINE
  5
FFBBDAE469BC8887
  8
0
  6
CONTINUOUS
 10
284.39199068924609
 20
458.90107955145862
 30
0.0
 11
284.39199068924609
 21
294.95167430025509
 31
0.0
1001
REVIT
1002
{
1070
     1
1000
183279
1002
}
1002
{
1070
     5
1000
142470
1002
}
1002
{
1070
     2
1000
-2000011
1002
}
  0
LINE
  5
FFBBDAE469BC8888
  8
0
  6
CONTINUOUS
 10
284.39199068924609
 20
294.95167430025509
 30
0.0
 11
291.31047286894142
 21
304.5607336007015
 31
0.0
1001
REVIT
1002
{
1070
     1
1000
183279
1002
}
1002
{
1070
     5
1000
142470
1002
}
1002
{
1070
     2
1000
-2000011
1002
}
  0
LINE
  5
FFBBDAE469BC8889
  8
0
  6
CONTINUOUS
 10
291.31047286894142
 20
304.5607336007015
 30
0.0
 11
291.31047286894142
 21
468.51045144729687
 31
0.0
1001
REVIT
1002
{
1070
     1
1000
183279
1002
}
1002
{
1070
     5
1000
142470
1002
}
1002
{
1070
     2
1000
-2000011
1002
}
  0
LINE
  5
FFBBDAE469BC888A
  8
0
  6
CONTINUOUS
 10
291.31047286894142
 20
468.51045144730051
 30
0.0
 11
284.39199068924609
 21
458.90139214685581
 31
0.0
1001
REVIT
1002
{
1070
     1
1000
183279
1002
}
1002
{
1070
     5
1000
142470
1002
}
1002
{
1070
     2
1000
-2000011
1002
}
  0
LINE
  5
FFBBDAE469BC888B
  8
0
  6
CONTINUOUS
 10
-0.8648102724637283
 20
402.01094882188409
 30
0.0
 11
284.39199068924609
 21
294.95167430025509
 31
0.0
1001
REVIT
1002
{
1070
     1
1000
183279
1002
}
1002
{
1070
     5
1000
142470
1002
}
1002
{
1070
     2
1000
-2000011
1002
}
  0
POLYLINE
  5
FFBBDAE469BC888C
  8
0
  6
CONTINUOUS
 66
     1
 10
0.0
 20
0.0
 30
0.0
 70
     8
1001
REVIT
1002
{
1070
     1
1000
183279
1002
}
1002
{
1070
     5
1000
142470
1002
}
1002
{
1070
     2
1000
-2000011
1002
}
  0
VERTEX
  5
FFBBDAE469BC888D
  8
0
  6
CONTINUOUS
 10
284.39199068924609
 20
458.90139214685757
 30
0.0
 70
    32
  0
VERTEX
  5
FFBBDAE469BC888E
  8
0
  6
CONTINUOUS
 10
233.92625886788841
 20
461.04193824535832
 30
0.0
 70
    32
  0
VERTEX
  5
FFBBDAE469BC888F
  8
0
  6
CONTINUOUS
 10
233.92625886788841
 20
461.04193824535832
 30
0.0
 70
    32
  0
SEQEND
  5
FFBBDAE469BC8890
  8
0
  6
CONTINUOUS
  0
POLYLINE
  5
FFBBDAE469BC8891
  8
0
  6
CONTINUOUS
 66
     1
 10
0.0
 20
0.0
 30
0.0
 70
     8
1001
REVIT
1002
{
1070
     1
1000
183279
1002
}
1002
{
1070
     5
1000
142470
1002
}
1002
{
1070
     2
1000
-2000011
1002
}
  0
VERTEX
  5
FFBBDAE469BC8892
  8
0
  6
CONTINUOUS
 10
233.9261912697057
 20
461.04194069700492
 30
0.0
 70
    32
  0
VERTEX
  5
FFBBDAE469BC8893
  8
0
  6
CONTINUOUS
 10
187.8635134465566
 20
462.4022856165156
 30
0.0
 70
    32
  0
VERTEX
  5
FFBBDAE469BC8894
  8
0
  6
CONTINUOUS
 10
146.11747835178539
 20
464.18205849580949
 30
0.0
 70
    32
  0
VERTEX
  5
FFBBDAE469BC8895
  8
0
  6
CONTINUOUS
 10
108.6017750148912
 20
467.58097905093382
 30
0.0
 70
    32
  0
VERTEX
  5
FFBBDAE469BC8896
  8
0
  6
CONTINUOUS
 10
75.229963043335374
 20
473.79916684804351
 30
0.0
 70
    32
  0
VERTEX
  5
FFBBDAE469BC8897
  8
0
  6
CONTINUOUS
 10
45.916419146893531
 20
484.03733618803022
 30
0.0
 70
    32
  0
VERTEX
  5
FFBBDAE469BC8898
  8
0
  6
CONTINUOUS
 10
20.578069244134898
 20
499.49523174004747
 30
0.0
 70
    32
  0
VERTEX
  5
FFBBDAE469BC8899
  8
0
  6
CONTINUOUS
 10
-0.8648102724637283
 20
521.3649037457925
 30
0.0
 70
    32
  0
SEQEND
  5
FFBBDAE469BC889A
  8
0
  6
CONTINUOUS
  0
LINE
  5
FFBBDAE469BC889B
  8
0
  6
CONTINUOUS
 10
-0.8648102724637283
 20
521.3649037457925
 30
0.0
 11
-0.8648102724637283
 21
402.01094882188409
 31
0.0
1001
REVIT
1002
{
1070
     1
1000
183279
1002
}
1002
{
1070
     5
1000
142470
1002
}
1002
{
1070
     2
1000
-2000011
1002
}
  0
LINE
  5
FFBBDAE469BC889C
  8
0
  6
CONTINUOUS
 10
-0.8648102724637283
 20
521.3649037457925
 30
0.0
 11
6.0536719072351843
 21
530.97396304623908
 31
0.0
1001
REVIT
1002
{
1070
     1
1000
183279
1002
}
1002
{
1070
     5
1000
142470
1002
}
1002
{
1070
     2
1000
-2000011
1002
}
  0
POLYLINE
  5
FFBBDAE469BC889D
  8
0
  6
CONTINUOUS
 66
     1
 10
0.0
 20
0.0
 30
0.0
 70
     8
1001
REVIT
1002
{
1070
     1
1000
183279
1002
}
1002
{
1070
     5
1000
142470
1002
}
1002
{
1070
     2
1000
-2000011
1002
}
  0
VERTEX
  5
FFBBDAE469BC889E
  8
0
  6
CONTINUOUS
 10
6.0536719072351843
 20
530.97396304623908
 30
0.0
 70
    32
  0
VERTEX
  5
FFBBDAE469BC889F
  8
0
  6
CONTINUOUS
 10
27.496551423830169
 20
509.10429104049302
 30
0.0
 70
    32
  0
VERTEX
  5
FFBBDAE469BC88A0
  8
0
  6
CONTINUOUS
 10
52.834901326592437
 20
493.6463954884739
 30
0.0
 70
    32
  0
VERTEX
  5
FFBBDAE469BC88A1
  8
0
  6
CONTINUOUS
 10
82.148445223032468
 20
483.40822614848912
 30
0.0
 70
    32
  0
VERTEX
  5
FFBBDAE469BC88A2
  8
0
  6
CONTINUOUS
 10
115.52025719458651
 20
477.19003835138022
 30
0.0
 70
    32
  0
VERTEX
  5
FFBBDAE469BC88A3
  8
0
  6
CONTINUOUS
 10
153.03596053148249
 20
473.79111779625589
 30
0.0
 70
    32
  0
VERTEX
  5
FFBBDAE469BC88A4
  8
0
  6
CONTINUOUS
 10
194.7819956262538
 20
472.01134491696212
 30
0.0
 70
    32
  0
VERTEX
  5
FFBBDAE469BC88A5
  8
0
  6
CONTINUOUS
 10
240.84474104758371
 20
470.65099754580388
 30
0.0
 70
    32
  0
VERTEX
  5
FFBBDAE469BC88A6
  8
0
  6
CONTINUOUS
 10
291.31047286894142
 20
468.51045144729687
 30
0.0
 70
    32
  0
SEQEND
  5
FFBBDAE469BC88A7
  8
0
  6
CONTINUOUS
  0
LINE
  5
FFBBDAE469BC88A9
  8
0
  6
CONTINUOUS
 10
71.40589297715087
 20
582.91121616905002
 30
0.0
 11
84.551009118575166
 21
601.16842883989636
 31
0.0
1001
REVIT
1002
{
1070
     1
1000
187875
1002
}
1002
{
1070
     5
1000
143807
1002
}
1002
{
1070
     2
1000
-2001320
1002
}
  0
LINE
  5
FFBBDAE469BC88AA
  8
0
  6
CONTINUOUS
 10
84.551009118575166
 20
601.16842883989636
 30
0.0
 11
-8.6133382044845348
 21
636.13379128546865
 31
0.0
1001
REVIT
1002
{
1070
     1
1000
187875
1002
}
1002
{
1070
     5
1000
143807
1002
}
1002
{
1070
     2
1000
-2001320
1002
}
  0
LINE
  5
FFBBDAE469BC88AB
  8
0
  6
CONTINUOUS
 10
-8.6133382044845348
 20
636.13379128546865
 30
0.0
 11
-21.758454345908831
 21
617.87657861462412
 31
0.0
1001
REVIT
1002
{
1070
     1
1000
187875
1002
}
1002
{
1070
     5
1000
143807
1002
}
1002
{
1070
     2
1000
-2001320
1002
}
  0
LINE
  5
FFBBDAE469BC88AC
  8
0
  6
CONTINUOUS
 10
-21.758454345908831
 20
617.87657861462412
 30
0.0
 11
71.40589297715087
 21
582.91121616905002
 31
0.0
1001
REVIT
1002
{
1070
     1
1000
187875
1002
}
1002
{
1070
     5
1000
143807
1002
}
1002
{
1070
     2
1000
-2001320
1002
}
  0
LINE
  5
FFBBDAE469BC88AD
  8
0
  6
CONTINUOUS
 10
71.405892977154494
 20
582.91121616905093
 30
0.0
 11
71.40589297713268
 21
488.25344639813011
 31
0.0
1001
REVIT
1002
{
1070
     1
1000
187875
1002
}
1002
{
1070
     5
1000
143807
1002
}
1002
{
1070
     2
1000
-2001320
1002
}
  0
LINE
  5
FFBBDAE469BC88AE
  8
0
  6
CONTINUOUS
 10
84.551009118547881
 20
481.91067868987187
 30
0.0
 11
84.551009118578804
 21
601.16842883989557
 31
0.0
1001
REVIT
1002
{
1070
     1
1000
187875
1002
}
1002
{
1070
     5
1000
143807
1002
}
1002
{
1070
     2
1000
-2001320
1002
}
  0
LINE
  5
FFBBDAE469BC88AF
  8
0
  6
CONTINUOUS
 10
-15.185896274912009
 20
627.00518495042877
 30
0.0
 11
-40.473361976890367
 21
636.49578332850979
 31
0.0
1001
REVIT
1002
{
1070
     1
1000
187990
1002
}
1002
{
1070
     5
1000
143807
1002
}
1002
{
1070
     2
1000
-2001320
1002
}
  0
LINE
  5
FFBBDAE469BC88B0
  8
0
  6
CONTINUOUS
 10
-40.473361976890367
 20
636.49578332850979
 30
0.0
 11
-88.17320388663029
 21
570.24561492052999
 31
0.0
1001
REVIT
1002
{
1070
     1
1000
187990
1002
}
1002
{
1070
     5
1000
143807
1002
}
1002
{
1070
     2
1000
-2001320
1002
}
  0
LINE
  5
FFBBDAE469BC88B1
  8
0
  6
CONTINUOUS
 10
-88.17320388663029
 20
570.24561492052999
 30
0.0
 11
-62.885738184657392
 21
560.75501654244897
 31
0.0
1001
REVIT
1002
{
1070
     1
1000
187990
1002
}
1002
{
1070
     5
1000
143807
1002
}
1002
{
1070
     2
1000
-2001320
1002
}
  0
LINE
  5
FFBBDAE469BC88B2
  8
0
  6
CONTINUOUS
 10
-62.885738184657392
 20
560.75501654244897
 30
0.0
 11
-8.6133382042007725
 21
636.13379128585154
 31
0.0
1001
REVIT
1002
{
1070
     1
1000
187990
1002
}
1002
{
1070
     5
1000
143807
1002
}
1002
{
1070
     2
1000
-2001320
1002
}
  0
LINE
  5
FFBBDAE469BC88B3
  8
0
  6
CONTINUOUS
 10
-88.173203886635747
 20
405.99919406353359
 30
0.0
 11
-95.396406903935713
 21
396.28679778878092
 31
0.0
1001
REVIT
1002
{
1070
     1
1000
187990
1002
}
1002
{
1070
     5
1000
143807
1002
}
1002
{
1070
     2
1000
-2001320
1002
}
  0
LINE
  5
FFBBDAE469BC88B4
  8
0
  6
CONTINUOUS
 10
-62.885738184662841
 20
368.7508281865567
 30
0.0
 11
-88.173203886637566
 21
378.24142656463852
 31
0.0
1001
REVIT
1002
{
1070
     1
1000
187990
1002
}
1002
{
1070
     5
1000
143807
1002
}
1002
{
1070
     2
1000
-2001320
1002
}
  0
LINE
  5
FFBBDAE469BC88B5
  8
0
  6
CONTINUOUS
 10
-21.758454345625069
 20
617.87657861500702
 30
0.0
 11
-21.758454345630518
 21
535.85820149150823
 31
0.0
1001
REVIT
1002
{
1070
     1
1000
187990
1002
}
1002
{
1070
     5
1000
143807
1002
}
1002
{
1070
     2
1000
-2001320
1002
}
  0
LINE
  5
FFBBDAE469BC88B6
  8
0
  6
CONTINUOUS
 10
-95.475295305484906
 20
368.09957353408839
 30
0.0
 11
-95.475295305483087
 21
396.28679778877819
 31
0.0
1001
REVIT
1002
{
1070
     1
1000
187990
1002
}
1002
{
1070
     5
1000
143807
1002
}
1002
{
1070
     2
1000
-2001320
1002
}
  0
LINE
  5
FFBBDAE469BC88B7
  8
0
  6
CONTINUOUS
 10
-88.173203886637566
 20
378.24142656463852
 30
0.0
 11
-88.17320388663029
 21
570.24561492052999
 31
0.0
1001
REVIT
1002
{
1070
     1
1000
187990
1002
}
1002
{
1070
     5
1000
143807
1002
}
1002
{
1070
     2
1000
-2001320
1002
}
  0
LINE
  5
FFBBDAE469BC88B8
  8
0
  6
CONTINUOUS
 10
-62.885738184662841
 20
368.7508281865567
 30
0.0
 11
-62.885738184657392
 21
560.75501654244897
 31
0.0
1001
REVIT
1002
{
1070
     1
1000
187990
1002
}
1002
{
1070
     5
1000
143807
1002
}
1002
{
1070
     2
1000
-2001320
1002
}
  0
LINE
  5
FFBBDAE469BC88B9
  8
0
  6
CONTINUOUS
 10
-95.396406903935713
 20
360.7580594270276
 30
0.0
 11
-95.396406903935713
 21
396.28679778878092
 31
0.0
  0
LINE
  5
FFBBDAE469BC88BA
  8
0
  6
CONTINUOUS
 10
-95.396406903935713
 20
396.28679778878092
 30
0.0
 11
-96.727326151411035
 21
396.78630296657502
 31
0.0
  0
LINE
  5
FFBBDAE469BC88BB
  8
0
  6
CONTINUOUS
 10
-96.727326151411035
 20
396.78630296657502
 30
0.0
 11
-96.727326151411035
 21
360.46118625060262
 31
0.0
  0
LINE
  5
FFBBDAE469BC88BC
  8
0
  6
CONTINUOUS
 10
-96.727326151411035
 20
360.46118625060262
 30
0.0
 11
-71.439860449454486
 21
345.6868042127835
 31
0.0
  0
LINE
  5
FFBBDAE469BC88BD
  8
0
  6
CONTINUOUS
 10
-71.439860449454486
 20
345.6868042127835
 30
0.0
 11
-71.439860449454486
 21
310.38551778290639
 31
0.0
  0
LINE
  5
FFBBDAE469BC88BE
  8
0
  6
CONTINUOUS
 10
-71.439860449454486
 20
310.38551778290639
 30
0.0
 11
-70.108941201980997
 21
309.88601260511308
 31
0.0
  0
LINE
  5
FFBBDAE469BC88BF
  8
0
  6
CONTINUOUS
 10
-70.108941201980997
 20
309.88601260511308
 30
0.0
 11
-70.108941201980997
 21
345.98367738920751
 31
0.0
  0
LINE
  5
FFBBDAE469BC88C0
  8
0
  6
CONTINUOUS
 10
-70.108941201980997
 20
345.98367738920751
 30
0.0
 11
-95.396406903935713
 21
360.7580594270276
 31
0.0
  0
LINE
  5
FFBBDAE469BC88C1
  8
0
  6
CONTINUOUS
 10
-95.396406903935713
 20
360.7580594270276
 30
0.0
 11
-91.251817776574171
 21
366.51446692601348
 31
0.0
  0
LINE
  5
FFBBDAE469BC88C2
  8
0
  6
CONTINUOUS
 10
-95.475295305479449
 20
398.52524488071691
 30
0.0
 11
-96.727326151411035
 21
396.78630296657502
 31
0.0
  0
LINE
  5
FFBBDAE469BC88C3
  8
0
  6
CONTINUOUS
 10
-46.897502479443567
 20
343.58581229876648
 30
0.0
 11
-70.108941201980997
 21
309.88601260511308
 31
0.0
  0
LINE
  5
FFBBDAE469BC88C4
  8
0
  6
CONTINUOUS
 10
-48.123782519824083
 20
375.9695653619392
 30
0.0
 11
-70.108941201980997
 21
345.98367738920751
 31
0.0
  0
LINE
  5
FFBBDAE469BC88C7
  8
0
  6
CONTINUOUS
 10
-88.173203886635747
 20
408.27841649296528
 30
0.0
 11
-96.727326151411035
 21
396.78630296657502
 31
0.0
1001
REVIT
1002
{
1070
     1
1000
187990
1002
}
1002
{
1070
     5
1000
143807
1002
}
1002
{
1070
     2
1000
-2001320
1002
}
  0
LINE
  5
FFBBDAE469BC88C8
  8
0
  6
CONTINUOUS
 10
-83.785307520070987
 20
376.59461218511387
 30
0.0
 11
-95.396406903935713
 21
360.7580594270276
 31
0.0
  0
LINE
  5
FFBBDAE469BC88C9
  8
0
  6
CONTINUOUS
 10
-217.36110225639101
 20
818.30287453094206
 30
0.0
 11
-97.578369983881217
 21
773.34740852950279
 31
0.0
  0
LINE
  5
FFBBDAE469BC88CA
  8
0
  6
CONTINUOUS
 10
-97.578369983881217
 20
773.34740852950279
 30
0.0
 11
-66.445200175248814
 21
816.58817538150743
 31
0.0
  0
LINE
  5
FFBBDAE469BC88CB
  8
0
  6
CONTINUOUS
 10
-66.445200175248814
 20
816.58817538150743
 30
0.0
 11
-186.22793244775491
 21
861.54364138294648
 31
0.0
  0
LINE
  5
FFBBDAE469BC88CC
  8
0
  6
CONTINUOUS
 10
-186.22793244775491
 20
861.54364138294648
 30
0.0
 11
-217.36110225639101
 21
818.30287453094206
 31
0.0
  0
LINE
  5
FFBBDAE469BC88CD
  8
0
  6
CONTINUOUS
 10
-217.36110225639101
 20
818.30287453094206
 30
0.0
 11
-217.36110225639101
 21
503.19548055474559
 31
0.0
  0
LINE
  5
FFBBDAE469BC88CE
  8
0
  6
CONTINUOUS
 10
-97.578369983881217
 20
669.561360769575
 30
0.0
 11
-97.578369983881217
 21
773.34740852950279
 31
0.0
  0
LINE
  5
FFBBDAE469BC88CF
  8
0
  6
CONTINUOUS
 10
-66.445200175248814
 20
712.80212762157953
 30
0.0
 11
-66.445200175248814
 21
816.58817538150743
 31
0.0
  0
LINE
  5
FFBBDAE469BC88D0
  8
0
  6
CONTINUOUS
 10
-66.445200175250633
 20
816.58817538150458
 30
0.0
 11
-217.36110225639101
 21
818.30287453093933
 31
0.0
  0
LINE
  5
FFBBDAE469BC88D1
  8
0
  6
CONTINUOUS
 10
-217.36110225639101
 20
818.30287453093933
 30
0.0
 11
-97.578369983884841
 21
773.34740852950108
 31
0.0
  0
LINE
  5
FFBBDAE469BC88D2
  8
0
  6
CONTINUOUS
 10
-97.578369983884841
 20
773.34740852950108
 30
0.0
 11
-66.445200175250633
 21
816.58817538150458
 31
0.0
  0
LINE
  5
FFBBDAE469BC88D3
  8
0
  6
CONTINUOUS
 10
-217.36110225639101
 20
503.19548055474479
 30
0.0
 11
-217.36110225639101
 21
818.30287453093933
 31
0.0
  0
LINE
  5
FFBBDAE469BC88D4
  8
0
  6
CONTINUOUS
 10
-97.578369983884841
 20
669.56136076957307
 30
0.0
 11
-97.578369983884841
 21
773.34740852950108
 31
0.0
  0
LINE
  5
FFBBDAE469BC88D5
  8
0
  6
CONTINUOUS
 10
-66.445200175250633
 20
816.58817538150458
 30
0.0
 11
-66.445200175250633
 21
712.8021276215776
 31
0.0
  0
LINE
  5
FFBBDAE469BC88D6
  8
0
  6
CONTINUOUS
 10
-97.578369983884841
 20
773.34740852949915
 30
0.0
 11
-66.445200175248814
 21
816.58817538150367
 31
0.0
  0
LINE
  5
FFBBDAE469BC88D7
  8
0
  6
CONTINUOUS
 10
-66.445200175248814
 20
816.58817538150367
 30
0.0
 11
-186.22793244775491
 21
861.54364138294216
 31
0.0
  0
LINE
  5
FFBBDAE469BC88D8
  8
0
  6
CONTINUOUS
 10
-186.22793244775491
 20
861.54364138294216
 30
0.0
 11
-97.578369983884841
 21
773.34740852949915
 31
0.0
  0
LINE
  5
FFBBDAE469BC88D9
  8
0
  6
CONTINUOUS
 10
-66.445200175248814
 20
816.58817538150367
 30
0.0
 11
-66.445200175248814
 21
712.8021276215776
 31
0.0
  0
LINE
  5
FFBBDAE469BC88DA
  8
0
  6
CONTINUOUS
 10
-97.578369983884841
 20
669.561360769575
 30
0.0
 11
-97.578369983884841
 21
773.34740852949915
 31
0.0
  0
LINE
  5
FFBBDAE469BC88DB
  8
0
  6
CONTINUOUS
 10
86.845675386886796
 20
923.83274293694922
 30
0.0
 11
24.57933576961841
 21
837.35120923294016
 31
0.0
  0
LINE
  5
FFBBDAE469BC88DC
  8
0
  6
CONTINUOUS
 10
24.57933576961841
 20
837.35120923294016
 30
0.0
 11
84.470701905875103
 21
814.87347623222013
 31
0.0
  0
LINE
  5
FFBBDAE469BC88DD
  8
0
  6
CONTINUOUS
 10
84.470701905875103
 20
814.87347623222013
 30
0.0
 11
146.73704152314349
 21
901.35500993622907
 31
0.0
  0
LINE
  5
FFBBDAE469BC88DE
  8
0
  6
CONTINUOUS
 10
146.73704152314349
 20
901.35500993622907
 30
0.0
 11
86.845675386886796
 21
923.83274293694922
 31
0.0
  0
LINE
  5
FFBBDAE469BC88DF
  8
0
  6
CONTINUOUS
 10
24.579335769620229
 20
733.56516147301045
 30
0.0
 11
24.57933576961841
 21
837.35120923294016
 31
0.0
  0
LINE
  5
FFBBDAE469BC88E0
  8
0
  6
CONTINUOUS
 10
84.470701905875103
 20
711.0874284722903
 30
0.0
 11
84.470701905875103
 21
814.87347623222013
 31
0.0
  0
LINE
  5
FFBBDAE469BC88E1
  8
0
  6
CONTINUOUS
 10
146.73704152314349
 20
687.7183479663563
 30
0.0
 11
146.73704152314349
 21
901.35500993622907
 31
0.0
  0
LINE
  5
FFBBDAE469BC88E2
  8
0
  6
CONTINUOUS
 10
84.470701905871465
 20
814.87347623222183
 30
0.0
 11
86.845675386884963
 21
923.83274293695013
 31
0.0
  0
LINE
  5
FFBBDAE469BC88E3
  8
0
  6
CONTINUOUS
 10
86.845675386884963
 20
923.83274293695013
 30
0.0
 11
24.579335769616591
 21
837.35120923294107
 31
0.0
  0
LINE
  5
FFBBDAE469BC88E4
  8
0
  6
CONTINUOUS
 10
24.579335769616591
 20
837.35120923294107
 30
0.0
 11
84.470701905871465
 21
814.87347623222183
 31
0.0
  0
LINE
  5
FFBBDAE469BC88E5
  8
0
  6
CONTINUOUS
 10
24.57933576961841
 20
733.56516147301124
 30
0.0
 11
24.579335769616591
 21
837.35120923294107
 31
0.0
  0
LINE
  5
FFBBDAE469BC88E6
  8
0
  6
CONTINUOUS
 10
84.470701905871465
 20
814.87347623222183
 30
0.0
 11
84.470701905871465
 21
711.08742847229314
 31
0.0
  0
LINE
  5
FFBBDAE469BC88E7
  8
0
  6
CONTINUOUS
 10
24.579335769616591
 20
837.35120923294016
 30
0.0
 11
84.470701905869646
 21
814.87347623222092
 31
0.0
  0
LINE
  5
FFBBDAE469BC88E8
  8
0
  6
CONTINUOUS
 10
84.470701905869646
 20
814.87347623222092
 30
0.0
 11
146.737041523138
 21
901.35500993622907
 31
0.0
  0
LINE
  5
FFBBDAE469BC88E9
  8
0
  6
CONTINUOUS
 10
146.737041523138
 20
901.35500993622907
 30
0.0
 11
24.579335769616591
 21
837.35120923294016
 31
0.0
  0
LINE
  5
FFBBDAE469BC88EA
  8
0
  6
CONTINUOUS
 10
84.470701905869646
 20
814.87347623222092
 30
0.0
 11
84.470701905869646
 21
711.08742847229223
 31
0.0
  0
LINE
  5
FFBBDAE469BC88EB
  8
0
  6
CONTINUOUS
 10
146.737041523138
 20
901.35500993622907
 30
0.0
 11
146.737041523138
 21
687.71834796635721
 31
0.0
  0
LINE
  5
FFBBDAE469BC88EC
  8
0
  6
CONTINUOUS
 10
24.57933576961841
 20
733.56516147301045
 30
0.0
 11
24.579335769616591
 21
837.35120923294016
 31
0.0
  0
LINE
  5
FFBBDAE469BC88ED
  8
0
  6
CONTINUOUS
 10
-0.8648102724600904
 20
517.19349530496675
 30
0.0
 11
-5.0523163483594544
 21
518.76510152444735
 31
0.0
  0
LINE
  5
FFBBDAE469BC88EE
  8
0
  6
CONTINUOUS
 10
-5.0523163483594544
 20
518.76510152444735
 30
0.0
 11
-10.967688924154571
 21
510.54925816622188
 31
0.0
  0
POLYLINE
  5
FFBBDAE469BC88EF
  8
0
  6
CONTINUOUS
 66
     1
 10
0.0
 20
0.0
 30
0.0
 70
     8
  0
VERTEX
  5
FFBBDAE469BC88F0
  8
0
  6
CONTINUOUS
 10
-10.967688924154571
 20
510.54925816622188
 30
0.0
 70
    32
  0
VERTEX
  5
FFBBDAE469BC88F1
  8
0
  6
CONTINUOUS
 10
-5.2921093038785321
 20
509.03999397064581
 30
0.0
 70
    32
  0
VERTEX
  5
FFBBDAE469BC88F2
  8
0
  6
CONTINUOUS
 10
-0.8304926846049056
 20
506.87321547548157
 30
0.0
 70
    32
  0
SEQEND
  5
FFBBDAE469BC88F3
  8
0
  6
CONTINUOUS
  0
POLYLINE
  5
FFBBDAE469BC88F4
  8
0
  6
CONTINUOUS
 66
     1
 10
0.0
 20
0.0
 30
0.0
 70
     8
  0
VERTEX
  5
FFBBDAE469BC88F5
  8
0
  6
CONTINUOUS
 10
-0.3203349443774641
 20
390.3128432527601
 30
0.0
 70
    32
  0
VERTEX
  5
FFBBDAE469BC88F6
  8
0
  6
CONTINUOUS
 10
-5.2921093038785321
 20
392.7996204795345
 30
0.0
 70
    32
  0
VERTEX
  5
FFBBDAE469BC88F7
  8
0
  6
CONTINUOUS
 10
-10.967688924154571
 20
394.30888467510891
 30
0.0
 70
    32
  0
SEQEND
  5
FFBBDAE469BC88F8
  8
0
  6
CONTINUOUS
  0
LINE
  5
FFBBDAE469BC88F9
  8
0
  6
CONTINUOUS
 10
-10.967688924154571
 20
394.30888467510891
 30
0.0
 11
-10.967688924154571
 21
510.54925816622188
 31
0.0
  0
LINE
  5
FFBBDAE469BC88FA
  8
0
  6
CONTINUOUS
 10
-0.3203349443774641
 20
390.3128432527601
 30
0.0
 11
-0.3203349443774641
 21
402.01094882188409
 31
0.0
  0
LINE
  5
FFBBDAE469BC88FB
  8
0
  6
CONTINUOUS
 10
291.39695389618828
 20
368.41859577351988
 30
0.0
 11
291.39695389618828
 21
293.32819380823457
 31
0.0
  0
LINE
  5
FFBBDAE469BC88FC
  8
0
  6
CONTINUOUS
 10
291.39695389618828
 20
293.32819380823457
 30
0.0
 11
282.53446378935593
 21
279.1729666821775
 31
0.0
  0
LINE
  5
FFBBDAE469BC88FD
  8
0
  6
CONTINUOUS
 10
282.53446117068779
 20
279.17296249962237
 30
0.0
 11
280.99825494362813
 21
275.44118738596632
 31
0.0
  0
LINE
  5
FFBBDAE469BC88FE
  8
0
  6
CONTINUOUS
 10
280.99825380722359
 20
275.44118341927327
 30
0.0
 11
280.48994010506249
 21
272.03641801387403
 31
0.0
  0
LINE
  5
FFBBDAE469BC88FF
  8
0
  6
CONTINUOUS
 10
280.48994010506249
 20
272.03641801387403
 30
0.0
 11
281.54246135309592
 21
261.18159595756509
 31
0.0
  0
LINE
  5
FFBBDAE469BC8900
  8
0
  6
CONTINUOUS
 10
281.54246135309592
 20
261.18159595756509
 30
0.0
 11
282.16185133223189
 21
260.97298407445578
 31
0.0
  0
LINE
  5
FFBBDAE469BC8901
  8
0
  6
CONTINUOUS
 10
282.16185133223189
 20
260.97298407445578
 30
0.0
 11
282.66728140703708
 21
262.20587841543511
 31
0.0
  0
LINE
  5
FFBBDAE469BC8902
  8
0
  6
CONTINUOUS
 10
282.66728140703708
 20
262.20587841543511
 30
0.0
 11
282.19525404925298
 21
262.56155431129628
 31
0.0
  0
LINE
  5
FFBBDAE469BC8903
  8
0
  6
CONTINUOUS
 10
282.19525404925298
 20
262.56155431129628
 30
0.0
 11
281.18013386659908
 21
273.06675865116091
 31
0.0
  0
LINE
  5
FFBBDAE469BC8904
  8
0
  6
CONTINUOUS
 10
291.39695389618828
 20
292.21538480914302
 30
0.0
 11
291.39695389618828
 21
263.61253259685242
 31
0.0
  0
LINE
  5
FFBBDAE469BC8905
  8
0
  6
CONTINUOUS
 10
291.39695389618828
 20
263.61253259685242
 30
0.0
 11
292.08880211415823
 21
264.57343852689701
 31
0.0
  0
LINE
  5
FFBBDAE469BC8906
  8
0
  6
CONTINUOUS
 10
292.08880211415823
 20
264.57343852689701
 30
0.0
 11
292.08880211415823
 21
369.37950170356447
 31
0.0
  0
LINE
  5
FFBBDAE469BC8907
  8
0
  6
CONTINUOUS
 10
292.08880211415823
 20
369.37950170356447
 30
0.0
 11
291.39695389618828
 21
368.41859577351988
 31
0.0
  0
LINE
  5
FFBBDAE469BC8908
  8
0
  6
CONTINUOUS
 10
-11.746525067308539
 20
388.2286078717807
 30
0.0
 11
-11.156725688580989
 21
389.3977329259497
 31
0.0
  0
LINE
  5
FFBBDAE469BC8909
  8
0
  6
CONTINUOUS
 10
-11.15672568858645
 20
389.39773292594049
 30
0.0
 11
-8.493774877022588
 21
393.6510153678737
 31
0.0
  0
LINE
  5
FFBBDAE469BC890A
  8
0
  6
CONTINUOUS
 10
284.96195893108421
 20
295.74330149433263
 30
0.0
 11
291.39695389618828
 21
293.32819380823457
 31
0.0
  0
LINE
  5
FFBBDAE469BC890B
  8
0
  6
CONTINUOUS
 10
292.08880211415823
 20
369.37950170356447
 30
0.0
 11
291.31047286894318
 21
369.67161520988878
 31
0.0
  0
LINE
  5
FFBBDAE469BC890C
  8
0
  6
CONTINUOUS
 10
281.54246135309592
 20
261.18159595756509
 30
0.0
 11
-11.15869854407719
 21
371.03480094543738
 31
0.0
  0
LINE
  5
FFBBDAE469BC890D
  8
0
  6
CONTINUOUS
 10
280.48994010506249
 20
272.03641801387403
 30
0.0
 11
-10.18646819053356
 21
381.12971671091879
 31
0.0
  0
LINE
  5
FFBBDAE469BC890E
  8
0
  6
CONTINUOUS
 10
282.53446117068779
 20
279.17296249962237
 30
0.0
 11
-11.15672568858645
 21
389.39773292594049
 31
0.0
  0
LINE
  5
FFBBDAE469BC890F
  8
0
  6
CONTINUOUS
 10
-46.897502479441748
 20
373.30147351014972
 30
0.0
 11
-46.897502479441748
 21
448.39187547543401
 31
0.0
  0
LINE
  5
FFBBDAE469BC8910
  8
0
  6
CONTINUOUS
 10
-46.897502479441748
 20
448.39187547543401
 30
0.0
 11
-48.228421726915258
 21
448.89138065322908
 31
0.0
  0
LINE
  5
FFBBDAE469BC8911
  8
0
  6
CONTINUOUS
 10
-48.228421726915258
 20
448.89138065322908
 30
0.0
 11
-48.228421726915258
 21
344.08531747656161
 31
0.0
  0
LINE
  5
FFBBDAE469BC8912
  8
0
  6
CONTINUOUS
 10
-48.228421726915258
 20
344.08531747656161
 30
0.0
 11
-46.897502479441748
 21
343.58581229876751
 31
0.0
  0
LINE
  5
FFBBDAE469BC8913
  8
0
  6
CONTINUOUS
 10
-46.897502479441748
 20
343.58581229876751
 30
0.0
 11
-46.897502479441748
 21
372.18866451105902
 31
0.0
  0
LINE
  5
FFBBDAE469BC8914
  8
0
  6
CONTINUOUS
 10
-46.897502479441748
 20
372.18866451105902
 30
0.0
 11
-30.193053733913992
 21
364.18351573361178
 31
0.0
  0
POLYLINE
  5
FFBBDAE469BC8915
  8
0
  6
CONTINUOUS
 66
     1
 10
0.0
 20
0.0
 30
0.0
 70
     8
  0
VERTEX
  5
FFBBDAE469BC8916
  8
0
  6
CONTINUOUS
 10
-30.1930537339158
 20
364.18351573361178
 30
0.0
 70
    32
  0
VERTEX
  5
FFBBDAE469BC8917
  8
0
  6
CONTINUOUS
 10
-29.34209901049508
 20
363.6016794351836
 30
0.0
 70
    32
  0
VERTEX
  5
FFBBDAE469BC8918
  8
0
  6
CONTINUOUS
 10
-28.590125905457171
 20
362.91280100167393
 30
0.0
 70
    32
  0
VERTEX
  5
FFBBDAE469BC8919
  8
0
  6
CONTINUOUS
 10
-27.976634118627771
 20
362.15306589125521
 30
0.0
 70
    32
  0
VERTEX
  5
FFBBDAE469BC891A
  8
0
  6
CONTINUOUS
 10
-27.533849192739581
 20
361.3623815269566
 30
0.0
 70
    32
  0
VERTEX
  5
FFBBDAE469BC891B
  8
0
  6
CONTINUOUS
 10
-27.285029767679589
 20
360.58228103654528
 30
0.0
 70
    32
  0
VERTEX
  5
FFBBDAE469BC891C
  8
0
  6
CONTINUOUS
 10
-27.243245848927469
 20
359.85374159726138
 30
0.0
 70
    32
  0
SEQEND
  5
FFBBDAE469BC891D
  8
0
  6
CONTINUOUS
  0
LINE
  5
FFBBDAE469BC891E
  8
0
  6
CONTINUOUS
 10
-27.243245848927469
 20
359.85374159726138
 30
0.0
 11
-29.196048435533161
 21
348.67154307899909
 31
0.0
  0
LINE
  5
FFBBDAE469BC891F
  8
0
  6
CONTINUOUS
 10
-29.196048435533161
 20
348.67154307899909
 30
0.0
 11
-30.104094853073551
 21
348.00106724247422
 31
0.0
  0
LINE
  5
FFBBDAE469BC8920
  8
0
  6
CONTINUOUS
 10
-30.104094853073551
 20
348.00106724247422
 30
0.0
 11
-29.131791105897719
 21
347.10524946058382
 31
0.0
  0
LINE
  5
FFBBDAE469BC8921
  8
0
  6
CONTINUOUS
 10
-29.131791105897719
 20
347.10524946058382
 30
0.0
 11
-27.940260906767438
 21
347.72693894494569
 31
0.0
  0
LINE
  5
FFBBDAE469BC8922
  8
0
  6
CONTINUOUS
 10
-27.940260906767438
 20
347.72693894494569
 30
0.0
 11
-25.915509429016311
 21
359.28369763130831
 31
0.0
  0
LINE
  5
FFBBDAE469BC8923
  8
0
  6
CONTINUOUS
 10
-25.915509305194071
 20
359.28369833807028
 30
0.0
 11
-25.971221105815861
 21
360.25508378446648
 31
0.0
  0
POLYLINE
  5
FFBBDAE469BC8924
  8
0
  6
CONTINUOUS
 66
     1
 10
0.0
 20
0.0
 30
0.0
 70
     8
  0
VERTEX
  5
FFBBDAE469BC8925
  8
0
  6
CONTINUOUS
 10
-25.971221196861741
 20
360.2550842571145
 30
0.0
 70
    32
  0
VERTEX
  5
FFBBDAE469BC8926
  8
0
  6
CONTINUOUS
 10
-26.302980430273241
 20
361.29521824433141
 30
0.0
 70
    32
  0
VERTEX
  5
FFBBDAE469BC8927
  8
0
  6
CONTINUOUS
 10
-26.893360331463558
 20
362.34946406339441
 30
0.0
 70
    32
  0
VERTEX
  5
FFBBDAE469BC8928
  8
0
  6
CONTINUOUS
 10
-27.711349380566389
 20
363.3624442106202
 30
0.0
 70
    32
  0
VERTEX
  5
FFBBDAE469BC8929
  8
0
  6
CONTINUOUS
 10
-28.7139801872836
 20
364.28094878863249
 30
0.0
 70
    32
  0
VERTEX
  5
FFBBDAE469BC892A
  8
0
  6
CONTINUOUS
 10
-29.84858648517729
 20
365.05673051986918
 30
0.0
 70
    32
  0
SEQEND
  5
FFBBDAE469BC892B
  8
0
  6
CONTINUOUS
  0
LINE
  5
FFBBDAE469BC892C
  8
0
  6
CONTINUOUS
 10
-29.848586485175481
 20
365.05673051986741
 30
0.0
 11
-46.897502479441748
 21
373.30147351014972
 31
0.0
  0
LINE
  5
FFBBDAE469BC892D
  8
0
  6
CONTINUOUS
 10
-13.90248993652494
 20
402.68707401823019
 30
0.0
 11
-10.967688924154571
 21
401.26782366338279
 31
0.0
  0
LINE
  5
FFBBDAE469BC892E
  8
0
  6
CONTINUOUS
 10
-46.897502479441748
 20
373.30147351014972
 30
0.0
 11
-42.893905874569093
 21
378.8620569144378
 31
0.0
  0
LINE
  5
FFBBDAE469BC892F
  8
0
  6
CONTINUOUS
 10
-43.6024996786673
 20
452.96829505496129
 30
0.0
 11
-46.897502479441748
 21
448.39187547543401
 31
0.0
  0
LINE
  5
FFBBDAE469BC8930
  8
0
  6
CONTINUOUS
 10
-43.905684760979057
 20
454.89521715479799
 30
0.0
 11
-48.228421726915258
 21
448.89138065322908
 31
0.0
  0
LINE
  5
FFBBDAE469BC8931
  8
0
  6
CONTINUOUS
 10
-31.586463293659111
 20
364.8512690371536
 30
0.0
 11
-46.897502479441748
 21
343.58581229876751
 31
0.0
  0
LINE
  5
FFBBDAE469BC8932
  8
0
  6
CONTINUOUS
 10
-11.15869854407719
 20
371.03480094543738
 30
0.0
 11
-27.940260906767438
 21
347.72693894494569
 31
0.0
  0
LINE
  5
FFBBDAE469BC8933
  8
0
  6
CONTINUOUS
 10
-10.1864681905372
 20
381.12971671091879
 30
0.0
 11
-25.915509305194071
 21
359.28369833807028
 31
0.0
  0
LINE
  5
FFBBDAE469BC8934
  8
0
  6
CONTINUOUS
 10
-9.1375607478403253
 20
393.82221250190651
 30
0.0
 11
-29.848586485175481
 21
365.05673051986741
 31
0.0
  0
LINE
  5
FFBBDAE469BC8935
  8
0
  6
CONTINUOUS
 10
-123.96159283049199
 20
948.02517508695655
 30
0.0
 11
-4.1788605579840796
 21
903.06970908551739
 31
0.0
  0
LINE
  5
FFBBDAE469BC8936
  8
0
  6
CONTINUOUS
 10
-4.1788605579840796
 20
903.06970908551739
 30
0.0
 11
26.954309250648301
 21
946.31047593752191
 31
0.0
  0
LINE
  5
FFBBDAE469BC8937
  8
0
  6
CONTINUOUS
 10
26.954309250648301
 20
946.31047593752191
 30
0.0
 11
-92.828423021857816
 21
991.26594193896096
 31
0.0
  0
LINE
  5
FFBBDAE469BC8938
  8
0
  6
CONTINUOUS
 10
-92.828423021857816
 20
991.26594193896096
 30
0.0
 11
-123.96159283049199
 21
948.02517508695655
 31
0.0
  0
LINE
  5
FFBBDAE469BC8939
  8
0
  6
CONTINUOUS
 10
-123.96159283049199
 20
948.02517508695655
 30
0.0
 11
-123.96159283049199
 21
893.09986798198042
 31
0.0
  0
LINE
  5
FFBBDAE469BC893A
  8
0
  6
CONTINUOUS
 10
26.954309250646471
 20
946.31047593751998
 30
0.0
 11
-123.9615928304938
 21
948.02517508695382
 31
0.0
  0
LINE
  5
FFBBDAE469BC893B
  8
0
  6
CONTINUOUS
 10
-123.9615928304938
 20
948.02517508695382
 30
0.0
 11
-4.1788605579877176
 21
903.06970908551557
 31
0.0
  0
LINE
  5
FFBBDAE469BC893C
  8
0
  6
CONTINUOUS
 10
-4.1788605579877176
 20
903.06970908551557
 30
0.0
 11
26.954309250646471
 21
946.31047593751998
 31
0.0
  0
LINE
  5
FFBBDAE469BC893D
  8
0
  6
CONTINUOUS
 10
-123.9615928304938
 20
893.09986798198042
 30
0.0
 11
-123.9615928304938
 21
948.02517508695382
 31
0.0
  0
LINE
  5
FFBBDAE469BC893E
  8
0
  6
CONTINUOUS
 10
-4.1788605579858986
 20
903.06970908551557
 30
0.0
 11
26.954309250648301
 21
946.31047593751816
 31
0.0
  0
LINE
  5
FFBBDAE469BC893F
  8
0
  6
CONTINUOUS
 10
26.954309250648301
 20
946.31047593751816
 30
0.0
 11
-92.828423021857816
 21
991.26594193895664
 31
0.0
  0
LINE
  5
FFBBDAE469BC8940
  8
0
  6
CONTINUOUS
 10
-92.828423021857816
 20
991.26594193895664
 30
0.0
 11
-4.1788605579858986
 21
903.06970908551557
 31
0.0
  0
ENDSEC
  0
EOF
