  0
SECTION
  2
HEADER
  9
$ACADVER
  1
AC1009
  9
$INSBASE
 10
0.0
 20
0.0
 30
0.0
  9
$EXTMIN
 10
-135.9627063907337
 20
-45.568333649068329
 30
-0.0015258207003583
  9
$EXTMAX
 10
236.53081260765981
 20
251.80039993222181
 30
0.0000000349246037
  9
$LIMMIN
 10
0.0
 20
0.0
  9
$LIMMAX
 10
420.0
 20
297.0
  9
$ORTHOMODE
 70
     0
  9
$REGENMODE
 70
     1
  9
$FILLMODE
 70
     1
  9
$QTEXTMODE
 70
     0
  9
$MIRRTEXT
 70
     0
  9
$DRAGMODE
 70
     2
  9
$LTSCALE
 40
1.0
  9
$OSMODE
 70
     0
  9
$ATTMODE
 70
     1
  9
$TEXTSIZE
 40
35.0
  9
$TRACEWID
 40
1.0
  9
$TEXTSTYLE
  7
DIMS
  9
$CLAYER
  8
0
  9
$CELTYPE
  6
CONTINUOUS
  9
$CECOLOR
 62
   256
  9
$DIMSCALE
 40
2.0
  9
$DIMASZ
 40
2.5
  9
$DIMEXO
 40
1.0
  9
$DIMDLI
 40
1.0
  9
$DIMRND
 40
0.0
  9
$DIMDLE
 40
0.0
  9
$DIMEXE
 40
2.0
  9
$DIMTP
 40
0.0
  9
$DIMTM
 40
0.0
  9
$DIMTXT
 40
2.5
  9
$DIMCEN
 40
2.5
  9
$DIMTSZ
 40
0.0
  9
$DIMTOL
 70
     0
  9
$DIMLIM
 70
     0
  9
$DIMTIH
 70
     0
  9
$DIMTOH
 70
     0
  9
$DIMSE1
 70
     0
  9
$DIMSE2
 70
     0
  9
$DIMTAD
 70
     1
  9
$DIMZIN
 70
     8
  9
$DIMBLK
  1

  9
$DIMASO
 70
     1
  9
$DIMSHO
 70
     1
  9
$DIMPOST
  1
mm
  9
$DIMAPOST
  1

  9
$DIMALT
 70
     0
  9
$DIMALTD
 70
     3
  9
$DIMALTF
 40
0.03937007874016
  9
$DIMLFAC
 40
1.0
  9
$DIMTOFL
 70
     1
  9
$DIMTVP
 40
0.0
  9
$DIMTIX
 70
     0
  9
$DIMSOXD
 70
     0
  9
$DIMSAH
 70
     0
  9
$DIMBLK1
  1

  9
$DIMBLK2
  1

  9
$DIMSTYLE
  2
1_TO_2
  9
$DIMCLRD
 70
     0
  9
$DIMCLRE
 70
     0
  9
$DIMCLRT
 70
     0
  9
$DIMTFAC
 40
1.0
  9
$DIMGAP
 40
1.0
  9
$LUNITS
 70
     2
  9
$LUPREC
 70
     1
  9
$SKETCHINC
 40
1.0
  9
$FILLETRAD
 40
0.0
  9
$AUNITS
 70
     1
  9
$AUPREC
 70
     4
  9
$MENU
  1
acad
  9
$ELEVATION
 40
0.0
  9
$PELEVATION
 40
0.0
  9
$THICKNESS
 40
0.0
  9
$LIMCHECK
 70
     0
  9
$BLIPMODE
 70
     0
  9
$CHAMFERA
 40
10.0
  9
$CHAMFERB
 40
10.0
  9
$SKPOLY
 70
     0
  9
$TDCREATE
 40
2450935.42424213
  9
$TDUPDATE
 40
2457100.7021132521
  9
$TDINDWG
 40
8.5554439931000008
  9
$TDUSRTIMER
 40
8.5554439931000008
  9
$USRTIMER
 70
     1
  9
$ANGBASE
 50
0.0
  9
$ANGDIR
 70
     0
  9
$PDMODE
 70
     0
  9
$PDSIZE
 40
-1.0
  9
$PLINEWID
 40
0.0
  9
$COORDS
 70
     2
  9
$SPLFRAME
 70
     0
  9
$SPLINETYPE
 70
     6
  9
$SPLINESEGS
 70
     8
  9
$ATTDIA
 70
     0
  9
$ATTREQ
 70
     1
  9
$HANDLING
 70
     1
  9
$HANDSEED
  5
800008DB
  9
$SURFTAB1
 70
     6
  9
$SURFTAB2
 70
     6
  9
$SURFTYPE
 70
     6
  9
$SURFU
 70
     6
  9
$SURFV
 70
     6
  9
$UCSNAME
  2

  9
$UCSORG
 10
0.0
 20
0.0
 30
0.0
  9
$UCSXDIR
 10
1.0
 20
0.0
 30
0.0
  9
$UCSYDIR
 10
0.0
 20
1.0
 30
0.0
  9
$PUCSNAME
  2

  9
$PUCSORG
 10
0.0
 20
0.0
 30
0.0
  9
$PUCSXDIR
 10
1.0
 20
0.0
 30
0.0
  9
$PUCSYDIR
 10
0.0
 20
1.0
 30
0.0
  9
$USERI1
 70
    50
  9
$USERI2
 70
     1
  9
$USERI3
 70
     0
  9
$USERI4
 70
     2
  9
$USERI5
 70
     0
  9
$USERR1
 40
50.0
  9
$USERR2
 40
0.0
  9
$USERR3
 40
50.0
  9
$USERR4
 40
100.0
  9
$USERR5
 40
100.0
  9
$WORLDVIEW
 70
     1
  9
$SHADEDGE
 70
     3
  9
$SHADEDIF
 70
    70
  9
$TILEMODE
 70
     1
  9
$MAXACTVP
 70
    16
  9
$PLIMCHECK
 70
     0
  9
$PEXTMIN
 10
0.0
 20
0.0
 30
0.0
  9
$PEXTMAX
 10
0.0
 20
0.0
 30
0.0
  9
$PLIMMIN
 10
0.0
 20
0.0
  9
$PLIMMAX
 10
12.0
 20
9.0
  9
$UNITMODE
 70
     0
  9
$VISRETAIN
 70
     0
  9
$PLINEGEN
 70
     0
  9
$PSLTSCALE
 70
     1
  0
ENDSEC
  0
SECTION
  2
TABLES
  0
TABLE
  2
VPORT
 70
     1
  0
VPORT
  2
*ACTIVE
 70
     0
 10
0.0
 20
0.0
 11
1.0
 21
1.0
 12
50.284053108463013
 22
103.11603314157669
 13
0.0
 23
0.0
 14
1.0
 24
1.0
 15
8.6602540378443855
 25
2.5
 16
0.0
 26
0.0
 36
1.0
 17
0.0
 27
0.0
 37
0.0
 40
343.28550289055897
 41
1.0918367346938771
 42
50.0
 43
0.0
 44
0.0
 50
0.0
 51
0.0
 71
     0
 72
   100
 73
     1
 74
     1
 75
     0
 76
     0
 77
     0
 78
     2
  0
ENDTAB
  0
TABLE
  2
LTYPE
 70
     6
  0
LTYPE
  2
CONTINUOUS
 70
     0
  3
Solid line
 72
    65
 73
     0
 40
0.0
  0
LTYPE
  2
PHANTOM
 70
     0
  3
Phantom ______  __  __  ______  __  __  ______
 72
    65
 73
     6
 40
63.5
 49
31.75
 49
-6.3499999999999988
 49
6.3499999999999988
 49
-6.3499999999999988
 49
6.3499999999999988
 49
-6.3499999999999988
  0
LTYPE
  2
PHANTOM2
 70
     0
  3
Phantom (.5x) ___ _ _ ___ _ _ ___ _ _ ___ _ _
 72
    65
 73
     6
 40
31.75
 49
15.875
 49
-3.1749999999999989
 49
3.1749999999999989
 49
-3.1749999999999989
 49
3.1749999999999989
 49
-3.1749999999999989
  0
LTYPE
  2
CENTER2
 70
     0
  3
Center (.5x) ___ _ ___ _ ___ _ ___ _ ___ _ ___
 72
    65
 73
     4
 40
28.574999999999999
 49
19.050000000000001
 49
-3.1749999999999989
 49
3.1749999999999989
 49
-3.1749999999999989
  0
LTYPE
  2
DIVIDE2
 70
     0
  3
Divide (.5x) __..__..__..__..__..__..__..__.._
 72
    65
 73
     6
 40
15.875
 49
6.3499999999999988
 49
-3.1749999999999989
 49
0.0
 49
-3.1749999999999989
 49
0.0
 49
-3.1749999999999989
  0
ENDTAB
  0
TABLE
  2
LAYER
 70
    15
  0
LAYER
  2
0
 70
     0
 62
     7
  6
CONTINUOUS
  0
LAYER
  2
DEFPOINTS
 70
     0
 62
     7
  6
CONTINUOUS
  0
ENDTAB
  0
TABLE
  2
STYLE
 70
     5
  0
STYLE
  2
STANDARD
 70
     0
 40
0.0
 41
1.0
 50
0.0
 71
     0
 42
3.5
  3
txt
  4

  0
STYLE
  2
DIMS
 70
     0
 40
0.0
 41
1.0
 50
0.0
 71
     0
 42
35.0
  3
txt
  4

  0
STYLE
  2
ARIAL
 70
     0
 40
0.0
 41
1.0
 50
0.0
 71
     0
 42
23.54194059107272
  3
txt
  4

  0
ENDTAB
  0
TABLE
  2
VIEW
 70
     6
  0
VIEW
  2
A
 70
     1
 40
27750.0
 10
17125.0
 20
13875.0
 41
34250.0
 11
0.0
 21
0.0
 31
1.0
 12
0.0
 22
0.0
 32
0.0
 42
50.0
 43
0.0
 44
0.0
 50
0.0
 71
     0
  0
VIEW
  2
MS-A
 70
     1
 40
27750.0
 10
17125.0
 20
13875.0
 41
34250.0
 11
0.0
 21
0.0
 31
1.0
 12
0.0
 22
0.0
 32
0.0
 42
50.0
 43
0.0
 44
0.0
 50
0.0
 71
     0
  0
VIEW
  2
PS-A
 70
     1
 40
560.0
 10
394.84013230429991
 20
280.0
 41
789.68026460859983
 11
0.0
 21
0.0
 31
1.0
 12
0.0
 22
0.0
 32
0.0
 42
50.0
 43
0.0
 44
0.0
 50
0.0
 71
     0
  0
VIEW
  2
VA
 70
     1
 40
560.0
 10
392.50000000000011
 20
280.0
 41
785.00000000000023
 11
0.0
 21
0.0
 31
1.0
 12
0.0
 22
0.0
 32
0.0
 42
50.0
 43
0.0
 44
0.0
 50
0.0
 71
     0
  0
VIEW
  2
OLE1
 70
     1
 40
103.3926579734507
 10
856.04141118442112
 20
-266.69988373545948
 41
154.2063667091833
 11
0.0
 21
0.0
 31
1.0
 12
0.0
 22
0.0
 32
0.0
 42
50.0
 43
0.0
 44
0.0
 50
0.0
 71
     0
  0
ENDTAB
  0
TABLE
  2
UCS
 70
     0
  0
ENDTAB
  0
TABLE
  2
APPID
 70
    12
  0
APPID
  2
ACAD
 70
     0
  0
APPID
  2
CONTENTTABDATA
 70
     0
  0
APPID
  2
CONTENTCURRENTTAB
 70
     0
  0
APPID
  2
CONTENTBLOCKICON
 70
     0
  0
APPID
  2
CONTENTBLOCKDESCRIPTION
 70
     0
  0
APPID
  2
ACAD_PSEXT
 70
     0
  0
APPID
  2
ACAD_MLEADERVER
 70
     0
  0
APPID
  2
ACAD_EXEMPT_FROM_CAD_STANDARDS
 70
     0
  0
APPID
  2
ACADANNOPO
 70
     0
  0
APPID
  2
ACDBBLOCKREPETAG
 70
     0
  0
APPID
  2
ACDBDYNAMICBLOCKGUID
 70
     0
  0
APPID
  2
ACAD_NAV_VCDISPLAY
 70
     0
  0
ENDTAB
  0
TABLE
  2
DIMSTYLE
 70
     1
  0
DIMSTYLE
  2
1_TO_2
 70
     0
  3
mm
  4

  5

  6

  7

 40
2.0
 41
2.5
 42
1.0
 43
1.0
 44
2.0
 45
0.0
 46
0.0
 47
0.0
 48
0.0
140
2.5
141
2.5
142
0.0
143
0.03937007874016
144
1.0
145
0.0
146
1.0
147
1.0
 71
     0
 72
     0
 73
     0
 74
     0
 75
     0
 76
     0
 77
     1
 78
     8
170
     0
171
     3
172
     1
173
     0
174
     0
175
     0
176
     0
177
     0
178
     0
  0
ENDTAB
  0
ENDSEC
  0
SECTION
  2
BLOCKS
  0
BLOCK
  8
0
  2
$MODEL_SPACE
 70
     2
 10
0.0
 20
0.0
 30
0.0
  3
$MODEL_SPACE
  1

  0
ENDBLK
  5
FFBBDAE469BA29CD
  8
0
  0
BLOCK
 67
     1
  8
0
  2
$PAPER_SPACE
 70
     0
 10
0.0
 20
0.0
 30
0.0
  3
$PAPER_SPACE
  1

  0
ENDBLK
  5
FFBBDAE469BC2490
 67
     1
  8
0
  0
BLOCK
  8
0
  2
*D2
 70
     1
 10
0.0
 20
0.0
 30
0.0
  3
*D2
  1

  0
LINE
  5
FFBBDAE469BC25A8
  8
0
  6
CONTINUOUS
 62
     0
 10
83.000112803211323
 20
82.920244863648122
 30
0.0
 11
68.170736442415105
 21
82.920244863648122
 31
0.0
  0
LINE
  5
FFBBDAE469BC25A9
  8
0
  6
CONTINUOUS
 62
     0
 10
73.000000000003624
 20
102.92010260985739
 30
0.0
 11
68.170736442415119
 21
102.92010260985739
 31
0.0
  0
LINE
  5
FFBBDAE469BC25AA
  8
0
  6
CONTINUOUS
 62
     0
 10
72.170736442415105
 20
87.920244863648122
 30
0.0
 11
72.170736442415119
 21
97.920102609857395
 31
0.0
  0
SOLID
  5
FFBBDAE469BC25AB
  8
0
  6
CONTINUOUS
 62
     0
 10
71.337403109081777
 20
87.920244863648122
 30
0.0
 11
73.004069775748434
 21
87.920244863648122
 31
0.0
 12
72.170736442415105
 22
82.920244863648122
 32
0.0
 13
72.170736442415105
 23
82.920244863648122
 33
0.0
  0
SOLID
  5
FFBBDAE469BC25AC
  8
0
  6
CONTINUOUS
 62
     0
 10
71.337403109081791
 20
97.920102609857395
 30
0.0
 11
73.004069775748434
 21
97.920102609857395
 31
0.0
 12
72.170736442415119
 22
102.92010260985739
 32
0.0
 13
72.170736442415119
 23
102.92010260985739
 33
0.0
  0
INSERT
  5
FFBBDAE469BC25AD
  8
0
  6
CONTINUOUS
  2
*U45
 10
0.0
 20
0.0
 30
0.0
  0
POINT
  5
FFBBDAE469BC25AE
  8
DEFPOINTS
  6
CONTINUOUS
 62
     0
 10
85.000112803211323
 20
82.920244863648122
 30
0.0
  0
POINT
  5
FFBBDAE469BC25AF
  8
DEFPOINTS
  6
CONTINUOUS
 62
     0
 10
75.000000000003638
 20
102.92010260985739
 30
0.0
  0
POINT
  5
FFBBDAE469BC25B0
  8
DEFPOINTS
  6
CONTINUOUS
 62
     0
 10
72.170736442415119
 20
102.92010260985739
 30
0.0
  0
ENDBLK
  5
FFBBDAE469BC153C
  8
0
  0
BLOCK
  8
0
  2
*D3
 70
     1
 10
0.0
 20
0.0
 30
0.0
  3
*D3
  1

  0
LINE
  5
FFBBDAE469BC259D
  8
0
  6
CONTINUOUS
 62
     0
 10
50.0
 20
102.92010260985739
 30
0.0
 11
37.720332249116403
 21
102.92010260985739
 31
0.0
  0
LINE
  5
FFBBDAE469BC259E
  8
0
  6
CONTINUOUS
 62
     0
 10
50.0
 20
107.9201026098569
 30
0.0
 11
37.720332249116403
 21
107.9201026098569
 31
0.0
  0
LINE
  5
FFBBDAE469BC259F
  8
0
  6
CONTINUOUS
 62
     0
 10
41.720332249116403
 20
112.9201026098569
 30
0.0
 11
41.720332249116403
 21
117.9201026098569
 31
0.0
  0
LINE
  5
FFBBDAE469BC25A0
  8
0
  6
CONTINUOUS
 62
     0
 10
41.720332249116389
 20
97.920102609857395
 30
0.0
 11
41.720332249116389
 21
49.866159847944573
 31
0.0
  0
LINE
  5
FFBBDAE469BC25A1
  8
0
  6
CONTINUOUS
 62
     0
 10
41.720332249116389
 20
107.9201026098569
 30
0.0
 11
41.720332249116389
 21
102.92010260985739
 31
0.0
  0
SOLID
  5
FFBBDAE469BC25A2
  8
0
  6
CONTINUOUS
 62
     0
 10
40.886998915783067
 20
112.9201026098569
 30
0.0
 11
42.553665582449739
 21
112.9201026098569
 31
0.0
 12
41.720332249116389
 22
107.9201026098569
 32
0.0
 13
41.720332249116389
 23
107.9201026098569
 33
0.0
  0
SOLID
  5
FFBBDAE469BC25A3
  8
0
  6
CONTINUOUS
 62
     0
 10
40.88699891578306
 20
97.920102609857395
 30
0.0
 11
42.553665582449732
 21
97.920102609857395
 31
0.0
 12
41.720332249116389
 22
102.92010260985739
 32
0.0
 13
41.720332249116389
 23
102.92010260985739
 33
0.0
  0
INSERT
  5
FFBBDAE469BC25A4
  8
0
  6
CONTINUOUS
  2
*U44
 10
0.0
 20
0.0
 30
0.0
  0
POINT
  5
FFBBDAE469BC25A5
  8
DEFPOINTS
  6
CONTINUOUS
 62
     0
 10
52.0
 20
102.92010260985739
 30
0.0
  0
POINT
  5
FFBBDAE469BC25A6
  8
DEFPOINTS
  6
CONTINUOUS
 62
     0
 10
52.0
 20
107.9201026098569
 30
0.0
  0
POINT
  5
FFBBDAE469BC25A7
  8
DEFPOINTS
  6
CONTINUOUS
 62
     0
 10
41.720332249116389
 20
107.9201026098569
 30
0.0
  0
ENDBLK
  5
FFBBDAE469BC1569
  8
0
  0
BLOCK
  8
0
  2
*D4
 70
     1
 10
0.0
 20
0.0
 30
0.0
  3
*D4
  1

  0
LINE
  5
FFBBDAE469BC2592
  8
0
  6
CONTINUOUS
 62
     0
 10
50.0
 20
107.9201026098569
 30
0.0
 11
37.720332249116403
 21
107.9201026098569
 31
0.0
  0
LINE
  5
FFBBDAE469BC2593
  8
0
  6
CONTINUOUS
 62
     0
 10
50.0
 20
117.9202448636436
 30
0.0
 11
37.720332249116403
 21
117.9202448636436
 31
0.0
  0
LINE
  5
FFBBDAE469BC2594
  8
0
  6
CONTINUOUS
 62
     0
 10
41.720332249116389
 20
102.9201026098569
 30
0.0
 11
41.720332249116389
 21
97.92010260985694
 31
0.0
  0
LINE
  5
FFBBDAE469BC2595
  8
0
  6
CONTINUOUS
 62
     0
 10
41.720332249116403
 20
122.9202448636435
 30
0.0
 11
41.720332249116403
 21
127.9202448636435
 31
0.0
  0
LINE
  5
FFBBDAE469BC2596
  8
0
  6
CONTINUOUS
 62
     0
 10
41.720332249116389
 20
107.9201026098569
 30
0.0
 11
41.720332249116403
 21
117.9202448636436
 31
0.0
  0
SOLID
  5
FFBBDAE469BC2597
  8
0
  6
CONTINUOUS
 62
     0
 10
40.88699891578306
 20
102.9201026098569
 30
0.0
 11
42.553665582449732
 21
102.9201026098569
 31
0.0
 12
41.720332249116389
 22
107.9201026098569
 32
0.0
 13
41.720332249116389
 23
107.9201026098569
 33
0.0
  0
SOLID
  5
FFBBDAE469BC2598
  8
0
  6
CONTINUOUS
 62
     0
 10
40.886998915783067
 20
122.9202448636435
 30
0.0
 11
42.553665582449739
 21
122.9202448636435
 31
0.0
 12
41.720332249116403
 22
117.9202448636436
 32
0.0
 13
41.720332249116403
 23
117.9202448636436
 33
0.0
  0
INSERT
  5
FFBBDAE469BC2599
  8
0
  6
CONTINUOUS
  2
*U43
 10
0.0
 20
0.0
 30
0.0
  0
POINT
  5
FFBBDAE469BC259A
  8
DEFPOINTS
  6
CONTINUOUS
 62
     0
 10
52.0
 20
107.9201026098569
 30
0.0
  0
POINT
  5
FFBBDAE469BC259B
  8
DEFPOINTS
  6
CONTINUOUS
 62
     0
 10
52.0
 20
117.9202448636436
 30
0.0
  0
POINT
  5
FFBBDAE469BC259C
  8
DEFPOINTS
  6
CONTINUOUS
 62
     0
 10
41.720332249116403
 20
117.9202448636436
 30
0.0
  0
ENDBLK
  5
FFBBDAE469BC1577
  8
0
  0
BLOCK
  8
0
  2
*X9
 70
     1
 10
0.0
 20
0.0
 30
0.0
  3
*X9
  1

  0
LINE
  5
FFBBDAE469BC25ED
  8
0
  6
CONTINUOUS
 62
     0
 10
7.6054687524074307
 20
78.964624935559087
 30
0.0
 11
7.2929687524074307
 21
78.42335905819381
 31
0.0
  0
LINE
  5
FFBBDAE469BC25EE
  8
0
  6
CONTINUOUS
 62
     0
 10
8.5429687524074325
 20
80.588422567654916
 30
0.0
 11
8.2304687524074325
 21
80.04715669028964
 31
0.0
  0
LINE
  5
FFBBDAE469BC25EF
  8
0
  6
CONTINUOUS
 62
     0
 10
7.6054687503606129
 20
77.882093182013151
 30
0.0
 11
7.2929687503606129
 21
77.340827304647874
 31
0.0
  0
LINE
  5
FFBBDAE469BC25F0
  8
0
  6
CONTINUOUS
 62
     0
 10
8.5429687503606146
 20
79.50589081410898
 30
0.0
 11
8.2304687503606146
 21
78.964624936743704
 31
0.0
  0
LINE
  5
FFBBDAE469BC25F1
  8
0
  6
CONTINUOUS
 62
     0
 10
9.3594643113269722
 20
80.920102609857153
 30
0.0
 11
9.1679687503606146
 21
80.588422568839533
 31
0.0
  0
LINE
  5
FFBBDAE469BC25F2
  8
0
  6
CONTINUOUS
 62
     0
 10
7.6054687483106118
 20
76.79956142846406
 30
0.0
 11
7.2929687483106118
 21
76.258295551098783
 31
0.0
  0
LINE
  5
FFBBDAE469BC25F3
  8
0
  6
CONTINUOUS
 62
     0
 10
8.5429687483106136
 20
78.423359060559889
 30
0.0
 11
8.2304687483106136
 21
77.882093183194613
 31
0.0
  0
LINE
  5
FFBBDAE469BC25F4
  8
0
  6
CONTINUOUS
 62
     0
 10
9.4804687483106136
 20
80.047156692655705
 30
0.0
 11
9.1679687483106136
 21
79.505890815290442
 31
0.0
  0
LINE
  5
FFBBDAE469BC25F5
  8
0
  6
CONTINUOUS
 62
     0
 10
7.605468746263794
 20
75.717029674918123
 30
0.0
 11
7.3600996511358963
 21
75.292037935549402
 31
0.0
  0
LINE
  5
FFBBDAE469BC25F6
  8
0
  6
CONTINUOUS
 62
     0
 10
8.5429687462637958
 20
77.340827307013953
 30
0.0
 11
8.2304687462637958
 21
76.799561429648676
 31
0.0
  0
LINE
  5
FFBBDAE469BC25F7
  8
0
  6
CONTINUOUS
 62
     0
 10
9.4804687462637958
 20
78.964624939109783
 30
0.0
 11
9.1679687462637958
 21
78.423359061744506
 31
0.0
  0
LINE
  5
FFBBDAE469BC25F8
  8
0
  6
CONTINUOUS
 62
     0
 10
10.41796874626379
 20
80.588422571205612
 30
0.0
 11
10.10546874626379
 21
80.047156693840336
 31
0.0
  0
LINE
  5
FFBBDAE469BC25F9
  8
0
  6
CONTINUOUS
 62
     0
 10
8.5429687442147042
 20
76.258295553464876
 30
0.0
 11
8.2304687442147042
 21
75.7170296760996
 31
0.0
  0
LINE
  5
FFBBDAE469BC25FA
  8
0
  6
CONTINUOUS
 62
     0
 10
9.4804687442147042
 20
77.882093185560706
 30
0.0
 11
9.1679687442147042
 21
77.340827308195429
 31
0.0
  0
LINE
  5
FFBBDAE469BC25FB
  8
0
  6
CONTINUOUS
 62
     0
 10
10.417968744214701
 20
79.505890817656535
 30
0.0
 11
10.105468744214701
 21
78.964624940291259
 31
0.0
  0
LINE
  5
FFBBDAE469BC25FC
  8
0
  6
CONTINUOUS
 62
     0
 10
11.23446430313288
 20
80.920102609857153
 30
0.0
 11
11.042968744214701
 21
80.588422572387074
 31
0.0
  0
LINE
  5
FFBBDAE469BC25FD
  8
0
  6
CONTINUOUS
 62
     0
 10
8.5429687421642484
 20
75.175763799912644
 30
0.0
 11
8.2304687421642484
 21
74.634497922547368
 31
0.0
  0
LINE
  5
FFBBDAE469BC25FE
  8
0
  6
CONTINUOUS
 62
     0
 10
9.4804687421642484
 20
76.799561432008474
 30
0.0
 11
9.1679687421642484
 21
76.258295554643198
 31
0.0
  0
LINE
  5
FFBBDAE469BC25FF
  8
0
  6
CONTINUOUS
 62
     0
 10
10.41796874216425
 20
78.423359064104304
 30
0.0
 11
10.10546874216425
 21
77.882093186739027
 31
0.0
  0
LINE
  5
FFBBDAE469BC2600
  8
0
  6
CONTINUOUS
 62
     0
 10
11.35546874216425
 20
80.047156696200133
 30
0.0
 11
11.04296874216425
 21
79.505890818834857
 31
0.0
  0
LINE
  5
FFBBDAE469BC2601
  8
0
  6
CONTINUOUS
 62
     0
 10
8.5429687401187948
 20
74.093232046368939
 30
0.0
 11
8.2908757087111553
 21
73.656594107736851
 31
0.0
  0
LINE
  5
FFBBDAE469BC2602
  8
0
  6
CONTINUOUS
 62
     0
 10
9.4804687401187948
 20
75.717029678464755
 30
0.0
 11
9.1679687401187948
 21
75.175763801099492
 31
0.0
  0
LINE
  5
FFBBDAE469BC2603
  8
0
  6
CONTINUOUS
 62
     0
 10
10.417968740118789
 20
77.340827310560599
 30
0.0
 11
10.105468740118789
 21
76.799561433195322
 31
0.0
  0
LINE
  5
FFBBDAE469BC2604
  8
0
  6
CONTINUOUS
 62
     0
 10
11.355468740118789
 20
78.964624942656428
 30
0.0
 11
11.042968740118789
 21
78.423359065291152
 31
0.0
  0
LINE
  5
FFBBDAE469BC2605
  8
0
  6
CONTINUOUS
 62
     0
 10
12.292968740118789
 20
80.588422574752244
 30
0.0
 11
11.980468740118789
 21
80.047156697386995
 31
0.0
  0
LINE
  5
FFBBDAE469BC2606
  8
0
  6
CONTINUOUS
 62
     0
 10
9.4804687380710675
 20
74.634497924919742
 30
0.0
 11
9.1679687380710675
 21
74.093232047554466
 31
0.0
  0
LINE
  5
FFBBDAE469BC2607
  8
0
  6
CONTINUOUS
 62
     0
 10
10.417968738071069
 20
76.258295557015572
 30
0.0
 11
10.105468738071069
 21
75.717029679650295
 31
0.0
  0
LINE
  5
FFBBDAE469BC2608
  8
0
  6
CONTINUOUS
 62
     0
 10
11.355468738071069
 20
77.882093189111401
 30
0.0
 11
11.042968738071069
 21
77.340827311746125
 31
0.0
  0
LINE
  5
FFBBDAE469BC2609
  8
0
  6
CONTINUOUS
 62
     0
 10
12.292968738071069
 20
79.505890821207231
 30
0.0
 11
11.980468738071069
 21
78.964624943841955
 31
0.0
  0
LINE
  5
FFBBDAE469BC260A
  8
0
  6
CONTINUOUS
 62
     0
 10
13.10946429493924
 20
80.920102609857153
 30
0.0
 11
12.917968738071069
 21
80.588422575937784
 31
0.0
  0
LINE
  5
FFBBDAE469BC260B
  8
0
  6
CONTINUOUS
 62
     0
 10
9.4804687360206117
 20
73.551966171367511
 30
0.0
 11
9.1679687360206117
 21
73.010700294002234
 31
0.0
  0
LINE
  5
FFBBDAE469BC260C
  8
0
  6
CONTINUOUS
 62
     0
 10
10.41796873602061
 20
75.17576380346334
 30
0.0
 11
10.10546873602061
 21
74.634497926098064
 31
0.0
  0
LINE
  5
FFBBDAE469BC260D
  8
0
  6
CONTINUOUS
 62
     0
 10
11.35546873602061
 20
76.79956143555917
 30
0.0
 11
11.04296873602061
 21
76.258295558193893
 31
0.0
  0
LINE
  5
FFBBDAE469BC260E
  8
0
  6
CONTINUOUS
 62
     0
 10
12.29296873602061
 20
78.423359067654999
 30
0.0
 11
11.98046873602061
 21
77.882093190289723
 31
0.0
  0
LINE
  5
FFBBDAE469BC260F
  8
0
  6
CONTINUOUS
 62
     0
 10
13.23046873602061
 20
80.047156699750815
 30
0.0
 11
12.91796873602061
 21
79.505890822385552
 31
0.0
  0
LINE
  5
FFBBDAE469BC2610
  8
0
  6
CONTINUOUS
 62
     0
 10
10.41796873397516
 20
74.093232049920545
 30
0.0
 11
10.10546873397516
 21
73.551966172555282
 31
0.0
  0
LINE
  5
FFBBDAE469BC2611
  8
0
  6
CONTINUOUS
 62
     0
 10
11.35546873397516
 20
75.717029682016388
 30
0.0
 11
11.04296873397516
 21
75.175763804651112
 31
0.0
  0
LINE
  5
FFBBDAE469BC2612
  8
0
  6
CONTINUOUS
 62
     0
 10
12.29296873397516
 20
77.340827314112218
 30
0.0
 11
11.98046873397516
 21
76.799561436746941
 31
0.0
  0
LINE
  5
FFBBDAE469BC2613
  8
0
  6
CONTINUOUS
 62
     0
 10
13.23046873397516
 20
78.964624946208048
 30
0.0
 11
12.91796873397516
 21
78.423359068842771
 31
0.0
  0
LINE
  5
FFBBDAE469BC2614
  8
0
  6
CONTINUOUS
 62
     0
 10
14.167968733975149
 20
80.588422578303877
 30
0.0
 11
13.85546873397516
 21
80.047156700938601
 31
0.0
  0
LINE
  5
FFBBDAE469BC2615
  8
0
  6
CONTINUOUS
 62
     0
 10
10.417968731924701
 20
73.010700296368313
 30
0.0
 11
10.36566213323022
 21
72.920102609858361
 31
0.0
  0
LINE
  5
FFBBDAE469BC2616
  8
0
  6
CONTINUOUS
 62
     0
 10
11.355468731924701
 20
74.634497928464157
 30
0.0
 11
11.042968731924701
 21
74.09323205109888
 31
0.0
  0
LINE
  5
FFBBDAE469BC2617
  8
0
  6
CONTINUOUS
 62
     0
 10
12.292968731924701
 20
76.258295560559986
 30
0.0
 11
11.980468731924701
 21
75.717029683194696
 31
0.0
  0
LINE
  5
FFBBDAE469BC2618
  8
0
  6
CONTINUOUS
 62
     0
 10
13.230468731924701
 20
77.882093192655816
 30
0.0
 11
12.917968731924701
 21
77.340827315290539
 31
0.0
  0
LINE
  5
FFBBDAE469BC2619
  8
0
  6
CONTINUOUS
 62
     0
 10
14.167968731924701
 20
79.505890824751646
 30
0.0
 11
13.855468731924701
 21
78.964624947386369
 31
0.0
  0
LINE
  5
FFBBDAE469BC261A
  8
0
  6
CONTINUOUS
 62
     0
 10
14.98446428674651
 20
80.920102609857153
 30
0.0
 11
14.792968731924701
 21
80.588422579482184
 31
0.0
  0
LINE
  5
FFBBDAE469BC261B
  8
0
  6
CONTINUOUS
 62
     0
 10
11.35546872987288
 20
73.551966174911925
 30
0.0
 11
11.04296872987288
 21
73.010700297546649
 31
0.0
  0
LINE
  5
FFBBDAE469BC261C
  8
0
  6
CONTINUOUS
 62
     0
 10
12.29296872987288
 20
75.175763807007755
 30
0.0
 11
11.98046872987288
 21
74.634497929642464
 31
0.0
  0
LINE
  5
FFBBDAE469BC261D
  8
0
  6
CONTINUOUS
 62
     0
 10
13.23046872987288
 20
76.799561439103584
 30
0.0
 11
12.91796872987288
 21
76.258295561738294
 31
0.0
  0
LINE
  5
FFBBDAE469BC261E
  8
0
  6
CONTINUOUS
 62
     0
 10
14.16796872987288
 20
78.423359071199414
 30
0.0
 11
13.85546872987288
 21
77.882093193834137
 31
0.0
  0
LINE
  5
FFBBDAE469BC261F
  8
0
  6
CONTINUOUS
 62
     0
 10
15.10546872987288
 20
80.047156703295244
 30
0.0
 11
14.79296872987288
 21
79.505890825929967
 31
0.0
  0
LINE
  5
FFBBDAE469BC2620
  8
0
  6
CONTINUOUS
 62
     0
 10
12.292968727828789
 20
74.093232053466764
 30
0.0
 11
11.980468727828789
 21
73.551966176101487
 31
0.0
  0
LINE
  5
FFBBDAE469BC2621
  8
0
  6
CONTINUOUS
 62
     0
 10
13.230468727828789
 20
75.717029685562593
 30
0.0
 11
12.917968727828789
 21
75.175763808197317
 31
0.0
  0
LINE
  5
FFBBDAE469BC2622
  8
0
  6
CONTINUOUS
 62
     0
 10
14.167968727828789
 20
77.340827317658423
 30
0.0
 11
13.855468727828789
 21
76.799561440293147
 31
0.0
  0
LINE
  5
FFBBDAE469BC2623
  8
0
  6
CONTINUOUS
 62
     0
 10
15.105468727828789
 20
78.964624949754253
 30
0.0
 11
14.792968727828789
 21
78.423359072388976
 31
0.0
  0
LINE
  5
FFBBDAE469BC2624
  8
0
  6
CONTINUOUS
 62
     0
 10
16.042968727828789
 20
80.588422581850068
 30
0.0
 11
15.730468727828789
 21
80.047156704484806
 31
0.0
  0
LINE
  5
FFBBDAE469BC2625
  8
0
  6
CONTINUOUS
 62
     0
 10
12.292968725779239
 20
73.01070029991628
 30
0.0
 11
12.240662125036581
 21
72.920102609858745
 31
0.0
  0
LINE
  5
FFBBDAE469BC2626
  8
0
  6
CONTINUOUS
 62
     0
 10
13.230468725779239
 20
74.63449793201211
 30
0.0
 11
12.917968725779239
 21
74.093232054646833
 31
0.0
  0
LINE
  5
FFBBDAE469BC2627
  8
0
  6
CONTINUOUS
 62
     0
 10
14.16796872577925
 20
76.258295564107939
 30
0.0
 11
13.855468725779239
 21
75.717029686742663
 31
0.0
  0
LINE
  5
FFBBDAE469BC2628
  8
0
  6
CONTINUOUS
 62
     0
 10
15.10546872577925
 20
77.882093196203769
 30
0.0
 11
14.79296872577925
 21
77.340827318838492
 31
0.0
  0
LINE
  5
FFBBDAE469BC2629
  8
0
  6
CONTINUOUS
 62
     0
 10
16.04296872577925
 20
79.505890828299599
 30
0.0
 11
15.73046872577925
 21
78.964624950934322
 31
0.0
  0
LINE
  5
FFBBDAE469BC262A
  8
0
  6
CONTINUOUS
 62
     0
 10
13.23046872373061
 20
73.551966178464355
 30
0.0
 11
12.91796872373061
 21
73.010700301099078
 31
0.0
  0
LINE
  5
FFBBDAE469BC262B
  8
0
  6
CONTINUOUS
 62
     0
 10
14.16796872373061
 20
75.175763810560184
 30
0.0
 11
13.85546872373061
 21
74.634497933194893
 31
0.0
  0
LINE
  5
FFBBDAE469BC262C
  8
0
  6
CONTINUOUS
 62
     0
 10
15.10546872373061
 20
76.799561442656014
 30
0.0
 11
14.79296872373061
 21
76.258295565290723
 31
0.0
  0
LINE
  5
FFBBDAE469BC262D
  8
0
  6
CONTINUOUS
 62
     0
 10
16.04296872373061
 20
78.423359074751843
 30
0.0
 11
15.73046872373061
 21
77.882093197386567
 31
0.0
  0
LINE
  5
FFBBDAE469BC262E
  8
0
  6
CONTINUOUS
 62
     0
 10
16.915783099337659
 20
79.935117918879769
 30
0.0
 11
16.66796872373061
 21
79.505890829482396
 31
0.0
  0
LINE
  5
FFBBDAE469BC262F
  8
0
  6
CONTINUOUS
 62
     0
 10
14.167968721681969
 20
74.093232057010297
 30
0.0
 11
13.855468721681969
 21
73.551966179645021
 31
0.0
  0
LINE
  5
FFBBDAE469BC2630
  8
0
  6
CONTINUOUS
 62
     0
 10
15.105468721681969
 20
75.717029689106127
 30
0.0
 11
14.792968721681969
 21
75.17576381174085
 31
0.0
  0
LINE
  5
FFBBDAE469BC2631
  8
0
  6
CONTINUOUS
 62
     0
 10
16.042968721681969
 20
77.340827321201957
 30
0.0
 11
15.730468721681969
 21
76.79956144383668
 31
0.0
  0
LINE
  5
FFBBDAE469BC2632
  8
0
  6
CONTINUOUS
 62
     0
 10
16.980468721681969
 20
78.964624953297786
 30
0.0
 11
16.667968721681969
 21
78.42335907593251
 31
0.0
  0
LINE
  5
FFBBDAE469BC2633
  8
0
  6
CONTINUOUS
 62
     0
 10
14.167968719633789
 20
73.010700303464816
 30
0.0
 11
14.11566211684112
 21
72.920102609856585
 31
0.0
  0
LINE
  5
FFBBDAE469BC2634
  8
0
  6
CONTINUOUS
 62
     0
 10
15.105468719633789
 20
74.634497935560645
 30
0.0
 11
14.792968719633789
 21
74.093232058195369
 31
0.0
  0
LINE
  5
FFBBDAE469BC2635
  8
0
  6
CONTINUOUS
 62
     0
 10
16.042968719633791
 20
76.258295567656475
 30
0.0
 11
15.730468719633789
 21
75.717029690291199
 31
0.0
  0
LINE
  5
FFBBDAE469BC2636
  8
0
  6
CONTINUOUS
 62
     0
 10
16.980468719633791
 20
77.882093199752305
 30
0.0
 11
16.667968719633791
 21
77.340827322387028
 31
0.0
  0
LINE
  5
FFBBDAE469BC2637
  8
0
  6
CONTINUOUS
 62
     0
 10
15.10546871758606
 20
73.551966182012777
 30
0.0
 11
14.79296871758606
 21
73.0107003046475
 31
0.0
  0
LINE
  5
FFBBDAE469BC2638
  8
0
  6
CONTINUOUS
 62
     0
 10
16.04296871758606
 20
75.175763814108606
 30
0.0
 11
15.73046871758606
 21
74.63449793674333
 31
0.0
  0
LINE
  5
FFBBDAE469BC2639
  8
0
  6
CONTINUOUS
 62
     0
 10
16.98046871758606
 20
76.799561446204436
 30
0.0
 11
16.66796871758606
 21
76.258295568839159
 31
0.0
  0
LINE
  5
FFBBDAE469BC263A
  8
0
  6
CONTINUOUS
 62
     0
 10
17.666018895046822
 20
77.986969184704321
 30
0.0
 11
17.60546871758606
 21
77.882093200934989
 31
0.0
  0
LINE
  5
FFBBDAE469BC263B
  8
0
  6
CONTINUOUS
 62
     0
 10
16.042968715538791
 20
74.093232060562841
 30
0.0
 11
15.730468715538789
 21
73.551966183197564
 31
0.0
  0
LINE
  5
FFBBDAE469BC263C
  8
0
  6
CONTINUOUS
 62
     0
 10
16.980468715538791
 20
75.71702969265867
 30
0.0
 11
16.667968715538791
 21
75.175763815293394
 31
0.0
  0
LINE
  5
FFBBDAE469BC263D
  8
0
  6
CONTINUOUS
 62
     0
 10
17.743904649716111
 20
77.039339518977613
 30
0.0
 11
17.605468715538791
 21
76.799561447389223
 31
0.0
  0
LINE
  5
FFBBDAE469BC263E
  8
0
  6
CONTINUOUS
 62
     0
 10
16.980468713489241
 20
74.634497939107604
 30
0.0
 11
16.667968713489241
 21
74.093232061742341
 31
0.0
  0
LINE
  5
FFBBDAE469BC263F
  8
0
  6
CONTINUOUS
 62
     0
 10
9.1679643995844344
 20
73.010657311065955
 30
0.0
 11
9.22024618070418
 21
72.920102609856372
 31
0.0
  0
LINE
  5
FFBBDAE469BC2640
  8
0
  6
CONTINUOUS
 62
     0
 10
8.2304643995844344
 20
74.634454943161799
 30
0.0
 11
8.5429643995844344
 21
74.093189065796523
 31
0.0
  0
LINE
  5
FFBBDAE469BC2641
  8
0
  6
CONTINUOUS
 62
     0
 10
7.2929643995844344
 20
76.258252575257629
 30
0.0
 11
7.6054643995844344
 21
75.716986697892352
 31
0.0
  0
LINE
  5
FFBBDAE469BC2642
  8
0
  6
CONTINUOUS
 62
     0
 10
9.1679643975353429
 20
74.093189064615103
 30
0.0
 11
9.4804643975353429
 21
73.551923187249841
 31
0.0
  0
LINE
  5
FFBBDAE469BC2643
  8
0
  6
CONTINUOUS
 62
     0
 10
8.2304643975353429
 20
75.716986696710947
 30
0.0
 11
8.5429643975353429
 21
75.175720819345671
 31
0.0
  0
LINE
  5
FFBBDAE469BC2644
  8
0
  6
CONTINUOUS
 62
     0
 10
7.292964397535342
 20
77.340784328806777
 30
0.0
 11
7.605464397535342
 21
76.7995184514415
 31
0.0
  0
LINE
  5
FFBBDAE469BC2645
  8
0
  6
CONTINUOUS
 62
     0
 10
10.105464395487161
 20
73.551923186066773
 30
0.0
 11
10.417964395487161
 21
73.010657308701497
 31
0.0
  0
LINE
  5
FFBBDAE469BC2646
  8
0
  6
CONTINUOUS
 62
     0
 10
9.1679643954871608
 20
75.175720818162603
 30
0.0
 11
9.4804643954871608
 21
74.634454940797326
 31
0.0
  0
LINE
  5
FFBBDAE469BC2647
  8
0
  6
CONTINUOUS
 62
     0
 10
8.2304643954871608
 20
76.799518450258432
 30
0.0
 11
8.5429643954871608
 21
76.258252572893156
 31
0.0
  0
LINE
  5
FFBBDAE469BC2648
  8
0
  6
CONTINUOUS
 62
     0
 10
7.2929643954871599
 20
78.423316082354262
 30
0.0
 11
7.6054643954871599
 21
77.882050204988985
 31
0.0
  0
LINE
  5
FFBBDAE469BC2649
  8
0
  6
CONTINUOUS
 62
     0
 10
11.04296439343989
 20
73.010657307518073
 30
0.0
 11
11.09524617251145
 21
72.920102609856045
 31
0.0
  0
LINE
  5
FFBBDAE469BC264A
  8
0
  6
CONTINUOUS
 62
     0
 10
10.10546439343989
 20
74.634454939613903
 30
0.0
 11
10.41796439343989
 21
74.093189062248641
 31
0.0
  0
LINE
  5
FFBBDAE469BC264B
  8
0
  6
CONTINUOUS
 62
     0
 10
9.1679643934398882
 20
76.258252571709747
 30
0.0
 11
9.4804643934398882
 21
75.71698669434447
 31
0.0
  0
LINE
  5
FFBBDAE469BC264C
  8
0
  6
CONTINUOUS
 62
     0
 10
8.2304643934398882
 20
77.882050203805576
 30
0.0
 11
8.5429643934398882
 21
77.3407843264403
 31
0.0
  0
LINE
  5
FFBBDAE469BC264D
  8
0
  6
CONTINUOUS
 62
     0
 10
7.482944035233686
 20
79.17679344391081
 30
0.0
 11
7.6054643934398882
 21
78.964581958536129
 31
0.0
  0
LINE
  5
FFBBDAE469BC264E
  8
0
  6
CONTINUOUS
 62
     0
 10
11.04296439139125
 20
74.093189061066226
 30
0.0
 11
11.35546439139125
 21
73.55192318370095
 31
0.0
  0
LINE
  5
FFBBDAE469BC264F
  8
0
  6
CONTINUOUS
 62
     0
 10
10.10546439139125
 20
75.716986693162056
 30
0.0
 11
10.41796439139125
 21
75.17572081579678
 31
0.0
  0
LINE
  5
FFBBDAE469BC2650
  8
0
  6
CONTINUOUS
 62
     0
 10
9.1679643913912514
 20
77.340784325257886
 30
0.0
 11
9.4804643913912514
 21
76.799518447892609
 31
0.0
  0
LINE
  5
FFBBDAE469BC2651
  8
0
  6
CONTINUOUS
 62
     0
 10
8.2304643913912514
 20
78.964581957353715
 30
0.0
 11
8.5429643913912514
 21
78.423316079988425
 31
0.0
  0
LINE
  5
FFBBDAE469BC2652
  8
0
  6
CONTINUOUS
 62
     0
 10
11.980464389343521
 20
73.551923182518195
 30
0.0
 11
12.292964389343521
 21
73.010657305152918
 31
0.0
  0
LINE
  5
FFBBDAE469BC2653
  8
0
  6
CONTINUOUS
 62
     0
 10
11.042964389343521
 20
75.175720814614024
 30
0.0
 11
11.355464389343521
 21
74.634454937248748
 31
0.0
  0
LINE
  5
FFBBDAE469BC2654
  8
0
  6
CONTINUOUS
 62
     0
 10
10.105464389343521
 20
76.799518446709854
 30
0.0
 11
10.417964389343521
 21
76.258252569344577
 31
0.0
  0
LINE
  5
FFBBDAE469BC2655
  8
0
  6
CONTINUOUS
 62
     0
 10
9.1679643893435241
 20
78.423316078805684
 30
0.0
 11
9.4804643893435241
 21
77.882050201440407
 31
0.0
  0
LINE
  5
FFBBDAE469BC2656
  8
0
  6
CONTINUOUS
 62
     0
 10
8.2304643893435241
 20
80.047113710901499
 30
0.0
 11
8.5429643893435241
 21
79.505847833536237
 31
0.0
  0
LINE
  5
FFBBDAE469BC2657
  8
0
  6
CONTINUOUS
 62
     0
 10
12.917964387294891
 20
73.01065730397066
 30
0.0
 11
12.97024616431827
 21
72.920102609856173
 31
0.0
  0
LINE
  5
FFBBDAE469BC2658
  8
0
  6
CONTINUOUS
 62
     0
 10
11.98046438729488
 20
74.634454936066476
 30
0.0
 11
12.292964387294891
 21
74.093189058701213
 31
0.0
  0
LINE
  5
FFBBDAE469BC2659
  8
0
  6
CONTINUOUS
 62
     0
 10
11.04296438729488
 20
76.25825256816232
 30
0.0
 11
11.35546438729488
 21
75.716986690797043
 31
0.0
  0
LINE
  5
FFBBDAE469BC265A
  8
0
  6
CONTINUOUS
 62
     0
 10
10.10546438729488
 20
77.882050200258149
 30
0.0
 11
10.41796438729488
 21
77.340784322892873
 31
0.0
  0
LINE
  5
FFBBDAE469BC265B
  8
0
  6
CONTINUOUS
 62
     0
 10
9.1679643872948873
 20
79.505847832353979
 30
0.0
 11
9.4804643872948873
 21
78.964581954988702
 31
0.0
  0
LINE
  5
FFBBDAE469BC265C
  8
0
  6
CONTINUOUS
 62
     0
 10
8.4746079599217392
 20
80.706776392318716
 30
0.0
 11
8.5429643872948873
 21
80.588379587084532
 31
0.0
  0
LINE
  5
FFBBDAE469BC265D
  8
0
  6
CONTINUOUS
 62
     0
 10
12.917964385244881
 20
74.093189057519226
 30
0.0
 11
13.230464385244881
 21
73.551923180153949
 31
0.0
  0
LINE
  5
FFBBDAE469BC265E
  8
0
  6
CONTINUOUS
 62
     0
 10
11.980464385244881
 20
75.716986689615055
 30
0.0
 11
12.292964385244881
 21
75.175720812249779
 31
0.0
  0
LINE
  5
FFBBDAE469BC265F
  8
0
  6
CONTINUOUS
 62
     0
 10
11.042964385244881
 20
77.340784321710885
 30
0.0
 11
11.355464385244881
 21
76.799518444345608
 31
0.0
  0
LINE
  5
FFBBDAE469BC2660
  8
0
  6
CONTINUOUS
 62
     0
 10
10.105464385244881
 20
78.964581953806714
 30
0.0
 11
10.417964385244881
 21
78.423316076441438
 31
0.0
  0
LINE
  5
FFBBDAE469BC2661
  8
0
  6
CONTINUOUS
 62
     0
 10
9.1679643852448862
 20
80.588379585902544
 30
0.0
 11
9.4804643852448862
 21
80.047113708537253
 31
0.0
  0
LINE
  5
FFBBDAE469BC2662
  8
0
  6
CONTINUOUS
 62
     0
 10
13.855464383196249
 20
73.551923178971577
 30
0.0
 11
14.167964383196249
 21
73.010657301606301
 31
0.0
  0
LINE
  5
FFBBDAE469BC2663
  8
0
  6
CONTINUOUS
 62
     0
 10
12.917964383196249
 20
75.175720811067407
 30
0.0
 11
13.230464383196249
 21
74.634454933702131
 31
0.0
  0
LINE
  5
FFBBDAE469BC2664
  8
0
  6
CONTINUOUS
 62
     0
 10
11.980464383196249
 20
76.799518443163237
 30
0.0
 11
12.292964383196249
 21
76.25825256579796
 31
0.0
  0
LINE
  5
FFBBDAE469BC2665
  8
0
  6
CONTINUOUS
 62
     0
 10
11.042964383196249
 20
78.423316075259066
 30
0.0
 11
11.355464383196249
 21
77.88205019789379
 31
0.0
  0
LINE
  5
FFBBDAE469BC2666
  8
0
  6
CONTINUOUS
 62
     0
 10
10.105464383196249
 20
80.047113707354896
 30
0.0
 11
10.417964383196249
 21
79.505847829989619
 31
0.0
  0
LINE
  5
FFBBDAE469BC2667
  8
0
  6
CONTINUOUS
 62
     0
 10
14.79296438114852
 20
73.010657300422352
 30
0.0
 11
14.84524615612281
 21
72.920102609856997
 31
0.0
  0
LINE
  5
FFBBDAE469BC2668
  8
0
  6
CONTINUOUS
 62
     0
 10
13.85546438114852
 20
74.634454932518182
 30
0.0
 11
14.16796438114852
 21
74.093189055152905
 31
0.0
  0
LINE
  5
FFBBDAE469BC2669
  8
0
  6
CONTINUOUS
 62
     0
 10
12.91796438114852
 20
76.258252564614011
 30
0.0
 11
13.23046438114852
 21
75.716986687248735
 31
0.0
  0
LINE
  5
FFBBDAE469BC266A
  8
0
  6
CONTINUOUS
 62
     0
 10
11.98046438114852
 20
77.882050196709841
 30
0.0
 11
12.29296438114852
 21
77.340784319344564
 31
0.0
  0
LINE
  5
FFBBDAE469BC266B
  8
0
  6
CONTINUOUS
 62
     0
 10
11.04296438114852
 20
79.50584782880567
 30
0.0
 11
11.35546438114852
 21
78.964581951440394
 31
0.0
  0
LINE
  5
FFBBDAE469BC266C
  8
0
  6
CONTINUOUS
 62
     0
 10
10.22644400260651
 20
80.920102609855789
 30
0.0
 11
10.41796438114852
 21
80.588379583536224
 31
0.0
  0
LINE
  5
FFBBDAE469BC266D
  8
0
  6
CONTINUOUS
 62
     0
 10
14.79296437910034
 20
74.093189053970761
 30
0.0
 11
15.10546437910034
 21
73.551923176605484
 31
0.0
  0
LINE
  5
FFBBDAE469BC266E
  8
0
  6
CONTINUOUS
 62
     0
 10
13.85546437910034
 20
75.716986686066591
 30
0.0
 11
14.16796437910034
 21
75.175720808701314
 31
0.0
  0
LINE
  5
FFBBDAE469BC266F
  8
0
  6
CONTINUOUS
 62
     0
 10
12.91796437910034
 20
77.34078431816242
 30
0.0
 11
13.23046437910034
 21
76.799518440797144
 31
0.0
  0
LINE
  5
FFBBDAE469BC2670
  8
0
  6
CONTINUOUS
 62
     0
 10
11.98046437910034
 20
78.96458195025825
 30
0.0
 11
12.29296437910034
 21
78.423316072892973
 31
0.0
  0
LINE
  5
FFBBDAE469BC2671
  8
0
  6
CONTINUOUS
 62
     0
 10
11.04296437910034
 20
80.588379582354065
 30
0.0
 11
11.35546437910034
 21
80.047113704988789
 31
0.0
  0
LINE
  5
FFBBDAE469BC2672
  8
0
  6
CONTINUOUS
 62
     0
 10
15.730464377052609
 20
73.55192317542199
 30
0.0
 11
15.984154235560251
 21
73.112519451121798
 31
0.0
  0
LINE
  5
FFBBDAE469BC2673
  8
0
  6
CONTINUOUS
 62
     0
 10
14.792964377052609
 20
75.17572080751782
 30
0.0
 11
15.105464377052609
 21
74.634454930152543
 31
0.0
  0
LINE
  5
FFBBDAE469BC2674
  8
0
  6
CONTINUOUS
 62
     0
 10
13.855464377052609
 20
76.799518439613649
 30
0.0
 11
14.167964377052609
 21
76.258252562248373
 31
0.0
  0
LINE
  5
FFBBDAE469BC2675
  8
0
  6
CONTINUOUS
 62
     0
 10
12.917964377052609
 20
78.423316071709465
 30
0.0
 11
13.230464377052609
 21
77.882050194344203
 31
0.0
  0
LINE
  5
FFBBDAE469BC2676
  8
0
  6
CONTINUOUS
 62
     0
 10
11.980464377052609
 20
80.047113703805309
 30
0.0
 11
12.292964377052609
 21
79.505847826440032
 31
0.0
  0
LINE
  5
FFBBDAE469BC2677
  8
0
  6
CONTINUOUS
 62
     0
 10
15.730464375004431
 20
74.634454928970413
 30
0.0
 11
16.042964375004431
 21
74.093189051605137
 31
0.0
  0
LINE
  5
FFBBDAE469BC2678
  8
0
  6
CONTINUOUS
 62
     0
 10
14.792964375004431
 20
76.258252561066243
 30
0.0
 11
15.105464375004431
 21
75.716986683700966
 31
0.0
  0
LINE
  5
FFBBDAE469BC2679
  8
0
  6
CONTINUOUS
 62
     0
 10
13.855464375004431
 20
77.882050193162073
 30
0.0
 11
14.167964375004431
 21
77.340784315796796
 31
0.0
  0
LINE
  5
FFBBDAE469BC267A
  8
0
  6
CONTINUOUS
 62
     0
 10
12.917964375004431
 20
79.505847825257902
 30
0.0
 11
13.230464375004431
 21
78.964581947892626
 31
0.0
  0
LINE
  5
FFBBDAE469BC267B
  8
0
  6
CONTINUOUS
 62
     0
 10
12.10144399441333
 20
80.920102609857153
 30
0.0
 11
12.292964375004431
 21
80.588379579988455
 31
0.0
  0
LINE
  5
FFBBDAE469BC267C
  8
0
  6
CONTINUOUS
 62
     0
 10
16.66796437295579
 20
74.093189050422751
 30
0.0
 11
16.743206038947388
 21
73.962866662079179
 31
0.0
  0
LINE
  5
FFBBDAE469BC267D
  8
0
  6
CONTINUOUS
 62
     0
 10
15.73046437295579
 20
75.716986682518581
 30
0.0
 11
16.04296437295579
 21
75.175720805153304
 31
0.0
  0
LINE
  5
FFBBDAE469BC267E
  8
0
  6
CONTINUOUS
 62
     0
 10
14.79296437295579
 20
77.34078431461441
 30
0.0
 11
15.10546437295579
 21
76.799518437249134
 31
0.0
  0
LINE
  5
FFBBDAE469BC267F
  8
0
  6
CONTINUOUS
 62
     0
 10
13.85546437295579
 20
78.96458194671024
 30
0.0
 11
14.16796437295579
 21
78.423316069344963
 31
0.0
  0
LINE
  5
FFBBDAE469BC2680
  8
0
  6
CONTINUOUS
 62
     0
 10
12.91796437295579
 20
80.58837957880607
 30
0.0
 11
13.23046437295579
 21
80.047113701440793
 31
0.0
  0
LINE
  5
FFBBDAE469BC2681
  8
0
  6
CONTINUOUS
 62
     0
 10
16.667964370907612
 20
75.175720803971174
 30
0.0
 11
16.980464370907612
 21
74.634454926605883
 31
0.0
  0
LINE
  5
FFBBDAE469BC2682
  8
0
  6
CONTINUOUS
 62
     0
 10
15.73046437090761
 20
76.799518436067004
 30
0.0
 11
16.042964370907612
 21
76.258252558701713
 31
0.0
  0
LINE
  5
FFBBDAE469BC2683
  8
0
  6
CONTINUOUS
 62
     0
 10
14.79296437090761
 20
78.423316068162833
 30
0.0
 11
15.10546437090761
 21
77.882050190797557
 31
0.0
  0
LINE
  5
FFBBDAE469BC2684
  8
0
  6
CONTINUOUS
 62
     0
 10
13.85546437090761
 20
80.047113700258663
 30
0.0
 11
14.16796437090761
 21
79.505847822893386
 31
0.0
  0
LINE
  5
FFBBDAE469BC2685
  8
0
  6
CONTINUOUS
 62
     0
 10
16.667964368858971
 20
76.258252557519356
 30
0.0
 11
16.980464368858971
 21
75.716986680154065
 31
0.0
  0
LINE
  5
FFBBDAE469BC2686
  8
0
  6
CONTINUOUS
 62
     0
 10
15.73046436885897
 20
77.882050189615185
 30
0.0
 11
16.042964368858971
 21
77.340784312249909
 31
0.0
  0
LINE
  5
FFBBDAE469BC2687
  8
0
  6
CONTINUOUS
 62
     0
 10
14.79296436885897
 20
79.505847821711015
 30
0.0
 11
15.10546436885897
 21
78.964581944345738
 31
0.0
  0
LINE
  5
FFBBDAE469BC2688
  8
0
  6
CONTINUOUS
 62
     0
 10
13.9764439862206
 20
80.920102609856258
 30
0.0
 11
14.16796436885897
 21
80.588379576441554
 31
0.0
  0
LINE
  5
FFBBDAE469BC2689
  8
0
  6
CONTINUOUS
 62
     0
 10
16.667964366810789
 20
77.340784311063715
 30
0.0
 11
16.980464366810789
 21
76.799518433698438
 31
0.0
  0
LINE
  5
FFBBDAE469BC268A
  8
0
  6
CONTINUOUS
 62
     0
 10
15.730464366810789
 20
78.964581943159544
 30
0.0
 11
16.042964366810789
 21
78.423316065794268
 31
0.0
  0
LINE
  5
FFBBDAE469BC268B
  8
0
  6
CONTINUOUS
 62
     0
 10
14.792964366810789
 20
80.588379575255374
 30
0.0
 11
15.105464366810789
 21
80.047113697890097
 31
0.0
  0
LINE
  5
FFBBDAE469BC268C
  8
0
  6
CONTINUOUS
 62
     0
 10
17.605464364763058
 20
76.799518432515853
 30
0.0
 11
17.722433095553239
 21
76.596922647890423
 31
0.0
  0
LINE
  5
FFBBDAE469BC268D
  8
0
  6
CONTINUOUS
 62
     0
 10
16.667964364763058
 20
78.423316064611683
 30
0.0
 11
16.980464364763058
 21
77.882050187246406
 31
0.0
  0
LINE
  5
FFBBDAE469BC268E
  8
0
  6
CONTINUOUS
 62
     0
 10
15.73046436476306
 20
80.047113696707513
 30
0.0
 11
16.042964364763058
 21
79.505847819342236
 31
0.0
  0
LINE
  5
FFBBDAE469BC268F
  8
0
  6
CONTINUOUS
 62
     0
 10
17.605464362712151
 20
77.882050186068085
 30
0.0
 11
17.706851751297108
 21
77.706442077792218
 31
0.0
  0
LINE
  5
FFBBDAE469BC2690
  8
0
  6
CONTINUOUS
 62
     0
 10
16.667964362712151
 20
79.505847818163915
 30
0.0
 11
16.980464362712151
 21
78.964581940798638
 31
0.0
  0
LINE
  5
FFBBDAE469BC2691
  8
0
  6
CONTINUOUS
 62
     0
 10
15.8514439780256
 20
80.920102609856727
 30
0.0
 11
16.042964362712151
 21
80.588379572894453
 31
0.0
  0
LINE
  5
FFBBDAE469BC2692
  8
0
  6
CONTINUOUS
 62
     0
 10
9.1680037921214534
 20
80.588397297073897
 30
0.0
 11
8.5430037921214534
 21
80.588397297073897
 31
0.0
  0
LINE
  5
FFBBDAE469BC2693
  8
0
  6
CONTINUOUS
 62
     0
 10
11.04300379212145
 20
80.588397297073897
 30
0.0
 11
10.41800379212145
 21
80.588397297073897
 31
0.0
  0
LINE
  5
FFBBDAE469BC2694
  8
0
  6
CONTINUOUS
 62
     0
 10
12.91800379212145
 20
80.588397297073897
 30
0.0
 11
12.29300379212145
 21
80.588397297073897
 31
0.0
  0
LINE
  5
FFBBDAE469BC2695
  8
0
  6
CONTINUOUS
 62
     0
 10
14.79300379212145
 20
80.588397297073897
 30
0.0
 11
14.16800379212145
 21
80.588397297073897
 31
0.0
  0
LINE
  5
FFBBDAE469BC2696
  8
0
  6
CONTINUOUS
 62
     0
 10
16.428967086265398
 20
80.588397297073897
 30
0.0
 11
16.04300379212145
 21
80.588397297073897
 31
0.0
  0
LINE
  5
FFBBDAE469BC2697
  8
0
  6
CONTINUOUS
 62
     0
 10
8.2305037921214534
 20
80.047131422073775
 30
0.0
 11
7.9543654224544289
 21
80.047131422073775
 31
0.0
  0
LINE
  5
FFBBDAE469BC2698
  8
0
  6
CONTINUOUS
 62
     0
 10
10.10550379212145
 20
80.047131422073775
 30
0.0
 11
9.4805037921214534
 21
80.047131422073775
 31
0.0
  0
LINE
  5
FFBBDAE469BC2699
  8
0
  6
CONTINUOUS
 62
     0
 10
11.98050379212145
 20
80.047131422073775
 30
0.0
 11
11.35550379212145
 21
80.047131422073775
 31
0.0
  0
LINE
  5
FFBBDAE469BC269A
  8
0
  6
CONTINUOUS
 62
     0
 10
13.85550379212145
 20
80.047131422073775
 30
0.0
 11
13.23050379212145
 21
80.047131422073775
 31
0.0
  0
LINE
  5
FFBBDAE469BC269B
  8
0
  6
CONTINUOUS
 62
     0
 10
15.73050379212145
 20
80.047131422073775
 30
0.0
 11
15.10550379212145
 21
80.047131422073775
 31
0.0
  0
LINE
  5
FFBBDAE469BC269C
  8
0
  6
CONTINUOUS
 62
     0
 10
9.1680037921214534
 20
79.505865547073853
 30
0.0
 11
8.5430037921214534
 21
79.505865547073853
 31
0.0
  0
LINE
  5
FFBBDAE469BC269D
  8
0
  6
CONTINUOUS
 62
     0
 10
11.04300379212145
 20
79.505865547073853
 30
0.0
 11
10.41800379212145
 21
79.505865547073853
 31
0.0
  0
LINE
  5
FFBBDAE469BC269E
  8
0
  6
CONTINUOUS
 62
     0
 10
12.91800379212145
 20
79.505865547073853
 30
0.0
 11
12.29300379212145
 21
79.505865547073853
 31
0.0
  0
LINE
  5
FFBBDAE469BC269F
  8
0
  6
CONTINUOUS
 62
     0
 10
14.79300379212145
 20
79.505865547073853
 30
0.0
 11
14.16800379212145
 21
79.505865547073853
 31
0.0
  0
LINE
  5
FFBBDAE469BC26A0
  8
0
  6
CONTINUOUS
 62
     0
 10
16.66800379212145
 20
79.505865547073853
 30
0.0
 11
16.04300379212145
 21
79.505865547073853
 31
0.0
  0
LINE
  5
FFBBDAE469BC26A1
  8
0
  6
CONTINUOUS
 62
     0
 10
8.2305037921214534
 20
78.964599672073717
 30
0.0
 11
7.6055037921214534
 21
78.964599672073717
 31
0.0
  0
LINE
  5
FFBBDAE469BC26A2
  8
0
  6
CONTINUOUS
 62
     0
 10
10.10550379212145
 20
78.964599672073717
 30
0.0
 11
9.4805037921214534
 21
78.964599672073717
 31
0.0
  0
LINE
  5
FFBBDAE469BC26A3
  8
0
  6
CONTINUOUS
 62
     0
 10
11.98050379212145
 20
78.964599672073717
 30
0.0
 11
11.35550379212145
 21
78.964599672073717
 31
0.0
  0
LINE
  5
FFBBDAE469BC26A4
  8
0
  6
CONTINUOUS
 62
     0
 10
13.85550379212145
 20
78.964599672073717
 30
0.0
 11
13.23050379212145
 21
78.964599672073717
 31
0.0
  0
LINE
  5
FFBBDAE469BC26A5
  8
0
  6
CONTINUOUS
 62
     0
 10
15.73050379212145
 20
78.964599672073717
 30
0.0
 11
15.10550379212145
 21
78.964599672073717
 31
0.0
  0
LINE
  5
FFBBDAE469BC26A6
  8
0
  6
CONTINUOUS
 62
     0
 10
17.399674073891219
 20
78.964599672073717
 30
0.0
 11
16.98050379212145
 21
78.964599672073717
 31
0.0
  0
LINE
  5
FFBBDAE469BC26A7
  8
0
  6
CONTINUOUS
 62
     0
 10
7.2930037921214534
 20
78.423333797073809
 30
0.0
 11
7.2255811965460452
 21
78.423333797073809
 31
0.0
  0
LINE
  5
FFBBDAE469BC26A8
  8
0
  6
CONTINUOUS
 62
     0
 10
9.1680037921214534
 20
78.423333797073809
 30
0.0
 11
8.5430037921214534
 21
78.423333797073809
 31
0.0
  0
LINE
  5
FFBBDAE469BC26A9
  8
0
  6
CONTINUOUS
 62
     0
 10
11.04300379212145
 20
78.423333797073809
 30
0.0
 11
10.41800379212145
 21
78.423333797073809
 31
0.0
  0
LINE
  5
FFBBDAE469BC26AA
  8
0
  6
CONTINUOUS
 62
     0
 10
12.91800379212145
 20
78.423333797073809
 30
0.0
 11
12.29300379212145
 21
78.423333797073809
 31
0.0
  0
LINE
  5
FFBBDAE469BC26AB
  8
0
  6
CONTINUOUS
 62
     0
 10
14.79300379212145
 20
78.423333797073809
 30
0.0
 11
14.16800379212145
 21
78.423333797073809
 31
0.0
  0
LINE
  5
FFBBDAE469BC26AC
  8
0
  6
CONTINUOUS
 62
     0
 10
16.66800379212145
 20
78.423333797073809
 30
0.0
 11
16.04300379212145
 21
78.423333797073809
 31
0.0
  0
LINE
  5
FFBBDAE469BC26AD
  8
0
  6
CONTINUOUS
 62
     0
 10
8.2305037921214534
 20
77.882067922073674
 30
0.0
 11
7.6055037921214534
 21
77.882067922073674
 31
0.0
  0
LINE
  5
FFBBDAE469BC26AE
  8
0
  6
CONTINUOUS
 62
     0
 10
10.10550379212145
 20
77.882067922073674
 30
0.0
 11
9.4805037921214534
 21
77.882067922073674
 31
0.0
  0
LINE
  5
FFBBDAE469BC26AF
  8
0
  6
CONTINUOUS
 62
     0
 10
11.98050379212145
 20
77.882067922073674
 30
0.0
 11
11.35550379212145
 21
77.882067922073674
 31
0.0
  0
LINE
  5
FFBBDAE469BC26B0
  8
0
  6
CONTINUOUS
 62
     0
 10
13.85550379212145
 20
77.882067922073674
 30
0.0
 11
13.23050379212145
 21
77.882067922073674
 31
0.0
  0
LINE
  5
FFBBDAE469BC26B1
  8
0
  6
CONTINUOUS
 62
     0
 10
15.73050379212145
 20
77.882067922073674
 30
0.0
 11
15.10550379212145
 21
77.882067922073674
 31
0.0
  0
LINE
  5
FFBBDAE469BC26B2
  8
0
  6
CONTINUOUS
 62
     0
 10
17.60550379212145
 20
77.882067922073674
 30
0.0
 11
16.98050379212145
 21
77.882067922073674
 31
0.0
  0
LINE
  5
FFBBDAE469BC26B3
  8
0
  6
CONTINUOUS
 62
     0
 10
7.2930037921214534
 20
77.340802047073765
 30
0.0
 11
7.0597734050588761
 21
77.340802047073765
 31
0.0
  0
LINE
  5
FFBBDAE469BC26B4
  8
0
  6
CONTINUOUS
 62
     0
 10
9.1680037921214534
 20
77.340802047073765
 30
0.0
 11
8.5430037921214534
 21
77.340802047073765
 31
0.0
  0
LINE
  5
FFBBDAE469BC26B5
  8
0
  6
CONTINUOUS
 62
     0
 10
11.04300379212145
 20
77.340802047073765
 30
0.0
 11
10.41800379212145
 21
77.340802047073765
 31
0.0
  0
LINE
  5
FFBBDAE469BC26B6
  8
0
  6
CONTINUOUS
 62
     0
 10
12.91800379212145
 20
77.340802047073765
 30
0.0
 11
12.29300379212145
 21
77.340802047073765
 31
0.0
  0
LINE
  5
FFBBDAE469BC26B7
  8
0
  6
CONTINUOUS
 62
     0
 10
14.79300379212145
 20
77.340802047073765
 30
0.0
 11
14.16800379212145
 21
77.340802047073765
 31
0.0
  0
LINE
  5
FFBBDAE469BC26B8
  8
0
  6
CONTINUOUS
 62
     0
 10
16.66800379212145
 20
77.340802047073765
 30
0.0
 11
16.04300379212145
 21
77.340802047073765
 31
0.0
  0
LINE
  5
FFBBDAE469BC26B9
  8
0
  6
CONTINUOUS
 62
     0
 10
8.2305037921214534
 20
76.799536172073843
 30
0.0
 11
7.6055037921214534
 21
76.799536172073843
 31
0.0
  0
LINE
  5
FFBBDAE469BC26BA
  8
0
  6
CONTINUOUS
 62
     0
 10
10.10550379212145
 20
76.799536172073843
 30
0.0
 11
9.4805037921214534
 21
76.799536172073843
 31
0.0
  0
LINE
  5
FFBBDAE469BC26BB
  8
0
  6
CONTINUOUS
 62
     0
 10
11.98050379212145
 20
76.799536172073843
 30
0.0
 11
11.35550379212145
 21
76.799536172073843
 31
0.0
  0
LINE
  5
FFBBDAE469BC26BC
  8
0
  6
CONTINUOUS
 62
     0
 10
13.85550379212145
 20
76.799536172073843
 30
0.0
 11
13.23050379212145
 21
76.799536172073843
 31
0.0
  0
LINE
  5
FFBBDAE469BC26BD
  8
0
  6
CONTINUOUS
 62
     0
 10
15.73050379212145
 20
76.799536172073843
 30
0.0
 11
15.10550379212145
 21
76.799536172073843
 31
0.0
  0
LINE
  5
FFBBDAE469BC26BE
  8
0
  6
CONTINUOUS
 62
     0
 10
17.60550379212145
 20
76.799536172073843
 30
0.0
 11
16.98050379212145
 21
76.799536172073843
 31
0.0
  0
LINE
  5
FFBBDAE469BC26BF
  8
0
  6
CONTINUOUS
 62
     0
 10
7.2930037921214534
 20
76.258270297073722
 30
0.0
 11
7.1163384310148103
 21
76.258270297073722
 31
0.0
  0
LINE
  5
FFBBDAE469BC26C0
  8
0
  6
CONTINUOUS
 62
     0
 10
9.1680037921214534
 20
76.258270297073722
 30
0.0
 11
8.5430037921214534
 21
76.258270297073722
 31
0.0
  0
LINE
  5
FFBBDAE469BC26C1
  8
0
  6
CONTINUOUS
 62
     0
 10
11.04300379212145
 20
76.258270297073722
 30
0.0
 11
10.41800379212145
 21
76.258270297073722
 31
0.0
  0
LINE
  5
FFBBDAE469BC26C2
  8
0
  6
CONTINUOUS
 62
     0
 10
12.91800379212145
 20
76.258270297073722
 30
0.0
 11
12.29300379212145
 21
76.258270297073722
 31
0.0
  0
LINE
  5
FFBBDAE469BC26C3
  8
0
  6
CONTINUOUS
 62
     0
 10
14.79300379212145
 20
76.258270297073722
 30
0.0
 11
14.16800379212145
 21
76.258270297073722
 31
0.0
  0
LINE
  5
FFBBDAE469BC26C4
  8
0
  6
CONTINUOUS
 62
     0
 10
16.66800379212145
 20
76.258270297073722
 30
0.0
 11
16.04300379212145
 21
76.258270297073722
 31
0.0
  0
LINE
  5
FFBBDAE469BC26C5
  8
0
  6
CONTINUOUS
 62
     0
 10
8.2305037921214534
 20
75.717004422073813
 30
0.0
 11
7.6055037921214534
 21
75.717004422073813
 31
0.0
  0
LINE
  5
FFBBDAE469BC26C6
  8
0
  6
CONTINUOUS
 62
     0
 10
10.10550379212145
 20
75.717004422073813
 30
0.0
 11
9.4805037921214534
 21
75.717004422073813
 31
0.0
  0
LINE
  5
FFBBDAE469BC26C7
  8
0
  6
CONTINUOUS
 62
     0
 10
11.98050379212145
 20
75.717004422073813
 30
0.0
 11
11.35550379212145
 21
75.717004422073813
 31
0.0
  0
LINE
  5
FFBBDAE469BC26C8
  8
0
  6
CONTINUOUS
 62
     0
 10
13.85550379212145
 20
75.717004422073813
 30
0.0
 11
13.23050379212145
 21
75.717004422073813
 31
0.0
  0
LINE
  5
FFBBDAE469BC26C9
  8
0
  6
CONTINUOUS
 62
     0
 10
15.73050379212145
 20
75.717004422073813
 30
0.0
 11
15.10550379212145
 21
75.717004422073813
 31
0.0
  0
LINE
  5
FFBBDAE469BC26CA
  8
0
  6
CONTINUOUS
 62
     0
 10
17.568128059319861
 20
75.717004422073813
 30
0.0
 11
16.98050379212145
 21
75.717004422073813
 31
0.0
  0
LINE
  5
FFBBDAE469BC26CB
  8
0
  6
CONTINUOUS
 62
     0
 10
9.1680037921214534
 20
75.175738547073678
 30
0.0
 11
8.5430037921214534
 21
75.175738547073678
 31
0.0
  0
LINE
  5
FFBBDAE469BC26CC
  8
0
  6
CONTINUOUS
 62
     0
 10
11.04300379212145
 20
75.175738547073678
 30
0.0
 11
10.41800379212145
 21
75.175738547073678
 31
0.0
  0
LINE
  5
FFBBDAE469BC26CD
  8
0
  6
CONTINUOUS
 62
     0
 10
12.91800379212145
 20
75.175738547073678
 30
0.0
 11
12.29300379212145
 21
75.175738547073678
 31
0.0
  0
LINE
  5
FFBBDAE469BC26CE
  8
0
  6
CONTINUOUS
 62
     0
 10
14.79300379212145
 20
75.175738547073678
 30
0.0
 11
14.16800379212145
 21
75.175738547073678
 31
0.0
  0
LINE
  5
FFBBDAE469BC26CF
  8
0
  6
CONTINUOUS
 62
     0
 10
16.66800379212145
 20
75.175738547073678
 30
0.0
 11
16.04300379212145
 21
75.175738547073678
 31
0.0
  0
LINE
  5
FFBBDAE469BC26D0
  8
0
  6
CONTINUOUS
 62
     0
 10
8.2305037921214534
 20
74.63447267207377
 30
0.0
 11
7.6439573584684686
 21
74.63447267207377
 31
0.0
  0
LINE
  5
FFBBDAE469BC26D1
  8
0
  6
CONTINUOUS
 62
     0
 10
10.10550379212145
 20
74.63447267207377
 30
0.0
 11
9.4805037921214534
 21
74.63447267207377
 31
0.0
  0
LINE
  5
FFBBDAE469BC26D2
  8
0
  6
CONTINUOUS
 62
     0
 10
11.98050379212145
 20
74.63447267207377
 30
0.0
 11
11.35550379212145
 21
74.63447267207377
 31
0.0
  0
LINE
  5
FFBBDAE469BC26D3
  8
0
  6
CONTINUOUS
 62
     0
 10
13.85550379212145
 20
74.63447267207377
 30
0.0
 11
13.23050379212145
 21
74.63447267207377
 31
0.0
  0
LINE
  5
FFBBDAE469BC26D4
  8
0
  6
CONTINUOUS
 62
     0
 10
15.73050379212145
 20
74.63447267207377
 30
0.0
 11
15.10550379212145
 21
74.63447267207377
 31
0.0
  0
LINE
  5
FFBBDAE469BC26D5
  8
0
  6
CONTINUOUS
 62
     0
 10
17.153341493009059
 20
74.63447267207377
 30
0.0
 11
16.98050379212145
 21
74.63447267207377
 31
0.0
  0
LINE
  5
FFBBDAE469BC26D6
  8
0
  6
CONTINUOUS
 62
     0
 10
9.1680037921214534
 20
74.093206797073861
 30
0.0
 11
8.5430037921214534
 21
74.093206797073861
 31
0.0
  0
LINE
  5
FFBBDAE469BC26D7
  8
0
  6
CONTINUOUS
 62
     0
 10
11.04300379212145
 20
74.093206797073861
 30
0.0
 11
10.41800379212145
 21
74.093206797073861
 31
0.0
  0
LINE
  5
FFBBDAE469BC26D8
  8
0
  6
CONTINUOUS
 62
     0
 10
12.91800379212145
 20
74.093206797073861
 30
0.0
 11
12.29300379212145
 21
74.093206797073861
 31
0.0
  0
LINE
  5
FFBBDAE469BC26D9
  8
0
  6
CONTINUOUS
 62
     0
 10
14.79300379212145
 20
74.093206797073861
 30
0.0
 11
14.16800379212145
 21
74.093206797073861
 31
0.0
  0
LINE
  5
FFBBDAE469BC26DA
  8
0
  6
CONTINUOUS
 62
     0
 10
16.66800379212145
 20
74.093206797073861
 30
0.0
 11
16.04300379212145
 21
74.093206797073861
 31
0.0
  0
LINE
  5
FFBBDAE469BC26DB
  8
0
  6
CONTINUOUS
 62
     0
 10
10.10550379212145
 20
73.551940922073726
 30
0.0
 11
9.4805037921214534
 21
73.551940922073726
 31
0.0
  0
LINE
  5
FFBBDAE469BC26DC
  8
0
  6
CONTINUOUS
 62
     0
 10
11.98050379212145
 20
73.551940922073726
 30
0.0
 11
11.35550379212145
 21
73.551940922073726
 31
0.0
  0
LINE
  5
FFBBDAE469BC26DD
  8
0
  6
CONTINUOUS
 62
     0
 10
13.85550379212145
 20
73.551940922073726
 30
0.0
 11
13.23050379212145
 21
73.551940922073726
 31
0.0
  0
LINE
  5
FFBBDAE469BC26DE
  8
0
  6
CONTINUOUS
 62
     0
 10
15.73050379212145
 20
73.551940922073726
 30
0.0
 11
15.10550379212145
 21
73.551940922073726
 31
0.0
  0
LINE
  5
FFBBDAE469BC26DF
  8
0
  6
CONTINUOUS
 62
     0
 10
9.1680037921214534
 20
73.010675047073818
 30
0.0
 11
8.9290750411437312
 21
73.010675047073818
 31
0.0
  0
LINE
  5
FFBBDAE469BC26E0
  8
0
  6
CONTINUOUS
 62
     0
 10
11.04300379212145
 20
73.010675047073818
 30
0.0
 11
10.41800379212145
 21
73.010675047073818
 31
0.0
  0
LINE
  5
FFBBDAE469BC26E1
  8
0
  6
CONTINUOUS
 62
     0
 10
12.91800379212145
 20
73.010675047073818
 30
0.0
 11
12.29300379212145
 21
73.010675047073818
 31
0.0
  0
LINE
  5
FFBBDAE469BC26E2
  8
0
  6
CONTINUOUS
 62
     0
 10
14.79300379212145
 20
73.010675047073818
 30
0.0
 11
14.16800379212145
 21
73.010675047073818
 31
0.0
  0
ENDBLK
  5
FFBBDAE469BC26E4
  8
0
  0
BLOCK
  8
0
  2
*X10
 70
     1
 10
0.0
 20
0.0
 30
0.0
  3
*X10
  1

  0
LINE
  5
FFBBDAE469BC26E6
  8
0
  6
CONTINUOUS
 62
     0
 10
7.2239000049174358
 20
80.466464374007472
 30
0.0
 11
7.2239000049174358
 21
80.466464374007472
 31
0.0
  0
LINE
  5
FFBBDAE469BC26E7
  8
0
  6
CONTINUOUS
 62
     0
 10
7.4082193391199667
 20
80.297566822103562
 30
0.0
 11
7.4082193391199667
 21
80.297566822103562
 31
0.0
  0
LINE
  5
FFBBDAE469BC26E8
  8
0
  6
CONTINUOUS
 62
     0
 10
3.3477861429092499
 20
80.385985254059605
 30
0.0
 11
3.3477861429092499
 21
80.385985254059605
 31
0.0
  0
LINE
  5
FFBBDAE469BC26E9
  8
0
  6
CONTINUOUS
 62
     0
 10
4.2177734003451972
 20
79.588788809073122
 30
0.0
 11
4.2177734003451972
 21
79.588788809073122
 31
0.0
  0
LINE
  5
FFBBDAE469BC26EA
  8
0
  6
CONTINUOUS
 62
     0
 10
4.4020927345477281
 20
79.419891257169212
 30
0.0
 11
4.4020927345477281
 21
79.419891257169212
 31
0.0
  0
LINE
  5
FFBBDAE469BC26EB
  8
0
  6
CONTINUOUS
 62
     0
 10
5.3974171392413952
 20
78.507844476888053
 30
0.0
 11
5.3974171392413952
 21
78.507844476888053
 31
0.0
  0
LINE
  5
FFBBDAE469BC26EC
  8
0
  6
CONTINUOUS
 62
     0
 10
6.2674043966773407
 20
77.710648031901584
 30
0.0
 11
6.2674043966773407
 21
77.710648031901584
 31
0.0
  0
LINE
  5
FFBBDAE469BC26ED
  8
0
  6
CONTINUOUS
 62
     0
 10
6.4517237308798716
 20
77.541750479997674
 30
0.0
 11
6.4517237308798716
 21
77.541750479997674
 31
0.0
  0
LINE
  5
FFBBDAE469BC26EE
  8
0
  6
CONTINUOUS
 62
     0
 10
1.211646795773174
 20
78.711113244139156
 30
0.0
 11
1.211646795773174
 21
78.711113244139156
 31
0.0
  0
LINE
  5
FFBBDAE469BC26EF
  8
0
  6
CONTINUOUS
 62
     0
 10
1.3959661299757049
 20
78.542215692235246
 30
0.0
 11
1.3959661299757049
 21
78.542215692235246
 31
0.0
  0
LINE
  5
FFBBDAE469BC26F0
  8
0
  6
CONTINUOUS
 62
     0
 10
2.391290534669372
 20
77.630168911954101
 30
0.0
 11
2.391290534669372
 21
77.630168911954101
 31
0.0
  0
LINE
  5
FFBBDAE469BC26F1
  8
0
  6
CONTINUOUS
 62
     0
 10
3.2612777921053189
 20
76.832972466967618
 30
0.0
 11
3.2612777921053189
 21
76.832972466967618
 31
0.0
  0
LINE
  5
FFBBDAE469BC26F2
  8
0
  6
CONTINUOUS
 62
     0
 10
3.4455971263078502
 20
76.664074915063708
 30
0.0
 11
3.4455971263078502
 21
76.664074915063708
 31
0.0
  0
LINE
  5
FFBBDAE469BC26F3
  8
0
  6
CONTINUOUS
 62
     0
 10
4.4409215310015169
 20
75.752028134782563
 30
0.0
 11
4.4409215310015169
 21
75.752028134782563
 31
0.0
  0
LINE
  5
FFBBDAE469BC26F4
  8
0
  6
CONTINUOUS
 62
     0
 10
5.3109087884374642
 20
74.95483168979608
 30
0.0
 11
5.3109087884374642
 21
74.95483168979608
 31
0.0
  0
LINE
  5
FFBBDAE469BC26F5
  8
0
  6
CONTINUOUS
 62
     0
 10
5.495228122639995
 20
74.78593413789217
 30
0.0
 11
5.495228122639995
 21
74.78593413789217
 31
0.0
  0
LINE
  5
FFBBDAE469BC26F6
  8
0
  6
CONTINUOUS
 62
     0
 10
6.4905525273336622
 20
73.873887357611025
 30
0.0
 11
6.4905525273336622
 21
73.873887357611025
 31
0.0
  0
LINE
  5
FFBBDAE469BC26F7
  8
0
  6
CONTINUOUS
 62
     0
 10
7.3605397847696077
 20
73.076690912624542
 30
0.0
 11
7.3605397847696077
 21
73.076690912624542
 31
0.0
  0
LINE
  5
FFBBDAE469BC26F8
  8
0
  6
CONTINUOUS
 62
     0
 10
1.434794926429207
 20
74.874352569848725
 30
0.0
 11
1.434794926429207
 21
74.874352569848725
 31
0.0
  0
LINE
  5
FFBBDAE469BC26F9
  8
0
  6
CONTINUOUS
 62
     0
 10
2.3047821838651541
 20
74.077156124862242
 30
0.0
 11
2.3047821838651541
 21
74.077156124862242
 31
0.0
  0
LINE
  5
FFBBDAE469BC26FA
  8
0
  6
CONTINUOUS
 62
     0
 10
2.4891015180676841
 20
73.908258572958331
 30
0.0
 11
2.4891015180676841
 21
73.908258572958331
 31
0.0
  0
LINE
  5
FFBBDAE469BC26FB
  8
0
  6
CONTINUOUS
 62
     0
 10
3.4844259227613521
 20
72.996211792677187
 30
0.0
 11
3.4844259227613521
 21
72.996211792677187
 31
0.0
  0
LINE
  5
FFBBDAE469BC26FC
  8
0
  6
CONTINUOUS
 62
     0
 10
5.6316145422434829
 20
80.568694957907297
 30
0.0
 11
5.6316145422434829
 21
80.568694957907297
 31
0.0
  0
LINE
  5
FFBBDAE469BC26FD
  8
0
  6
CONTINUOUS
 62
     0
 10
6.0533102651499258
 20
80.300045153733905
 30
0.0
 11
6.0533102651499258
 21
80.300045153733905
 31
0.0
  0
LINE
  5
FFBBDAE469BC26FE
  8
0
  6
CONTINUOUS
 62
     0
 10
2.5174726804917631
 20
80.563035904370665
 30
0.0
 11
2.5174726804917631
 21
80.563035904370665
 31
0.0
  0
LINE
  5
FFBBDAE469BC26FF
  8
0
  6
CONTINUOUS
 62
     0
 10
2.939168403398206
 20
80.294386100197272
 30
0.0
 11
2.939168403398206
 21
80.294386100197272
 31
0.0
  0
LINE
  5
FFBBDAE469BC2700
  8
0
  6
CONTINUOUS
 62
     0
 10
4.9211383010584866
 20
79.03173202058224
 30
0.0
 11
4.9211383010584866
 21
79.03173202058224
 31
0.0
  0
LINE
  5
FFBBDAE469BC2701
  8
0
  6
CONTINUOUS
 62
     0
 10
6.4392429035216807
 20
78.064592725557944
 30
0.0
 11
6.4392429035216807
 21
78.064592725557944
 31
0.0
  0
LINE
  5
FFBBDAE469BC2702
  8
0
  6
CONTINUOUS
 62
     0
 10
6.8609386264281236
 20
77.795942921384551
 30
0.0
 11
6.8609386264281236
 21
77.795942921384551
 31
0.0
  0
LINE
  5
FFBBDAE469BC2703
  8
0
  6
CONTINUOUS
 62
     0
 10
1.8069964393083791
 20
79.02607296704474
 30
0.0
 11
1.8069964393083791
 21
79.02607296704474
 31
0.0
  0
LINE
  5
FFBBDAE469BC2704
  8
0
  6
CONTINUOUS
 62
     0
 10
3.325101041771573
 20
78.058933672020444
 30
0.0
 11
3.325101041771573
 21
78.058933672020444
 31
0.0
  0
LINE
  5
FFBBDAE469BC2705
  8
0
  6
CONTINUOUS
 62
     0
 10
3.7467967646780158
 20
77.790283867847052
 30
0.0
 11
3.7467967646780158
 21
77.790283867847052
 31
0.0
  0
LINE
  5
FFBBDAE469BC2706
  8
0
  6
CONTINUOUS
 62
     0
 10
5.7287666623382973
 20
76.527629788232019
 30
0.0
 11
5.7287666623382973
 21
76.527629788232019
 31
0.0
  0
LINE
  5
FFBBDAE469BC2707
  8
0
  6
CONTINUOUS
 62
     0
 10
7.2468712648014906
 20
75.560490493207723
 30
0.0
 11
7.2468712648014906
 21
75.560490493207723
 31
0.0
  0
LINE
  5
FFBBDAE469BC2708
  8
0
  6
CONTINUOUS
 62
     0
 10
2.6146248005854931
 20
76.521970734694648
 30
0.0
 11
2.6146248005854931
 21
76.521970734694648
 31
0.0
  0
LINE
  5
FFBBDAE469BC2709
  8
0
  6
CONTINUOUS
 62
     0
 10
4.1327294030486881
 20
75.554831439670366
 30
0.0
 11
4.1327294030486881
 21
75.554831439670366
 31
0.0
  0
LINE
  5
FFBBDAE469BC270A
  8
0
  6
CONTINUOUS
 62
     0
 10
4.55442512595513
 20
75.286181635496959
 30
0.0
 11
4.55442512595513
 21
75.286181635496959
 31
0.0
  0
LINE
  5
FFBBDAE469BC270B
  8
0
  6
CONTINUOUS
 62
     0
 10
6.5363950236154107
 20
74.023527555881927
 30
0.0
 11
6.5363950236154107
 21
74.023527555881927
 31
0.0
  0
LINE
  5
FFBBDAE469BC270C
  8
0
  6
CONTINUOUS
 62
     0
 10
8.0544996260786057
 20
73.056388260857645
 30
0.0
 11
8.0544996260786057
 21
73.056388260857645
 31
0.0
  0
LINE
  5
FFBBDAE469BC270D
  8
0
  6
CONTINUOUS
 62
     0
 10
1.018587541297624
 20
75.549172386133705
 30
0.0
 11
1.018587541297624
 21
75.549172386133705
 31
0.0
  0
LINE
  5
FFBBDAE469BC270E
  8
0
  6
CONTINUOUS
 62
     0
 10
1.440283264204067
 20
75.280522581960298
 30
0.0
 11
1.440283264204067
 21
75.280522581960298
 31
0.0
  0
LINE
  5
FFBBDAE469BC270F
  8
0
  6
CONTINUOUS
 62
     0
 10
3.4222531618643481
 20
74.017868502345266
 30
0.0
 11
3.4222531618643481
 21
74.017868502345266
 31
0.0
  0
LINE
  5
FFBBDAE469BC2710
  8
0
  6
CONTINUOUS
 62
     0
 10
4.9403577643275423
 20
73.050729207320984
 30
0.0
 11
4.9403577643275423
 21
73.050729207320984
 31
0.0
  0
LINE
  5
FFBBDAE469BC2711
  8
0
  6
CONTINUOUS
 62
     0
 10
1.826215902575425
 20
73.045070153783826
 30
0.0
 11
1.826215902575425
 21
73.045070153783826
 31
0.0
  0
LINE
  5
FFBBDAE469BC2712
  8
0
  6
CONTINUOUS
 62
     0
 10
0.9638397534423109
 20
79.587230221280905
 30
0.0
 11
0.9638397534423109
 21
79.587230221280905
 31
0.0
  0
LINE
  5
FFBBDAE469BC2713
  8
0
  6
CONTINUOUS
 62
     0
 10
2.3221192135244308
 20
79.766051104622363
 30
0.0
 11
2.3221192135244308
 21
79.766051104622363
 31
0.0
  0
LINE
  5
FFBBDAE469BC2714
  8
0
  6
CONTINUOUS
 62
     0
 10
3.1351039998509549
 20
79.873082582242816
 30
0.0
 11
3.1351039998509549
 21
79.873082582242816
 31
0.0
  0
LINE
  5
FFBBDAE469BC2715
  8
0
  6
CONTINUOUS
 62
     0
 10
3.6556125520722058
 20
79.941608833158341
 30
0.0
 11
3.6556125520722058
 21
79.941608833158341
 31
0.0
  0
LINE
  5
FFBBDAE469BC2716
  8
0
  6
CONTINUOUS
 62
     0
 10
5.0138920121543258
 20
80.120429716499814
 30
0.0
 11
5.0138920121543258
 21
80.120429716499814
 31
0.0
  0
LINE
  5
FFBBDAE469BC2717
  8
0
  6
CONTINUOUS
 62
     0
 10
5.8268767984808507
 20
80.227461194120238
 30
0.0
 11
5.8268767984808507
 21
80.227461194120238
 31
0.0
  0
LINE
  5
FFBBDAE469BC2718
  8
0
  6
CONTINUOUS
 62
     0
 10
6.3473853507021021
 20
80.295987445035777
 30
0.0
 11
6.3473853507021021
 21
80.295987445035777
 31
0.0
  0
LINE
  5
FFBBDAE469BC2719
  8
0
  6
CONTINUOUS
 62
     0
 10
7.7056648107842216
 20
80.474808328377264
 30
0.0
 11
7.7056648107842216
 21
80.474808328377264
 31
0.0
  0
LINE
  5
FFBBDAE469BC271A
  8
0
  6
CONTINUOUS
 62
     0
 10
1.365327294584054
 20
77.050936517013454
 30
0.0
 11
1.365327294584054
 21
77.050936517013454
 31
0.0
  0
LINE
  5
FFBBDAE469BC271B
  8
0
  6
CONTINUOUS
 62
     0
 10
1.885835846805304
 20
77.119462767928979
 30
0.0
 11
1.885835846805304
 21
77.119462767928979
 31
0.0
  0
LINE
  5
FFBBDAE469BC271C
  8
0
  6
CONTINUOUS
 62
     0
 10
3.2441153068874251
 20
77.298283651270452
 30
0.0
 11
3.2441153068874251
 21
77.298283651270452
 31
0.0
  0
LINE
  5
FFBBDAE469BC271D
  8
0
  6
CONTINUOUS
 62
     0
 10
4.0571000932139487
 20
77.405315128890891
 30
0.0
 11
4.0571000932139487
 21
77.405315128890891
 31
0.0
  0
LINE
  5
FFBBDAE469BC271E
  8
0
  6
CONTINUOUS
 62
     0
 10
4.5776086454352001
 20
77.473841379806416
 30
0.0
 11
4.5776086454352001
 21
77.473841379806416
 31
0.0
  0
LINE
  5
FFBBDAE469BC271F
  8
0
  6
CONTINUOUS
 62
     0
 10
5.9358881055173196
 20
77.652662263147889
 30
0.0
 11
5.9358881055173196
 21
77.652662263147889
 31
0.0
  0
LINE
  5
FFBBDAE469BC2720
  8
0
  6
CONTINUOUS
 62
     0
 10
6.7488728918438454
 20
77.759693740768327
 30
0.0
 11
6.7488728918438454
 21
77.759693740768327
 31
0.0
  0
LINE
  5
FFBBDAE469BC2721
  8
0
  6
CONTINUOUS
 62
     0
 10
1.474338601618242
 20
74.476137586040764
 30
0.0
 11
1.474338601618242
 21
74.476137586040764
 31
0.0
  0
LINE
  5
FFBBDAE469BC2722
  8
0
  6
CONTINUOUS
 62
     0
 10
2.2873233879447659
 20
74.583169063661217
 30
0.0
 11
2.2873233879447659
 21
74.583169063661217
 31
0.0
  0
LINE
  5
FFBBDAE469BC2723
  8
0
  6
CONTINUOUS
 62
     0
 10
2.8078319401660168
 20
74.651695314576742
 30
0.0
 11
2.8078319401660168
 21
74.651695314576742
 31
0.0
  0
LINE
  5
FFBBDAE469BC2724
  8
0
  6
CONTINUOUS
 62
     0
 10
4.1661114002481368
 20
74.830516197918215
 30
0.0
 11
4.1661114002481368
 21
74.830516197918215
 31
0.0
  0
LINE
  5
FFBBDAE469BC2725
  8
0
  6
CONTINUOUS
 62
     0
 10
4.9790961865746617
 20
74.937547675538653
 30
0.0
 11
4.9790961865746617
 21
74.937547675538653
 31
0.0
  0
LINE
  5
FFBBDAE469BC2726
  8
0
  6
CONTINUOUS
 62
     0
 10
5.4996047387959131
 20
75.006073926454164
 30
0.0
 11
5.4996047387959131
 21
75.006073926454164
 31
0.0
  0
LINE
  5
FFBBDAE469BC2727
  8
0
  6
CONTINUOUS
 62
     0
 10
6.8578841988780326
 20
75.184894809795651
 30
0.0
 11
6.8578841988780326
 21
75.184894809795651
 31
0.0
  0
LINE
  5
FFBBDAE469BC2728
  8
0
  6
CONTINUOUS
 62
     0
 10
0.9412303443651676
 20
79.031044479289278
 30
0.0
 11
0.9412303443651676
 21
79.031044479289278
 31
0.0
  0
LINE
  5
FFBBDAE469BC2729
  8
0
  6
CONTINUOUS
 62
     0
 10
2.2304295223384241
 20
80.020281801428453
 30
0.0
 11
2.2304295223384241
 21
80.020281801428453
 31
0.0
  0
LINE
  5
FFBBDAE469BC272A
  8
0
  6
CONTINUOUS
 62
     0
 10
2.293422880449592
 20
78.093458032417075
 30
0.0
 11
2.293422880449592
 21
78.093458032417075
 31
0.0
  0
LINE
  5
FFBBDAE469BC272B
  8
0
  6
CONTINUOUS
 62
     0
 10
3.6421235589446921
 20
79.128352461731907
 30
0.0
 11
3.6421235589446921
 21
79.128352461731907
 31
0.0
  0
LINE
  5
FFBBDAE469BC272C
  8
0
  6
CONTINUOUS
 62
     0
 10
4.8480206361873686
 20
80.053669833825168
 30
0.0
 11
4.8480206361873686
 21
80.053669833825168
 31
0.0
  0
LINE
  5
FFBBDAE469BC272D
  8
0
  6
CONTINUOUS
 62
     0
 10
1.0672170605871141
 20
75.177396941265116
 30
0.0
 11
1.0672170605871141
 21
75.177396941265116
 31
0.0
  0
LINE
  5
FFBBDAE469BC272E
  8
0
  6
CONTINUOUS
 62
     0
 10
2.3564162385603709
 20
76.166634263404291
 30
0.0
 11
2.3564162385603709
 21
76.166634263404291
 31
0.0
  0
LINE
  5
FFBBDAE469BC272F
  8
0
  6
CONTINUOUS
 62
     0
 10
3.7051169170554701
 20
77.201528692719123
 30
0.0
 11
3.7051169170554701
 21
77.201528692719123
 31
0.0
  0
LINE
  5
FFBBDAE469BC2730
  8
0
  6
CONTINUOUS
 62
     0
 10
4.9110139942981483
 20
78.126846064812383
 30
0.0
 11
4.9110139942981483
 21
78.126846064812383
 31
0.0
  0
LINE
  5
FFBBDAE469BC2731
  8
0
  6
CONTINUOUS
 62
     0
 10
6.200213172271404
 20
79.116083386951559
 30
0.0
 11
6.200213172271404
 21
79.116083386951559
 31
0.0
  0
LINE
  5
FFBBDAE469BC2732
  8
0
  6
CONTINUOUS
 62
     0
 10
7.5489138507665041
 20
80.150977816266391
 30
0.0
 11
7.5489138507665041
 21
80.150977816266391
 31
0.0
  0
LINE
  5
FFBBDAE469BC2733
  8
0
  6
CONTINUOUS
 62
     0
 10
1.130210418695127
 20
73.250573172249261
 30
0.0
 11
1.130210418695127
 21
73.250573172249261
 31
0.0
  0
LINE
  5
FFBBDAE469BC2734
  8
0
  6
CONTINUOUS
 62
     0
 10
2.4194095966683831
 20
74.239810494388436
 30
0.0
 11
2.4194095966683831
 21
74.239810494388436
 31
0.0
  0
LINE
  5
FFBBDAE469BC2735
  8
0
  6
CONTINUOUS
 62
     0
 10
3.7681102751634832
 20
75.274704923703254
 30
0.0
 11
3.7681102751634832
 21
75.274704923703254
 31
0.0
  0
LINE
  5
FFBBDAE469BC2736
  8
0
  6
CONTINUOUS
 62
     0
 10
4.9740073524061597
 20
76.200022295796529
 30
0.0
 11
4.9740073524061597
 21
76.200022295796529
 31
0.0
  0
LINE
  5
FFBBDAE469BC2737
  8
0
  6
CONTINUOUS
 62
     0
 10
6.2632065303794171
 20
77.189259617935704
 30
0.0
 11
6.2632065303794171
 21
77.189259617935704
 31
0.0
  0
LINE
  5
FFBBDAE469BC2738
  8
0
  6
CONTINUOUS
 62
     0
 10
3.8311036332736732
 20
73.347881154691407
 30
0.0
 11
3.8311036332736732
 21
73.347881154691407
 31
0.0
  0
LINE
  5
FFBBDAE469BC2739
  8
0
  6
CONTINUOUS
 62
     0
 10
5.0370007105163497
 20
74.273198526784668
 30
0.0
 11
5.0370007105163497
 21
74.273198526784668
 31
0.0
  0
LINE
  5
FFBBDAE469BC273A
  8
0
  6
CONTINUOUS
 62
     0
 10
6.3261998884896071
 20
75.262435848923843
 30
0.0
 11
6.3261998884896071
 21
75.262435848923843
 31
0.0
  0
LINE
  5
FFBBDAE469BC273B
  8
0
  6
CONTINUOUS
 62
     0
 10
6.3891932466008692
 20
73.335612079911897
 30
0.0
 11
6.3891932466008692
 21
73.335612079911897
 31
0.0
  0
LINE
  5
FFBBDAE469BC273C
  8
0
  6
CONTINUOUS
 62
     0
 10
7.7378939250959684
 20
74.370506509226729
 30
0.0
 11
7.7378939250959684
 21
74.370506509226729
 31
0.0
  0
ENDBLK
  5
FFBBDAE469BC273E
  8
0
  0
BLOCK
  8
0
  2
*U11
 70
     1
 10
0.0
 20
0.0
 30
0.0
  3
*U11
  1

  0
TEXT
  5
FFBBDAE469BC2740
  8
DEFPOINTS
  6
CONTINUOUS
 10
-45.715574737802051
 20
-10.99466199975927
 30
0.0
 40
5.0
  1
Meter Box at Jamb
  7
ARIAL
  0
ENDBLK
  5
FFBBDAE469BC2742
  8
0
  0
BLOCK
  8
0
  2
*U12
 70
     1
 10
0.0
 20
0.0
 30
0.0
  3
*U12
  1

  0
TEXT
  5
FFBBDAE469BC2744
  8
0
  6
CONTINUOUS
 10
-135.5183274381024
 20
34.736250037019957
 30
0.0
 40
5.0
  1
Airseal around all sides of meter box
  7
ARIAL
  0
ENDBLK
  5
FFBBDAE469BC2746
  8
0
  0
BLOCK
  8
0
  2
*U13
 70
     1
 10
0.0
 20
0.0
 30
0.0
  3
*U13
  1

  0
TEXT
  5
FFBBDAE469BC2748
  8
0
  6
CONTINUOUS
 10
-107.73532174041731
 20
18.91274274637313
 30
0.0
 40
5.0
  1
Flexible flashing tape at
  7
ARIAL
  0
TEXT
  5
FFBBDAE469BC2749
  8
0
  6
CONTINUOUS
 10
-107.4351853147693
 20
10.579409413039791
 30
0.0
 40
5.0
  1
corners over building underlay
  7
ARIAL
  0
ENDBLK
  5
FFBBDAE469BC274B
  8
0
  0
BLOCK
  8
0
  2
*U14
 70
     1
 10
0.0
 20
0.0
 30
0.0
  3
*U14
  1

  0
TEXT
  5
FFBBDAE469BC274D
  8
0
  6
CONTINUOUS
 10
104.2375086106907
 20
61.418513793859113
 30
0.0
 40
5.0
  1
Metal meter box
  7
ARIAL
  0
ENDBLK
  5
FFBBDAE469BC274F
  8
0
  0
BLOCK
  8
0
  2
*U15
 70
     1
 10
0.0
 20
0.0
 30
0.0
  3
*U15
  1

  0
SOLID
  5
FFBBDAE469BC2751
  8
0
  6
CONTINUOUS
 10
68.312411679830433
 20
70.804632034099214
 30
0.0
 11
65.786654843096585
 21
73.049694502742796
 31
0.0
 12
68.904012651458956
 22
71.745151141615253
 32
0.0
 13
68.904012651458956
 23
71.745151141615253
 33
0.0
  0
POLYLINE
  8
0
  5
7FFFFFFF
  66
     1
 10
0.000000
 20
0.000000
 30
0.000000
  70
     8
  0
VERTEX
  8
0
  5
80000000
 10
68.6082
 20
71.2749
 30
0.000000
  70
    32
  0
VERTEX
  8
0
  5
80000001
 10
69.0047
 20
71.0287
 30
0.000000
  70
    32
  0
VERTEX
  8
0
  5
80000002
 10
69.4102
 20
70.7829
 30
0.000000
  70
    32
  0
VERTEX
  8
0
  5
80000003
 10
69.8240
 20
70.5376
 30
0.000000
  70
    32
  0
VERTEX
  8
0
  5
80000004
 10
70.2457
 20
70.2927
 30
0.000000
  70
    32
  0
VERTEX
  8
0
  5
80000005
 10
70.6747
 20
70.0481
 30
0.000000
  70
    32
  0
VERTEX
  8
0
  5
80000006
 10
71.1105
 20
69.8040
 30
0.000000
  70
    32
  0
VERTEX
  8
0
  5
80000007
 10
71.5524
 20
69.5601
 30
0.000000
  70
    32
  0
VERTEX
  8
0
  5
80000008
 10
72.0000
 20
69.3165
 30
0.000000
  70
    32
  0
VERTEX
  8
0
  5
80000009
 10
72.4527
 20
69.0732
 30
0.000000
  70
    32
  0
VERTEX
  8
0
  5
8000000A
 10
72.9099
 20
68.8302
 30
0.000000
  70
    32
  0
VERTEX
  8
0
  5
8000000B
 10
73.3711
 20
68.5873
 30
0.000000
  70
    32
  0
VERTEX
  8
0
  5
8000000C
 10
73.8358
 20
68.3446
 30
0.000000
  70
    32
  0
VERTEX
  8
0
  5
8000000D
 10
74.3033
 20
68.1021
 30
0.000000
  70
    32
  0
VERTEX
  8
0
  5
8000000E
 10
74.7732
 20
67.8597
 30
0.000000
  70
    32
  0
VERTEX
  8
0
  5
8000000F
 10
75.2448
 20
67.6174
 30
0.000000
  70
    32
  0
VERTEX
  8
0
  5
80000010
 10
75.7177
 20
67.3751
 30
0.000000
  70
    32
  0
VERTEX
  8
0
  5
80000011
 10
76.1912
 20
67.1329
 30
0.000000
  70
    32
  0
VERTEX
  8
0
  5
80000012
 10
76.6649
 20
66.8907
 30
0.000000
  70
    32
  0
VERTEX
  8
0
  5
80000013
 10
77.1381
 20
66.6485
 30
0.000000
  70
    32
  0
VERTEX
  8
0
  5
80000014
 10
77.6103
 20
66.4062
 30
0.000000
  70
    32
  0
VERTEX
  8
0
  5
80000015
 10
78.0810
 20
66.1638
 30
0.000000
  70
    32
  0
VERTEX
  8
0
  5
80000016
 10
78.5497
 20
65.9214
 30
0.000000
  70
    32
  0
VERTEX
  8
0
  5
80000017
 10
79.0156
 20
65.6788
 30
0.000000
  70
    32
  0
VERTEX
  8
0
  5
80000018
 10
79.4784
 20
65.4360
 30
0.000000
  70
    32
  0
VERTEX
  8
0
  5
80000019
 10
79.9375
 20
65.1930
 30
0.000000
  70
    32
  0
VERTEX
  8
0
  5
8000001A
 10
80.3922
 20
64.9498
 30
0.000000
  70
    32
  0
VERTEX
  8
0
  5
8000001B
 10
80.8421
 20
64.7064
 30
0.000000
  70
    32
  0
VERTEX
  8
0
  5
8000001C
 10
81.2866
 20
64.4627
 30
0.000000
  70
    32
  0
VERTEX
  8
0
  5
8000001D
 10
81.7252
 20
64.2186
 30
0.000000
  70
    32
  0
VERTEX
  8
0
  5
8000001E
 10
82.1572
 20
63.9742
 30
0.000000
  70
    32
  0
VERTEX
  8
0
  5
8000001F
 10
82.5822
 20
63.7295
 30
0.000000
  70
    32
  0
VERTEX
  8
0
  5
80000020
 10
82.9996
 20
63.4844
 30
0.000000
  70
    32
  0
VERTEX
  8
0
  5
80000021
 10
83.4088
 20
63.2388
 30
0.000000
  70
    32
  0
VERTEX
  8
0
  5
80000022
 10
83.8093
 20
62.9928
 30
0.000000
  70
    32
  0
VERTEX
  8
0
  5
80000023
 10
84.2005
 20
62.7463
 30
0.000000
  70
    32
  0
VERTEX
  8
0
  5
80000024
 10
84.5819
 20
62.4993
 30
0.000000
  70
    32
  0
VERTEX
  8
0
  5
80000025
 10
84.9529
 20
62.2517
 30
0.000000
  70
    32
  0
VERTEX
  8
0
  5
80000026
 10
85.3131
 20
62.0036
 30
0.000000
  70
    32
  0
VERTEX
  8
0
  5
80000027
 10
85.6617
 20
61.7549
 30
0.000000
  70
    32
  0
VERTEX
  8
0
  5
80000028
 10
85.9983
 20
61.5055
 30
0.000000
  70
    32
  0
VERTEX
  8
0
  5
80000029
 10
86.3224
 20
61.2556
 30
0.000000
  70
    32
  0
VERTEX
  8
0
  5
8000002A
 10
86.6333
 20
61.0049
 30
0.000000
  70
    32
  0
VERTEX
  8
0
  5
8000002B
 10
86.9305
 20
60.7535
 30
0.000000
  70
    32
  0
VERTEX
  8
0
  5
8000002C
 10
87.2135
 20
60.5013
 30
0.000000
  70
    32
  0
VERTEX
  8
0
  5
8000002D
 10
87.4817
 20
60.2484
 30
0.000000
  70
    32
  0
VERTEX
  8
0
  5
8000002E
 10
87.7345
 20
59.9947
 30
0.000000
  70
    32
  0
VERTEX
  8
0
  5
8000002F
 10
87.9715
 20
59.7402
 30
0.000000
  70
    32
  0
VERTEX
  8
0
  5
80000030
 10
88.1920
 20
59.4848
 30
0.000000
  70
    32
  0
VERTEX
  8
0
  5
80000031
 10
88.3955
 20
59.2286
 30
0.000000
  70
    32
  0
VERTEX
  8
0
  5
80000032
 10
88.5815
 20
58.9714
 30
0.000000
  70
    32
  0
VERTEX
  8
0
  5
80000033
 10
88.7494
 20
58.7133
 30
0.000000
  70
    32
  0
VERTEX
  8
0
  5
80000034
 10
88.8986
 20
58.4542
 30
0.000000
  70
    32
  0
VERTEX
  8
0
  5
80000035
 10
89.0289
 20
58.1941
 30
0.000000
  70
    32
  0
VERTEX
  8
0
  5
80000036
 10
89.1406
 20
57.9330
 30
0.000000
  70
    32
  0
VERTEX
  8
0
  5
80000037
 10
89.2339
 20
57.6710
 30
0.000000
  70
    32
  0
VERTEX
  8
0
  5
80000038
 10
89.3090
 20
57.4081
 30
0.000000
  70
    32
  0
VERTEX
  8
0
  5
80000039
 10
89.3663
 20
57.1442
 30
0.000000
  70
    32
  0
VERTEX
  8
0
  5
8000003A
 10
89.4060
 20
56.8794
 30
0.000000
  70
    32
  0
VERTEX
  8
0
  5
8000003B
 10
89.4284
 20
56.6137
 30
0.000000
  70
    32
  0
VERTEX
  8
0
  5
8000003C
 10
89.4336
 20
56.3471
 30
0.000000
  70
    32
  0
VERTEX
  8
0
  5
8000003D
 10
89.4221
 20
56.0796
 30
0.000000
  70
    32
  0
VERTEX
  8
0
  5
8000003E
 10
89.3941
 20
55.8113
 30
0.000000
  70
    32
  0
VERTEX
  8
0
  5
8000003F
 10
89.3498
 20
55.5422
 30
0.000000
  70
    32
  0
VERTEX
  8
0
  5
80000040
 10
89.2894
 20
55.2722
 30
0.000000
  70
    32
  0
VERTEX
  8
0
  5
80000041
 10
89.2134
 20
55.0013
 30
0.000000
  70
    32
  0
VERTEX
  8
0
  5
80000042
 10
89.1218
 20
54.7297
 30
0.000000
  70
    32
  0
VERTEX
  8
0
  5
80000043
 10
89.0151
 20
54.4573
 30
0.000000
  70
    32
  0
VERTEX
  8
0
  5
80000044
 10
88.8934
 20
54.1841
 30
0.000000
  70
    32
  0
VERTEX
  8
0
  5
80000045
 10
88.7571
 20
53.9101
 30
0.000000
  70
    32
  0
VERTEX
  8
0
  5
80000046
 10
88.6063
 20
53.6354
 30
0.000000
  70
    32
  0
VERTEX
  8
0
  5
80000047
 10
88.4414
 20
53.3600
 30
0.000000
  70
    32
  0
VERTEX
  8
0
  5
80000048
 10
88.2626
 20
53.0838
 30
0.000000
  70
    32
  0
VERTEX
  8
0
  5
80000049
 10
88.0702
 20
52.8069
 30
0.000000
  70
    32
  0
VERTEX
  8
0
  5
8000004A
 10
87.8644
 20
52.5294
 30
0.000000
  70
    32
  0
VERTEX
  8
0
  5
8000004B
 10
87.6456
 20
52.2511
 30
0.000000
  70
    32
  0
VERTEX
  8
0
  5
8000004C
 10
87.4140
 20
51.9722
 30
0.000000
  70
    32
  0
VERTEX
  8
0
  5
8000004D
 10
87.1698
 20
51.6926
 30
0.000000
  70
    32
  0
VERTEX
  8
0
  5
8000004E
 10
86.9133
 20
51.4124
 30
0.000000
  70
    32
  0
VERTEX
  8
0
  5
8000004F
 10
86.6448
 20
51.1316
 30
0.000000
  70
    32
  0
VERTEX
  8
0
  5
80000050
 10
86.3646
 20
50.8501
 30
0.000000
  70
    32
  0
VERTEX
  8
0
  5
80000051
 10
86.0728
 20
50.5681
 30
0.000000
  70
    32
  0
VERTEX
  8
0
  5
80000052
 10
85.7699
 20
50.2854
 30
0.000000
  70
    32
  0
VERTEX
  8
0
  5
80000053
 10
85.4560
 20
50.0022
 30
0.000000
  70
    32
  0
VERTEX
  8
0
  5
80000054
 10
85.1314
 20
49.7185
 30
0.000000
  70
    32
  0
VERTEX
  8
0
  5
80000055
 10
84.7964
 20
49.4342
 30
0.000000
  70
    32
  0
VERTEX
  8
0
  5
80000056
 10
84.4512
 20
49.1494
 30
0.000000
  70
    32
  0
VERTEX
  8
0
  5
80000057
 10
84.0961
 20
48.8640
 30
0.000000
  70
    32
  0
VERTEX
  8
0
  5
80000058
 10
83.7315
 20
48.5782
 30
0.000000
  70
    32
  0
VERTEX
  8
0
  5
80000059
 10
83.3574
 20
48.2918
 30
0.000000
  70
    32
  0
VERTEX
  8
0
  5
8000005A
 10
82.9743
 20
48.0050
 30
0.000000
  70
    32
  0
VERTEX
  8
0
  5
8000005B
 10
82.5823
 20
47.7178
 30
0.000000
  70
    32
  0
VERTEX
  8
0
  5
8000005C
 10
82.1817
 20
47.4301
 30
0.000000
  70
    32
  0
VERTEX
  8
0
  5
8000005D
 10
81.7729
 20
47.1419
 30
0.000000
  70
    32
  0
VERTEX
  8
0
  5
8000005E
 10
81.3561
 20
46.8534
 30
0.000000
  70
    32
  0
VERTEX
  8
0
  5
8000005F
 10
80.9314
 20
46.5644
 30
0.000000
  70
    32
  0
VERTEX
  8
0
  5
80000060
 10
80.4993
 20
46.2750
 30
0.000000
  70
    32
  0
VERTEX
  8
0
  5
80000061
 10
80.0599
 20
45.9853
 30
0.000000
  70
    32
  0
VERTEX
  8
0
  5
80000062
 10
79.6136
 20
45.6952
 30
0.000000
  70
    32
  0
VERTEX
  8
0
  5
80000063
 10
79.1606
 20
45.4048
 30
0.000000
  70
    32
  0
VERTEX
  8
0
  5
80000064
 10
78.7011
 20
45.1140
 30
0.000000
  70
    32
  0
VERTEX
  8
0
  5
80000065
 10
78.2355
 20
44.8229
 30
0.000000
  70
    32
  0
VERTEX
  8
0
  5
80000066
 10
77.7639
 20
44.5315
 30
0.000000
  70
    32
  0
VERTEX
  8
0
  5
80000067
 10
77.2867
 20
44.2398
 30
0.000000
  70
    32
  0
VERTEX
  8
0
  5
80000068
 10
76.8042
 20
43.9478
 30
0.000000
  70
    32
  0
VERTEX
  8
0
  5
80000069
 10
76.3165
 20
43.6556
 30
0.000000
  70
    32
  0
VERTEX
  8
0
  5
8000006A
 10
75.8240
 20
43.3631
 30
0.000000
  70
    32
  0
VERTEX
  8
0
  5
8000006B
 10
75.3269
 20
43.0703
 30
0.000000
  70
    32
  0
VERTEX
  8
0
  5
8000006C
 10
74.8255
 20
42.7774
 30
0.000000
  70
    32
  0
VERTEX
  8
0
  5
8000006D
 10
74.3201
 20
42.4842
 30
0.000000
  70
    32
  0
VERTEX
  8
0
  5
8000006E
 10
73.8109
 20
42.1908
 30
0.000000
  70
    32
  0
VERTEX
  8
0
  5
8000006F
 10
73.2981
 20
41.8973
 30
0.000000
  70
    32
  0
VERTEX
  8
0
  5
80000070
 10
72.7822
 20
41.6036
 30
0.000000
  70
    32
  0
VERTEX
  8
0
  5
80000071
 10
72.2632
 20
41.3097
 30
0.000000
  70
    32
  0
VERTEX
  8
0
  5
80000072
 10
71.7415
 20
41.0157
 30
0.000000
  70
    32
  0
VERTEX
  8
0
  5
80000073
 10
71.2174
 20
40.7215
 30
0.000000
  70
    32
  0
VERTEX
  8
0
  5
80000074
 10
70.6911
 20
40.4273
 30
0.000000
  70
    32
  0
VERTEX
  8
0
  5
80000075
 10
70.1628
 20
40.1329
 30
0.000000
  70
    32
  0
VERTEX
  8
0
  5
80000076
 10
69.6330
 20
39.8385
 30
0.000000
  70
    32
  0
VERTEX
  8
0
  5
80000077
 10
69.1017
 20
39.5440
 30
0.000000
  70
    32
  0
VERTEX
  8
0
  5
80000078
 10
68.5693
 20
39.2494
 30
0.000000
  70
    32
  0
VERTEX
  8
0
  5
80000079
 10
68.0361
 20
38.9548
 30
0.000000
  70
    32
  0
VERTEX
  8
0
  5
8000007A
 10
67.5022
 20
38.6601
 30
0.000000
  70
    32
  0
VERTEX
  8
0
  5
8000007B
 10
66.9681
 20
38.3655
 30
0.000000
  70
    32
  0
VERTEX
  8
0
  5
8000007C
 10
66.4338
 20
38.0708
 30
0.000000
  70
    32
  0
VERTEX
  8
0
  5
8000007D
 10
65.8998
 20
37.7761
 30
0.000000
  70
    32
  0
VERTEX
  8
0
  5
8000007E
 10
65.3663
 20
37.4815
 30
0.000000
  70
    32
  0
VERTEX
  8
0
  5
8000007F
 10
64.8335
 20
37.1869
 30
0.000000
  70
    32
  0
VERTEX
  8
0
  5
80000080
 10
64.3017
 20
36.8924
 30
0.000000
  70
    32
  0
VERTEX
  8
0
  5
80000081
 10
63.7712
 20
36.5979
 30
0.000000
  70
    32
  0
VERTEX
  8
0
  5
80000082
 10
63.2422
 20
36.3035
 30
0.000000
  70
    32
  0
VERTEX
  8
0
  5
80000083
 10
62.7150
 20
36.0092
 30
0.000000
  70
    32
  0
VERTEX
  8
0
  5
80000084
 10
62.1899
 20
35.7150
 30
0.000000
  70
    32
  0
VERTEX
  8
0
  5
80000085
 10
61.6671
 20
35.4209
 30
0.000000
  70
    32
  0
VERTEX
  8
0
  5
80000086
 10
61.1469
 20
35.1270
 30
0.000000
  70
    32
  0
VERTEX
  8
0
  5
80000087
 10
60.6296
 20
34.8332
 30
0.000000
  70
    32
  0
VERTEX
  8
0
  5
80000088
 10
60.1154
 20
34.5396
 30
0.000000
  70
    32
  0
VERTEX
  8
0
  5
80000089
 10
59.6046
 20
34.2461
 30
0.000000
  70
    32
  0
VERTEX
  8
0
  5
8000008A
 10
59.0975
 20
33.9529
 30
0.000000
  70
    32
  0
VERTEX
  8
0
  5
8000008B
 10
58.5943
 20
33.6598
 30
0.000000
  70
    32
  0
VERTEX
  8
0
  5
8000008C
 10
58.0952
 20
33.3670
 30
0.000000
  70
    32
  0
VERTEX
  8
0
  5
8000008D
 10
57.6007
 20
33.0744
 30
0.000000
  70
    32
  0
VERTEX
  8
0
  5
8000008E
 10
57.1109
 20
32.7820
 30
0.000000
  70
    32
  0
VERTEX
  8
0
  5
8000008F
 10
56.6260
 20
32.4899
 30
0.000000
  70
    32
  0
VERTEX
  8
0
  5
80000090
 10
56.1464
 20
32.1981
 30
0.000000
  70
    32
  0
VERTEX
  8
0
  5
80000091
 10
55.6724
 20
31.9066
 30
0.000000
  70
    32
  0
VERTEX
  8
0
  5
80000092
 10
55.2041
 20
31.6153
 30
0.000000
  70
    32
  0
VERTEX
  8
0
  5
80000093
 10
54.7419
 20
31.3244
 30
0.000000
  70
    32
  0
VERTEX
  8
0
  5
80000094
 10
54.2860
 20
31.0338
 30
0.000000
  70
    32
  0
VERTEX
  8
0
  5
80000095
 10
53.8367
 20
30.7436
 30
0.000000
  70
    32
  0
VERTEX
  8
0
  5
80000096
 10
53.3943
 20
30.4537
 30
0.000000
  70
    32
  0
VERTEX
  8
0
  5
80000097
 10
52.9589
 20
30.1641
 30
0.000000
  70
    32
  0
VERTEX
  8
0
  5
80000098
 10
52.5310
 20
29.8750
 30
0.000000
  70
    32
  0
VERTEX
  8
0
  5
80000099
 10
52.1106
 20
29.5863
 30
0.000000
  70
    32
  0
VERTEX
  8
0
  5
8000009A
 10
51.6983
 20
29.2979
 30
0.000000
  70
    32
  0
VERTEX
  8
0
  5
8000009B
 10
51.2940
 20
29.0100
 30
0.000000
  70
    32
  0
VERTEX
  8
0
  5
8000009C
 10
50.8983
 20
28.7226
 30
0.000000
  70
    32
  0
VERTEX
  8
0
  5
8000009D
 10
50.5112
 20
28.4356
 30
0.000000
  70
    32
  0
VERTEX
  8
0
  5
8000009E
 10
50.1331
 20
28.1490
 30
0.000000
  70
    32
  0
VERTEX
  8
0
  5
8000009F
 10
49.7643
 20
27.8630
 30
0.000000
  70
    32
  0
SEQEND
  8
0
  5
800000A0
  0
ENDBLK
  5
FFBBDAE469BC2754
  8
0
  0
BLOCK
  8
0
  2
*U16
 70
     1
 10
0.0
 20
0.0
 30
0.0
  3
*U16
  1

  0
TEXT
  5
FFBBDAE469BC275C
  8
0
  6
CONTINUOUS
 10
105.2703938335938
 20
95.859849704351063
 30
0.0
 40
5.0
  1
Panel edge to be sealed prior to applying
  7
ARIAL
  0
TEXT
  5
FFBBDAE469BC275D
  8
0
  6
CONTINUOUS
 10
105.5944047476456
 20
87.526516371017735
 30
0.0
 40
5.0
  1
sealant over bond breaker tape
  7
ARIAL
  0
ENDBLK
  5
FFBBDAE469BC275F
  8
0
  0
BLOCK
  8
0
  2
*U17
 70
     1
 10
0.0
 20
0.0
 30
0.0
  3
*U17
  1

  0
TEXT
  5
FFBBDAE469BC2761
  8
0
  6
CONTINUOUS
 10
105.1740704226565
 20
161.93778876001869
 30
0.0
 40
5.0
  1
65 x 2.8mm RounDrive ring
  7
ARIAL
  0
TEXT
  5
FFBBDAE469BC2762
  8
0
  6
CONTINUOUS
 10
105.2218193994642
 20
153.51918939667169
 30
0.0
 40
5.0
  1
shank nails for batten fixing
  7
ARIAL
  0
ENDBLK
  5
FFBBDAE469BC2764
  8
0
  0
BLOCK
  8
0
  2
*U18
 70
     1
 10
0.0
 20
0.0
 30
0.0
  3
*U18
  1

  0
TEXT
  5
FFBBDAE469BC2766
  8
0
  6
CONTINUOUS
 10
104.8669334956836
 20
205.44832083280221
 30
0.0
 40
5.0
  1
EasyLap
  7
ARIAL
  0
TEXT
  5
FFBBDAE469BC2767
  8
0
  6
CONTINUOUS
 10
131.96788847521981
 20
208.3649874994689
 30
0.0
 40
2.5
  1
TM
  7
ARIAL
  0
TEXT
  5
FFBBDAE469BC2768
  8
0
  6
CONTINUOUS
 10
132.04974386403279
 20
207.5316541661355
 30
0.0
 40
2.5
  1

  7
ARIAL
  0
TEXT
  5
FFBBDAE469BC2769
  8
0
  6
CONTINUOUS
 10
136.91331821601099
 20
205.44832083280221
 30
0.0
 40
5.0
  1
 Panel
  7
ARIAL
  0
ENDBLK
  5
FFBBDAE469BC276B
  8
0
  0
BLOCK
  8
0
  2
*U19
 70
     1
 10
0.0
 20
0.0
 30
0.0
  3
*U19
  1

  0
TEXT
  5
FFBBDAE469BC277A
  8
0
  6
CONTINUOUS
 10
16.589586108289211
 20
18.67123928004294
 30
0.0
 40
5.0
  1
Seal the cladding
  7
ARIAL
  0
TEXT
  5
FFBBDAE469BC277B
  8
0
  6
CONTINUOUS
 10
16.65097764989903
 20
10.337905946709601
 30
0.0
 40
5.0
  1
against the metal angle
  7
ARIAL
  0
ENDBLK
  5
FFBBDAE469BC277D
  8
0
  0
BLOCK
  8
0
  2
*X20
 70
     1
 10
0.0
 20
0.0
 30
0.0
  3
*X20
  1

  0
LINE
  5
FFBBDAE469BC277F
  8
0
  6
CONTINUOUS
 62
     0
 10
83.627557199450834
 20
82.597657319218399
 30
0.0
 11
83.627557199450834
 21
82.597657319218399
 31
0.0
  0
LINE
  5
FFBBDAE469BC2780
  8
0
  6
CONTINUOUS
 62
     0
 10
84.497544456886814
 20
81.800460874231916
 30
0.0
 11
84.497544456886814
 21
81.800460874231916
 31
0.0
  0
LINE
  5
FFBBDAE469BC2781
  8
0
  6
CONTINUOUS
 62
     0
 10
79.441786855982215
 20
82.800926086468934
 30
0.0
 11
79.441786855982215
 21
82.800926086468934
 31
0.0
  0
LINE
  5
FFBBDAE469BC2782
  8
0
  6
CONTINUOUS
 62
     0
 10
79.626106190184743
 20
82.632028534565023
 30
0.0
 11
79.626106190184743
 21
82.632028534565023
 31
0.0
  0
LINE
  5
FFBBDAE469BC2783
  8
0
  6
CONTINUOUS
 62
     0
 10
80.621430594878404
 20
81.719981754283907
 30
0.0
 11
80.621430594878404
 21
81.719981754283907
 31
0.0
  0
LINE
  5
FFBBDAE469BC2784
  8
0
  6
CONTINUOUS
 62
     0
 10
81.491417852314356
 20
80.92278530929741
 30
0.0
 11
81.491417852314356
 21
80.92278530929741
 31
0.0
  0
LINE
  5
FFBBDAE469BC2785
  8
0
  6
CONTINUOUS
 62
     0
 10
81.675737186516884
 20
80.7538877573935
 30
0.0
 11
81.675737186516884
 21
80.7538877573935
 31
0.0
  0
LINE
  5
FFBBDAE469BC2786
  8
0
  6
CONTINUOUS
 62
     0
 10
82.671061591210545
 20
79.841840977112355
 30
0.0
 11
82.671061591210545
 21
79.841840977112355
 31
0.0
  0
LINE
  5
FFBBDAE469BC2787
  8
0
  6
CONTINUOUS
 62
     0
 10
83.541048848646497
 20
79.044644532125872
 30
0.0
 11
83.541048848646497
 21
79.044644532125872
 31
0.0
  0
LINE
  5
FFBBDAE469BC2788
  8
0
  6
CONTINUOUS
 62
     0
 10
83.725368182849024
 20
78.875746980221962
 30
0.0
 11
83.725368182849024
 21
78.875746980221962
 31
0.0
  0
LINE
  5
FFBBDAE469BC2789
  8
0
  6
CONTINUOUS
 62
     0
 10
76.435660251409885
 20
81.923250521534754
 30
0.0
 11
76.435660251409885
 21
81.923250521534754
 31
0.0
  0
LINE
  5
FFBBDAE469BC278A
  8
0
  6
CONTINUOUS
 62
     0
 10
76.619979585612413
 20
81.754352969630844
 30
0.0
 11
76.619979585612413
 21
81.754352969630844
 31
0.0
  0
LINE
  5
FFBBDAE469BC278B
  8
0
  6
CONTINUOUS
 62
     0
 10
77.615303990306074
 20
80.842306189349713
 30
0.0
 11
77.615303990306074
 21
80.842306189349713
 31
0.0
  0
LINE
  5
FFBBDAE469BC278C
  8
0
  6
CONTINUOUS
 62
     0
 10
78.485291247742026
 20
80.045109744363231
 30
0.0
 11
78.485291247742026
 21
80.045109744363231
 31
0.0
  0
LINE
  5
FFBBDAE469BC278D
  8
0
  6
CONTINUOUS
 62
     0
 10
78.669610581944553
 20
79.87621219245932
 30
0.0
 11
78.669610581944553
 21
79.87621219245932
 31
0.0
  0
LINE
  5
FFBBDAE469BC278E
  8
0
  6
CONTINUOUS
 62
     0
 10
79.664934986638215
 20
78.964165412178176
 30
0.0
 11
79.664934986638215
 21
78.964165412178176
 31
0.0
  0
LINE
  5
FFBBDAE469BC278F
  8
0
  6
CONTINUOUS
 62
     0
 10
80.534922244074167
 20
78.166968967191693
 30
0.0
 11
80.534922244074167
 21
78.166968967191693
 31
0.0
  0
LINE
  5
FFBBDAE469BC2790
  8
0
  6
CONTINUOUS
 62
     0
 10
80.719241578276694
 20
77.998071415287782
 30
0.0
 11
80.719241578276694
 21
77.998071415287782
 31
0.0
  0
LINE
  5
FFBBDAE469BC2791
  8
0
  6
CONTINUOUS
 62
     0
 10
81.714565982970356
 20
77.086024635006638
 30
0.0
 11
81.714565982970356
 21
77.086024635006638
 31
0.0
  0
LINE
  5
FFBBDAE469BC2792
  8
0
  6
CONTINUOUS
 62
     0
 10
82.584553240406294
 20
76.288828190020155
 30
0.0
 11
82.584553240406294
 21
76.288828190020155
 31
0.0
  0
LINE
  5
FFBBDAE469BC2793
  8
0
  6
CONTINUOUS
 62
     0
 10
82.768872574608835
 20
76.119930638116244
 30
0.0
 11
82.768872574608835
 21
76.119930638116244
 31
0.0
  0
LINE
  5
FFBBDAE469BC2794
  8
0
  6
CONTINUOUS
 62
     0
 10
83.764196979302497
 20
75.2078838578351
 30
0.0
 11
83.764196979302497
 21
75.2078838578351
 31
0.0
  0
LINE
  5
FFBBDAE469BC2795
  8
0
  6
CONTINUOUS
 62
     0
 10
76.658808382065786
 20
78.086489847244252
 30
0.0
 11
76.658808382065786
 21
78.086489847244252
 31
0.0
  0
LINE
  5
FFBBDAE469BC2796
  8
0
  6
CONTINUOUS
 62
     0
 10
77.528795639501723
 20
77.289293402257769
 30
0.0
 11
77.528795639501723
 21
77.289293402257769
 31
0.0
  0
LINE
  5
FFBBDAE469BC2797
  8
0
  6
CONTINUOUS
 62
     0
 10
77.713114973704265
 20
77.120395850353859
 30
0.0
 11
77.713114973704265
 21
77.120395850353859
 31
0.0
  0
LINE
  5
FFBBDAE469BC2798
  8
0
  6
CONTINUOUS
 62
     0
 10
78.708439378397927
 20
76.208349070072714
 30
0.0
 11
78.708439378397927
 21
76.208349070072714
 31
0.0
  0
LINE
  5
FFBBDAE469BC2799
  8
0
  6
CONTINUOUS
 62
     0
 10
79.578426635833878
 20
75.411152625086231
 30
0.0
 11
79.578426635833878
 21
75.411152625086231
 31
0.0
  0
LINE
  5
FFBBDAE469BC279A
  8
0
  6
CONTINUOUS
 62
     0
 10
79.762745970036406
 20
75.242255073182321
 30
0.0
 11
79.762745970036406
 21
75.242255073182321
 31
0.0
  0
LINE
  5
FFBBDAE469BC279B
  8
0
  6
CONTINUOUS
 62
     0
 10
80.758070374730067
 20
74.330208292901176
 30
0.0
 11
80.758070374730067
 21
74.330208292901176
 31
0.0
  0
LINE
  5
FFBBDAE469BC279C
  8
0
  6
CONTINUOUS
 62
     0
 10
81.628057632166005
 20
73.533011847914693
 30
0.0
 11
81.628057632166005
 21
73.533011847914693
 31
0.0
  0
LINE
  5
FFBBDAE469BC279D
  8
0
  6
CONTINUOUS
 62
     0
 10
81.812376966368547
 20
73.364114296010783
 30
0.0
 11
81.812376966368547
 21
73.364114296010783
 31
0.0
  0
LINE
  5
FFBBDAE469BC279E
  8
0
  6
CONTINUOUS
 62
     0
 10
76.572300031261733
 20
74.533477060151881
 30
0.0
 11
76.572300031261733
 21
74.533477060151881
 31
0.0
  0
LINE
  5
FFBBDAE469BC279F
  8
0
  6
CONTINUOUS
 62
     0
 10
76.75661936546426
 20
74.364579508247971
 30
0.0
 11
76.75661936546426
 21
74.364579508247971
 31
0.0
  0
LINE
  5
FFBBDAE469BC27A0
  8
0
  6
CONTINUOUS
 62
     0
 10
77.751943770157922
 20
73.452532727966826
 30
0.0
 11
77.751943770157922
 21
73.452532727966826
 31
0.0
  0
LINE
  5
FFBBDAE469BC27A1
  8
0
  6
CONTINUOUS
 62
     0
 10
84.830518627102194
 20
82.896194425751517
 30
0.0
 11
84.830518627102194
 21
82.896194425751517
 31
0.0
  0
LINE
  5
FFBBDAE469BC27A2
  8
0
  6
CONTINUOUS
 62
     0
 10
81.716376765350716
 20
82.890535372214501
 30
0.0
 11
81.716376765350716
 21
82.890535372214501
 31
0.0
  0
LINE
  5
FFBBDAE469BC27A3
  8
0
  6
CONTINUOUS
 62
     0
 10
83.698346663010994
 20
81.627881292599469
 30
0.0
 11
83.698346663010994
 21
81.627881292599469
 31
0.0
  0
LINE
  5
FFBBDAE469BC27A4
  8
0
  6
CONTINUOUS
 62
     0
 10
78.60223490359887
 20
82.884876318677428
 30
0.0
 11
78.60223490359887
 21
82.884876318677428
 31
0.0
  0
LINE
  5
FFBBDAE469BC27A5
  8
0
  6
CONTINUOUS
 62
     0
 10
80.584204801259148
 20
81.622222239062395
 30
0.0
 11
80.584204801259148
 21
81.622222239062395
 31
0.0
  0
LINE
  5
FFBBDAE469BC27A6
  8
0
  6
CONTINUOUS
 62
     0
 10
82.102309403722344
 20
80.655082944038114
 30
0.0
 11
82.102309403722344
 21
80.655082944038114
 31
0.0
  0
LINE
  5
FFBBDAE469BC27A7
  8
0
  6
CONTINUOUS
 62
     0
 10
82.524005126628779
 20
80.386433139864707
 30
0.0
 11
82.524005126628779
 21
80.386433139864707
 31
0.0
  0
LINE
  5
FFBBDAE469BC27A8
  8
0
  6
CONTINUOUS
 62
     0
 10
77.470062939508296
 20
81.616563185524996
 30
0.0
 11
77.470062939508296
 21
81.616563185524996
 31
0.0
  0
LINE
  5
FFBBDAE469BC27A9
  8
0
  6
CONTINUOUS
 62
     0
 10
78.988167541971492
 20
80.649423890500714
 30
0.0
 11
78.988167541971492
 21
80.649423890500714
 31
0.0
  0
LINE
  5
FFBBDAE469BC27AA
  8
0
  6
CONTINUOUS
 62
     0
 10
79.409863264877941
 20
80.380774086327321
 30
0.0
 11
79.409863264877941
 21
80.380774086327321
 31
0.0
  0
LINE
  5
FFBBDAE469BC27AB
  8
0
  6
CONTINUOUS
 62
     0
 10
81.391833162538219
 20
79.118120006712289
 30
0.0
 11
81.391833162538219
 21
79.118120006712289
 31
0.0
  0
LINE
  5
FFBBDAE469BC27AC
  8
0
  6
CONTINUOUS
 62
     0
 10
82.909937765001416
 20
78.150980711688007
 30
0.0
 11
82.909937765001416
 21
78.150980711688007
 31
0.0
  0
LINE
  5
FFBBDAE469BC27AD
  8
0
  6
CONTINUOUS
 62
     0
 10
83.331633487907865
 20
77.8823309075146
 30
0.0
 11
83.331633487907865
 21
77.8823309075146
 31
0.0
  0
LINE
  5
FFBBDAE469BC27AE
  8
0
  6
CONTINUOUS
 62
     0
 10
76.295721403126322
 20
80.375115032790674
 30
0.0
 11
76.295721403126322
 21
80.375115032790674
 31
0.0
  0
LINE
  5
FFBBDAE469BC27AF
  8
0
  6
CONTINUOUS
 62
     0
 10
78.2776913007866
 20
79.112460953175656
 30
0.0
 11
78.2776913007866
 21
79.112460953175656
 31
0.0
  0
LINE
  5
FFBBDAE469BC27B0
  8
0
  6
CONTINUOUS
 62
     0
 10
79.795795903249797
 20
78.145321658151374
 30
0.0
 11
79.795795903249797
 21
78.145321658151374
 31
0.0
  0
LINE
  5
FFBBDAE469BC27B1
  8
0
  6
CONTINUOUS
 62
     0
 10
80.217491626156246
 20
77.876671853977967
 30
0.0
 11
80.217491626156246
 21
77.876671853977967
 31
0.0
  0
LINE
  5
FFBBDAE469BC27B2
  8
0
  6
CONTINUOUS
 62
     0
 10
82.199461523816524
 20
76.614017774362935
 30
0.0
 11
82.199461523816524
 21
76.614017774362935
 31
0.0
  0
LINE
  5
FFBBDAE469BC27B3
  8
0
  6
CONTINUOUS
 62
     0
 10
83.717566126279721
 20
75.646878479338653
 30
0.0
 11
83.717566126279721
 21
75.646878479338653
 31
0.0
  0
LINE
  5
FFBBDAE469BC27B4
  8
0
  6
CONTINUOUS
 62
     0
 10
84.13926184918617
 20
75.378228675165246
 30
0.0
 11
84.13926184918617
 21
75.378228675165246
 31
0.0
  0
LINE
  5
FFBBDAE469BC27B5
  8
0
  6
CONTINUOUS
 62
     0
 10
76.681654041498064
 20
78.139662604614387
 30
0.0
 11
76.681654041498064
 21
78.139662604614387
 31
0.0
  0
LINE
  5
FFBBDAE469BC27B6
  8
0
  6
CONTINUOUS
 62
     0
 10
77.103349764404527
 20
77.871012800440965
 30
0.0
 11
77.103349764404527
 21
77.871012800440965
 31
0.0
  0
LINE
  5
FFBBDAE469BC27B7
  8
0
  6
CONTINUOUS
 62
     0
 10
79.085319662064805
 20
76.608358720825947
 30
0.0
 11
79.085319662064805
 21
76.608358720825947
 31
0.0
  0
LINE
  5
FFBBDAE469BC27B8
  8
0
  6
CONTINUOUS
 62
     0
 10
80.603424264528002
 20
75.641219425801665
 30
0.0
 11
80.603424264528002
 21
75.641219425801665
 31
0.0
  0
LINE
  5
FFBBDAE469BC27B9
  8
0
  6
CONTINUOUS
 62
     0
 10
81.025119987434451
 20
75.372569621628259
 30
0.0
 11
81.025119987434451
 21
75.372569621628259
 31
0.0
  0
LINE
  5
FFBBDAE469BC27BA
  8
0
  6
CONTINUOUS
 62
     0
 10
83.007089885094729
 20
74.109915542013226
 30
0.0
 11
83.007089885094729
 21
74.109915542013226
 31
0.0
  0
LINE
  5
FFBBDAE469BC27BB
  8
0
  6
CONTINUOUS
 62
     0
 10
84.525194487557926
 20
73.142776246988944
 30
0.0
 11
84.525194487557926
 21
73.142776246988944
 31
0.0
  0
LINE
  5
FFBBDAE469BC27BC
  8
0
  6
CONTINUOUS
 62
     0
 10
77.489282402776624
 20
75.635560372264763
 30
0.0
 11
77.489282402776624
 21
75.635560372264763
 31
0.0
  0
LINE
  5
FFBBDAE469BC27BD
  8
0
  6
CONTINUOUS
 62
     0
 10
77.910978125683087
 20
75.366910568091356
 30
0.0
 11
77.910978125683087
 21
75.366910568091356
 31
0.0
  0
LINE
  5
FFBBDAE469BC27BE
  8
0
  6
CONTINUOUS
 62
     0
 10
79.892948023343365
 20
74.104256488476324
 30
0.0
 11
79.892948023343365
 21
74.104256488476324
 31
0.0
  0
LINE
  5
FFBBDAE469BC27BF
  8
0
  6
CONTINUOUS
 62
     0
 10
81.411052625806576
 20
73.137117193452042
 30
0.0
 11
81.411052625806576
 21
73.137117193452042
 31
0.0
  0
LINE
  5
FFBBDAE469BC27C0
  8
0
  6
CONTINUOUS
 62
     0
 10
76.778806161592158
 20
74.098597434938725
 30
0.0
 11
76.778806161592158
 21
74.098597434938725
 31
0.0
  0
LINE
  5
FFBBDAE469BC27C1
  8
0
  6
CONTINUOUS
 62
     0
 10
78.296910764055355
 20
73.131458139914443
 30
0.0
 11
78.296910764055355
 21
73.131458139914443
 31
0.0
  0
LINE
  5
FFBBDAE469BC27C2
  8
0
  6
CONTINUOUS
 62
     0
 10
76.119978364042595
 20
82.614283494016448
 30
0.0
 11
76.119978364042595
 21
82.614283494016448
 31
0.0
  0
LINE
  5
FFBBDAE469BC27C3
  8
0
  6
CONTINUOUS
 62
     0
 10
76.640486916263825
 20
82.682809744931987
 30
0.0
 11
76.640486916263825
 21
82.682809744931987
 31
0.0
  0
LINE
  5
FFBBDAE469BC27C4
  8
0
  6
CONTINUOUS
 62
     0
 10
77.998766376345955
 20
82.861630628273474
 30
0.0
 11
77.998766376345955
 21
82.861630628273474
 31
0.0
  0
LINE
  5
FFBBDAE469BC27C5
  8
0
  6
CONTINUOUS
 62
     0
 10
76.228989671078239
 20
80.039484563043587
 30
0.0
 11
76.228989671078239
 21
80.039484563043587
 31
0.0
  0
LINE
  5
FFBBDAE469BC27C6
  8
0
  6
CONTINUOUS
 62
     0
 10
77.041974457404763
 20
80.146516040664025
 30
0.0
 11
77.041974457404763
 21
80.146516040664025
 31
0.0
  0
LINE
  5
FFBBDAE469BC27C7
  8
0
  6
CONTINUOUS
 62
     0
 10
77.562483009626007
 20
80.21504229157955
 30
0.0
 11
77.562483009626007
 21
80.21504229157955
 31
0.0
  0
LINE
  5
FFBBDAE469BC27C8
  8
0
  6
CONTINUOUS
 62
     0
 10
78.920762469708123
 20
80.393863174921023
 30
0.0
 11
78.920762469708123
 21
80.393863174921023
 31
0.0
  0
LINE
  5
FFBBDAE469BC27C9
  8
0
  6
CONTINUOUS
 62
     0
 10
79.733747256034647
 20
80.500894652541461
 30
0.0
 11
79.733747256034647
 21
80.500894652541461
 31
0.0
  0
LINE
  5
FFBBDAE469BC27CA
  8
0
  6
CONTINUOUS
 62
     0
 10
80.254255808255877
 20
80.569420903456987
 30
0.0
 11
80.254255808255877
 21
80.569420903456987
 31
0.0
  0
LINE
  5
FFBBDAE469BC27CB
  8
0
  6
CONTINUOUS
 62
     0
 10
81.612535268338007
 20
80.748241786798445
 30
0.0
 11
81.612535268338007
 21
80.748241786798445
 31
0.0
  0
LINE
  5
FFBBDAE469BC27CC
  8
0
  6
CONTINUOUS
 62
     0
 10
82.425520054664531
 20
80.855273264418884
 30
0.0
 11
82.425520054664531
 21
80.855273264418884
 31
0.0
  0
LINE
  5
FFBBDAE469BC27CD
  8
0
  6
CONTINUOUS
 62
     0
 10
82.946028606885776
 20
80.923799515334423
 30
0.0
 11
82.946028606885776
 21
80.923799515334423
 31
0.0
  0
LINE
  5
FFBBDAE469BC27CE
  8
0
  6
CONTINUOUS
 62
     0
 10
84.304308066967877
 20
81.102620398675896
 30
0.0
 11
84.304308066967877
 21
81.102620398675896
 31
0.0
  0
LINE
  5
FFBBDAE469BC27CF
  8
0
  6
CONTINUOUS
 62
     0
 10
77.150985764440051
 20
77.571717109691377
 30
0.0
 11
77.150985764440051
 21
77.571717109691377
 31
0.0
  0
LINE
  5
FFBBDAE469BC27D0
  8
0
  6
CONTINUOUS
 62
     0
 10
77.963970550766575
 20
77.678748587311816
 30
0.0
 11
77.963970550766575
 21
77.678748587311816
 31
0.0
  0
LINE
  5
FFBBDAE469BC27D1
  8
0
  6
CONTINUOUS
 62
     0
 10
78.484479102987819
 20
77.747274838227341
 30
0.0
 11
78.484479102987819
 21
77.747274838227341
 31
0.0
  0
LINE
  5
FFBBDAE469BC27D2
  8
0
  6
CONTINUOUS
 62
     0
 10
79.842758563069935
 20
77.926095721568814
 30
0.0
 11
79.842758563069935
 21
77.926095721568814
 31
0.0
  0
LINE
  5
FFBBDAE469BC27D3
  8
0
  6
CONTINUOUS
 62
     0
 10
80.655743349396445
 20
78.033127199189252
 30
0.0
 11
80.655743349396445
 21
78.033127199189252
 31
0.0
  0
LINE
  5
FFBBDAE469BC27D4
  8
0
  6
CONTINUOUS
 62
     0
 10
81.176251901617704
 20
78.101653450104777
 30
0.0
 11
81.176251901617704
 21
78.101653450104777
 31
0.0
  0
LINE
  5
FFBBDAE469BC27D5
  8
0
  6
CONTINUOUS
 62
     0
 10
82.53453136169982
 20
78.28047433344625
 30
0.0
 11
82.53453136169982
 21
78.28047433344625
 31
0.0
  0
LINE
  5
FFBBDAE469BC27D6
  8
0
  6
CONTINUOUS
 62
     0
 10
83.347516148026344
 20
78.387505811066688
 30
0.0
 11
83.347516148026344
 21
78.387505811066688
 31
0.0
  0
LINE
  5
FFBBDAE469BC27D7
  8
0
  6
CONTINUOUS
 62
     0
 10
83.868024700247588
 20
78.456032061982214
 30
0.0
 11
83.868024700247588
 21
78.456032061982214
 31
0.0
  0
LINE
  5
FFBBDAE469BC27D8
  8
0
  6
CONTINUOUS
 62
     0
 10
76.194193845498958
 20
74.856602522082071
 30
0.0
 11
76.194193845498958
 21
74.856602522082071
 31
0.0
  0
LINE
  5
FFBBDAE469BC27D9
  8
0
  6
CONTINUOUS
 62
     0
 10
76.714702397720202
 20
74.925128772997596
 30
0.0
 11
76.714702397720202
 21
74.925128772997596
 31
0.0
  0
LINE
  5
FFBBDAE469BC27DA
  8
0
  6
CONTINUOUS
 62
     0
 10
78.072981857802318
 20
75.103949656339054
 30
0.0
 11
78.072981857802318
 21
75.103949656339054
 31
0.0
  0
LINE
  5
FFBBDAE469BC27DB
  8
0
  6
CONTINUOUS
 62
     0
 10
78.885966644128843
 20
75.210981133959507
 30
0.0
 11
78.885966644128843
 21
75.210981133959507
 31
0.0
  0
LINE
  5
FFBBDAE469BC27DC
  8
0
  6
CONTINUOUS
 62
     0
 10
79.406475196350087
 20
75.279507384875032
 30
0.0
 11
79.406475196350087
 21
75.279507384875032
 31
0.0
  0
LINE
  5
FFBBDAE469BC27DD
  8
0
  6
CONTINUOUS
 62
     0
 10
80.764754656432203
 20
75.458328268216505
 30
0.0
 11
80.764754656432203
 21
75.458328268216505
 31
0.0
  0
LINE
  5
FFBBDAE469BC27DE
  8
0
  6
CONTINUOUS
 62
     0
 10
81.577739442758727
 20
75.565359745836943
 30
0.0
 11
81.577739442758727
 21
75.565359745836943
 31
0.0
  0
LINE
  5
FFBBDAE469BC27DF
  8
0
  6
CONTINUOUS
 62
     0
 10
82.098247994979971
 20
75.633885996752468
 30
0.0
 11
82.098247994979971
 21
75.633885996752468
 31
0.0
  0
LINE
  5
FFBBDAE469BC27E0
  8
0
  6
CONTINUOUS
 62
     0
 10
83.456527455062087
 20
75.812706880093941
 30
0.0
 11
83.456527455062087
 21
75.812706880093941
 31
0.0
  0
LINE
  5
FFBBDAE469BC27E1
  8
0
  6
CONTINUOUS
 62
     0
 10
81.686750749794129
 20
72.990560814864097
 30
0.0
 11
81.686750749794129
 21
72.990560814864097
 31
0.0
  0
LINE
  5
FFBBDAE469BC27E2
  8
0
  6
CONTINUOUS
 62
     0
 10
82.499735536120653
 20
73.097592292484535
 30
0.0
 11
82.499735536120653
 21
73.097592292484535
 31
0.0
  0
LINE
  5
FFBBDAE469BC27E3
  8
0
  6
CONTINUOUS
 62
     0
 10
83.020244088341897
 20
73.16611854340006
 30
0.0
 11
83.020244088341897
 21
73.16611854340006
 31
0.0
  0
LINE
  5
FFBBDAE469BC27E4
  8
0
  6
CONTINUOUS
 62
     0
 10
84.378523548424013
 20
73.344939426741533
 30
0.0
 11
84.378523548424013
 21
73.344939426741533
 31
0.0
  0
LINE
  5
FFBBDAE469BC27E5
  8
0
  6
CONTINUOUS
 62
     0
 10
76.405257246978366
 20
81.722348691360949
 30
0.0
 11
76.405257246978366
 21
81.722348691360949
 31
0.0
  0
LINE
  5
FFBBDAE469BC27E6
  8
0
  6
CONTINUOUS
 62
     0
 10
77.611154324221062
 20
82.647666063454224
 30
0.0
 11
77.611154324221062
 21
82.647666063454224
 31
0.0
  0
LINE
  5
FFBBDAE469BC27E7
  8
0
  6
CONTINUOUS
 62
     0
 10
76.468250605087945
 20
79.795524922347752
 30
0.0
 11
76.468250605087945
 21
79.795524922347752
 31
0.0
  0
LINE
  5
FFBBDAE469BC27E8
  8
0
  6
CONTINUOUS
 62
     0
 10
77.674147682330641
 20
80.720842294441013
 30
0.0
 11
77.674147682330641
 21
80.720842294441013
 31
0.0
  0
LINE
  5
FFBBDAE469BC27E9
  8
0
  6
CONTINUOUS
 62
     0
 10
78.963346860303901
 20
81.710079616580174
 30
0.0
 11
78.963346860303901
 21
81.710079616580174
 31
0.0
  0
LINE
  5
FFBBDAE469BC27EA
  8
0
  6
CONTINUOUS
 62
     0
 10
80.312047538799007
 20
82.744974045895006
 30
0.0
 11
80.312047538799007
 21
82.744974045895006
 31
0.0
  0
LINE
  5
FFBBDAE469BC27EB
  8
0
  6
CONTINUOUS
 62
     0
 10
76.531243963197383
 20
77.868701153334655
 30
0.0
 11
76.531243963197383
 21
77.868701153334655
 31
0.0
  0
LINE
  5
FFBBDAE469BC27EC
  8
0
  6
CONTINUOUS
 62
     0
 10
77.737141040440065
 20
78.794018525427916
 30
0.0
 11
77.737141040440065
 21
78.794018525427916
 31
0.0
  0
LINE
  5
FFBBDAE469BC27ED
  8
0
  6
CONTINUOUS
 62
     0
 10
79.026340218413324
 20
79.783255847567091
 30
0.0
 11
79.026340218413324
 21
79.783255847567091
 31
0.0
  0
LINE
  5
FFBBDAE469BC27EE
  8
0
  6
CONTINUOUS
 62
     0
 10
80.37504089690843
 20
80.818150276881909
 30
0.0
 11
80.37504089690843
 21
80.818150276881909
 31
0.0
  0
LINE
  5
FFBBDAE469BC27EF
  8
0
  6
CONTINUOUS
 62
     0
 10
81.580937974151098
 20
81.743467648975184
 30
0.0
 11
81.580937974151098
 21
81.743467648975184
 31
0.0
  0
LINE
  5
FFBBDAE469BC27F0
  8
0
  6
CONTINUOUS
 62
     0
 10
82.870137152124357
 20
82.732704971114359
 30
0.0
 11
82.870137152124357
 21
82.732704971114359
 31
0.0
  0
LINE
  5
FFBBDAE469BC27F1
  8
0
  6
CONTINUOUS
 62
     0
 10
76.594237321307077
 20
75.941877384321216
 30
0.0
 11
76.594237321307077
 21
75.941877384321216
 31
0.0
  0
LINE
  5
FFBBDAE469BC27F2
  8
0
  6
CONTINUOUS
 62
     0
 10
77.800134398549744
 20
76.867194756414477
 30
0.0
 11
77.800134398549744
 21
76.867194756414477
 31
0.0
  0
LINE
  5
FFBBDAE469BC27F3
  8
0
  6
CONTINUOUS
 62
     0
 10
79.089333576523003
 20
77.856432078553652
 30
0.0
 11
79.089333576523003
 21
77.856432078553652
 31
0.0
  0
LINE
  5
FFBBDAE469BC27F4
  8
0
  6
CONTINUOUS
 62
     0
 10
80.438034255018124
 20
78.891326507868484
 30
0.0
 11
80.438034255018124
 21
78.891326507868484
 31
0.0
  0
LINE
  5
FFBBDAE469BC27F5
  8
0
  6
CONTINUOUS
 62
     0
 10
81.643931332260806
 20
79.816643879961745
 30
0.0
 11
81.643931332260806
 21
79.816643879961745
 31
0.0
  0
LINE
  5
FFBBDAE469BC27F6
  8
0
  6
CONTINUOUS
 62
     0
 10
82.933130510234065
 20
80.805881202100935
 30
0.0
 11
82.933130510234065
 21
80.805881202100935
 31
0.0
  0
LINE
  5
FFBBDAE469BC27F7
  8
0
  6
CONTINUOUS
 62
     0
 10
84.281831188729171
 20
81.840775631415767
 30
0.0
 11
84.281831188729171
 21
81.840775631415767
 31
0.0
  0
LINE
  5
FFBBDAE469BC27F8
  8
0
  6
CONTINUOUS
 62
     0
 10
76.657230679416045
 20
74.015053615308204
 30
0.0
 11
76.657230679416045
 21
74.015053615308204
 31
0.0
  0
LINE
  5
FFBBDAE469BC27F9
  8
0
  6
CONTINUOUS
 62
     0
 10
77.863127756658727
 20
74.940370987401465
 30
0.0
 11
77.863127756658727
 21
74.940370987401465
 31
0.0
  0
LINE
  5
FFBBDAE469BC27FA
  8
0
  6
CONTINUOUS
 62
     0
 10
79.152326934631986
 20
75.92960830954064
 30
0.0
 11
79.152326934631986
 21
75.92960830954064
 31
0.0
  0
LINE
  5
FFBBDAE469BC27FB
  8
0
  6
CONTINUOUS
 62
     0
 10
80.501027613127093
 20
76.964502738855472
 30
0.0
 11
80.501027613127093
 21
76.964502738855472
 31
0.0
  0
LINE
  5
FFBBDAE469BC27FC
  8
0
  6
CONTINUOUS
 62
     0
 10
81.706924690369775
 20
77.889820110948733
 30
0.0
 11
81.706924690369775
 21
77.889820110948733
 31
0.0
  0
LINE
  5
FFBBDAE469BC27FD
  8
0
  6
CONTINUOUS
 62
     0
 10
82.996123868343034
 20
78.879057433087908
 30
0.0
 11
82.996123868343034
 21
78.879057433087908
 31
0.0
  0
LINE
  5
FFBBDAE469BC27FE
  8
0
  6
CONTINUOUS
 62
     0
 10
77.926121114768904
 20
73.013547218388581
 30
0.0
 11
77.926121114768904
 21
73.013547218388581
 31
0.0
  0
LINE
  5
FFBBDAE469BC27FF
  8
0
  6
CONTINUOUS
 62
     0
 10
79.215320292742163
 20
74.002784540527756
 30
0.0
 11
79.215320292742163
 21
74.002784540527756
 31
0.0
  0
LINE
  5
FFBBDAE469BC2800
  8
0
  6
CONTINUOUS
 62
     0
 10
80.564020971237284
 20
75.037678969842588
 30
0.0
 11
80.564020971237284
 21
75.037678969842588
 31
0.0
  0
LINE
  5
FFBBDAE469BC2801
  8
0
  6
CONTINUOUS
 62
     0
 10
81.769918048479951
 20
75.962996341935835
 30
0.0
 11
81.769918048479951
 21
75.962996341935835
 31
0.0
  0
LINE
  5
FFBBDAE469BC2802
  8
0
  6
CONTINUOUS
 62
     0
 10
83.05911722645321
 20
76.952233664075024
 30
0.0
 11
83.05911722645321
 21
76.952233664075024
 31
0.0
  0
LINE
  5
FFBBDAE469BC2803
  8
0
  6
CONTINUOUS
 62
     0
 10
80.627014329347332
 20
73.110855200829505
 30
0.0
 11
80.627014329347332
 21
73.110855200829505
 31
0.0
  0
LINE
  5
FFBBDAE469BC2804
  8
0
  6
CONTINUOUS
 62
     0
 10
81.832911406590014
 20
74.036172572922766
 30
0.0
 11
81.832911406590014
 21
74.036172572922766
 31
0.0
  0
LINE
  5
FFBBDAE469BC2805
  8
0
  6
CONTINUOUS
 62
     0
 10
83.122110584563274
 20
75.025409895061941
 30
0.0
 11
83.122110584563274
 21
75.025409895061941
 31
0.0
  0
LINE
  5
FFBBDAE469BC2806
  8
0
  6
CONTINUOUS
 62
     0
 10
83.185103942672626
 20
73.098586126048446
 30
0.0
 11
83.185103942672626
 21
73.098586126048446
 31
0.0
  0
LINE
  5
FFBBDAE469BC2807
  8
0
  6
CONTINUOUS
 62
     0
 10
84.533804621167718
 20
74.133480555363278
 30
0.0
 11
84.533804621167718
 21
74.133480555363278
 31
0.0
  0
ENDBLK
  5
FFBBDAE469BC2809
  8
0
  0
BLOCK
  8
0
  2
*U21
 70
     1
 10
0.0
 20
0.0
 30
0.0
  3
*U21
  1

  0
SOLID
  5
FFBBDAE469BC280B
  8
0
  6
CONTINUOUS
 10
75.356588479007314
 20
125.4201026098569
 30
0.0
 11
75.106309968994296
 21
125.2486687557241
 31
0.0
 12
75.894502107124197
 22
125.2486687557241
 32
0.0
 13
75.894502107124197
 23
125.2486687557241
 33
0.0
210
0.0
220
0.0
230
1.0
  0
SOLID
  5
FFBBDAE469BC280C
  8
0
  6
CONTINUOUS
 10
-75.356588479007314
 20
125.4201026098569
 30
0.0
 11
-75.643524324175345
 21
125.4201026098569
 31
0.0
 12
-75.894502107124197
 22
125.2486687557241
 32
0.0
 13
-75.894502107124197
 23
125.2486687557241
 33
0.0
210
0.0
220
0.0
230
-1.0
  0
SOLID
  5
FFBBDAE469BC280D
  8
0
  6
CONTINUOUS
 10
75.106309968994296
 20
125.2486687557241
 30
0.0
 11
75.104811050081281
 21
125.2476420377439
 31
0.0
 12
75.894882107752451
 22
125.2476420377439
 32
0.0
 13
75.894882107752451
 23
125.2476420377439
 33
0.0
210
0.0
220
0.0
230
1.0
  0
SOLID
  5
FFBBDAE469BC280E
  8
0
  6
CONTINUOUS
 10
-75.106309968994296
 20
125.2486687557241
 30
0.0
 11
-75.894502107124197
 21
125.2486687557241
 31
0.0
 12
-75.894882107752451
 22
125.2476420377439
 32
0.0
 13
-75.894882107752451
 23
125.2476420377439
 33
0.0
210
0.0
220
0.0
230
-1.0
  0
SOLID
  5
FFBBDAE469BC280F
  8
0
  6
CONTINUOUS
 10
75.104811050081281
 20
125.2476420377439
 30
0.0
 11
75.000950889754264
 21
124.963625586229
 31
0.0
 12
75.999999999998636
 22
124.963625586229
 32
0.0
 13
75.999999999998636
 23
124.963625586229
 33
0.0
210
0.0
220
0.0
230
1.0
  0
SOLID
  5
FFBBDAE469BC2810
  8
0
  6
CONTINUOUS
 10
-75.104811050081281
 20
125.2476420377439
 30
0.0
 11
-75.894882107752451
 21
125.2476420377439
 31
0.0
 12
-75.999999999998636
 22
124.963625586229
 32
0.0
 13
-75.999999999998636
 23
124.963625586229
 33
0.0
210
0.0
220
0.0
230
-1.0
  0
SOLID
  5
FFBBDAE469BC2811
  8
0
  6
CONTINUOUS
 10
75.000950889754264
 20
124.963625586229
 30
0.0
 11
75.000000000003638
 21
124.9610252789321
 31
0.0
 12
75.999999999998636
 22
124.9610252789321
 32
0.0
 13
75.999999999998636
 23
124.9610252789321
 33
0.0
210
0.0
220
0.0
230
1.0
  0
SOLID
  5
FFBBDAE469BC2812
  8
0
  6
CONTINUOUS
 10
-75.000950889754264
 20
124.963625586229
 30
0.0
 11
-75.999999999998636
 21
124.963625586229
 31
0.0
 12
-75.999999999998636
 22
124.9610252789321
 32
0.0
 13
-75.999999999998636
 23
124.9610252789321
 33
0.0
210
0.0
220
0.0
230
-1.0
  0
SOLID
  5
FFBBDAE469BC2813
  8
0
  6
CONTINUOUS
 10
75.000000000003638
 20
124.9610252789321
 30
0.0
 11
75.000000000003638
 21
121.4826026098569
 31
0.0
 12
75.999999999998636
 22
121.4826026098569
 32
0.0
 13
75.999999999998636
 23
121.4826026098569
 33
0.0
210
0.0
220
0.0
230
1.0
  0
SOLID
  5
FFBBDAE469BC2814
  8
0
  6
CONTINUOUS
 10
-75.000000000003638
 20
124.9610252789321
 30
0.0
 11
-75.999999999998636
 21
124.9610252789321
 31
0.0
 12
-75.999999999998636
 22
121.4826026098569
 32
0.0
 13
-75.999999999998636
 23
121.4826026098569
 33
0.0
210
0.0
220
0.0
230
-1.0
  0
SOLID
  5
FFBBDAE469BC2815
  8
0
  6
CONTINUOUS
 10
75.000000000003638
 20
121.4826026098569
 30
0.0
 11
75.000000000003183
 21
118.9202448636433
 31
0.0
 12
75.999999999998636
 22
118.9202448636433
 32
0.0
 13
75.999999999998636
 23
118.9202448636433
 33
0.0
210
0.0
220
0.0
230
1.0
  0
SOLID
  5
FFBBDAE469BC2816
  8
0
  6
CONTINUOUS
 10
-75.000000000003638
 20
121.4826026098569
 30
0.0
 11
-75.999999999998636
 21
121.4826026098569
 31
0.0
 12
-75.999999999998636
 22
118.9202448636433
 32
0.0
 13
-75.999999999998636
 23
118.9202448636433
 33
0.0
210
0.0
220
0.0
230
-1.0
  0
SOLID
  5
FFBBDAE469BC2817
  8
0
  6
CONTINUOUS
 10
75.000000000004093
 20
116.9202448636436
 30
0.0
 11
75.000000000003638
 21
112.92010260985739
 31
0.0
 12
75.999999999998792
 22
112.92010260985739
 32
0.0
 13
75.999999999998792
 23
112.92010260985739
 33
0.0
210
0.0
220
0.0
230
1.0
  0
SOLID
  5
FFBBDAE469BC2818
  8
0
  6
CONTINUOUS
 10
-75.000000000004093
 20
116.9202448636436
 30
0.0
 11
-75.999999999999091
 21
116.9202448636436
 31
0.0
 12
-75.999999999998792
 22
112.92010260985739
 32
0.0
 13
-75.999999999998792
 23
112.92010260985739
 33
0.0
210
0.0
220
0.0
230
-1.0
  0
SOLID
  5
FFBBDAE469BC2819
  8
0
  6
CONTINUOUS
 10
75.000000000003638
 20
112.92010260985739
 30
0.0
 11
75.000000000003638
 21
110.8794644483168
 31
0.0
 12
75.999999999998636
 22
110.8794644483168
 32
0.0
 13
75.999999999998636
 23
110.8794644483168
 33
0.0
  0
SOLID
  5
FFBBDAE469BC281A
  8
0
  6
CONTINUOUS
 10
-75.000000000003638
 20
112.92010260985739
 30
0.0
 11
-75.999999999998792
 21
112.92010260985739
 31
0.0
 12
-75.999999999998636
 22
110.8794644483168
 32
0.0
 13
-75.999999999998636
 23
110.8794644483168
 33
0.0
210
0.0
220
0.0
230
-1.0
  0
SOLID
  5
FFBBDAE469BC281B
  8
0
  6
CONTINUOUS
 10
75.000000000003638
 20
110.8794644483168
 30
0.0
 11
75.001169387940266
 21
110.87686414104149
 31
0.0
 12
75.999999999998636
 22
110.87686414104149
 32
0.0
 13
75.999999999998636
 23
110.87686414104149
 33
0.0
  0
SOLID
  5
FFBBDAE469BC281C
  8
0
  6
CONTINUOUS
 10
-75.000000000003638
 20
110.8794644483168
 30
0.0
 11
-75.999999999998636
 21
110.8794644483168
 31
0.0
 12
-75.999999999998636
 22
110.87686414104149
 32
0.0
 13
-75.999999999998636
 23
110.87686414104149
 33
0.0
210
0.0
220
0.0
230
-1.0
  0
SOLID
  5
FFBBDAE469BC281D
  8
0
  6
CONTINUOUS
 10
75.001169387940266
 20
110.87686414104149
 30
0.0
 11
75.152984193970227
 21
110.5392814345194
 31
0.0
 12
75.846069533266089
 22
110.5392814345194
 32
0.0
 13
75.846069533266089
 23
110.5392814345194
 33
0.0
210
0.0
220
0.0
230
1.0
  0
SOLID
  5
FFBBDAE469BC281E
  8
0
  6
CONTINUOUS
 10
-75.001169387940266
 20
110.87686414104149
 30
0.0
 11
-75.999999999998636
 21
110.87686414104149
 31
0.0
 12
-75.846069533266089
 22
110.5392814345194
 32
0.0
 13
-75.846069533266089
 23
110.5392814345194
 33
0.0
210
0.0
220
0.0
230
-1.0
  0
SOLID
  5
FFBBDAE469BC281F
  8
0
  6
CONTINUOUS
 10
-75.157433339528154
 20
110.5374813340201
 30
0.0
 11
-75.845248726084108
 21
110.5374813340201
 31
0.0
 12
-75.498755025171633
 22
110.3993844053507
 32
0.0
 13
-75.498755025171633
 23
110.3993844053507
 33
0.0
210
0.0
220
0.0
230
-1.0
  0
SOLID
  5
FFBBDAE469BC2820
  8
0
  6
CONTINUOUS
 10
75.152984193970227
 20
110.5392814345194
 30
0.0
 11
75.157433339528154
 21
110.5374813340201
 31
0.0
 12
75.845248726084108
 22
110.5374813340201
 32
0.0
 13
75.845248726084108
 23
110.5374813340201
 33
0.0
210
0.0
220
0.0
230
1.0
  0
SOLID
  5
FFBBDAE469BC2821
  8
0
  6
CONTINUOUS
 10
-75.152984193970227
 20
110.5392814345194
 30
0.0
 11
-75.846069533266089
 21
110.5392814345194
 31
0.0
 12
-75.845248726084108
 22
110.5374813340201
 32
0.0
 13
-75.845248726084108
 23
110.5374813340201
 33
0.0
210
0.0
220
0.0
230
-1.0
  0
LINE
  5
FFBBDAE469BC2822
  8
0
  6
CONTINUOUS
 10
75.356588479007314
 20
125.4201026098569
 30
0.0
 11
75.106309968994296
 21
125.2486687557241
 31
0.0
  0
LINE
  5
FFBBDAE469BC2823
  8
0
  6
CONTINUOUS
 10
75.643524324175345
 20
125.4201026098569
 30
0.0
 11
75.894502107124197
 21
125.2486687557241
 31
0.0
  0
LINE
  5
FFBBDAE469BC2824
  8
0
  6
CONTINUOUS
 10
75.106309968994296
 20
125.2486687557241
 30
0.0
 11
75.104811050081281
 21
125.2476420377439
 31
0.0
  0
LINE
  5
FFBBDAE469BC2825
  8
0
  6
CONTINUOUS
 10
75.894502107124197
 20
125.2486687557241
 30
0.0
 11
75.894882107752451
 21
125.2476420377439
 31
0.0
  0
LINE
  5
FFBBDAE469BC2826
  8
0
  6
CONTINUOUS
 10
75.104811050081281
 20
125.2476420377439
 30
0.0
 11
75.000950889754264
 21
124.963625586229
 31
0.0
  0
LINE
  5
FFBBDAE469BC2827
  8
0
  6
CONTINUOUS
 10
75.894882107752451
 20
125.2476420377439
 30
0.0
 11
75.999999999998636
 21
124.963625586229
 31
0.0
  0
LINE
  5
FFBBDAE469BC2828
  8
0
  6
CONTINUOUS
 10
75.000950889754264
 20
124.963625586229
 30
0.0
 11
75.000000000003638
 21
124.9610252789321
 31
0.0
  0
LINE
  5
FFBBDAE469BC2829
  8
0
  6
CONTINUOUS
 10
75.999999999998636
 20
124.963625586229
 30
0.0
 11
75.999999999998636
 21
124.9610252789321
 31
0.0
  0
LINE
  5
FFBBDAE469BC282A
  8
0
  6
CONTINUOUS
 10
75.000000000003638
 20
124.9610252789321
 30
0.0
 11
75.000000000003638
 21
121.4826026098569
 31
0.0
  0
LINE
  5
FFBBDAE469BC282B
  8
0
  6
CONTINUOUS
 10
75.999999999998636
 20
124.9610252789321
 30
0.0
 11
75.999999999998636
 21
121.4826026098569
 31
0.0
  0
LINE
  5
FFBBDAE469BC282C
  8
0
  6
CONTINUOUS
 10
75.000000000003638
 20
121.4826026098569
 30
0.0
 11
75.000000000003183
 21
118.9202448636433
 31
0.0
  0
LINE
  5
FFBBDAE469BC282D
  8
0
  6
CONTINUOUS
 10
75.999999999998636
 20
121.4826026098569
 30
0.0
 11
75.999999999998636
 21
118.9202448636433
 31
0.0
  0
LINE
  5
FFBBDAE469BC282E
  8
0
  6
CONTINUOUS
 10
75.000000000004093
 20
116.9202448636436
 30
0.0
 11
75.000000000003638
 21
112.92010260985739
 31
0.0
  0
LINE
  5
FFBBDAE469BC282F
  8
0
  6
CONTINUOUS
 10
75.999999999999091
 20
116.9202448636436
 30
0.0
 11
75.999999999998792
 21
112.92010260985739
 31
0.0
  0
LINE
  5
FFBBDAE469BC2830
  8
0
  6
CONTINUOUS
 10
75.000000000003638
 20
112.92010260985739
 30
0.0
 11
75.000000000003638
 21
110.8794644483168
 31
0.0
  0
LINE
  5
FFBBDAE469BC2831
  8
0
  6
CONTINUOUS
 10
75.999999999998792
 20
112.92010260985739
 30
0.0
 11
75.999999999998636
 21
110.8794644483168
 31
0.0
  0
LINE
  5
FFBBDAE469BC2832
  8
0
  6
CONTINUOUS
 10
75.000000000003638
 20
110.8794644483168
 30
0.0
 11
75.001169387940266
 21
110.87686414104149
 31
0.0
  0
LINE
  5
FFBBDAE469BC2833
  8
0
  6
CONTINUOUS
 10
75.999999999998636
 20
110.8794644483168
 30
0.0
 11
75.999999999998636
 21
110.87686414104149
 31
0.0
  0
LINE
  5
FFBBDAE469BC2834
  8
0
  6
CONTINUOUS
 10
75.001169387940266
 20
110.87686414104149
 30
0.0
 11
75.152984193970227
 21
110.5392814345194
 31
0.0
  0
LINE
  5
FFBBDAE469BC2835
  8
0
  6
CONTINUOUS
 10
75.999999999998636
 20
110.87686414104149
 30
0.0
 11
75.846069533266089
 21
110.5392814345194
 31
0.0
  0
LINE
  5
FFBBDAE469BC2836
  8
0
  6
CONTINUOUS
 10
75.845248726084108
 20
110.5374813340201
 30
0.0
 11
75.498755025171633
 21
110.3993844053507
 31
0.0
  0
LINE
  5
FFBBDAE469BC2837
  8
0
  6
CONTINUOUS
 10
75.498755025171633
 20
110.3993844053507
 30
0.0
 11
75.157433339528154
 21
110.5374813340201
 31
0.0
  0
LINE
  5
FFBBDAE469BC2838
  8
0
  6
CONTINUOUS
 10
75.152984193970227
 20
110.5392814345194
 30
0.0
 11
75.157433339528154
 21
110.5374813340201
 31
0.0
  0
LINE
  5
FFBBDAE469BC2839
  8
0
  6
CONTINUOUS
 10
75.846069533266089
 20
110.5392814345194
 30
0.0
 11
75.845248726084108
 21
110.5374813340201
 31
0.0
  0
ENDBLK
  5
FFBBDAE469BC283B
  8
0
  0
BLOCK
  8
0
  2
*U22
 70
     1
 10
0.0
 20
0.0
 30
0.0
  3
*U22
  1

  0
TEXT
  5
FFBBDAE469BC283D
  8
0
  6
CONTINUOUS
 10
106.2487089964763
 20
222.29968669026579
 30
0.0
 40
5.0
  1
Selected coating
  7
ARIAL
  0
ENDBLK
  5
FFBBDAE469BC283F
  8
0
  0
BLOCK
  8
0
  2
*U23
 70
     1
 10
0.0
 20
0.0
 30
0.0
  3
*U23
  1

  0
TEXT
  5
FFBBDAE469BC2841
  8
0
  6
CONTINUOUS
 10
106.3749027208965
 20
245.3315132806276
 30
0.0
 40
5.0
  1
James Hardie rigid air
  7
ARIAL
  0
TEXT
  5
FFBBDAE469BC2842
  8
0
  6
CONTINUOUS
 10
106.10546206605341
 20
236.9129139172806
 30
0.0
 40
5.0
  1
barrier/Building underlay
  7
ARIAL
  0
ENDBLK
  5
FFBBDAE469BC2844
  8
0
  0
BLOCK
  8
0
  2
*U24
 70
     1
 10
0.0
 20
0.0
 30
0.0
  3
*U24
  1

  0
TEXT
  5
FFBBDAE469BC2846
  8
0
  6
CONTINUOUS
 10
-135.86621284055809
 20
65.639167060499361
 30
0.0
 40
5.0
  1
Continue 
  7
ARIAL
  0
TEXT
  5
FFBBDAE469BC2847
  8
0
  6
CONTINUOUS
 10
-105.9651214353739
 20
65.681800075506189
 30
0.0
 40
5.0
  1
building underlay /
  7
ARIAL
  0
TEXT
  5
FFBBDAE469BC2848
  8
0
  6
CONTINUOUS
 10
-135.70591270413249
 20
57.305833727166018
 30
0.0
 40
5.0
  1
James Hardie rigid air barrier
  7
ARIAL
  0
TEXT
  5
FFBBDAE469BC2849
  8
0
  6
CONTINUOUS
 10
-135.77071488694281
 20
48.887234363819047
 30
0.0
 40
5.0
  1
around framing
  7
ARIAL
  0
ENDBLK
  5
FFBBDAE469BC284B
  8
0
  0
BLOCK
  8
0
  2
*U25
 70
     1
 10
0.0
 20
0.0
 30
0.0
  3
*U25
  1

  0
SOLID
  5
FFBBDAE469BC284D
  8
0
  6
CONTINUOUS
 10
56.550093269547808
 20
198.07969623993779
 30
0.0
 11
54.027379214933717
 21
195.83121522265691
 31
0.0
 12
55.68449326099109
 22
198.77633425671641
 32
0.0
 13
55.68449326099109
 23
198.77633425671641
 33
0.0
  0
POLYLINE
  8
0
  5
800000A1
  66
     1
 10
0.000000
 20
0.000000
 30
0.000000
  70
     8
  0
VERTEX
  8
0
  5
800000A2
 10
56.1173
 20
198.428
 30
0.000000
  70
    32
  0
VERTEX
  8
0
  5
800000A3
 10
56.3778
 20
198.754
 30
0.000000
  70
    32
  0
VERTEX
  8
0
  5
800000A4
 10
56.6367
 20
199.082
 30
0.000000
  70
    32
  0
VERTEX
  8
0
  5
800000A5
 10
56.8940
 20
199.413
 30
0.000000
  70
    32
  0
VERTEX
  8
0
  5
800000A6
 10
57.1498
 20
199.745
 30
0.000000
  70
    32
  0
VERTEX
  8
0
  5
800000A7
 10
57.4041
 20
200.080
 30
0.000000
  70
    32
  0
VERTEX
  8
0
  5
800000A8
 10
57.6569
 20
200.417
 30
0.000000
  70
    32
  0
VERTEX
  8
0
  5
800000A9
 10
57.9084
 20
200.755
 30
0.000000
  70
    32
  0
VERTEX
  8
0
  5
800000AA
 10
58.1585
 20
201.096
 30
0.000000
  70
    32
  0
VERTEX
  8
0
  5
800000AB
 10
58.4072
 20
201.439
 30
0.000000
  70
    32
  0
VERTEX
  8
0
  5
800000AC
 10
58.6547
 20
201.783
 30
0.000000
  70
    32
  0
VERTEX
  8
0
  5
800000AD
 10
58.9009
 20
202.129
 30
0.000000
  70
    32
  0
VERTEX
  8
0
  5
800000AE
 10
59.1459
 20
202.477
 30
0.000000
  70
    32
  0
VERTEX
  8
0
  5
800000AF
 10
59.3898
 20
202.826
 30
0.000000
  70
    32
  0
VERTEX
  8
0
  5
800000B0
 10
59.6325
 20
203.177
 30
0.000000
  70
    32
  0
VERTEX
  8
0
  5
800000B1
 10
59.8742
 20
203.530
 30
0.000000
  70
    32
  0
VERTEX
  8
0
  5
800000B2
 10
60.1149
 20
203.884
 30
0.000000
  70
    32
  0
VERTEX
  8
0
  5
800000B3
 10
60.3545
 20
204.239
 30
0.000000
  70
    32
  0
VERTEX
  8
0
  5
800000B4
 10
60.5933
 20
204.596
 30
0.000000
  70
    32
  0
VERTEX
  8
0
  5
800000B5
 10
60.8311
 20
204.954
 30
0.000000
  70
    32
  0
VERTEX
  8
0
  5
800000B6
 10
61.0680
 20
205.313
 30
0.000000
  70
    32
  0
VERTEX
  8
0
  5
800000B7
 10
61.3042
 20
205.674
 30
0.000000
  70
    32
  0
VERTEX
  8
0
  5
800000B8
 10
61.5395
 20
206.035
 30
0.000000
  70
    32
  0
VERTEX
  8
0
  5
800000B9
 10
61.7742
 20
206.398
 30
0.000000
  70
    32
  0
VERTEX
  8
0
  5
800000BA
 10
62.0081
 20
206.761
 30
0.000000
  70
    32
  0
VERTEX
  8
0
  5
800000BB
 10
62.2414
 20
207.126
 30
0.000000
  70
    32
  0
VERTEX
  8
0
  5
800000BC
 10
62.4741
 20
207.491
 30
0.000000
  70
    32
  0
VERTEX
  8
0
  5
800000BD
 10
62.7062
 20
207.857
 30
0.000000
  70
    32
  0
VERTEX
  8
0
  5
800000BE
 10
62.9378
 20
208.224
 30
0.000000
  70
    32
  0
VERTEX
  8
0
  5
800000BF
 10
63.1689
 20
208.592
 30
0.000000
  70
    32
  0
VERTEX
  8
0
  5
800000C0
 10
63.3996
 20
208.960
 30
0.000000
  70
    32
  0
VERTEX
  8
0
  5
800000C1
 10
63.6299
 20
209.329
 30
0.000000
  70
    32
  0
VERTEX
  8
0
  5
800000C2
 10
63.8598
 20
209.698
 30
0.000000
  70
    32
  0
VERTEX
  8
0
  5
800000C3
 10
64.0894
 20
210.067
 30
0.000000
  70
    32
  0
VERTEX
  8
0
  5
800000C4
 10
64.3188
 20
210.437
 30
0.000000
  70
    32
  0
VERTEX
  8
0
  5
800000C5
 10
64.5479
 20
210.808
 30
0.000000
  70
    32
  0
VERTEX
  8
0
  5
800000C6
 10
64.7768
 20
211.178
 30
0.000000
  70
    32
  0
VERTEX
  8
0
  5
800000C7
 10
65.0056
 20
211.549
 30
0.000000
  70
    32
  0
VERTEX
  8
0
  5
800000C8
 10
65.2343
 20
211.920
 30
0.000000
  70
    32
  0
VERTEX
  8
0
  5
800000C9
 10
65.4629
 20
212.291
 30
0.000000
  70
    32
  0
VERTEX
  8
0
  5
800000CA
 10
65.6915
 20
212.662
 30
0.000000
  70
    32
  0
VERTEX
  8
0
  5
800000CB
 10
65.9202
 20
213.033
 30
0.000000
  70
    32
  0
VERTEX
  8
0
  5
800000CC
 10
66.1489
 20
213.404
 30
0.000000
  70
    32
  0
VERTEX
  8
0
  5
800000CD
 10
66.3777
 20
213.775
 30
0.000000
  70
    32
  0
VERTEX
  8
0
  5
800000CE
 10
66.6067
 20
214.146
 30
0.000000
  70
    32
  0
VERTEX
  8
0
  5
800000CF
 10
66.8358
 20
214.516
 30
0.000000
  70
    32
  0
VERTEX
  8
0
  5
800000D0
 10
67.0652
 20
214.886
 30
0.000000
  70
    32
  0
VERTEX
  8
0
  5
800000D1
 10
67.2949
 20
215.255
 30
0.000000
  70
    32
  0
VERTEX
  8
0
  5
800000D2
 10
67.5249
 20
215.625
 30
0.000000
  70
    32
  0
VERTEX
  8
0
  5
800000D3
 10
67.7553
 20
215.993
 30
0.000000
  70
    32
  0
VERTEX
  8
0
  5
800000D4
 10
67.9860
 20
216.361
 30
0.000000
  70
    32
  0
VERTEX
  8
0
  5
800000D5
 10
68.2172
 20
216.729
 30
0.000000
  70
    32
  0
VERTEX
  8
0
  5
800000D6
 10
68.4489
 20
217.095
 30
0.000000
  70
    32
  0
VERTEX
  8
0
  5
800000D7
 10
68.6812
 20
217.461
 30
0.000000
  70
    32
  0
VERTEX
  8
0
  5
800000D8
 10
68.9140
 20
217.826
 30
0.000000
  70
    32
  0
VERTEX
  8
0
  5
800000D9
 10
69.1474
 20
218.191
 30
0.000000
  70
    32
  0
VERTEX
  8
0
  5
800000DA
 10
69.3815
 20
218.554
 30
0.000000
  70
    32
  0
VERTEX
  8
0
  5
800000DB
 10
69.6162
 20
218.916
 30
0.000000
  70
    32
  0
VERTEX
  8
0
  5
800000DC
 10
69.8518
 20
219.278
 30
0.000000
  70
    32
  0
VERTEX
  8
0
  5
800000DD
 10
70.0881
 20
219.638
 30
0.000000
  70
    32
  0
VERTEX
  8
0
  5
800000DE
 10
70.3252
 20
219.997
 30
0.000000
  70
    32
  0
VERTEX
  8
0
  5
800000DF
 10
70.5632
 20
220.355
 30
0.000000
  70
    32
  0
VERTEX
  8
0
  5
800000E0
 10
70.8021
 20
220.711
 30
0.000000
  70
    32
  0
VERTEX
  8
0
  5
800000E1
 10
71.0420
 20
221.066
 30
0.000000
  70
    32
  0
VERTEX
  8
0
  5
800000E2
 10
71.2829
 20
221.420
 30
0.000000
  70
    32
  0
VERTEX
  8
0
  5
800000E3
 10
71.5248
 20
221.772
 30
0.000000
  70
    32
  0
VERTEX
  8
0
  5
800000E4
 10
71.7677
 20
222.123
 30
0.000000
  70
    32
  0
VERTEX
  8
0
  5
800000E5
 10
72.0118
 20
222.472
 30
0.000000
  70
    32
  0
VERTEX
  8
0
  5
800000E6
 10
72.2571
 20
222.820
 30
0.000000
  70
    32
  0
VERTEX
  8
0
  5
800000E7
 10
72.5036
 20
223.165
 30
0.000000
  70
    32
  0
VERTEX
  8
0
  5
800000E8
 10
72.7513
 20
223.509
 30
0.000000
  70
    32
  0
VERTEX
  8
0
  5
800000E9
 10
73.0003
 20
223.852
 30
0.000000
  70
    32
  0
VERTEX
  8
0
  5
800000EA
 10
73.2506
 20
224.192
 30
0.000000
  70
    32
  0
VERTEX
  8
0
  5
800000EB
 10
73.5024
 20
224.530
 30
0.000000
  70
    32
  0
VERTEX
  8
0
  5
800000EC
 10
73.7555
 20
224.867
 30
0.000000
  70
    32
  0
VERTEX
  8
0
  5
800000ED
 10
74.0101
 20
225.201
 30
0.000000
  70
    32
  0
VERTEX
  8
0
  5
800000EE
 10
74.2662
 20
225.533
 30
0.000000
  70
    32
  0
VERTEX
  8
0
  5
800000EF
 10
74.5238
 20
225.863
 30
0.000000
  70
    32
  0
VERTEX
  8
0
  5
800000F0
 10
74.7831
 20
226.191
 30
0.000000
  70
    32
  0
VERTEX
  8
0
  5
800000F1
 10
75.0439
 20
226.516
 30
0.000000
  70
    32
  0
VERTEX
  8
0
  5
800000F2
 10
75.3064
 20
226.839
 30
0.000000
  70
    32
  0
VERTEX
  8
0
  5
800000F3
 10
75.5707
 20
227.160
 30
0.000000
  70
    32
  0
VERTEX
  8
0
  5
800000F4
 10
75.8367
 20
227.478
 30
0.000000
  70
    32
  0
VERTEX
  8
0
  5
800000F5
 10
76.1045
 20
227.793
 30
0.000000
  70
    32
  0
VERTEX
  8
0
  5
800000F6
 10
76.3741
 20
228.106
 30
0.000000
  70
    32
  0
VERTEX
  8
0
  5
800000F7
 10
76.6456
 20
228.417
 30
0.000000
  70
    32
  0
VERTEX
  8
0
  5
800000F8
 10
76.9190
 20
228.724
 30
0.000000
  70
    32
  0
VERTEX
  8
0
  5
800000F9
 10
77.1944
 20
229.029
 30
0.000000
  70
    32
  0
VERTEX
  8
0
  5
800000FA
 10
77.4718
 20
229.331
 30
0.000000
  70
    32
  0
VERTEX
  8
0
  5
800000FB
 10
77.7513
 20
229.630
 30
0.000000
  70
    32
  0
VERTEX
  8
0
  5
800000FC
 10
78.0328
 20
229.926
 30
0.000000
  70
    32
  0
VERTEX
  8
0
  5
800000FD
 10
78.3165
 20
230.219
 30
0.000000
  70
    32
  0
VERTEX
  8
0
  5
800000FE
 10
78.6024
 20
230.509
 30
0.000000
  70
    32
  0
VERTEX
  8
0
  5
800000FF
 10
78.8904
 20
230.796
 30
0.000000
  70
    32
  0
VERTEX
  8
0
  5
80000100
 10
79.1808
 20
231.080
 30
0.000000
  70
    32
  0
VERTEX
  8
0
  5
80000101
 10
79.4734
 20
231.360
 30
0.000000
  70
    32
  0
VERTEX
  8
0
  5
80000102
 10
79.7684
 20
231.638
 30
0.000000
  70
    32
  0
VERTEX
  8
0
  5
80000103
 10
80.0658
 20
231.911
 30
0.000000
  70
    32
  0
VERTEX
  8
0
  5
80000104
 10
80.3656
 20
232.181
 30
0.000000
  70
    32
  0
VERTEX
  8
0
  5
80000105
 10
80.6678
 20
232.448
 30
0.000000
  70
    32
  0
VERTEX
  8
0
  5
80000106
 10
80.9726
 20
232.711
 30
0.000000
  70
    32
  0
VERTEX
  8
0
  5
80000107
 10
81.2800
 20
232.971
 30
0.000000
  70
    32
  0
VERTEX
  8
0
  5
80000108
 10
81.5899
 20
233.227
 30
0.000000
  70
    32
  0
VERTEX
  8
0
  5
80000109
 10
81.9025
 20
233.479
 30
0.000000
  70
    32
  0
VERTEX
  8
0
  5
8000010A
 10
82.2178
 20
233.727
 30
0.000000
  70
    32
  0
VERTEX
  8
0
  5
8000010B
 10
82.5357
 20
233.972
 30
0.000000
  70
    32
  0
VERTEX
  8
0
  5
8000010C
 10
82.8565
 20
234.213
 30
0.000000
  70
    32
  0
VERTEX
  8
0
  5
8000010D
 10
83.1801
 20
234.449
 30
0.000000
  70
    32
  0
VERTEX
  8
0
  5
8000010E
 10
83.5065
 20
234.682
 30
0.000000
  70
    32
  0
VERTEX
  8
0
  5
8000010F
 10
83.8358
 20
234.910
 30
0.000000
  70
    32
  0
VERTEX
  8
0
  5
80000110
 10
84.1680
 20
235.135
 30
0.000000
  70
    32
  0
VERTEX
  8
0
  5
80000111
 10
84.5032
 20
235.355
 30
0.000000
  70
    32
  0
VERTEX
  8
0
  5
80000112
 10
84.8415
 20
235.571
 30
0.000000
  70
    32
  0
VERTEX
  8
0
  5
80000113
 10
85.1828
 20
235.782
 30
0.000000
  70
    32
  0
VERTEX
  8
0
  5
80000114
 10
85.5272
 20
235.989
 30
0.000000
  70
    32
  0
VERTEX
  8
0
  5
80000115
 10
85.8747
 20
236.192
 30
0.000000
  70
    32
  0
VERTEX
  8
0
  5
80000116
 10
86.2255
 20
236.390
 30
0.000000
  70
    32
  0
VERTEX
  8
0
  5
80000117
 10
86.5795
 20
236.583
 30
0.000000
  70
    32
  0
VERTEX
  8
0
  5
80000118
 10
86.9367
 20
236.772
 30
0.000000
  70
    32
  0
VERTEX
  8
0
  5
80000119
 10
87.2972
 20
236.957
 30
0.000000
  70
    32
  0
VERTEX
  8
0
  5
8000011A
 10
87.6610
 20
237.136
 30
0.000000
  70
    32
  0
VERTEX
  8
0
  5
8000011B
 10
88.0279
 20
237.312
 30
0.000000
  70
    32
  0
VERTEX
  8
0
  5
8000011C
 10
88.3977
 20
237.483
 30
0.000000
  70
    32
  0
VERTEX
  8
0
  5
8000011D
 10
88.7705
 20
237.650
 30
0.000000
  70
    32
  0
VERTEX
  8
0
  5
8000011E
 10
89.1459
 20
237.813
 30
0.000000
  70
    32
  0
VERTEX
  8
0
  5
8000011F
 10
89.5240
 20
237.972
 30
0.000000
  70
    32
  0
VERTEX
  8
0
  5
80000120
 10
89.9045
 20
238.128
 30
0.000000
  70
    32
  0
VERTEX
  8
0
  5
80000121
 10
90.2874
 20
238.281
 30
0.000000
  70
    32
  0
VERTEX
  8
0
  5
80000122
 10
90.6726
 20
238.430
 30
0.000000
  70
    32
  0
VERTEX
  8
0
  5
80000123
 10
91.0599
 20
238.577
 30
0.000000
  70
    32
  0
VERTEX
  8
0
  5
80000124
 10
91.4492
 20
238.720
 30
0.000000
  70
    32
  0
VERTEX
  8
0
  5
80000125
 10
91.8404
 20
238.861
 30
0.000000
  70
    32
  0
VERTEX
  8
0
  5
80000126
 10
92.2333
 20
238.999
 30
0.000000
  70
    32
  0
VERTEX
  8
0
  5
80000127
 10
92.6279
 20
239.135
 30
0.000000
  70
    32
  0
VERTEX
  8
0
  5
80000128
 10
93.0240
 20
239.269
 30
0.000000
  70
    32
  0
VERTEX
  8
0
  5
80000129
 10
93.4214
 20
239.401
 30
0.000000
  70
    32
  0
VERTEX
  8
0
  5
8000012A
 10
93.8202
 20
239.531
 30
0.000000
  70
    32
  0
VERTEX
  8
0
  5
8000012B
 10
94.2201
 20
239.660
 30
0.000000
  70
    32
  0
VERTEX
  8
0
  5
8000012C
 10
94.6210
 20
239.787
 30
0.000000
  70
    32
  0
VERTEX
  8
0
  5
8000012D
 10
95.0228
 20
239.913
 30
0.000000
  70
    32
  0
VERTEX
  8
0
  5
8000012E
 10
95.4254
 20
240.038
 30
0.000000
  70
    32
  0
VERTEX
  8
0
  5
8000012F
 10
95.8287
 20
240.161
 30
0.000000
  70
    32
  0
VERTEX
  8
0
  5
80000130
 10
96.2325
 20
240.284
 30
0.000000
  70
    32
  0
VERTEX
  8
0
  5
80000131
 10
96.6367
 20
240.407
 30
0.000000
  70
    32
  0
VERTEX
  8
0
  5
80000132
 10
97.0412
 20
240.529
 30
0.000000
  70
    32
  0
VERTEX
  8
0
  5
80000133
 10
97.4459
 20
240.650
 30
0.000000
  70
    32
  0
VERTEX
  8
0
  5
80000134
 10
97.8507
 20
240.772
 30
0.000000
  70
    32
  0
VERTEX
  8
0
  5
80000135
 10
98.2553
 20
240.894
 30
0.000000
  70
    32
  0
VERTEX
  8
0
  5
80000136
 10
98.6598
 20
241.016
 30
0.000000
  70
    32
  0
VERTEX
  8
0
  5
80000137
 10
99.0639
 20
241.138
 30
0.000000
  70
    32
  0
VERTEX
  8
0
  5
80000138
 10
99.4676
 20
241.262
 30
0.000000
  70
    32
  0
VERTEX
  8
0
  5
80000139
 10
99.8708
 20
241.386
 30
0.000000
  70
    32
  0
VERTEX
  8
0
  5
8000013A
 10
100.273
 20
241.510
 30
0.000000
  70
    32
  0
VERTEX
  8
0
  5
8000013B
 10
100.675
 20
241.636
 30
0.000000
  70
    32
  0
VERTEX
  8
0
  5
8000013C
 10
101.076
 20
241.764
 30
0.000000
  70
    32
  0
VERTEX
  8
0
  5
8000013D
 10
101.475
 20
241.893
 30
0.000000
  70
    32
  0
VERTEX
  8
0
  5
8000013E
 10
101.874
 20
242.023
 30
0.000000
  70
    32
  0
VERTEX
  8
0
  5
8000013F
 10
102.271
 20
242.156
 30
0.000000
  70
    32
  0
VERTEX
  8
0
  5
80000140
 10
102.667
 20
242.290
 30
0.000000
  70
    32
  0
VERTEX
  8
0
  5
80000141
 10
103.061
 20
242.426
 30
0.000000
  70
    32
  0
SEQEND
  8
0
  5
80000142
  0
ENDBLK
  5
FFBBDAE469BC2850
  8
0
  0
BLOCK
  8
0
  2
*U26
 70
     1
 10
0.0
 20
0.0
 30
0.0
  3
*U26
  1

  0
SOLID
  5
FFBBDAE469BC2852
  8
0
  6
CONTINUOUS
 10
87.617674570682482
 20
180.54193907420279
 30
0.0
 11
86.096671410356976
 21
177.52427400453391
 31
0.0
 12
86.556755998880377
 22
180.8721203656776
 32
0.0
 13
86.556755998880377
 23
180.8721203656776
 33
0.0
  0
POLYLINE
  8
0
  5
80000143
  66
     1
 10
0.000000
 20
0.000000
 30
0.000000
  70
     8
  0
VERTEX
  8
0
  5
80000144
 10
87.0872
 20
180.707
 30
0.000000
  70
    32
  0
VERTEX
  8
0
  5
80000145
 10
87.1705
 20
180.977
 30
0.000000
  70
    32
  0
VERTEX
  8
0
  5
80000146
 10
87.2528
 20
181.247
 30
0.000000
  70
    32
  0
VERTEX
  8
0
  5
80000147
 10
87.3341
 20
181.517
 30
0.000000
  70
    32
  0
VERTEX
  8
0
  5
80000148
 10
87.4144
 20
181.788
 30
0.000000
  70
    32
  0
VERTEX
  8
0
  5
80000149
 10
87.4939
 20
182.060
 30
0.000000
  70
    32
  0
VERTEX
  8
0
  5
8000014A
 10
87.5724
 20
182.332
 30
0.000000
  70
    32
  0
VERTEX
  8
0
  5
8000014B
 10
87.6501
 20
182.604
 30
0.000000
  70
    32
  0
VERTEX
  8
0
  5
8000014C
 10
87.7269
 20
182.877
 30
0.000000
  70
    32
  0
VERTEX
  8
0
  5
8000014D
 10
87.8029
 20
183.150
 30
0.000000
  70
    32
  0
VERTEX
  8
0
  5
8000014E
 10
87.8782
 20
183.424
 30
0.000000
  70
    32
  0
VERTEX
  8
0
  5
8000014F
 10
87.9527
 20
183.698
 30
0.000000
  70
    32
  0
VERTEX
  8
0
  5
80000150
 10
88.0265
 20
183.972
 30
0.000000
  70
    32
  0
VERTEX
  8
0
  5
80000151
 10
88.0996
 20
184.247
 30
0.000000
  70
    32
  0
VERTEX
  8
0
  5
80000152
 10
88.1720
 20
184.522
 30
0.000000
  70
    32
  0
VERTEX
  8
0
  5
80000153
 10
88.2438
 20
184.797
 30
0.000000
  70
    32
  0
VERTEX
  8
0
  5
80000154
 10
88.3151
 20
185.073
 30
0.000000
  70
    32
  0
VERTEX
  8
0
  5
80000155
 10
88.3857
 20
185.348
 30
0.000000
  70
    32
  0
VERTEX
  8
0
  5
80000156
 10
88.4559
 20
185.625
 30
0.000000
  70
    32
  0
VERTEX
  8
0
  5
80000157
 10
88.5255
 20
185.901
 30
0.000000
  70
    32
  0
VERTEX
  8
0
  5
80000158
 10
88.5946
 20
186.178
 30
0.000000
  70
    32
  0
VERTEX
  8
0
  5
80000159
 10
88.6633
 20
186.455
 30
0.000000
  70
    32
  0
VERTEX
  8
0
  5
8000015A
 10
88.7316
 20
186.732
 30
0.000000
  70
    32
  0
VERTEX
  8
0
  5
8000015B
 10
88.7994
 20
187.009
 30
0.000000
  70
    32
  0
VERTEX
  8
0
  5
8000015C
 10
88.8670
 20
187.287
 30
0.000000
  70
    32
  0
VERTEX
  8
0
  5
8000015D
 10
88.9341
 20
187.564
 30
0.000000
  70
    32
  0
VERTEX
  8
0
  5
8000015E
 10
89.0010
 20
187.842
 30
0.000000
  70
    32
  0
VERTEX
  8
0
  5
8000015F
 10
89.0676
 20
188.120
 30
0.000000
  70
    32
  0
VERTEX
  8
0
  5
80000160
 10
89.1340
 20
188.398
 30
0.000000
  70
    32
  0
VERTEX
  8
0
  5
80000161
 10
89.2002
 20
188.676
 30
0.000000
  70
    32
  0
VERTEX
  8
0
  5
80000162
 10
89.2662
 20
188.955
 30
0.000000
  70
    32
  0
VERTEX
  8
0
  5
80000163
 10
89.3320
 20
189.233
 30
0.000000
  70
    32
  0
VERTEX
  8
0
  5
80000164
 10
89.3977
 20
189.511
 30
0.000000
  70
    32
  0
VERTEX
  8
0
  5
80000165
 10
89.4633
 20
189.790
 30
0.000000
  70
    32
  0
VERTEX
  8
0
  5
80000166
 10
89.5289
 20
190.068
 30
0.000000
  70
    32
  0
VERTEX
  8
0
  5
80000167
 10
89.5944
 20
190.347
 30
0.000000
  70
    32
  0
VERTEX
  8
0
  5
80000168
 10
89.6599
 20
190.625
 30
0.000000
  70
    32
  0
VERTEX
  8
0
  5
80000169
 10
89.7254
 20
190.904
 30
0.000000
  70
    32
  0
VERTEX
  8
0
  5
8000016A
 10
89.7910
 20
191.182
 30
0.000000
  70
    32
  0
VERTEX
  8
0
  5
8000016B
 10
89.8567
 20
191.461
 30
0.000000
  70
    32
  0
VERTEX
  8
0
  5
8000016C
 10
89.9225
 20
191.739
 30
0.000000
  70
    32
  0
VERTEX
  8
0
  5
8000016D
 10
89.9884
 20
192.017
 30
0.000000
  70
    32
  0
VERTEX
  8
0
  5
8000016E
 10
90.0545
 20
192.296
 30
0.000000
  70
    32
  0
VERTEX
  8
0
  5
8000016F
 10
90.1208
 20
192.574
 30
0.000000
  70
    32
  0
VERTEX
  8
0
  5
80000170
 10
90.1873
 20
192.852
 30
0.000000
  70
    32
  0
VERTEX
  8
0
  5
80000171
 10
90.2541
 20
193.129
 30
0.000000
  70
    32
  0
VERTEX
  8
0
  5
80000172
 10
90.3212
 20
193.407
 30
0.000000
  70
    32
  0
VERTEX
  8
0
  5
80000173
 10
90.3886
 20
193.685
 30
0.000000
  70
    32
  0
VERTEX
  8
0
  5
80000174
 10
90.4564
 20
193.962
 30
0.000000
  70
    32
  0
VERTEX
  8
0
  5
80000175
 10
90.5246
 20
194.239
 30
0.000000
  70
    32
  0
VERTEX
  8
0
  5
80000176
 10
90.5931
 20
194.516
 30
0.000000
  70
    32
  0
VERTEX
  8
0
  5
80000177
 10
90.6621
 20
194.793
 30
0.000000
  70
    32
  0
VERTEX
  8
0
  5
80000178
 10
90.7316
 20
195.070
 30
0.000000
  70
    32
  0
VERTEX
  8
0
  5
80000179
 10
90.8015
 20
195.346
 30
0.000000
  70
    32
  0
VERTEX
  8
0
  5
8000017A
 10
90.8720
 20
195.622
 30
0.000000
  70
    32
  0
VERTEX
  8
0
  5
8000017B
 10
90.9431
 20
195.897
 30
0.000000
  70
    32
  0
VERTEX
  8
0
  5
8000017C
 10
91.0147
 20
196.173
 30
0.000000
  70
    32
  0
VERTEX
  8
0
  5
8000017D
 10
91.0870
 20
196.448
 30
0.000000
  70
    32
  0
VERTEX
  8
0
  5
8000017E
 10
91.1599
 20
196.723
 30
0.000000
  70
    32
  0
VERTEX
  8
0
  5
8000017F
 10
91.2335
 20
196.997
 30
0.000000
  70
    32
  0
VERTEX
  8
0
  5
80000180
 10
91.3077
 20
197.271
 30
0.000000
  70
    32
  0
VERTEX
  8
0
  5
80000181
 10
91.3828
 20
197.545
 30
0.000000
  70
    32
  0
VERTEX
  8
0
  5
80000182
 10
91.4586
 20
197.818
 30
0.000000
  70
    32
  0
VERTEX
  8
0
  5
80000183
 10
91.5351
 20
198.091
 30
0.000000
  70
    32
  0
VERTEX
  8
0
  5
80000184
 10
91.6125
 20
198.364
 30
0.000000
  70
    32
  0
VERTEX
  8
0
  5
80000185
 10
91.6908
 20
198.636
 30
0.000000
  70
    32
  0
VERTEX
  8
0
  5
80000186
 10
91.7700
 20
198.908
 30
0.000000
  70
    32
  0
VERTEX
  8
0
  5
80000187
 10
91.8500
 20
199.179
 30
0.000000
  70
    32
  0
VERTEX
  8
0
  5
80000188
 10
91.9310
 20
199.449
 30
0.000000
  70
    32
  0
VERTEX
  8
0
  5
80000189
 10
92.0130
 20
199.720
 30
0.000000
  70
    32
  0
VERTEX
  8
0
  5
8000018A
 10
92.0960
 20
199.989
 30
0.000000
  70
    32
  0
VERTEX
  8
0
  5
8000018B
 10
92.1800
 20
200.258
 30
0.000000
  70
    32
  0
VERTEX
  8
0
  5
8000018C
 10
92.2651
 20
200.527
 30
0.000000
  70
    32
  0
VERTEX
  8
0
  5
8000018D
 10
92.3512
 20
200.795
 30
0.000000
  70
    32
  0
VERTEX
  8
0
  5
8000018E
 10
92.4385
 20
201.063
 30
0.000000
  70
    32
  0
VERTEX
  8
0
  5
8000018F
 10
92.5270
 20
201.330
 30
0.000000
  70
    32
  0
VERTEX
  8
0
  5
80000190
 10
92.6166
 20
201.596
 30
0.000000
  70
    32
  0
VERTEX
  8
0
  5
80000191
 10
92.7074
 20
201.862
 30
0.000000
  70
    32
  0
VERTEX
  8
0
  5
80000192
 10
92.7995
 20
202.127
 30
0.000000
  70
    32
  0
VERTEX
  8
0
  5
80000193
 10
92.8928
 20
202.391
 30
0.000000
  70
    32
  0
VERTEX
  8
0
  5
80000194
 10
92.9874
 20
202.655
 30
0.000000
  70
    32
  0
VERTEX
  8
0
  5
80000195
 10
93.0834
 20
202.918
 30
0.000000
  70
    32
  0
VERTEX
  8
0
  5
80000196
 10
93.1807
 20
203.181
 30
0.000000
  70
    32
  0
VERTEX
  8
0
  5
80000197
 10
93.2794
 20
203.443
 30
0.000000
  70
    32
  0
VERTEX
  8
0
  5
80000198
 10
93.3796
 20
203.704
 30
0.000000
  70
    32
  0
VERTEX
  8
0
  5
80000199
 10
93.4811
 20
203.964
 30
0.000000
  70
    32
  0
VERTEX
  8
0
  5
8000019A
 10
93.5842
 20
204.224
 30
0.000000
  70
    32
  0
VERTEX
  8
0
  5
8000019B
 10
93.6887
 20
204.482
 30
0.000000
  70
    32
  0
VERTEX
  8
0
  5
8000019C
 10
93.7948
 20
204.741
 30
0.000000
  70
    32
  0
VERTEX
  8
0
  5
8000019D
 10
93.9025
 20
204.998
 30
0.000000
  70
    32
  0
VERTEX
  8
0
  5
8000019E
 10
94.0117
 20
205.254
 30
0.000000
  70
    32
  0
VERTEX
  8
0
  5
8000019F
 10
94.1226
 20
205.510
 30
0.000000
  70
    32
  0
VERTEX
  8
0
  5
800001A0
 10
94.2352
 20
205.765
 30
0.000000
  70
    32
  0
VERTEX
  8
0
  5
800001A1
 10
94.3494
 20
206.019
 30
0.000000
  70
    32
  0
VERTEX
  8
0
  5
800001A2
 10
94.4653
 20
206.272
 30
0.000000
  70
    32
  0
VERTEX
  8
0
  5
800001A3
 10
94.5830
 20
206.524
 30
0.000000
  70
    32
  0
VERTEX
  8
0
  5
800001A4
 10
94.7024
 20
206.775
 30
0.000000
  70
    32
  0
VERTEX
  8
0
  5
800001A5
 10
94.8237
 20
207.026
 30
0.000000
  70
    32
  0
VERTEX
  8
0
  5
800001A6
 10
94.9467
 20
207.275
 30
0.000000
  70
    32
  0
VERTEX
  8
0
  5
800001A7
 10
95.0717
 20
207.524
 30
0.000000
  70
    32
  0
VERTEX
  8
0
  5
800001A8
 10
95.1985
 20
207.771
 30
0.000000
  70
    32
  0
VERTEX
  8
0
  5
800001A9
 10
95.3273
 20
208.018
 30
0.000000
  70
    32
  0
VERTEX
  8
0
  5
800001AA
 10
95.4580
 20
208.264
 30
0.000000
  70
    32
  0
VERTEX
  8
0
  5
800001AB
 10
95.5907
 20
208.508
 30
0.000000
  70
    32
  0
VERTEX
  8
0
  5
800001AC
 10
95.7254
 20
208.752
 30
0.000000
  70
    32
  0
VERTEX
  8
0
  5
800001AD
 10
95.8621
 20
208.995
 30
0.000000
  70
    32
  0
VERTEX
  8
0
  5
800001AE
 10
96.0009
 20
209.236
 30
0.000000
  70
    32
  0
VERTEX
  8
0
  5
800001AF
 10
96.1417
 20
209.477
 30
0.000000
  70
    32
  0
VERTEX
  8
0
  5
800001B0
 10
96.2846
 20
209.716
 30
0.000000
  70
    32
  0
VERTEX
  8
0
  5
800001B1
 10
96.4294
 20
209.955
 30
0.000000
  70
    32
  0
VERTEX
  8
0
  5
800001B2
 10
96.5760
 20
210.192
 30
0.000000
  70
    32
  0
VERTEX
  8
0
  5
800001B3
 10
96.7245
 20
210.429
 30
0.000000
  70
    32
  0
VERTEX
  8
0
  5
800001B4
 10
96.8747
 20
210.665
 30
0.000000
  70
    32
  0
VERTEX
  8
0
  5
800001B5
 10
97.0266
 20
210.900
 30
0.000000
  70
    32
  0
VERTEX
  8
0
  5
800001B6
 10
97.1802
 20
211.134
 30
0.000000
  70
    32
  0
VERTEX
  8
0
  5
800001B7
 10
97.3354
 20
211.367
 30
0.000000
  70
    32
  0
VERTEX
  8
0
  5
800001B8
 10
97.4920
 20
211.600
 30
0.000000
  70
    32
  0
VERTEX
  8
0
  5
800001B9
 10
97.6502
 20
211.832
 30
0.000000
  70
    32
  0
VERTEX
  8
0
  5
800001BA
 10
97.8098
 20
212.063
 30
0.000000
  70
    32
  0
VERTEX
  8
0
  5
800001BB
 10
97.9707
 20
212.293
 30
0.000000
  70
    32
  0
VERTEX
  8
0
  5
800001BC
 10
98.1329
 20
212.523
 30
0.000000
  70
    32
  0
VERTEX
  8
0
  5
800001BD
 10
98.2963
 20
212.752
 30
0.000000
  70
    32
  0
VERTEX
  8
0
  5
800001BE
 10
98.4609
 20
212.981
 30
0.000000
  70
    32
  0
VERTEX
  8
0
  5
800001BF
 10
98.6266
 20
213.209
 30
0.000000
  70
    32
  0
VERTEX
  8
0
  5
800001C0
 10
98.7934
 20
213.436
 30
0.000000
  70
    32
  0
VERTEX
  8
0
  5
800001C1
 10
98.9612
 20
213.663
 30
0.000000
  70
    32
  0
VERTEX
  8
0
  5
800001C2
 10
99.1300
 20
213.890
 30
0.000000
  70
    32
  0
VERTEX
  8
0
  5
800001C3
 10
99.2996
 20
214.116
 30
0.000000
  70
    32
  0
VERTEX
  8
0
  5
800001C4
 10
99.4700
 20
214.341
 30
0.000000
  70
    32
  0
VERTEX
  8
0
  5
800001C5
 10
99.6412
 20
214.567
 30
0.000000
  70
    32
  0
VERTEX
  8
0
  5
800001C6
 10
99.8131
 20
214.791
 30
0.000000
  70
    32
  0
VERTEX
  8
0
  5
800001C7
 10
99.9857
 20
215.016
 30
0.000000
  70
    32
  0
VERTEX
  8
0
  5
800001C8
 10
100.159
 20
215.240
 30
0.000000
  70
    32
  0
VERTEX
  8
0
  5
800001C9
 10
100.333
 20
215.464
 30
0.000000
  70
    32
  0
VERTEX
  8
0
  5
800001CA
 10
100.507
 20
215.688
 30
0.000000
  70
    32
  0
VERTEX
  8
0
  5
800001CB
 10
100.681
 20
215.911
 30
0.000000
  70
    32
  0
VERTEX
  8
0
  5
800001CC
 10
100.856
 20
216.135
 30
0.000000
  70
    32
  0
VERTEX
  8
0
  5
800001CD
 10
101.032
 20
216.358
 30
0.000000
  70
    32
  0
VERTEX
  8
0
  5
800001CE
 10
101.207
 20
216.581
 30
0.000000
  70
    32
  0
VERTEX
  8
0
  5
800001CF
 10
101.383
 20
216.804
 30
0.000000
  70
    32
  0
VERTEX
  8
0
  5
800001D0
 10
101.558
 20
217.027
 30
0.000000
  70
    32
  0
VERTEX
  8
0
  5
800001D1
 10
101.734
 20
217.250
 30
0.000000
  70
    32
  0
VERTEX
  8
0
  5
800001D2
 10
101.910
 20
217.473
 30
0.000000
  70
    32
  0
VERTEX
  8
0
  5
800001D3
 10
102.086
 20
217.696
 30
0.000000
  70
    32
  0
VERTEX
  8
0
  5
800001D4
 10
102.262
 20
217.919
 30
0.000000
  70
    32
  0
VERTEX
  8
0
  5
800001D5
 10
102.437
 20
218.142
 30
0.000000
  70
    32
  0
VERTEX
  8
0
  5
800001D6
 10
102.613
 20
218.365
 30
0.000000
  70
    32
  0
VERTEX
  8
0
  5
800001D7
 10
102.788
 20
218.588
 30
0.000000
  70
    32
  0
VERTEX
  8
0
  5
800001D8
 10
102.962
 20
218.812
 30
0.000000
  70
    32
  0
VERTEX
  8
0
  5
800001D9
 10
103.137
 20
219.035
 30
0.000000
  70
    32
  0
VERTEX
  8
0
  5
800001DA
 10
103.311
 20
219.259
 30
0.000000
  70
    32
  0
VERTEX
  8
0
  5
800001DB
 10
103.484
 20
219.483
 30
0.000000
  70
    32
  0
VERTEX
  8
0
  5
800001DC
 10
103.657
 20
219.708
 30
0.000000
  70
    32
  0
VERTEX
  8
0
  5
800001DD
 10
103.829
 20
219.933
 30
0.000000
  70
    32
  0
VERTEX
  8
0
  5
800001DE
 10
104.000
 20
220.158
 30
0.000000
  70
    32
  0
VERTEX
  8
0
  5
800001DF
 10
104.171
 20
220.383
 30
0.000000
  70
    32
  0
VERTEX
  8
0
  5
800001E0
 10
104.341
 20
220.609
 30
0.000000
  70
    32
  0
VERTEX
  8
0
  5
800001E1
 10
104.510
 20
220.836
 30
0.000000
  70
    32
  0
VERTEX
  8
0
  5
800001E2
 10
104.678
 20
221.062
 30
0.000000
  70
    32
  0
VERTEX
  8
0
  5
800001E3
 10
104.845
 20
221.290
 30
0.000000
  70
    32
  0
SEQEND
  8
0
  5
800001E4
  0
ENDBLK
  5
FFBBDAE469BC2855
  8
0
  0
BLOCK
  8
0
  2
*U27
 70
     1
 10
0.0
 20
0.0
 30
0.0
  3
*U27
  1

  0
SOLID
  5
FFBBDAE469BC2857
  8
0
  6
CONTINUOUS
 10
82.468645566874372
 20
168.79990530873241
 30
0.0
 11
79.9976036399853
 21
166.49475783362891
 31
0.0
 12
81.587460335657596
 22
169.47672174582601
 32
0.0
 13
81.587460335657596
 23
169.47672174582601
 33
0.0
  0
POLYLINE
  8
0
  5
800001E5
  66
     1
 10
0.000000
 20
0.000000
 30
0.000000
  70
     8
  0
VERTEX
  8
0
  5
800001E6
 10
82.0281
 20
169.138
 30
0.000000
  70
    32
  0
VERTEX
  8
0
  5
800001E7
 10
82.1933
 20
169.353
 30
0.000000
  70
    32
  0
VERTEX
  8
0
  5
800001E8
 10
82.3593
 20
169.567
 30
0.000000
  70
    32
  0
VERTEX
  8
0
  5
800001E9
 10
82.5259
 20
169.781
 30
0.000000
  70
    32
  0
VERTEX
  8
0
  5
800001EA
 10
82.6932
 20
169.994
 30
0.000000
  70
    32
  0
VERTEX
  8
0
  5
800001EB
 10
82.8611
 20
170.207
 30
0.000000
  70
    32
  0
VERTEX
  8
0
  5
800001EC
 10
83.0296
 20
170.420
 30
0.000000
  70
    32
  0
VERTEX
  8
0
  5
800001ED
 10
83.1986
 20
170.632
 30
0.000000
  70
    32
  0
VERTEX
  8
0
  5
800001EE
 10
83.3681
 20
170.844
 30
0.000000
  70
    32
  0
VERTEX
  8
0
  5
800001EF
 10
83.5382
 20
171.056
 30
0.000000
  70
    32
  0
VERTEX
  8
0
  5
800001F0
 10
83.7087
 20
171.267
 30
0.000000
  70
    32
  0
VERTEX
  8
0
  5
800001F1
 10
83.8797
 20
171.478
 30
0.000000
  70
    32
  0
VERTEX
  8
0
  5
800001F2
 10
84.0511
 20
171.689
 30
0.000000
  70
    32
  0
VERTEX
  8
0
  5
800001F3
 10
84.2229
 20
171.900
 30
0.000000
  70
    32
  0
VERTEX
  8
0
  5
800001F4
 10
84.3951
 20
172.110
 30
0.000000
  70
    32
  0
VERTEX
  8
0
  5
800001F5
 10
84.5675
 20
172.320
 30
0.000000
  70
    32
  0
VERTEX
  8
0
  5
800001F6
 10
84.7403
 20
172.531
 30
0.000000
  70
    32
  0
VERTEX
  8
0
  5
800001F7
 10
84.9134
 20
172.740
 30
0.000000
  70
    32
  0
VERTEX
  8
0
  5
800001F8
 10
85.0868
 20
172.950
 30
0.000000
  70
    32
  0
VERTEX
  8
0
  5
800001F9
 10
85.2603
 20
173.160
 30
0.000000
  70
    32
  0
VERTEX
  8
0
  5
800001FA
 10
85.4341
 20
173.369
 30
0.000000
  70
    32
  0
VERTEX
  8
0
  5
800001FB
 10
85.6080
 20
173.579
 30
0.000000
  70
    32
  0
VERTEX
  8
0
  5
800001FC
 10
85.7821
 20
173.788
 30
0.000000
  70
    32
  0
VERTEX
  8
0
  5
800001FD
 10
85.9563
 20
173.997
 30
0.000000
  70
    32
  0
VERTEX
  8
0
  5
800001FE
 10
86.1306
 20
174.207
 30
0.000000
  70
    32
  0
VERTEX
  8
0
  5
800001FF
 10
86.3050
 20
174.416
 30
0.000000
  70
    32
  0
VERTEX
  8
0
  5
80000200
 10
86.4794
 20
174.625
 30
0.000000
  70
    32
  0
VERTEX
  8
0
  5
80000201
 10
86.6537
 20
174.834
 30
0.000000
  70
    32
  0
VERTEX
  8
0
  5
80000202
 10
86.8281
 20
175.043
 30
0.000000
  70
    32
  0
VERTEX
  8
0
  5
80000203
 10
87.0025
 20
175.252
 30
0.000000
  70
    32
  0
VERTEX
  8
0
  5
80000204
 10
87.1767
 20
175.462
 30
0.000000
  70
    32
  0
VERTEX
  8
0
  5
80000205
 10
87.3509
 20
175.671
 30
0.000000
  70
    32
  0
VERTEX
  8
0
  5
80000206
 10
87.5249
 20
175.880
 30
0.000000
  70
    32
  0
VERTEX
  8
0
  5
80000207
 10
87.6988
 20
176.090
 30
0.000000
  70
    32
  0
VERTEX
  8
0
  5
80000208
 10
87.8724
 20
176.299
 30
0.000000
  70
    32
  0
VERTEX
  8
0
  5
80000209
 10
88.0459
 20
176.509
 30
0.000000
  70
    32
  0
VERTEX
  8
0
  5
8000020A
 10
88.2191
 20
176.719
 30
0.000000
  70
    32
  0
VERTEX
  8
0
  5
8000020B
 10
88.3921
 20
176.929
 30
0.000000
  70
    32
  0
VERTEX
  8
0
  5
8000020C
 10
88.5648
 20
177.139
 30
0.000000
  70
    32
  0
VERTEX
  8
0
  5
8000020D
 10
88.7371
 20
177.349
 30
0.000000
  70
    32
  0
VERTEX
  8
0
  5
8000020E
 10
88.9091
 20
177.560
 30
0.000000
  70
    32
  0
VERTEX
  8
0
  5
8000020F
 10
89.0808
 20
177.771
 30
0.000000
  70
    32
  0
VERTEX
  8
0
  5
80000210
 10
89.2520
 20
177.982
 30
0.000000
  70
    32
  0
VERTEX
  8
0
  5
80000211
 10
89.4228
 20
178.193
 30
0.000000
  70
    32
  0
VERTEX
  8
0
  5
80000212
 10
89.5931
 20
178.404
 30
0.000000
  70
    32
  0
VERTEX
  8
0
  5
80000213
 10
89.7629
 20
178.616
 30
0.000000
  70
    32
  0
VERTEX
  8
0
  5
80000214
 10
89.9323
 20
178.828
 30
0.000000
  70
    32
  0
VERTEX
  8
0
  5
80000215
 10
90.1011
 20
179.041
 30
0.000000
  70
    32
  0
VERTEX
  8
0
  5
80000216
 10
90.2693
 20
179.254
 30
0.000000
  70
    32
  0
VERTEX
  8
0
  5
80000217
 10
90.4369
 20
179.467
 30
0.000000
  70
    32
  0
VERTEX
  8
0
  5
80000218
 10
90.6039
 20
179.680
 30
0.000000
  70
    32
  0
VERTEX
  8
0
  5
80000219
 10
90.7703
 20
179.894
 30
0.000000
  70
    32
  0
VERTEX
  8
0
  5
8000021A
 10
90.9360
 20
180.108
 30
0.000000
  70
    32
  0
VERTEX
  8
0
  5
8000021B
 10
91.1009
 20
180.323
 30
0.000000
  70
    32
  0
VERTEX
  8
0
  5
8000021C
 10
91.2652
 20
180.538
 30
0.000000
  70
    32
  0
VERTEX
  8
0
  5
8000021D
 10
91.4286
 20
180.754
 30
0.000000
  70
    32
  0
VERTEX
  8
0
  5
8000021E
 10
91.5913
 20
180.970
 30
0.000000
  70
    32
  0
VERTEX
  8
0
  5
8000021F
 10
91.7532
 20
181.186
 30
0.000000
  70
    32
  0
VERTEX
  8
0
  5
80000220
 10
91.9142
 20
181.403
 30
0.000000
  70
    32
  0
VERTEX
  8
0
  5
80000221
 10
92.0744
 20
181.621
 30
0.000000
  70
    32
  0
VERTEX
  8
0
  5
80000222
 10
92.2337
 20
181.839
 30
0.000000
  70
    32
  0
VERTEX
  8
0
  5
80000223
 10
92.3920
 20
182.057
 30
0.000000
  70
    32
  0
VERTEX
  8
0
  5
80000224
 10
92.5494
 20
182.277
 30
0.000000
  70
    32
  0
VERTEX
  8
0
  5
80000225
 10
92.7058
 20
182.496
 30
0.000000
  70
    32
  0
VERTEX
  8
0
  5
80000226
 10
92.8612
 20
182.717
 30
0.000000
  70
    32
  0
VERTEX
  8
0
  5
80000227
 10
93.0156
 20
182.937
 30
0.000000
  70
    32
  0
VERTEX
  8
0
  5
80000228
 10
93.1689
 20
183.159
 30
0.000000
  70
    32
  0
VERTEX
  8
0
  5
80000229
 10
93.3211
 20
183.381
 30
0.000000
  70
    32
  0
VERTEX
  8
0
  5
8000022A
 10
93.4722
 20
183.604
 30
0.000000
  70
    32
  0
VERTEX
  8
0
  5
8000022B
 10
93.6221
 20
183.828
 30
0.000000
  70
    32
  0
VERTEX
  8
0
  5
8000022C
 10
93.7709
 20
184.052
 30
0.000000
  70
    32
  0
VERTEX
  8
0
  5
8000022D
 10
93.9185
 20
184.277
 30
0.000000
  70
    32
  0
VERTEX
  8
0
  5
8000022E
 10
94.0648
 20
184.502
 30
0.000000
  70
    32
  0
VERTEX
  8
0
  5
8000022F
 10
94.2100
 20
184.729
 30
0.000000
  70
    32
  0
VERTEX
  8
0
  5
80000230
 10
94.3538
 20
184.956
 30
0.000000
  70
    32
  0
VERTEX
  8
0
  5
80000231
 10
94.4963
 20
185.184
 30
0.000000
  70
    32
  0
VERTEX
  8
0
  5
80000232
 10
94.6375
 20
185.412
 30
0.000000
  70
    32
  0
VERTEX
  8
0
  5
80000233
 10
94.7773
 20
185.642
 30
0.000000
  70
    32
  0
VERTEX
  8
0
  5
80000234
 10
94.9157
 20
185.872
 30
0.000000
  70
    32
  0
VERTEX
  8
0
  5
80000235
 10
95.0527
 20
186.103
 30
0.000000
  70
    32
  0
VERTEX
  8
0
  5
80000236
 10
95.1882
 20
186.335
 30
0.000000
  70
    32
  0
VERTEX
  8
0
  5
80000237
 10
95.3224
 20
186.568
 30
0.000000
  70
    32
  0
VERTEX
  8
0
  5
80000238
 10
95.4552
 20
186.802
 30
0.000000
  70
    32
  0
VERTEX
  8
0
  5
80000239
 10
95.5866
 20
187.036
 30
0.000000
  70
    32
  0
VERTEX
  8
0
  5
8000023A
 10
95.7167
 20
187.272
 30
0.000000
  70
    32
  0
VERTEX
  8
0
  5
8000023B
 10
95.8454
 20
187.507
 30
0.000000
  70
    32
  0
VERTEX
  8
0
  5
8000023C
 10
95.9730
 20
187.744
 30
0.000000
  70
    32
  0
VERTEX
  8
0
  5
8000023D
 10
96.0992
 20
187.982
 30
0.000000
  70
    32
  0
VERTEX
  8
0
  5
8000023E
 10
96.2242
 20
188.220
 30
0.000000
  70
    32
  0
VERTEX
  8
0
  5
8000023F
 10
96.3481
 20
188.459
 30
0.000000
  70
    32
  0
VERTEX
  8
0
  5
80000240
 10
96.4707
 20
188.698
 30
0.000000
  70
    32
  0
VERTEX
  8
0
  5
80000241
 10
96.5923
 20
188.939
 30
0.000000
  70
    32
  0
VERTEX
  8
0
  5
80000242
 10
96.7127
 20
189.180
 30
0.000000
  70
    32
  0
VERTEX
  8
0
  5
80000243
 10
96.8320
 20
189.421
 30
0.000000
  70
    32
  0
VERTEX
  8
0
  5
80000244
 10
96.9503
 20
189.663
 30
0.000000
  70
    32
  0
VERTEX
  8
0
  5
80000245
 10
97.0675
 20
189.906
 30
0.000000
  70
    32
  0
VERTEX
  8
0
  5
80000246
 10
97.1837
 20
190.149
 30
0.000000
  70
    32
  0
VERTEX
  8
0
  5
80000247
 10
97.2990
 20
190.393
 30
0.000000
  70
    32
  0
VERTEX
  8
0
  5
80000248
 10
97.4132
 20
190.638
 30
0.000000
  70
    32
  0
VERTEX
  8
0
  5
80000249
 10
97.5266
 20
190.883
 30
0.000000
  70
    32
  0
VERTEX
  8
0
  5
8000024A
 10
97.6391
 20
191.128
 30
0.000000
  70
    32
  0
VERTEX
  8
0
  5
8000024B
 10
97.7507
 20
191.375
 30
0.000000
  70
    32
  0
VERTEX
  8
0
  5
8000024C
 10
97.8614
 20
191.621
 30
0.000000
  70
    32
  0
VERTEX
  8
0
  5
8000024D
 10
97.9714
 20
191.868
 30
0.000000
  70
    32
  0
VERTEX
  8
0
  5
8000024E
 10
98.0805
 20
192.116
 30
0.000000
  70
    32
  0
VERTEX
  8
0
  5
8000024F
 10
98.1889
 20
192.364
 30
0.000000
  70
    32
  0
VERTEX
  8
0
  5
80000250
 10
98.2965
 20
192.612
 30
0.000000
  70
    32
  0
VERTEX
  8
0
  5
80000251
 10
98.4034
 20
192.861
 30
0.000000
  70
    32
  0
VERTEX
  8
0
  5
80000252
 10
98.5097
 20
193.110
 30
0.000000
  70
    32
  0
VERTEX
  8
0
  5
80000253
 10
98.6153
 20
193.360
 30
0.000000
  70
    32
  0
VERTEX
  8
0
  5
80000254
 10
98.7203
 20
193.610
 30
0.000000
  70
    32
  0
VERTEX
  8
0
  5
80000255
 10
98.8246
 20
193.860
 30
0.000000
  70
    32
  0
VERTEX
  8
0
  5
80000256
 10
98.9284
 20
194.111
 30
0.000000
  70
    32
  0
VERTEX
  8
0
  5
80000257
 10
99.0316
 20
194.362
 30
0.000000
  70
    32
  0
VERTEX
  8
0
  5
80000258
 10
99.1344
 20
194.613
 30
0.000000
  70
    32
  0
VERTEX
  8
0
  5
80000259
 10
99.2366
 20
194.865
 30
0.000000
  70
    32
  0
VERTEX
  8
0
  5
8000025A
 10
99.3384
 20
195.117
 30
0.000000
  70
    32
  0
VERTEX
  8
0
  5
8000025B
 10
99.4397
 20
195.369
 30
0.000000
  70
    32
  0
VERTEX
  8
0
  5
8000025C
 10
99.5406
 20
195.621
 30
0.000000
  70
    32
  0
VERTEX
  8
0
  5
8000025D
 10
99.6411
 20
195.874
 30
0.000000
  70
    32
  0
VERTEX
  8
0
  5
8000025E
 10
99.7413
 20
196.127
 30
0.000000
  70
    32
  0
VERTEX
  8
0
  5
8000025F
 10
99.8411
 20
196.380
 30
0.000000
  70
    32
  0
VERTEX
  8
0
  5
80000260
 10
99.9406
 20
196.633
 30
0.000000
  70
    32
  0
VERTEX
  8
0
  5
80000261
 10
100.040
 20
196.886
 30
0.000000
  70
    32
  0
VERTEX
  8
0
  5
80000262
 10
100.139
 20
197.140
 30
0.000000
  70
    32
  0
VERTEX
  8
0
  5
80000263
 10
100.238
 20
197.393
 30
0.000000
  70
    32
  0
VERTEX
  8
0
  5
80000264
 10
100.336
 20
197.647
 30
0.000000
  70
    32
  0
VERTEX
  8
0
  5
80000265
 10
100.435
 20
197.901
 30
0.000000
  70
    32
  0
VERTEX
  8
0
  5
80000266
 10
100.533
 20
198.155
 30
0.000000
  70
    32
  0
VERTEX
  8
0
  5
80000267
 10
100.631
 20
198.409
 30
0.000000
  70
    32
  0
VERTEX
  8
0
  5
80000268
 10
100.729
 20
198.663
 30
0.000000
  70
    32
  0
VERTEX
  8
0
  5
80000269
 10
100.827
 20
198.917
 30
0.000000
  70
    32
  0
VERTEX
  8
0
  5
8000026A
 10
100.925
 20
199.171
 30
0.000000
  70
    32
  0
VERTEX
  8
0
  5
8000026B
 10
101.023
 20
199.425
 30
0.000000
  70
    32
  0
VERTEX
  8
0
  5
8000026C
 10
101.121
 20
199.679
 30
0.000000
  70
    32
  0
VERTEX
  8
0
  5
8000026D
 10
101.219
 20
199.933
 30
0.000000
  70
    32
  0
VERTEX
  8
0
  5
8000026E
 10
101.317
 20
200.187
 30
0.000000
  70
    32
  0
VERTEX
  8
0
  5
8000026F
 10
101.415
 20
200.441
 30
0.000000
  70
    32
  0
VERTEX
  8
0
  5
80000270
 10
101.514
 20
200.695
 30
0.000000
  70
    32
  0
VERTEX
  8
0
  5
80000271
 10
101.612
 20
200.949
 30
0.000000
  70
    32
  0
VERTEX
  8
0
  5
80000272
 10
101.711
 20
201.203
 30
0.000000
  70
    32
  0
VERTEX
  8
0
  5
80000273
 10
101.810
 20
201.456
 30
0.000000
  70
    32
  0
VERTEX
  8
0
  5
80000274
 10
101.909
 20
201.710
 30
0.000000
  70
    32
  0
VERTEX
  8
0
  5
80000275
 10
102.008
 20
201.963
 30
0.000000
  70
    32
  0
VERTEX
  8
0
  5
80000276
 10
102.108
 20
202.216
 30
0.000000
  70
    32
  0
VERTEX
  8
0
  5
80000277
 10
102.208
 20
202.469
 30
0.000000
  70
    32
  0
VERTEX
  8
0
  5
80000278
 10
102.308
 20
202.722
 30
0.000000
  70
    32
  0
VERTEX
  8
0
  5
80000279
 10
102.409
 20
202.974
 30
0.000000
  70
    32
  0
VERTEX
  8
0
  5
8000027A
 10
102.510
 20
203.227
 30
0.000000
  70
    32
  0
VERTEX
  8
0
  5
8000027B
 10
102.611
 20
203.479
 30
0.000000
  70
    32
  0
VERTEX
  8
0
  5
8000027C
 10
102.713
 20
203.730
 30
0.000000
  70
    32
  0
VERTEX
  8
0
  5
8000027D
 10
102.816
 20
203.982
 30
0.000000
  70
    32
  0
VERTEX
  8
0
  5
8000027E
 10
102.919
 20
204.233
 30
0.000000
  70
    32
  0
VERTEX
  8
0
  5
8000027F
 10
103.022
 20
204.484
 30
0.000000
  70
    32
  0
VERTEX
  8
0
  5
80000280
 10
103.126
 20
204.735
 30
0.000000
  70
    32
  0
VERTEX
  8
0
  5
80000281
 10
103.231
 20
204.985
 30
0.000000
  70
    32
  0
VERTEX
  8
0
  5
80000282
 10
103.336
 20
205.235
 30
0.000000
  70
    32
  0
VERTEX
  8
0
  5
80000283
 10
103.442
 20
205.484
 30
0.000000
  70
    32
  0
VERTEX
  8
0
  5
80000284
 10
103.548
 20
205.733
 30
0.000000
  70
    32
  0
VERTEX
  8
0
  5
80000285
 10
103.656
 20
205.982
 30
0.000000
  70
    32
  0
SEQEND
  8
0
  5
80000286
  0
ENDBLK
  5
FFBBDAE469BC285A
  8
0
  0
BLOCK
  8
0
  2
*U28
 70
     1
 10
0.0
 20
0.0
 30
0.0
  3
*U28
  1

  0
SOLID
  5
FFBBDAE469BC285C
  8
0
  6
CONTINUOUS
 10
69.838963859458133
 20
155.19148179715091
 30
0.0
 11
66.815747259513955
 21
153.6815432301087
 31
0.0
 12
69.185836940420415
 22
156.09036617729271
 32
0.0
 13
69.185836940420415
 23
156.09036617729271
 33
0.0
  0
POLYLINE
  8
0
  5
80000287
  66
     1
 10
0.000000
 20
0.000000
 30
0.000000
  70
     8
  0
VERTEX
  8
0
  5
80000288
 10
69.5124
 20
155.641
 30
0.000000
  70
    32
  0
VERTEX
  8
0
  5
80000289
 10
69.7461
 20
155.810
 30
0.000000
  70
    32
  0
VERTEX
  8
0
  5
8000028A
 10
69.9807
 20
155.978
 30
0.000000
  70
    32
  0
VERTEX
  8
0
  5
8000028B
 10
70.2162
 20
156.146
 30
0.000000
  70
    32
  0
VERTEX
  8
0
  5
8000028C
 10
70.4526
 20
156.312
 30
0.000000
  70
    32
  0
VERTEX
  8
0
  5
8000028D
 10
70.6897
 20
156.478
 30
0.000000
  70
    32
  0
VERTEX
  8
0
  5
8000028E
 10
70.9277
 20
156.643
 30
0.000000
  70
    32
  0
VERTEX
  8
0
  5
8000028F
 10
71.1664
 20
156.807
 30
0.000000
  70
    32
  0
VERTEX
  8
0
  5
80000290
 10
71.4059
 20
156.971
 30
0.000000
  70
    32
  0
VERTEX
  8
0
  5
80000291
 10
71.6461
 20
157.133
 30
0.000000
  70
    32
  0
VERTEX
  8
0
  5
80000292
 10
71.8870
 20
157.296
 30
0.000000
  70
    32
  0
VERTEX
  8
0
  5
80000293
 10
72.1285
 20
157.457
 30
0.000000
  70
    32
  0
VERTEX
  8
0
  5
80000294
 10
72.3707
 20
157.618
 30
0.000000
  70
    32
  0
VERTEX
  8
0
  5
80000295
 10
72.6136
 20
157.778
 30
0.000000
  70
    32
  0
VERTEX
  8
0
  5
80000296
 10
72.8570
 20
157.938
 30
0.000000
  70
    32
  0
VERTEX
  8
0
  5
80000297
 10
73.1010
 20
158.097
 30
0.000000
  70
    32
  0
VERTEX
  8
0
  5
80000298
 10
73.3455
 20
158.256
 30
0.000000
  70
    32
  0
VERTEX
  8
0
  5
80000299
 10
73.5906
 20
158.414
 30
0.000000
  70
    32
  0
VERTEX
  8
0
  5
8000029A
 10
73.8362
 20
158.572
 30
0.000000
  70
    32
  0
VERTEX
  8
0
  5
8000029B
 10
74.0822
 20
158.729
 30
0.000000
  70
    32
  0
VERTEX
  8
0
  5
8000029C
 10
74.3287
 20
158.886
 30
0.000000
  70
    32
  0
VERTEX
  8
0
  5
8000029D
 10
74.5756
 20
159.042
 30
0.000000
  70
    32
  0
VERTEX
  8
0
  5
8000029E
 10
74.8229
 20
159.198
 30
0.000000
  70
    32
  0
VERTEX
  8
0
  5
8000029F
 10
75.0706
 20
159.354
 30
0.000000
  70
    32
  0
VERTEX
  8
0
  5
800002A0
 10
75.3186
 20
159.509
 30
0.000000
  70
    32
  0
VERTEX
  8
0
  5
800002A1
 10
75.5669
 20
159.664
 30
0.000000
  70
    32
  0
VERTEX
  8
0
  5
800002A2
 10
75.8156
 20
159.819
 30
0.000000
  70
    32
  0
VERTEX
  8
0
  5
800002A3
 10
76.0645
 20
159.973
 30
0.000000
  70
    32
  0
VERTEX
  8
0
  5
800002A4
 10
76.3137
 20
160.127
 30
0.000000
  70
    32
  0
VERTEX
  8
0
  5
800002A5
 10
76.5630
 20
160.281
 30
0.000000
  70
    32
  0
VERTEX
  8
0
  5
800002A6
 10
76.8126
 20
160.435
 30
0.000000
  70
    32
  0
VERTEX
  8
0
  5
800002A7
 10
77.0624
 20
160.589
 30
0.000000
  70
    32
  0
VERTEX
  8
0
  5
800002A8
 10
77.3123
 20
160.742
 30
0.000000
  70
    32
  0
VERTEX
  8
0
  5
800002A9
 10
77.5623
 20
160.896
 30
0.000000
  70
    32
  0
VERTEX
  8
0
  5
800002AA
 10
77.8124
 20
161.049
 30
0.000000
  70
    32
  0
VERTEX
  8
0
  5
800002AB
 10
78.0626
 20
161.202
 30
0.000000
  70
    32
  0
VERTEX
  8
0
  5
800002AC
 10
78.3129
 20
161.355
 30
0.000000
  70
    32
  0
VERTEX
  8
0
  5
800002AD
 10
78.5631
 20
161.509
 30
0.000000
  70
    32
  0
VERTEX
  8
0
  5
800002AE
 10
78.8134
 20
161.662
 30
0.000000
  70
    32
  0
VERTEX
  8
0
  5
800002AF
 10
79.0636
 20
161.815
 30
0.000000
  70
    32
  0
VERTEX
  8
0
  5
800002B0
 10
79.3138
 20
161.968
 30
0.000000
  70
    32
  0
VERTEX
  8
0
  5
800002B1
 10
79.5639
 20
162.121
 30
0.000000
  70
    32
  0
VERTEX
  8
0
  5
800002B2
 10
79.8139
 20
162.275
 30
0.000000
  70
    32
  0
VERTEX
  8
0
  5
800002B3
 10
80.0638
 20
162.428
 30
0.000000
  70
    32
  0
VERTEX
  8
0
  5
800002B4
 10
80.3135
 20
162.582
 30
0.000000
  70
    32
  0
VERTEX
  8
0
  5
800002B5
 10
80.5630
 20
162.736
 30
0.000000
  70
    32
  0
VERTEX
  8
0
  5
800002B6
 10
80.8124
 20
162.890
 30
0.000000
  70
    32
  0
VERTEX
  8
0
  5
800002B7
 10
81.0615
 20
163.044
 30
0.000000
  70
    32
  0
VERTEX
  8
0
  5
800002B8
 10
81.3103
 20
163.199
 30
0.000000
  70
    32
  0
VERTEX
  8
0
  5
800002B9
 10
81.5589
 20
163.354
 30
0.000000
  70
    32
  0
VERTEX
  8
0
  5
800002BA
 10
81.8072
 20
163.509
 30
0.000000
  70
    32
  0
VERTEX
  8
0
  5
800002BB
 10
82.0551
 20
163.664
 30
0.000000
  70
    32
  0
VERTEX
  8
0
  5
800002BC
 10
82.3027
 20
163.820
 30
0.000000
  70
    32
  0
VERTEX
  8
0
  5
800002BD
 10
82.5500
 20
163.976
 30
0.000000
  70
    32
  0
VERTEX
  8
0
  5
800002BE
 10
82.7968
 20
164.132
 30
0.000000
  70
    32
  0
VERTEX
  8
0
  5
800002BF
 10
83.0432
 20
164.289
 30
0.000000
  70
    32
  0
VERTEX
  8
0
  5
800002C0
 10
83.2891
 20
164.446
 30
0.000000
  70
    32
  0
VERTEX
  8
0
  5
800002C1
 10
83.5346
 20
164.604
 30
0.000000
  70
    32
  0
VERTEX
  8
0
  5
800002C2
 10
83.7795
 20
164.762
 30
0.000000
  70
    32
  0
VERTEX
  8
0
  5
800002C3
 10
84.0240
 20
164.921
 30
0.000000
  70
    32
  0
VERTEX
  8
0
  5
800002C4
 10
84.2679
 20
165.080
 30
0.000000
  70
    32
  0
VERTEX
  8
0
  5
800002C5
 10
84.5112
 20
165.240
 30
0.000000
  70
    32
  0
VERTEX
  8
0
  5
800002C6
 10
84.7539
 20
165.401
 30
0.000000
  70
    32
  0
VERTEX
  8
0
  5
800002C7
 10
84.9959
 20
165.562
 30
0.000000
  70
    32
  0
VERTEX
  8
0
  5
800002C8
 10
85.2374
 20
165.723
 30
0.000000
  70
    32
  0
VERTEX
  8
0
  5
800002C9
 10
85.4781
 20
165.886
 30
0.000000
  70
    32
  0
VERTEX
  8
0
  5
800002CA
 10
85.7181
 20
166.049
 30
0.000000
  70
    32
  0
VERTEX
  8
0
  5
800002CB
 10
85.9575
 20
166.212
 30
0.000000
  70
    32
  0
VERTEX
  8
0
  5
800002CC
 10
86.1960
 20
166.377
 30
0.000000
  70
    32
  0
VERTEX
  8
0
  5
800002CD
 10
86.4338
 20
166.542
 30
0.000000
  70
    32
  0
VERTEX
  8
0
  5
800002CE
 10
86.6708
 20
166.708
 30
0.000000
  70
    32
  0
VERTEX
  8
0
  5
800002CF
 10
86.9070
 20
166.874
 30
0.000000
  70
    32
  0
VERTEX
  8
0
  5
800002D0
 10
87.1423
 20
167.042
 30
0.000000
  70
    32
  0
VERTEX
  8
0
  5
800002D1
 10
87.3767
 20
167.210
 30
0.000000
  70
    32
  0
VERTEX
  8
0
  5
800002D2
 10
87.6102
 20
167.380
 30
0.000000
  70
    32
  0
VERTEX
  8
0
  5
800002D3
 10
87.8428
 20
167.550
 30
0.000000
  70
    32
  0
VERTEX
  8
0
  5
800002D4
 10
88.0745
 20
167.721
 30
0.000000
  70
    32
  0
VERTEX
  8
0
  5
800002D5
 10
88.3051
 20
167.893
 30
0.000000
  70
    32
  0
VERTEX
  8
0
  5
800002D6
 10
88.5348
 20
168.066
 30
0.000000
  70
    32
  0
VERTEX
  8
0
  5
800002D7
 10
88.7635
 20
168.240
 30
0.000000
  70
    32
  0
VERTEX
  8
0
  5
800002D8
 10
88.9910
 20
168.415
 30
0.000000
  70
    32
  0
VERTEX
  8
0
  5
800002D9
 10
89.2176
 20
168.591
 30
0.000000
  70
    32
  0
VERTEX
  8
0
  5
800002DA
 10
89.4430
 20
168.768
 30
0.000000
  70
    32
  0
VERTEX
  8
0
  5
800002DB
 10
89.6673
 20
168.946
 30
0.000000
  70
    32
  0
VERTEX
  8
0
  5
800002DC
 10
89.8904
 20
169.125
 30
0.000000
  70
    32
  0
VERTEX
  8
0
  5
800002DD
 10
90.1123
 20
169.305
 30
0.000000
  70
    32
  0
VERTEX
  8
0
  5
800002DE
 10
90.3331
 20
169.487
 30
0.000000
  70
    32
  0
VERTEX
  8
0
  5
800002DF
 10
90.5526
 20
169.669
 30
0.000000
  70
    32
  0
VERTEX
  8
0
  5
800002E0
 10
90.7709
 20
169.853
 30
0.000000
  70
    32
  0
VERTEX
  8
0
  5
800002E1
 10
90.9879
 20
170.038
 30
0.000000
  70
    32
  0
VERTEX
  8
0
  5
800002E2
 10
91.2036
 20
170.225
 30
0.000000
  70
    32
  0
VERTEX
  8
0
  5
800002E3
 10
91.4180
 20
170.412
 30
0.000000
  70
    32
  0
VERTEX
  8
0
  5
800002E4
 10
91.6310
 20
170.601
 30
0.000000
  70
    32
  0
VERTEX
  8
0
  5
800002E5
 10
91.8426
 20
170.792
 30
0.000000
  70
    32
  0
VERTEX
  8
0
  5
800002E6
 10
92.0529
 20
170.983
 30
0.000000
  70
    32
  0
VERTEX
  8
0
  5
800002E7
 10
92.2617
 20
171.176
 30
0.000000
  70
    32
  0
VERTEX
  8
0
  5
800002E8
 10
92.4691
 20
171.371
 30
0.000000
  70
    32
  0
VERTEX
  8
0
  5
800002E9
 10
92.6750
 20
171.566
 30
0.000000
  70
    32
  0
VERTEX
  8
0
  5
800002EA
 10
92.8793
 20
171.764
 30
0.000000
  70
    32
  0
VERTEX
  8
0
  5
800002EB
 10
93.0822
 20
171.962
 30
0.000000
  70
    32
  0
VERTEX
  8
0
  5
800002EC
 10
93.2835
 20
172.162
 30
0.000000
  70
    32
  0
VERTEX
  8
0
  5
800002ED
 10
93.4832
 20
172.364
 30
0.000000
  70
    32
  0
VERTEX
  8
0
  5
800002EE
 10
93.6814
 20
172.567
 30
0.000000
  70
    32
  0
VERTEX
  8
0
  5
800002EF
 10
93.8779
 20
172.772
 30
0.000000
  70
    32
  0
VERTEX
  8
0
  5
800002F0
 10
94.0727
 20
172.979
 30
0.000000
  70
    32
  0
VERTEX
  8
0
  5
800002F1
 10
94.2659
 20
173.187
 30
0.000000
  70
    32
  0
VERTEX
  8
0
  5
800002F2
 10
94.4574
 20
173.396
 30
0.000000
  70
    32
  0
VERTEX
  8
0
  5
800002F3
 10
94.6471
 20
173.608
 30
0.000000
  70
    32
  0
VERTEX
  8
0
  5
800002F4
 10
94.8351
 20
173.820
 30
0.000000
  70
    32
  0
VERTEX
  8
0
  5
800002F5
 10
95.0213
 20
174.035
 30
0.000000
  70
    32
  0
VERTEX
  8
0
  5
800002F6
 10
95.2058
 20
174.252
 30
0.000000
  70
    32
  0
VERTEX
  8
0
  5
800002F7
 10
95.3884
 20
174.470
 30
0.000000
  70
    32
  0
VERTEX
  8
0
  5
800002F8
 10
95.5691
 20
174.690
 30
0.000000
  70
    32
  0
VERTEX
  8
0
  5
800002F9
 10
95.7481
 20
174.911
 30
0.000000
  70
    32
  0
VERTEX
  8
0
  5
800002FA
 10
95.9254
 20
175.135
 30
0.000000
  70
    32
  0
VERTEX
  8
0
  5
800002FB
 10
96.1011
 20
175.359
 30
0.000000
  70
    32
  0
VERTEX
  8
0
  5
800002FC
 10
96.2751
 20
175.586
 30
0.000000
  70
    32
  0
VERTEX
  8
0
  5
800002FD
 10
96.4476
 20
175.814
 30
0.000000
  70
    32
  0
VERTEX
  8
0
  5
800002FE
 10
96.6187
 20
176.043
 30
0.000000
  70
    32
  0
VERTEX
  8
0
  5
800002FF
 10
96.7883
 20
176.274
 30
0.000000
  70
    32
  0
VERTEX
  8
0
  5
80000300
 10
96.9565
 20
176.505
 30
0.000000
  70
    32
  0
VERTEX
  8
0
  5
80000301
 10
97.1234
 20
176.739
 30
0.000000
  70
    32
  0
VERTEX
  8
0
  5
80000302
 10
97.2891
 20
176.973
 30
0.000000
  70
    32
  0
VERTEX
  8
0
  5
80000303
 10
97.4536
 20
177.209
 30
0.000000
  70
    32
  0
VERTEX
  8
0
  5
80000304
 10
97.6169
 20
177.445
 30
0.000000
  70
    32
  0
VERTEX
  8
0
  5
80000305
 10
97.7791
 20
177.683
 30
0.000000
  70
    32
  0
VERTEX
  8
0
  5
80000306
 10
97.9404
 20
177.922
 30
0.000000
  70
    32
  0
VERTEX
  8
0
  5
80000307
 10
98.1006
 20
178.161
 30
0.000000
  70
    32
  0
VERTEX
  8
0
  5
80000308
 10
98.2600
 20
178.402
 30
0.000000
  70
    32
  0
VERTEX
  8
0
  5
80000309
 10
98.4185
 20
178.643
 30
0.000000
  70
    32
  0
VERTEX
  8
0
  5
8000030A
 10
98.5762
 20
178.885
 30
0.000000
  70
    32
  0
VERTEX
  8
0
  5
8000030B
 10
98.7332
 20
179.128
 30
0.000000
  70
    32
  0
VERTEX
  8
0
  5
8000030C
 10
98.8894
 20
179.371
 30
0.000000
  70
    32
  0
VERTEX
  8
0
  5
8000030D
 10
99.0451
 20
179.615
 30
0.000000
  70
    32
  0
VERTEX
  8
0
  5
8000030E
 10
99.2002
 20
179.860
 30
0.000000
  70
    32
  0
VERTEX
  8
0
  5
8000030F
 10
99.3548
 20
180.105
 30
0.000000
  70
    32
  0
VERTEX
  8
0
  5
80000310
 10
99.5089
 20
180.351
 30
0.000000
  70
    32
  0
VERTEX
  8
0
  5
80000311
 10
99.6627
 20
180.596
 30
0.000000
  70
    32
  0
VERTEX
  8
0
  5
80000312
 10
99.8161
 20
180.843
 30
0.000000
  70
    32
  0
VERTEX
  8
0
  5
80000313
 10
99.9692
 20
181.089
 30
0.000000
  70
    32
  0
VERTEX
  8
0
  5
80000314
 10
100.122
 20
181.336
 30
0.000000
  70
    32
  0
VERTEX
  8
0
  5
80000315
 10
100.275
 20
181.583
 30
0.000000
  70
    32
  0
VERTEX
  8
0
  5
80000316
 10
100.427
 20
181.830
 30
0.000000
  70
    32
  0
VERTEX
  8
0
  5
80000317
 10
100.580
 20
182.077
 30
0.000000
  70
    32
  0
VERTEX
  8
0
  5
80000318
 10
100.733
 20
182.324
 30
0.000000
  70
    32
  0
VERTEX
  8
0
  5
80000319
 10
100.885
 20
182.571
 30
0.000000
  70
    32
  0
VERTEX
  8
0
  5
8000031A
 10
101.038
 20
182.817
 30
0.000000
  70
    32
  0
VERTEX
  8
0
  5
8000031B
 10
101.191
 20
183.064
 30
0.000000
  70
    32
  0
VERTEX
  8
0
  5
8000031C
 10
101.344
 20
183.310
 30
0.000000
  70
    32
  0
VERTEX
  8
0
  5
8000031D
 10
101.498
 20
183.557
 30
0.000000
  70
    32
  0
VERTEX
  8
0
  5
8000031E
 10
101.651
 20
183.802
 30
0.000000
  70
    32
  0
VERTEX
  8
0
  5
8000031F
 10
101.806
 20
184.048
 30
0.000000
  70
    32
  0
VERTEX
  8
0
  5
80000320
 10
101.960
 20
184.293
 30
0.000000
  70
    32
  0
VERTEX
  8
0
  5
80000321
 10
102.116
 20
184.537
 30
0.000000
  70
    32
  0
VERTEX
  8
0
  5
80000322
 10
102.271
 20
184.781
 30
0.000000
  70
    32
  0
VERTEX
  8
0
  5
80000323
 10
102.428
 20
185.024
 30
0.000000
  70
    32
  0
VERTEX
  8
0
  5
80000324
 10
102.585
 20
185.267
 30
0.000000
  70
    32
  0
VERTEX
  8
0
  5
80000325
 10
102.743
 20
185.509
 30
0.000000
  70
    32
  0
VERTEX
  8
0
  5
80000326
 10
102.901
 20
185.750
 30
0.000000
  70
    32
  0
VERTEX
  8
0
  5
80000327
 10
103.061
 20
185.990
 30
0.000000
  70
    32
  0
SEQEND
  8
0
  5
80000328
  0
ENDBLK
  5
FFBBDAE469BC285F
  8
0
  0
BLOCK
  8
0
  2
*U29
 70
     1
 10
0.0
 20
0.0
 30
0.0
  3
*U29
  1

  0
SOLID
  5
FFBBDAE469BC2861
  8
0
  6
CONTINUOUS
 10
78.061173966134504
 20
144.35152394388189
 30
0.0
 11
75.000000000003638
 21
142.92010260985671
 31
0.0
 12
77.431460346119266
 22
145.26696299592291
 32
0.0
 13
77.431460346119266
 23
145.26696299592291
 33
0.0
  0
POLYLINE
  8
0
  5
80000329
  66
     1
 10
0.000000
 20
0.000000
 30
0.000000
  70
     8
  0
VERTEX
  8
0
  5
8000032A
 10
77.7463
 20
144.809
 30
0.000000
  70
    32
  0
VERTEX
  8
0
  5
8000032B
 10
77.8948
 20
144.911
 30
0.000000
  70
    32
  0
VERTEX
  8
0
  5
8000032C
 10
78.0433
 20
145.014
 30
0.000000
  70
    32
  0
VERTEX
  8
0
  5
8000032D
 10
78.1917
 20
145.116
 30
0.000000
  70
    32
  0
VERTEX
  8
0
  5
8000032E
 10
78.3400
 20
145.219
 30
0.000000
  70
    32
  0
VERTEX
  8
0
  5
8000032F
 10
78.4883
 20
145.321
 30
0.000000
  70
    32
  0
VERTEX
  8
0
  5
80000330
 10
78.6366
 20
145.424
 30
0.000000
  70
    32
  0
VERTEX
  8
0
  5
80000331
 10
78.7848
 20
145.526
 30
0.000000
  70
    32
  0
VERTEX
  8
0
  5
80000332
 10
78.9330
 20
145.629
 30
0.000000
  70
    32
  0
VERTEX
  8
0
  5
80000333
 10
79.0811
 20
145.732
 30
0.000000
  70
    32
  0
VERTEX
  8
0
  5
80000334
 10
79.2292
 20
145.834
 30
0.000000
  70
    32
  0
VERTEX
  8
0
  5
80000335
 10
79.3773
 20
145.937
 30
0.000000
  70
    32
  0
VERTEX
  8
0
  5
80000336
 10
79.5253
 20
146.040
 30
0.000000
  70
    32
  0
VERTEX
  8
0
  5
80000337
 10
79.6733
 20
146.143
 30
0.000000
  70
    32
  0
VERTEX
  8
0
  5
80000338
 10
79.8213
 20
146.246
 30
0.000000
  70
    32
  0
VERTEX
  8
0
  5
80000339
 10
79.9692
 20
146.349
 30
0.000000
  70
    32
  0
VERTEX
  8
0
  5
8000033A
 10
80.1172
 20
146.452
 30
0.000000
  70
    32
  0
VERTEX
  8
0
  5
8000033B
 10
80.2650
 20
146.555
 30
0.000000
  70
    32
  0
VERTEX
  8
0
  5
8000033C
 10
80.4129
 20
146.659
 30
0.000000
  70
    32
  0
VERTEX
  8
0
  5
8000033D
 10
80.5607
 20
146.762
 30
0.000000
  70
    32
  0
VERTEX
  8
0
  5
8000033E
 10
80.7085
 20
146.865
 30
0.000000
  70
    32
  0
VERTEX
  8
0
  5
8000033F
 10
80.8563
 20
146.968
 30
0.000000
  70
    32
  0
VERTEX
  8
0
  5
80000340
 10
81.0041
 20
147.072
 30
0.000000
  70
    32
  0
VERTEX
  8
0
  5
80000341
 10
81.1518
 20
147.175
 30
0.000000
  70
    32
  0
VERTEX
  8
0
  5
80000342
 10
81.2995
 20
147.278
 30
0.000000
  70
    32
  0
VERTEX
  8
0
  5
80000343
 10
81.4472
 20
147.382
 30
0.000000
  70
    32
  0
VERTEX
  8
0
  5
80000344
 10
81.5949
 20
147.485
 30
0.000000
  70
    32
  0
VERTEX
  8
0
  5
80000345
 10
81.7426
 20
147.589
 30
0.000000
  70
    32
  0
VERTEX
  8
0
  5
80000346
 10
81.8903
 20
147.692
 30
0.000000
  70
    32
  0
VERTEX
  8
0
  5
80000347
 10
82.0379
 20
147.796
 30
0.000000
  70
    32
  0
VERTEX
  8
0
  5
80000348
 10
82.1856
 20
147.899
 30
0.000000
  70
    32
  0
VERTEX
  8
0
  5
80000349
 10
82.3332
 20
148.003
 30
0.000000
  70
    32
  0
VERTEX
  8
0
  5
8000034A
 10
82.4808
 20
148.106
 30
0.000000
  70
    32
  0
VERTEX
  8
0
  5
8000034B
 10
82.6285
 20
148.210
 30
0.000000
  70
    32
  0
VERTEX
  8
0
  5
8000034C
 10
82.7761
 20
148.313
 30
0.000000
  70
    32
  0
VERTEX
  8
0
  5
8000034D
 10
82.9237
 20
148.417
 30
0.000000
  70
    32
  0
VERTEX
  8
0
  5
8000034E
 10
83.0713
 20
148.520
 30
0.000000
  70
    32
  0
VERTEX
  8
0
  5
8000034F
 10
83.2189
 20
148.624
 30
0.000000
  70
    32
  0
VERTEX
  8
0
  5
80000350
 10
83.3666
 20
148.727
 30
0.000000
  70
    32
  0
VERTEX
  8
0
  5
80000351
 10
83.5142
 20
148.831
 30
0.000000
  70
    32
  0
VERTEX
  8
0
  5
80000352
 10
83.6618
 20
148.935
 30
0.000000
  70
    32
  0
VERTEX
  8
0
  5
80000353
 10
83.8095
 20
149.038
 30
0.000000
  70
    32
  0
VERTEX
  8
0
  5
80000354
 10
83.9571
 20
149.142
 30
0.000000
  70
    32
  0
VERTEX
  8
0
  5
80000355
 10
84.1048
 20
149.245
 30
0.000000
  70
    32
  0
VERTEX
  8
0
  5
80000356
 10
84.2524
 20
149.348
 30
0.000000
  70
    32
  0
VERTEX
  8
0
  5
80000357
 10
84.4001
 20
149.452
 30
0.000000
  70
    32
  0
VERTEX
  8
0
  5
80000358
 10
84.5478
 20
149.555
 30
0.000000
  70
    32
  0
VERTEX
  8
0
  5
80000359
 10
84.6955
 20
149.659
 30
0.000000
  70
    32
  0
VERTEX
  8
0
  5
8000035A
 10
84.8432
 20
149.762
 30
0.000000
  70
    32
  0
VERTEX
  8
0
  5
8000035B
 10
84.9910
 20
149.865
 30
0.000000
  70
    32
  0
VERTEX
  8
0
  5
8000035C
 10
85.1387
 20
149.969
 30
0.000000
  70
    32
  0
VERTEX
  8
0
  5
8000035D
 10
85.2865
 20
150.072
 30
0.000000
  70
    32
  0
VERTEX
  8
0
  5
8000035E
 10
85.4343
 20
150.175
 30
0.000000
  70
    32
  0
VERTEX
  8
0
  5
8000035F
 10
85.5822
 20
150.279
 30
0.000000
  70
    32
  0
VERTEX
  8
0
  5
80000360
 10
85.7300
 20
150.382
 30
0.000000
  70
    32
  0
VERTEX
  8
0
  5
80000361
 10
85.8779
 20
150.485
 30
0.000000
  70
    32
  0
VERTEX
  8
0
  5
80000362
 10
86.0258
 20
150.588
 30
0.000000
  70
    32
  0
VERTEX
  8
0
  5
80000363
 10
86.1737
 20
150.691
 30
0.000000
  70
    32
  0
VERTEX
  8
0
  5
80000364
 10
86.3217
 20
150.794
 30
0.000000
  70
    32
  0
VERTEX
  8
0
  5
80000365
 10
86.4697
 20
150.897
 30
0.000000
  70
    32
  0
VERTEX
  8
0
  5
80000366
 10
86.6178
 20
151.000
 30
0.000000
  70
    32
  0
VERTEX
  8
0
  5
80000367
 10
86.7658
 20
151.103
 30
0.000000
  70
    32
  0
VERTEX
  8
0
  5
80000368
 10
86.9139
 20
151.206
 30
0.000000
  70
    32
  0
VERTEX
  8
0
  5
80000369
 10
87.0621
 20
151.308
 30
0.000000
  70
    32
  0
VERTEX
  8
0
  5
8000036A
 10
87.2103
 20
151.411
 30
0.000000
  70
    32
  0
VERTEX
  8
0
  5
8000036B
 10
87.3585
 20
151.514
 30
0.000000
  70
    32
  0
VERTEX
  8
0
  5
8000036C
 10
87.5068
 20
151.616
 30
0.000000
  70
    32
  0
VERTEX
  8
0
  5
8000036D
 10
87.6551
 20
151.719
 30
0.000000
  70
    32
  0
VERTEX
  8
0
  5
8000036E
 10
87.8034
 20
151.821
 30
0.000000
  70
    32
  0
VERTEX
  8
0
  5
8000036F
 10
87.9518
 20
151.923
 30
0.000000
  70
    32
  0
VERTEX
  8
0
  5
80000370
 10
88.1003
 20
152.026
 30
0.000000
  70
    32
  0
VERTEX
  8
0
  5
80000371
 10
88.2488
 20
152.128
 30
0.000000
  70
    32
  0
VERTEX
  8
0
  5
80000372
 10
88.3973
 20
152.230
 30
0.000000
  70
    32
  0
VERTEX
  8
0
  5
80000373
 10
88.5459
 20
152.332
 30
0.000000
  70
    32
  0
VERTEX
  8
0
  5
80000374
 10
88.6946
 20
152.434
 30
0.000000
  70
    32
  0
VERTEX
  8
0
  5
80000375
 10
88.8433
 20
152.536
 30
0.000000
  70
    32
  0
VERTEX
  8
0
  5
80000376
 10
88.9921
 20
152.638
 30
0.000000
  70
    32
  0
VERTEX
  8
0
  5
80000377
 10
89.1409
 20
152.739
 30
0.000000
  70
    32
  0
VERTEX
  8
0
  5
80000378
 10
89.2898
 20
152.841
 30
0.000000
  70
    32
  0
VERTEX
  8
0
  5
80000379
 10
89.4388
 20
152.943
 30
0.000000
  70
    32
  0
VERTEX
  8
0
  5
8000037A
 10
89.5878
 20
153.044
 30
0.000000
  70
    32
  0
VERTEX
  8
0
  5
8000037B
 10
89.7368
 20
153.145
 30
0.000000
  70
    32
  0
VERTEX
  8
0
  5
8000037C
 10
89.8860
 20
153.246
 30
0.000000
  70
    32
  0
VERTEX
  8
0
  5
8000037D
 10
90.0352
 20
153.348
 30
0.000000
  70
    32
  0
VERTEX
  8
0
  5
8000037E
 10
90.1845
 20
153.449
 30
0.000000
  70
    32
  0
VERTEX
  8
0
  5
8000037F
 10
90.3338
 20
153.550
 30
0.000000
  70
    32
  0
VERTEX
  8
0
  5
80000380
 10
90.4832
 20
153.650
 30
0.000000
  70
    32
  0
VERTEX
  8
0
  5
80000381
 10
90.6327
 20
153.751
 30
0.000000
  70
    32
  0
VERTEX
  8
0
  5
80000382
 10
90.7823
 20
153.852
 30
0.000000
  70
    32
  0
VERTEX
  8
0
  5
80000383
 10
90.9319
 20
153.952
 30
0.000000
  70
    32
  0
VERTEX
  8
0
  5
80000384
 10
91.0816
 20
154.052
 30
0.000000
  70
    32
  0
VERTEX
  8
0
  5
80000385
 10
91.2314
 20
154.153
 30
0.000000
  70
    32
  0
VERTEX
  8
0
  5
80000386
 10
91.3813
 20
154.253
 30
0.000000
  70
    32
  0
VERTEX
  8
0
  5
80000387
 10
91.5313
 20
154.353
 30
0.000000
  70
    32
  0
VERTEX
  8
0
  5
80000388
 10
91.6813
 20
154.453
 30
0.000000
  70
    32
  0
VERTEX
  8
0
  5
80000389
 10
91.8314
 20
154.552
 30
0.000000
  70
    32
  0
VERTEX
  8
0
  5
8000038A
 10
91.9816
 20
154.652
 30
0.000000
  70
    32
  0
VERTEX
  8
0
  5
8000038B
 10
92.1319
 20
154.751
 30
0.000000
  70
    32
  0
VERTEX
  8
0
  5
8000038C
 10
92.2823
 20
154.851
 30
0.000000
  70
    32
  0
VERTEX
  8
0
  5
8000038D
 10
92.4328
 20
154.950
 30
0.000000
  70
    32
  0
VERTEX
  8
0
  5
8000038E
 10
92.5834
 20
155.049
 30
0.000000
  70
    32
  0
VERTEX
  8
0
  5
8000038F
 10
92.7340
 20
155.148
 30
0.000000
  70
    32
  0
VERTEX
  8
0
  5
80000390
 10
92.8848
 20
155.247
 30
0.000000
  70
    32
  0
VERTEX
  8
0
  5
80000391
 10
93.0356
 20
155.345
 30
0.000000
  70
    32
  0
VERTEX
  8
0
  5
80000392
 10
93.1866
 20
155.444
 30
0.000000
  70
    32
  0
VERTEX
  8
0
  5
80000393
 10
93.3376
 20
155.542
 30
0.000000
  70
    32
  0
VERTEX
  8
0
  5
80000394
 10
93.4887
 20
155.640
 30
0.000000
  70
    32
  0
VERTEX
  8
0
  5
80000395
 10
93.6400
 20
155.738
 30
0.000000
  70
    32
  0
VERTEX
  8
0
  5
80000396
 10
93.7913
 20
155.836
 30
0.000000
  70
    32
  0
VERTEX
  8
0
  5
80000397
 10
93.9428
 20
155.934
 30
0.000000
  70
    32
  0
VERTEX
  8
0
  5
80000398
 10
94.0943
 20
156.032
 30
0.000000
  70
    32
  0
VERTEX
  8
0
  5
80000399
 10
94.2459
 20
156.129
 30
0.000000
  70
    32
  0
VERTEX
  8
0
  5
8000039A
 10
94.3976
 20
156.226
 30
0.000000
  70
    32
  0
VERTEX
  8
0
  5
8000039B
 10
94.5494
 20
156.324
 30
0.000000
  70
    32
  0
VERTEX
  8
0
  5
8000039C
 10
94.7013
 20
156.421
 30
0.000000
  70
    32
  0
VERTEX
  8
0
  5
8000039D
 10
94.8533
 20
156.518
 30
0.000000
  70
    32
  0
VERTEX
  8
0
  5
8000039E
 10
95.0053
 20
156.614
 30
0.000000
  70
    32
  0
VERTEX
  8
0
  5
8000039F
 10
95.1574
 20
156.711
 30
0.000000
  70
    32
  0
VERTEX
  8
0
  5
800003A0
 10
95.3096
 20
156.808
 30
0.000000
  70
    32
  0
VERTEX
  8
0
  5
800003A1
 10
95.4619
 20
156.904
 30
0.000000
  70
    32
  0
VERTEX
  8
0
  5
800003A2
 10
95.6142
 20
157.001
 30
0.000000
  70
    32
  0
VERTEX
  8
0
  5
800003A3
 10
95.7666
 20
157.097
 30
0.000000
  70
    32
  0
VERTEX
  8
0
  5
800003A4
 10
95.9190
 20
157.193
 30
0.000000
  70
    32
  0
VERTEX
  8
0
  5
800003A5
 10
96.0715
 20
157.289
 30
0.000000
  70
    32
  0
VERTEX
  8
0
  5
800003A6
 10
96.2240
 20
157.385
 30
0.000000
  70
    32
  0
VERTEX
  8
0
  5
800003A7
 10
96.3766
 20
157.481
 30
0.000000
  70
    32
  0
VERTEX
  8
0
  5
800003A8
 10
96.5293
 20
157.577
 30
0.000000
  70
    32
  0
VERTEX
  8
0
  5
800003A9
 10
96.6820
 20
157.673
 30
0.000000
  70
    32
  0
VERTEX
  8
0
  5
800003AA
 10
96.8347
 20
157.769
 30
0.000000
  70
    32
  0
VERTEX
  8
0
  5
800003AB
 10
96.9875
 20
157.865
 30
0.000000
  70
    32
  0
VERTEX
  8
0
  5
800003AC
 10
97.1403
 20
157.960
 30
0.000000
  70
    32
  0
VERTEX
  8
0
  5
800003AD
 10
97.2931
 20
158.056
 30
0.000000
  70
    32
  0
VERTEX
  8
0
  5
800003AE
 10
97.4460
 20
158.151
 30
0.000000
  70
    32
  0
VERTEX
  8
0
  5
800003AF
 10
97.5989
 20
158.247
 30
0.000000
  70
    32
  0
VERTEX
  8
0
  5
800003B0
 10
97.7518
 20
158.342
 30
0.000000
  70
    32
  0
VERTEX
  8
0
  5
800003B1
 10
97.9048
 20
158.438
 30
0.000000
  70
    32
  0
VERTEX
  8
0
  5
800003B2
 10
98.0577
 20
158.533
 30
0.000000
  70
    32
  0
VERTEX
  8
0
  5
800003B3
 10
98.2107
 20
158.629
 30
0.000000
  70
    32
  0
VERTEX
  8
0
  5
800003B4
 10
98.3637
 20
158.724
 30
0.000000
  70
    32
  0
VERTEX
  8
0
  5
800003B5
 10
98.5167
 20
158.819
 30
0.000000
  70
    32
  0
VERTEX
  8
0
  5
800003B6
 10
98.6697
 20
158.915
 30
0.000000
  70
    32
  0
VERTEX
  8
0
  5
800003B7
 10
98.8227
 20
159.010
 30
0.000000
  70
    32
  0
VERTEX
  8
0
  5
800003B8
 10
98.9758
 20
159.105
 30
0.000000
  70
    32
  0
VERTEX
  8
0
  5
800003B9
 10
99.1288
 20
159.201
 30
0.000000
  70
    32
  0
VERTEX
  8
0
  5
800003BA
 10
99.2818
 20
159.296
 30
0.000000
  70
    32
  0
VERTEX
  8
0
  5
800003BB
 10
99.4348
 20
159.391
 30
0.000000
  70
    32
  0
VERTEX
  8
0
  5
800003BC
 10
99.5878
 20
159.487
 30
0.000000
  70
    32
  0
VERTEX
  8
0
  5
800003BD
 10
99.7408
 20
159.582
 30
0.000000
  70
    32
  0
VERTEX
  8
0
  5
800003BE
 10
99.8937
 20
159.678
 30
0.000000
  70
    32
  0
VERTEX
  8
0
  5
800003BF
 10
100.047
 20
159.773
 30
0.000000
  70
    32
  0
VERTEX
  8
0
  5
800003C0
 10
100.200
 20
159.869
 30
0.000000
  70
    32
  0
VERTEX
  8
0
  5
800003C1
 10
100.352
 20
159.964
 30
0.000000
  70
    32
  0
VERTEX
  8
0
  5
800003C2
 10
100.505
 20
160.060
 30
0.000000
  70
    32
  0
VERTEX
  8
0
  5
800003C3
 10
100.658
 20
160.155
 30
0.000000
  70
    32
  0
VERTEX
  8
0
  5
800003C4
 10
100.811
 20
160.251
 30
0.000000
  70
    32
  0
VERTEX
  8
0
  5
800003C5
 10
100.964
 20
160.347
 30
0.000000
  70
    32
  0
VERTEX
  8
0
  5
800003C6
 10
101.116
 20
160.442
 30
0.000000
  70
    32
  0
VERTEX
  8
0
  5
800003C7
 10
101.269
 20
160.538
 30
0.000000
  70
    32
  0
VERTEX
  8
0
  5
800003C8
 10
101.422
 20
160.634
 30
0.000000
  70
    32
  0
VERTEX
  8
0
  5
800003C9
 10
101.574
 20
160.730
 30
0.000000
  70
    32
  0
SEQEND
  8
0
  5
800003CA
  0
ENDBLK
  5
FFBBDAE469BC2864
  8
0
  0
BLOCK
  8
0
  2
*U30
 70
     1
 10
0.0
 20
0.0
 30
0.0
  3
*U30
  1

  0
SOLID
  5
FFBBDAE469BC2866
  8
0
  6
CONTINUOUS
 10
78.692975443088812
 20
124.6260204265056
 30
0.0
 11
76.073484197304424
 21
122.4910687409449
 31
0.0
 12
77.858964558810499
 22
125.3601823610541
 32
0.0
 13
77.858964558810499
 23
125.3601823610541
 33
0.0
  0
POLYLINE
  8
0
  5
800003CB
  66
     1
 10
0.000000
 20
0.000000
 30
0.000000
  70
     8
  0
VERTEX
  8
0
  5
800003CC
 10
78.2760
 20
124.993
 30
0.000000
  70
    32
  0
VERTEX
  8
0
  5
800003CD
 10
78.4072
 20
125.143
 30
0.000000
  70
    32
  0
VERTEX
  8
0
  5
800003CE
 10
78.5376
 20
125.295
 30
0.000000
  70
    32
  0
VERTEX
  8
0
  5
800003CF
 10
78.6673
 20
125.448
 30
0.000000
  70
    32
  0
VERTEX
  8
0
  5
800003D0
 10
78.7962
 20
125.603
 30
0.000000
  70
    32
  0
VERTEX
  8
0
  5
800003D1
 10
78.9244
 20
125.759
 30
0.000000
  70
    32
  0
VERTEX
  8
0
  5
800003D2
 10
79.0518
 20
125.916
 30
0.000000
  70
    32
  0
VERTEX
  8
0
  5
800003D3
 10
79.1786
 20
126.074
 30
0.000000
  70
    32
  0
VERTEX
  8
0
  5
800003D4
 10
79.3048
 20
126.234
 30
0.000000
  70
    32
  0
VERTEX
  8
0
  5
800003D5
 10
79.4303
 20
126.394
 30
0.000000
  70
    32
  0
VERTEX
  8
0
  5
800003D6
 10
79.5551
 20
126.556
 30
0.000000
  70
    32
  0
VERTEX
  8
0
  5
800003D7
 10
79.6794
 20
126.719
 30
0.000000
  70
    32
  0
VERTEX
  8
0
  5
800003D8
 10
79.8031
 20
126.883
 30
0.000000
  70
    32
  0
VERTEX
  8
0
  5
800003D9
 10
79.9263
 20
127.048
 30
0.000000
  70
    32
  0
VERTEX
  8
0
  5
800003DA
 10
80.0489
 20
127.214
 30
0.000000
  70
    32
  0
VERTEX
  8
0
  5
800003DB
 10
80.1710
 20
127.381
 30
0.000000
  70
    32
  0
VERTEX
  8
0
  5
800003DC
 10
80.2927
 20
127.548
 30
0.000000
  70
    32
  0
VERTEX
  8
0
  5
800003DD
 10
80.4139
 20
127.717
 30
0.000000
  70
    32
  0
VERTEX
  8
0
  5
800003DE
 10
80.5346
 20
127.886
 30
0.000000
  70
    32
  0
VERTEX
  8
0
  5
800003DF
 10
80.6550
 20
128.056
 30
0.000000
  70
    32
  0
VERTEX
  8
0
  5
800003E0
 10
80.7749
 20
128.227
 30
0.000000
  70
    32
  0
VERTEX
  8
0
  5
800003E1
 10
80.8945
 20
128.398
 30
0.000000
  70
    32
  0
VERTEX
  8
0
  5
800003E2
 10
81.0137
 20
128.570
 30
0.000000
  70
    32
  0
VERTEX
  8
0
  5
800003E3
 10
81.1327
 20
128.743
 30
0.000000
  70
    32
  0
VERTEX
  8
0
  5
800003E4
 10
81.2513
 20
128.916
 30
0.000000
  70
    32
  0
VERTEX
  8
0
  5
800003E5
 10
81.3696
 20
129.090
 30
0.000000
  70
    32
  0
VERTEX
  8
0
  5
800003E6
 10
81.4877
 20
129.264
 30
0.000000
  70
    32
  0
VERTEX
  8
0
  5
800003E7
 10
81.6055
 20
129.439
 30
0.000000
  70
    32
  0
VERTEX
  8
0
  5
800003E8
 10
81.7232
 20
129.614
 30
0.000000
  70
    32
  0
VERTEX
  8
0
  5
800003E9
 10
81.8406
 20
129.789
 30
0.000000
  70
    32
  0
VERTEX
  8
0
  5
800003EA
 10
81.9579
 20
129.965
 30
0.000000
  70
    32
  0
VERTEX
  8
0
  5
800003EB
 10
82.0751
 20
130.140
 30
0.000000
  70
    32
  0
VERTEX
  8
0
  5
800003EC
 10
82.1921
 20
130.317
 30
0.000000
  70
    32
  0
VERTEX
  8
0
  5
800003ED
 10
82.3090
 20
130.493
 30
0.000000
  70
    32
  0
VERTEX
  8
0
  5
800003EE
 10
82.4259
 20
130.669
 30
0.000000
  70
    32
  0
VERTEX
  8
0
  5
800003EF
 10
82.5427
 20
130.846
 30
0.000000
  70
    32
  0
VERTEX
  8
0
  5
800003F0
 10
82.6594
 20
131.022
 30
0.000000
  70
    32
  0
VERTEX
  8
0
  5
800003F1
 10
82.7762
 20
131.199
 30
0.000000
  70
    32
  0
VERTEX
  8
0
  5
800003F2
 10
82.8930
 20
131.375
 30
0.000000
  70
    32
  0
VERTEX
  8
0
  5
800003F3
 10
83.0098
 20
131.552
 30
0.000000
  70
    32
  0
VERTEX
  8
0
  5
800003F4
 10
83.1267
 20
131.728
 30
0.000000
  70
    32
  0
VERTEX
  8
0
  5
800003F5
 10
83.2436
 20
131.904
 30
0.000000
  70
    32
  0
VERTEX
  8
0
  5
800003F6
 10
83.3607
 20
132.080
 30
0.000000
  70
    32
  0
VERTEX
  8
0
  5
800003F7
 10
83.4779
 20
132.256
 30
0.000000
  70
    32
  0
VERTEX
  8
0
  5
800003F8
 10
83.5952
 20
132.432
 30
0.000000
  70
    32
  0
VERTEX
  8
0
  5
800003F9
 10
83.7127
 20
132.607
 30
0.000000
  70
    32
  0
VERTEX
  8
0
  5
800003FA
 10
83.8305
 20
132.782
 30
0.000000
  70
    32
  0
VERTEX
  8
0
  5
800003FB
 10
83.9484
 20
132.956
 30
0.000000
  70
    32
  0
VERTEX
  8
0
  5
800003FC
 10
84.0666
 20
133.130
 30
0.000000
  70
    32
  0
VERTEX
  8
0
  5
800003FD
 10
84.1850
 20
133.304
 30
0.000000
  70
    32
  0
VERTEX
  8
0
  5
800003FE
 10
84.3037
 20
133.477
 30
0.000000
  70
    32
  0
VERTEX
  8
0
  5
800003FF
 10
84.4228
 20
133.649
 30
0.000000
  70
    32
  0
VERTEX
  8
0
  5
80000400
 10
84.5421
 20
133.821
 30
0.000000
  70
    32
  0
VERTEX
  8
0
  5
80000401
 10
84.6618
 20
133.992
 30
0.000000
  70
    32
  0
VERTEX
  8
0
  5
80000402
 10
84.7819
 20
134.163
 30
0.000000
  70
    32
  0
VERTEX
  8
0
  5
80000403
 10
84.9024
 20
134.332
 30
0.000000
  70
    32
  0
VERTEX
  8
0
  5
80000404
 10
85.0233
 20
134.501
 30
0.000000
  70
    32
  0
VERTEX
  8
0
  5
80000405
 10
85.1447
 20
134.670
 30
0.000000
  70
    32
  0
VERTEX
  8
0
  5
80000406
 10
85.2665
 20
134.837
 30
0.000000
  70
    32
  0
VERTEX
  8
0
  5
80000407
 10
85.3888
 20
135.003
 30
0.000000
  70
    32
  0
VERTEX
  8
0
  5
80000408
 10
85.5117
 20
135.169
 30
0.000000
  70
    32
  0
VERTEX
  8
0
  5
80000409
 10
85.6350
 20
135.334
 30
0.000000
  70
    32
  0
VERTEX
  8
0
  5
8000040A
 10
85.7590
 20
135.497
 30
0.000000
  70
    32
  0
VERTEX
  8
0
  5
8000040B
 10
85.8835
 20
135.660
 30
0.000000
  70
    32
  0
VERTEX
  8
0
  5
8000040C
 10
86.0086
 20
135.821
 30
0.000000
  70
    32
  0
VERTEX
  8
0
  5
8000040D
 10
86.1343
 20
135.981
 30
0.000000
  70
    32
  0
VERTEX
  8
0
  5
8000040E
 10
86.2606
 20
136.140
 30
0.000000
  70
    32
  0
VERTEX
  8
0
  5
8000040F
 10
86.3877
 20
136.298
 30
0.000000
  70
    32
  0
VERTEX
  8
0
  5
80000410
 10
86.5154
 20
136.455
 30
0.000000
  70
    32
  0
VERTEX
  8
0
  5
80000411
 10
86.6439
 20
136.610
 30
0.000000
  70
    32
  0
VERTEX
  8
0
  5
80000412
 10
86.7731
 20
136.764
 30
0.000000
  70
    32
  0
VERTEX
  8
0
  5
80000413
 10
86.9030
 20
136.917
 30
0.000000
  70
    32
  0
VERTEX
  8
0
  5
80000414
 10
87.0337
 20
137.068
 30
0.000000
  70
    32
  0
VERTEX
  8
0
  5
80000415
 10
87.1653
 20
137.218
 30
0.000000
  70
    32
  0
VERTEX
  8
0
  5
80000416
 10
87.2976
 20
137.366
 30
0.000000
  70
    32
  0
VERTEX
  8
0
  5
80000417
 10
87.4308
 20
137.513
 30
0.000000
  70
    32
  0
VERTEX
  8
0
  5
80000418
 10
87.5649
 20
137.658
 30
0.000000
  70
    32
  0
VERTEX
  8
0
  5
80000419
 10
87.6999
 20
137.801
 30
0.000000
  70
    32
  0
VERTEX
  8
0
  5
8000041A
 10
87.8358
 20
137.943
 30
0.000000
  70
    32
  0
VERTEX
  8
0
  5
8000041B
 10
87.9726
 20
138.083
 30
0.000000
  70
    32
  0
VERTEX
  8
0
  5
8000041C
 10
88.1104
 20
138.221
 30
0.000000
  70
    32
  0
VERTEX
  8
0
  5
8000041D
 10
88.2492
 20
138.358
 30
0.000000
  70
    32
  0
VERTEX
  8
0
  5
8000041E
 10
88.3890
 20
138.493
 30
0.000000
  70
    32
  0
VERTEX
  8
0
  5
8000041F
 10
88.5298
 20
138.625
 30
0.000000
  70
    32
  0
VERTEX
  8
0
  5
80000420
 10
88.6717
 20
138.756
 30
0.000000
  70
    32
  0
VERTEX
  8
0
  5
80000421
 10
88.8147
 20
138.885
 30
0.000000
  70
    32
  0
VERTEX
  8
0
  5
80000422
 10
88.9587
 20
139.012
 30
0.000000
  70
    32
  0
VERTEX
  8
0
  5
80000423
 10
89.1039
 20
139.137
 30
0.000000
  70
    32
  0
VERTEX
  8
0
  5
80000424
 10
89.2502
 20
139.260
 30
0.000000
  70
    32
  0
VERTEX
  8
0
  5
80000425
 10
89.3977
 20
139.381
 30
0.000000
  70
    32
  0
VERTEX
  8
0
  5
80000426
 10
89.5464
 20
139.499
 30
0.000000
  70
    32
  0
VERTEX
  8
0
  5
80000427
 10
89.6963
 20
139.616
 30
0.000000
  70
    32
  0
VERTEX
  8
0
  5
80000428
 10
89.8474
 20
139.730
 30
0.000000
  70
    32
  0
VERTEX
  8
0
  5
80000429
 10
89.9998
 20
139.842
 30
0.000000
  70
    32
  0
VERTEX
  8
0
  5
8000042A
 10
90.1534
 20
139.951
 30
0.000000
  70
    32
  0
VERTEX
  8
0
  5
8000042B
 10
90.3084
 20
140.059
 30
0.000000
  70
    32
  0
VERTEX
  8
0
  5
8000042C
 10
90.4646
 20
140.163
 30
0.000000
  70
    32
  0
VERTEX
  8
0
  5
8000042D
 10
90.6223
 20
140.266
 30
0.000000
  70
    32
  0
VERTEX
  8
0
  5
8000042E
 10
90.7813
 20
140.366
 30
0.000000
  70
    32
  0
VERTEX
  8
0
  5
8000042F
 10
90.9416
 20
140.463
 30
0.000000
  70
    32
  0
VERTEX
  8
0
  5
80000430
 10
91.1034
 20
140.558
 30
0.000000
  70
    32
  0
VERTEX
  8
0
  5
80000431
 10
91.2667
 20
140.650
 30
0.000000
  70
    32
  0
VERTEX
  8
0
  5
80000432
 10
91.4314
 20
140.739
 30
0.000000
  70
    32
  0
VERTEX
  8
0
  5
80000433
 10
91.5975
 20
140.826
 30
0.000000
  70
    32
  0
VERTEX
  8
0
  5
80000434
 10
91.7652
 20
140.910
 30
0.000000
  70
    32
  0
VERTEX
  8
0
  5
80000435
 10
91.9344
 20
140.991
 30
0.000000
  70
    32
  0
VERTEX
  8
0
  5
80000436
 10
92.1052
 20
141.070
 30
0.000000
  70
    32
  0
VERTEX
  8
0
  5
80000437
 10
92.2775
 20
141.145
 30
0.000000
  70
    32
  0
VERTEX
  8
0
  5
80000438
 10
92.4514
 20
141.218
 30
0.000000
  70
    32
  0
VERTEX
  8
0
  5
80000439
 10
92.6270
 20
141.288
 30
0.000000
  70
    32
  0
VERTEX
  8
0
  5
8000043A
 10
92.8042
 20
141.355
 30
0.000000
  70
    32
  0
VERTEX
  8
0
  5
8000043B
 10
92.9829
 20
141.419
 30
0.000000
  70
    32
  0
VERTEX
  8
0
  5
8000043C
 10
93.1632
 20
141.480
 30
0.000000
  70
    32
  0
VERTEX
  8
0
  5
8000043D
 10
93.3450
 20
141.538
 30
0.000000
  70
    32
  0
VERTEX
  8
0
  5
8000043E
 10
93.5282
 20
141.594
 30
0.000000
  70
    32
  0
VERTEX
  8
0
  5
8000043F
 10
93.7128
 20
141.647
 30
0.000000
  70
    32
  0
VERTEX
  8
0
  5
80000440
 10
93.8988
 20
141.698
 30
0.000000
  70
    32
  0
VERTEX
  8
0
  5
80000441
 10
94.0860
 20
141.747
 30
0.000000
  70
    32
  0
VERTEX
  8
0
  5
80000442
 10
94.2745
 20
141.793
 30
0.000000
  70
    32
  0
VERTEX
  8
0
  5
80000443
 10
94.4642
 20
141.837
 30
0.000000
  70
    32
  0
VERTEX
  8
0
  5
80000444
 10
94.6550
 20
141.879
 30
0.000000
  70
    32
  0
VERTEX
  8
0
  5
80000445
 10
94.8469
 20
141.919
 30
0.000000
  70
    32
  0
VERTEX
  8
0
  5
80000446
 10
95.0399
 20
141.957
 30
0.000000
  70
    32
  0
VERTEX
  8
0
  5
80000447
 10
95.2338
 20
141.993
 30
0.000000
  70
    32
  0
VERTEX
  8
0
  5
80000448
 10
95.4287
 20
142.028
 30
0.000000
  70
    32
  0
VERTEX
  8
0
  5
80000449
 10
95.6245
 20
142.061
 30
0.000000
  70
    32
  0
VERTEX
  8
0
  5
8000044A
 10
95.8212
 20
142.092
 30
0.000000
  70
    32
  0
VERTEX
  8
0
  5
8000044B
 10
96.0186
 20
142.122
 30
0.000000
  70
    32
  0
VERTEX
  8
0
  5
8000044C
 10
96.2169
 20
142.151
 30
0.000000
  70
    32
  0
VERTEX
  8
0
  5
8000044D
 10
96.4158
 20
142.178
 30
0.000000
  70
    32
  0
VERTEX
  8
0
  5
8000044E
 10
96.6153
 20
142.204
 30
0.000000
  70
    32
  0
VERTEX
  8
0
  5
8000044F
 10
96.8155
 20
142.229
 30
0.000000
  70
    32
  0
VERTEX
  8
0
  5
80000450
 10
97.0162
 20
142.253
 30
0.000000
  70
    32
  0
VERTEX
  8
0
  5
80000451
 10
97.2175
 20
142.276
 30
0.000000
  70
    32
  0
VERTEX
  8
0
  5
80000452
 10
97.4192
 20
142.299
 30
0.000000
  70
    32
  0
VERTEX
  8
0
  5
80000453
 10
97.6213
 20
142.320
 30
0.000000
  70
    32
  0
VERTEX
  8
0
  5
80000454
 10
97.8237
 20
142.341
 30
0.000000
  70
    32
  0
VERTEX
  8
0
  5
80000455
 10
98.0265
 20
142.361
 30
0.000000
  70
    32
  0
VERTEX
  8
0
  5
80000456
 10
98.2295
 20
142.381
 30
0.000000
  70
    32
  0
VERTEX
  8
0
  5
80000457
 10
98.4327
 20
142.401
 30
0.000000
  70
    32
  0
VERTEX
  8
0
  5
80000458
 10
98.6361
 20
142.420
 30
0.000000
  70
    32
  0
VERTEX
  8
0
  5
80000459
 10
98.8397
 20
142.439
 30
0.000000
  70
    32
  0
VERTEX
  8
0
  5
8000045A
 10
99.0432
 20
142.457
 30
0.000000
  70
    32
  0
VERTEX
  8
0
  5
8000045B
 10
99.2468
 20
142.476
 30
0.000000
  70
    32
  0
VERTEX
  8
0
  5
8000045C
 10
99.4504
 20
142.495
 30
0.000000
  70
    32
  0
VERTEX
  8
0
  5
8000045D
 10
99.6539
 20
142.514
 30
0.000000
  70
    32
  0
VERTEX
  8
0
  5
8000045E
 10
99.8572
 20
142.533
 30
0.000000
  70
    32
  0
VERTEX
  8
0
  5
8000045F
 10
100.060
 20
142.553
 30
0.000000
  70
    32
  0
VERTEX
  8
0
  5
80000460
 10
100.263
 20
142.573
 30
0.000000
  70
    32
  0
VERTEX
  8
0
  5
80000461
 10
100.466
 20
142.593
 30
0.000000
  70
    32
  0
VERTEX
  8
0
  5
80000462
 10
100.668
 20
142.615
 30
0.000000
  70
    32
  0
VERTEX
  8
0
  5
80000463
 10
100.870
 20
142.636
 30
0.000000
  70
    32
  0
VERTEX
  8
0
  5
80000464
 10
101.072
 20
142.659
 30
0.000000
  70
    32
  0
VERTEX
  8
0
  5
80000465
 10
101.273
 20
142.682
 30
0.000000
  70
    32
  0
VERTEX
  8
0
  5
80000466
 10
101.473
 20
142.707
 30
0.000000
  70
    32
  0
VERTEX
  8
0
  5
80000467
 10
101.673
 20
142.732
 30
0.000000
  70
    32
  0
VERTEX
  8
0
  5
80000468
 10
101.873
 20
142.759
 30
0.000000
  70
    32
  0
VERTEX
  8
0
  5
80000469
 10
102.071
 20
142.786
 30
0.000000
  70
    32
  0
VERTEX
  8
0
  5
8000046A
 10
102.269
 20
142.816
 30
0.000000
  70
    32
  0
VERTEX
  8
0
  5
8000046B
 10
102.466
 20
142.846
 30
0.000000
  70
    32
  0
SEQEND
  8
0
  5
8000046C
  0
ENDBLK
  5
FFBBDAE469BC2869
  8
0
  0
BLOCK
  8
0
  2
*U31
 70
     1
 10
0.0
 20
0.0
 30
0.0
  3
*U31
  1

  0
TEXT
  5
FFBBDAE469BC286B
  8
0
  6
CONTINUOUS
 10
104.8580708504355
 20
112.65041563833751
 30
0.0
 40
5.0
  1
C - 25mm 'T' head stainless steel brad nail
  7
ARIAL
  0
ENDBLK
  5
FFBBDAE469BC286D
  8
0
  0
BLOCK
  8
0
  2
*U32
 70
     1
 10
0.0
 20
0.0
 30
0.0
  3
*U32
  1

  0
SOLID
  5
FFBBDAE469BC286F
  8
0
  6
CONTINUOUS
 10
88.141484393743625
 20
116.6746375352256
 30
0.0
 11
85.000112803209944
 21
117.9202448636433
 31
0.0
 12
88.375661279147536
 22
117.7607908796375
 32
0.0
 13
88.375661279147536
 23
117.7607908796375
 33
0.0
  0
POLYLINE
  8
0
  5
8000046D
  66
     1
 10
0.000000
 20
0.000000
 30
0.000000
  70
     8
  0
VERTEX
  8
0
  5
8000046E
 10
88.2586
 20
117.218
 30
0.000000
  70
    32
  0
VERTEX
  8
0
  5
8000046F
 10
88.3548
 20
117.197
 30
0.000000
  70
    32
  0
VERTEX
  8
0
  5
80000470
 10
88.4510
 20
117.175
 30
0.000000
  70
    32
  0
VERTEX
  8
0
  5
80000471
 10
88.5473
 20
117.152
 30
0.000000
  70
    32
  0
VERTEX
  8
0
  5
80000472
 10
88.6436
 20
117.129
 30
0.000000
  70
    32
  0
VERTEX
  8
0
  5
80000473
 10
88.7400
 20
117.106
 30
0.000000
  70
    32
  0
VERTEX
  8
0
  5
80000474
 10
88.8365
 20
117.081
 30
0.000000
  70
    32
  0
VERTEX
  8
0
  5
80000475
 10
88.9329
 20
117.056
 30
0.000000
  70
    32
  0
VERTEX
  8
0
  5
80000476
 10
89.0295
 20
117.031
 30
0.000000
  70
    32
  0
VERTEX
  8
0
  5
80000477
 10
89.1260
 20
117.005
 30
0.000000
  70
    32
  0
VERTEX
  8
0
  5
80000478
 10
89.2226
 20
116.978
 30
0.000000
  70
    32
  0
VERTEX
  8
0
  5
80000479
 10
89.3193
 20
116.951
 30
0.000000
  70
    32
  0
VERTEX
  8
0
  5
8000047A
 10
89.4160
 20
116.923
 30
0.000000
  70
    32
  0
VERTEX
  8
0
  5
8000047B
 10
89.5127
 20
116.895
 30
0.000000
  70
    32
  0
VERTEX
  8
0
  5
8000047C
 10
89.6095
 20
116.867
 30
0.000000
  70
    32
  0
VERTEX
  8
0
  5
8000047D
 10
89.7063
 20
116.837
 30
0.000000
  70
    32
  0
VERTEX
  8
0
  5
8000047E
 10
89.8031
 20
116.808
 30
0.000000
  70
    32
  0
VERTEX
  8
0
  5
8000047F
 10
89.9000
 20
116.778
 30
0.000000
  70
    32
  0
VERTEX
  8
0
  5
80000480
 10
89.9969
 20
116.748
 30
0.000000
  70
    32
  0
VERTEX
  8
0
  5
80000481
 10
90.0938
 20
116.717
 30
0.000000
  70
    32
  0
VERTEX
  8
0
  5
80000482
 10
90.1907
 20
116.686
 30
0.000000
  70
    32
  0
VERTEX
  8
0
  5
80000483
 10
90.2877
 20
116.654
 30
0.000000
  70
    32
  0
VERTEX
  8
0
  5
80000484
 10
90.3847
 20
116.622
 30
0.000000
  70
    32
  0
VERTEX
  8
0
  5
80000485
 10
90.4818
 20
116.590
 30
0.000000
  70
    32
  0
VERTEX
  8
0
  5
80000486
 10
90.5788
 20
116.558
 30
0.000000
  70
    32
  0
VERTEX
  8
0
  5
80000487
 10
90.6759
 20
116.525
 30
0.000000
  70
    32
  0
VERTEX
  8
0
  5
80000488
 10
90.7730
 20
116.492
 30
0.000000
  70
    32
  0
VERTEX
  8
0
  5
80000489
 10
90.8701
 20
116.458
 30
0.000000
  70
    32
  0
VERTEX
  8
0
  5
8000048A
 10
90.9672
 20
116.425
 30
0.000000
  70
    32
  0
VERTEX
  8
0
  5
8000048B
 10
91.0644
 20
116.391
 30
0.000000
  70
    32
  0
VERTEX
  8
0
  5
8000048C
 10
91.1616
 20
116.357
 30
0.000000
  70
    32
  0
VERTEX
  8
0
  5
8000048D
 10
91.2588
 20
116.323
 30
0.000000
  70
    32
  0
VERTEX
  8
0
  5
8000048E
 10
91.3560
 20
116.289
 30
0.000000
  70
    32
  0
VERTEX
  8
0
  5
8000048F
 10
91.4532
 20
116.254
 30
0.000000
  70
    32
  0
VERTEX
  8
0
  5
80000490
 10
91.5504
 20
116.219
 30
0.000000
  70
    32
  0
VERTEX
  8
0
  5
80000491
 10
91.6476
 20
116.185
 30
0.000000
  70
    32
  0
VERTEX
  8
0
  5
80000492
 10
91.7448
 20
116.150
 30
0.000000
  70
    32
  0
VERTEX
  8
0
  5
80000493
 10
91.8421
 20
116.115
 30
0.000000
  70
    32
  0
VERTEX
  8
0
  5
80000494
 10
91.9393
 20
116.080
 30
0.000000
  70
    32
  0
VERTEX
  8
0
  5
80000495
 10
92.0366
 20
116.045
 30
0.000000
  70
    32
  0
VERTEX
  8
0
  5
80000496
 10
92.1338
 20
116.010
 30
0.000000
  70
    32
  0
VERTEX
  8
0
  5
80000497
 10
92.2311
 20
115.975
 30
0.000000
  70
    32
  0
VERTEX
  8
0
  5
80000498
 10
92.3283
 20
115.940
 30
0.000000
  70
    32
  0
VERTEX
  8
0
  5
80000499
 10
92.4256
 20
115.904
 30
0.000000
  70
    32
  0
VERTEX
  8
0
  5
8000049A
 10
92.5228
 20
115.869
 30
0.000000
  70
    32
  0
VERTEX
  8
0
  5
8000049B
 10
92.6201
 20
115.834
 30
0.000000
  70
    32
  0
VERTEX
  8
0
  5
8000049C
 10
92.7173
 20
115.799
 30
0.000000
  70
    32
  0
VERTEX
  8
0
  5
8000049D
 10
92.8146
 20
115.765
 30
0.000000
  70
    32
  0
VERTEX
  8
0
  5
8000049E
 10
92.9118
 20
115.730
 30
0.000000
  70
    32
  0
VERTEX
  8
0
  5
8000049F
 10
93.0090
 20
115.695
 30
0.000000
  70
    32
  0
VERTEX
  8
0
  5
800004A0
 10
93.1062
 20
115.661
 30
0.000000
  70
    32
  0
VERTEX
  8
0
  5
800004A1
 10
93.2034
 20
115.626
 30
0.000000
  70
    32
  0
VERTEX
  8
0
  5
800004A2
 10
93.3006
 20
115.592
 30
0.000000
  70
    32
  0
VERTEX
  8
0
  5
800004A3
 10
93.3978
 20
115.558
 30
0.000000
  70
    32
  0
VERTEX
  8
0
  5
800004A4
 10
93.4949
 20
115.525
 30
0.000000
  70
    32
  0
VERTEX
  8
0
  5
800004A5
 10
93.5921
 20
115.491
 30
0.000000
  70
    32
  0
VERTEX
  8
0
  5
800004A6
 10
93.6892
 20
115.458
 30
0.000000
  70
    32
  0
VERTEX
  8
0
  5
800004A7
 10
93.7863
 20
115.425
 30
0.000000
  70
    32
  0
VERTEX
  8
0
  5
800004A8
 10
93.8833
 20
115.392
 30
0.000000
  70
    32
  0
VERTEX
  8
0
  5
800004A9
 10
93.9804
 20
115.359
 30
0.000000
  70
    32
  0
VERTEX
  8
0
  5
800004AA
 10
94.0774
 20
115.327
 30
0.000000
  70
    32
  0
VERTEX
  8
0
  5
800004AB
 10
94.1744
 20
115.295
 30
0.000000
  70
    32
  0
VERTEX
  8
0
  5
800004AC
 10
94.2714
 20
115.264
 30
0.000000
  70
    32
  0
VERTEX
  8
0
  5
800004AD
 10
94.3684
 20
115.233
 30
0.000000
  70
    32
  0
VERTEX
  8
0
  5
800004AE
 10
94.4653
 20
115.202
 30
0.000000
  70
    32
  0
VERTEX
  8
0
  5
800004AF
 10
94.5622
 20
115.171
 30
0.000000
  70
    32
  0
VERTEX
  8
0
  5
800004B0
 10
94.6591
 20
115.141
 30
0.000000
  70
    32
  0
VERTEX
  8
0
  5
800004B1
 10
94.7559
 20
115.112
 30
0.000000
  70
    32
  0
VERTEX
  8
0
  5
800004B2
 10
94.8527
 20
115.083
 30
0.000000
  70
    32
  0
VERTEX
  8
0
  5
800004B3
 10
94.9495
 20
115.054
 30
0.000000
  70
    32
  0
VERTEX
  8
0
  5
800004B4
 10
95.0462
 20
115.026
 30
0.000000
  70
    32
  0
VERTEX
  8
0
  5
800004B5
 10
95.1429
 20
114.998
 30
0.000000
  70
    32
  0
VERTEX
  8
0
  5
800004B6
 10
95.2395
 20
114.971
 30
0.000000
  70
    32
  0
VERTEX
  8
0
  5
800004B7
 10
95.3361
 20
114.945
 30
0.000000
  70
    32
  0
VERTEX
  8
0
  5
800004B8
 10
95.4327
 20
114.918
 30
0.000000
  70
    32
  0
VERTEX
  8
0
  5
800004B9
 10
95.5292
 20
114.893
 30
0.000000
  70
    32
  0
VERTEX
  8
0
  5
800004BA
 10
95.6257
 20
114.868
 30
0.000000
  70
    32
  0
VERTEX
  8
0
  5
800004BB
 10
95.7222
 20
114.844
 30
0.000000
  70
    32
  0
VERTEX
  8
0
  5
800004BC
 10
95.8185
 20
114.820
 30
0.000000
  70
    32
  0
VERTEX
  8
0
  5
800004BD
 10
95.9149
 20
114.797
 30
0.000000
  70
    32
  0
VERTEX
  8
0
  5
800004BE
 10
96.0112
 20
114.774
 30
0.000000
  70
    32
  0
VERTEX
  8
0
  5
800004BF
 10
96.1074
 20
114.753
 30
0.000000
  70
    32
  0
VERTEX
  8
0
  5
800004C0
 10
96.2036
 20
114.732
 30
0.000000
  70
    32
  0
VERTEX
  8
0
  5
800004C1
 10
96.2997
 20
114.711
 30
0.000000
  70
    32
  0
VERTEX
  8
0
  5
800004C2
 10
96.3958
 20
114.691
 30
0.000000
  70
    32
  0
VERTEX
  8
0
  5
800004C3
 10
96.4918
 20
114.673
 30
0.000000
  70
    32
  0
VERTEX
  8
0
  5
800004C4
 10
96.5878
 20
114.654
 30
0.000000
  70
    32
  0
VERTEX
  8
0
  5
800004C5
 10
96.6837
 20
114.637
 30
0.000000
  70
    32
  0
VERTEX
  8
0
  5
800004C6
 10
96.7796
 20
114.620
 30
0.000000
  70
    32
  0
VERTEX
  8
0
  5
800004C7
 10
96.8754
 20
114.605
 30
0.000000
  70
    32
  0
VERTEX
  8
0
  5
800004C8
 10
96.9711
 20
114.590
 30
0.000000
  70
    32
  0
VERTEX
  8
0
  5
800004C9
 10
97.0668
 20
114.575
 30
0.000000
  70
    32
  0
VERTEX
  8
0
  5
800004CA
 10
97.1624
 20
114.562
 30
0.000000
  70
    32
  0
VERTEX
  8
0
  5
800004CB
 10
97.2579
 20
114.550
 30
0.000000
  70
    32
  0
VERTEX
  8
0
  5
800004CC
 10
97.3534
 20
114.538
 30
0.000000
  70
    32
  0
VERTEX
  8
0
  5
800004CD
 10
97.4487
 20
114.527
 30
0.000000
  70
    32
  0
VERTEX
  8
0
  5
800004CE
 10
97.5441
 20
114.518
 30
0.000000
  70
    32
  0
VERTEX
  8
0
  5
800004CF
 10
97.6393
 20
114.509
 30
0.000000
  70
    32
  0
VERTEX
  8
0
  5
800004D0
 10
97.7345
 20
114.501
 30
0.000000
  70
    32
  0
VERTEX
  8
0
  5
800004D1
 10
97.8296
 20
114.494
 30
0.000000
  70
    32
  0
VERTEX
  8
0
  5
800004D2
 10
97.9246
 20
114.488
 30
0.000000
  70
    32
  0
VERTEX
  8
0
  5
800004D3
 10
98.0196
 20
114.484
 30
0.000000
  70
    32
  0
VERTEX
  8
0
  5
800004D4
 10
98.1145
 20
114.480
 30
0.000000
  70
    32
  0
VERTEX
  8
0
  5
800004D5
 10
98.2093
 20
114.477
 30
0.000000
  70
    32
  0
VERTEX
  8
0
  5
800004D6
 10
98.3040
 20
114.475
 30
0.000000
  70
    32
  0
VERTEX
  8
0
  5
800004D7
 10
98.3986
 20
114.475
 30
0.000000
  70
    32
  0
VERTEX
  8
0
  5
800004D8
 10
98.4932
 20
114.475
 30
0.000000
  70
    32
  0
VERTEX
  8
0
  5
800004D9
 10
98.5877
 20
114.477
 30
0.000000
  70
    32
  0
VERTEX
  8
0
  5
800004DA
 10
98.6820
 20
114.479
 30
0.000000
  70
    32
  0
VERTEX
  8
0
  5
800004DB
 10
98.7763
 20
114.483
 30
0.000000
  70
    32
  0
VERTEX
  8
0
  5
800004DC
 10
98.8705
 20
114.488
 30
0.000000
  70
    32
  0
VERTEX
  8
0
  5
800004DD
 10
98.9647
 20
114.494
 30
0.000000
  70
    32
  0
VERTEX
  8
0
  5
800004DE
 10
99.0587
 20
114.502
 30
0.000000
  70
    32
  0
VERTEX
  8
0
  5
800004DF
 10
99.1526
 20
114.510
 30
0.000000
  70
    32
  0
VERTEX
  8
0
  5
800004E0
 10
99.2465
 20
114.520
 30
0.000000
  70
    32
  0
VERTEX
  8
0
  5
800004E1
 10
99.3402
 20
114.531
 30
0.000000
  70
    32
  0
VERTEX
  8
0
  5
800004E2
 10
99.4338
 20
114.544
 30
0.000000
  70
    32
  0
VERTEX
  8
0
  5
800004E3
 10
99.5274
 20
114.557
 30
0.000000
  70
    32
  0
VERTEX
  8
0
  5
800004E4
 10
99.6209
 20
114.572
 30
0.000000
  70
    32
  0
VERTEX
  8
0
  5
800004E5
 10
99.7142
 20
114.589
 30
0.000000
  70
    32
  0
VERTEX
  8
0
  5
800004E6
 10
99.8075
 20
114.606
 30
0.000000
  70
    32
  0
VERTEX
  8
0
  5
800004E7
 10
99.9006
 20
114.625
 30
0.000000
  70
    32
  0
VERTEX
  8
0
  5
800004E8
 10
99.9937
 20
114.645
 30
0.000000
  70
    32
  0
VERTEX
  8
0
  5
800004E9
 10
100.087
 20
114.667
 30
0.000000
  70
    32
  0
VERTEX
  8
0
  5
800004EA
 10
100.179
 20
114.690
 30
0.000000
  70
    32
  0
VERTEX
  8
0
  5
800004EB
 10
100.272
 20
114.714
 30
0.000000
  70
    32
  0
VERTEX
  8
0
  5
800004EC
 10
100.365
 20
114.740
 30
0.000000
  70
    32
  0
VERTEX
  8
0
  5
800004ED
 10
100.457
 20
114.767
 30
0.000000
  70
    32
  0
VERTEX
  8
0
  5
800004EE
 10
100.550
 20
114.795
 30
0.000000
  70
    32
  0
VERTEX
  8
0
  5
800004EF
 10
100.642
 20
114.824
 30
0.000000
  70
    32
  0
VERTEX
  8
0
  5
800004F0
 10
100.734
 20
114.855
 30
0.000000
  70
    32
  0
VERTEX
  8
0
  5
800004F1
 10
100.827
 20
114.886
 30
0.000000
  70
    32
  0
VERTEX
  8
0
  5
800004F2
 10
100.919
 20
114.918
 30
0.000000
  70
    32
  0
VERTEX
  8
0
  5
800004F3
 10
101.011
 20
114.951
 30
0.000000
  70
    32
  0
VERTEX
  8
0
  5
800004F4
 10
101.103
 20
114.985
 30
0.000000
  70
    32
  0
VERTEX
  8
0
  5
800004F5
 10
101.195
 20
115.020
 30
0.000000
  70
    32
  0
VERTEX
  8
0
  5
800004F6
 10
101.287
 20
115.055
 30
0.000000
  70
    32
  0
VERTEX
  8
0
  5
800004F7
 10
101.379
 20
115.091
 30
0.000000
  70
    32
  0
VERTEX
  8
0
  5
800004F8
 10
101.470
 20
115.128
 30
0.000000
  70
    32
  0
VERTEX
  8
0
  5
800004F9
 10
101.562
 20
115.165
 30
0.000000
  70
    32
  0
VERTEX
  8
0
  5
800004FA
 10
101.654
 20
115.202
 30
0.000000
  70
    32
  0
VERTEX
  8
0
  5
800004FB
 10
101.746
 20
115.240
 30
0.000000
  70
    32
  0
VERTEX
  8
0
  5
800004FC
 10
101.837
 20
115.279
 30
0.000000
  70
    32
  0
VERTEX
  8
0
  5
800004FD
 10
101.929
 20
115.317
 30
0.000000
  70
    32
  0
VERTEX
  8
0
  5
800004FE
 10
102.021
 20
115.356
 30
0.000000
  70
    32
  0
VERTEX
  8
0
  5
800004FF
 10
102.112
 20
115.395
 30
0.000000
  70
    32
  0
VERTEX
  8
0
  5
80000500
 10
102.204
 20
115.434
 30
0.000000
  70
    32
  0
VERTEX
  8
0
  5
80000501
 10
102.295
 20
115.474
 30
0.000000
  70
    32
  0
VERTEX
  8
0
  5
80000502
 10
102.387
 20
115.513
 30
0.000000
  70
    32
  0
VERTEX
  8
0
  5
80000503
 10
102.479
 20
115.552
 30
0.000000
  70
    32
  0
VERTEX
  8
0
  5
80000504
 10
102.570
 20
115.591
 30
0.000000
  70
    32
  0
VERTEX
  8
0
  5
80000505
 10
102.662
 20
115.630
 30
0.000000
  70
    32
  0
VERTEX
  8
0
  5
80000506
 10
102.754
 20
115.669
 30
0.000000
  70
    32
  0
VERTEX
  8
0
  5
80000507
 10
102.845
 20
115.707
 30
0.000000
  70
    32
  0
VERTEX
  8
0
  5
80000508
 10
102.937
 20
115.745
 30
0.000000
  70
    32
  0
VERTEX
  8
0
  5
80000509
 10
103.029
 20
115.782
 30
0.000000
  70
    32
  0
VERTEX
  8
0
  5
8000050A
 10
103.120
 20
115.820
 30
0.000000
  70
    32
  0
VERTEX
  8
0
  5
8000050B
 10
103.212
 20
115.856
 30
0.000000
  70
    32
  0
VERTEX
  8
0
  5
8000050C
 10
103.304
 20
115.892
 30
0.000000
  70
    32
  0
VERTEX
  8
0
  5
8000050D
 10
103.396
 20
115.928
 30
0.000000
  70
    32
  0
SEQEND
  8
0
  5
8000050E
  0
ENDBLK
  5
FFBBDAE469BC2872
  8
0
  0
BLOCK
  8
0
  2
*U33
 70
     1
 10
0.0
 20
0.0
 30
0.0
  3
*U33
  1

  0
SOLID
  5
FFBBDAE469BC2874
  8
0
  6
CONTINUOUS
 10
-10.27117442816972
 20
77.530826539741454
 30
0.0
 11
-10.0873954314693
 21
80.905138079417611
 31
0.0
 12
-9.1668691181828414
 22
77.653617759172477
 32
0.0
 13
-9.1668691181828414
 23
77.653617759172477
 33
0.0
  0
POLYLINE
  8
0
  5
8000050F
  66
     1
 10
0.000000
 20
0.000000
 30
0.000000
  70
     8
  0
VERTEX
  8
0
  5
80000510
 10
-9.71902
 20
77.5922
 30
0.000000
  70
    32
  0
VERTEX
  8
0
  5
80000511
 10
-9.70012
 20
77.4313
 30
0.000000
  70
    32
  0
VERTEX
  8
0
  5
80000512
 10
-9.67913
 20
77.2687
 30
0.000000
  70
    32
  0
VERTEX
  8
0
  5
80000513
 10
-9.65617
 20
77.1045
 30
0.000000
  70
    32
  0
VERTEX
  8
0
  5
80000514
 10
-9.63138
 20
76.9390
 30
0.000000
  70
    32
  0
VERTEX
  8
0
  5
80000515
 10
-9.60488
 20
76.7721
 30
0.000000
  70
    32
  0
VERTEX
  8
0
  5
80000516
 10
-9.57682
 20
76.6040
 30
0.000000
  70
    32
  0
VERTEX
  8
0
  5
80000517
 10
-9.54733
 20
76.4348
 30
0.000000
  70
    32
  0
VERTEX
  8
0
  5
80000518
 10
-9.51653
 20
76.2646
 30
0.000000
  70
    32
  0
VERTEX
  8
0
  5
80000519
 10
-9.48456
 20
76.0935
 30
0.000000
  70
    32
  0
VERTEX
  8
0
  5
8000051A
 10
-9.45156
 20
75.9216
 30
0.000000
  70
    32
  0
VERTEX
  8
0
  5
8000051B
 10
-9.41765
 20
75.7489
 30
0.000000
  70
    32
  0
VERTEX
  8
0
  5
8000051C
 10
-9.38298
 20
75.5757
 30
0.000000
  70
    32
  0
VERTEX
  8
0
  5
8000051D
 10
-9.34766
 20
75.4020
 30
0.000000
  70
    32
  0
VERTEX
  8
0
  5
8000051E
 10
-9.31184
 20
75.2278
 30
0.000000
  70
    32
  0
VERTEX
  8
0
  5
8000051F
 10
-9.27565
 20
75.0534
 30
0.000000
  70
    32
  0
VERTEX
  8
0
  5
80000520
 10
-9.23921
 20
74.8788
 30
0.000000
  70
    32
  0
VERTEX
  8
0
  5
80000521
 10
-9.20267
 20
74.7041
 30
0.000000
  70
    32
  0
VERTEX
  8
0
  5
80000522
 10
-9.16616
 20
74.5295
 30
0.000000
  70
    32
  0
VERTEX
  8
0
  5
80000523
 10
-9.12980
 20
74.3549
 30
0.000000
  70
    32
  0
VERTEX
  8
0
  5
80000524
 10
-9.09374
 20
74.1806
 30
0.000000
  70
    32
  0
VERTEX
  8
0
  5
80000525
 10
-9.05809
 20
74.0066
 30
0.000000
  70
    32
  0
VERTEX
  8
0
  5
80000526
 10
-9.02301
 20
73.8331
 30
0.000000
  70
    32
  0
VERTEX
  8
0
  5
80000527
 10
-8.98861
 20
73.6601
 30
0.000000
  70
    32
  0
VERTEX
  8
0
  5
80000528
 10
-8.95504
 20
73.4877
 30
0.000000
  70
    32
  0
VERTEX
  8
0
  5
80000529
 10
-8.92242
 20
73.3161
 30
0.000000
  70
    32
  0
VERTEX
  8
0
  5
8000052A
 10
-8.89089
 20
73.1453
 30
0.000000
  70
    32
  0
VERTEX
  8
0
  5
8000052B
 10
-8.86058
 20
72.9754
 30
0.000000
  70
    32
  0
VERTEX
  8
0
  5
8000052C
 10
-8.83162
 20
72.8067
 30
0.000000
  70
    32
  0
VERTEX
  8
0
  5
8000052D
 10
-8.80415
 20
72.6390
 30
0.000000
  70
    32
  0
VERTEX
  8
0
  5
8000052E
 10
-8.77829
 20
72.4727
 30
0.000000
  70
    32
  0
VERTEX
  8
0
  5
8000052F
 10
-8.75419
 20
72.3076
 30
0.000000
  70
    32
  0
VERTEX
  8
0
  5
80000530
 10
-8.73197
 20
72.1441
 30
0.000000
  70
    32
  0
VERTEX
  8
0
  5
80000531
 10
-8.71177
 20
71.9821
 30
0.000000
  70
    32
  0
VERTEX
  8
0
  5
80000532
 10
-8.69372
 20
71.8218
 30
0.000000
  70
    32
  0
VERTEX
  8
0
  5
80000533
 10
-8.67795
 20
71.6633
 30
0.000000
  70
    32
  0
VERTEX
  8
0
  5
80000534
 10
-8.66459
 20
71.5066
 30
0.000000
  70
    32
  0
VERTEX
  8
0
  5
80000535
 10
-8.65378
 20
71.3519
 30
0.000000
  70
    32
  0
VERTEX
  8
0
  5
80000536
 10
-8.64566
 20
71.1994
 30
0.000000
  70
    32
  0
VERTEX
  8
0
  5
80000537
 10
-8.64034
 20
71.0490
 30
0.000000
  70
    32
  0
VERTEX
  8
0
  5
80000538
 10
-8.63797
 20
70.9008
 30
0.000000
  70
    32
  0
VERTEX
  8
0
  5
80000539
 10
-8.63868
 20
70.7551
 30
0.000000
  70
    32
  0
VERTEX
  8
0
  5
8000053A
 10
-8.64260
 20
70.6119
 30
0.000000
  70
    32
  0
VERTEX
  8
0
  5
8000053B
 10
-8.64987
 20
70.4713
 30
0.000000
  70
    32
  0
VERTEX
  8
0
  5
8000053C
 10
-8.66061
 20
70.3334
 30
0.000000
  70
    32
  0
VERTEX
  8
0
  5
8000053D
 10
-8.67497
 20
70.1983
 30
0.000000
  70
    32
  0
VERTEX
  8
0
  5
8000053E
 10
-8.69306
 20
70.0661
 30
0.000000
  70
    32
  0
VERTEX
  8
0
  5
8000053F
 10
-8.71503
 20
69.9369
 30
0.000000
  70
    32
  0
VERTEX
  8
0
  5
80000540
 10
-8.74101
 20
69.8108
 30
0.000000
  70
    32
  0
VERTEX
  8
0
  5
80000541
 10
-8.77113
 20
69.6879
 30
0.000000
  70
    32
  0
VERTEX
  8
0
  5
80000542
 10
-8.80552
 20
69.5684
 30
0.000000
  70
    32
  0
VERTEX
  8
0
  5
80000543
 10
-8.84431
 20
69.4523
 30
0.000000
  70
    32
  0
VERTEX
  8
0
  5
80000544
 10
-8.88752
 20
69.3396
 30
0.000000
  70
    32
  0
VERTEX
  8
0
  5
80000545
 10
-8.93510
 20
69.2304
 30
0.000000
  70
    32
  0
VERTEX
  8
0
  5
80000546
 10
-8.98699
 20
69.1244
 30
0.000000
  70
    32
  0
VERTEX
  8
0
  5
80000547
 10
-9.04311
 20
69.0218
 30
0.000000
  70
    32
  0
VERTEX
  8
0
  5
80000548
 10
-9.10341
 20
68.9224
 30
0.000000
  70
    32
  0
VERTEX
  8
0
  5
80000549
 10
-9.16784
 20
68.8262
 30
0.000000
  70
    32
  0
VERTEX
  8
0
  5
8000054A
 10
-9.23632
 20
68.7332
 30
0.000000
  70
    32
  0
VERTEX
  8
0
  5
8000054B
 10
-9.30879
 20
68.6433
 30
0.000000
  70
    32
  0
VERTEX
  8
0
  5
8000054C
 10
-9.38520
 20
68.5564
 30
0.000000
  70
    32
  0
VERTEX
  8
0
  5
8000054D
 10
-9.46548
 20
68.4726
 30
0.000000
  70
    32
  0
VERTEX
  8
0
  5
8000054E
 10
-9.54956
 20
68.3917
 30
0.000000
  70
    32
  0
VERTEX
  8
0
  5
8000054F
 10
-9.63740
 20
68.3137
 30
0.000000
  70
    32
  0
VERTEX
  8
0
  5
80000550
 10
-9.72893
 20
68.2386
 30
0.000000
  70
    32
  0
VERTEX
  8
0
  5
80000551
 10
-9.82407
 20
68.1663
 30
0.000000
  70
    32
  0
VERTEX
  8
0
  5
80000552
 10
-9.92279
 20
68.0968
 30
0.000000
  70
    32
  0
VERTEX
  8
0
  5
80000553
 10
-10.0250
 20
68.0300
 30
0.000000
  70
    32
  0
VERTEX
  8
0
  5
80000554
 10
-10.1307
 20
67.9659
 30
0.000000
  70
    32
  0
VERTEX
  8
0
  5
80000555
 10
-10.2397
 20
67.9044
 30
0.000000
  70
    32
  0
VERTEX
  8
0
  5
80000556
 10
-10.3520
 20
67.8455
 30
0.000000
  70
    32
  0
VERTEX
  8
0
  5
80000557
 10
-10.4676
 20
67.7891
 30
0.000000
  70
    32
  0
VERTEX
  8
0
  5
80000558
 10
-10.5864
 20
67.7352
 30
0.000000
  70
    32
  0
VERTEX
  8
0
  5
80000559
 10
-10.7084
 20
67.6837
 30
0.000000
  70
    32
  0
VERTEX
  8
0
  5
8000055A
 10
-10.8334
 20
67.6347
 30
0.000000
  70
    32
  0
VERTEX
  8
0
  5
8000055B
 10
-10.9614
 20
67.5879
 30
0.000000
  70
    32
  0
VERTEX
  8
0
  5
8000055C
 10
-11.0923
 20
67.5435
 30
0.000000
  70
    32
  0
VERTEX
  8
0
  5
8000055D
 10
-11.2262
 20
67.5013
 30
0.000000
  70
    32
  0
VERTEX
  8
0
  5
8000055E
 10
-11.3628
 20
67.4613
 30
0.000000
  70
    32
  0
VERTEX
  8
0
  5
8000055F
 10
-11.5023
 20
67.4234
 30
0.000000
  70
    32
  0
VERTEX
  8
0
  5
80000560
 10
-11.6444
 20
67.3876
 30
0.000000
  70
    32
  0
VERTEX
  8
0
  5
80000561
 10
-11.7892
 20
67.3539
 30
0.000000
  70
    32
  0
VERTEX
  8
0
  5
80000562
 10
-11.9365
 20
67.3222
 30
0.000000
  70
    32
  0
VERTEX
  8
0
  5
80000563
 10
-12.0864
 20
67.2925
 30
0.000000
  70
    32
  0
VERTEX
  8
0
  5
80000564
 10
-12.2387
 20
67.2646
 30
0.000000
  70
    32
  0
VERTEX
  8
0
  5
80000565
 10
-12.3934
 20
67.2387
 30
0.000000
  70
    32
  0
VERTEX
  8
0
  5
80000566
 10
-12.5504
 20
67.2145
 30
0.000000
  70
    32
  0
VERTEX
  8
0
  5
80000567
 10
-12.7097
 20
67.1921
 30
0.000000
  70
    32
  0
VERTEX
  8
0
  5
80000568
 10
-12.8712
 20
67.1714
 30
0.000000
  70
    32
  0
VERTEX
  8
0
  5
80000569
 10
-13.0349
 20
67.1524
 30
0.000000
  70
    32
  0
VERTEX
  8
0
  5
8000056A
 10
-13.2006
 20
67.1350
 30
0.000000
  70
    32
  0
VERTEX
  8
0
  5
8000056B
 10
-13.3684
 20
67.1192
 30
0.000000
  70
    32
  0
VERTEX
  8
0
  5
8000056C
 10
-13.5381
 20
67.1049
 30
0.000000
  70
    32
  0
VERTEX
  8
0
  5
8000056D
 10
-13.7097
 20
67.0920
 30
0.000000
  70
    32
  0
VERTEX
  8
0
  5
8000056E
 10
-13.8832
 20
67.0806
 30
0.000000
  70
    32
  0
VERTEX
  8
0
  5
8000056F
 10
-14.0584
 20
67.0706
 30
0.000000
  70
    32
  0
VERTEX
  8
0
  5
80000570
 10
-14.2354
 20
67.0619
 30
0.000000
  70
    32
  0
VERTEX
  8
0
  5
80000571
 10
-14.4140
 20
67.0545
 30
0.000000
  70
    32
  0
VERTEX
  8
0
  5
80000572
 10
-14.5942
 20
67.0484
 30
0.000000
  70
    32
  0
VERTEX
  8
0
  5
80000573
 10
-14.7759
 20
67.0434
 30
0.000000
  70
    32
  0
VERTEX
  8
0
  5
80000574
 10
-14.9591
 20
67.0396
 30
0.000000
  70
    32
  0
VERTEX
  8
0
  5
80000575
 10
-15.1437
 20
67.0368
 30
0.000000
  70
    32
  0
VERTEX
  8
0
  5
80000576
 10
-15.3296
 20
67.0351
 30
0.000000
  70
    32
  0
VERTEX
  8
0
  5
80000577
 10
-15.5169
 20
67.0344
 30
0.000000
  70
    32
  0
VERTEX
  8
0
  5
80000578
 10
-15.7053
 20
67.0347
 30
0.000000
  70
    32
  0
VERTEX
  8
0
  5
80000579
 10
-15.8949
 20
67.0358
 30
0.000000
  70
    32
  0
VERTEX
  8
0
  5
8000057A
 10
-16.0856
 20
67.0378
 30
0.000000
  70
    32
  0
VERTEX
  8
0
  5
8000057B
 10
-16.2773
 20
67.0407
 30
0.000000
  70
    32
  0
VERTEX
  8
0
  5
8000057C
 10
-16.4701
 20
67.0442
 30
0.000000
  70
    32
  0
VERTEX
  8
0
  5
8000057D
 10
-16.6637
 20
67.0485
 30
0.000000
  70
    32
  0
VERTEX
  8
0
  5
8000057E
 10
-16.8582
 20
67.0535
 30
0.000000
  70
    32
  0
VERTEX
  8
0
  5
8000057F
 10
-17.0534
 20
67.0590
 30
0.000000
  70
    32
  0
VERTEX
  8
0
  5
80000580
 10
-17.2494
 20
67.0651
 30
0.000000
  70
    32
  0
VERTEX
  8
0
  5
80000581
 10
-17.4461
 20
67.0718
 30
0.000000
  70
    32
  0
VERTEX
  8
0
  5
80000582
 10
-17.6433
 20
67.0789
 30
0.000000
  70
    32
  0
VERTEX
  8
0
  5
80000583
 10
-17.8411
 20
67.0864
 30
0.000000
  70
    32
  0
VERTEX
  8
0
  5
80000584
 10
-18.0394
 20
67.0943
 30
0.000000
  70
    32
  0
VERTEX
  8
0
  5
80000585
 10
-18.2381
 20
67.1026
 30
0.000000
  70
    32
  0
VERTEX
  8
0
  5
80000586
 10
-18.4372
 20
67.1111
 30
0.000000
  70
    32
  0
VERTEX
  8
0
  5
80000587
 10
-18.6366
 20
67.1198
 30
0.000000
  70
    32
  0
VERTEX
  8
0
  5
80000588
 10
-18.8362
 20
67.1287
 30
0.000000
  70
    32
  0
VERTEX
  8
0
  5
80000589
 10
-19.0359
 20
67.1378
 30
0.000000
  70
    32
  0
VERTEX
  8
0
  5
8000058A
 10
-19.2358
 20
67.1469
 30
0.000000
  70
    32
  0
VERTEX
  8
0
  5
8000058B
 10
-19.4357
 20
67.1561
 30
0.000000
  70
    32
  0
VERTEX
  8
0
  5
8000058C
 10
-19.6357
 20
67.1653
 30
0.000000
  70
    32
  0
VERTEX
  8
0
  5
8000058D
 10
-19.8355
 20
67.1744
 30
0.000000
  70
    32
  0
VERTEX
  8
0
  5
8000058E
 10
-20.0352
 20
67.1834
 30
0.000000
  70
    32
  0
VERTEX
  8
0
  5
8000058F
 10
-20.2347
 20
67.1923
 30
0.000000
  70
    32
  0
VERTEX
  8
0
  5
80000590
 10
-20.4340
 20
67.2009
 30
0.000000
  70
    32
  0
VERTEX
  8
0
  5
80000591
 10
-20.6329
 20
67.2094
 30
0.000000
  70
    32
  0
VERTEX
  8
0
  5
80000592
 10
-20.8315
 20
67.2175
 30
0.000000
  70
    32
  0
VERTEX
  8
0
  5
80000593
 10
-21.0296
 20
67.2252
 30
0.000000
  70
    32
  0
VERTEX
  8
0
  5
80000594
 10
-21.2272
 20
67.2326
 30
0.000000
  70
    32
  0
VERTEX
  8
0
  5
80000595
 10
-21.4242
 20
67.2395
 30
0.000000
  70
    32
  0
VERTEX
  8
0
  5
80000596
 10
-21.6206
 20
67.2460
 30
0.000000
  70
    32
  0
VERTEX
  8
0
  5
80000597
 10
-21.8164
 20
67.2519
 30
0.000000
  70
    32
  0
VERTEX
  8
0
  5
80000598
 10
-22.0113
 20
67.2572
 30
0.000000
  70
    32
  0
VERTEX
  8
0
  5
80000599
 10
-22.2055
 20
67.2619
 30
0.000000
  70
    32
  0
VERTEX
  8
0
  5
8000059A
 10
-22.3988
 20
67.2659
 30
0.000000
  70
    32
  0
VERTEX
  8
0
  5
8000059B
 10
-22.5911
 20
67.2692
 30
0.000000
  70
    32
  0
VERTEX
  8
0
  5
8000059C
 10
-22.7824
 20
67.2717
 30
0.000000
  70
    32
  0
VERTEX
  8
0
  5
8000059D
 10
-22.9727
 20
67.2734
 30
0.000000
  70
    32
  0
VERTEX
  8
0
  5
8000059E
 10
-23.1619
 20
67.2742
 30
0.000000
  70
    32
  0
VERTEX
  8
0
  5
8000059F
 10
-23.3499
 20
67.2741
 30
0.000000
  70
    32
  0
VERTEX
  8
0
  5
800005A0
 10
-23.5366
 20
67.2730
 30
0.000000
  70
    32
  0
VERTEX
  8
0
  5
800005A1
 10
-23.7220
 20
67.2710
 30
0.000000
  70
    32
  0
VERTEX
  8
0
  5
800005A2
 10
-23.9061
 20
67.2678
 30
0.000000
  70
    32
  0
VERTEX
  8
0
  5
800005A3
 10
-24.0887
 20
67.2635
 30
0.000000
  70
    32
  0
VERTEX
  8
0
  5
800005A4
 10
-24.2699
 20
67.2581
 30
0.000000
  70
    32
  0
VERTEX
  8
0
  5
800005A5
 10
-24.4495
 20
67.2515
 30
0.000000
  70
    32
  0
VERTEX
  8
0
  5
800005A6
 10
-24.6274
 20
67.2436
 30
0.000000
  70
    32
  0
VERTEX
  8
0
  5
800005A7
 10
-24.8037
 20
67.2344
 30
0.000000
  70
    32
  0
VERTEX
  8
0
  5
800005A8
 10
-24.9783
 20
67.2238
 30
0.000000
  70
    32
  0
VERTEX
  8
0
  5
800005A9
 10
-25.1511
 20
67.2119
 30
0.000000
  70
    32
  0
VERTEX
  8
0
  5
800005AA
 10
-25.3220
 20
67.1985
 30
0.000000
  70
    32
  0
VERTEX
  8
0
  5
800005AB
 10
-25.4909
 20
67.1836
 30
0.000000
  70
    32
  0
VERTEX
  8
0
  5
800005AC
 10
-25.6579
 20
67.1672
 30
0.000000
  70
    32
  0
VERTEX
  8
0
  5
800005AD
 10
-25.8229
 20
67.1492
 30
0.000000
  70
    32
  0
VERTEX
  8
0
  5
800005AE
 10
-25.9857
 20
67.1295
 30
0.000000
  70
    32
  0
VERTEX
  8
0
  5
800005AF
 10
-26.1464
 20
67.1082
 30
0.000000
  70
    32
  0
SEQEND
  8
0
  5
800005B0
  0
ENDBLK
  5
FFBBDAE469BC2877
  8
0
  0
BLOCK
  8
0
  2
*U34
 70
     1
 10
0.0
 20
0.0
 30
0.0
  3
*U34
  1

  0
SOLID
  5
FFBBDAE469BC2879
  8
0
  6
CONTINUOUS
 10
4.307371572460478
 20
69.197537676611063
 30
0.0
 11
4.094201760899522
 21
72.570120028142128
 31
0.0
 12
5.3896593723321242
 22
69.448975580443303
 32
0.0
 13
5.3896593723321242
 23
69.448975580443303
 33
0.0
  0
POLYLINE
  8
0
  5
800005B1
  66
     1
 10
0.000000
 20
0.000000
 30
0.000000
  70
     8
  0
VERTEX
  8
0
  5
800005B2
 10
4.84852
 20
69.3233
 30
0.000000
  70
    32
  0
VERTEX
  8
0
  5
800005B3
 10
4.94204
 20
68.9316
 30
0.000000
  70
    32
  0
VERTEX
  8
0
  5
800005B4
 10
5.04146
 20
68.5358
 30
0.000000
  70
    32
  0
VERTEX
  8
0
  5
800005B5
 10
5.14651
 20
68.1360
 30
0.000000
  70
    32
  0
VERTEX
  8
0
  5
800005B6
 10
5.25695
 20
67.7325
 30
0.000000
  70
    32
  0
VERTEX
  8
0
  5
800005B7
 10
5.37253
 20
67.3253
 30
0.000000
  70
    32
  0
VERTEX
  8
0
  5
800005B8
 10
5.49301
 20
66.9148
 30
0.000000
  70
    32
  0
VERTEX
  8
0
  5
800005B9
 10
5.61813
 20
66.5009
 30
0.000000
  70
    32
  0
VERTEX
  8
0
  5
800005BA
 10
5.74765
 20
66.0840
 30
0.000000
  70
    32
  0
VERTEX
  8
0
  5
800005BB
 10
5.88131
 20
65.6642
 30
0.000000
  70
    32
  0
VERTEX
  8
0
  5
800005BC
 10
6.01888
 20
65.2417
 30
0.000000
  70
    32
  0
VERTEX
  8
0
  5
800005BD
 10
6.16011
 20
64.8166
 30
0.000000
  70
    32
  0
VERTEX
  8
0
  5
800005BE
 10
6.30474
 20
64.3891
 30
0.000000
  70
    32
  0
VERTEX
  8
0
  5
800005BF
 10
6.45253
 20
63.9594
 30
0.000000
  70
    32
  0
VERTEX
  8
0
  5
800005C0
 10
6.60323
 20
63.5276
 30
0.000000
  70
    32
  0
VERTEX
  8
0
  5
800005C1
 10
6.75659
 20
63.0940
 30
0.000000
  70
    32
  0
VERTEX
  8
0
  5
800005C2
 10
6.91237
 20
62.6587
 30
0.000000
  70
    32
  0
VERTEX
  8
0
  5
800005C3
 10
7.07031
 20
62.2219
 30
0.000000
  70
    32
  0
VERTEX
  8
0
  5
800005C4
 10
7.23018
 20
61.7837
 30
0.000000
  70
    32
  0
VERTEX
  8
0
  5
800005C5
 10
7.39171
 20
61.3444
 30
0.000000
  70
    32
  0
VERTEX
  8
0
  5
800005C6
 10
7.55467
 20
60.9040
 30
0.000000
  70
    32
  0
VERTEX
  8
0
  5
800005C7
 10
7.71880
 20
60.4629
 30
0.000000
  70
    32
  0
VERTEX
  8
0
  5
800005C8
 10
7.88386
 20
60.0210
 30
0.000000
  70
    32
  0
VERTEX
  8
0
  5
800005C9
 10
8.04960
 20
59.5788
 30
0.000000
  70
    32
  0
VERTEX
  8
0
  5
800005CA
 10
8.21578
 20
59.1362
 30
0.000000
  70
    32
  0
VERTEX
  8
0
  5
800005CB
 10
8.38213
 20
58.6934
 30
0.000000
  70
    32
  0
VERTEX
  8
0
  5
800005CC
 10
8.54842
 20
58.2508
 30
0.000000
  70
    32
  0
VERTEX
  8
0
  5
800005CD
 10
8.71440
 20
57.8083
 30
0.000000
  70
    32
  0
VERTEX
  8
0
  5
800005CE
 10
8.87982
 20
57.3662
 30
0.000000
  70
    32
  0
VERTEX
  8
0
  5
800005CF
 10
9.04444
 20
56.9247
 30
0.000000
  70
    32
  0
VERTEX
  8
0
  5
800005D0
 10
9.20799
 20
56.4840
 30
0.000000
  70
    32
  0
VERTEX
  8
0
  5
800005D1
 10
9.37025
 20
56.0441
 30
0.000000
  70
    32
  0
VERTEX
  8
0
  5
800005D2
 10
9.53095
 20
55.6054
 30
0.000000
  70
    32
  0
VERTEX
  8
0
  5
800005D3
 10
9.68986
 20
55.1679
 30
0.000000
  70
    32
  0
VERTEX
  8
0
  5
800005D4
 10
9.84671
 20
54.7318
 30
0.000000
  70
    32
  0
VERTEX
  8
0
  5
800005D5
 10
10.0013
 20
54.2974
 30
0.000000
  70
    32
  0
VERTEX
  8
0
  5
800005D6
 10
10.1533
 20
53.8647
 30
0.000000
  70
    32
  0
VERTEX
  8
0
  5
800005D7
 10
10.3025
 20
53.4340
 30
0.000000
  70
    32
  0
VERTEX
  8
0
  5
800005D8
 10
10.4487
 20
53.0054
 30
0.000000
  70
    32
  0
VERTEX
  8
0
  5
800005D9
 10
10.5916
 20
52.5791
 30
0.000000
  70
    32
  0
VERTEX
  8
0
  5
800005DA
 10
10.7310
 20
52.1553
 30
0.000000
  70
    32
  0
VERTEX
  8
0
  5
800005DB
 10
10.8666
 20
51.7341
 30
0.000000
  70
    32
  0
VERTEX
  8
0
  5
800005DC
 10
10.9981
 20
51.3158
 30
0.000000
  70
    32
  0
VERTEX
  8
0
  5
800005DD
 10
11.1254
 20
50.9005
 30
0.000000
  70
    32
  0
VERTEX
  8
0
  5
800005DE
 10
11.2482
 20
50.4883
 30
0.000000
  70
    32
  0
VERTEX
  8
0
  5
800005DF
 10
11.3661
 20
50.0795
 30
0.000000
  70
    32
  0
VERTEX
  8
0
  5
800005E0
 10
11.4791
 20
49.6742
 30
0.000000
  70
    32
  0
VERTEX
  8
0
  5
800005E1
 10
11.5868
 20
49.2726
 30
0.000000
  70
    32
  0
VERTEX
  8
0
  5
800005E2
 10
11.6890
 20
48.8748
 30
0.000000
  70
    32
  0
VERTEX
  8
0
  5
800005E3
 10
11.7854
 20
48.4811
 30
0.000000
  70
    32
  0
VERTEX
  8
0
  5
800005E4
 10
11.8758
 20
48.0916
 30
0.000000
  70
    32
  0
VERTEX
  8
0
  5
800005E5
 10
11.9599
 20
47.7065
 30
0.000000
  70
    32
  0
VERTEX
  8
0
  5
800005E6
 10
12.0375
 20
47.3260
 30
0.000000
  70
    32
  0
VERTEX
  8
0
  5
800005E7
 10
12.1084
 20
46.9502
 30
0.000000
  70
    32
  0
VERTEX
  8
0
  5
800005E8
 10
12.1723
 20
46.5793
 30
0.000000
  70
    32
  0
VERTEX
  8
0
  5
800005E9
 10
12.2289
 20
46.2135
 30
0.000000
  70
    32
  0
VERTEX
  8
0
  5
800005EA
 10
12.2780
 20
45.8529
 30
0.000000
  70
    32
  0
VERTEX
  8
0
  5
800005EB
 10
12.3193
 20
45.4978
 30
0.000000
  70
    32
  0
VERTEX
  8
0
  5
800005EC
 10
12.3527
 20
45.1483
 30
0.000000
  70
    32
  0
VERTEX
  8
0
  5
800005ED
 10
12.3778
 20
44.8045
 30
0.000000
  70
    32
  0
VERTEX
  8
0
  5
800005EE
 10
12.3945
 20
44.4668
 30
0.000000
  70
    32
  0
VERTEX
  8
0
  5
800005EF
 10
12.4024
 20
44.1351
 30
0.000000
  70
    32
  0
VERTEX
  8
0
  5
800005F0
 10
12.4013
 20
43.8097
 30
0.000000
  70
    32
  0
VERTEX
  8
0
  5
800005F1
 10
12.3909
 20
43.4908
 30
0.000000
  70
    32
  0
VERTEX
  8
0
  5
800005F2
 10
12.3711
 20
43.1786
 30
0.000000
  70
    32
  0
VERTEX
  8
0
  5
800005F3
 10
12.3416
 20
42.8731
 30
0.000000
  70
    32
  0
VERTEX
  8
0
  5
800005F4
 10
12.3021
 20
42.5747
 30
0.000000
  70
    32
  0
VERTEX
  8
0
  5
800005F5
 10
12.2523
 20
42.2834
 30
0.000000
  70
    32
  0
VERTEX
  8
0
  5
800005F6
 10
12.1921
 20
41.9995
 30
0.000000
  70
    32
  0
VERTEX
  8
0
  5
800005F7
 10
12.1211
 20
41.7231
 30
0.000000
  70
    32
  0
VERTEX
  8
0
  5
800005F8
 10
12.0392
 20
41.4543
 30
0.000000
  70
    32
  0
VERTEX
  8
0
  5
800005F9
 10
11.9461
 20
41.1935
 30
0.000000
  70
    32
  0
VERTEX
  8
0
  5
800005FA
 10
11.8415
 20
40.9406
 30
0.000000
  70
    32
  0
VERTEX
  8
0
  5
800005FB
 10
11.7252
 20
40.6960
 30
0.000000
  70
    32
  0
VERTEX
  8
0
  5
800005FC
 10
11.5969
 20
40.4598
 30
0.000000
  70
    32
  0
VERTEX
  8
0
  5
800005FD
 10
11.4564
 20
40.2321
 30
0.000000
  70
    32
  0
VERTEX
  8
0
  5
800005FE
 10
11.3039
 20
40.0128
 30
0.000000
  70
    32
  0
VERTEX
  8
0
  5
800005FF
 10
11.1394
 20
39.8019
 30
0.000000
  70
    32
  0
VERTEX
  8
0
  5
80000600
 10
10.9634
 20
39.5992
 30
0.000000
  70
    32
  0
VERTEX
  8
0
  5
80000601
 10
10.7758
 20
39.4045
 30
0.000000
  70
    32
  0
VERTEX
  8
0
  5
80000602
 10
10.5770
 20
39.2176
 30
0.000000
  70
    32
  0
VERTEX
  8
0
  5
80000603
 10
10.3673
 20
39.0385
 30
0.000000
  70
    32
  0
VERTEX
  8
0
  5
80000604
 10
10.1467
 20
38.8669
 30
0.000000
  70
    32
  0
VERTEX
  8
0
  5
80000605
 10
9.91553
 20
38.7028
 30
0.000000
  70
    32
  0
VERTEX
  8
0
  5
80000606
 10
9.67401
 20
38.5459
 30
0.000000
  70
    32
  0
VERTEX
  8
0
  5
80000607
 10
9.42234
 20
38.3961
 30
0.000000
  70
    32
  0
VERTEX
  8
0
  5
80000608
 10
9.16075
 20
38.2533
 30
0.000000
  70
    32
  0
VERTEX
  8
0
  5
80000609
 10
8.88945
 20
38.1173
 30
0.000000
  70
    32
  0
VERTEX
  8
0
  5
8000060A
 10
8.60866
 20
37.9880
 30
0.000000
  70
    32
  0
VERTEX
  8
0
  5
8000060B
 10
8.31859
 20
37.8651
 30
0.000000
  70
    32
  0
VERTEX
  8
0
  5
8000060C
 10
8.01946
 20
37.7486
 30
0.000000
  70
    32
  0
VERTEX
  8
0
  5
8000060D
 10
7.71149
 20
37.6383
 30
0.000000
  70
    32
  0
VERTEX
  8
0
  5
8000060E
 10
7.39489
 20
37.5340
 30
0.000000
  70
    32
  0
VERTEX
  8
0
  5
8000060F
 10
7.06988
 20
37.4356
 30
0.000000
  70
    32
  0
VERTEX
  8
0
  5
80000610
 10
6.73668
 20
37.3430
 30
0.000000
  70
    32
  0
VERTEX
  8
0
  5
80000611
 10
6.39551
 20
37.2560
 30
0.000000
  70
    32
  0
VERTEX
  8
0
  5
80000612
 10
6.04659
 20
37.1743
 30
0.000000
  70
    32
  0
VERTEX
  8
0
  5
80000613
 10
5.69012
 20
37.0980
 30
0.000000
  70
    32
  0
VERTEX
  8
0
  5
80000614
 10
5.32633
 20
37.0268
 30
0.000000
  70
    32
  0
VERTEX
  8
0
  5
80000615
 10
4.95543
 20
36.9606
 30
0.000000
  70
    32
  0
VERTEX
  8
0
  5
80000616
 10
4.57764
 20
36.8992
 30
0.000000
  70
    32
  0
VERTEX
  8
0
  5
80000617
 10
4.19318
 20
36.8425
 30
0.000000
  70
    32
  0
VERTEX
  8
0
  5
80000618
 10
3.80227
 20
36.7903
 30
0.000000
  70
    32
  0
VERTEX
  8
0
  5
80000619
 10
3.40512
 20
36.7425
 30
0.000000
  70
    32
  0
VERTEX
  8
0
  5
8000061A
 10
3.00194
 20
36.6989
 30
0.000000
  70
    32
  0
VERTEX
  8
0
  5
8000061B
 10
2.59297
 20
36.6594
 30
0.000000
  70
    32
  0
VERTEX
  8
0
  5
8000061C
 10
2.17841
 20
36.6238
 30
0.000000
  70
    32
  0
VERTEX
  8
0
  5
8000061D
 10
1.75847
 20
36.5919
 30
0.000000
  70
    32
  0
VERTEX
  8
0
  5
8000061E
 10
1.33339
 20
36.5637
 30
0.000000
  70
    32
  0
VERTEX
  8
0
  5
8000061F
 10
0.903365
 20
36.5389
 30
0.000000
  70
    32
  0
VERTEX
  8
0
  5
80000620
 10
0.468625
 20
36.5174
 30
0.000000
  70
    32
  0
VERTEX
  8
0
  5
80000621
 10
0.0293835
 20
36.4991
 30
0.000000
  70
    32
  0
VERTEX
  8
0
  5
80000622
 10
-0.414143
 20
36.4838
 30
0.000000
  70
    32
  0
VERTEX
  8
0
  5
80000623
 10
-0.861737
 20
36.4713
 30
0.000000
  70
    32
  0
VERTEX
  8
0
  5
80000624
 10
-1.31318
 20
36.4616
 30
0.000000
  70
    32
  0
VERTEX
  8
0
  5
80000625
 10
-1.76826
 20
36.4543
 30
0.000000
  70
    32
  0
VERTEX
  8
0
  5
80000626
 10
-2.22675
 20
36.4495
 30
0.000000
  70
    32
  0
VERTEX
  8
0
  5
80000627
 10
-2.68845
 20
36.4469
 30
0.000000
  70
    32
  0
VERTEX
  8
0
  5
80000628
 10
-3.15312
 20
36.4464
 30
0.000000
  70
    32
  0
VERTEX
  8
0
  5
80000629
 10
-3.62057
 20
36.4479
 30
0.000000
  70
    32
  0
VERTEX
  8
0
  5
8000062A
 10
-4.09056
 20
36.4511
 30
0.000000
  70
    32
  0
VERTEX
  8
0
  5
8000062B
 10
-4.56288
 20
36.4560
 30
0.000000
  70
    32
  0
VERTEX
  8
0
  5
8000062C
 10
-5.03731
 20
36.4623
 30
0.000000
  70
    32
  0
VERTEX
  8
0
  5
8000062D
 10
-5.51365
 20
36.4700
 30
0.000000
  70
    32
  0
VERTEX
  8
0
  5
8000062E
 10
-5.99166
 20
36.4788
 30
0.000000
  70
    32
  0
VERTEX
  8
0
  5
8000062F
 10
-6.47114
 20
36.4887
 30
0.000000
  70
    32
  0
VERTEX
  8
0
  5
80000630
 10
-6.95186
 20
36.4995
 30
0.000000
  70
    32
  0
VERTEX
  8
0
  5
80000631
 10
-7.43361
 20
36.5109
 30
0.000000
  70
    32
  0
VERTEX
  8
0
  5
80000632
 10
-7.91618
 20
36.5230
 30
0.000000
  70
    32
  0
VERTEX
  8
0
  5
80000633
 10
-8.39934
 20
36.5354
 30
0.000000
  70
    32
  0
VERTEX
  8
0
  5
80000634
 10
-8.88287
 20
36.5482
 30
0.000000
  70
    32
  0
VERTEX
  8
0
  5
80000635
 10
-9.36657
 20
36.5610
 30
0.000000
  70
    32
  0
VERTEX
  8
0
  5
80000636
 10
-9.85021
 20
36.5738
 30
0.000000
  70
    32
  0
VERTEX
  8
0
  5
80000637
 10
-10.3336
 20
36.5864
 30
0.000000
  70
    32
  0
VERTEX
  8
0
  5
80000638
 10
-10.8165
 20
36.5987
 30
0.000000
  70
    32
  0
VERTEX
  8
0
  5
80000639
 10
-11.2986
 20
36.6104
 30
0.000000
  70
    32
  0
VERTEX
  8
0
  5
8000063A
 10
-11.7799
 20
36.6215
 30
0.000000
  70
    32
  0
VERTEX
  8
0
  5
8000063B
 10
-12.2600
 20
36.6319
 30
0.000000
  70
    32
  0
VERTEX
  8
0
  5
8000063C
 10
-12.7387
 20
36.6412
 30
0.000000
  70
    32
  0
VERTEX
  8
0
  5
8000063D
 10
-13.2159
 20
36.6495
 30
0.000000
  70
    32
  0
VERTEX
  8
0
  5
8000063E
 10
-13.6913
 20
36.6565
 30
0.000000
  70
    32
  0
VERTEX
  8
0
  5
8000063F
 10
-14.1647
 20
36.6621
 30
0.000000
  70
    32
  0
VERTEX
  8
0
  5
80000640
 10
-14.6358
 20
36.6661
 30
0.000000
  70
    32
  0
VERTEX
  8
0
  5
80000641
 10
-15.1045
 20
36.6685
 30
0.000000
  70
    32
  0
VERTEX
  8
0
  5
80000642
 10
-15.5706
 20
36.6689
 30
0.000000
  70
    32
  0
VERTEX
  8
0
  5
80000643
 10
-16.0337
 20
36.6674
 30
0.000000
  70
    32
  0
VERTEX
  8
0
  5
80000644
 10
-16.4938
 20
36.6636
 30
0.000000
  70
    32
  0
VERTEX
  8
0
  5
80000645
 10
-16.9505
 20
36.6576
 30
0.000000
  70
    32
  0
VERTEX
  8
0
  5
80000646
 10
-17.4038
 20
36.6491
 30
0.000000
  70
    32
  0
VERTEX
  8
0
  5
80000647
 10
-17.8533
 20
36.6379
 30
0.000000
  70
    32
  0
VERTEX
  8
0
  5
80000648
 10
-18.2988
 20
36.6240
 30
0.000000
  70
    32
  0
VERTEX
  8
0
  5
80000649
 10
-18.7401
 20
36.6072
 30
0.000000
  70
    32
  0
VERTEX
  8
0
  5
8000064A
 10
-19.1771
 20
36.5872
 30
0.000000
  70
    32
  0
VERTEX
  8
0
  5
8000064B
 10
-19.6094
 20
36.5641
 30
0.000000
  70
    32
  0
VERTEX
  8
0
  5
8000064C
 10
-20.0369
 20
36.5375
 30
0.000000
  70
    32
  0
VERTEX
  8
0
  5
8000064D
 10
-20.4594
 20
36.5075
 30
0.000000
  70
    32
  0
VERTEX
  8
0
  5
8000064E
 10
-20.8765
 20
36.4737
 30
0.000000
  70
    32
  0
VERTEX
  8
0
  5
8000064F
 10
-21.2883
 20
36.4361
 30
0.000000
  70
    32
  0
VERTEX
  8
0
  5
80000650
 10
-21.6943
 20
36.3945
 30
0.000000
  70
    32
  0
VERTEX
  8
0
  5
80000651
 10
-22.0944
 20
36.3487
 30
0.000000
  70
    32
  0
SEQEND
  8
0
  5
80000652
  0
ENDBLK
  5
FFBBDAE469BC287C
  8
0
  0
BLOCK
  8
0
  2
*U35
 70
     1
 10
0.0
 20
0.0
 30
0.0
  3
*U35
  1

  0
SOLID
  5
FFBBDAE469BC287E
  8
0
  6
CONTINUOUS
 10
21.16440591486878
 20
73.073729037406508
 30
0.0
 11
22.073789727792249
 21
76.328383268997413
 31
0.0
 12
22.269125331218451
 22
72.954721002490302
 32
0.0
 13
22.269125331218451
 23
72.954721002490302
 33
0.0
  0
POLYLINE
  8
0
  5
80000653
  66
     1
 10
0.000000
 20
0.000000
 30
0.000000
  70
     8
  0
VERTEX
  8
0
  5
80000654
 10
21.7168
 20
73.0142
 30
0.000000
  70
    32
  0
VERTEX
  8
0
  5
80000655
 10
21.6571
 20
72.4278
 30
0.000000
  70
    32
  0
VERTEX
  8
0
  5
80000656
 10
21.6036
 20
71.8358
 30
0.000000
  70
    32
  0
VERTEX
  8
0
  5
80000657
 10
21.5561
 20
71.2383
 30
0.000000
  70
    32
  0
VERTEX
  8
0
  5
80000658
 10
21.5142
 20
70.6355
 30
0.000000
  70
    32
  0
VERTEX
  8
0
  5
80000659
 10
21.4777
 20
70.0279
 30
0.000000
  70
    32
  0
VERTEX
  8
0
  5
8000065A
 10
21.4463
 20
69.4155
 30
0.000000
  70
    32
  0
VERTEX
  8
0
  5
8000065B
 10
21.4198
 20
68.7987
 30
0.000000
  70
    32
  0
VERTEX
  8
0
  5
8000065C
 10
21.3979
 20
68.1776
 30
0.000000
  70
    32
  0
VERTEX
  8
0
  5
8000065D
 10
21.3803
 20
67.5525
 30
0.000000
  70
    32
  0
VERTEX
  8
0
  5
8000065E
 10
21.3668
 20
66.9238
 30
0.000000
  70
    32
  0
VERTEX
  8
0
  5
8000065F
 10
21.3571
 20
66.2915
 30
0.000000
  70
    32
  0
VERTEX
  8
0
  5
80000660
 10
21.3510
 20
65.6559
 30
0.000000
  70
    32
  0
VERTEX
  8
0
  5
80000661
 10
21.3481
 20
65.0174
 30
0.000000
  70
    32
  0
VERTEX
  8
0
  5
80000662
 10
21.3482
 20
64.3761
 30
0.000000
  70
    32
  0
VERTEX
  8
0
  5
80000663
 10
21.3511
 20
63.7323
 30
0.000000
  70
    32
  0
VERTEX
  8
0
  5
80000664
 10
21.3565
 20
63.0862
 30
0.000000
  70
    32
  0
VERTEX
  8
0
  5
80000665
 10
21.3641
 20
62.4380
 30
0.000000
  70
    32
  0
VERTEX
  8
0
  5
80000666
 10
21.3736
 20
61.7881
 30
0.000000
  70
    32
  0
VERTEX
  8
0
  5
80000667
 10
21.3848
 20
61.1366
 30
0.000000
  70
    32
  0
VERTEX
  8
0
  5
80000668
 10
21.3975
 20
60.4838
 30
0.000000
  70
    32
  0
VERTEX
  8
0
  5
80000669
 10
21.4113
 20
59.8299
 30
0.000000
  70
    32
  0
VERTEX
  8
0
  5
8000066A
 10
21.4260
 20
59.1753
 30
0.000000
  70
    32
  0
VERTEX
  8
0
  5
8000066B
 10
21.4413
 20
58.5200
 30
0.000000
  70
    32
  0
VERTEX
  8
0
  5
8000066C
 10
21.4570
 20
57.8644
 30
0.000000
  70
    32
  0
VERTEX
  8
0
  5
8000066D
 10
21.4727
 20
57.2088
 30
0.000000
  70
    32
  0
VERTEX
  8
0
  5
8000066E
 10
21.4884
 20
56.5532
 30
0.000000
  70
    32
  0
VERTEX
  8
0
  5
8000066F
 10
21.5035
 20
55.8981
 30
0.000000
  70
    32
  0
VERTEX
  8
0
  5
80000670
 10
21.5180
 20
55.2436
 30
0.000000
  70
    32
  0
VERTEX
  8
0
  5
80000671
 10
21.5316
 20
54.5900
 30
0.000000
  70
    32
  0
VERTEX
  8
0
  5
80000672
 10
21.5439
 20
53.9376
 30
0.000000
  70
    32
  0
VERTEX
  8
0
  5
80000673
 10
21.5547
 20
53.2865
 30
0.000000
  70
    32
  0
VERTEX
  8
0
  5
80000674
 10
21.5637
 20
52.6370
 30
0.000000
  70
    32
  0
VERTEX
  8
0
  5
80000675
 10
21.5708
 20
51.9893
 30
0.000000
  70
    32
  0
VERTEX
  8
0
  5
80000676
 10
21.5755
 20
51.3438
 30
0.000000
  70
    32
  0
VERTEX
  8
0
  5
80000677
 10
21.5777
 20
50.7006
 30
0.000000
  70
    32
  0
VERTEX
  8
0
  5
80000678
 10
21.5771
 20
50.0600
 30
0.000000
  70
    32
  0
VERTEX
  8
0
  5
80000679
 10
21.5734
 20
49.4222
 30
0.000000
  70
    32
  0
VERTEX
  8
0
  5
8000067A
 10
21.5663
 20
48.7875
 30
0.000000
  70
    32
  0
VERTEX
  8
0
  5
8000067B
 10
21.5557
 20
48.1561
 30
0.000000
  70
    32
  0
VERTEX
  8
0
  5
8000067C
 10
21.5411
 20
47.5282
 30
0.000000
  70
    32
  0
VERTEX
  8
0
  5
8000067D
 10
21.5225
 20
46.9042
 30
0.000000
  70
    32
  0
VERTEX
  8
0
  5
8000067E
 10
21.4994
 20
46.2842
 30
0.000000
  70
    32
  0
VERTEX
  8
0
  5
8000067F
 10
21.4717
 20
45.6685
 30
0.000000
  70
    32
  0
VERTEX
  8
0
  5
80000680
 10
21.4390
 20
45.0573
 30
0.000000
  70
    32
  0
VERTEX
  8
0
  5
80000681
 10
21.4011
 20
44.4509
 30
0.000000
  70
    32
  0
VERTEX
  8
0
  5
80000682
 10
21.3578
 20
43.8495
 30
0.000000
  70
    32
  0
VERTEX
  8
0
  5
80000683
 10
21.3087
 20
43.2534
 30
0.000000
  70
    32
  0
VERTEX
  8
0
  5
80000684
 10
21.2536
 20
42.6628
 30
0.000000
  70
    32
  0
VERTEX
  8
0
  5
80000685
 10
21.1923
 20
42.0779
 30
0.000000
  70
    32
  0
VERTEX
  8
0
  5
80000686
 10
21.1245
 20
41.4990
 30
0.000000
  70
    32
  0
VERTEX
  8
0
  5
80000687
 10
21.0498
 20
40.9264
 30
0.000000
  70
    32
  0
VERTEX
  8
0
  5
80000688
 10
20.9682
 20
40.3602
 30
0.000000
  70
    32
  0
VERTEX
  8
0
  5
80000689
 10
20.8792
 20
39.8007
 30
0.000000
  70
    32
  0
VERTEX
  8
0
  5
8000068A
 10
20.7826
 20
39.2482
 30
0.000000
  70
    32
  0
VERTEX
  8
0
  5
8000068B
 10
20.6781
 20
38.7030
 30
0.000000
  70
    32
  0
VERTEX
  8
0
  5
8000068C
 10
20.5656
 20
38.1651
 30
0.000000
  70
    32
  0
VERTEX
  8
0
  5
8000068D
 10
20.4447
 20
37.6350
 30
0.000000
  70
    32
  0
VERTEX
  8
0
  5
8000068E
 10
20.3151
 20
37.1128
 30
0.000000
  70
    32
  0
VERTEX
  8
0
  5
8000068F
 10
20.1766
 20
36.5987
 30
0.000000
  70
    32
  0
VERTEX
  8
0
  5
80000690
 10
20.0290
 20
36.0931
 30
0.000000
  70
    32
  0
VERTEX
  8
0
  5
80000691
 10
19.8719
 20
35.5962
 30
0.000000
  70
    32
  0
VERTEX
  8
0
  5
80000692
 10
19.7051
 20
35.1082
 30
0.000000
  70
    32
  0
VERTEX
  8
0
  5
80000693
 10
19.5284
 20
34.6293
 30
0.000000
  70
    32
  0
VERTEX
  8
0
  5
80000694
 10
19.3414
 20
34.1598
 30
0.000000
  70
    32
  0
VERTEX
  8
0
  5
80000695
 10
19.1439
 20
33.6999
 30
0.000000
  70
    32
  0
VERTEX
  8
0
  5
80000696
 10
18.9357
 20
33.2500
 30
0.000000
  70
    32
  0
VERTEX
  8
0
  5
80000697
 10
18.7164
 20
32.8101
 30
0.000000
  70
    32
  0
VERTEX
  8
0
  5
80000698
 10
18.4859
 20
32.3806
 30
0.000000
  70
    32
  0
VERTEX
  8
0
  5
80000699
 10
18.2437
 20
31.9618
 30
0.000000
  70
    32
  0
VERTEX
  8
0
  5
8000069A
 10
17.9898
 20
31.5538
 30
0.000000
  70
    32
  0
VERTEX
  8
0
  5
8000069B
 10
17.7238
 20
31.1568
 30
0.000000
  70
    32
  0
VERTEX
  8
0
  5
8000069C
 10
17.4454
 20
30.7713
 30
0.000000
  70
    32
  0
VERTEX
  8
0
  5
8000069D
 10
17.1544
 20
30.3973
 30
0.000000
  70
    32
  0
VERTEX
  8
0
  5
8000069E
 10
16.8506
 20
30.0351
 30
0.000000
  70
    32
  0
VERTEX
  8
0
  5
8000069F
 10
16.5341
 20
29.6845
 30
0.000000
  70
    32
  0
VERTEX
  8
0
  5
800006A0
 10
16.2051
 20
29.3454
 30
0.000000
  70
    32
  0
VERTEX
  8
0
  5
800006A1
 10
15.8639
 20
29.0176
 30
0.000000
  70
    32
  0
VERTEX
  8
0
  5
800006A2
 10
15.5106
 20
28.7008
 30
0.000000
  70
    32
  0
VERTEX
  8
0
  5
800006A3
 10
15.1455
 20
28.3949
 30
0.000000
  70
    32
  0
VERTEX
  8
0
  5
800006A4
 10
14.7688
 20
28.0996
 30
0.000000
  70
    32
  0
VERTEX
  8
0
  5
800006A5
 10
14.3808
 20
27.8147
 30
0.000000
  70
    32
  0
VERTEX
  8
0
  5
800006A6
 10
13.9816
 20
27.5400
 30
0.000000
  70
    32
  0
VERTEX
  8
0
  5
800006A7
 10
13.5716
 20
27.2754
 30
0.000000
  70
    32
  0
VERTEX
  8
0
  5
800006A8
 10
13.1508
 20
27.0206
 30
0.000000
  70
    32
  0
VERTEX
  8
0
  5
800006A9
 10
12.7196
 20
26.7753
 30
0.000000
  70
    32
  0
VERTEX
  8
0
  5
800006AA
 10
12.2782
 20
26.5395
 30
0.000000
  70
    32
  0
VERTEX
  8
0
  5
800006AB
 10
11.8267
 20
26.3128
 30
0.000000
  70
    32
  0
VERTEX
  8
0
  5
800006AC
 10
11.3655
 20
26.0952
 30
0.000000
  70
    32
  0
VERTEX
  8
0
  5
800006AD
 10
10.8948
 20
25.8862
 30
0.000000
  70
    32
  0
VERTEX
  8
0
  5
800006AE
 10
10.4147
 20
25.6859
 30
0.000000
  70
    32
  0
VERTEX
  8
0
  5
800006AF
 10
9.92548
 20
25.4939
 30
0.000000
  70
    32
  0
VERTEX
  8
0
  5
800006B0
 10
9.42741
 20
25.3101
 30
0.000000
  70
    32
  0
VERTEX
  8
0
  5
800006B1
 10
8.92069
 20
25.1342
 30
0.000000
  70
    32
  0
VERTEX
  8
0
  5
800006B2
 10
8.40555
 20
24.9660
 30
0.000000
  70
    32
  0
VERTEX
  8
0
  5
800006B3
 10
7.88220
 20
24.8054
 30
0.000000
  70
    32
  0
VERTEX
  8
0
  5
800006B4
 10
7.35088
 20
24.6521
 30
0.000000
  70
    32
  0
VERTEX
  8
0
  5
800006B5
 10
6.81181
 20
24.5059
 30
0.000000
  70
    32
  0
VERTEX
  8
0
  5
800006B6
 10
6.26522
 20
24.3666
 30
0.000000
  70
    32
  0
VERTEX
  8
0
  5
800006B7
 10
5.71133
 20
24.2341
 30
0.000000
  70
    32
  0
VERTEX
  8
0
  5
800006B8
 10
5.15037
 20
24.1080
 30
0.000000
  70
    32
  0
VERTEX
  8
0
  5
800006B9
 10
4.58256
 20
23.9882
 30
0.000000
  70
    32
  0
VERTEX
  8
0
  5
800006BA
 10
4.00812
 20
23.8745
 30
0.000000
  70
    32
  0
VERTEX
  8
0
  5
800006BB
 10
3.42730
 20
23.7666
 30
0.000000
  70
    32
  0
VERTEX
  8
0
  5
800006BC
 10
2.84030
 20
23.6644
 30
0.000000
  70
    32
  0
VERTEX
  8
0
  5
800006BD
 10
2.24735
 20
23.5677
 30
0.000000
  70
    32
  0
VERTEX
  8
0
  5
800006BE
 10
1.64869
 20
23.4762
 30
0.000000
  70
    32
  0
VERTEX
  8
0
  5
800006BF
 10
1.04453
 20
23.3898
 30
0.000000
  70
    32
  0
VERTEX
  8
0
  5
800006C0
 10
0.435106
 20
23.3082
 30
0.000000
  70
    32
  0
VERTEX
  8
0
  5
800006C1
 10
-0.179364
 20
23.2313
 30
0.000000
  70
    32
  0
VERTEX
  8
0
  5
800006C2
 10
-0.798653
 20
23.1588
 30
0.000000
  70
    32
  0
VERTEX
  8
0
  5
800006C3
 10
-1.42253
 20
23.0905
 30
0.000000
  70
    32
  0
VERTEX
  8
0
  5
800006C4
 10
-2.05078
 20
23.0261
 30
0.000000
  70
    32
  0
VERTEX
  8
0
  5
800006C5
 10
-2.68317
 20
22.9657
 30
0.000000
  70
    32
  0
VERTEX
  8
0
  5
800006C6
 10
-3.31948
 20
22.9087
 30
0.000000
  70
    32
  0
VERTEX
  8
0
  5
800006C7
 10
-3.95947
 20
22.8552
 30
0.000000
  70
    32
  0
VERTEX
  8
0
  5
800006C8
 10
-4.60294
 20
22.8049
 30
0.000000
  70
    32
  0
VERTEX
  8
0
  5
800006C9
 10
-5.24964
 20
22.7575
 30
0.000000
  70
    32
  0
VERTEX
  8
0
  5
800006CA
 10
-5.89935
 20
22.7130
 30
0.000000
  70
    32
  0
VERTEX
  8
0
  5
800006CB
 10
-6.55186
 20
22.6709
 30
0.000000
  70
    32
  0
VERTEX
  8
0
  5
800006CC
 10
-7.20693
 20
22.6313
 30
0.000000
  70
    32
  0
VERTEX
  8
0
  5
800006CD
 10
-7.86433
 20
22.5937
 30
0.000000
  70
    32
  0
VERTEX
  8
0
  5
800006CE
 10
-8.52385
 20
22.5581
 30
0.000000
  70
    32
  0
VERTEX
  8
0
  5
800006CF
 10
-9.18526
 20
22.5243
 30
0.000000
  70
    32
  0
VERTEX
  8
0
  5
800006D0
 10
-9.84833
 20
22.4920
 30
0.000000
  70
    32
  0
VERTEX
  8
0
  5
800006D1
 10
-10.5128
 20
22.4610
 30
0.000000
  70
    32
  0
VERTEX
  8
0
  5
800006D2
 10
-11.1785
 20
22.4311
 30
0.000000
  70
    32
  0
VERTEX
  8
0
  5
800006D3
 10
-11.8452
 20
22.4021
 30
0.000000
  70
    32
  0
VERTEX
  8
0
  5
800006D4
 10
-12.5127
 20
22.3738
 30
0.000000
  70
    32
  0
VERTEX
  8
0
  5
800006D5
 10
-13.1807
 20
22.3460
 30
0.000000
  70
    32
  0
VERTEX
  8
0
  5
800006D6
 10
-13.8490
 20
22.3184
 30
0.000000
  70
    32
  0
VERTEX
  8
0
  5
800006D7
 10
-14.5174
 20
22.2910
 30
0.000000
  70
    32
  0
VERTEX
  8
0
  5
800006D8
 10
-15.1856
 20
22.2634
 30
0.000000
  70
    32
  0
VERTEX
  8
0
  5
800006D9
 10
-15.8535
 20
22.2355
 30
0.000000
  70
    32
  0
VERTEX
  8
0
  5
800006DA
 10
-16.5208
 20
22.2071
 30
0.000000
  70
    32
  0
VERTEX
  8
0
  5
800006DB
 10
-17.1873
 20
22.1778
 30
0.000000
  70
    32
  0
VERTEX
  8
0
  5
800006DC
 10
-17.8527
 20
22.1477
 30
0.000000
  70
    32
  0
VERTEX
  8
0
  5
800006DD
 10
-18.5168
 20
22.1163
 30
0.000000
  70
    32
  0
VERTEX
  8
0
  5
800006DE
 10
-19.1795
 20
22.0836
 30
0.000000
  70
    32
  0
VERTEX
  8
0
  5
800006DF
 10
-19.8404
 20
22.0494
 30
0.000000
  70
    32
  0
VERTEX
  8
0
  5
800006E0
 10
-20.4994
 20
22.0133
 30
0.000000
  70
    32
  0
VERTEX
  8
0
  5
800006E1
 10
-21.1563
 20
21.9752
 30
0.000000
  70
    32
  0
VERTEX
  8
0
  5
800006E2
 10
-21.8107
 20
21.9350
 30
0.000000
  70
    32
  0
VERTEX
  8
0
  5
800006E3
 10
-22.4625
 20
21.8923
 30
0.000000
  70
    32
  0
VERTEX
  8
0
  5
800006E4
 10
-23.1114
 20
21.8470
 30
0.000000
  70
    32
  0
VERTEX
  8
0
  5
800006E5
 10
-23.7573
 20
21.7989
 30
0.000000
  70
    32
  0
VERTEX
  8
0
  5
800006E6
 10
-24.3999
 20
21.7478
 30
0.000000
  70
    32
  0
VERTEX
  8
0
  5
800006E7
 10
-25.0390
 20
21.6934
 30
0.000000
  70
    32
  0
VERTEX
  8
0
  5
800006E8
 10
-25.6743
 20
21.6356
 30
0.000000
  70
    32
  0
VERTEX
  8
0
  5
800006E9
 10
-26.3056
 20
21.5741
 30
0.000000
  70
    32
  0
VERTEX
  8
0
  5
800006EA
 10
-26.9328
 20
21.5088
 30
0.000000
  70
    32
  0
VERTEX
  8
0
  5
800006EB
 10
-27.5555
 20
21.4394
 30
0.000000
  70
    32
  0
VERTEX
  8
0
  5
800006EC
 10
-28.1735
 20
21.3657
 30
0.000000
  70
    32
  0
VERTEX
  8
0
  5
800006ED
 10
-28.7867
 20
21.2876
 30
0.000000
  70
    32
  0
VERTEX
  8
0
  5
800006EE
 10
-29.3948
 20
21.2048
 30
0.000000
  70
    32
  0
VERTEX
  8
0
  5
800006EF
 10
-29.9975
 20
21.1171
 30
0.000000
  70
    32
  0
VERTEX
  8
0
  5
800006F0
 10
-30.5947
 20
21.0243
 30
0.000000
  70
    32
  0
VERTEX
  8
0
  5
800006F1
 10
-31.1862
 20
20.9262
 30
0.000000
  70
    32
  0
VERTEX
  8
0
  5
800006F2
 10
-31.7716
 20
20.8225
 30
0.000000
  70
    32
  0
VERTEX
  8
0
  5
800006F3
 10
-32.3508
 20
20.7132
 30
0.000000
  70
    32
  0
SEQEND
  8
0
  5
800006F4
  0
ENDBLK
  5
FFBBDAE469BC2881
  8
0
  0
BLOCK
  8
0
  2
*U36
 70
     1
 10
0.0
 20
0.0
 30
0.0
  3
*U36
  1

  0
TEXT
  5
FFBBDAE469BC2883
  8
0
  6
CONTINUOUS
 10
105.93889616632531
 20
141.51071199645151
 30
0.0
 40
5.0
  1
Apply continuous 6mm bead of
  7
ARIAL
  0
TEXT
  5
FFBBDAE469BC2884
  8
0
  6
CONTINUOUS
 10
105.6251171758751
 20
133.09211263310459
 30
0.0
 40
5.0
  1
Seal n Flex -1 or Sikaflex 11FC
  7
ARIAL
  0
TEXT
  5
FFBBDAE469BC2885
  8
0
  6
CONTINUOUS
 10
105.6865087174849
 20
124.75877929977131
 30
0.0
 40
5.0
  1
adhesive sealant
  7
ARIAL
  0
ENDBLK
  5
FFBBDAE469BC2887
  8
0
  0
BLOCK
  8
0
  2
*U37
 70
     1
 10
0.0
 20
0.0
 30
0.0
  3
*U37
  1

  0
SOLID
  5
FFBBDAE469BC288C
  8
0
  6
CONTINUOUS
 10
-99.357270928176447
 20
68.230052147014362
 30
0.0
 11
-99.332216737117065
 21
71.609271786802523
 31
0.0
 12
-98.259953521160881
 22
68.404586984497143
 32
0.0
 13
-98.259953521160881
 23
68.404586984497143
 33
0.0
210
0.0
220
0.0
230
-1.0
  0
POLYLINE
  8
0
  5
800006F5
  66
     1
 10
0.000000
 20
0.000000
 30
0.000000
  70
     8
  0
VERTEX
  8
0
  5
800006F6
 10
98.8086
 20
68.3173
 30
0.000000
  70
    32
  0
VERTEX
  8
0
  5
800006F7
 10
98.7990
 20
68.2593
 30
0.000000
  70
    32
  0
VERTEX
  8
0
  5
800006F8
 10
98.7886
 20
68.2004
 30
0.000000
  70
    32
  0
VERTEX
  8
0
  5
800006F9
 10
98.7775
 20
68.1408
 30
0.000000
  70
    32
  0
VERTEX
  8
0
  5
800006FA
 10
98.7656
 20
68.0804
 30
0.000000
  70
    32
  0
VERTEX
  8
0
  5
800006FB
 10
98.7529
 20
68.0193
 30
0.000000
  70
    32
  0
VERTEX
  8
0
  5
800006FC
 10
98.7396
 20
67.9575
 30
0.000000
  70
    32
  0
VERTEX
  8
0
  5
800006FD
 10
98.7257
 20
67.8951
 30
0.000000
  70
    32
  0
VERTEX
  8
0
  5
800006FE
 10
98.7111
 20
67.8321
 30
0.000000
  70
    32
  0
VERTEX
  8
0
  5
800006FF
 10
98.6959
 20
67.7684
 30
0.000000
  70
    32
  0
VERTEX
  8
0
  5
80000700
 10
98.6802
 20
67.7042
 30
0.000000
  70
    32
  0
VERTEX
  8
0
  5
80000701
 10
98.6640
 20
67.6395
 30
0.000000
  70
    32
  0
VERTEX
  8
0
  5
80000702
 10
98.6473
 20
67.5743
 30
0.000000
  70
    32
  0
VERTEX
  8
0
  5
80000703
 10
98.6301
 20
67.5086
 30
0.000000
  70
    32
  0
VERTEX
  8
0
  5
80000704
 10
98.6125
 20
67.4425
 30
0.000000
  70
    32
  0
VERTEX
  8
0
  5
80000705
 10
98.5944
 20
67.3760
 30
0.000000
  70
    32
  0
VERTEX
  8
0
  5
80000706
 10
98.5761
 20
67.3092
 30
0.000000
  70
    32
  0
VERTEX
  8
0
  5
80000707
 10
98.5574
 20
67.2420
 30
0.000000
  70
    32
  0
VERTEX
  8
0
  5
80000708
 10
98.5383
 20
67.1745
 30
0.000000
  70
    32
  0
VERTEX
  8
0
  5
80000709
 10
98.5191
 20
67.1067
 30
0.000000
  70
    32
  0
VERTEX
  8
0
  5
8000070A
 10
98.4995
 20
67.0387
 30
0.000000
  70
    32
  0
VERTEX
  8
0
  5
8000070B
 10
98.4798
 20
66.9705
 30
0.000000
  70
    32
  0
VERTEX
  8
0
  5
8000070C
 10
98.4599
 20
66.9021
 30
0.000000
  70
    32
  0
VERTEX
  8
0
  5
8000070D
 10
98.4399
 20
66.8336
 30
0.000000
  70
    32
  0
VERTEX
  8
0
  5
8000070E
 10
98.4197
 20
66.7649
 30
0.000000
  70
    32
  0
VERTEX
  8
0
  5
8000070F
 10
98.3995
 20
66.6962
 30
0.000000
  70
    32
  0
VERTEX
  8
0
  5
80000710
 10
98.3792
 20
66.6274
 30
0.000000
  70
    32
  0
VERTEX
  8
0
  5
80000711
 10
98.3589
 20
66.5587
 30
0.000000
  70
    32
  0
VERTEX
  8
0
  5
80000712
 10
98.3386
 20
66.4899
 30
0.000000
  70
    32
  0
VERTEX
  8
0
  5
80000713
 10
98.3184
 20
66.4212
 30
0.000000
  70
    32
  0
VERTEX
  8
0
  5
80000714
 10
98.2982
 20
66.3525
 30
0.000000
  70
    32
  0
VERTEX
  8
0
  5
80000715
 10
98.2781
 20
66.2840
 30
0.000000
  70
    32
  0
VERTEX
  8
0
  5
80000716
 10
98.2582
 20
66.2156
 30
0.000000
  70
    32
  0
VERTEX
  8
0
  5
80000717
 10
98.2385
 20
66.1474
 30
0.000000
  70
    32
  0
VERTEX
  8
0
  5
80000718
 10
98.2190
 20
66.0793
 30
0.000000
  70
    32
  0
VERTEX
  8
0
  5
80000719
 10
98.1997
 20
66.0116
 30
0.000000
  70
    32
  0
VERTEX
  8
0
  5
8000071A
 10
98.1807
 20
65.9441
 30
0.000000
  70
    32
  0
VERTEX
  8
0
  5
8000071B
 10
98.1619
 20
65.8769
 30
0.000000
  70
    32
  0
VERTEX
  8
0
  5
8000071C
 10
98.1435
 20
65.8100
 30
0.000000
  70
    32
  0
VERTEX
  8
0
  5
8000071D
 10
98.1255
 20
65.7435
 30
0.000000
  70
    32
  0
VERTEX
  8
0
  5
8000071E
 10
98.1079
 20
65.6774
 30
0.000000
  70
    32
  0
VERTEX
  8
0
  5
8000071F
 10
98.0907
 20
65.6117
 30
0.000000
  70
    32
  0
VERTEX
  8
0
  5
80000720
 10
98.0739
 20
65.5465
 30
0.000000
  70
    32
  0
VERTEX
  8
0
  5
80000721
 10
98.0577
 20
65.4817
 30
0.000000
  70
    32
  0
VERTEX
  8
0
  5
80000722
 10
98.0420
 20
65.4175
 30
0.000000
  70
    32
  0
VERTEX
  8
0
  5
80000723
 10
98.0268
 20
65.3539
 30
0.000000
  70
    32
  0
VERTEX
  8
0
  5
80000724
 10
98.0122
 20
65.2908
 30
0.000000
  70
    32
  0
VERTEX
  8
0
  5
80000725
 10
97.9982
 20
65.2283
 30
0.000000
  70
    32
  0
VERTEX
  8
0
  5
80000726
 10
97.9849
 20
65.1665
 30
0.000000
  70
    32
  0
VERTEX
  8
0
  5
80000727
 10
97.9722
 20
65.1054
 30
0.000000
  70
    32
  0
VERTEX
  8
0
  5
80000728
 10
97.9603
 20
65.0450
 30
0.000000
  70
    32
  0
VERTEX
  8
0
  5
80000729
 10
97.9491
 20
64.9854
 30
0.000000
  70
    32
  0
VERTEX
  8
0
  5
8000072A
 10
97.9387
 20
64.9265
 30
0.000000
  70
    32
  0
VERTEX
  8
0
  5
8000072B
 10
97.9291
 20
64.8684
 30
0.000000
  70
    32
  0
VERTEX
  8
0
  5
8000072C
 10
97.9203
 20
64.8112
 30
0.000000
  70
    32
  0
VERTEX
  8
0
  5
8000072D
 10
97.9124
 20
64.7548
 30
0.000000
  70
    32
  0
VERTEX
  8
0
  5
8000072E
 10
97.9054
 20
64.6994
 30
0.000000
  70
    32
  0
VERTEX
  8
0
  5
8000072F
 10
97.8993
 20
64.6448
 30
0.000000
  70
    32
  0
VERTEX
  8
0
  5
80000730
 10
97.8942
 20
64.5913
 30
0.000000
  70
    32
  0
VERTEX
  8
0
  5
80000731
 10
97.8901
 20
64.5387
 30
0.000000
  70
    32
  0
VERTEX
  8
0
  5
80000732
 10
97.8871
 20
64.4872
 30
0.000000
  70
    32
  0
VERTEX
  8
0
  5
80000733
 10
97.8851
 20
64.4368
 30
0.000000
  70
    32
  0
VERTEX
  8
0
  5
80000734
 10
97.8841
 20
64.3874
 30
0.000000
  70
    32
  0
VERTEX
  8
0
  5
80000735
 10
97.8843
 20
64.3392
 30
0.000000
  70
    32
  0
VERTEX
  8
0
  5
80000736
 10
97.8857
 20
64.2921
 30
0.000000
  70
    32
  0
VERTEX
  8
0
  5
80000737
 10
97.8883
 20
64.2462
 30
0.000000
  70
    32
  0
VERTEX
  8
0
  5
80000738
 10
97.8920
 20
64.2015
 30
0.000000
  70
    32
  0
VERTEX
  8
0
  5
80000739
 10
97.8970
 20
64.1581
 30
0.000000
  70
    32
  0
VERTEX
  8
0
  5
8000073A
 10
97.9033
 20
64.1160
 30
0.000000
  70
    32
  0
VERTEX
  8
0
  5
8000073B
 10
97.9109
 20
64.0752
 30
0.000000
  70
    32
  0
VERTEX
  8
0
  5
8000073C
 10
97.9199
 20
64.0357
 30
0.000000
  70
    32
  0
VERTEX
  8
0
  5
8000073D
 10
97.9302
 20
63.9976
 30
0.000000
  70
    32
  0
VERTEX
  8
0
  5
8000073E
 10
97.9420
 20
63.9610
 30
0.000000
  70
    32
  0
VERTEX
  8
0
  5
8000073F
 10
97.9552
 20
63.9257
 30
0.000000
  70
    32
  0
VERTEX
  8
0
  5
80000740
 10
97.9698
 20
63.8920
 30
0.000000
  70
    32
  0
VERTEX
  8
0
  5
80000741
 10
97.9860
 20
63.8597
 30
0.000000
  70
    32
  0
VERTEX
  8
0
  5
80000742
 10
98.0037
 20
63.8290
 30
0.000000
  70
    32
  0
VERTEX
  8
0
  5
80000743
 10
98.0230
 20
63.7999
 30
0.000000
  70
    32
  0
VERTEX
  8
0
  5
80000744
 10
98.0438
 20
63.7724
 30
0.000000
  70
    32
  0
VERTEX
  8
0
  5
80000745
 10
98.0663
 20
63.7465
 30
0.000000
  70
    32
  0
VERTEX
  8
0
  5
80000746
 10
98.0905
 20
63.7222
 30
0.000000
  70
    32
  0
VERTEX
  8
0
  5
80000747
 10
98.1163
 20
63.6997
 30
0.000000
  70
    32
  0
VERTEX
  8
0
  5
80000748
 10
98.1437
 20
63.6787
 30
0.000000
  70
    32
  0
VERTEX
  8
0
  5
80000749
 10
98.1728
 20
63.6594
 30
0.000000
  70
    32
  0
VERTEX
  8
0
  5
8000074A
 10
98.2034
 20
63.6417
 30
0.000000
  70
    32
  0
VERTEX
  8
0
  5
8000074B
 10
98.2356
 20
63.6255
 30
0.000000
  70
    32
  0
VERTEX
  8
0
  5
8000074C
 10
98.2693
 20
63.6108
 30
0.000000
  70
    32
  0
VERTEX
  8
0
  5
8000074D
 10
98.3044
 20
63.5976
 30
0.000000
  70
    32
  0
VERTEX
  8
0
  5
8000074E
 10
98.3410
 20
63.5858
 30
0.000000
  70
    32
  0
VERTEX
  8
0
  5
8000074F
 10
98.3790
 20
63.5754
 30
0.000000
  70
    32
  0
VERTEX
  8
0
  5
80000750
 10
98.4184
 20
63.5665
 30
0.000000
  70
    32
  0
VERTEX
  8
0
  5
80000751
 10
98.4591
 20
63.5588
 30
0.000000
  70
    32
  0
VERTEX
  8
0
  5
80000752
 10
98.5012
 20
63.5525
 30
0.000000
  70
    32
  0
VERTEX
  8
0
  5
80000753
 10
98.5445
 20
63.5475
 30
0.000000
  70
    32
  0
VERTEX
  8
0
  5
80000754
 10
98.5891
 20
63.5438
 30
0.000000
  70
    32
  0
VERTEX
  8
0
  5
80000755
 10
98.6349
 20
63.5412
 30
0.000000
  70
    32
  0
VERTEX
  8
0
  5
80000756
 10
98.6819
 20
63.5399
 30
0.000000
  70
    32
  0
VERTEX
  8
0
  5
80000757
 10
98.7301
 20
63.5397
 30
0.000000
  70
    32
  0
VERTEX
  8
0
  5
80000758
 10
98.7793
 20
63.5407
 30
0.000000
  70
    32
  0
VERTEX
  8
0
  5
80000759
 10
98.8297
 20
63.5427
 30
0.000000
  70
    32
  0
VERTEX
  8
0
  5
8000075A
 10
98.8812
 20
63.5458
 30
0.000000
  70
    32
  0
VERTEX
  8
0
  5
8000075B
 10
98.9336
 20
63.5500
 30
0.000000
  70
    32
  0
VERTEX
  8
0
  5
8000075C
 10
98.9871
 20
63.5551
 30
0.000000
  70
    32
  0
VERTEX
  8
0
  5
8000075D
 10
99.0415
 20
63.5613
 30
0.000000
  70
    32
  0
VERTEX
  8
0
  5
8000075E
 10
99.0969
 20
63.5683
 30
0.000000
  70
    32
  0
VERTEX
  8
0
  5
8000075F
 10
99.1532
 20
63.5763
 30
0.000000
  70
    32
  0
VERTEX
  8
0
  5
80000760
 10
99.2104
 20
63.5851
 30
0.000000
  70
    32
  0
VERTEX
  8
0
  5
80000761
 10
99.2684
 20
63.5948
 30
0.000000
  70
    32
  0
VERTEX
  8
0
  5
80000762
 10
99.3272
 20
63.6053
 30
0.000000
  70
    32
  0
VERTEX
  8
0
  5
80000763
 10
99.3867
 20
63.6166
 30
0.000000
  70
    32
  0
VERTEX
  8
0
  5
80000764
 10
99.4471
 20
63.6286
 30
0.000000
  70
    32
  0
VERTEX
  8
0
  5
80000765
 10
99.5081
 20
63.6413
 30
0.000000
  70
    32
  0
VERTEX
  8
0
  5
80000766
 10
99.5698
 20
63.6547
 30
0.000000
  70
    32
  0
VERTEX
  8
0
  5
80000767
 10
99.6322
 20
63.6688
 30
0.000000
  70
    32
  0
VERTEX
  8
0
  5
80000768
 10
99.6952
 20
63.6835
 30
0.000000
  70
    32
  0
VERTEX
  8
0
  5
80000769
 10
99.7588
 20
63.6988
 30
0.000000
  70
    32
  0
VERTEX
  8
0
  5
8000076A
 10
99.8229
 20
63.7146
 30
0.000000
  70
    32
  0
VERTEX
  8
0
  5
8000076B
 10
99.8876
 20
63.7310
 30
0.000000
  70
    32
  0
VERTEX
  8
0
  5
8000076C
 10
99.9527
 20
63.7478
 30
0.000000
  70
    32
  0
VERTEX
  8
0
  5
8000076D
 10
100.018
 20
63.7652
 30
0.000000
  70
    32
  0
VERTEX
  8
0
  5
8000076E
 10
100.084
 20
63.7829
 30
0.000000
  70
    32
  0
VERTEX
  8
0
  5
8000076F
 10
100.151
 20
63.8010
 30
0.000000
  70
    32
  0
VERTEX
  8
0
  5
80000770
 10
100.218
 20
63.8196
 30
0.000000
  70
    32
  0
VERTEX
  8
0
  5
80000771
 10
100.285
 20
63.8384
 30
0.000000
  70
    32
  0
VERTEX
  8
0
  5
80000772
 10
100.352
 20
63.8575
 30
0.000000
  70
    32
  0
VERTEX
  8
0
  5
80000773
 10
100.420
 20
63.8770
 30
0.000000
  70
    32
  0
VERTEX
  8
0
  5
80000774
 10
100.488
 20
63.8966
 30
0.000000
  70
    32
  0
VERTEX
  8
0
  5
80000775
 10
100.556
 20
63.9165
 30
0.000000
  70
    32
  0
VERTEX
  8
0
  5
80000776
 10
100.624
 20
63.9365
 30
0.000000
  70
    32
  0
VERTEX
  8
0
  5
80000777
 10
100.693
 20
63.9567
 30
0.000000
  70
    32
  0
VERTEX
  8
0
  5
80000778
 10
100.761
 20
63.9770
 30
0.000000
  70
    32
  0
VERTEX
  8
0
  5
80000779
 10
100.830
 20
63.9974
 30
0.000000
  70
    32
  0
VERTEX
  8
0
  5
8000077A
 10
100.899
 20
64.0178
 30
0.000000
  70
    32
  0
VERTEX
  8
0
  5
8000077B
 10
100.967
 20
64.0382
 30
0.000000
  70
    32
  0
VERTEX
  8
0
  5
8000077C
 10
101.036
 20
64.0587
 30
0.000000
  70
    32
  0
VERTEX
  8
0
  5
8000077D
 10
101.105
 20
64.0790
 30
0.000000
  70
    32
  0
VERTEX
  8
0
  5
8000077E
 10
101.173
 20
64.0993
 30
0.000000
  70
    32
  0
VERTEX
  8
0
  5
8000077F
 10
101.242
 20
64.1195
 30
0.000000
  70
    32
  0
VERTEX
  8
0
  5
80000780
 10
101.310
 20
64.1396
 30
0.000000
  70
    32
  0
VERTEX
  8
0
  5
80000781
 10
101.378
 20
64.1594
 30
0.000000
  70
    32
  0
VERTEX
  8
0
  5
80000782
 10
101.446
 20
64.1791
 30
0.000000
  70
    32
  0
VERTEX
  8
0
  5
80000783
 10
101.514
 20
64.1985
 30
0.000000
  70
    32
  0
VERTEX
  8
0
  5
80000784
 10
101.582
 20
64.2177
 30
0.000000
  70
    32
  0
VERTEX
  8
0
  5
80000785
 10
101.649
 20
64.2365
 30
0.000000
  70
    32
  0
VERTEX
  8
0
  5
80000786
 10
101.716
 20
64.2551
 30
0.000000
  70
    32
  0
VERTEX
  8
0
  5
80000787
 10
101.782
 20
64.2732
 30
0.000000
  70
    32
  0
VERTEX
  8
0
  5
80000788
 10
101.848
 20
64.2910
 30
0.000000
  70
    32
  0
VERTEX
  8
0
  5
80000789
 10
101.914
 20
64.3083
 30
0.000000
  70
    32
  0
VERTEX
  8
0
  5
8000078A
 10
101.979
 20
64.3252
 30
0.000000
  70
    32
  0
VERTEX
  8
0
  5
8000078B
 10
102.044
 20
64.3416
 30
0.000000
  70
    32
  0
VERTEX
  8
0
  5
8000078C
 10
102.108
 20
64.3574
 30
0.000000
  70
    32
  0
VERTEX
  8
0
  5
8000078D
 10
102.171
 20
64.3727
 30
0.000000
  70
    32
  0
VERTEX
  8
0
  5
8000078E
 10
102.234
 20
64.3874
 30
0.000000
  70
    32
  0
VERTEX
  8
0
  5
8000078F
 10
102.297
 20
64.4015
 30
0.000000
  70
    32
  0
VERTEX
  8
0
  5
80000790
 10
102.358
 20
64.4150
 30
0.000000
  70
    32
  0
VERTEX
  8
0
  5
80000791
 10
102.419
 20
64.4277
 30
0.000000
  70
    32
  0
VERTEX
  8
0
  5
80000792
 10
102.480
 20
64.4398
 30
0.000000
  70
    32
  0
VERTEX
  8
0
  5
80000793
 10
102.539
 20
64.4511
 30
0.000000
  70
    32
  0
VERTEX
  8
0
  5
80000794
 10
102.598
 20
64.4616
 30
0.000000
  70
    32
  0
VERTEX
  8
0
  5
80000795
 10
102.656
 20
64.4713
 30
0.000000
  70
    32
  0
SEQEND
  8
0
  5
80000796
  0
ENDBLK
  5
FFBBDAE469BC288F
  8
0
  0
BLOCK
  8
0
  2
*U38
 70
     1
 10
0.0
 20
0.0
 30
0.0
  3
*U38
  1

  0
SOLID
  5
FFBBDAE469BC2891
  8
0
  6
CONTINUOUS
 10
88.379416495425687
 20
82.912522027977474
 30
0.0
 11
85.000112803209035
 21
82.920244863641756
 31
0.0
 12
88.199256134440233
 22
84.008929865218789
 32
0.0
 13
88.199256134440233
 23
84.008929865218789
 33
0.0
  0
POLYLINE
  8
0
  5
80000797
  66
     1
 10
0.000000
 20
0.000000
 30
0.000000
  70
     8
  0
VERTEX
  8
0
  5
80000798
 10
88.2893
 20
83.4607
 30
0.000000
  70
    32
  0
VERTEX
  8
0
  5
80000799
 10
88.3981
 20
83.4783
 30
0.000000
  70
    32
  0
VERTEX
  8
0
  5
8000079A
 10
88.5072
 20
83.4952
 30
0.000000
  70
    32
  0
VERTEX
  8
0
  5
8000079B
 10
88.6165
 20
83.5115
 30
0.000000
  70
    32
  0
VERTEX
  8
0
  5
8000079C
 10
88.7261
 20
83.5273
 30
0.000000
  70
    32
  0
VERTEX
  8
0
  5
8000079D
 10
88.8359
 20
83.5425
 30
0.000000
  70
    32
  0
VERTEX
  8
0
  5
8000079E
 10
88.9460
 20
83.5572
 30
0.000000
  70
    32
  0
VERTEX
  8
0
  5
8000079F
 10
89.0563
 20
83.5713
 30
0.000000
  70
    32
  0
VERTEX
  8
0
  5
800007A0
 10
89.1668
 20
83.5850
 30
0.000000
  70
    32
  0
VERTEX
  8
0
  5
800007A1
 10
89.2775
 20
83.5982
 30
0.000000
  70
    32
  0
VERTEX
  8
0
  5
800007A2
 10
89.3884
 20
83.6109
 30
0.000000
  70
    32
  0
VERTEX
  8
0
  5
800007A3
 10
89.4995
 20
83.6232
 30
0.000000
  70
    32
  0
VERTEX
  8
0
  5
800007A4
 10
89.6108
 20
83.6351
 30
0.000000
  70
    32
  0
VERTEX
  8
0
  5
800007A5
 10
89.7223
 20
83.6466
 30
0.000000
  70
    32
  0
VERTEX
  8
0
  5
800007A6
 10
89.8339
 20
83.6577
 30
0.000000
  70
    32
  0
VERTEX
  8
0
  5
800007A7
 10
89.9457
 20
83.6685
 30
0.000000
  70
    32
  0
VERTEX
  8
0
  5
800007A8
 10
90.0577
 20
83.6789
 30
0.000000
  70
    32
  0
VERTEX
  8
0
  5
800007A9
 10
90.1697
 20
83.6890
 30
0.000000
  70
    32
  0
VERTEX
  8
0
  5
800007AA
 10
90.2819
 20
83.6988
 30
0.000000
  70
    32
  0
VERTEX
  8
0
  5
800007AB
 10
90.3943
 20
83.7084
 30
0.000000
  70
    32
  0
VERTEX
  8
0
  5
800007AC
 10
90.5067
 20
83.7177
 30
0.000000
  70
    32
  0
VERTEX
  8
0
  5
800007AD
 10
90.6192
 20
83.7267
 30
0.000000
  70
    32
  0
VERTEX
  8
0
  5
800007AE
 10
90.7319
 20
83.7356
 30
0.000000
  70
    32
  0
VERTEX
  8
0
  5
800007AF
 10
90.8446
 20
83.7442
 30
0.000000
  70
    32
  0
VERTEX
  8
0
  5
800007B0
 10
90.9574
 20
83.7527
 30
0.000000
  70
    32
  0
VERTEX
  8
0
  5
800007B1
 10
91.0703
 20
83.7610
 30
0.000000
  70
    32
  0
VERTEX
  8
0
  5
800007B2
 10
91.1832
 20
83.7692
 30
0.000000
  70
    32
  0
VERTEX
  8
0
  5
800007B3
 10
91.2962
 20
83.7773
 30
0.000000
  70
    32
  0
VERTEX
  8
0
  5
800007B4
 10
91.4092
 20
83.7853
 30
0.000000
  70
    32
  0
VERTEX
  8
0
  5
800007B5
 10
91.5222
 20
83.7932
 30
0.000000
  70
    32
  0
VERTEX
  8
0
  5
800007B6
 10
91.6353
 20
83.8010
 30
0.000000
  70
    32
  0
VERTEX
  8
0
  5
800007B7
 10
91.7484
 20
83.8088
 30
0.000000
  70
    32
  0
VERTEX
  8
0
  5
800007B8
 10
91.8615
 20
83.8166
 30
0.000000
  70
    32
  0
VERTEX
  8
0
  5
800007B9
 10
91.9746
 20
83.8244
 30
0.000000
  70
    32
  0
VERTEX
  8
0
  5
800007BA
 10
92.0877
 20
83.8323
 30
0.000000
  70
    32
  0
VERTEX
  8
0
  5
800007BB
 10
92.2007
 20
83.8401
 30
0.000000
  70
    32
  0
VERTEX
  8
0
  5
800007BC
 10
92.3138
 20
83.8481
 30
0.000000
  70
    32
  0
VERTEX
  8
0
  5
800007BD
 10
92.4268
 20
83.8561
 30
0.000000
  70
    32
  0
VERTEX
  8
0
  5
800007BE
 10
92.5397
 20
83.8642
 30
0.000000
  70
    32
  0
VERTEX
  8
0
  5
800007BF
 10
92.6526
 20
83.8725
 30
0.000000
  70
    32
  0
VERTEX
  8
0
  5
800007C0
 10
92.7654
 20
83.8809
 30
0.000000
  70
    32
  0
VERTEX
  8
0
  5
800007C1
 10
92.8782
 20
83.8895
 30
0.000000
  70
    32
  0
VERTEX
  8
0
  5
800007C2
 10
92.9909
 20
83.8982
 30
0.000000
  70
    32
  0
VERTEX
  8
0
  5
800007C3
 10
93.1035
 20
83.9072
 30
0.000000
  70
    32
  0
VERTEX
  8
0
  5
800007C4
 10
93.2159
 20
83.9163
 30
0.000000
  70
    32
  0
VERTEX
  8
0
  5
800007C5
 10
93.3283
 20
83.9258
 30
0.000000
  70
    32
  0
VERTEX
  8
0
  5
800007C6
 10
93.4406
 20
83.9354
 30
0.000000
  70
    32
  0
VERTEX
  8
0
  5
800007C7
 10
93.5527
 20
83.9454
 30
0.000000
  70
    32
  0
VERTEX
  8
0
  5
800007C8
 10
93.6647
 20
83.9557
 30
0.000000
  70
    32
  0
VERTEX
  8
0
  5
800007C9
 10
93.7766
 20
83.9663
 30
0.000000
  70
    32
  0
VERTEX
  8
0
  5
800007CA
 10
93.8883
 20
83.9773
 30
0.000000
  70
    32
  0
VERTEX
  8
0
  5
800007CB
 10
93.9998
 20
83.9886
 30
0.000000
  70
    32
  0
VERTEX
  8
0
  5
800007CC
 10
94.1112
 20
84.0003
 30
0.000000
  70
    32
  0
VERTEX
  8
0
  5
800007CD
 10
94.2224
 20
84.0124
 30
0.000000
  70
    32
  0
VERTEX
  8
0
  5
800007CE
 10
94.3334
 20
84.0249
 30
0.000000
  70
    32
  0
VERTEX
  8
0
  5
800007CF
 10
94.4442
 20
84.0379
 30
0.000000
  70
    32
  0
VERTEX
  8
0
  5
800007D0
 10
94.5548
 20
84.0513
 30
0.000000
  70
    32
  0
VERTEX
  8
0
  5
800007D1
 10
94.6652
 20
84.0652
 30
0.000000
  70
    32
  0
VERTEX
  8
0
  5
800007D2
 10
94.7754
 20
84.0796
 30
0.000000
  70
    32
  0
VERTEX
  8
0
  5
800007D3
 10
94.8853
 20
84.0946
 30
0.000000
  70
    32
  0
VERTEX
  8
0
  5
800007D4
 10
94.9950
 20
84.1101
 30
0.000000
  70
    32
  0
VERTEX
  8
0
  5
800007D5
 10
95.1045
 20
84.1261
 30
0.000000
  70
    32
  0
VERTEX
  8
0
  5
800007D6
 10
95.2137
 20
84.1428
 30
0.000000
  70
    32
  0
VERTEX
  8
0
  5
800007D7
 10
95.3226
 20
84.1600
 30
0.000000
  70
    32
  0
VERTEX
  8
0
  5
800007D8
 10
95.4313
 20
84.1779
 30
0.000000
  70
    32
  0
VERTEX
  8
0
  5
800007D9
 10
95.5396
 20
84.1964
 30
0.000000
  70
    32
  0
VERTEX
  8
0
  5
800007DA
 10
95.6477
 20
84.2156
 30
0.000000
  70
    32
  0
VERTEX
  8
0
  5
800007DB
 10
95.7555
 20
84.2354
 30
0.000000
  70
    32
  0
VERTEX
  8
0
  5
800007DC
 10
95.8630
 20
84.2560
 30
0.000000
  70
    32
  0
VERTEX
  8
0
  5
800007DD
 10
95.9701
 20
84.2773
 30
0.000000
  70
    32
  0
VERTEX
  8
0
  5
800007DE
 10
96.0769
 20
84.2993
 30
0.000000
  70
    32
  0
VERTEX
  8
0
  5
800007DF
 10
96.1834
 20
84.3221
 30
0.000000
  70
    32
  0
VERTEX
  8
0
  5
800007E0
 10
96.2895
 20
84.3457
 30
0.000000
  70
    32
  0
VERTEX
  8
0
  5
800007E1
 10
96.3953
 20
84.3701
 30
0.000000
  70
    32
  0
VERTEX
  8
0
  5
800007E2
 10
96.5007
 20
84.3953
 30
0.000000
  70
    32
  0
VERTEX
  8
0
  5
800007E3
 10
96.6057
 20
84.4213
 30
0.000000
  70
    32
  0
VERTEX
  8
0
  5
800007E4
 10
96.7104
 20
84.4483
 30
0.000000
  70
    32
  0
VERTEX
  8
0
  5
800007E5
 10
96.8147
 20
84.4761
 30
0.000000
  70
    32
  0
VERTEX
  8
0
  5
800007E6
 10
96.9185
 20
84.5048
 30
0.000000
  70
    32
  0
VERTEX
  8
0
  5
800007E7
 10
97.0220
 20
84.5344
 30
0.000000
  70
    32
  0
VERTEX
  8
0
  5
800007E8
 10
97.1251
 20
84.5650
 30
0.000000
  70
    32
  0
VERTEX
  8
0
  5
800007E9
 10
97.2277
 20
84.5965
 30
0.000000
  70
    32
  0
VERTEX
  8
0
  5
800007EA
 10
97.3299
 20
84.6290
 30
0.000000
  70
    32
  0
VERTEX
  8
0
  5
800007EB
 10
97.4316
 20
84.6625
 30
0.000000
  70
    32
  0
VERTEX
  8
0
  5
800007EC
 10
97.5329
 20
84.6971
 30
0.000000
  70
    32
  0
VERTEX
  8
0
  5
800007ED
 10
97.6337
 20
84.7327
 30
0.000000
  70
    32
  0
VERTEX
  8
0
  5
800007EE
 10
97.7341
 20
84.7693
 30
0.000000
  70
    32
  0
VERTEX
  8
0
  5
800007EF
 10
97.8340
 20
84.8071
 30
0.000000
  70
    32
  0
VERTEX
  8
0
  5
800007F0
 10
97.9334
 20
84.8459
 30
0.000000
  70
    32
  0
VERTEX
  8
0
  5
800007F1
 10
98.0323
 20
84.8859
 30
0.000000
  70
    32
  0
VERTEX
  8
0
  5
800007F2
 10
98.1307
 20
84.9270
 30
0.000000
  70
    32
  0
VERTEX
  8
0
  5
800007F3
 10
98.2286
 20
84.9692
 30
0.000000
  70
    32
  0
VERTEX
  8
0
  5
800007F4
 10
98.3259
 20
85.0127
 30
0.000000
  70
    32
  0
VERTEX
  8
0
  5
800007F5
 10
98.4227
 20
85.0574
 30
0.000000
  70
    32
  0
VERTEX
  8
0
  5
800007F6
 10
98.5190
 20
85.1032
 30
0.000000
  70
    32
  0
VERTEX
  8
0
  5
800007F7
 10
98.6148
 20
85.1504
 30
0.000000
  70
    32
  0
VERTEX
  8
0
  5
800007F8
 10
98.7100
 20
85.1987
 30
0.000000
  70
    32
  0
VERTEX
  8
0
  5
800007F9
 10
98.8046
 20
85.2484
 30
0.000000
  70
    32
  0
VERTEX
  8
0
  5
800007FA
 10
98.8987
 20
85.2992
 30
0.000000
  70
    32
  0
VERTEX
  8
0
  5
800007FB
 10
98.9923
 20
85.3512
 30
0.000000
  70
    32
  0
VERTEX
  8
0
  5
800007FC
 10
99.0854
 20
85.4044
 30
0.000000
  70
    32
  0
VERTEX
  8
0
  5
800007FD
 10
99.1779
 20
85.4587
 30
0.000000
  70
    32
  0
VERTEX
  8
0
  5
800007FE
 10
99.2700
 20
85.5141
 30
0.000000
  70
    32
  0
VERTEX
  8
0
  5
800007FF
 10
99.3616
 20
85.5706
 30
0.000000
  70
    32
  0
VERTEX
  8
0
  5
80000800
 10
99.4528
 20
85.6281
 30
0.000000
  70
    32
  0
VERTEX
  8
0
  5
80000801
 10
99.5435
 20
85.6866
 30
0.000000
  70
    32
  0
VERTEX
  8
0
  5
80000802
 10
99.6338
 20
85.7461
 30
0.000000
  70
    32
  0
VERTEX
  8
0
  5
80000803
 10
99.7237
 20
85.8065
 30
0.000000
  70
    32
  0
VERTEX
  8
0
  5
80000804
 10
99.8131
 20
85.8678
 30
0.000000
  70
    32
  0
VERTEX
  8
0
  5
80000805
 10
99.9022
 20
85.9301
 30
0.000000
  70
    32
  0
VERTEX
  8
0
  5
80000806
 10
99.9909
 20
85.9932
 30
0.000000
  70
    32
  0
VERTEX
  8
0
  5
80000807
 10
100.079
 20
86.0571
 30
0.000000
  70
    32
  0
VERTEX
  8
0
  5
80000808
 10
100.167
 20
86.1218
 30
0.000000
  70
    32
  0
VERTEX
  8
0
  5
80000809
 10
100.255
 20
86.1873
 30
0.000000
  70
    32
  0
VERTEX
  8
0
  5
8000080A
 10
100.342
 20
86.2535
 30
0.000000
  70
    32
  0
VERTEX
  8
0
  5
8000080B
 10
100.429
 20
86.3204
 30
0.000000
  70
    32
  0
VERTEX
  8
0
  5
8000080C
 10
100.516
 20
86.3880
 30
0.000000
  70
    32
  0
VERTEX
  8
0
  5
8000080D
 10
100.602
 20
86.4563
 30
0.000000
  70
    32
  0
VERTEX
  8
0
  5
8000080E
 10
100.688
 20
86.5251
 30
0.000000
  70
    32
  0
VERTEX
  8
0
  5
8000080F
 10
100.774
 20
86.5946
 30
0.000000
  70
    32
  0
VERTEX
  8
0
  5
80000810
 10
100.860
 20
86.6646
 30
0.000000
  70
    32
  0
VERTEX
  8
0
  5
80000811
 10
100.945
 20
86.7351
 30
0.000000
  70
    32
  0
VERTEX
  8
0
  5
80000812
 10
101.031
 20
86.8062
 30
0.000000
  70
    32
  0
VERTEX
  8
0
  5
80000813
 10
101.116
 20
86.8777
 30
0.000000
  70
    32
  0
VERTEX
  8
0
  5
80000814
 10
101.200
 20
86.9497
 30
0.000000
  70
    32
  0
VERTEX
  8
0
  5
80000815
 10
101.285
 20
87.0220
 30
0.000000
  70
    32
  0
VERTEX
  8
0
  5
80000816
 10
101.369
 20
87.0948
 30
0.000000
  70
    32
  0
VERTEX
  8
0
  5
80000817
 10
101.454
 20
87.1678
 30
0.000000
  70
    32
  0
VERTEX
  8
0
  5
80000818
 10
101.538
 20
87.2413
 30
0.000000
  70
    32
  0
VERTEX
  8
0
  5
80000819
 10
101.622
 20
87.3150
 30
0.000000
  70
    32
  0
VERTEX
  8
0
  5
8000081A
 10
101.706
 20
87.3889
 30
0.000000
  70
    32
  0
VERTEX
  8
0
  5
8000081B
 10
101.789
 20
87.4631
 30
0.000000
  70
    32
  0
VERTEX
  8
0
  5
8000081C
 10
101.873
 20
87.5375
 30
0.000000
  70
    32
  0
VERTEX
  8
0
  5
8000081D
 10
101.957
 20
87.6121
 30
0.000000
  70
    32
  0
VERTEX
  8
0
  5
8000081E
 10
102.040
 20
87.6868
 30
0.000000
  70
    32
  0
VERTEX
  8
0
  5
8000081F
 10
102.124
 20
87.7616
 30
0.000000
  70
    32
  0
VERTEX
  8
0
  5
80000820
 10
102.207
 20
87.8365
 30
0.000000
  70
    32
  0
VERTEX
  8
0
  5
80000821
 10
102.291
 20
87.9114
 30
0.000000
  70
    32
  0
VERTEX
  8
0
  5
80000822
 10
102.374
 20
87.9864
 30
0.000000
  70
    32
  0
VERTEX
  8
0
  5
80000823
 10
102.458
 20
88.0614
 30
0.000000
  70
    32
  0
VERTEX
  8
0
  5
80000824
 10
102.541
 20
88.1363
 30
0.000000
  70
    32
  0
VERTEX
  8
0
  5
80000825
 10
102.625
 20
88.2112
 30
0.000000
  70
    32
  0
VERTEX
  8
0
  5
80000826
 10
102.708
 20
88.2859
 30
0.000000
  70
    32
  0
VERTEX
  8
0
  5
80000827
 10
102.792
 20
88.3606
 30
0.000000
  70
    32
  0
VERTEX
  8
0
  5
80000828
 10
102.876
 20
88.4350
 30
0.000000
  70
    32
  0
VERTEX
  8
0
  5
80000829
 10
102.959
 20
88.5093
 30
0.000000
  70
    32
  0
VERTEX
  8
0
  5
8000082A
 10
103.043
 20
88.5834
 30
0.000000
  70
    32
  0
VERTEX
  8
0
  5
8000082B
 10
103.127
 20
88.6572
 30
0.000000
  70
    32
  0
VERTEX
  8
0
  5
8000082C
 10
103.211
 20
88.7308
 30
0.000000
  70
    32
  0
VERTEX
  8
0
  5
8000082D
 10
103.295
 20
88.8041
 30
0.000000
  70
    32
  0
VERTEX
  8
0
  5
8000082E
 10
103.380
 20
88.8770
 30
0.000000
  70
    32
  0
VERTEX
  8
0
  5
8000082F
 10
103.464
 20
88.9495
 30
0.000000
  70
    32
  0
VERTEX
  8
0
  5
80000830
 10
103.549
 20
89.0217
 30
0.000000
  70
    32
  0
VERTEX
  8
0
  5
80000831
 10
103.634
 20
89.0934
 30
0.000000
  70
    32
  0
VERTEX
  8
0
  5
80000832
 10
103.719
 20
89.1647
 30
0.000000
  70
    32
  0
VERTEX
  8
0
  5
80000833
 10
103.804
 20
89.2354
 30
0.000000
  70
    32
  0
VERTEX
  8
0
  5
80000834
 10
103.890
 20
89.3057
 30
0.000000
  70
    32
  0
VERTEX
  8
0
  5
80000835
 10
103.976
 20
89.3754
 30
0.000000
  70
    32
  0
VERTEX
  8
0
  5
80000836
 10
104.062
 20
89.4446
 30
0.000000
  70
    32
  0
VERTEX
  8
0
  5
80000837
 10
104.148
 20
89.5132
 30
0.000000
  70
    32
  0
SEQEND
  8
0
  5
80000838
  0
ENDBLK
  5
FFBBDAE469BC2894
  8
0
  0
BLOCK
  8
0
  2
*U39
 70
     1
 10
0.0
 20
0.0
 30
0.0
  3
*U39
  1

  0
TEXT
  5
FFBBDAE469BC2896
  8
0
  6
CONTINUOUS
 10
105.47053587093551
 20
186.10091595980009
 30
0.0
 40
5.0
  1
70 x 19mm CLD
  7
ARIAL
  0
TEXT
  5
FFBBDAE469BC2897
  8
0
  6
CONTINUOUS
 10
155.92662625292729
 20
189.31525651232391
 30
0.0
 40
3.7904999999999989
  1
®
  7
ARIAL
  0
TEXT
  5
FFBBDAE469BC2898
  8
0
  6
CONTINUOUS
 10
155.93438307420971
 20
188.05175651232389
 30
0.0
 40
3.7904999999999989
  1

  7
ARIAL
  0
TEXT
  5
FFBBDAE469BC2899
  8
0
  6
CONTINUOUS
 10
160.0894536744826
 20
186.10091595980009
 30
0.0
 40
5.0
  1
 Structural Cavity Batten
  7
ARIAL
  0
ENDBLK
  5
FFBBDAE469BC289B
  8
0
  0
BLOCK
  8
0
  2
*U40
 70
     1
 10
0.0
 20
0.0
 30
0.0
  3
*U40
  1

  0
TEXT
  5
FFBBDAE469BC28CB
  8
0
  6
CONTINUOUS
 10
103.1363776442592
 20
-8.9117251692255621
 30
0.0
 40
5.0
  1
Line of meter box head flashing over
  7
ARIAL
  0
TEXT
  5
FFBBDAE469BC28CC
  8
0
  6
CONTINUOUS
 10
103.4433353523083
 20
-17.265522349762168
 30
0.0
 40
5.0
  1
20mm past meter box
  7
ARIAL
  0
ENDBLK
  5
FFBBDAE469BC28CE
  8
0
  0
BLOCK
  8
0
  2
*U41
 70
     1
 10
0.0
 20
0.0
 30
0.0
  3
*U41
  1

  0
SOLID
  5
FFBBDAE469BC28D0
  8
0
  6
CONTINUOUS
 10
-96.605135429609803
 20
4.1725939868461959
 30
0.0
 11
-95.000112803209504
 21
7.146422404082613
 31
0.0
 12
-95.553892557727707
 22
3.812793590026446
 32
0.0
 13
-95.553892557727707
 23
3.812793590026446
 33
0.0
210
0.0
220
0.0
230
-1.0
  0
POLYLINE
  8
0
  5
80000839
  66
     1
 10
0.000000
 20
0.000000
 30
0.000000
  70
     8
  0
VERTEX
  8
0
  5
8000083A
 10
96.0795
 20
3.99269
 30
0.000000
  70
    32
  0
VERTEX
  8
0
  5
8000083B
 10
96.1034
 20
3.92243
 30
0.000000
  70
    32
  0
VERTEX
  8
0
  5
8000083C
 10
96.1269
 20
3.85197
 30
0.000000
  70
    32
  0
VERTEX
  8
0
  5
8000083D
 10
96.1502
 20
3.78134
 30
0.000000
  70
    32
  0
VERTEX
  8
0
  5
8000083E
 10
96.1731
 20
3.71054
 30
0.000000
  70
    32
  0
VERTEX
  8
0
  5
8000083F
 10
96.1958
 20
3.63958
 30
0.000000
  70
    32
  0
VERTEX
  8
0
  5
80000840
 10
96.2182
 20
3.56845
 30
0.000000
  70
    32
  0
VERTEX
  8
0
  5
80000841
 10
96.2403
 20
3.49718
 30
0.000000
  70
    32
  0
VERTEX
  8
0
  5
80000842
 10
96.2622
 20
3.42575
 30
0.000000
  70
    32
  0
VERTEX
  8
0
  5
80000843
 10
96.2839
 20
3.35419
 30
0.000000
  70
    32
  0
VERTEX
  8
0
  5
80000844
 10
96.3053
 20
3.28248
 30
0.000000
  70
    32
  0
VERTEX
  8
0
  5
80000845
 10
96.3265
 20
3.21065
 30
0.000000
  70
    32
  0
VERTEX
  8
0
  5
80000846
 10
96.3475
 20
3.13870
 30
0.000000
  70
    32
  0
VERTEX
  8
0
  5
80000847
 10
96.3683
 20
3.06663
 30
0.000000
  70
    32
  0
VERTEX
  8
0
  5
80000848
 10
96.3889
 20
2.99445
 30
0.000000
  70
    32
  0
VERTEX
  8
0
  5
80000849
 10
96.4093
 20
2.92216
 30
0.000000
  70
    32
  0
VERTEX
  8
0
  5
8000084A
 10
96.4296
 20
2.84978
 30
0.000000
  70
    32
  0
VERTEX
  8
0
  5
8000084B
 10
96.4497
 20
2.77730
 30
0.000000
  70
    32
  0
VERTEX
  8
0
  5
8000084C
 10
96.4696
 20
2.70473
 30
0.000000
  70
    32
  0
VERTEX
  8
0
  5
8000084D
 10
96.4894
 20
2.63208
 30
0.000000
  70
    32
  0
VERTEX
  8
0
  5
8000084E
 10
96.5091
 20
2.55936
 30
0.000000
  70
    32
  0
VERTEX
  8
0
  5
8000084F
 10
96.5287
 20
2.48657
 30
0.000000
  70
    32
  0
VERTEX
  8
0
  5
80000850
 10
96.5481
 20
2.41371
 30
0.000000
  70
    32
  0
VERTEX
  8
0
  5
80000851
 10
96.5675
 20
2.34080
 30
0.000000
  70
    32
  0
VERTEX
  8
0
  5
80000852
 10
96.5868
 20
2.26784
 30
0.000000
  70
    32
  0
VERTEX
  8
0
  5
80000853
 10
96.6060
 20
2.19483
 30
0.000000
  70
    32
  0
VERTEX
  8
0
  5
80000854
 10
96.6251
 20
2.12178
 30
0.000000
  70
    32
  0
VERTEX
  8
0
  5
80000855
 10
96.6442
 20
2.04870
 30
0.000000
  70
    32
  0
VERTEX
  8
0
  5
80000856
 10
96.6632
 20
1.97559
 30
0.000000
  70
    32
  0
VERTEX
  8
0
  5
80000857
 10
96.6822
 20
1.90246
 30
0.000000
  70
    32
  0
VERTEX
  8
0
  5
80000858
 10
96.7011
 20
1.82932
 30
0.000000
  70
    32
  0
VERTEX
  8
0
  5
80000859
 10
96.7201
 20
1.75617
 30
0.000000
  70
    32
  0
VERTEX
  8
0
  5
8000085A
 10
96.7390
 20
1.68301
 30
0.000000
  70
    32
  0
VERTEX
  8
0
  5
8000085B
 10
96.7580
 20
1.60986
 30
0.000000
  70
    32
  0
VERTEX
  8
0
  5
8000085C
 10
96.7770
 20
1.53671
 30
0.000000
  70
    32
  0
VERTEX
  8
0
  5
8000085D
 10
96.7959
 20
1.46359
 30
0.000000
  70
    32
  0
VERTEX
  8
0
  5
8000085E
 10
96.8150
 20
1.39048
 30
0.000000
  70
    32
  0
VERTEX
  8
0
  5
8000085F
 10
96.8340
 20
1.31740
 30
0.000000
  70
    32
  0
VERTEX
  8
0
  5
80000860
 10
96.8532
 20
1.24435
 30
0.000000
  70
    32
  0
VERTEX
  8
0
  5
80000861
 10
96.8724
 20
1.17134
 30
0.000000
  70
    32
  0
VERTEX
  8
0
  5
80000862
 10
96.8916
 20
1.09837
 30
0.000000
  70
    32
  0
VERTEX
  8
0
  5
80000863
 10
96.9110
 20
1.02546
 30
0.000000
  70
    32
  0
VERTEX
  8
0
  5
80000864
 10
96.9304
 20
0.952602
 30
0.000000
  70
    32
  0
VERTEX
  8
0
  5
80000865
 10
96.9500
 20
0.879809
 30
0.000000
  70
    32
  0
VERTEX
  8
0
  5
80000866
 10
96.9697
 20
0.807084
 30
0.000000
  70
    32
  0
VERTEX
  8
0
  5
80000867
 10
96.9895
 20
0.734434
 30
0.000000
  70
    32
  0
VERTEX
  8
0
  5
80000868
 10
97.0094
 20
0.661865
 30
0.000000
  70
    32
  0
VERTEX
  8
0
  5
80000869
 10
97.0295
 20
0.589383
 30
0.000000
  70
    32
  0
VERTEX
  8
0
  5
8000086A
 10
97.0498
 20
0.516994
 30
0.000000
  70
    32
  0
VERTEX
  8
0
  5
8000086B
 10
97.0702
 20
0.444704
 30
0.000000
  70
    32
  0
VERTEX
  8
0
  5
8000086C
 10
97.0908
 20
0.372519
 30
0.000000
  70
    32
  0
VERTEX
  8
0
  5
8000086D
 10
97.1116
 20
0.300445
 30
0.000000
  70
    32
  0
VERTEX
  8
0
  5
8000086E
 10
97.1326
 20
0.228488
 30
0.000000
  70
    32
  0
VERTEX
  8
0
  5
8000086F
 10
97.1538
 20
0.156654
 30
0.000000
  70
    32
  0
VERTEX
  8
0
  5
80000870
 10
97.1752
 20
0.0849492
 30
0.000000
  70
    32
  0
VERTEX
  8
0
  5
80000871
 10
97.1968
 20
0.0133792
 30
0.000000
  70
    32
  0
VERTEX
  8
0
  5
80000872
 10
97.2187
 20
-0.0580499
 30
0.000000
  70
    32
  0
VERTEX
  8
0
  5
80000873
 10
97.2408
 20
-0.129332
 30
0.000000
  70
    32
  0
VERTEX
  8
0
  5
80000874
 10
97.2632
 20
-0.200461
 30
0.000000
  70
    32
  0
VERTEX
  8
0
  5
80000875
 10
97.2859
 20
-0.271431
 30
0.000000
  70
    32
  0
VERTEX
  8
0
  5
80000876
 10
97.3088
 20
-0.342236
 30
0.000000
  70
    32
  0
VERTEX
  8
0
  5
80000877
 10
97.3321
 20
-0.412870
 30
0.000000
  70
    32
  0
VERTEX
  8
0
  5
80000878
 10
97.3556
 20
-0.483327
 30
0.000000
  70
    32
  0
VERTEX
  8
0
  5
80000879
 10
97.3795
 20
-0.553601
 30
0.000000
  70
    32
  0
VERTEX
  8
0
  5
8000087A
 10
97.4036
 20
-0.623686
 30
0.000000
  70
    32
  0
VERTEX
  8
0
  5
8000087B
 10
97.4281
 20
-0.693576
 30
0.000000
  70
    32
  0
VERTEX
  8
0
  5
8000087C
 10
97.4530
 20
-0.763264
 30
0.000000
  70
    32
  0
VERTEX
  8
0
  5
8000087D
 10
97.4782
 20
-0.832746
 30
0.000000
  70
    32
  0
VERTEX
  8
0
  5
8000087E
 10
97.5038
 20
-0.902015
 30
0.000000
  70
    32
  0
VERTEX
  8
0
  5
8000087F
 10
97.5297
 20
-0.971065
 30
0.000000
  70
    32
  0
VERTEX
  8
0
  5
80000880
 10
97.5560
 20
-1.03989
 30
0.000000
  70
    32
  0
VERTEX
  8
0
  5
80000881
 10
97.5827
 20
-1.10848
 30
0.000000
  70
    32
  0
VERTEX
  8
0
  5
80000882
 10
97.6098
 20
-1.17684
 30
0.000000
  70
    32
  0
VERTEX
  8
0
  5
80000883
 10
97.6373
 20
-1.24495
 30
0.000000
  70
    32
  0
VERTEX
  8
0
  5
80000884
 10
97.6653
 20
-1.31282
 30
0.000000
  70
    32
  0
VERTEX
  8
0
  5
80000885
 10
97.6937
 20
-1.38043
 30
0.000000
  70
    32
  0
VERTEX
  8
0
  5
80000886
 10
97.7225
 20
-1.44777
 30
0.000000
  70
    32
  0
VERTEX
  8
0
  5
80000887
 10
97.7518
 20
-1.51486
 30
0.000000
  70
    32
  0
VERTEX
  8
0
  5
80000888
 10
97.7815
 20
-1.58166
 30
0.000000
  70
    32
  0
VERTEX
  8
0
  5
80000889
 10
97.8118
 20
-1.64819
 30
0.000000
  70
    32
  0
VERTEX
  8
0
  5
8000088A
 10
97.8425
 20
-1.71444
 30
0.000000
  70
    32
  0
VERTEX
  8
0
  5
8000088B
 10
97.8737
 20
-1.78039
 30
0.000000
  70
    32
  0
VERTEX
  8
0
  5
8000088C
 10
97.9054
 20
-1.84605
 30
0.000000
  70
    32
  0
VERTEX
  8
0
  5
8000088D
 10
97.9376
 20
-1.91140
 30
0.000000
  70
    32
  0
VERTEX
  8
0
  5
8000088E
 10
97.9704
 20
-1.97644
 30
0.000000
  70
    32
  0
VERTEX
  8
0
  5
8000088F
 10
98.0036
 20
-2.04117
 30
0.000000
  70
    32
  0
VERTEX
  8
0
  5
80000890
 10
98.0375
 20
-2.10558
 30
0.000000
  70
    32
  0
VERTEX
  8
0
  5
80000891
 10
98.0719
 20
-2.16966
 30
0.000000
  70
    32
  0
VERTEX
  8
0
  5
80000892
 10
98.1068
 20
-2.23340
 30
0.000000
  70
    32
  0
VERTEX
  8
0
  5
80000893
 10
98.1424
 20
-2.29681
 30
0.000000
  70
    32
  0
VERTEX
  8
0
  5
80000894
 10
98.1785
 20
-2.35988
 30
0.000000
  70
    32
  0
VERTEX
  8
0
  5
80000895
 10
98.2152
 20
-2.42259
 30
0.000000
  70
    32
  0
VERTEX
  8
0
  5
80000896
 10
98.2525
 20
-2.48494
 30
0.000000
  70
    32
  0
VERTEX
  8
0
  5
80000897
 10
98.2905
 20
-2.54693
 30
0.000000
  70
    32
  0
VERTEX
  8
0
  5
80000898
 10
98.3290
 20
-2.60856
 30
0.000000
  70
    32
  0
VERTEX
  8
0
  5
80000899
 10
98.3683
 20
-2.66980
 30
0.000000
  70
    32
  0
VERTEX
  8
0
  5
8000089A
 10
98.4081
 20
-2.73068
 30
0.000000
  70
    32
  0
VERTEX
  8
0
  5
8000089B
 10
98.4486
 20
-2.79118
 30
0.000000
  70
    32
  0
VERTEX
  8
0
  5
8000089C
 10
98.4896
 20
-2.85133
 30
0.000000
  70
    32
  0
VERTEX
  8
0
  5
8000089D
 10
98.5313
 20
-2.91114
 30
0.000000
  70
    32
  0
VERTEX
  8
0
  5
8000089E
 10
98.5736
 20
-2.97060
 30
0.000000
  70
    32
  0
VERTEX
  8
0
  5
8000089F
 10
98.6164
 20
-3.02974
 30
0.000000
  70
    32
  0
VERTEX
  8
0
  5
800008A0
 10
98.6597
 20
-3.08855
 30
0.000000
  70
    32
  0
VERTEX
  8
0
  5
800008A1
 10
98.7036
 20
-3.14705
 30
0.000000
  70
    32
  0
VERTEX
  8
0
  5
800008A2
 10
98.7480
 20
-3.20524
 30
0.000000
  70
    32
  0
VERTEX
  8
0
  5
800008A3
 10
98.7929
 20
-3.26314
 30
0.000000
  70
    32
  0
VERTEX
  8
0
  5
800008A4
 10
98.8383
 20
-3.32076
 30
0.000000
  70
    32
  0
VERTEX
  8
0
  5
800008A5
 10
98.8842
 20
-3.37809
 30
0.000000
  70
    32
  0
VERTEX
  8
0
  5
800008A6
 10
98.9305
 20
-3.43516
 30
0.000000
  70
    32
  0
VERTEX
  8
0
  5
800008A7
 10
98.9773
 20
-3.49197
 30
0.000000
  70
    32
  0
VERTEX
  8
0
  5
800008A8
 10
99.0245
 20
-3.54852
 30
0.000000
  70
    32
  0
VERTEX
  8
0
  5
800008A9
 10
99.0721
 20
-3.60484
 30
0.000000
  70
    32
  0
VERTEX
  8
0
  5
800008AA
 10
99.1201
 20
-3.66092
 30
0.000000
  70
    32
  0
VERTEX
  8
0
  5
800008AB
 10
99.1685
 20
-3.71677
 30
0.000000
  70
    32
  0
VERTEX
  8
0
  5
800008AC
 10
99.2172
 20
-3.77241
 30
0.000000
  70
    32
  0
VERTEX
  8
0
  5
800008AD
 10
99.2663
 20
-3.82785
 30
0.000000
  70
    32
  0
VERTEX
  8
0
  5
800008AE
 10
99.3158
 20
-3.88308
 30
0.000000
  70
    32
  0
VERTEX
  8
0
  5
800008AF
 10
99.3655
 20
-3.93813
 30
0.000000
  70
    32
  0
VERTEX
  8
0
  5
800008B0
 10
99.4156
 20
-3.99299
 30
0.000000
  70
    32
  0
VERTEX
  8
0
  5
800008B1
 10
99.4660
 20
-4.04769
 30
0.000000
  70
    32
  0
VERTEX
  8
0
  5
800008B2
 10
99.5166
 20
-4.10222
 30
0.000000
  70
    32
  0
VERTEX
  8
0
  5
800008B3
 10
99.5675
 20
-4.15659
 30
0.000000
  70
    32
  0
VERTEX
  8
0
  5
800008B4
 10
99.6187
 20
-4.21082
 30
0.000000
  70
    32
  0
VERTEX
  8
0
  5
800008B5
 10
99.6701
 20
-4.26492
 30
0.000000
  70
    32
  0
VERTEX
  8
0
  5
800008B6
 10
99.7217
 20
-4.31888
 30
0.000000
  70
    32
  0
VERTEX
  8
0
  5
800008B7
 10
99.7735
 20
-4.37273
 30
0.000000
  70
    32
  0
VERTEX
  8
0
  5
800008B8
 10
99.8255
 20
-4.42646
 30
0.000000
  70
    32
  0
VERTEX
  8
0
  5
800008B9
 10
99.8776
 20
-4.48010
 30
0.000000
  70
    32
  0
VERTEX
  8
0
  5
800008BA
 10
99.9299
 20
-4.53364
 30
0.000000
  70
    32
  0
VERTEX
  8
0
  5
800008BB
 10
99.9824
 20
-4.58710
 30
0.000000
  70
    32
  0
VERTEX
  8
0
  5
800008BC
 10
100.035
 20
-4.64048
 30
0.000000
  70
    32
  0
VERTEX
  8
0
  5
800008BD
 10
100.088
 20
-4.69380
 30
0.000000
  70
    32
  0
VERTEX
  8
0
  5
800008BE
 10
100.141
 20
-4.74706
 30
0.000000
  70
    32
  0
VERTEX
  8
0
  5
800008BF
 10
100.193
 20
-4.80027
 30
0.000000
  70
    32
  0
VERTEX
  8
0
  5
800008C0
 10
100.246
 20
-4.85345
 30
0.000000
  70
    32
  0
VERTEX
  8
0
  5
800008C1
 10
100.299
 20
-4.90659
 30
0.000000
  70
    32
  0
VERTEX
  8
0
  5
800008C2
 10
100.352
 20
-4.95971
 30
0.000000
  70
    32
  0
VERTEX
  8
0
  5
800008C3
 10
100.405
 20
-5.01281
 30
0.000000
  70
    32
  0
VERTEX
  8
0
  5
800008C4
 10
100.459
 20
-5.06591
 30
0.000000
  70
    32
  0
VERTEX
  8
0
  5
800008C5
 10
100.512
 20
-5.11902
 30
0.000000
  70
    32
  0
VERTEX
  8
0
  5
800008C6
 10
100.565
 20
-5.17214
 30
0.000000
  70
    32
  0
VERTEX
  8
0
  5
800008C7
 10
100.618
 20
-5.22528
 30
0.000000
  70
    32
  0
VERTEX
  8
0
  5
800008C8
 10
100.671
 20
-5.27845
 30
0.000000
  70
    32
  0
VERTEX
  8
0
  5
800008C9
 10
100.724
 20
-5.33166
 30
0.000000
  70
    32
  0
VERTEX
  8
0
  5
800008CA
 10
100.776
 20
-5.38492
 30
0.000000
  70
    32
  0
VERTEX
  8
0
  5
800008CB
 10
100.829
 20
-5.43823
 30
0.000000
  70
    32
  0
VERTEX
  8
0
  5
800008CC
 10
100.882
 20
-5.49161
 30
0.000000
  70
    32
  0
VERTEX
  8
0
  5
800008CD
 10
100.934
 20
-5.54507
 30
0.000000
  70
    32
  0
VERTEX
  8
0
  5
800008CE
 10
100.986
 20
-5.59861
 30
0.000000
  70
    32
  0
VERTEX
  8
0
  5
800008CF
 10
101.039
 20
-5.65224
 30
0.000000
  70
    32
  0
VERTEX
  8
0
  5
800008D0
 10
101.091
 20
-5.70597
 30
0.000000
  70
    32
  0
VERTEX
  8
0
  5
800008D1
 10
101.142
 20
-5.75982
 30
0.000000
  70
    32
  0
VERTEX
  8
0
  5
800008D2
 10
101.194
 20
-5.81378
 30
0.000000
  70
    32
  0
VERTEX
  8
0
  5
800008D3
 10
101.245
 20
-5.86787
 30
0.000000
  70
    32
  0
VERTEX
  8
0
  5
800008D4
 10
101.297
 20
-5.92210
 30
0.000000
  70
    32
  0
VERTEX
  8
0
  5
800008D5
 10
101.347
 20
-5.97647
 30
0.000000
  70
    32
  0
VERTEX
  8
0
  5
800008D6
 10
101.398
 20
-6.03099
 30
0.000000
  70
    32
  0
VERTEX
  8
0
  5
800008D7
 10
101.448
 20
-6.08568
 30
0.000000
  70
    32
  0
VERTEX
  8
0
  5
800008D8
 10
101.499
 20
-6.14054
 30
0.000000
  70
    32
  0
VERTEX
  8
0
  5
800008D9
 10
101.548
 20
-6.19558
 30
0.000000
  70
    32
  0
SEQEND
  8
0
  5
800008DA
  0
ENDBLK
  5
FFBBDAE469BC28D3
  8
0
  0
BLOCK
  8
0
  2
*U42
 70
     1
 10
0.0
 20
0.0
 30
0.0
  3
*U42
  1

  0
TEXT
  5
FFBBDAE469BC28ED
  8
0
  6
CONTINUOUS
 10
-51.00613495317441
 20
-35.645814151051042
 30
0.0
 40
5.0
  1
Note:
  7
ARIAL
  0
TEXT
  5
FFBBDAE469BC28EE
  8
0
  6
CONTINUOUS
 10
-33.15824955071875
 20
-35.645814151051042
 30
0.0
 40
5.0
  1
 When James Hardie rigid air barrier is used flashing tape or
  7
ARIAL
  0
TEXT
  5
FFBBDAE469BC28EF
  8
0
  6
CONTINUOUS
 10
-50.944743411564588
 20
-44.021780499391191
 30
0.0
 40
5.0
  1
building underlay to be applied to the entire window jamb.
  7
ARIAL
  0
ENDBLK
  5
FFBBDAE469BC28F1
  8
0
  0
BLOCK
  8
0
  2
*U43
 70
     1
 10
0.0
 20
0.0
 30
0.0
  3
*U43
  1

  0
TEXT
  5
FFBBDAE469BC28F7
  8
0
  6
CONTINUOUS
 62
     0
 10
31.38699891578305
 20
103.0617153465729
 30
0.0
 40
5.0
  1
10mm
 50
90.0
  7
ARIAL
  0
TEXT
  5
FFBBDAE469BC28F8
  8
0
  6
CONTINUOUS
 62
     0
 10
39.720332249116382
 20
107.3028476794515
 30
0.0
 40
5.0
  1
min
 50
90.0
  7
ARIAL
  0
ENDBLK
  5
FFBBDAE469BC28FA
  8
0
  0
BLOCK
  8
0
  2
*U44
 70
     1
 10
0.0
 20
0.0
 30
0.0
  3
*U44
  1

  0
TEXT
  5
FFBBDAE469BC28FC
  8
0
  6
CONTINUOUS
 62
     0
 10
29.917012558347849
 20
51.576255345898183
 30
0.0
 40
5.0
  1
5mm
 50
90.0
  7
ARIAL
  0
TEXT
  5
FFBBDAE469BC28FD
  8
0
  6
CONTINUOUS
 62
     0
 10
38.250345891681192
 20
53.457223967999141
 30
0.0
 40
5.0
  1
gap
 50
90.0
  7
ARIAL
  0
ENDBLK
  5
FFBBDAE469BC28FF
  8
0
  0
BLOCK
  8
0
  2
*U45
 70
     1
 10
0.0
 20
0.0
 30
0.0
  3
*U45
  1

  0
TEXT
  5
FFBBDAE469BC2901
  8
0
  6
CONTINUOUS
 62
     0
 10
61.755547720268673
 20
83.061715346575426
 30
0.0
 40
5.0
  1
10mm
 50
90.0
  7
ARIAL
  0
TEXT
  5
FFBBDAE469BC2902
  8
0
  6
CONTINUOUS
 62
     0
 10
70.088881053601995
 20
77.504075510286199
 30
0.0
 40
5.0
  1
min cover
 50
90.0
  7
ARIAL
  0
ENDBLK
  5
FFBBDAE469BC2904
  8
0
  0
ENDSEC
  0
SECTION
  2
ENTITIES
  0
POLYLINE
  5
FFBBDAE469BC10BA
  8
0
  6
CONTINUOUS
 66
     1
 10
0.0
 20
0.0
 30
0.0
  0
VERTEX
  5
FFBBDAE469BC25C0
  8
0
  6
CONTINUOUS
 10
52.0
 20
127.9201026098569
 30
0.0
  0
VERTEX
  5
FFBBDAE469BC25C1
  8
0
  6
CONTINUOUS
 10
-38.0
 20
127.9201026098569
 30
0.0
  0
VERTEX
  5
FFBBDAE469BC25C2
  8
0
  6
CONTINUOUS
 10
-38.0
 20
82.92010260985694
 30
0.0
  0
VERTEX
  5
FFBBDAE469BC25C3
  8
0
  6
CONTINUOUS
 10
52.0
 20
82.92010260985694
 30
0.0
  0
VERTEX
  5
FFBBDAE469BC25C4
  8
0
  6
CONTINUOUS
 10
52.0
 20
116.820102609857
 30
0.0
  0
SEQEND
  5
FFBBDAE469BC25C5
  8
0
  6
CONTINUOUS
  0
LINE
  5
FFBBDAE469BC10BC
  8
0
  6
CONTINUOUS
 10
-38.0
 20
127.9201026098569
 30
0.0
 11
52.0
 21
82.92010260985694
 31
0.0
  0
LINE
  5
FFBBDAE469BC10BD
  8
0
  6
PHANTOM
 10
54.0
 20
80.920102609856926
 30
0.0
 11
54.000000000006366
 21
141.17010260985691
 31
0.0
  0
LINE
  5
FFBBDAE469BC10BE
  8
0
  6
PHANTOM
 10
-40.0
 20
80.920102609856485
 30
0.0
 11
54.0
 21
80.920102609856926
 31
0.0
  0
POLYLINE
  5
FFBBDAE469BC10BF
  8
0
  6
CONTINUOUS
 66
     1
 10
0.0
 20
0.0
 30
0.0
  0
VERTEX
  5
FFBBDAE469BC25C6
  8
0
  6
CONTINUOUS
 10
52.0
 20
172.92010260985691
 30
0.0
  0
VERTEX
  5
FFBBDAE469BC25C7
  8
0
  6
CONTINUOUS
 10
-38.0
 20
172.92010260985691
 30
0.0
  0
VERTEX
  5
FFBBDAE469BC25C8
  8
0
  6
CONTINUOUS
 10
-38.0
 20
127.9201026098569
 30
0.0
  0
VERTEX
  5
FFBBDAE469BC25C9
  8
0
  6
CONTINUOUS
 10
52.0
 20
127.9201026098569
 30
0.0
  0
VERTEX
  5
FFBBDAE469BC25CA
  8
0
  6
CONTINUOUS
 10
52.0
 20
141.5201026098573
 30
0.0
  0
SEQEND
  5
FFBBDAE469BC25CB
  8
0
  6
CONTINUOUS
  0
LINE
  5
FFBBDAE469BC10C0
  8
0
  6
CONTINUOUS
 10
52.0
 20
172.92010260985691
 30
0.0
 11
23.871598375702892
 21
158.85590179770929
 31
0.0
  0
LINE
  5
FFBBDAE469BC10C1
  8
0
  6
CONTINUOUS
 10
85.000112803210868
 20
198.7508889748085
 30
0.0
 11
85.000112803209035
 21
82.920244863643575
 31
0.0
  0
LINE
  5
FFBBDAE469BC10C2
  8
0
  6
CONTINUOUS
 10
76.0
 20
199.1384640714611
 30
0.0
 11
75.999999999998636
 21
118.9202448636436
 31
0.0
  0
POLYLINE
  5
FFBBDAE469BC10C3
  8
0
  6
CONTINUOUS
 66
     1
 10
0.0
 20
0.0
 30
0.0
  0
VERTEX
  5
FFBBDAE469BC25CC
  8
0
  6
CONTINUOUS
 10
85.000112803210868
 20
198.7508889748085
 30
0.0
  0
VERTEX
  5
FFBBDAE469BC25CD
  8
0
  6
CONTINUOUS
 10
84.895801766273507
 20
198.67686934028529
 30
0.0
  0
VERTEX
  5
FFBBDAE469BC25CE
  8
0
  6
CONTINUOUS
 10
80.602535792833805
 20
198.67686934028529
 30
0.0
  0
VERTEX
  5
FFBBDAE469BC25CF
  8
0
  6
CONTINUOUS
 10
79.281530877928162
 20
199.33706899274031
 30
0.0
  0
VERTEX
  5
FFBBDAE469BC25D0
  8
0
  6
CONTINUOUS
 10
78.290777191752554
 20
199.66716941246679
 30
0.0
  0
VERTEX
  5
FFBBDAE469BC25D1
  8
0
  6
CONTINUOUS
 10
76.0
 20
199.1384640714611
 30
0.0
  0
SEQEND
  5
FFBBDAE469BC25D2
  8
0
  6
CONTINUOUS
  0
LINE
  5
FFBBDAE469BC10C4
  8
0
  6
CONTINUOUS
 10
52.0
 20
170.92010260985691
 30
0.0
 11
52.0
 21
198.5615362529995
 31
0.0
  0
LINE
  5
FFBBDAE469BC10C5
  8
0
  6
CONTINUOUS
 10
-38.0
 20
170.92010260985691
 30
0.0
 11
-38.0
 21
198.5615362529995
 31
0.0
  0
POLYLINE
  5
FFBBDAE469BC10C6
  8
0
  6
CONTINUOUS
 66
     1
 10
0.0
 20
0.0
 30
0.0
  0
VERTEX
  5
FFBBDAE469BC25D3
  8
0
  6
CONTINUOUS
 10
52.0
 20
198.5615362529995
 30
0.0
  0
VERTEX
  5
FFBBDAE469BC25D4
  8
0
  6
CONTINUOUS
 10
49.691703853790379
 20
197.60162657078419
 30
0.0
  0
VERTEX
  5
FFBBDAE469BC25D5
  8
0
  6
CONTINUOUS
 10
42.969256435855641
 20
197.98559033475681
 30
0.0
  0
VERTEX
  5
FFBBDAE469BC25D6
  8
0
  6
CONTINUOUS
 10
35.670598398286529
 20
198.75351840726921
 30
0.0
  0
VERTEX
  5
FFBBDAE469BC25D7
  8
0
  6
CONTINUOUS
 10
30.292639973380581
 20
198.3695546432966
 30
0.0
  0
VERTEX
  5
FFBBDAE469BC25D8
  8
0
  6
CONTINUOUS
 10
7.6283866696758187
 20
198.94550056153889
 30
0.0
  0
VERTEX
  5
FFBBDAE469BC25D9
  8
0
  6
CONTINUOUS
 10
3.2107776423072201
 20
198.3695546432966
 30
0.0
  0
VERTEX
  5
FFBBDAE469BC25DA
  8
0
  6
CONTINUOUS
 10
-18.10898666836874
 20
199.1374821712418
 30
0.0
  0
VERTEX
  5
FFBBDAE469BC25DB
  8
0
  6
CONTINUOUS
 10
-23.871084688766128
 20
198.94550056153889
 30
0.0
  0
VERTEX
  5
FFBBDAE469BC25DC
  8
0
  6
CONTINUOUS
 10
-30.785602313248091
 20
199.1374821712418
 30
0.0
  0
VERTEX
  5
FFBBDAE469BC25DD
  8
0
  6
CONTINUOUS
 10
-33.47458193449711
 20
198.3695546432966
 30
0.0
  0
VERTEX
  5
FFBBDAE469BC25DE
  8
0
  6
CONTINUOUS
 10
-38.0
 20
198.5615362529995
 30
0.0
  0
SEQEND
  5
FFBBDAE469BC25DF
  8
0
  6
CONTINUOUS
  0
LINE
  5
FFBBDAE469BC10C7
  8
0
  6
CONTINUOUS
 10
23.871598375702892
 20
158.85590179770929
 30
0.0
 11
-38.0
 21
127.9201026098569
 31
0.0
  0
LINE
  5
FFBBDAE469BC10C9
  8
0
  6
CONTINUOUS
 10
-38.000000000003638
 20
172.92010260985779
 30
0.0
 11
19.199999999999822
 21
144.3201026098568
 31
0.0
  0
POLYLINE
  5
FFBBDAE469BC10CA
  8
0
  6
CONTINUOUS
 66
     1
 10
0.0
 20
0.0
 30
0.0
  0
VERTEX
  5
FFBBDAE469BC25E0
  8
0
  6
CONTINUOUS
 10
75.000000000003638
 20
177.92010260985691
 30
0.0
  0
VERTEX
  5
FFBBDAE469BC25E1
  8
0
  6
CONTINUOUS
 10
57.000000000003638
 20
177.92010260985691
 30
0.0
  0
VERTEX
  5
FFBBDAE469BC25E2
  8
0
  6
CONTINUOUS
 10
57.000000000003638
 20
144.67010260985691
 30
0.0
  0
SEQEND
  5
FFBBDAE469BC25E3
  8
0
  6
CONTINUOUS
  0
POLYLINE
  5
FFBBDAE469BC10D0
  8
0
  6
CONTINUOUS
 66
     1
 10
0.0
 20
0.0
 30
0.0
  0
VERTEX
  5
FFBBDAE469BC25E4
  8
0
  6
CONTINUOUS
 10
75.000000000003638
 20
112.92010260985739
 30
0.0
  0
VERTEX
  5
FFBBDAE469BC25E5
  8
0
  6
CONTINUOUS
 10
75.000000000003638
 20
116.9202448636436
 30
0.0
  0
SEQEND
  5
FFBBDAE469BC25E6
  8
0
  6
CONTINUOUS
  0
LINE
  5
FFBBDAE469BC10D8
  8
0
  6
PHANTOM
 10
-40.0
 20
80.920102609856485
 30
0.0
 11
-40.000000000003638
 21
151.16998391652851
 31
0.0
  0
POLYLINE
  5
FFBBDAE469BC10D9
  8
0
  6
CONTINUOUS
 66
     1
 10
0.0
 20
0.0
 30
0.0
  0
VERTEX
  5
FFBBDAE469BC25E7
  8
0
  6
CONTINUOUS
 10
-33.5
 20
109.847371149636
 30
0.0
  0
VERTEX
  5
FFBBDAE469BC25E8
  8
0
  6
CONTINUOUS
 10
-40.499999999999993
 20
109.847371149636
 30
0.0
  0
VERTEX
  5
FFBBDAE469BC25E9
  8
0
  6
CONTINUOUS
 10
-40.499999999999993
 20
99.847371149636047
 30
0.0
  0
VERTEX
  5
FFBBDAE469BC25EA
  8
0
  6
CONTINUOUS
 10
-33.5
 20
99.847371149636047
 30
0.0
  0
SEQEND
  5
FFBBDAE469BC25EB
  8
0
  6
CONTINUOUS
  0
LINE
  5
FFBBDAE469BC10DA
  8
0
  6
PHANTOM2
 10
55.5
 20
79.520102609856849
 30
0.0
 11
55.500000000005912
 21
141.17010260985711
 31
0.0
  0
LINE
  5
FFBBDAE469BC10DB
  8
0
  6
PHANTOM2
 10
17.203144804418109
 20
79.42010260985694
 30
0.0
 11
55.400000000001448
 21
79.42010260985694
 31
0.0
  0
LINE
  5
FFBBDAE469BC10DC
  8
0
  6
CONTINUOUS
 10
161.73933906062851
 20
72.920102609857395
 30
0.0
 11
161.73933906062669
 21
1.2471517724827661
 31
0.0
  0
LINE
  5
FFBBDAE469BC10DD
  8
0
  6
CONTINUOUS
 10
0.000000000001819
 20
72.920102609856713
 30
0.0
 11
161.73933906062851
 21
72.920102609857395
 31
0.0
1001
ACAD
1000
ASC_BOUNDS
1002
{
1070
    19
1005
FFBBDAE469BC1427
1002
}
  0
LINE
  5
FFBBDAE469BC10DE
  8
0
  6
CONTINUOUS
 10
2.0000000000018181
 20
70.920102609857153
 30
0.0
 11
159.73933906062851
 21
70.920102609857153
 31
0.0
  0
LINE
  5
FFBBDAE469BC10DF
  8
0
  6
CONTINUOUS
 10
159.73933906062851
 20
70.920102609857153
 30
0.0
 11
159.73933906062661
 21
1.2471517724827661
 31
0.0
  0
LINE
  5
FFBBDAE469BC10E0
  8
0
  6
CONTINUOUS
 10
75.000000000002274
 20
102.92010260985739
 30
0.0
 11
75.000000000004093
 21
72.92010260985694
 31
0.0
  0
LINE
  5
FFBBDAE469BC10E1
  8
0
  6
CONTINUOUS
 10
73.000000000002274
 20
102.92010260985739
 30
0.0
 11
73.000000000002274
 21
74.920102609857622
 31
0.0
  0
LINE
  5
FFBBDAE469BC10E2
  8
0
  6
CONTINUOUS
 10
75.000000000002274
 20
102.92010260985739
 30
0.0
 11
73.000000000002274
 21
102.92010260985739
 31
0.0
  0
LINE
  5
FFBBDAE469BC10E3
  8
0
  6
CONTINUOUS
 10
55.000000000004093
 20
74.920102609857622
 30
0.0
 11
73.000000000002274
 21
74.920102609857395
 31
0.0
  0
LINE
  5
FFBBDAE469BC10E4
  8
0
  6
CONTINUOUS
 10
55.000000000004093
 20
74.920102609857622
 30
0.0
 11
55.000000000004093
 21
72.92010260985694
 31
0.0
  0
LINE
  5
FFBBDAE469BC10E5
  8
0
  6
CONTINUOUS
 10
55.000000000004093
 20
72.92010260985694
 30
0.0
 11
75.000000000004093
 21
72.920102609857395
 31
0.0
  0
LINE
  5
FFBBDAE469BC10E7
  8
0
  6
CENTER2
 10
64.000000000004093
 20
78.807127635887127
 30
0.0
 11
64.000000000004093
 21
66.44889781243387
 31
0.0
  0
LINE
  5
FFBBDAE469BC10E8
  8
0
  6
CONTINUOUS
 10
0.000000000001819
 20
72.92010260985694
 30
0.0
 11
0.0
 21
0.0
 31
0.0
  0
LINE
  5
FFBBDAE469BC10E9
  8
0
  6
CONTINUOUS
 10
2.0
 20
70.920102609857153
 30
0.0
 11
2.0
 21
0.0
 31
0.0
  0
ARC
  5
FFBBDAE469BC10EA
  8
0
  6
CONTINUOUS
 10
-6.9435239919621381
 20
76.92010260985694
 30
0.0
 40
8.0132718303437631
 50
330.05477257827232
 51
29.945227421714719
  0
ARC
  5
FFBBDAE469BC10EB
  8
0
  6
CONTINUOUS
 10
12.39864942573695
 20
77.07702813441847
 30
0.0
 40
5.3453880907928522
 50
134.03202273784979
 51
231.0473526121296
  0
ARC
  5
FFBBDAE469BC10EC
  8
0
  6
CONTINUOUS
 10
12.398649425740579
 20
77.07702813441847
 30
0.0
 40
5.3453880907928522
 50
308.9526473878704
 51
45.967977262150171
  0
INSERT
  5
FFBBDAE469BC10ED
  8
0
  6
CONTINUOUS
  2
*X9
 10
0.0
 20
0.0
 30
0.0
1001
ACAD
1000
HATCH
1002
{
1070
    19
1000
HONEY
1040
5.0
1040
3.1415926535897931
1000
R14_HATCH_DATA
1000
FFBBDAE469BC10ED
1011
1.0
1021
0.0
1031
0.0
1021
0.0
1031
0.0
1011
0.0
1021
0.0
1031
0.0
1021
1.0
1031
0.0
1011
0.0
1021
0.0
1031
0.0
1021
0.0
1031
1.0
1040
0.0
1010
0.0
1020
0.0
1030
1.0
1000
HONEY
1070
     0
1070
     0
1071
        1
1071
        7
1070
     1
1070
     1
1071
        4
1040
15.759176768944601
1040
72.920102609856713
1040
0.4505476185096809
1040
16.114016489358619
1040
80.920102609856727
1040
0.0
1040
8.6832823621207353
1040
80.920102609856727
1040
0.4505476185096672
1040
9.0381220825311175
1040
72.920102609856713
1040
0.0
1071
        0
1070
     0
1070
     1
1040
3.1415926535897931
1040
5.0
1070
     0
1070
     3
1040
3.1415926535897931
1040
-11348.64449620788
1040
-1072.8491823279251
1040
-0.9375000000000001
1040
-0.5412658749999999
1070
     2
1040
0.625
1040
-1.25
1040
5.235987755982987
1040
-11348.64449620788
1040
-1072.8491823279251
1040
0.9374999979516122
1040
-0.5412658785479115
1070
     2
1040
0.625
1040
-1.25
1040
4.1887902047863896
1040
-11348.64449620788
1040
-1072.8491823279251
1040
-0.0000000020483878
1040
-1.0825317535479111
1070
     2
1040
-1.25
1040
0.625
1040
0.044247878673751
1071
        1
1040
13.35778209152704
1040
76.582341908679155
1040
0.0
1002
}
  0
INSERT
  5
FFBBDAE469BC10EE
  8
0
  6
CONTINUOUS
  2
*X10
 10
0.0
 20
0.0
 30
0.0
1001
ACAD
1000
HATCH
1002
{
1070
    19
1000
AR-SAND
1040
1.0
1040
3.1415926535897931
1000
R14_HATCH_DATA
1000
FFBBDAE469BC10EE
1011
1.0
1021
0.0
1031
0.0
1021
0.0
1031
0.0
1011
0.0
1021
0.0
1031
0.0
1021
1.0
1031
0.0
1011
0.0
1021
0.0
1031
0.0
1021
0.0
1031
1.0
1040
0.0
1010
0.0
1020
0.0
1030
1.0
1000
AR-SAND
1070
     0
1070
     0
1071
        1
1071
        7
1070
     1
1070
     1
1071
        4
1040
8.6832823621189164
1040
80.920102609856727
1040
0.0
1040
0.000000000001819
1040
80.920102609856727
1040
-0.2674369595949209
1040
0.000000000001819
1040
72.920102609856713
1040
0.0
1040
9.0381220825329365
1040
72.920102609856713
1040
-0.4505476185096809
1071
        0
1070
     0
1070
     1
1040
3.1415926535897931
1040
1.0
1070
     0
1070
     4
1040
3.7960911230876668
1040
-11348.64449620788
1040
-1072.8491823279251
1040
0.0629933581096079
1040
-1.926823769013158
1070
     6
1040
0.0
1040
-1.52
1040
0.0
1040
-1.7
1040
0.0
1040
-1.625
1040
3.2724923474893668
1040
-11348.64449620788
1040
-1072.8491823279251
1040
-1.7697767052677269
1040
-2.8221460652297399
1070
     6
1040
0.0
1040
-0.82
1040
0.0
1040
-1.3700000000000001
1040
0.0
1040
-0.525
1040
2.5743606466916349
1040
-11347.414496207881
1040
-1072.8491823279251
1040
-3.1141418617514951
1040
-0.0056590535369641
1070
     6
1040
0.0
1040
-0.5
1040
0.0
1040
-1.8
1040
0.0
1040
-2.3500000000000001
1040
2.399827721492203
1040
-11347.414496207881
1040
-1072.8491823279251
1040
-3.0061266045722932
1040
-0.8776755649342488
1070
     6
1040
0.0
1040
-0.25
1040
0.0
1040
-1.179999999999999
1040
0.0
1040
-1.3500000000000001
1040
0.044247878673751
1071
        1
1040
5.2997901661219649
1040
76.936323536622695
1040
0.0
1002
}
  0
LINE
  5
FFBBDAE469BC10EF
  8
0
  6
CONTINUOUS
 10
76.0
 20
82.920102609861033
 30
0.0
 11
85.000112803210868
 21
82.920244863647653
 31
0.0
1001
ACAD
1000
ASC_BOUNDS
1002
{
1070
    19
1005
FFBBDAE469BC1427
1002
}
  0
ARC
  5
FFBBDAE469BC10F2
  8
0
  6
CONTINUOUS
 10
97.064152631496199
 20
77.920244863643347
 30
0.0
 40
13.059136915527599
 50
157.48820009366389
 51
202.5117999063261
1001
ACAD
1000
ASC_BOUNDS
1002
{
1070
    19
1005
FFBBDAE469BC1427
1002
}
  0
LINE
  5
FFBBDAE469BC10F3
  8
0
  6
PHANTOM2
 10
75.999999999998181
 20
82.92010260985694
 30
0.0
 11
75.999999999998181
 21
72.92010260985694
 31
0.0
1001
ACAD
1000
ASC_BOUNDS
1002
{
1070
    19
1005
FFBBDAE469BC1427
1002
}
  0
LINE
  5
FFBBDAE469BC10F4
  8
0
  6
CONTINUOUS
 10
76.999999999998181
 20
82.92010260985694
 30
0.0
 11
75.999999999998181
 21
82.92010260985694
 31
0.0
  0
POLYLINE
  5
FFBBDAE469BC118B
  8
0
  6
CONTINUOUS
 66
     1
 10
0.0
 20
0.0
 30
0.0
  0
VERTEX
  5
FFBBDAE469BC2755
  8
0
  6
CONTINUOUS
 10
52.0
 20
116.820102609857
 30
0.0
  0
VERTEX
  5
FFBBDAE469BC2756
  8
0
  6
CONTINUOUS
 10
52.0
 20
127.9201026098569
 30
0.0
  0
SEQEND
  5
FFBBDAE469BC2757
  8
0
  6
CONTINUOUS
  0
POLYLINE
  5
FFBBDAE469BC1191
  8
0
  6
CONTINUOUS
 66
     1
 10
0.0
 20
0.0
 30
0.0
  0
VERTEX
  5
FFBBDAE469BC2758
  8
0
  6
CONTINUOUS
 10
75.000000000003638
 20
118.9202448636436
 30
0.0
  0
VERTEX
  5
FFBBDAE469BC2759
  8
0
  6
CONTINUOUS
 10
75.000000000003638
 20
177.92010260985691
 30
0.0
  0
SEQEND
  5
FFBBDAE469BC275A
  8
0
  6
CONTINUOUS
  0
LINE
  5
FFBBDAE469BC1192
  8
0
  6
CONTINUOUS
 10
75.999999999999091
 20
116.9202448636436
 30
0.0
 11
75.999999999998181
 21
82.92010260985694
 31
0.0
  0
LINE
  5
FFBBDAE469BC1290
  8
0
  6
CONTINUOUS
 10
52.0
 20
127.9201026098572
 30
0.0
 11
-38.0
 21
82.92010260985694
 31
0.0
  0
LINE
  5
FFBBDAE469BC12B0
  8
0
  6
CONTINUOUS
 10
57.000000000003638
 20
141.17010260985691
 30
0.0
 11
57.000000000003638
 21
107.9201026098569
 31
0.0
  0
LINE
  5
FFBBDAE469BC12B1
  8
0
  6
CONTINUOUS
 10
57.000000000003638
 20
107.9201026098569
 30
0.0
 11
75.000000000003638
 21
107.9201026098569
 31
0.0
  0
POLYLINE
  5
FFBBDAE469BC13CC
  8
0
  6
CONTINUOUS
 66
     1
 10
0.0
 20
0.0
 30
0.0
  0
VERTEX
  5
FFBBDAE469BC276C
  8
0
  6
CONTINUOUS
 10
75.000000000003638
 20
102.92010260985739
 30
0.0
  0
VERTEX
  5
FFBBDAE469BC276D
  8
0
  6
CONTINUOUS
 10
73.000000000002274
 20
102.92010260985739
 30
0.0
  0
VERTEX
  5
FFBBDAE469BC276E
  8
0
  6
CONTINUOUS
 10
73.000000000002274
 20
82.92010260985694
 30
0.0
  0
SEQEND
  5
FFBBDAE469BC276F
  8
0
  6
CONTINUOUS
  0
POLYLINE
  5
FFBBDAE469BC13E4
  8
0
  6
CONTINUOUS
 66
     1
 10
0.0
 20
0.0
 30
0.0
  0
VERTEX
  5
FFBBDAE469BC2770
  8
0
  6
CONTINUOUS
 10
59.000112803209497
 20
116.9202448636436
 30
0.0
  0
VERTEX
  5
FFBBDAE469BC2771
  8
0
  6
CONTINUOUS
 10
59.000112803209497
 20
118.9202448636436
 30
0.0
  0
VERTEX
  5
FFBBDAE469BC2772
  8
0
  6
CONTINUOUS
 10
85.000112803209504
 20
118.9202448636436
 30
0.0
  0
VERTEX
  5
FFBBDAE469BC2773
  8
0
  6
CONTINUOUS
 10
85.000112803209504
 20
116.9202448636436
 30
0.0
  0
VERTEX
  5
FFBBDAE469BC2774
  8
0
  6
CONTINUOUS
 10
59.000112803209497
 20
116.9202448636436
 30
0.0
  0
SEQEND
  5
FFBBDAE469BC2775
  8
0
  6
CONTINUOUS
  0
LINE
  5
FFBBDAE469BC13E5
  8
0
  6
CENTER2
 10
85.000112803209504
 20
117.9202448636436
 30
0.0
 11
59.000112803209497
 21
117.9202448636436
 31
0.0
  0
LINE
  5
FFBBDAE469BC13E6
  8
0
  6
CONTINUOUS
 10
83.000112803209504
 20
116.9202448636436
 30
0.0
 11
83.000112803209504
 21
118.9202448636436
 31
0.0
  0
LINE
  5
FFBBDAE469BC13E7
  8
0
  6
CONTINUOUS
 10
63.000112803209497
 20
116.9202448636436
 30
0.0
 11
63.000112803209497
 21
118.9202448636436
 31
0.0
  0
POLYLINE
  5
FFBBDAE469BC13EA
  8
0
  6
CONTINUOUS
 66
     1
 10
0.0
 20
0.0
 30
0.0
  0
VERTEX
  5
FFBBDAE469BC2776
  8
0
  6
CONTINUOUS
 10
75.000000000003638
 20
118.9202448636436
 30
0.0
  0
VERTEX
  5
FFBBDAE469BC2777
  8
0
  6
CONTINUOUS
 10
75.000000000003638
 20
124.52010260985681
 30
0.0
  0
SEQEND
  5
FFBBDAE469BC2778
  8
0
  6
CONTINUOUS
  0
ARC
  5
FFBBDAE469BC13F7
  8
0
  6
CONTINUOUS
 10
75.500056401605889
 20
124.9406350712934
 30
0.0
 40
0.5004719426211022
 50
357.66501138631543
 51
182.33498861367161
  0
ARC
  5
FFBBDAE469BC13F8
  8
0
  6
CONTINUOUS
 10
75.500056401604979
 20
110.8998546559978
 30
0.0
 40
0.5004719426218627
 50
177.66501138674599
 51
2.3349886133841351
  0
INSERT
  5
FFBBDAE469BC1427
  8
0
  6
CONTINUOUS
  2
*X20
 10
0.0
 20
0.0
 30
0.0
1001
ACAD
1000
HATCH
1002
{
1070
    19
1000
AR-SAND
1040
1.0
1040
3.1415926535897931
1000
ASC_BOUNDS
1070
     1
1070
     1
1070
     4
1005
FFBBDAE469BC10F2
1005
FFBBDAE469BC10DD
1005
FFBBDAE469BC10F3
1005
FFBBDAE469BC10EF
1000
ASC_SEEDPOINT
1011
78.977762820118642
1021
0.0
1031
0.0
1021
80.162083777926924
1031
0.0
1000
R14_HATCH_DATA
1000
FFBBDAE469BC1427
1011
1.0
1021
0.0
1031
0.0
1021
0.0
1031
0.0
1011
0.0
1021
0.0
1031
0.0
1021
1.0
1031
0.0
1011
0.0
1021
0.0
1031
0.0
1021
0.0
1031
1.0
1040
0.0
1010
0.0
1020
0.0
1030
1.0
1000
AR-SAND
1070
     0
1070
     1
1071
        1
1071
        7
1070
     1
1070
     1
1071
        4
1040
75.999999999998181
1040
82.920102609861033
1040
0.0
1040
75.999999999998181
1040
72.92010260985704
1040
0.0
1040
85.000171761965746
1040
72.920102609857068
1040
-0.1990224821083074
1040
85.000112803210953
1040
82.920244863647653
1040
0.0
1071
        4
1005
FFBBDAE469BC10EF
1005
FFBBDAE469BC10F3
1005
FFBBDAE469BC10DD
1005
FFBBDAE469BC10F2
1070
     0
1070
     1
1040
3.1415926535897931
1040
1.0
1070
     0
1070
     4
1040
3.7960911230876668
1040
-2789.8589540461599
1040
-1876.6699820360959
1040
0.0629933581096079
1040
-1.926823769013158
1070
     6
1040
0.0
1040
-1.52
1040
0.0
1040
-1.7
1040
0.0
1040
-1.625
1040
3.2724923474893668
1040
-2789.8589540461599
1040
-1876.6699820360959
1040
-1.7697767052677269
1040
-2.8221460652297399
1070
     6
1040
0.0
1040
-0.82
1040
0.0
1040
-1.3700000000000001
1040
0.0
1040
-0.525
1040
2.5743606466916349
1040
-2788.6289540461598
1040
-1876.6699820360959
1040
-3.1141418617514951
1040
-0.0056590535369641
1070
     6
1040
0.0
1040
-0.5
1040
0.0
1040
-1.8
1040
0.0
1040
-2.3500000000000001
1040
2.399827721492203
1040
-2788.6289540461598
1040
-1876.6699820360959
1040
-3.0061266045722932
1040
-0.8776755649342488
1070
     6
1040
0.0
1040
-0.25
1040
0.0
1040
-1.179999999999999
1040
0.0
1040
-1.3500000000000001
1040
0.0964266632170365
1071
        1
1040
78.977762820118642
1040
80.162083777926924
1040
0.0
1002
}
  0
INSERT
  5
FFBBDAE469BC1434
  8
0
  6
CONTINUOUS
  2
*U21
 10
0.0
 20
0.0
 30
0.0
1001
ACAD
1002
{
1000
R14_HATCH_DATA
1000
FFBBDAE469BC1434
1011
1.0
1021
0.0
1031
0.0
1021
0.0
1031
0.0
1011
0.0
1021
0.0
1031
0.0
1021
1.0
1031
0.0
1011
0.0
1021
0.0
1031
0.0
1021
0.0
1031
1.0
1040
0.0
1010
0.0
1020
0.0
1030
1.0
1000
SOLID
1070
     1
1070
     0
1071
        2
1071
        7
1070
     1
1070
     1
1071
        7
1040
75.999999999998636
1040
124.963625586229
1040
0.3187014516484763
1040
75.643524324175345
1040
125.4201026098569
1040
0.0
1040
75.356588479007314
1040
125.4201026098569
1040
0.3201342539660961
1040
75.000000000003638
1040
124.9610252789321
1040
0.0
1040
75.000000000003638
1040
121.4826026098569
1040
0.0
1040
75.000000000003183
1040
118.9202448636436
1040
0.0
1040
75.999999999998636
1040
118.9202448636433
1040
0.0
1071
        0
1071
        7
1070
     1
1070
     1
1071
        5
1040
75.000000000003638
1040
112.92010260985739
1040
0.0
1040
75.000000000003638
1040
110.8794644483168
1040
0.9575597786616464
1040
75.999999999998636
1040
110.87686414104149
1040
0.0
1040
75.999999999999091
1040
116.9202448636436
1040
0.0
1040
75.000000000004093
1040
116.9202448636438
1040
0.0
1071
        0
1070
     0
1070
     1
1040
0.052617716148635
1071
        2
1040
75.717416067052
1040
121.9978420483403
1040
0.0
1040
75.454222239683986
1040
115.1575391601548
1040
0.0
1002
}
  0
LINE
  5
FFBBDAE469BC143F
  8
0
  6
DIVIDE2
 10
86.000112803210868
 20
198.7508889748085
 30
0.0
 11
86.000112803209035
 21
82.920244863643575
 31
0.0
  0
LINE
  5
FFBBDAE469BC14D6
  8
0
  6
CENTER2
 10
77.52179476537367
 20
142.92010260985691
 30
0.0
 11
6.926581454920778
 21
142.92010260985691
 31
0.0
  0
LINE
  5
FFBBDAE469BC14D7
  8
0
  6
CONTINUOUS
 10
75.000000000003638
 20
139.42010260985691
 30
0.0
 11
75.000000000003638
 21
146.42010260985691
 31
0.0
  0
LINE
  5
FFBBDAE469BC14D8
  8
0
  6
CONTINUOUS
 10
13.64712469057485
 20
141.5201026098573
 30
0.0
 11
10.00000000000364
 21
142.92010260985691
 31
0.0
  0
LINE
  5
FFBBDAE469BC14D9
  8
0
  6
CONTINUOUS
 10
73.937306695897846
 20
141.5201026098573
 30
0.0
 11
13.647124690573939
 21
141.5201026098573
 31
0.0
  0
LINE
  5
FFBBDAE469BC14DA
  8
0
  6
CONTINUOUS
 10
73.937306695897846
 20
144.320102609857
 30
0.0
 11
13.64712469057485
 21
144.320102609857
 31
0.0
  0
LINE
  5
FFBBDAE469BC14DB
  8
0
  6
CONTINUOUS
 10
13.64712469057485
 20
144.320102609857
 30
0.0
 11
10.00000000000364
 21
142.92010260985691
 31
0.0
  0
LINE
  5
FFBBDAE469BC14DC
  8
0
  6
CONTINUOUS
 10
74.500000000003638
 20
139.42010260985691
 30
0.0
 11
74.500000000003638
 21
146.42010260985691
 31
0.0
  0
LINE
  5
FFBBDAE469BC14DD
  8
0
  6
CONTINUOUS
 10
75.000000000003638
 20
139.42010260985691
 30
0.0
 11
74.500000000003638
 21
139.42010260985691
 31
0.0
  0
LINE
  5
FFBBDAE469BC14DE
  8
0
  6
CONTINUOUS
 10
75.000000000003638
 20
146.42010260985691
 30
0.0
 11
74.500000000003638
 21
146.42010260985691
 31
0.0
  0
LINE
  5
FFBBDAE469BC14DF
  8
0
  6
CONTINUOUS
 10
73.937306695897846
 20
144.320102609857
 30
0.0
 11
74.500000000003638
 21
146.42010260985691
 31
0.0
  0
LINE
  5
FFBBDAE469BC14E0
  8
0
  6
CONTINUOUS
 10
73.937306695897846
 20
141.5201026098573
 30
0.0
 11
74.500000000003638
 21
139.42010260985691
 31
0.0
  0
LINE
  5
FFBBDAE469BC14E1
  8
0
  6
CONTINUOUS
 10
73.937306695897846
 20
141.5201026098573
 30
0.0
 11
73.937306695897846
 21
144.320102609857
 31
0.0
  0
LINE
  5
FFBBDAE469BC14E2
  8
0
  6
CONTINUOUS
 10
70.000000000003638
 20
142.0418136819587
 30
0.0
 11
70.000000000003638
 21
143.79839153775509
 31
0.0
  0
LINE
  5
FFBBDAE469BC14E3
  8
0
  6
CONTINUOUS
 10
62.000000000003638
 20
142.0418136819587
 30
0.0
 11
62.000000000003638
 21
143.79839153775509
 31
0.0
  0
LINE
  5
FFBBDAE469BC14E4
  8
0
  6
CONTINUOUS
 10
68.700000000003456
 20
142.0418136819587
 30
0.0
 11
68.700000000003456
 21
143.79839153775509
 31
0.0
  0
LINE
  5
FFBBDAE469BC14E5
  8
0
  6
CONTINUOUS
 10
67.400000000003274
 20
142.0418136819587
 30
0.0
 11
67.400000000003274
 21
143.79839153775509
 31
0.0
  0
LINE
  5
FFBBDAE469BC14E6
  8
0
  6
CONTINUOUS
 10
66.100000000003092
 20
142.0418136819587
 30
0.0
 11
66.100000000003092
 21
143.79839153775509
 31
0.0
  0
LINE
  5
FFBBDAE469BC14E7
  8
0
  6
CONTINUOUS
 10
64.80000000000382
 20
142.0418136819587
 30
0.0
 11
64.80000000000382
 21
143.79839153775509
 31
0.0
  0
LINE
  5
FFBBDAE469BC14E8
  8
0
  6
CONTINUOUS
 10
63.500000000003631
 20
142.0418136819587
 30
0.0
 11
63.500000000003631
 21
143.79839153775509
 31
0.0
  0
LINE
  5
FFBBDAE469BC14E9
  8
0
  6
CONTINUOUS
 10
45.000000000003638
 20
141.17010260985691
 30
0.0
 11
45.000000000003638
 21
144.67010260985691
 31
0.0
  0
LINE
  5
FFBBDAE469BC14EA
  8
0
  6
CONTINUOUS
 10
43.500000000003631
 20
141.17010260985691
 30
0.0
 11
43.500000000003631
 21
144.67010260985691
 31
0.0
  0
LINE
  5
FFBBDAE469BC14EB
  8
0
  6
CONTINUOUS
 10
42.000000000003638
 20
141.17010260985691
 30
0.0
 11
42.000000000003638
 21
144.67010260985691
 31
0.0
  0
LINE
  5
FFBBDAE469BC14EC
  8
0
  6
CONTINUOUS
 10
40.500000000003631
 20
141.17010260985691
 30
0.0
 11
40.500000000003631
 21
144.67010260985691
 31
0.0
  0
LINE
  5
FFBBDAE469BC14ED
  8
0
  6
CONTINUOUS
 10
39.000000000003638
 20
141.17010260985691
 30
0.0
 11
39.000000000003638
 21
144.67010260985691
 31
0.0
  0
LINE
  5
FFBBDAE469BC14EE
  8
0
  6
CONTINUOUS
 10
37.500000000003638
 20
141.17010260985691
 30
0.0
 11
37.500000000003638
 21
144.67010260985691
 31
0.0
  0
LINE
  5
FFBBDAE469BC14EF
  8
0
  6
CONTINUOUS
 10
36.000000000003638
 20
141.17010260985691
 30
0.0
 11
36.000000000003638
 21
144.67010260985691
 31
0.0
  0
LINE
  5
FFBBDAE469BC14F0
  8
0
  6
CONTINUOUS
 10
34.500000000003638
 20
141.17010260985691
 30
0.0
 11
34.500000000003638
 21
144.67010260985691
 31
0.0
  0
LINE
  5
FFBBDAE469BC14F1
  8
0
  6
CONTINUOUS
 10
33.000000000003638
 20
141.17010260985691
 30
0.0
 11
33.000000000003638
 21
144.67010260985691
 31
0.0
  0
LINE
  5
FFBBDAE469BC14F2
  8
0
  6
CONTINUOUS
 10
31.500000000003642
 20
141.17010260985691
 30
0.0
 11
31.500000000003642
 21
144.67010260985691
 31
0.0
  0
LINE
  5
FFBBDAE469BC14F3
  8
0
  6
CONTINUOUS
 10
30.000000000003642
 20
141.17010260985691
 30
0.0
 11
30.000000000003642
 21
144.67010260985691
 31
0.0
  0
LINE
  5
FFBBDAE469BC14F4
  8
0
  6
CONTINUOUS
 10
28.500000000003642
 20
141.17010260985691
 30
0.0
 11
28.500000000003642
 21
144.67010260985691
 31
0.0
  0
LINE
  5
FFBBDAE469BC14F5
  8
0
  6
CONTINUOUS
 10
27.000000000003642
 20
141.17010260985691
 30
0.0
 11
27.000000000003642
 21
144.67010260985691
 31
0.0
  0
LINE
  5
FFBBDAE469BC14F6
  8
0
  6
CONTINUOUS
 10
25.500000000003642
 20
141.17010260985691
 30
0.0
 11
25.500000000003642
 21
144.67010260985691
 31
0.0
  0
LINE
  5
FFBBDAE469BC14F7
  8
0
  6
CONTINUOUS
 10
24.000000000003642
 20
141.17010260985691
 30
0.0
 11
24.000000000003642
 21
144.67010260985691
 31
0.0
  0
LINE
  5
FFBBDAE469BC14F8
  8
0
  6
CONTINUOUS
 10
22.500000000003642
 20
141.17010260985691
 30
0.0
 11
22.500000000003642
 21
144.67010260985691
 31
0.0
  0
LINE
  5
FFBBDAE469BC14F9
  8
0
  6
CONTINUOUS
 10
21.000000000003642
 20
141.17010260985691
 30
0.0
 11
21.000000000003642
 21
144.67010260985691
 31
0.0
  0
LINE
  5
FFBBDAE469BC14FA
  8
0
  6
CONTINUOUS
 10
19.500000000003642
 20
141.17010260985691
 30
0.0
 11
19.500000000003642
 21
144.67010260985691
 31
0.0
  0
LINE
  5
FFBBDAE469BC14FB
  8
0
  6
CONTINUOUS
 10
18.000000000003642
 20
141.17010260985691
 30
0.0
 11
18.000000000003642
 21
144.67010260985691
 31
0.0
  0
LINE
  5
FFBBDAE469BC14FC
  8
0
  6
CONTINUOUS
 10
16.500000000003642
 20
141.17010260985691
 30
0.0
 11
16.500000000003642
 21
144.67010260985691
 31
0.0
  0
LINE
  5
FFBBDAE469BC14FD
  8
0
  6
CONTINUOUS
 10
15.00000000000364
 20
141.17010260985691
 30
0.0
 11
15.00000000000364
 21
144.67010260985691
 31
0.0
  0
LINE
  5
FFBBDAE469BC14FE
  8
0
  6
CONTINUOUS
 10
58.500000000003631
 20
141.17010260985691
 30
0.0
 11
58.500000000003631
 21
144.67010260985691
 31
0.0
  0
LINE
  5
FFBBDAE469BC14FF
  8
0
  6
CONTINUOUS
 10
57.000000000003638
 20
141.17010260985691
 30
0.0
 11
57.000000000003638
 21
144.67010260985691
 31
0.0
  0
LINE
  5
FFBBDAE469BC1500
  8
0
  6
CONTINUOUS
 10
55.500000000003631
 20
141.17010260985691
 30
0.0
 11
55.500000000003631
 21
144.67010260985691
 31
0.0
  0
LINE
  5
FFBBDAE469BC1501
  8
0
  6
CONTINUOUS
 10
54.000000000003638
 20
141.17010260985691
 30
0.0
 11
54.000000000003638
 21
144.67010260985691
 31
0.0
  0
LINE
  5
FFBBDAE469BC1502
  8
0
  6
CONTINUOUS
 10
52.500000000003638
 20
141.17010260985691
 30
0.0
 11
52.500000000003638
 21
144.67010260985691
 31
0.0
  0
LINE
  5
FFBBDAE469BC1503
  8
0
  6
CONTINUOUS
 10
51.000000000003631
 20
141.17010260985691
 30
0.0
 11
51.000000000003631
 21
144.67010260985691
 31
0.0
  0
LINE
  5
FFBBDAE469BC1504
  8
0
  6
CONTINUOUS
 10
49.500000000003638
 20
141.17010260985691
 30
0.0
 11
49.500000000003638
 21
144.67010260985691
 31
0.0
  0
LINE
  5
FFBBDAE469BC1505
  8
0
  6
CONTINUOUS
 10
48.000000000003631
 20
141.17010260985691
 30
0.0
 11
48.000000000003631
 21
144.67010260985691
 31
0.0
  0
LINE
  5
FFBBDAE469BC1506
  8
0
  6
CONTINUOUS
 10
46.500000000003631
 20
141.17010260985691
 30
0.0
 11
46.500000000003631
 21
144.67010260985691
 31
0.0
  0
LINE
  5
FFBBDAE469BC1525
  8
0
  6
CONTINUOUS
 10
75.000000000003638
 20
116.9202448636436
 30
0.0
 11
75.000000000003638
 21
107.92010260985739
 31
0.0
  0
LINE
  5
FFBBDAE469BC1527
  8
0
  6
PHANTOM2
 10
55.500000000006359
 20
144.67010260985691
 30
0.0
 11
55.500000000007731
 21
155.3265597335014
 31
0.0
  0
LINE
  5
FFBBDAE469BC1529
  8
0
  6
PHANTOM
 10
54.000000000006821
 20
144.67010260985671
 30
0.0
 11
54.00000000001274
 21
198.6767316398298
 31
0.0
  0
LINE
  5
FFBBDAE469BC152A
  8
0
  6
CONTINUOUS
 10
24.799999999997912
 20
141.5201026098571
 30
0.0
 11
52.0
 21
127.9201026098569
 31
0.0
  0
POLYLINE
  5
FFBBDAE469BC152C
  8
0
  6
CONTINUOUS
 66
     1
 10
0.0
 20
0.0
 30
0.0
  0
VERTEX
  5
FFBBDAE469BC2888
  8
0
  6
CONTINUOUS
 10
52.0
 20
144.320102609857
 30
0.0
  0
VERTEX
  5
FFBBDAE469BC2889
  8
0
  6
CONTINUOUS
 10
52.0
 20
172.92010260985691
 30
0.0
  0
SEQEND
  5
FFBBDAE469BC288A
  8
0
  6
CONTINUOUS
  0
DIMENSION
  5
FFBBDAE469BC1530
  8
0
  6
CONTINUOUS
  2
*D2
 10
72.170736442415119
 20
102.92010260985739
 30
0.0
 11
72.170736442415091
 21
92.920173736752758
 31
0.0
 70
   128
  1
10mm\Pmin cover
 13
85.000112803211323
 23
82.920244863648122
 33
0.0
 14
75.000000000003638
 24
102.92010260985739
 34
0.0
 50
90.0
  0
DIMENSION
  5
FFBBDAE469BC155C
  8
0
  6
CONTINUOUS
  2
*D3
 10
41.720332249116389
 20
107.9201026098569
 30
0.0
 11
41.720332249116382
 21
59.257019329527111
 31
0.0
 70
   128
  1
<>\Pgap
 13
52.0
 23
102.92010260985739
 33
0.0
 14
52.0
 24
107.9201026098569
 34
0.0
 50
90.0
  0
DIMENSION
  5
FFBBDAE469BC156A
  8
0
  6
CONTINUOUS
  2
*D4
 10
41.720332249116403
 20
117.9202448636436
 30
0.0
 11
41.720332249116382
 21
112.9201737367502
 31
0.0
 70
   128
  1
10mm\Pmin
 13
52.0
 23
107.9201026098569
 33
0.0
 14
52.0
 24
117.9202448636436
 34
0.0
 50
90.0
  0
INSERT
  5
FFBBDAE469BC111A
  8
0
  6
CONTINUOUS
  2
*U11
 10
0.0
 20
0.0
 30
0.0
  0
INSERT
  5
FFBBDAE469BC111D
  8
0
  6
CONTINUOUS
  2
*U12
 10
0.0
 20
0.0
 30
0.0
  0
INSERT
  5
FFBBDAE469BC111E
  8
0
  6
CONTINUOUS
  2
*U13
 10
0.0
 20
0.0
 30
0.0
  0
INSERT
  5
FFBBDAE469BC1123
  8
0
  6
CONTINUOUS
  2
*U14
 10
0.0
 20
0.0
 30
0.0
  0
INSERT
  5
FFBBDAE469BC113D
  8
0
  6
CONTINUOUS
  2
*U15
 10
0.0
 20
0.0
 30
0.0
1001
ACAD
1000
DSTYLE
1002
{
1070
    40
1040
1.333333333333333
1070
    77
1070
     0
1002
}
  0
INSERT
  5
FFBBDAE469BC11DE
  8
0
  6
CONTINUOUS
  2
*U16
 10
0.0
 20
0.0
 30
0.0
  0
INSERT
  5
FFBBDAE469BC12A1
  8
0
  6
CONTINUOUS
  2
*U17
 10
0.0
 20
0.0
 30
0.0
  0
INSERT
  5
FFBBDAE469BC12A4
  8
0
  6
CONTINUOUS
  2
*U18
 10
0.0
 20
0.0
 30
0.0
  0
INSERT
  5
FFBBDAE469BC140C
  8
0
  6
CONTINUOUS
  2
*U19
 10
0.0
 20
0.0
 30
0.0
  0
INSERT
  5
FFBBDAE469BC1442
  8
0
  6
CONTINUOUS
  2
*U22
 10
0.0
 20
0.0
 30
0.0
  0
INSERT
  5
FFBBDAE469BC144D
  8
0
  6
CONTINUOUS
  2
*U23
 10
0.0
 20
0.0
 30
0.0
  0
INSERT
  5
FFBBDAE469BC144F
  8
0
  6
CONTINUOUS
  2
*U24
 10
0.0
 20
0.0
 30
0.0
  0
INSERT
  5
FFBBDAE469BC1465
  8
0
  6
CONTINUOUS
  2
*U25
 10
0.0
 20
0.0
 30
0.0
1001
ACAD
1000
DSTYLE
1002
{
1070
    40
1040
1.333333333333333
1070
    77
1070
     0
1002
}
  0
INSERT
  5
FFBBDAE469BC1466
  8
0
  6
CONTINUOUS
  2
*U26
 10
0.0
 20
0.0
 30
0.0
1001
ACAD
1000
DSTYLE
1002
{
1070
    40
1040
1.333333333333333
1070
    77
1070
     0
1002
}
  0
INSERT
  5
FFBBDAE469BC1467
  8
0
  6
CONTINUOUS
  2
*U27
 10
0.0
 20
0.0
 30
0.0
1001
ACAD
1000
DSTYLE
1002
{
1070
    40
1040
1.333333333333333
1070
    77
1070
     0
1002
}
  0
INSERT
  5
FFBBDAE469BC1468
  8
0
  6
CONTINUOUS
  2
*U28
 10
0.0
 20
0.0
 30
0.0
1001
ACAD
1000
DSTYLE
1002
{
1070
    40
1040
1.333333333333333
1070
    77
1070
     0
1002
}
  0
INSERT
  5
FFBBDAE469BC146A
  8
0
  6
CONTINUOUS
  2
*U29
 10
0.0
 20
0.0
 30
0.0
1001
ACAD
1000
DSTYLE
1002
{
1070
    40
1040
1.333333333333333
1070
    77
1070
     0
1002
}
  0
INSERT
  5
FFBBDAE469BC146B
  8
0
  6
CONTINUOUS
  2
*U30
 10
0.0
 20
0.0
 30
0.0
1001
ACAD
1000
DSTYLE
1002
{
1070
    40
1040
1.333333333333333
1070
    77
1070
     0
1002
}
  0
INSERT
  5
FFBBDAE469BC1473
  8
0
  6
CONTINUOUS
  2
*U31
 10
0.0
 20
0.0
 30
0.0
  0
INSERT
  5
FFBBDAE469BC1474
  8
0
  6
CONTINUOUS
  2
*U32
 10
0.0
 20
0.0
 30
0.0
1001
ACAD
1000
DSTYLE
1002
{
1070
    40
1040
1.333333333333333
1070
    77
1070
     0
1002
}
  0
INSERT
  5
FFBBDAE469BC1478
  8
0
  6
CONTINUOUS
  2
*U33
 10
0.0
 20
0.0
 30
0.0
1001
ACAD
1000
DSTYLE
1002
{
1070
    40
1040
1.333333333333333
1070
    77
1070
     0
1002
}
  0
INSERT
  5
FFBBDAE469BC1479
  8
0
  6
CONTINUOUS
  2
*U34
 10
0.0
 20
0.0
 30
0.0
1001
ACAD
1000
DSTYLE
1002
{
1070
    40
1040
1.333333333333333
1070
    77
1070
     0
1002
}
  0
INSERT
  5
FFBBDAE469BC147A
  8
0
  6
CONTINUOUS
  2
*U35
 10
0.0
 20
0.0
 30
0.0
1001
ACAD
1000
DSTYLE
1002
{
1070
    40
1040
1.333333333333333
1070
    77
1070
     0
1002
}
  0
INSERT
  5
FFBBDAE469BC1510
  8
0
  6
CONTINUOUS
  2
*U36
 10
0.0
 20
0.0
 30
0.0
  0
INSERT
  5
FFBBDAE469BC1550
  8
0
  6
CONTINUOUS
  2
*U37
 10
0.0
 20
0.0
 30
0.0
1001
ACAD
1000
DSTYLE
1002
{
1070
    40
1040
1.333333333333333
1070
    77
1070
     0
1002
}
  0
INSERT
  5
FFBBDAE469BC1551
  8
0
  6
CONTINUOUS
  2
*U38
 10
0.0
 20
0.0
 30
0.0
1001
ACAD
1000
DSTYLE
1002
{
1070
    40
1040
1.333333333333333
1070
    77
1070
     0
1002
}
  0
INSERT
  5
FFBBDAE469BC15FA
  8
0
  6
CONTINUOUS
  2
*U39
 10
0.0
 20
0.0
 30
0.0
  0
POLYLINE
  5
FFBBDAE469BC1A97
  8
0
  6
CONTINUOUS
 66
     1
 10
0.0
 20
0.0
 30
0.0
  0
VERTEX
  5
FFBBDAE469BC28C6
  8
0
  6
CONTINUOUS
 10
54.000000000005002
 20
102.9201026098569
 30
0.0
  0
VERTEX
  5
FFBBDAE469BC28C7
  8
0
  6
CONTINUOUS
 10
95.000112803209504
 20
102.9201026098569
 30
0.0
  0
VERTEX
  5
FFBBDAE469BC28C8
  8
0
  6
CONTINUOUS
 10
95.000112803209504
 20
1.2471517724827661
 30
0.0
  0
SEQEND
  5
FFBBDAE469BC28C9
  8
0
  6
CONTINUOUS
  0
INSERT
  5
FFBBDAE469BC1AA0
  8
0
  6
CONTINUOUS
  2
*U40
 10
0.0
 20
0.0
 30
0.0
  0
INSERT
  5
FFBBDAE469BC1AA1
  8
0
  6
CONTINUOUS
  2
*U41
 10
0.0
 20
0.0
 30
0.0
1001
ACAD
1000
DSTYLE
1002
{
1070
    40
1040
1.333333333333333
1070
    77
1070
     0
1002
}
  0
INSERT
  5
FFBBDAE469BC21A9
  8
0
  6
CONTINUOUS
  2
*U42
 10
0.0
 20
0.0
 30
0.0
  0
LINE
  5
FFBBDAE469BC2492
  8
0
 10
20.317628043756489
 20
73.920102609856244
 30
0.0
 11
48.314917988531903
 21
73.920102609856244
 31
0.0
1001
ACDBBLOCKREPETAG
1070
     1
1071
        0
1005
FFBBDAE469BC2492
  0
LINE
  5
FFBBDAE469BC2493
  8
0
 10
49.580650948366333
 20
73.920102609856244
 30
0.0
 11
49.580650948366333
 21
78.420102609856713
 31
0.0
1001
ACDBBLOCKREPETAG
1070
     1
1071
        1
1005
FFBBDAE469BC2493
  0
LINE
  5
FFBBDAE469BC2494
  8
0
 10
49.580650948366333
 20
78.420102609856713
 30
0.0
 11
21.583361003590898
 21
78.420102609856713
 31
0.0
1001
ACDBBLOCKREPETAG
1070
     1
1071
        2
1005
FFBBDAE469BC2494
  0
LINE
  5
FFBBDAE469BC2495
  8
0
 10
20.317628043756489
 20
78.420102609856713
 30
0.0
 11
20.317628043756489
 21
73.920102609856244
 31
0.0
1001
ACDBBLOCKREPETAG
1070
     1
1071
        3
1005
FFBBDAE469BC2495
  0
LINE
  5
FFBBDAE469BC2496
  8
0
 10
20.317628043756489
 20
78.420102609856713
 30
0.0
 11
48.314917988531903
 21
73.920102609856244
 31
0.0
1001
ACDBBLOCKREPETAG
1070
     1
1071
        4
1005
FFBBDAE469BC2496
  0
LINE
  5
FFBBDAE469BC2497
  8
0
 10
21.583361003590898
 20
78.420102609856713
 30
0.0
 11
49.580650948366333
 21
73.920102609856244
 31
0.0
1001
ACDBBLOCKREPETAG
1070
     1
1071
        5
1005
FFBBDAE469BC2497
  0
ENDSEC
  0
EOF
