  0
SECTION
  2
HEADER
  9
$ACADVER
  1
AC1021
  9
$ACADMAINTVER
 70
    53
  9
$DWGCODEPAGE
  3
ANSI_1252
  9
$LASTSAVEDBY
  1
Dallas Williams
  9
$INSBASE
 10
0.0
 20
0.0
 30
0.0
  9
$EXTMIN
 10
-205.8442072869825
 20
-49.43328560231461
 30
0.0
  9
$EXTMAX
 10
186.5724177808947
 20
452.8610420329323
 30
0.0
  9
$LIMMIN
 10
0.0
 20
0.0
  9
$LIMMAX
 10
12.0
 20
9.0
  9
$ORTHOMODE
 70
     1
  9
$REGENMODE
 70
     1
  9
$FILLMODE
 70
     1
  9
$QTEXTMODE
 70
     0
  9
$MIRRTEXT
 70
     0
  9
$LTSCALE
 40
1.0
  9
$ATTMODE
 70
     1
  9
$TEXTSIZE
 40
2.0
  9
$TRACEWID
 40
0.05
  9
$TEXTSTYLE
  7
2mm
  9
$CLAYER
  8
0
  9
$CELTYPE
  6
ByLayer
  9
$CECOLOR
 62
   256
  9
$CELTSCALE
 40
1.0
  9
$DISPSILH
 70
     0
  9
$DIMSCALE
 40
1.0
  9
$DIMASZ
 40
3.0
  9
$DIMEXO
 40
3.0
  9
$DIMDLI
 40
400.0
  9
$DIMRND
 40
0.0
  9
$DIMDLE
 40
0.0
  9
$DIMEXE
 40
1.0
  9
$DIMTP
 40
0.0
  9
$DIMTM
 40
0.0
  9
$DIMTXT
 40
2.0
  9
$DIMCEN
 40
2.0
  9
$DIMTSZ
 40
0.0
  9
$DIMTOL
 70
     0
  9
$DIMLIM
 70
     0
  9
$DIMTIH
 70
     0
  9
$DIMTOH
 70
     0
  9
$DIMSE1
 70
     0
  9
$DIMSE2
 70
     0
  9
$DIMTAD
 70
     0
  9
$DIMZIN
 70
     0
  9
$DIMBLK
  1
OBLIQUE
  9
$DIMASO
 70
     1
  9
$DIMSHO
 70
     1
  9
$DIMPOST
  1

  9
$DIMAPOST
  1
M
  9
$DIMALT
 70
     0
  9
$DIMALTD
 70
     2
  9
$DIMALTF
 40
0.001
  9
$DIMLFAC
 40
1.0
  9
$DIMTOFL
 70
     0
  9
$DIMTVP
 40
0.0
  9
$DIMTIX
 70
     0
  9
$DIMSOXD
 70
     0
  9
$DIMSAH
 70
     0
  9
$DIMBLK1
  1

  9
$DIMBLK2
  1

  9
$DIMSTYLE
  2
2mm
  9
$DIMCLRD
 70
   256
  9
$DIMCLRE
 70
   256
  9
$DIMCLRT
 70
   256
  9
$DIMTFAC
 40
1.0
  9
$DIMGAP
 40
0.0
  9
$DIMJUST
 70
     0
  9
$DIMSD1
 70
     0
  9
$DIMSD2
 70
     0
  9
$DIMTOLJ
 70
     1
  9
$DIMTZIN
 70
     0
  9
$DIMALTZ
 70
     8
  9
$DIMALTTZ
 70
     0
  9
$DIMUPT
 70
     0
  9
$DIMDEC
 70
     0
  9
$DIMTDEC
 70
     0
  9
$DIMALTU
 70
     2
  9
$DIMALTTD
 70
     2
  9
$DIMTXSTY
  7
2mm
  9
$DIMAUNIT
 70
     0
  9
$DIMADEC
 70
     2
  9
$DIMALTRND
 40
0.0
  9
$DIMAZIN
 70
     0
  9
$DIMDSEP
 70
    46
  9
$DIMATFIT
 70
     3
  9
$DIMFRAC
 70
     0
  9
$DIMLDRBLK
  1
OBLIQUE
  9
$DIMLUNIT
 70
     2
  9
$DIMLWD
 70
     9
  9
$DIMLWE
 70
     9
  9
$DIMTMOVE
 70
     2
  9
$DIMFXL
 40
1.0
  9
$DIMFXLON
 70
     0
  9
$DIMJOGANG
 40
0.7853981633974483
  9
$DIMTFILL
 70
     0
  9
$DIMTFILLCLR
 70
     0
  9
$DIMARCSYM
 70
     0
  9
$DIMLTYPE
  6
ByLayer
  9
$DIMLTEX1
  6
ByLayer
  9
$DIMLTEX2
  6
ByLayer
  9
$LUNITS
 70
     2
  9
$LUPREC
 70
     4
  9
$SKETCHINC
 40
0.1
  9
$FILLETRAD
 40
0.0
  9
$AUNITS
 70
     0
  9
$AUPREC
 70
     2
  9
$MENU
  1
.
  9
$ELEVATION
 40
0.0
  9
$PELEVATION
 40
0.0
  9
$THICKNESS
 40
0.0
  9
$LIMCHECK
 70
     0
  9
$CHAMFERA
 40
0.0
  9
$CHAMFERB
 40
0.0
  9
$CHAMFERC
 40
0.0
  9
$CHAMFERD
 40
0.0
  9
$SKPOLY
 70
     0
  9
$TDCREATE
 40
2456342.646259398
  9
$TDUCREATE
 40
2456342.146259398
  9
$TDUPDATE
 40
2456821.709682975
  9
$TDUUPDATE
 40
2456821.209682975
  9
$TDINDWG
 40
0.4397372222
  9
$TDUSRTIMER
 40
0.4396730208
  9
$USRTIMER
 70
     1
  9
$ANGBASE
 50
0.0
  9
$ANGDIR
 70
     0
  9
$PDMODE
 70
    35
  9
$PDSIZE
 40
50.0
  9
$PLINEWID
 40
0.0
  9
$SPLFRAME
 70
     0
  9
$SPLINETYPE
 70
     6
  9
$SPLINESEGS
 70
     8
  9
$HANDSEED
  5
101E8
  9
$SURFTAB1
 70
     6
  9
$SURFTAB2
 70
     6
  9
$SURFTYPE
 70
     6
  9
$SURFU
 70
     6
  9
$SURFV
 70
     6
  9
$UCSBASE
  2

  9
$UCSNAME
  2

  9
$UCSORG
 10
0.0
 20
0.0
 30
0.0
  9
$UCSXDIR
 10
1.0
 20
0.0
 30
0.0
  9
$UCSYDIR
 10
0.0
 20
1.0
 30
0.0
  9
$UCSORTHOREF
  2

  9
$UCSORTHOVIEW
 70
     0
  9
$UCSORGTOP
 10
0.0
 20
0.0
 30
0.0
  9
$UCSORGBOTTOM
 10
0.0
 20
0.0
 30
0.0
  9
$UCSORGLEFT
 10
0.0
 20
0.0
 30
0.0
  9
$UCSORGRIGHT
 10
0.0
 20
0.0
 30
0.0
  9
$UCSORGFRONT
 10
0.0
 20
0.0
 30
0.0
  9
$UCSORGBACK
 10
0.0
 20
0.0
 30
0.0
  9
$PUCSBASE
  2

  9
$PUCSNAME
  2

  9
$PUCSORG
 10
0.0
 20
0.0
 30
0.0
  9
$PUCSXDIR
 10
1.0
 20
0.0
 30
0.0
  9
$PUCSYDIR
 10
0.0
 20
1.0
 30
0.0
  9
$PUCSORTHOREF
  2

  9
$PUCSORTHOVIEW
 70
     0
  9
$PUCSORGTOP
 10
0.0
 20
0.0
 30
0.0
  9
$PUCSORGBOTTOM
 10
0.0
 20
0.0
 30
0.0
  9
$PUCSORGLEFT
 10
0.0
 20
0.0
 30
0.0
  9
$PUCSORGRIGHT
 10
0.0
 20
0.0
 30
0.0
  9
$PUCSORGFRONT
 10
0.0
 20
0.0
 30
0.0
  9
$PUCSORGBACK
 10
0.0
 20
0.0
 30
0.0
  9
$USERI1
 70
     0
  9
$USERI2
 70
     0
  9
$USERI3
 70
     0
  9
$USERI4
 70
     0
  9
$USERI5
 70
     0
  9
$USERR1
 40
0.0
  9
$USERR2
 40
0.0
  9
$USERR3
 40
0.0
  9
$USERR4
 40
0.0
  9
$USERR5
 40
0.0
  9
$WORLDVIEW
 70
     1
  9
$SHADEDGE
 70
     3
  9
$SHADEDIF
 70
    70
  9
$TILEMODE
 70
     1
  9
$MAXACTVP
 70
    64
  9
$PINSBASE
 10
0.0
 20
0.0
 30
0.0
  9
$PLIMCHECK
 70
     0
  9
$PEXTMIN
 10
-26.8865283375078
 20
-11.98516251554429
 30
0.0
  9
$PEXTMAX
 10
181.5238906011403
 20
283.4243711644673
 30
0.0
  9
$PLIMMIN
 10
-27.68132038810219
 20
-12.78038956606241
  9
$PLIMMAX
 10
182.3186796118978
 20
284.2196104339376
  9
$UNITMODE
 70
     0
  9
$VISRETAIN
 70
     1
  9
$PLINEGEN
 70
     0
  9
$PSLTSCALE
 70
     1
  9
$TREEDEPTH
 70
  3020
  9
$CMLSTYLE
  2
Standard
  9
$CMLJUST
 70
     0
  9
$CMLSCALE
 40
1.0
  9
$PROXYGRAPHICS
 70
     1
  9
$MEASUREMENT
 70
     0
  9
$CELWEIGHT
370
    -1
  9
$ENDCAPS
280
     0
  9
$JOINSTYLE
280
     0
  9
$LWDISPLAY
290
     0
  9
$INSUNITS
 70
     4
  9
$HYPERLINKBASE
  1

  9
$STYLESHEET
  1

  9
$XEDIT
290
     1
  9
$CEPSNTYPE
380
     0
  9
$PSTYLEMODE
290
     1
  9
$FINGERPRINTGUID
  2
{8D4F103C-8AC0-4DC6-879A-28DF3E7B0655}
  9
$VERSIONGUID
  2
{690145D0-2F0C-4A6D-B8EC-C6055BF2093D}
  9
$EXTNAMES
290
     1
  9
$PSVPSCALE
 40
0.0
  9
$OLESTARTUP
290
     0
  9
$SORTENTS
280
   127
  9
$INDEXCTL
280
     0
  9
$HIDETEXT
280
     0
  9
$XCLIPFRAME
290
     0
  9
$HALOGAP
280
     0
  9
$OBSCOLOR
 70
   257
  9
$OBSLTYPE
280
     0
  9
$INTERSECTIONDISPLAY
280
     0
  9
$INTERSECTIONCOLOR
 70
   257
  9
$DIMASSOC
280
     1
  9
$PROJECTNAME
  1

  9
$CAMERADISPLAY
290
     0
  9
$LENSLENGTH
 40
50.0
  9
$CAMERAHEIGHT
 40
0.0
  9
$STEPSPERSEC
 40
2.0
  9
$STEPSIZE
 40
6.0
  9
$3DDWFPREC
 40
2.0
  9
$PSOLWIDTH
 40
0.25
  9
$PSOLHEIGHT
 40
4.0
  9
$LOFTANG1
 40
1.570796326794896
  9
$LOFTANG2
 40
1.570796326794896
  9
$LOFTMAG1
 40
0.0
  9
$LOFTMAG2
 40
0.0
  9
$LOFTPARAM
 70
     7
  9
$LOFTNORMALS
280
     1
  9
$LATITUDE
 40
37.795
  9
$LONGITUDE
 40
-122.394
  9
$NORTHDIRECTION
 40
0.0
  9
$TIMEZONE
 70
 -8000
  9
$LIGHTGLYPHDISPLAY
280
     1
  9
$TILEMODELIGHTSYNCH
280
     1
  9
$CMATERIAL
347
217
  9
$SOLIDHIST
280
     0
  9
$SHOWHIST
280
     1
  9
$DWFFRAME
280
     2
  9
$DGNFRAME
280
     0
  9
$REALWORLDSCALE
290
     1
  9
$INTERFERECOLOR
 62
     1
  9
$INTERFEREOBJVS
345
224
  9
$INTERFEREVPVS
346
221
  9
$CSHADOW
280
     0
  9
$SHADOWPLANELOCATION
 40
0.0
  0
ENDSEC
  0
SECTION
  2
CLASSES
  0
CLASS
  1
ACDBDICTIONARYWDFLT
  2
AcDbDictionaryWithDefault
  3
ObjectDBX Classes
 90
        0
 91
        1
280
     0
281
     0
  0
CLASS
  1
MATERIAL
  2
AcDbMaterial
  3
ObjectDBX Classes
 90
     1153
 91
        3
280
     0
281
     0
  0
CLASS
  1
VISUALSTYLE
  2
AcDbVisualStyle
  3
ObjectDBX Classes
 90
     4095
 91
       16
280
     0
281
     0
  0
CLASS
  1
TABLESTYLE
  2
AcDbTableStyle
  3
ObjectDBX Classes
 90
     4095
 91
        1
280
     0
281
     0
  0
CLASS
  1
DICTIONARYVAR
  2
AcDbDictionaryVar
  3
ObjectDBX Classes
 90
        0
 91
        8
280
     0
281
     0
  0
CLASS
  1
SCALE
  2
AcDbScale
  3
ObjectDBX Classes
 90
     1153
 91
       71
280
     0
281
     0
  0
CLASS
  1
MLEADERSTYLE
  2
AcDbMLeaderStyle
  3
ACDB_MLEADERSTYLE_CLASS
 90
     4095
 91
        2
280
     0
281
     0
  0
CLASS
  1
CELLSTYLEMAP
  2
AcDbCellStyleMap
  3
ObjectDBX Classes
 90
     1152
 91
        2
280
     0
281
     0
  0
CLASS
  1
ACDB_TEXTOBJECTCONTEXTDATA_CLASS
  2
AcDbTextObjectContextData
  3
ObjectDBX Classes
 90
     1153
 91
        0
280
     0
281
     0
  0
CLASS
  1
ACDB_ALDIMOBJECTCONTEXTDATA_CLASS
  2
AcDbAlignedDimensionObjectContextData
  3
ObjectDBX Classes
 90
     1153
 91
        1
280
     0
281
     0
  0
CLASS
  1
MULTILEADER
  2
AcDbMLeader
  3
ACDB_MLEADER_CLASS
 90
     1025
 91
       10
280
     0
281
     1
  0
CLASS
  1
ACDB_MLEADEROBJECTCONTEXTDATA_CLASS
  2
AcDbMLeaderObjectContextData
  3
ObjectDBX Classes
 90
     1153
 91
       10
280
     0
281
     0
  0
CLASS
  1
SORTENTSTABLE
  2
AcDbSortentsTable
  3
ObjectDBX Classes
 90
        0
 91
        7
280
     0
281
     0
  0
CLASS
  1
AEC_REFEDIT_STATUS_TRACKER
  2
AecDbRefEditStatusTracker
  3
AecArchBase50|Product Desc: Autodesk Architectural Desktop 2007 |Company: Autodesk,Inc. |WEB Address: www.autodesk.com
 90
      129
 91
        0
280
     0
281
     0
  0
CLASS
  1
NPOCOLLECTION
  2
AcDbImpNonPersistentObjectsCollection
  3
ObjectDBX Classes
 90
     1153
 91
        1
280
     0
281
     0
  0
CLASS
  1
ACAD_EVALUATION_GRAPH
  2
AcDbEvalGraph
  3
ObjectDBX Classes
 90
     1153
 91
        1
280
     0
281
     0
  0
CLASS
  1
BLOCKPOLARPARAMETER
  2
AcDbBlockPolarParameter
  3
ObjectDBX Classes
 90
     1153
 91
        0
280
     0
281
     0
  0
CLASS
  1
BLOCKPOLARGRIP
  2
AcDbBlockPolarGrip
  3
ObjectDBX Classes
 90
     1153
 91
        0
280
     0
281
     0
  0
CLASS
  1
BLOCKGRIPLOCATIONCOMPONENT
  2
AcDbBlockGripExpr
  3
ObjectDBX Classes
 90
     1153
 91
        2
280
     0
281
     0
  0
CLASS
  1
BLOCKPOLARSTRETCHACTION
  2
AcDbBlockPolarStretchAction
  3
ObjectDBX Classes
 90
     1153
 91
        0
280
     0
281
     0
  0
CLASS
  1
ACDB_DYNAMICBLOCKPURGEPREVENTER_VERSION
  2
AcDbDynamicBlockPurgePreventer
  3
ObjectDBX Classes
 90
     1153
 91
        1
280
     0
281
     0
  0
CLASS
  1
BLOCKROTATIONPARAMETER
  2
AcDbBlockRotationParameter
  3
ObjectDBX Classes
 90
     1153
 91
        0
280
     0
281
     0
  0
CLASS
  1
BLOCKROTATIONGRIP
  2
AcDbBlockRotationGrip
  3
ObjectDBX Classes
 90
     1153
 91
        0
280
     0
281
     0
  0
CLASS
  1
BLOCKFLIPPARAMETER
  2
AcDbBlockFlipParameter
  3
ObjectDBX Classes
 90
     1153
 91
        0
280
     0
281
     0
  0
CLASS
  1
BLOCKFLIPGRIP
  2
AcDbBlockFlipGrip
  3
ObjectDBX Classes
 90
     1153
 91
        0
280
     0
281
     0
  0
CLASS
  1
BLOCKROTATEACTION
  2
AcDbBlockRotateAction
  3
ObjectDBX Classes
 90
     1153
 91
        0
280
     0
281
     0
  0
CLASS
  1
BLOCKFLIPACTION
  2
AcDbBlockFlipAction
  3
ObjectDBX Classes
 90
     1153
 91
        0
280
     0
281
     0
  0
CLASS
  1
BLOCKLINEARPARAMETER
  2
AcDbBlockLinearParameter
  3
ObjectDBX Classes
 90
     1153
 91
        1
280
     0
281
     0
  0
CLASS
  1
BLOCKLINEARGRIP
  2
AcDbBlockLinearGrip
  3
ObjectDBX Classes
 90
     1153
 91
        1
280
     0
281
     0
  0
CLASS
  1
BLOCKSTRETCHACTION
  2
AcDbBlockStretchAction
  3
ObjectDBX Classes
 90
     1153
 91
        1
280
     0
281
     0
  0
CLASS
  1
BLOCKVISIBILITYPARAMETER
  2
AcDbBlockVisibilityParameter
  3
ObjectDBX Classes
 90
     1153
 91
        0
280
     0
281
     0
  0
CLASS
  1
BLOCKVISIBILITYGRIP
  2
AcDbBlockVisibilityGrip
  3
ObjectDBX Classes
 90
     1153
 91
        0
280
     0
281
     0
  0
CLASS
  1
BLOCKPOINTPARAMETER
  2
AcDbBlockPointParameter
  3
ObjectDBX Classes
 90
     1153
 91
        0
280
     0
281
     0
  0
CLASS
  1
BLOCKMOVEACTION
  2
AcDbBlockMoveAction
  3
ObjectDBX Classes
 90
     1153
 91
        0
280
     0
281
     0
  0
CLASS
  1
ACDB_BLOCKREPRESENTATION_DATA
  2
AcDbBlockRepresentationData
  3
ObjectDBX Classes
 90
     1153
 91
        1
280
     0
281
     0
  0
CLASS
  1
ACDB_BLKREFOBJECTCONTEXTDATA_CLASS
  2
AcDbBlkRefObjectContextData
  3
ObjectDBX Classes
 90
     1153
 91
        1
280
     0
281
     0
  0
CLASS
  1
ACDB_MTEXTATTRIBUTEOBJECTCONTEXTDATA_CLASS
  2
AcDbMTextAttributeObjectContextData
  3
ObjectDBX Classes
 90
     1153
 91
        0
280
     0
281
     0
  0
CLASS
  1
AEC_VARS_DWG_SETUP
  2
AecDbVarsDwgSetup
  3
AecBase50|Product Desc: Autodesk Architectural Desktop 2007 |Company: Autodesk,Inc. |WEB Address: www.autodesk.com
 90
      129
 91
        1
280
     0
281
     0
  0
CLASS
  1
AEC_DISP_REP_CONFIG
  2
AecDbDispRepConfig
  3
AecBase50|Product Desc: Autodesk Architectural Desktop 2007 |Company: Autodesk,Inc. |WEB Address: www.autodesk.com
 90
      129
 91
        2
280
     0
281
     0
  0
CLASS
  1
AEC_DISP_REP_SET
  2
AecDbDispRepSet
  3
AecBase50|Product Desc: Autodesk Architectural Desktop 2007 |Company: Autodesk,Inc. |WEB Address: www.autodesk.com
 90
      129
 91
        9
280
     0
281
     0
  0
CLASS
  1
AEC_DISP_REP_2D_SECTION
  2
AecDbDispRep2dSection
  3
AecBase50|Product Desc: Autodesk Architectural Desktop 2007 |Company: Autodesk,Inc. |WEB Address: www.autodesk.com
 90
      129
 91
        1
280
     0
281
     0
  0
CLASS
  1
AEC_DISP_REP_ANCHOR_BUB_TO_GRID
  2
AecDbDispRepAnchorBubToGrid
  3
AecStructureBase50|Product Desc: Autodesk Architectural Desktop 2007 |Company: Autodesk,Inc. |WEB Address: www.autodesk.com
 90
      129
 91
        1
280
     0
281
     0
  0
CLASS
  1
AEC_DISP_REP_ANCHOR_BUB_TO_GRID_MODEL
  2
AecDbDispRepAnchorBubToGridMdl
  3
AecStructureBase50|Product Desc: Autodesk Architectural Desktop 2007 |Company: Autodesk,Inc. |WEB Address: www.autodesk.com
 90
      129
 91
        1
280
     0
281
     0
  0
CLASS
  1
AEC_DISP_REP_ANCHOR_ENT_TO_NODE
  2
AecDbDispRepAnchorEntToNode
  3
AecBaseEx50|Product Desc: Autodesk Architectural Desktop 2007 |Company: Autodesk,Inc. |WEB Address: www.autodesk.com
 90
      129
 91
        1
280
     0
281
     0
  0
CLASS
  1
AEC_DISP_REP_ANCHOR_TAG_TO_ENT
  2
AecDbDispRepAnchorTagToEnt
  3
AecScheduleData50|Product Desc: Autodesk Architectural Desktop 2007 |Company: Autodesk,Inc. |WEB Address: www.autodesk.com
 90
      129
 91
        1
280
     0
281
     0
  0
CLASS
  1
AEC_DISP_REP_BDG_ELEVLINE_MODEL
  2
AecDbDispRepBdgElevLineModel
  3
AecArchBase50|Product Desc: Autodesk Architectural Desktop 2007 |Company: Autodesk,Inc. |WEB Address: www.autodesk.com
 90
      129
 91
        1
280
     0
281
     0
  0
CLASS
  1
AEC_DISP_REP_BDG_SECTIONLINE_PLAN
  2
AecDbDispRepBdgElevLinePlan
  3
AecArchBase50|Product Desc: Autodesk Architectural Desktop 2007 |Company: Autodesk,Inc. |WEB Address: www.autodesk.com
 90
      129
 91
        1
280
     0
281
     0
  0
CLASS
  1
AEC_DISP_REP_BDG_SECTIONLINE_MODEL
  2
AecDbDispRepBdgSectionLineModel
  3
AecArchBase50|Product Desc: Autodesk Architectural Desktop 2007 |Company: Autodesk,Inc. |WEB Address: www.autodesk.com
 90
      129
 91
        1
280
     0
281
     0
  0
CLASS
  1
AEC_DISP_REP_BDG_SECTIONLINE_PLAN
  2
AecDbDispRepBdgSectionLinePlan
  3
AecArchBase50|Product Desc: Autodesk Architectural Desktop 2007 |Company: Autodesk,Inc. |WEB Address: www.autodesk.com
 90
      129
 91
        1
280
     0
281
     0
  0
CLASS
  1
AEC_DISP_REP_BDG_SECTION_SUBDIV
  2
AecDbDispRepBdgSectionSubDiv
  3
AecArchBase50|Product Desc: Autodesk Architectural Desktop 2007 |Company: Autodesk,Inc. |WEB Address: www.autodesk.com
 90
      129
 91
        1
280
     0
281
     0
  0
CLASS
  1
AEC_DISP_REP_CEILING_GRID
  2
AecDbDispRepCeilingGrid
  3
AecArchBase50|Product Desc: Autodesk Architectural Desktop 2007 |Company: Autodesk,Inc. |WEB Address: www.autodesk.com
 90
      893
 91
        1
280
     0
281
     0
  0
CLASS
  1
AEC_DISP_REP_CEILING_GRID_MODEL
  2
AecDbDispRepCeilingGridModel
  3
AecArchBase50|Product Desc: Autodesk Architectural Desktop 2007 |Company: Autodesk,Inc. |WEB Address: www.autodesk.com
 90
      129
 91
        1
280
     0
281
     0
  0
CLASS
  1
AEC_DISP_REP_CEILING_GRID_RCP
  2
AecDbDispRepCeilingGridRcp
  3
AecArchBase50|Product Desc: Autodesk Architectural Desktop 2007 |Company: Autodesk,Inc. |WEB Address: www.autodesk.com
 90
      129
 91
        1
280
     0
281
     0
  0
CLASS
  1
AEC_DISP_REP_CLIP_VOLUME_MODEL
  2
AecDbDispRepClipVolModel
  3
AecBase50|Product Desc: Autodesk Architectural Desktop 2007 |Company: Autodesk,Inc. |WEB Address: www.autodesk.com
 90
      129
 91
        1
280
     0
281
     0
  0
CLASS
  1
AEC_DISP_REP_CLIP_VOLUME_PLAN
  2
AecDbDispRepClipVolPlan
  3
AecBase50|Product Desc: Autodesk Architectural Desktop 2007 |Company: Autodesk,Inc. |WEB Address: www.autodesk.com
 90
      129
 91
        1
280
     0
281
     0
  0
CLASS
  1
AEC_DISP_REP_CLIP_VOLUME_RESULT_SUBDIV
  2
AecDbDispRepClipVolResSubDiv
  3
AecBase50|Product Desc: Autodesk Architectural Desktop 2007 |Company: Autodesk,Inc. |WEB Address: www.autodesk.com
 90
      129
 91
        1
280
     0
281
     0
  0
CLASS
  1
AEC_DISP_REP_CLIP_VOLUME_RESULT
  2
AecDbDispRepClipVolResult
  3
AecBase50|Product Desc: Autodesk Architectural Desktop 2007 |Company: Autodesk,Inc. |WEB Address: www.autodesk.com
 90
      129
 91
        1
280
     0
281
     0
  0
CLASS
  1
AEC_DISP_REP_COLUMN_GRID
  2
AecDbDispRepColumnGrid
  3
AecStructureBase50|Product Desc: Autodesk Architectural Desktop 2007 |Company: Autodesk,Inc. |WEB Address: www.autodesk.com
 90
      129
 91
        1
280
     0
281
     0
  0
CLASS
  1
AEC_DISP_REP_COLUMN_GRID_MODEL
  2
AecDbDispRepColumnGridModel
  3
AecStructureBase50|Product Desc: Autodesk Architectural Desktop 2007 |Company: Autodesk,Inc. |WEB Address: www.autodesk.com
 90
      129
 91
        1
280
     0
281
     0
  0
CLASS
  1
AEC_DISP_REP_CURTAIN_WALL_LAYOUT_MODEL
  2
AecDbDispRepCurtainWallLayoutModel
  3
AecArchBase50|Product Desc: Autodesk Architectural Desktop 2007 |Company: Autodesk,Inc. |WEB Address: www.autodesk.com
 90
      129
 91
        1
280
     0
281
     0
  0
CLASS
  1
AEC_DISP_REP_CURTAIN_WALL_LAYOUT_PLAN
  2
AecDbDispRepCurtainWallLayoutPlan
  3
AecArchBase50|Product Desc: Autodesk Architectural Desktop 2007 |Company: Autodesk,Inc. |WEB Address: www.autodesk.com
 90
      129
 91
        1
280
     0
281
     0
  0
CLASS
  1
AEC_DISP_REP_CURTAIN_WALL_UNIT_MODEL
  2
AecDbDispRepCurtainWallUnitModel
  3
AecArchBase50|Product Desc: Autodesk Architectural Desktop 2007 |Company: Autodesk,Inc. |WEB Address: www.autodesk.com
 90
      129
 91
        1
280
     0
281
     0
  0
CLASS
  1
AEC_DISP_REP_CURTAIN_WALL_UNIT_PLAN
  2
AecDbDispRepCurtainWallUnitPlan
  3
AecArchBase50|Product Desc: Autodesk Architectural Desktop 2007 |Company: Autodesk,Inc. |WEB Address: www.autodesk.com
 90
      129
 91
        1
280
     0
281
     0
  0
CLASS
  1
AEC_DB_DISP_REP_DIM_GROUP_PLAN
  2
AecDbDispRepDimGroupPlan
  3
AecArchDACHBase50|Product Desc: Autodesk Architectural Desktop 2007 |Company: Autodesk,Inc. |WEB Address: www.autodesk.com
 90
      129
 91
        1
280
     0
281
     0
  0
CLASS
  1
AEC_DISP_REP_DISPLAYTHEME
  2
AecDbDispRepDisplayTheme
  3
AecBase50|Product Desc: Autodesk Architectural Desktop 2007 |Company: Autodesk,Inc. |WEB Address: www.autodesk.com
 90
      129
 91
        1
280
     0
281
     0
  0
CLASS
  1
AEC_DISP_REP_DOOR_MODEL
  2
AecDbDispRepDoorModel
  3
AecArchBase50|Product Desc: Autodesk Architectural Desktop 2007 |Company: Autodesk,Inc. |WEB Address: www.autodesk.com
 90
      129
 91
        1
280
     0
281
     0
  0
CLASS
  1
AEC_DISP_REP_DOOR_NOMINAL
  2
AecDbDispRepDoorNominal
  3
AecArchBase50|Product Desc: Autodesk Architectural Desktop 2007 |Company: Autodesk,Inc. |WEB Address: www.autodesk.com
 90
      129
 91
        1
280
     0
281
     0
  0
CLASS
  1
AEC_DISP_REP_DOOR_PLAN
  2
AecDbDispRepDoorPlan
  3
AecArchBase50|Product Desc: Autodesk Architectural Desktop 2007 |Company: Autodesk,Inc. |WEB Address: www.autodesk.com
 90
      129
 91
        1
280
     0
281
     0
  0
CLASS
  1
AEC_DISP_REP_EDITINPLACEPROFILE
  2
AecDbDispRepEditInPlaceProfile
  3
AecBase50|Product Desc: Autodesk Architectural Desktop 2007 |Company: Autodesk,Inc. |WEB Address: www.autodesk.com
 90
      129
 91
        1
280
     0
281
     0
  0
CLASS
  1
AEC_DISP_REP_ENT_REF
  2
AecDbDispRepEntRef
  3
AecBase50|Product Desc: Autodesk Architectural Desktop 2007 |Company: Autodesk,Inc. |WEB Address: www.autodesk.com
 90
      129
 91
        1
280
     0
281
     0
  0
CLASS
  1
AEC_DISP_REP_LAYOUT_CURVE
  2
AecDbDispRepLayoutCurve
  3
AecBase50|Product Desc: Autodesk Architectural Desktop 2007 |Company: Autodesk,Inc. |WEB Address: www.autodesk.com
 90
      129
 91
        1
280
     0
281
     0
  0
CLASS
  1
AEC_DISP_REP_LAYOUT_GRID2D
  2
AecDbDispRepLayoutGrid2d
  3
AecBase50|Product Desc: Autodesk Architectural Desktop 2007 |Company: Autodesk,Inc. |WEB Address: www.autodesk.com
 90
      129
 91
        1
280
     0
281
     0
  0
CLASS
  1
AEC_DISP_REP_LAYOUT_GRID3D
  2
AecDbDispRepLayoutGrid3d
  3
AecBase50|Product Desc: Autodesk Architectural Desktop 2007 |Company: Autodesk,Inc. |WEB Address: www.autodesk.com
 90
      129
 91
        1
280
     0
281
     0
  0
CLASS
  1
AEC_DISP_REP_MASKBLOCK_REF
  2
AecDbDispRepMaskBlockRef
  3
AecBase50|Product Desc: Autodesk Architectural Desktop 2007 |Company: Autodesk,Inc. |WEB Address: www.autodesk.com
 90
      129
 91
        1
280
     0
281
     0
  0
CLASS
  1
AEC_DISP_REP_MASKBLOCK_REF_RCP
  2
AecDbDispRepMaskBlockRefRcp
  3
AecArchBase50|Product Desc: Autodesk Architectural Desktop 2007 |Company: Autodesk,Inc. |WEB Address: www.autodesk.com
 90
      129
 91
        1
280
     0
281
     0
  0
CLASS
  1
AEC_DISP_REP_MASS_ELEM_MODEL
  2
AecDbDispRepMassElemModel
  3
AecBaseEx50|Product Desc: Autodesk Architectural Desktop 2007 |Company: Autodesk,Inc. |WEB Address: www.autodesk.com
 90
      129
 91
        1
280
     0
281
     0
  0
CLASS
  1
AEC_DISP_REP_MASS_ELEM_SCHEM
  2
AecDbDispRepMassElemSchem
  3
AecBaseEx50|Product Desc: Autodesk Architectural Desktop 2007 |Company: Autodesk,Inc. |WEB Address: www.autodesk.com
 90
      129
 91
        1
280
     0
281
     0
  0
CLASS
  1
AEC_DISP_REP_MASS_GROUP_MODEL
  2
AecDbDispRepMassGroupModel
  3
AecBaseEx50|Product Desc: Autodesk Architectural Desktop 2007 |Company: Autodesk,Inc. |WEB Address: www.autodesk.com
 90
      129
 91
        1
280
     0
281
     0
  0
CLASS
  1
AEC_DISP_REP_MASS_GROUP_PLAN
  2
AecDbDispRepMassGroupPlan
  3
AecBaseEx50|Product Desc: Autodesk Architectural Desktop 2007 |Company: Autodesk,Inc. |WEB Address: www.autodesk.com
 90
      129
 91
        1
280
     0
281
     0
  0
CLASS
  1
AEC_DISP_REP_MATERIAL
  2
AecDbDispRepMaterial
  3
AecBase50|Product Desc: Autodesk Architectural Desktop 2007 |Company: Autodesk,Inc. |WEB Address: www.autodesk.com
 90
      129
 91
        1
280
     0
281
     0
  0
CLASS
  1
AEC_DISP_REP_MVBLOCK_REF
  2
AecDbDispRepMvBlockRef
  3
AecBase50|Product Desc: Autodesk Architectural Desktop 2007 |Company: Autodesk,Inc. |WEB Address: www.autodesk.com
 90
      129
 91
        2
280
     0
281
     0
  0
CLASS
  1
AEC_DISP_REP_MVBLOCK_REF_MODEL
  2
AecDbDispRepMvBlockRefModel
  3
AecBase50|Product Desc: Autodesk Architectural Desktop 2007 |Company: Autodesk,Inc. |WEB Address: www.autodesk.com
 90
      129
 91
        1
280
     0
281
     0
  0
CLASS
  1
AEC_DISP_REP_OPENING
  2
AecDbDispRepOpening
  3
AecArchBase50|Product Desc: Autodesk Architectural Desktop 2007 |Company: Autodesk,Inc. |WEB Address: www.autodesk.com
 90
      129
 91
        1
280
     0
281
     0
  0
CLASS
  1
AEC_DISP_REP_OPENING_MODEL
  2
AecDbDispRepOpeningModel
  3
AecArchBase50|Product Desc: Autodesk Architectural Desktop 2007 |Company: Autodesk,Inc. |WEB Address: www.autodesk.com
 90
      129
 91
        1
280
     0
281
     0
  0
CLASS
  1
AEC_DISP_REP_POLYGON_MODEL
  2
AecDbDispRepPolygonModel
  3
AecBaseEx50|Product Desc: Autodesk Architectural Desktop 2007 |Company: Autodesk,Inc. |WEB Address: www.autodesk.com
 90
      129
 91
        1
280
     0
281
     0
  0
CLASS
  1
AEC_DISP_REP_RAILING_MODEL
  2
AecDbDispRepRailingModel
  3
AecArchBase50|Product Desc: Autodesk Architectural Desktop 2007 |Company: Autodesk,Inc. |WEB Address: www.autodesk.com
 90
      129
 91
        1
280
     0
281
     0
  0
CLASS
  1
AEC_DISP_REP_RAILING_PLAN
  2
AecDbDispRepRailingPlan
  3
AecArchBase50|Product Desc: Autodesk Architectural Desktop 2007 |Company: Autodesk,Inc. |WEB Address: www.autodesk.com
 90
      129
 91
        1
280
     0
281
     0
  0
CLASS
  1
AEC_DISP_REP_ROOF_MODEL
  2
AecDbDispRepRoofModel
  3
AecArchBase50|Product Desc: Autodesk Architectural Desktop 2007 |Company: Autodesk,Inc. |WEB Address: www.autodesk.com
 90
      129
 91
        1
280
     0
281
     0
  0
CLASS
  1
AEC_DISP_REP_ROOF_PLAN
  2
AecDbDispRepRoofPlan
  3
AecArchBase50|Product Desc: Autodesk Architectural Desktop 2007 |Company: Autodesk,Inc. |WEB Address: www.autodesk.com
 90
      129
 91
        1
280
     0
281
     0
  0
CLASS
  1
AEC_DISP_REP_ROOFSLAB_MODEL
  2
AecDbDispRepRoofSlabModel
  3
AecArchBase50|Product Desc: Autodesk Architectural Desktop 2007 |Company: Autodesk,Inc. |WEB Address: www.autodesk.com
 90
      129
 91
        1
280
     0
281
     0
  0
CLASS
  1
AEC_DISP_REP_ROOFSLAB_PLAN
  2
AecDbDispRepRoofSlabPlan
  3
AecArchBase50|Product Desc: Autodesk Architectural Desktop 2007 |Company: Autodesk,Inc. |WEB Address: www.autodesk.com
 90
      129
 91
        1
280
     0
281
     0
  0
CLASS
  1
AEC_DISP_REP_SCHEDULE_TABLE
  2
AecDbDispRepScheduleTable
  3
AecSchedule50|Product Desc: Autodesk Architectural Desktop 2007 |Company: Autodesk,Inc. |WEB Address: www.autodesk.com
 90
      129
 91
        1
280
     0
281
     0
  0
CLASS
  1
AEC_DISP_REP_SLAB_MODEL
  2
AecDbDispRepSlabModel
  3
AecArchBase50|Product Desc: Autodesk Architectural Desktop 2007 |Company: Autodesk,Inc. |WEB Address: www.autodesk.com
 90
      129
 91
        1
280
     0
281
     0
  0
CLASS
  1
AEC_DISP_REP_SLAB_PLAN
  2
AecDbDispRepSlabPlan
  3
AecArchBase50|Product Desc: Autodesk Architectural Desktop 2007 |Company: Autodesk,Inc. |WEB Address: www.autodesk.com
 90
      129
 91
        1
280
     0
281
     0
  0
CLASS
  1
AEC_DISP_REP_SLICE
  2
AecDbDispRepSlice
  3
AecBase50|Product Desc: Autodesk Architectural Desktop 2007 |Company: Autodesk,Inc. |WEB Address: www.autodesk.com
 90
      129
 91
        1
280
     0
281
     0
  0
CLASS
  1
AEC_DISP_REP_SPACE_DECOMPOSED
  2
AecDbDispRepSpaceDecomposed
  3
AecArchBase50|Product Desc: Autodesk Architectural Desktop 2007 |Company: Autodesk,Inc. |WEB Address: www.autodesk.com
 90
      129
 91
        1
280
     0
281
     0
  0
CLASS
  1
AEC_DISP_REP_SPACE_MODEL
  2
AecDbDispRepSpaceModel
  3
AecArchBase50|Product Desc: Autodesk Architectural Desktop 2007 |Company: Autodesk,Inc. |WEB Address: www.autodesk.com
 90
      129
 91
        1
280
     0
281
     0
  0
CLASS
  1
AEC_DISP_REP_SPACE_PLAN
  2
AecDbDispRepSpacePlan
  3
AecArchBase50|Product Desc: Autodesk Architectural Desktop 2007 |Company: Autodesk,Inc. |WEB Address: www.autodesk.com
 90
      129
 91
        1
280
     0
281
     0
  0
CLASS
  1
AEC_DISP_REP_STAIR_MODEL
  2
AecDbDispRepStairModel
  3
AecArchBase50|Product Desc: Autodesk Architectural Desktop 2007 |Company: Autodesk,Inc. |WEB Address: www.autodesk.com
 90
      129
 91
        1
280
     0
281
     0
  0
CLASS
  1
AEC_DISP_REP_STAIR_PLAN
  2
AecDbDispRepStairPlan
  3
AecArchBase50|Product Desc: Autodesk Architectural Desktop 2007 |Company: Autodesk,Inc. |WEB Address: www.autodesk.com
 90
      129
 91
        1
280
     0
281
     0
  0
CLASS
  1
AEC_DISP_REP_WALL_GRAPH
  2
AecDbDispRepWallGraph
  3
AecArchBase50|Product Desc: Autodesk Architectural Desktop 2007 |Company: Autodesk,Inc. |WEB Address: www.autodesk.com
 90
      129
 91
        1
280
     0
281
     0
  0
CLASS
  1
AEC_DISP_REP_WALL_MODEL
  2
AecDbDispRepWallModel
  3
AecArchBase50|Product Desc: Autodesk Architectural Desktop 2007 |Company: Autodesk,Inc. |WEB Address: www.autodesk.com
 90
      129
 91
        1
280
     0
281
     0
  0
CLASS
  1
AEC_DISP_REP_WALL_PLAN
  2
AecDbDispRepWallPlan
  3
AecArchBase50|Product Desc: Autodesk Architectural Desktop 2007 |Company: Autodesk,Inc. |WEB Address: www.autodesk.com
 90
      129
 91
        1
280
     0
281
     0
  0
CLASS
  1
AEC_DISP_REP_WALL_SCHEM
  2
AecDbDispRepWallSchem
  3
AecArchBase50|Product Desc: Autodesk Architectural Desktop 2007 |Company: Autodesk,Inc. |WEB Address: www.autodesk.com
 90
      129
 91
        1
280
     0
281
     0
  0
CLASS
  1
AEC_DISP_REP_WINDOW_ASSEMBLY_MODEL
  2
AecDbDispRepWindowAssemblyModel
  3
AecArchBase50|Product Desc: Autodesk Architectural Desktop 2007 |Company: Autodesk,Inc. |WEB Address: www.autodesk.com
 90
      129
 91
        1
280
     0
281
     0
  0
CLASS
  1
AEC_DISP_REP_WINDOW_ASSEMBLY_PLAN
  2
AecDbDispRepWindowAssemblyPlan
  3
AecArchBase50|Product Desc: Autodesk Architectural Desktop 2007 |Company: Autodesk,Inc. |WEB Address: www.autodesk.com
 90
      129
 91
        1
280
     0
281
     0
  0
CLASS
  1
AEC_AECDBDISPREPWINDOWASSEMBLYPLAN100
  2
AecDbDispRepWindowAssemblyPlan100
  3
AecArchDACHBase50|Product Desc: Autodesk Architectural Desktop 2007 |Company: Autodesk,Inc. |WEB Address: www.autodesk.com
 90
      129
 91
        1
280
     0
281
     0
  0
CLASS
  1
AEC_DISP_REP_WINDOW_MODEL
  2
AecDbDispRepWindowModel
  3
AecArchBase50|Product Desc: Autodesk Architectural Desktop 2007 |Company: Autodesk,Inc. |WEB Address: www.autodesk.com
 90
      129
 91
        1
280
     0
281
     0
  0
CLASS
  1
AEC_DISP_REP_WINDOW_NOMINAL
  2
AecDbDispRepWindowNominal
  3
AecArchBase50|Product Desc: Autodesk Architectural Desktop 2007 |Company: Autodesk,Inc. |WEB Address: www.autodesk.com
 90
      129
 91
        1
280
     0
281
     0
  0
CLASS
  1
AEC_DISP_REP_WINDOW_PLAN
  2
AecDbDispRepWindowPlan
  3
AecArchBase50|Product Desc: Autodesk Architectural Desktop 2007 |Company: Autodesk,Inc. |WEB Address: www.autodesk.com
 90
      129
 91
        1
280
     0
281
     0
  0
CLASS
  1
AEC_DISP_REP_ZONE
  2
AecDbDispRepZone
  3
AecArchBase50|Product Desc: Autodesk Architectural Desktop 2007 |Company: Autodesk,Inc. |WEB Address: www.autodesk.com
 90
      129
 91
        1
280
     0
281
     0
  0
CLASS
  1
AECS_DISP_REP_MEMBER_LOGICAL
  2
AecsDbDispRepMemberLogical
  3
AecStructureBase50|Product Desc: Autodesk Architectural Desktop 2007 |Company: Autodesk,Inc. |WEB Address: www.autodesk.com
 90
      129
 91
        1
280
     0
281
     0
  0
CLASS
  1
AECS_DISP_REP_MEMBER_MODEL_DESIGN
  2
AecsDbDispRepMemberModelDesign
  3
AecStructureBase50|Product Desc: Autodesk Architectural Desktop 2007 |Company: Autodesk,Inc. |WEB Address: www.autodesk.com
 90
      129
 91
        1
280
     0
281
     0
  0
CLASS
  1
AECS_DISP_REP_MEMBER_PLAN_DESIGN
  2
AecsDbDispRepMemberPlanDesign
  3
AecStructureBase50|Product Desc: Autodesk Architectural Desktop 2007 |Company: Autodesk,Inc. |WEB Address: www.autodesk.com
 90
      129
 91
        1
280
     0
281
     0
  0
CLASS
  1
AEC_DISP_PROPS_ENT
  2
AecDbDispPropsEnt
  3
AecBase50|Product Desc: Autodesk Architectural Desktop 2007 |Company: Autodesk,Inc. |WEB Address: www.autodesk.com
 90
      129
 91
        7
280
     0
281
     0
  0
CLASS
  1
AEC_DISP_PROPS_ZONE
  2
AecDbDispPropsZone
  3
AecArchBase50|Product Desc: Autodesk Architectural Desktop 2007 |Company: Autodesk,Inc. |WEB Address: www.autodesk.com
 90
      129
 91
        3
280
     0
281
     0
  0
CLASS
  1
AEC_DISP_PROPS_GRID_ASSEMBLY_MODEL
  2
AecDbDispPropsGridAssemblyModel
  3
AecArchBase50|Product Desc: Autodesk Architectural Desktop 2007 |Company: Autodesk,Inc. |WEB Address: www.autodesk.com
 90
      129
 91
        3
280
     0
281
     0
  0
CLASS
  1
AEC_DISP_PROPS_2D_SECTION
  2
AecDbDispProps2dSection
  3
AecBase50|Product Desc: Autodesk Architectural Desktop 2007 |Company: Autodesk,Inc. |WEB Address: www.autodesk.com
 90
      129
 91
        1
280
     0
281
     0
  0
CLASS
  1
AEC_DISP_PROPS_OPENING
  2
AecDbDispPropsOpening
  3
AecArchBase50|Product Desc: Autodesk Architectural Desktop 2007 |Company: Autodesk,Inc. |WEB Address: www.autodesk.com
 90
      129
 91
        2
280
     0
281
     0
  0
CLASS
  1
AEC_DISP_PROPS_DOOR
  2
AecDbDispPropsDoor
  3
AecArchBase50|Product Desc: Autodesk Architectural Desktop 2007 |Company: Autodesk,Inc. |WEB Address: www.autodesk.com
 90
      129
 91
        4
280
     0
281
     0
  0
CLASS
  1
AEC_DISP_PROPS_WALL_SCHEM
  2
AecDbDispPropsWallSchem
  3
AecArchBase50|Product Desc: Autodesk Architectural Desktop 2007 |Company: Autodesk,Inc. |WEB Address: www.autodesk.com
 90
      129
 91
        1
280
     0
281
     0
  0
CLASS
  1
AEC_DISP_PROPS_MASKBLOCK
  2
AecDbDispPropsMaskBlock
  3
AecBase50|Product Desc: Autodesk Architectural Desktop 2007 |Company: Autodesk,Inc. |WEB Address: www.autodesk.com
 90
      129
 91
        2
280
     0
281
     0
  0
CLASS
  1
AEC_DISP_PROPS_SCHEDULE_TABLE
  2
AecDbDispPropsScheduleTable
  3
AecSchedule50|Product Desc: Autodesk Architectural Desktop 2007 |Company: Autodesk,Inc. |WEB Address: www.autodesk.com
 90
      129
 91
        1
280
     0
281
     0
  0
CLASS
  1
AECS_DISP_PROPS_MEMBER
  2
AecsDbDispPropsMember
  3
AecStructureBase50|Product Desc: Autodesk Architectural Desktop 2007 |Company: Autodesk,Inc. |WEB Address: www.autodesk.com
 90
      129
 91
        2
280
     0
281
     0
  0
CLASS
  1
AEC_DISP_PROPS_LAYOUT_GRID2D
  2
AecDbDispPropsLayoutGrid2d
  3
AecBase50|Product Desc: Autodesk Architectural Desktop 2007 |Company: Autodesk,Inc. |WEB Address: www.autodesk.com
 90
      129
 91
       11
280
     0
281
     0
  0
CLASS
  1
AEC_DISP_PROPS_EDITINPLACEPROFILE_MODEL
  2
AecDbDispPropsEditInPlaceProfile
  3
AecBase50|Product Desc: Autodesk Architectural Desktop 2007 |Company: Autodesk,Inc. |WEB Address: www.autodesk.com
 90
      129
 91
        1
280
     0
281
     0
  0
CLASS
  1
AEC_DISP_PROPS_ENT_REF
  2
AecDbDispPropsEntRef
  3
AecBase50|Product Desc: Autodesk Architectural Desktop 2007 |Company: Autodesk,Inc. |WEB Address: www.autodesk.com
 90
      129
 91
        1
280
     0
281
     0
  0
CLASS
  1
AEC_DISP_PROPS_ROOFSLAB
  2
AecDbDispPropsRoofSlab
  3
AecArchBase50|Product Desc: Autodesk Architectural Desktop 2007 |Company: Autodesk,Inc. |WEB Address: www.autodesk.com
 90
      129
 91
        1
280
     0
281
     0
  0
CLASS
  1
AEC_DISP_PROPS_LAYOUT_GRID3D
  2
AecDbDispPropsLayoutGrid3d
  3
AecBase50|Product Desc: Autodesk Architectural Desktop 2007 |Company: Autodesk,Inc. |WEB Address: www.autodesk.com
 90
      129
 91
        1
280
     0
281
     0
  0
CLASS
  1
AEC_DISP_PROPS_WALL_GRAPH
  2
AecDbDispPropsWallGraph
  3
AecArchBase50|Product Desc: Autodesk Architectural Desktop 2007 |Company: Autodesk,Inc. |WEB Address: www.autodesk.com
 90
      129
 91
        1
280
     0
281
     0
  0
CLASS
  1
AEC_DISP_PROPS_DIM
  2
AecDbDispPropsDimGroup
  3
AecArchDACHBase50|Product Desc: Autodesk Architectural Desktop 2007 |Company: Autodesk,Inc. |WEB Address: www.autodesk.com
 90
      129
 91
        3
280
     0
281
     0
  0
CLASS
  1
AEC_DISP_PROPS_CLIP_VOLUME
  2
AecDbDispPropsClipVol
  3
AecBase50|Product Desc: Autodesk Architectural Desktop 2007 |Company: Autodesk,Inc. |WEB Address: www.autodesk.com
 90
      129
 91
       12
280
     0
281
     0
  0
CLASS
  1
AEC_DISP_PROPS_STAIR_MODEL
  2
AecDbDispPropsStairModel
  3
AecArchBase50|Product Desc: Autodesk Architectural Desktop 2007 |Company: Autodesk,Inc. |WEB Address: www.autodesk.com
 90
      129
 91
        1
280
     0
281
     0
  0
CLASS
  1
AEC_DISP_PROPS_MASS_GROUP
  2
AecDbDispPropsMassGroup
  3
AecBaseEx50|Product Desc: Autodesk Architectural Desktop 2007 |Company: Autodesk,Inc. |WEB Address: www.autodesk.com
 90
      129
 91
        3
280
     0
281
     0
  0
CLASS
  1
AEC_DISP_PROPS_GRID_ASSEMBLY_PLAN
  2
AecDbDispPropsGridAssemblyPlan
  3
AecArchBase50|Product Desc: Autodesk Architectural Desktop 2007 |Company: Autodesk,Inc. |WEB Address: www.autodesk.com
 90
      129
 91
        9
280
     0
281
     0
  0
CLASS
  1
AEC_DISP_PROPS_SLAB_PLAN
  2
AecDbDispPropsSlabPlan
  3
AecArchBase50|Product Desc: Autodesk Architectural Desktop 2007 |Company: Autodesk,Inc. |WEB Address: www.autodesk.com
 90
      129
 91
        3
280
     0
281
     0
  0
CLASS
  1
AEC_DISP_PROPS_RAILING_MODEL
  2
AecDbDispPropsRailingModel
  3
AecArchBase50|Product Desc: Autodesk Architectural Desktop 2007 |Company: Autodesk,Inc. |WEB Address: www.autodesk.com
 90
      129
 91
        1
280
     0
281
     0
  0
CLASS
  1
AEC_DISP_PROPS_MASS_ELEM_MODEL
  2
AecDbDispPropsMassElem
  3
AecBaseEx50|Product Desc: Autodesk Architectural Desktop 2007 |Company: Autodesk,Inc. |WEB Address: www.autodesk.com
 90
      129
 91
        3
280
     0
281
     0
  0
CLASS
  1
AEC_DISP_PROPS_SPACE_PLAN
  2
AecDbDispPropsSpacePlan
  3
AecArchBase50|Product Desc: Autodesk Architectural Desktop 2007 |Company: Autodesk,Inc. |WEB Address: www.autodesk.com
 90
      129
 91
        4
280
     0
281
     0
  0
CLASS
  1
AECS_DISP_PROPS_MEMBER_PLAN
  2
AecsDbDispPropsMemberPlan
  3
AecStructureBase50|Product Desc: Autodesk Architectural Desktop 2007 |Company: Autodesk,Inc. |WEB Address: www.autodesk.com
 90
      129
 91
        2
280
     0
281
     0
  0
CLASS
  1
AEC_DISP_PROPS_ROOF
  2
AecDbDispPropsRoof
  3
AecArchBase50|Product Desc: Autodesk Architectural Desktop 2007 |Company: Autodesk,Inc. |WEB Address: www.autodesk.com
 90
      129
 91
        5
280
     0
281
     0
  0
CLASS
  1
AEC_DISP_PROPS_DISPLAYTHEME
  2
AecDbDispPropsDisplayTheme
  3
AecBase50|Product Desc: Autodesk Architectural Desktop 2007 |Company: Autodesk,Inc. |WEB Address: www.autodesk.com
 90
      129
 91
        1
280
     0
281
     0
  0
CLASS
  1
AEC_DISP_PROPS_ROOFSLAB_PLAN
  2
AecDbDispPropsRoofSlabPlan
  3
AecArchBase50|Product Desc: Autodesk Architectural Desktop 2007 |Company: Autodesk,Inc. |WEB Address: www.autodesk.com
 90
      129
 91
        3
280
     0
281
     0
  0
CLASS
  1
AEC_DISP_PROPS_WINDOW_NOMINAL
  2
AecDbDispPropsWindowNominal
  3
AecArchBase50|Product Desc: Autodesk Architectural Desktop 2007 |Company: Autodesk,Inc. |WEB Address: www.autodesk.com
 90
      129
 91
        1
280
     0
281
     0
  0
CLASS
  1
AEC_DISP_PROPS_STAIR_PLAN
  2
AecDbDispPropsStairPlan
  3
AecArchBase50|Product Desc: Autodesk Architectural Desktop 2007 |Company: Autodesk,Inc. |WEB Address: www.autodesk.com
 90
      129
 91
        2
280
     0
281
     0
  0
CLASS
  1
AECS_DISP_PROPS_MEMBER_LOGICAL
  2
AecsDbDispPropsMemberLogical
  3
AecStructureBase50|Product Desc: Autodesk Architectural Desktop 2007 |Company: Autodesk,Inc. |WEB Address: www.autodesk.com
 90
      129
 91
        1
280
     0
281
     0
  0
CLASS
  1
AEC_DISP_PROPS_POLYGON_MODEL
  2
AecDbDispPropsPolygonModel
  3
AecBaseEx50|Product Desc: Autodesk Architectural Desktop 2007 |Company: Autodesk,Inc. |WEB Address: www.autodesk.com
 90
      129
 91
        1
280
     0
281
     0
  0
CLASS
  1
AEC_DISP_PROPS_LAYOUT_CURVE
  2
AecDbDispPropsLayoutCurve
  3
AecBase50|Product Desc: Autodesk Architectural Desktop 2007 |Company: Autodesk,Inc. |WEB Address: www.autodesk.com
 90
      129
 91
        1
280
     0
281
     0
  0
CLASS
  1
AEC_DISP_PROPS_SPACE_DECOMPOSED
  2
AecDbDispPropsSpaceDecomposed
  3
AecArchBase50|Product Desc: Autodesk Architectural Desktop 2007 |Company: Autodesk,Inc. |WEB Address: www.autodesk.com
 90
      129
 91
        1
280
     0
281
     0
  0
CLASS
  1
AEC_DISP_PROPS_RAILING_PLAN
  2
AecDbDispPropsRailingPlan
  3
AecArchBase50|Product Desc: Autodesk Architectural Desktop 2007 |Company: Autodesk,Inc. |WEB Address: www.autodesk.com
 90
      129
 91
        1
280
     0
281
     0
  0
CLASS
  1
AEC_DISP_PROPS_SLICE
  2
AecDbDispPropsSlice
  3
AecBase50|Product Desc: Autodesk Architectural Desktop 2007 |Company: Autodesk,Inc. |WEB Address: www.autodesk.com
 90
      129
 91
        1
280
     0
281
     0
  0
CLASS
  1
AEC_DISP_PROPS_WINDOW
  2
AecDbDispPropsWindow
  3
AecArchBase50|Product Desc: Autodesk Architectural Desktop 2007 |Company: Autodesk,Inc. |WEB Address: www.autodesk.com
 90
      129
 91
        4
280
     0
281
     0
  0
CLASS
  1
AEC_DISP_PROPS_SPACE_MODEL
  2
AecDbDispPropsSpaceModel
  3
AecArchBase50|Product Desc: Autodesk Architectural Desktop 2007 |Company: Autodesk,Inc. |WEB Address: www.autodesk.com
 90
      129
 91
        1
280
     0
281
     0
  0
CLASS
  1
AEC_DISP_PROPS_WALL_PLAN
  2
AecDbDispPropsWallPlan
  3
AecArchBase50|Product Desc: Autodesk Architectural Desktop 2007 |Company: Autodesk,Inc. |WEB Address: www.autodesk.com
 90
      129
 91
        4
280
     0
281
     0
  0
CLASS
  1
AEC_DISP_PROPS_SLAB
  2
AecDbDispPropsSlab
  3
AecArchBase50|Product Desc: Autodesk Architectural Desktop 2007 |Company: Autodesk,Inc. |WEB Address: www.autodesk.com
 90
      129
 91
        1
280
     0
281
     0
  0
CLASS
  1
AEC_DISP_PROPS_CLIP_VOLUME_RESULT
  2
AecDbDispPropsClipVolResSubDiv
  3
AecBase50|Product Desc: Autodesk Architectural Desktop 2007 |Company: Autodesk,Inc. |WEB Address: www.autodesk.com
 90
      129
 91
        2
280
     0
281
     0
  0
CLASS
  1
AEC_DISP_PROPS_DOOR_NOMINAL
  2
AecDbDispPropsDoorNominal
  3
AecArchBase50|Product Desc: Autodesk Architectural Desktop 2007 |Company: Autodesk,Inc. |WEB Address: www.autodesk.com
 90
      129
 91
        1
280
     0
281
     0
  0
CLASS
  1
AEC_DISP_PROPS_MATERIAL
  2
AecDbDispPropsMaterial
  3
AecBase50|Product Desc: Autodesk Architectural Desktop 2007 |Company: Autodesk,Inc. |WEB Address: www.autodesk.com
 90
      129
 91
        1
280
     0
281
     0
  0
CLASS
  1
AEC_DISP_PROPS_WALL_MODEL
  2
AecDbDispPropsWallModel
  3
AecArchBase50|Product Desc: Autodesk Architectural Desktop 2007 |Company: Autodesk,Inc. |WEB Address: www.autodesk.com
 90
      129
 91
        1
280
     0
281
     0
  0
CLASS
  1
AEC_LAYERKEY_STYLE
  2
AecDbLayerKeyStyle
  3
AecBase50|Product Desc: Autodesk Architectural Desktop 2007 |Company: Autodesk,Inc. |WEB Address: www.autodesk.com
 90
      129
 91
        1
280
     0
281
     0
  0
CLASS
  1
AEC_VARS_ARCHBASE
  2
AecDbVarsArchBase
  3
AecArchBase50|Product Desc: Autodesk Architectural Desktop 2007 |Company: Autodesk,Inc. |WEB Address: www.autodesk.com
 90
      129
 91
        1
280
     0
281
     0
  0
CLASS
  1
AEC_VARS_MUNICH
  2
AecDbVarsMunich
  3
AecArchDACHBase50|Product Desc: Autodesk Architectural Desktop 2007 |Company: Autodesk,Inc. |WEB Address: www.autodesk.com
 90
      129
 91
        1
280
     0
281
     0
  0
CLASS
  1
AEC_NOTIFICATION_TRACKER
  2
AecDbNotificationTracker
  3
AecBase50|Product Desc: Autodesk Architectural Desktop 2007 |Company: Autodesk,Inc. |WEB Address: www.autodesk.com
 90
      129
 91
        0
280
     0
281
     0
  0
CLASS
  1
AEC_DISP_REP_DOOR_THRESHOLD_SYMBOL_PLAN
  2
AecDbDispRepDoorThresholdSymbolPlan
  3
AecArchDACHBase50|Product Desc: Autodesk Architectural Desktop 2007 |Company: Autodesk,Inc. |WEB Address: www.autodesk.com
 90
      129
 91
        1
280
     0
281
     0
  0
CLASS
  1
AEC_DISP_PROPS_DOOR_THRESHOLD_SYMBOL_PLAN
  2
AecDbDispPropsDoorThresholdSymbolPlan
  3
AecArchDACHBase50|Product Desc: Autodesk Architectural Desktop 2007 |Company: Autodesk,Inc. |WEB Address: www.autodesk.com
 90
      129
 91
        1
280
     0
281
     0
  0
CLASS
  1
AEC_DISP_REP_RAILING_PLAN_100
  2
AecDbDispRepRailingPlan100
  3
AecArchDACHBase50|Product Desc: Autodesk Architectural Desktop 2007 |Company: Autodesk,Inc. |WEB Address: www.autodesk.com
 90
      129
 91
        1
280
     0
281
     0
  0
CLASS
  1
AEC_DISP_ROPS_RAILING_PLAN_100
  2
AecDbDispPropsRailingPlan100
  3
AecArchDACHBase50|Product Desc: Autodesk Architectural Desktop 2007 |Company: Autodesk,Inc. |WEB Address: www.autodesk.com
 90
      129
 91
        1
280
     0
281
     0
  0
CLASS
  1
AEC_DISP_REP_STAIR_PLAN_50
  2
AecDbDispRepStairPlan50
  3
AecArchDACHBase50|Product Desc: Autodesk Architectural Desktop 2007 |Company: Autodesk,Inc. |WEB Address: www.autodesk.com
 90
      129
 91
        1
280
     0
281
     0
  0
CLASS
  1
AEC_DISP_ROPS_STAIR_PLAN_50
  2
AecDbDispPropsStairPlan50
  3
AecArchDACHBase50|Product Desc: Autodesk Architectural Desktop 2007 |Company: Autodesk,Inc. |WEB Address: www.autodesk.com
 90
      129
 91
        1
280
     0
281
     0
  0
CLASS
  1
AEC_DISP_REP_STAIR_PLAN_100
  2
AecDbDispRepStairPlan100
  3
AecArchDACHBase50|Product Desc: Autodesk Architectural Desktop 2007 |Company: Autodesk,Inc. |WEB Address: www.autodesk.com
 90
      129
 91
        1
280
     0
281
     0
  0
CLASS
  1
AEC_DISP_ROPS_STAIR_PLAN_100
  2
AecDbDispPropsStairPlan100
  3
AecArchDACHBase50|Product Desc: Autodesk Architectural Desktop 2007 |Company: Autodesk,Inc. |WEB Address: www.autodesk.com
 90
      129
 91
        1
280
     0
281
     0
  0
CLASS
  1
AEC_DISP_REP_DOOR_PLAN_HEKTO
  2
AecDbDispRepDoorPlanHekto
  3
AecArchDACHBase50|Product Desc: Autodesk Architectural Desktop 2007 |Company: Autodesk,Inc. |WEB Address: www.autodesk.com
 90
      129
 91
        1
280
     0
281
     0
  0
CLASS
  1
AEC_DISP_PROPS_DOOR_PLAN_100
  2
AecDbDispPropsDoorPlan100
  3
AecArchDACHBase50|Product Desc: Autodesk Architectural Desktop 2007 |Company: Autodesk,Inc. |WEB Address: www.autodesk.com
 90
      129
 91
        1
280
     0
281
     0
  0
CLASS
  1
AEC_DB_DISP_REP_DIM_GROUP_PLAN50
  2
AecDbDispRepDimGroupPlan50
  3
AecArchDACHBase50|Product Desc: Autodesk Architectural Desktop 2007 |Company: Autodesk,Inc. |WEB Address: www.autodesk.com
 90
      129
 91
        1
280
     0
281
     0
  0
CLASS
  1
AEC_DISPREPAECDBDISPREPMASSGROUPPLAN100
  2
AecDbDispRepMassGroupPlan100
  3
AecArchDACHBase50|Product Desc: Autodesk Architectural Desktop 2007 |Company: Autodesk,Inc. |WEB Address: www.autodesk.com
 90
      129
 91
        1
280
     0
281
     0
  0
CLASS
  1
AEC_DISPROPSMASSGROUPPLANCOMMON
  2
AecDbDispPropsMassGroupPlanCommon
  3
AecArchDACHBase50|Product Desc: Autodesk Architectural Desktop 2007 |Company: Autodesk,Inc. |WEB Address: www.autodesk.com
 90
      129
 91
        2
280
     0
281
     0
  0
CLASS
  1
AEC_DISP_REP_WINDOW_PLAN_100
  2
AecDbDispRepWindowPlan100
  3
AecArchDACHBase50|Product Desc: Autodesk Architectural Desktop 2007 |Company: Autodesk,Inc. |WEB Address: www.autodesk.com
 90
      129
 91
        1
280
     0
281
     0
  0
CLASS
  1
AEC_DISP_PROPS_WINDOW_PLAN_100
  2
AecDbDispPropsWindowPlan100
  3
AecArchDACHBase50|Product Desc: Autodesk Architectural Desktop 2007 |Company: Autodesk,Inc. |WEB Address: www.autodesk.com
 90
      129
 91
        1
280
     0
281
     0
  0
CLASS
  1
AEC_DISPREPAECDBDISPREPMASSELEMPLAN50
  2
AecDbDispRepMassElemPlan50
  3
AecArchDACHBase50|Product Desc: Autodesk Architectural Desktop 2007 |Company: Autodesk,Inc. |WEB Address: www.autodesk.com
 90
      129
 91
        1
280
     0
281
     0
  0
CLASS
  1
AEC_DISPROPSMASSELEMPLANCOMMON
  2
AecDbDispPropsMassElemPlanCommon
  3
AecArchDACHBase50|Product Desc: Autodesk Architectural Desktop 2007 |Company: Autodesk,Inc. |WEB Address: www.autodesk.com
 90
      129
 91
        2
280
     0
281
     0
  0
CLASS
  1
AEC_DB_DISP_REP_DIM_GROUP_PLAN100
  2
AecDbDispRepDimGroupPlan100
  3
AecArchDACHBase50|Product Desc: Autodesk Architectural Desktop 2007 |Company: Autodesk,Inc. |WEB Address: www.autodesk.com
 90
      129
 91
        1
280
     0
281
     0
  0
CLASS
  1
AEC_DISPREPAECDBDISPREPMASSELEMPLAN100
  2
AecDbDispRepMassElemPlan100
  3
AecArchDACHBase50|Product Desc: Autodesk Architectural Desktop 2007 |Company: Autodesk,Inc. |WEB Address: www.autodesk.com
 90
      129
 91
        1
280
     0
281
     0
  0
CLASS
  1
AEC_DISP_REP_DOOR_PLAN_50
  2
AecDbDispRepDoorPlan50
  3
AecArchDACHBase50|Product Desc: Autodesk Architectural Desktop 2007 |Company: Autodesk,Inc. |WEB Address: www.autodesk.com
 90
      129
 91
        1
280
     0
281
     0
  0
CLASS
  1
AEC_DISP_PROPS_DOOR_PLAN_50
  2
AecDbDispPropsDoorPlan50
  3
AecArchDACHBase50|Product Desc: Autodesk Architectural Desktop 2007 |Company: Autodesk,Inc. |WEB Address: www.autodesk.com
 90
      129
 91
        1
280
     0
281
     0
  0
CLASS
  1
AEC_DISPREPAECDBDISPREPOPENINGPLANREFLECTED
  2
AecDbDispRepOpeningPlanReflected
  3
AecArchDACHBase50|Product Desc: Autodesk Architectural Desktop 2007 |Company: Autodesk,Inc. |WEB Address: www.autodesk.com
 90
      129
 91
        1
280
     0
281
     0
  0
CLASS
  1
AEC_DISPROPSOPENINGPLANCOMMON
  2
AecDbDispPropsOpeningPlanCommon
  3
AecArchDACHBase50|Product Desc: Autodesk Architectural Desktop 2007 |Company: Autodesk,Inc. |WEB Address: www.autodesk.com
 90
      129
 91
        1
280
     0
281
     0
  0
CLASS
  1
AEC_DISPREPAECDBDISPREPMASSGROUPPLAN50
  2
AecDbDispRepMassGroupPlan50
  3
AecArchDACHBase50|Product Desc: Autodesk Architectural Desktop 2007 |Company: Autodesk,Inc. |WEB Address: www.autodesk.com
 90
      129
 91
        1
280
     0
281
     0
  0
CLASS
  1
AEC_DISPREPAECDBDISPREPOPENINGPLAN50
  2
AecDbDispRepOpeningPlan50
  3
AecArchDACHBase50|Product Desc: Autodesk Architectural Desktop 2007 |Company: Autodesk,Inc. |WEB Address: www.autodesk.com
 90
      129
 91
        1
280
     0
281
     0
  0
CLASS
  1
AEC_DISPROPSOPENINGPLANCOMMONHATCHED
  2
AecDbDispPropsOpeningPlanCommonHatched
  3
AecArchDACHBase50|Product Desc: Autodesk Architectural Desktop 2007 |Company: Autodesk,Inc. |WEB Address: www.autodesk.com
 90
      129
 91
        2
280
     0
281
     0
  0
CLASS
  1
AEC_DISPREPAECDBDISPREPOPENINGSILLPLAN
  2
AecDbDispRepOpeningSillPlan
  3
AecArchDACHBase50|Product Desc: Autodesk Architectural Desktop 2007 |Company: Autodesk,Inc. |WEB Address: www.autodesk.com
 90
      129
 91
        1
280
     0
281
     0
  0
CLASS
  1
AEC_DISPROPSOPENINGSILLPLAN
  2
AecDbDispPropsOpeningSillPlan
  3
AecArchDACHBase50|Product Desc: Autodesk Architectural Desktop 2007 |Company: Autodesk,Inc. |WEB Address: www.autodesk.com
 90
      129
 91
        1
280
     0
281
     0
  0
CLASS
  1
AEC_DISP_REP_WINDOW_PLAN_50
  2
AecDbDispRepWindowPlan50
  3
AecArchDACHBase50|Product Desc: Autodesk Architectural Desktop 2007 |Company: Autodesk,Inc. |WEB Address: www.autodesk.com
 90
      129
 91
        1
280
     0
281
     0
  0
CLASS
  1
AEC_DISP_PROPS_WINDOW_PLAN_50
  2
AecDbDispPropsWindowPlan50
  3
AecArchDACHBase50|Product Desc: Autodesk Architectural Desktop 2007 |Company: Autodesk,Inc. |WEB Address: www.autodesk.com
 90
      129
 91
        1
280
     0
281
     0
  0
CLASS
  1
AEC_DISP_REP_RAILING_PLAN_50
  2
AecDbDispRepRailingPlan50
  3
AecArchDACHBase50|Product Desc: Autodesk Architectural Desktop 2007 |Company: Autodesk,Inc. |WEB Address: www.autodesk.com
 90
      129
 91
        1
280
     0
281
     0
  0
CLASS
  1
AEC_DISP_ROPS_RAILING_PLAN_50
  2
AecDbDispPropsRailingPlan50
  3
AecArchDACHBase50|Product Desc: Autodesk Architectural Desktop 2007 |Company: Autodesk,Inc. |WEB Address: www.autodesk.com
 90
      129
 91
        1
280
     0
281
     0
  0
CLASS
  1
AEC_DISPREPAECDBDISPREPOPENINGPLAN100
  2
AecDbDispRepOpeningPlan100
  3
AecArchDACHBase50|Product Desc: Autodesk Architectural Desktop 2007 |Company: Autodesk,Inc. |WEB Address: www.autodesk.com
 90
      129
 91
        1
280
     0
281
     0
  0
CLASS
  1
AEC_AECDBDISPREPCURTAINWALLUNITPLAN100
  2
AecDbDispRepCurtainWallUnitPlan100
  3
AecArchDACHBase50|Product Desc: Autodesk Architectural Desktop 2007 |Company: Autodesk,Inc. |WEB Address: www.autodesk.com
 90
      129
 91
        1
280
     0
281
     0
  0
CLASS
  1
AEC_AECDBDISPREPSPACEPLAN100
  2
AecDbDispRepSpacePlan100
  3
AecArchDACHBase50|Product Desc: Autodesk Architectural Desktop 2007 |Company: Autodesk,Inc. |WEB Address: www.autodesk.com
 90
      129
 91
        1
280
     0
281
     0
  0
CLASS
  1
AEC_DISP_REP_COLUMN_GRID_RCP
  2
AecDbDispRepColumnGridRcp
  3
AecStructureBase50|Product Desc: Autodesk Architectural Desktop 2007 |Company: Autodesk,Inc. |WEB Address: www.autodesk.com
 90
      129
 91
        1
280
     0
281
     0
  0
CLASS
  1
AEC_AECDBDISPREPBDGELEVLINEPLAN100
  2
AecDbDispRepBdgElevLinePlan100
  3
AecArchDACHBase50|Product Desc: Autodesk Architectural Desktop 2007 |Company: Autodesk,Inc. |WEB Address: www.autodesk.com
 90
      129
 91
        1
280
     0
281
     0
  0
CLASS
  1
AEC_AECDBDISPREPROOFPLAN100
  2
AecDbDispRepRoofPlan100
  3
AecArchDACHBase50|Product Desc: Autodesk Architectural Desktop 2007 |Company: Autodesk,Inc. |WEB Address: www.autodesk.com
 90
      129
 91
        1
280
     0
281
     0
  0
CLASS
  1
AEC_AECDBDISPREPROOFSLABPLAN50
  2
AecDbDispRepRoofSlabPlan50
  3
AecArchDACHBase50|Product Desc: Autodesk Architectural Desktop 2007 |Company: Autodesk,Inc. |WEB Address: www.autodesk.com
 90
      129
 91
        1
280
     0
281
     0
  0
CLASS
  1
AEC_AECDBDISPREPCOLUMNGRIDPLAN50
  2
AecDbDispRepColumnGridPlan50
  3
AecArchDACHBase50|Product Desc: Autodesk Architectural Desktop 2007 |Company: Autodesk,Inc. |WEB Address: www.autodesk.com
 90
      129
 91
        1
280
     0
281
     0
  0
CLASS
  1
AEC_AECDBDISPREPZONE50
  2
AecDbDispRepZonePlan50
  3
AecArchDACHBase50|Product Desc: Autodesk Architectural Desktop 2007 |Company: Autodesk,Inc. |WEB Address: www.autodesk.com
 90
      129
 91
        1
280
     0
281
     0
  0
CLASS
  1
AEC_AECDBDISPREPCURTAINWALLLAYOUTPLAN50
  2
AecDbDispRepCurtainWallLayoutPlan50
  3
AecArchDACHBase50|Product Desc: Autodesk Architectural Desktop 2007 |Company: Autodesk,Inc. |WEB Address: www.autodesk.com
 90
      129
 91
        1
280
     0
281
     0
  0
CLASS
  1
AEC_AECDBDISPREPZONE100
  2
AecDbDispRepZonePlan100
  3
AecArchDACHBase50|Product Desc: Autodesk Architectural Desktop 2007 |Company: Autodesk,Inc. |WEB Address: www.autodesk.com
 90
      129
 91
        1
280
     0
281
     0
  0
CLASS
  1
AEC_AECDBDISPREPMVBLOCKREFPLAN100
  2
AecDbDispRepMvBlockRefPlan100
  3
AecArchDACHBase50|Product Desc: Autodesk Architectural Desktop 2007 |Company: Autodesk,Inc. |WEB Address: www.autodesk.com
 90
      129
 91
        1
280
     0
281
     0
  0
CLASS
  1
AECS_DISP_REP_MEMBER_PLAN_SKETCH
  2
AecsDbDispRepMemberPlanSketch
  3
AecStructureBase50|Product Desc: Autodesk Architectural Desktop 2007 |Company: Autodesk,Inc. |WEB Address: www.autodesk.com
 90
      129
 91
        1
280
     0
281
     0
  0
CLASS
  1
AECS_DISP_PROPS_MEMBER_PLAN_SKETCH
  2
AecsDbDispPropsMemberPlanSketch
  3
AecStructureBase50|Product Desc: Autodesk Architectural Desktop 2007 |Company: Autodesk,Inc. |WEB Address: www.autodesk.com
 90
      129
 91
        1
280
     0
281
     0
  0
CLASS
  1
AECS_DISP_REP_MEMBER_PLAN_DETAIL
  2
AecsDbDispRepMemberPlanDetail
  3
AecStructureBase50|Product Desc: Autodesk Architectural Desktop 2007 |Company: Autodesk,Inc. |WEB Address: www.autodesk.com
 90
      129
 91
        1
280
     0
281
     0
  0
CLASS
  1
AEC_AECDBDISPREPBDGSECTIONLINEPLAN50
  2
AecDbDispRepBdgSectionLinePlan50
  3
AecArchDACHBase50|Product Desc: Autodesk Architectural Desktop 2007 |Company: Autodesk,Inc. |WEB Address: www.autodesk.com
 90
      129
 91
        1
280
     0
281
     0
  0
CLASS
  1
AEC_AECDBDISPREPCEILINGGRIDPLAN50
  2
AecDbDispRepCeilingGridPlan50
  3
AecArchDACHBase50|Product Desc: Autodesk Architectural Desktop 2007 |Company: Autodesk,Inc. |WEB Address: www.autodesk.com
 90
      129
 91
        1
280
     0
281
     0
  0
CLASS
  1
AECS_DISP_REP_MEMBER_ELEVATION_DESIGN
  2
AecsDbDispRepMemberElevationDesign
  3
AecStructureBase50|Product Desc: Autodesk Architectural Desktop 2007 |Company: Autodesk,Inc. |WEB Address: www.autodesk.com
 90
      129
 91
        1
280
     0
281
     0
  0
CLASS
  1
AECS_DISP_PROPS_MEMBER_PROJECTED
  2
AecsDbDispPropsMemberProjected
  3
AecStructureBase50|Product Desc: Autodesk Architectural Desktop 2007 |Company: Autodesk,Inc. |WEB Address: www.autodesk.com
 90
      129
 91
        2
280
     0
281
     0
  0
CLASS
  1
AEC_AECDBDISPREPWALLPLAN50
  2
AecDbDispRepWallPlan50
  3
AecArchDACHBase50|Product Desc: Autodesk Architectural Desktop 2007 |Company: Autodesk,Inc. |WEB Address: www.autodesk.com
 90
      129
 91
        1
280
     0
281
     0
  0
CLASS
  1
AEC_AECDBDISPREPSPACEPLAN50
  2
AecDbDispRepSpacePlan50
  3
AecArchDACHBase50|Product Desc: Autodesk Architectural Desktop 2007 |Company: Autodesk,Inc. |WEB Address: www.autodesk.com
 90
      129
 91
        1
280
     0
281
     0
  0
CLASS
  1
AEC_AECDBDISPREPWALLPLAN100
  2
AecDbDispRepWallPlan100
  3
AecArchDACHBase50|Product Desc: Autodesk Architectural Desktop 2007 |Company: Autodesk,Inc. |WEB Address: www.autodesk.com
 90
      129
 91
        1
280
     0
281
     0
  0
CLASS
  1
AEC_AECDBDISPREPCURTAINWALLUNITPLAN50
  2
AecDbDispRepCurtainWallUnitPlan50
  3
AecArchDACHBase50|Product Desc: Autodesk Architectural Desktop 2007 |Company: Autodesk,Inc. |WEB Address: www.autodesk.com
 90
      129
 91
        1
280
     0
281
     0
  0
CLASS
  1
AECS_DISP_REP_MEMBER_ELEVATION_DETAIL
  2
AecsDbDispRepMemberElevationDetail
  3
AecStructureBase50|Product Desc: Autodesk Architectural Desktop 2007 |Company: Autodesk,Inc. |WEB Address: www.autodesk.com
 90
      129
 91
        1
280
     0
281
     0
  0
CLASS
  1
AECS_DISP_REP_MEMBER_MODEL_DETAIL
  2
AecsDbDispRepMemberModelDetail
  3
AecStructureBase50|Product Desc: Autodesk Architectural Desktop 2007 |Company: Autodesk,Inc. |WEB Address: www.autodesk.com
 90
      129
 91
        1
280
     0
281
     0
  0
CLASS
  1
AEC_AECDBDISPREPCEILINGGRIDPLAN100
  2
AecDbDispRepCeilingGridPlan100
  3
AecArchDACHBase50|Product Desc: Autodesk Architectural Desktop 2007 |Company: Autodesk,Inc. |WEB Address: www.autodesk.com
 90
      129
 91
        1
280
     0
281
     0
  0
CLASS
  1
AEC_AECDBDISPREPBDGSECTIONLINEPLAN100
  2
AecDbDispRepBdgSectionLinePlan100
  3
AecArchDACHBase50|Product Desc: Autodesk Architectural Desktop 2007 |Company: Autodesk,Inc. |WEB Address: www.autodesk.com
 90
      129
 91
        1
280
     0
281
     0
  0
CLASS
  1
AEC_DISP_REP_ANCHOR_BUB_TO_GRID_RCP
  2
AecDbDispRepAnchorBubToGridRcp
  3
AecStructureBase50|Product Desc: Autodesk Architectural Desktop 2007 |Company: Autodesk,Inc. |WEB Address: www.autodesk.com
 90
      129
 91
        1
280
     0
281
     0
  0
CLASS
  1
AEC_AECDBDISPREPBDGELEVLINEPLAN50
  2
AecDbDispRepBdgElevLinePlan50
  3
AecArchDACHBase50|Product Desc: Autodesk Architectural Desktop 2007 |Company: Autodesk,Inc. |WEB Address: www.autodesk.com
 90
      129
 91
        1
280
     0
281
     0
  0
CLASS
  1
AEC_AECDBDISPREPWINDOWASSEMBLYPLAN50
  2
AecDbDispRepWindowAssemblyPlan50
  3
AecArchDACHBase50|Product Desc: Autodesk Architectural Desktop 2007 |Company: Autodesk,Inc. |WEB Address: www.autodesk.com
 90
      129
 91
        1
280
     0
281
     0
  0
CLASS
  1
AEC_AECDBDISPREPROOFSLABPLAN100
  2
AecDbDispRepRoofSlabPlan100
  3
AecArchDACHBase50|Product Desc: Autodesk Architectural Desktop 2007 |Company: Autodesk,Inc. |WEB Address: www.autodesk.com
 90
      129
 91
        1
280
     0
281
     0
  0
CLASS
  1
AEC_AECDBDISPREPROOFPLAN50
  2
AecDbDispRepRoofPlan50
  3
AecArchDACHBase50|Product Desc: Autodesk Architectural Desktop 2007 |Company: Autodesk,Inc. |WEB Address: www.autodesk.com
 90
      129
 91
        1
280
     0
281
     0
  0
CLASS
  1
AEC_AECDBDISPREPCOLUMNGRIDPLAN100
  2
AecDbDispRepColumnGridPlan100
  3
AecArchDACHBase50|Product Desc: Autodesk Architectural Desktop 2007 |Company: Autodesk,Inc. |WEB Address: www.autodesk.com
 90
      129
 91
        1
280
     0
281
     0
  0
CLASS
  1
AEC_AECDBDISPREPSLABPLAN50
  2
AecDbDispRepSlabPlan50
  3
AecArchDACHBase50|Product Desc: Autodesk Architectural Desktop 2007 |Company: Autodesk,Inc. |WEB Address: www.autodesk.com
 90
      129
 91
        1
280
     0
281
     0
  0
CLASS
  1
AEC_AECDBDISPREPSLABPLAN100
  2
AecDbDispRepSlabPlan100
  3
AecArchDACHBase50|Product Desc: Autodesk Architectural Desktop 2007 |Company: Autodesk,Inc. |WEB Address: www.autodesk.com
 90
      129
 91
        1
280
     0
281
     0
  0
CLASS
  1
AEC_AECDBDISPREPCURTAINWALLLAYOUTPLAN100
  2
AecDbDispRepCurtainWallLayoutPlan100
  3
AecArchDACHBase50|Product Desc: Autodesk Architectural Desktop 2007 |Company: Autodesk,Inc. |WEB Address: www.autodesk.com
 90
      129
 91
        1
280
     0
281
     0
  0
CLASS
  1
AEC_AECDBDISPREPMVBLOCKREFPLAN50
  2
AecDbDispRepMvBlockRefPlan50
  3
AecArchDACHBase50|Product Desc: Autodesk Architectural Desktop 2007 |Company: Autodesk,Inc. |WEB Address: www.autodesk.com
 90
      129
 91
        1
280
     0
281
     0
  0
CLASS
  1
AEC_DISP_REP_WINDOW_ELEV
  2
AecDbDispRepWindowElev
  3
AecArchBase50|Product Desc: Autodesk Architectural Desktop 2007 |Company: Autodesk,Inc. |WEB Address: www.autodesk.com
 90
      129
 91
        1
280
     0
281
     0
  0
CLASS
  1
AEC_DISP_REP_WINDOW_SILL_PLAN
  2
AecDbDispRepWindowSillPlan
  3
AecArchBase50|Product Desc: Autodesk Architectural Desktop 2007 |Company: Autodesk,Inc. |WEB Address: www.autodesk.com
 90
      129
 91
        1
280
     0
281
     0
  0
CLASS
  1
AEC_DISP_PROPS_WINDOW_SILL_PLAN
  2
AecDbDispPropsWindowSillPlan
  3
AecArchBase50|Product Desc: Autodesk Architectural Desktop 2007 |Company: Autodesk,Inc. |WEB Address: www.autodesk.com
 90
      129
 91
        1
280
     0
281
     0
  0
CLASS
  1
AEC_DISP_REP_WINDOW_RCP
  2
AecDbDispRepWindowRcp
  3
AecArchBase50|Product Desc: Autodesk Architectural Desktop 2007 |Company: Autodesk,Inc. |WEB Address: www.autodesk.com
 90
      129
 91
        1
280
     0
281
     0
  0
CLASS
  1
AEC_DISP_REP_WINDOWASSEMBLY_SILL_PLAN
  2
AecDbDispRepWindowAssemblySillPlan
  3
AecArchBase50|Product Desc: Autodesk Architectural Desktop 2007 |Company: Autodesk,Inc. |WEB Address: www.autodesk.com
 90
      129
 91
        1
280
     0
281
     0
  0
CLASS
  1
AEC_DISP_PROPS_WINDOW_ASSEMBLY_SILL_PLAN
  2
AecDbDispPropsWindowAssemblySillPlan
  3
AecArchBase50|Product Desc: Autodesk Architectural Desktop 2007 |Company: Autodesk,Inc. |WEB Address: www.autodesk.com
 90
      129
 91
        1
280
     0
281
     0
  0
CLASS
  1
AEC_DISP_REP_MASS_ELEM_RCP
  2
AecDbDispRepMassElemRcp
  3
AecArchBase50|Product Desc: Autodesk Architectural Desktop 2007 |Company: Autodesk,Inc. |WEB Address: www.autodesk.com
 90
      129
 91
        1
280
     0
281
     0
  0
CLASS
  1
AEC_DISP_REP_MVBLOCK_REF_RCP
  2
AecDbDispRepMvBlockRefRcp
  3
AecArchBase50|Product Desc: Autodesk Architectural Desktop 2007 |Company: Autodesk,Inc. |WEB Address: www.autodesk.com
 90
      129
 91
        1
280
     0
281
     0
  0
CLASS
  1
AEC_DISP_REP_DOOR_THRESHOLD_PLAN
  2
AecDbDispRepDoorThresholdPlan
  3
AecArchBase50|Product Desc: Autodesk Architectural Desktop 2007 |Company: Autodesk,Inc. |WEB Address: www.autodesk.com
 90
      129
 91
        1
280
     0
281
     0
  0
CLASS
  1
AEC_DISP_PROPS_DOOR_THRESHOLD_PLAN
  2
AecDbDispPropsDoorThresholdPlan
  3
AecArchBase50|Product Desc: Autodesk Architectural Desktop 2007 |Company: Autodesk,Inc. |WEB Address: www.autodesk.com
 90
      129
 91
        1
280
     0
281
     0
  0
CLASS
  1
AEC_DISP_REP_BDG_SECTIONLINE_RCP
  2
AecDbDispRepBdgSectionLineRcp
  3
AecArchBase50|Product Desc: Autodesk Architectural Desktop 2007 |Company: Autodesk,Inc. |WEB Address: www.autodesk.com
 90
      129
 91
        1
280
     0
281
     0
  0
CLASS
  1
AEC_DISP_REP_BDG_SECTION_MODEL
  2
AecDbDispRepBdgSectionModel
  3
AecArchBase50|Product Desc: Autodesk Architectural Desktop 2007 |Company: Autodesk,Inc. |WEB Address: www.autodesk.com
 90
      129
 91
        1
280
     0
281
     0
  0
CLASS
  1
AEC_DISP_REP_MASS_GROUP_RCP
  2
AecDbDispRepMassGroupRcp
  3
AecArchBase50|Product Desc: Autodesk Architectural Desktop 2007 |Company: Autodesk,Inc. |WEB Address: www.autodesk.com
 90
      129
 91
        1
280
     0
281
     0
  0
CLASS
  1
AEC_DISP_REP_DOOR_RCP
  2
AecDbDispRepDoorRcp
  3
AecArchBase50|Product Desc: Autodesk Architectural Desktop 2007 |Company: Autodesk,Inc. |WEB Address: www.autodesk.com
 90
      129
 91
        1
280
     0
281
     0
  0
CLASS
  1
AEC_DISP_REP_ROOF_RCP
  2
AecDbDispRepRoofRcp
  3
AecArchBase50|Product Desc: Autodesk Architectural Desktop 2007 |Company: Autodesk,Inc. |WEB Address: www.autodesk.com
 90
      129
 91
        1
280
     0
281
     0
  0
CLASS
  1
AEC_DISP_REP_BDG_ELEVLINE_RCP
  2
AecDbDispRepBdgElevLineRcp
  3
AecArchBase50|Product Desc: Autodesk Architectural Desktop 2007 |Company: Autodesk,Inc. |WEB Address: www.autodesk.com
 90
      129
 91
        1
280
     0
281
     0
  0
CLASS
  1
AEC_DISP_REP_WALL_RCP
  2
AecDbDispRepWallRcp
  3
AecArchBase50|Product Desc: Autodesk Architectural Desktop 2007 |Company: Autodesk,Inc. |WEB Address: www.autodesk.com
 90
      129
 91
        1
280
     0
281
     0
  0
CLASS
  1
AEC_DISP_REP_STAIR_RCP
  2
AecDbDispRepStairRcp
  3
AecArchBase50|Product Desc: Autodesk Architectural Desktop 2007 |Company: Autodesk,Inc. |WEB Address: www.autodesk.com
 90
      129
 91
        1
280
     0
281
     0
  0
CLASS
  1
AEC_DISP_REP_STAIR_PLAN_OVERLAPPING
  2
AecDbDispRepStairPlanOverlapping
  3
AecArchBase50|Product Desc: Autodesk Architectural Desktop 2007 |Company: Autodesk,Inc. |WEB Address: www.autodesk.com
 90
      129
 91
        1
280
     0
281
     0
  0
CLASS
  1
AEC_DISP_PROPS_STAIR_PLAN_OVERLAPPING
  2
AecDbDispPropsStairPlanOverlapping
  3
AecArchBase50|Product Desc: Autodesk Architectural Desktop 2007 |Company: Autodesk,Inc. |WEB Address: www.autodesk.com
 90
      129
 91
        1
280
     0
281
     0
  0
CLASS
  1
AEC_DISP_REP_SPACE_RCP
  2
AecDbDispRepSpaceRcp
  3
AecArchBase50|Product Desc: Autodesk Architectural Desktop 2007 |Company: Autodesk,Inc. |WEB Address: www.autodesk.com
 90
      129
 91
        1
280
     0
281
     0
  0
CLASS
  1
AEC_DISP_REP_SPACE_VOLUME
  2
AecDbDispRepSpaceVolume
  3
AecArchBase50|Product Desc: Autodesk Architectural Desktop 2007 |Company: Autodesk,Inc. |WEB Address: www.autodesk.com
 90
      129
 91
        1
280
     0
281
     0
  0
CLASS
  1
AEC_DISP_REP_DOOR_ELEV
  2
AecDbDispRepDoorElev
  3
AecArchBase50|Product Desc: Autodesk Architectural Desktop 2007 |Company: Autodesk,Inc. |WEB Address: www.autodesk.com
 90
      129
 91
        1
280
     0
281
     0
  0
CLASS
  1
AEC_DISP_REP_ANCHOR_EXT_TAG_TO_ENT
  2
AecDbDispRepAnchorExtendedTagToEnt
  3
AecScheduleData50|Product Desc: Autodesk Architectural Desktop 2007 |Company: Autodesk,Inc. |WEB Address: www.autodesk.com
 90
      129
 91
        1
280
     0
281
     0
  0
CLASS
  1
AEC_DISP_REP_ANCHOR
  2
AecDbDispRepAnchor
  3
AecBase50|Product Desc: Autodesk Architectural Desktop 2007 |Company: Autodesk,Inc. |WEB Address: www.autodesk.com
 90
      129
 91
        1
280
     0
281
     0
  0
CLASS
  1
AEC_DISP_REP_POLYGON_TRUECOLOUR
  2
AecDbDispRepPolygonTrueColour
  3
AecBaseEx50|Product Desc: Autodesk Architectural Desktop 2007 |Company: Autodesk,Inc. |WEB Address: www.autodesk.com
 90
      129
 91
        1
280
     0
281
     0
  0
CLASS
  1
AEC_DISP_PROPS_POLYGON_TRUECOLOUR
  2
AecDbDispPropsPolygonTrueColour
  3
AecBaseEx50|Product Desc: Autodesk Architectural Desktop 2007 |Company: Autodesk,Inc. |WEB Address: www.autodesk.com
 90
      129
 91
        1
280
     0
281
     0
  0
CLASS
  1
BINRECORD
  2
AcAecBinRecord
  3
AecBase50|Product Desc: Autodesk Architectural Desktop 2007 |Company: Autodesk,Inc. |WEB Address: www.autodesk.com
 90
      129
 91
        1
280
     0
281
     0
  0
CLASS
  1
ACSH_SPHERE_CLASS
  2
AcDbShSphere
  3
ObjectDBX Classes
 90
     1153
 91
        0
280
     0
281
     0
  0
CLASS
  1
ACSH_HISTORY_CLASS
  2
AcDbShHistory
  3
ObjectDBX Classes
 90
     1153
 91
        0
280
     0
281
     0
  0
CLASS
  1
SOLID_BACKGROUND
  2
AcDbSolidBackground
  3
SCENEOE
 90
     4095
 91
        0
280
     0
281
     0
  0
CLASS
  1
ACSH_BOX_CLASS
  2
AcDbShBox
  3
ObjectDBX Classes
 90
     1153
 91
        0
280
     0
281
     0
  0
CLASS
  1
ACSH_CONE_CLASS
  2
AcDbShCone
  3
ObjectDBX Classes
 90
     1153
 91
        0
280
     0
281
     0
  0
CLASS
  1
ACSH_TORUS_CLASS
  2
AcDbShTorus
  3
ObjectDBX Classes
 90
     1153
 91
        0
280
     0
281
     0
  0
CLASS
  1
HELIX
  2
AcDbHelix
  3
ObjectDBX Classes
 90
     4095
 91
        0
280
     0
281
     1
  0
CLASS
  1
ACSH_SWEEP_CLASS
  2
AcDbShSweep
  3
ObjectDBX Classes
 90
     1153
 91
        0
280
     0
281
     0
  0
CLASS
  1
EXACXREFPANELOBJECT
  2
ExAcXREFPanelObject
  3
EXAC_ESW
 90
     1025
 91
        1
280
     0
281
     0
  0
CLASS
  1
FIELD
  2
AcDbField
  3
ObjectDBX Classes
 90
     1152
 91
        0
280
     0
281
     0
  0
CLASS
  1
IMAGE
  2
AcDbRasterImage
  3
ISM
 90
     2175
 91
        0
280
     0
281
     1
  0
CLASS
  1
IMAGEDEF_REACTOR
  2
AcDbRasterImageDefReactor
  3
ISM
 90
        1
 91
        0
280
     0
281
     0
  0
CLASS
  1
IMAGEDEF
  2
AcDbRasterImageDef
  3
ISM
 90
        0
 91
        0
280
     0
281
     0
  0
CLASS
  1
FIELDLIST
  2
AcDbFieldList
  3
ObjectDBX Classes
 90
     1152
 91
        1
280
     0
281
     0
  0
CLASS
  1
RASTERVARIABLES
  2
AcDbRasterVariables
  3
ISM
 90
        0
 91
        1
280
     0
281
     0
  0
CLASS
  1
EXACTERMXREFMAP
  2
ExAcTermXrefMap
  3
EXAC_SERVICE
 90
     1025
 91
        0
280
     0
281
     0
  0
CLASS
  1
ACDB_MTEXTOBJECTCONTEXTDATA_CLASS
  2
AcDbMTextObjectContextData
  3
ObjectDBX Classes
 90
     1153
 91
       15
280
     0
281
     0
  0
CLASS
  1
ACAECUSTOBJ
  2
AcAeEditorObj
  3
AcAeEditorObj
 90
     1024
 91
        0
280
     0
281
     0
  0
CLASS
  1
ACDB_HATCHVIEWCONTEXTDATA_CLASS
  2
AcDbHatchViewContextData
  3
ObjectDBX Classes
 90
     1153
 91
        0
280
     0
281
     0
  0
CLASS
  1
ACDB_HATCHSCALECONTEXTDATA_CLASS
  2
AcDbHatchScaleContextData
  3
ObjectDBX Classes
 90
     1153
 91
        0
280
     0
281
     0
  0
ENDSEC
  0
SECTION
  2
TABLES
  0
TABLE
  2
VPORT
  5
8
330
0
100
AcDbSymbolTable
 70
     1
  0
VPORT
  5
215
330
8
100
AcDbSymbolTableRecord
100
AcDbViewportTableRecord
  2
*Active
 70
     0
 10
0.0
 20
0.0
 11
1.0
 21
1.0
 12
-129.7245538591949
 22
28.23593782427489
 13
0.0
 23
0.0
 14
0.5
 24
0.5
 15
0.5
 25
0.5
 16
0.0
 26
0.0
 36
506.6644142278971
 17
120.0886600198171
 27
173.4779415605293
 37
481.3071417340059
 40
505.6476350653762
 41
1.950939457202505
 42
50.0
 43
0.0
 44
0.0
 50
0.0
 51
0.0
 71
     0
 72
  1000
 73
     1
 74
     3
 75
     0
 76
     0
 77
     0
 78
     0
281
     0
 65
     0
110
0.0
120
0.0
130
0.0
111
1.0
121
0.0
131
0.0
112
0.0
122
1.0
132
0.0
 79
     0
146
0.0
348
220
 60
     3
 61
     5
292
     1
282
     1
141
0.0
142
0.0
 63
   250
421
  3355443
  0
ENDTAB
  0
TABLE
  2
LTYPE
  5
5
330
0
100
AcDbSymbolTable
 70
     4
  0
LTYPE
  5
14
330
5
100
AcDbSymbolTableRecord
100
AcDbLinetypeTableRecord
  2
ByBlock
 70
     0
  3

 72
    65
 73
     0
 40
0.0
  0
LTYPE
  5
15
330
5
100
AcDbSymbolTableRecord
100
AcDbLinetypeTableRecord
  2
ByLayer
 70
     0
  3

 72
    65
 73
     0
 40
0.0
  0
LTYPE
  5
16
330
5
100
AcDbSymbolTableRecord
100
AcDbLinetypeTableRecord
  2
Continuous
 70
     0
  3
Solid line
 72
    65
 73
     0
 40
0.0
  0
LTYPE
  5
CD07
330
5
100
AcDbSymbolTableRecord
100
AcDbLinetypeTableRecord
  2
DASHED
 70
     0
  3
Dashed __ __ __ __ __ __ __ __ __ __ __ __ __ _
 72
    65
 73
     2
 40
0.75
 49
0.5
 74
     0
 49
-0.25
 74
     0
  0
LTYPE
  5
CD08
330
5
100
AcDbSymbolTableRecord
100
AcDbLinetypeTableRecord
  2
CENTER
 70
     0
  3
Center ____ _ ____ _ ____ _ ____ _ ____ _ ____
 72
    65
 73
     4
 40
2.0
 49
1.25
 74
     0
 49
-0.25
 74
     0
 49
0.25
 74
     0
 49
-0.25
 74
     0
  0
LTYPE
  5
CD09
330
5
100
AcDbSymbolTableRecord
100
AcDbLinetypeTableRecord
  2
HIDDEN
 70
     0
  3
Hidden __ __ __ __ __ __ __ __ __ __ __ __ __ _
 72
    65
 73
     2
 40
0.375
 49
0.25
 74
     0
 49
-0.125
 74
     0
  0
ENDTAB
  0
TABLE
  2
LAYER
  5
2
102
{ACAD_XDICTIONARY
360
28F
102
}
330
0
100
AcDbSymbolTable
 70
    39
  0
LAYER
  5
10
102
{ACAD_XDICTIONARY
360
308
102
}
330
2
100
AcDbSymbolTableRecord
100
AcDbLayerTableRecord
  2
0
 70
     0
 62
     7
  6
Continuous
370
    -3
390
F
347
219
  0
LAYER
  5
37D
102
{ACAD_XDICTIONARY
360
37E
102
}
330
2
100
AcDbSymbolTableRecord
100
AcDbLayerTableRecord
  2
defpoints
 70
     0
 62
     4
  6
Continuous
290
     0
370
    -3
390
F
347
219
  0
LAYER
  5
C6D3
330
2
100
AcDbSymbolTableRecord
100
AcDbLayerTableRecord
  2
MP Annotation (00134142)
 70
     0
 62
     7
  6
Continuous
370
     0
390
F
347
219
  0
LAYER
  5
CF59
102
{ACAD_XDICTIONARY
360
CF5A
102
}
330
2
100
AcDbSymbolTableRecord
100
AcDbLayerTableRecord
  2
Timber Perimeter (00134144)
 70
     0
 62
    33
420
 11965012
  6
Continuous
370
    25
390
F
347
219
  0
LAYER
  5
CF5F
102
{ACAD_XDICTIONARY
360
CF60
102
}
330
2
100
AcDbSymbolTableRecord
100
AcDbLayerTableRecord
  2
Detail Line Breaks (00134164)
 70
     0
 62
   252
420
  7968395
  6
Continuous
370
    -3
390
F
347
219
  0
LAYER
  5
CFB6
102
{ACAD_XDICTIONARY
360
CFB7
102
}
330
2
100
AcDbSymbolTableRecord
100
AcDbLayerTableRecord
  2
MASONS Barricade Building Wrap Perimeter (00134139)
 70
     0
 62
   142
420
   434907
  6
CENTER
370
    40
390
F
347
219
  0
LAYER
  5
CFBA
102
{ACAD_XDICTIONARY
360
CFBB
102
}
330
2
100
AcDbSymbolTableRecord
100
AcDbLayerTableRecord
  2
Timber Inner (00134145)
 70
     0
 62
    36
420
  7163415
  6
Continuous
370
     9
390
F
347
219
  0
LAYER
  5
CFBC
102
{ACAD_XDICTIONARY
360
CFBD
102
}
330
2
100
AcDbSymbolTableRecord
100
AcDbLayerTableRecord
  2
MASONS Render & Coating System Perimeter (00134155)
 70
     0
 62
     8
420
  8224125
  6
Continuous
370
    25
390
F
347
219
  0
LAYER
  5
CFBE
102
{ACAD_XDICTIONARY
360
CFBF
102
}
330
2
100
AcDbSymbolTableRecord
100
AcDbLayerTableRecord
  2
MASONS Render & Coating System Hatch (00134156)
 70
     0
 62
   250
420
  3289650
  6
Continuous
370
    25
390
F
347
219
  0
LAYER
  5
CFC0
102
{ACAD_XDICTIONARY
360
CFC1
102
}
330
2
100
AcDbSymbolTableRecord
100
AcDbLayerTableRecord
  2
MASONS Render & Coating System Inner lines (00134157)
 70
     0
 62
     8
420
  8224125
  6
DASHED
370
    -3
390
F
347
219
  0
LAYER
  5
CFC2
102
{ACAD_XDICTIONARY
360
CFC3
102
}
330
2
100
AcDbSymbolTableRecord
100
AcDbLayerTableRecord
  2
MASONS Dryfix DPC Perimeter (00134138)
 70
     0
 62
    16
420
  8716288
  6
DASHED
370
    -3
390
F
347
219
  0
LAYER
  5
CFC4
102
{ACAD_XDICTIONARY
360
CFC5
102
}
330
2
100
AcDbSymbolTableRecord
100
AcDbLayerTableRecord
  2
Detail Concrete Perimeter (00134151)
 70
     0
 62
   253
420
 10724259
  6
Continuous
370
    -3
390
F
347
219
  0
LAYER
  5
CFC6
102
{ACAD_XDICTIONARY
360
CFC7
102
}
330
2
100
AcDbSymbolTableRecord
100
AcDbLayerTableRecord
  2
Detail Concrete Hatch (00134152)
 70
     0
 62
    49
420
  4671303
  6
Continuous
370
    -3
390
F
347
219
  0
LAYER
  5
CFC8
102
{ACAD_XDICTIONARY
360
CFC9
102
}
330
2
100
AcDbSymbolTableRecord
100
AcDbLayerTableRecord
  2
Detail Ground Perimeter (00134162)
 70
     0
 62
    75
420
  7707981
  6
Continuous
370
    -3
390
F
347
219
  0
LAYER
  5
CFCA
102
{ACAD_XDICTIONARY
360
CFCB
102
}
330
2
100
AcDbSymbolTableRecord
100
AcDbLayerTableRecord
  2
Detail Ground Hatch (00134163)
 70
     0
 62
    59
420
  4875057
  6
Continuous
370
    -3
390
F
347
219
  0
LAYER
  5
CFCC
102
{ACAD_XDICTIONARY
360
CFCD
102
}
330
2
100
AcDbSymbolTableRecord
100
AcDbLayerTableRecord
  2
MASONS Plaster Perimeter (00134237)
 70
     0
 62
    31
420
 14535058
  6
Continuous
370
    -3
390
F
347
219
  0
LAYER
  5
D041
102
{ACAD_XDICTIONARY
360
D042
102
}
330
2
100
AcDbSymbolTableRecord
100
AcDbLayerTableRecord
  2
Detail Linning Inner Perimeter (00134146)
 70
     0
 62
   185
420
  6509198
  6
Continuous
370
    -3
390
F
347
219
  0
LAYER
  5
D043
102
{ACAD_XDICTIONARY
360
D044
102
}
330
2
100
AcDbSymbolTableRecord
100
AcDbLayerTableRecord
  2
Detail Linning Inner Hatch (00134147)
 70
     0
 62
   199
420
  3945048
  6
Continuous
370
    -3
390
F
347
219
  0
LAYER
  5
D114
102
{ACAD_XDICTIONARY
360
D115
102
}
330
2
100
AcDbSymbolTableRecord
100
AcDbLayerTableRecord
  2
Detail Brick Veneer Perimeter (00134240)
 70
     0
 62
    11
420
 16741703
  6
Continuous
370
    -3
390
F
347
219
  0
LAYER
  5
D2C6
330
2
100
AcDbSymbolTableRecord
100
AcDbLayerTableRecord
  2
Detail Flexible Sealant Perimeter (00134153)
 70
     0
 62
     1
420
 15601940
  6
Continuous
370
    -3
390
F
347
219
  0
LAYER
  5
D2C7
330
2
100
AcDbSymbolTableRecord
100
AcDbLayerTableRecord
  2
Detail Flexible Sealant Hatch (00134154)
 70
     0
 62
    14
420
 10027008
  6
Continuous
370
    -3
390
F
347
219
  0
LAYER
  5
D473
330
2
100
AcDbSymbolTableRecord
100
AcDbLayerTableRecord
  2
MP Hidden Lines (00134167)
 70
     0
 62
     8
420
  8224125
  6
HIDDEN
370
    -3
390
F
347
219
  0
LAYER
  5
D543
330
2
100
AcDbSymbolTableRecord
100
AcDbLayerTableRecord
  2
mp001455$0$MP Annotation (00134142)
 70
     0
 62
     7
  6
Continuous
370
     0
390
F
347
219
  0
LAYER
  5
D923
330
2
100
AcDbSymbolTableRecord
100
AcDbLayerTableRecord
  2
MP Grout or Mortar Hatch (00038171)
 70
     0
 62
    13
420
 11497578
  6
Continuous
370
    -3
390
F
347
219
  0
LAYER
  5
D924
330
2
100
AcDbSymbolTableRecord
100
AcDbLayerTableRecord
  2
MP Grout or Mortar Perimeter (00038172)
 70
     0
 62
    15
420
 11617093
  6
Continuous
370
    -3
390
F
347
219
  0
LAYER
  5
D9DF
102
{ACAD_XDICTIONARY
360
D9E0
102
}
330
2
100
AcDbSymbolTableRecord
100
AcDbLayerTableRecord
  2
Inulation (00134150)
 70
     0
 62
    32
420
 11753728
  6
Continuous
370
     0
390
F
347
219
  0
LAYER
  5
DAE5
330
2
100
AcDbSymbolTableRecord
100
AcDbLayerTableRecord
  2
mp001460$0$MP Annotation (00134142)
 70
     0
 62
     7
  6
Continuous
370
     0
390
F
347
219
  0
LAYER
  5
E119
102
{ACAD_XDICTIONARY
360
E11A
102
}
330
2
100
AcDbSymbolTableRecord
100
AcDbLayerTableRecord
  2
mp001456$0$Fixings (00134143)
 70
     0
 62
     9
420
 11131584
  6
Continuous
370
     5
390
F
347
219
  0
LAYER
  5
FF31
330
2
100
AcDbSymbolTableRecord
100
AcDbLayerTableRecord
  2
mp001491$0$MP Hidden Lines (00134167)
 70
     0
 62
     7
  6
Continuous
370
    -3
390
F
347
219
  0
LAYER
  5
101B7
102
{ACAD_XDICTIONARY
360
101B8
102
}
330
2
100
AcDbSymbolTableRecord
100
AcDbLayerTableRecord
  2
MP Annotation (00134142) @ 2
 70
     0
 62
     7
  6
Continuous
370
     0
390
F
347
219
1001
AcadAnnotativeDecomposition
1000
AnnotativeData
1002
{
1070
     1
1070
     1
1002
}
  0
LAYER
  5
101C5
102
{ACAD_XDICTIONARY
360
101C6
102
}
330
2
100
AcDbSymbolTableRecord
100
AcDbLayerTableRecord
  2
mp001455$0$MP Annotation (00134142) @ 2
 70
     0
 62
     7
  6
Continuous
370
     0
390
F
347
219
1001
AcadAnnotativeDecomposition
1000
AnnotativeData
1002
{
1070
     1
1070
     1
1002
}
  0
LAYER
  5
101CE
102
{ACAD_XDICTIONARY
360
101CF
102
}
330
2
100
AcDbSymbolTableRecord
100
AcDbLayerTableRecord
  2
mp001455$0$MP Annotation (00134142) @ 5
 70
     0
 62
     7
  6
Continuous
370
     0
390
F
347
219
1001
AcadAnnotativeDecomposition
1000
AnnotativeData
1002
{
1070
     1
1070
     1
1002
}
  0
LAYER
  5
101DB
102
{ACAD_XDICTIONARY
360
101DC
102
}
330
2
100
AcDbSymbolTableRecord
100
AcDbLayerTableRecord
  2
mp001460$0$MP Annotation (00134142) @ 2
 70
     0
 62
     7
  6
Continuous
370
     0
390
F
347
219
1001
AcadAnnotativeDecomposition
1000
AnnotativeData
1002
{
1070
     1
1070
     1
1002
}
  0
LAYER
  5
101E4
102
{ACAD_XDICTIONARY
360
101E5
102
}
330
2
100
AcDbSymbolTableRecord
100
AcDbLayerTableRecord
  2
mp001460$0$MP Annotation (00134142) @ 5
 70
     0
 62
     7
  6
Continuous
370
     0
390
F
347
219
1001
AcadAnnotativeDecomposition
1000
AnnotativeData
1002
{
1070
     1
1070
     1
1002
}
  0
ENDTAB
  0
TABLE
  2
STYLE
  5
3
330
0
100
AcDbSymbolTable
 70
     6
  0
STYLE
  5
11
330
3
100
AcDbSymbolTableRecord
100
AcDbTextStyleTableRecord
  2
Standard
 70
     0
 40
0.0
 41
1.0
 50
0.0
 71
     0
 42
19.36617472281852
  3
ARIAL.TTF
  4

1001
ACAD
1000
Arial
1071
       34
  0
STYLE
  5
37F
330
3
100
AcDbSymbolTableRecord
100
AcDbTextStyleTableRecord
  2
x01
 70
     0
 40
2.0
 41
1.0
 50
0.0
 71
     0
 42
2.0
  3
txt.shx
  4

1001
AcadAnnotative
1000
AnnotativeData
1002
{
1070
     1
1070
     1
1002
}
  0
STYLE
  5
380
330
3
100
AcDbSymbolTableRecord
100
AcDbTextStyleTableRecord
  2
2mm
 70
     0
 40
2.0
 41
1.0
 50
0.0
 71
     0
 42
2.0
  3
ARIAL.TTF
  4

1001
AcadAnnotative
1000
AnnotativeData
1002
{
1070
     1
1070
     1
1002
}
1001
ACAD
1000
Arial
1071
       34
  0
STYLE
  5
FFC4
330
3
100
AcDbSymbolTableRecord
100
AcDbTextStyleTableRecord
  2
mp000096$0$2mm
 70
     0
 40
2.0
 41
1.0
 50
0.0
 71
     0
 42
2.0
  3
ARIAL.TTF
  4

1001
AcadAnnotative
1000
AnnotativeData
1002
{
1070
     1
1070
     1
1002
}
1001
ACAD
1000
Arial
1071
       34
  0
STYLE
  5
FFF4
330
3
100
AcDbSymbolTableRecord
100
AcDbTextStyleTableRecord
  2
mp001455$0$Standard
 70
     0
 40
0.0
 41
1.0
 50
0.0
 71
     0
 42
731.0
  3
ARIAL.TTF
  4

1001
ACAD
1000
Arial
1071
       34
  0
STYLE
  5
10136
330
3
100
AcDbSymbolTableRecord
100
AcDbTextStyleTableRecord
  2
mp001460$0$Standard
 70
     0
 40
0.0
 41
1.0
 50
0.0
 71
     0
 42
731.0
  3
ARIAL.TTF
  4

1001
ACAD
1000
Arial
1071
       34
  0
ENDTAB
  0
TABLE
  2
VIEW
  5
6
330
0
100
AcDbSymbolTable
 70
     0
  0
ENDTAB
  0
TABLE
  2
UCS
  5
7
330
0
100
AcDbSymbolTable
 70
     0
  0
ENDTAB
  0
TABLE
  2
APPID
  5
9
330
0
100
AcDbSymbolTable
 70
    30
  0
APPID
  5
12
330
9
100
AcDbSymbolTableRecord
100
AcDbRegAppTableRecord
  2
ACAD
 70
     0
  0
APPID
  5
2C5
330
9
100
AcDbSymbolTableRecord
100
AcDbRegAppTableRecord
  2
ACAD_MLEADERVER
 70
     0
  0
APPID
  5
30C
330
9
100
AcDbSymbolTableRecord
100
AcDbRegAppTableRecord
  2
DCO15
 70
     0
  0
APPID
  5
347
330
9
100
AcDbSymbolTableRecord
100
AcDbRegAppTableRecord
  2
ACAD_EXEMPT_FROM_CAD_STANDARDS
 70
     0
  0
APPID
  5
384
330
9
100
AcDbSymbolTableRecord
100
AcDbRegAppTableRecord
  2
ACAD_PSEXT
 70
     0
  0
APPID
  5
385
330
9
100
AcDbSymbolTableRecord
100
AcDbRegAppTableRecord
  2
AcadAnnotative
 70
     0
  0
APPID
  5
386
330
9
100
AcDbSymbolTableRecord
100
AcDbRegAppTableRecord
  2
ACAD_DSTYLE_DIMJAG
 70
     0
  0
APPID
  5
387
330
9
100
AcDbSymbolTableRecord
100
AcDbRegAppTableRecord
  2
ACAD_DSTYLE_DIMTALN
 70
     0
  0
APPID
  5
388
330
9
100
AcDbSymbolTableRecord
100
AcDbRegAppTableRecord
  2
ACAD_DSTYLE_DIMBREAK
 70
     0
  0
APPID
  5
4EF
330
9
100
AcDbSymbolTableRecord
100
AcDbRegAppTableRecord
  2
AcDbBlockRepETag
 70
     0
  0
APPID
  5
4F0
330
9
100
AcDbSymbolTableRecord
100
AcDbRegAppTableRecord
  2
AcAecLayerStandard
 70
     0
  0
APPID
  5
4F1
330
9
100
AcDbSymbolTableRecord
100
AcDbRegAppTableRecord
  2
AcDbDynamicBlockGUID
 70
     0
  0
APPID
  5
4F2
330
9
100
AcDbSymbolTableRecord
100
AcDbRegAppTableRecord
  2
AcDbDynamicBlockTrueName
 70
     0
  0
APPID
  5
4F3
330
9
100
AcDbSymbolTableRecord
100
AcDbRegAppTableRecord
  2
AcDbBlockRepBTag
 70
     0
  0
APPID
  5
4F4
330
9
100
AcDbSymbolTableRecord
100
AcDbRegAppTableRecord
  2
AEC_XDATA_BOUND_SPACE
 70
     0
  0
APPID
  5
A0D
330
9
100
AcDbSymbolTableRecord
100
AcDbRegAppTableRecord
  2
AECBASE
 70
     0
  0
APPID
  5
A0E
330
9
100
AcDbSymbolTableRecord
100
AcDbRegAppTableRecord
  2
AEC_OBJVER_INFO
 70
     0
  0
APPID
  5
A0F
330
9
100
AcDbSymbolTableRecord
100
AcDbRegAppTableRecord
  2
AcadAnnoAV
 70
     0
  0
APPID
  5
A6C
330
9
100
AcDbSymbolTableRecord
100
AcDbRegAppTableRecord
  2
AcLayerTools
 70
     0
  0
APPID
  5
A6D
330
9
100
AcDbSymbolTableRecord
100
AcDbRegAppTableRecord
  2
AcadAnnotativeDecomposition
 70
     0
  0
APPID
  5
13E1
330
9
100
AcDbSymbolTableRecord
100
AcDbRegAppTableRecord
  2
ACAUTHENVIRON
 70
     0
  0
APPID
  5
13E2
330
9
100
AcDbSymbolTableRecord
100
AcDbRegAppTableRecord
  2
AcadAnnoPO
 70
     0
  0
APPID
  5
2C78
330
9
100
AcDbSymbolTableRecord
100
AcDbRegAppTableRecord
  2
PE_URL
 70
     0
  0
APPID
  5
65A2
330
9
100
AcDbSymbolTableRecord
100
AcDbRegAppTableRecord
  2
ACAD_MATERIAL_MAPPER
 70
     0
  0
APPID
  5
65A3
330
9
100
AcDbSymbolTableRecord
100
AcDbRegAppTableRecord
  2
ACAD_MATERIAL_MAPPER_2
 70
     0
  0
APPID
  5
831C
330
9
100
AcDbSymbolTableRecord
100
AcDbRegAppTableRecord
  2
ACAD_DSTYLE_DIMRADIAL_EXTENSION
 70
     0
  0
APPID
  5
D3FD
330
9
100
AcDbSymbolTableRecord
100
AcDbRegAppTableRecord
  2
AcadNonAnnoHatchDecomposition
 70
     0
  0
APPID
  5
D544
330
9
100
AcDbSymbolTableRecord
100
AcDbRegAppTableRecord
  2
AcDbBlockArrayActionTag
 70
     0
  0
APPID
  5
D545
330
9
100
AcDbSymbolTableRecord
100
AcDbRegAppTableRecord
  2
ACAD_DSTYLE_DIMJAG_POSITION
 70
     0
  0
APPID
  5
D546
330
9
100
AcDbSymbolTableRecord
100
AcDbRegAppTableRecord
  2
AcadAnnotativeMTextDecomposition
 70
     0
  0
ENDTAB
  0
TABLE
  2
DIMSTYLE
  5
A
330
0
100
AcDbSymbolTable
 70
     2
100
AcDbDimStyleTable
 71
     2
340
383
340
27
  0
DIMSTYLE
105
27
330
A
100
AcDbSymbolTableRecord
100
AcDbDimStyleTableRecord
  2
Standard
 70
     0
340
11
1001
ACAD_DSTYLE_DIMJAG
1070
   388
1040
1.5
1001
ACAD_DSTYLE_DIMTALN
1070
   392
1070
     0
  0
DIMSTYLE
105
383
102
{ACAD_REACTORS
330
D234
102
}
330
A
100
AcDbSymbolTableRecord
100
AcDbDimStyleTableRecord
  2
2mm
 70
     0
  4
M
 41
3.0
 42
3.0
 43
400.0
 44
1.0
 73
     0
 74
     0
140
2.0
141
2.0
143
0.001
147
0.0
176
   256
177
   256
178
   256
179
     2
271
     0
272
     0
279
     2
285
     8
340
380
341
352
342
352
345
15
346
15
347
15
371
     9
372
     9
1001
ACAD_DSTYLE_DIMBREAK
1070
   391
1040
0.0
1001
AcadAnnotative
1000
AnnotativeData
1002
{
1070
     1
1070
     1
1002
}
1001
ACAD_DSTYLE_DIMJAG
1070
   388
1040
4.0
1001
ACAD_DSTYLE_DIMTALN
1070
   392
1070
     0
  0
ENDTAB
  0
TABLE
  2
BLOCK_RECORD
  5
1
330
0
100
AcDbSymbolTable
 70
    16
  0
BLOCK_RECORD
  5
1F
102
{ACAD_XDICTIONARY
360
102E
102
}
330
1
100
AcDbSymbolTableRecord
100
AcDbBlockTableRecord
  2
*Model_Space
340
22
 70
     0
280
     1
281
     0
  0
BLOCK_RECORD
  5
1B
330
1
100
AcDbSymbolTableRecord
100
AcDbBlockTableRecord
  2
*Paper_Space
340
1E
 70
     0
280
     1
281
     0
  0
BLOCK_RECORD
  5
352
330
1
100
AcDbSymbolTableRecord
100
AcDbBlockTableRecord
  2
_OBLIQUE
340
0
310
2800000020000000200000000100080000000000000400000000000000000000000000000000000000000000000080000080000000808000800000008000800080800000C0C0C000C0DCC000F0CAA6000020400000206000002080000020A0000020C0000020E00000400000004020000040400000406000004080000040A0
310
000040C0000040E00000600000006020000060400000606000006080000060A0000060C0000060E00000800000008020000080400000806000008080000080A0000080C0000080E00000A0000000A0200000A0400000A0600000A0800000A0A00000A0C00000A0E00000C0000000C0200000C0400000C0600000C0800000C0
310
A00000C0C00000C0E00000E0000000E0200000E0400000E0600000E0800000E0A00000E0C00000E0E00040000000400020004000400040006000400080004000A0004000C0004000E00040200000402020004020400040206000402080004020A0004020C0004020E000404000004040200040404000404060004040800040
310
40A0004040C0004040E00040600000406020004060400040606000406080004060A0004060C0004060E00040800000408020004080400040806000408080004080A0004080C0004080E00040A0000040A0200040A0400040A0600040A0800040A0A00040A0C00040A0E00040C0000040C0200040C0400040C0600040C08000
310
40C0A00040C0C00040C0E00040E0000040E0200040E0400040E0600040E0800040E0A00040E0C00040E0E00080000000800020008000400080006000800080008000A0008000C0008000E00080200000802020008020400080206000802080008020A0008020C0008020E00080400000804020008040400080406000804080
310
008040A0008040C0008040E00080600000806020008060400080606000806080008060A0008060C0008060E00080800000808020008080400080806000808080008080A0008080C0008080E00080A0000080A0200080A0400080A0600080A0800080A0A00080A0C00080A0E00080C0000080C0200080C0400080C0600080C0
310
800080C0A00080C0C00080C0E00080E0000080E0200080E0400080E0600080E0800080E0A00080E0C00080E0E000C0000000C0002000C0004000C0006000C0008000C000A000C000C000C000E000C0200000C0202000C0204000C0206000C0208000C020A000C020C000C020E000C0400000C0402000C0404000C0406000C0
310
408000C040A000C040C000C040E000C0600000C0602000C0604000C0606000C0608000C060A000C060C000C060E000C0800000C0802000C0804000C0806000C0808000C080A000C080C000C080E000C0A00000C0A02000C0A04000C0A06000C0A08000C0A0A000C0A0C000C0A0E000C0C00000C0C02000C0C04000C0C06000
310
C0C08000C0C0A000F0FBFF00A4A0A000808080000000FF0000FF000000FFFF00FF000000FF00FF00FFFF0000FFFFFF00000000000000000000000000000000000000000000000000000000000000000000FF0000000000000000000000000000000000000000000000000000000000000000FF000000000000000000000000
310
0000000000000000000000000000000000000000FF0000000000000000000000000000000000000000000000000000000000000000FF0000000000000000000000000000000000000000000000000000000000000000FF0000000000000000000000000000000000000000000000000000000000000000FF00000000000000
310
00000000000000000000000000000000000000000000000000FF0000000000000000000000000000000000000000000000000000000000000000FF0000000000000000000000000000000000000000000000000000000000000000FF0000000000000000000000000000000000000000000000000000000000000000FF0000
310
000000000000000000000000000000000000000000000000000000000000FF0000000000000000000000000000000000000000000000000000000000000000FF0000000000000000000000000000000000000000000000000000000000000000FF000000000000000000000000000000000000000000000000000000000000
310
0000FF0000000000000000000000000000000000000000000000000000000000000000FF0000000000000000000000000000000000000000000000000000000000000000FF0000000000000000000000000000000000000000000000000000000000000000FF00000000000000000000000000000000000000000000000000
310
00000000000000FF0000000000000000000000000000000000000000000000000000000000000000FF0000000000000000000000000000000000000000000000000000000000000000FF0000000000000000000000000000000000000000000000000000000000000000FF0000000000000000000000000000000000000000
310
000000000000000000000000FF0000000000000000000000000000000000000000000000000000000000000000FF0000000000000000000000000000000000000000000000000000000000000000FF0000000000000000000000000000000000000000000000000000000000000000FF000000000000000000000000000000
310
0000000000000000000000000000000000FF0000000000000000000000000000000000000000000000000000000000000000FF0000000000000000000000000000000000000000000000000000000000000000FF0000000000000000000000000000000000000000000000000000000000000000FF00000000000000000000
310
00000000000000000000000000000000000000000000FF000000000000000000000000000000000000000000000000000000000000000000
102
{BLKREFS
331
FF8B
331
FF8C
331
10158
331
10159
102
}
 70
     0
280
     1
281
     0
  0
BLOCK_RECORD
  5
356
330
1
100
AcDbSymbolTableRecord
100
AcDbBlockTableRecord
  2
_DetailCallout
340
0
310
2800000020000000200000000100080000000000000400000000000000000000000000000000000000000000000080000080000000808000800000008000800080800000C0C0C000C0DCC000F0CAA6000020400000206000002080000020A0000020C0000020E00000400000004020000040400000406000004080000040A0
310
000040C0000040E00000600000006020000060400000606000006080000060A0000060C0000060E00000800000008020000080400000806000008080000080A0000080C0000080E00000A0000000A0200000A0400000A0600000A0800000A0A00000A0C00000A0E00000C0000000C0200000C0400000C0600000C0800000C0
310
A00000C0C00000C0E00000E0000000E0200000E0400000E0600000E0800000E0A00000E0C00000E0E00040000000400020004000400040006000400080004000A0004000C0004000E00040200000402020004020400040206000402080004020A0004020C0004020E000404000004040200040404000404060004040800040
310
40A0004040C0004040E00040600000406020004060400040606000406080004060A0004060C0004060E00040800000408020004080400040806000408080004080A0004080C0004080E00040A0000040A0200040A0400040A0600040A0800040A0A00040A0C00040A0E00040C0000040C0200040C0400040C0600040C08000
310
40C0A00040C0C00040C0E00040E0000040E0200040E0400040E0600040E0800040E0A00040E0C00040E0E00080000000800020008000400080006000800080008000A0008000C0008000E00080200000802020008020400080206000802080008020A0008020C0008020E00080400000804020008040400080406000804080
310
008040A0008040C0008040E00080600000806020008060400080606000806080008060A0008060C0008060E00080800000808020008080400080806000808080008080A0008080C0008080E00080A0000080A0200080A0400080A0600080A0800080A0A00080A0C00080A0E00080C0000080C0200080C0400080C0600080C0
310
800080C0A00080C0C00080C0E00080E0000080E0200080E0400080E0600080E0800080E0A00080E0C00080E0E000C0000000C0002000C0004000C0006000C0008000C000A000C000C000C000E000C0200000C0202000C0204000C0206000C0208000C020A000C020C000C020E000C0400000C0402000C0404000C0406000C0
310
408000C040A000C040C000C040E000C0600000C0602000C0604000C0606000C0608000C060A000C060C000C060E000C0800000C0802000C0804000C0806000C0808000C080A000C080C000C080E000C0A00000C0A02000C0A04000C0A06000C0A08000C0A0A000C0A0C000C0A0E000C0C00000C0C02000C0C04000C0C06000
310
C0C08000C0C0A000F0FBFF00A4A0A000808080000000FF0000FF000000FFFF00FF000000FF00FF00FFFF0000FFFFFF00000000000000000000000000000000000000000000000000000000000000000000000000000000000000000000FFFFFFFFFFFF0000000000000000000000000000000000000000000000FFFFFF0000
310
00000000FFFFFF000000000000000000000000000000000000FFFF000000000000000000000000FFFF000000000000000000000000000000FF00000000000000000000000000000000FF00000000000000FFFF00FFFFFFFFFF0000FF000000FF0000FF0000FFFFFF00FFFF0000FF00FFFF000000FF00FF00000000FF000000
310
FF00FFFF00FF000000FFFF00FF00FF00FF00000000FFFF0000000000FF000000FF00FFFF00FF000000FFFF00FFFFFF00FF00FF0000FFFFFF00000000FF000000FFFF00FF00FF000000FFFFFF00FFFF00FFFF000000FF000000000000FF000000FFFF00FF00FF000000FFFFFF00FFFF00FF00FFFF00FFFFFFFFFFFFFFFFFFFF
310
00FF0000FF00FF000000FFFF000000FF00FFFF000000FF000000000000000000000000000000000000000000000000FF0000000000FF0000000000000000000000000000000000000000000000000000FF00000000FF0000000000000000000000000000000000000000000000000000FF00000000FF000000000000000000
310
0000000000000000000000000000000000FF000000FF00000000000000000000000000000000000000000000000000000000FF0000FFFFFFFFFFFFFFFFFFFFFFFFFFFFFFFFFFFFFFFFFFFFFFFFFFFFFFFFFFFF00FFFFFFFF000000FFFF000000FF000000FF00FFFFFF0000FF0000FF00FFFFFF00FF00FF00000000FFFF0000
310
00FF0000FFFFFF000000FF00FF0000FF0000FF00FFFF00FF000000FF00FFFF0000FF0000FFFFFF000000FF00FFFF00FF0000FF00FFFFFF00FF0000FF00FFFF0000FF00FF00FFFF000000FF00FFFFFFFF00FFFFFF00FF0000FF0000FF0000FF0000FFFF0000FFFF000000FF00FFFFFFFF00FFFF00FFFF0000FF00FF00000000
310
FF00FFFF0000FFFF000000FF00FF0000FF00FFFF00FFFFFFFFFFFFFF00000000FF00FF000000FFFF000000FF00FF0000FFFFFFFFFF0000000000FF00000000000000000000000000000000000000000000FF000000000000000000FF0000000000000000000000000000000000000000FF0000000000000000000000FF0000
310
00000000000000000000000000000000FF00000000000000000000000000FF00000000000000000000000000000000FF000000000000000000000000000000FFFF000000000000000000000000FFFF000000000000000000000000000000000000FFFFFF000000000000FFFFFF000000000000000000000000000000000000
310
0000000000FFFFFFFFFFFF000000000000000000000000000000000000000000000000000000000000000000000000000000000000000000
 70
     4
280
     1
281
     0
  0
BLOCK_RECORD
  5
6591
102
{ACAD_XDICTIONARY
360
FFC8
102
}
330
1
100
AcDbSymbolTableRecord
100
AcDbBlockTableRecord
  2
mp000096
340
0
102
{BLKREFS
331
65A6
102
}
 70
     0
280
     1
281
     0
  0
BLOCK_RECORD
  5
81A1
102
{ACAD_XDICTIONARY
360
81A2
102
}
330
1
100
AcDbSymbolTableRecord
100
AcDbBlockTableRecord
  2
*U3
340
0
 70
     4
280
     1
281
     1
1001
AcadAnnotative
1000
AnnotativeData
1002
{
1070
     1
1070
     1
1002
}
1001
AcDbDynamicBlockTrueName
1000
Extension Line
1001
AcDbDynamicBlockGUID
1000
{36D637E2-77C6-4441-BFB0-E5BE8ED08342}
1001
AcDbBlockRepETag
1070
     1
1071
        1
  0
BLOCK_RECORD
  5
D534
102
{ACAD_XDICTIONARY
360
FFF5
102
}
330
1
100
AcDbSymbolTableRecord
100
AcDbBlockTableRecord
  2
mp001455
340
0
102
{BLKREFS
331
D54C
102
}
 70
     0
280
     1
281
     0
  0
BLOCK_RECORD
  5
D984
102
{ACAD_XDICTIONARY
360
1000F
102
}
330
1
100
AcDbSymbolTableRecord
100
AcDbBlockTableRecord
  2
mp001456
340
0
102
{BLKREFS
331
D98B
332
FDCF
102
}
 70
     0
280
     1
281
     0
  0
BLOCK_RECORD
  5
DA5E
102
{ACAD_XDICTIONARY
360
F766
102
}
330
1
100
AcDbSymbolTableRecord
100
AcDbBlockTableRecord
  2
mp001237
340
0
102
{BLKREFS
331
DA90
102
}
 70
     0
280
     1
281
     0
  0
BLOCK_RECORD
  5
DAE2
102
{ACAD_XDICTIONARY
360
10137
102
}
330
1
100
AcDbSymbolTableRecord
100
AcDbBlockTableRecord
  2
mp001460
340
0
102
{BLKREFS
331
DAE6
102
}
 70
     0
280
     1
281
     0
  0
BLOCK_RECORD
  5
F979
102
{ACAD_XDICTIONARY
360
F97A
102
}
330
1
100
AcDbSymbolTableRecord
100
AcDbBlockTableRecord
  2
*U8
340
0
102
{BLKREFS
331
8414
102
}
 70
     0
280
     1
281
     1
1001
AcDbBlockRepBTag
1070
     1
1005
81A1
  0
BLOCK_RECORD
  5
FDCF
102
{ACAD_XDICTIONARY
360
10120
102
}
330
1
100
AcDbSymbolTableRecord
100
AcDbBlockTableRecord
  2
mp001491
340
0
102
{BLKREFS
331
1000E
102
}
 70
     0
280
     1
281
     0
  0
BLOCK_RECORD
  5
10147
330
1
100
AcDbSymbolTableRecord
100
AcDbBlockTableRecord
  2
*D11
340
0
 70
     0
280
     1
281
     0
  0
BLOCK_RECORD
  5
101BC
330
1
100
AcDbSymbolTableRecord
100
AcDbBlockTableRecord
  2
*U14
340
0
 70
     0
280
     1
281
     1
  0
BLOCK_RECORD
  5
101D2
330
1
100
AcDbSymbolTableRecord
100
AcDbBlockTableRecord
  2
*U15
340
0
 70
     0
280
     1
281
     1
  0
ENDTAB
  0
ENDSEC
  0
SECTION
  2
BLOCKS
  0
BLOCK
  5
20
330
1F
100
AcDbEntity
  8
0
100
AcDbBlockBegin
  2
*Model_Space
 70
     0
 10
0.0
 20
0.0
 30
0.0
  3
*Model_Space
  1

  0
ENDBLK
  5
21
330
1F
100
AcDbEntity
  8
0
100
AcDbBlockEnd
  0
BLOCK
  5
1C
330
1B
100
AcDbEntity
 67
     1
  8
0
100
AcDbBlockBegin
  2
*Paper_Space
 70
     0
 10
0.0
 20
0.0
 30
0.0
  3
*Paper_Space
  1

  0
ENDBLK
  5
1D
330
1B
100
AcDbEntity
 67
     1
  8
0
100
AcDbBlockEnd
  0
BLOCK
  5
353
330
352
100
AcDbEntity
  8
0
100
AcDbBlockBegin
  2
_OBLIQUE
 70
     0
 10
0.0
 20
0.0
 30
0.0
  3
_OBLIQUE
  1

  0
LINE
  5
354
330
352
100
AcDbEntity
  8
0
  6
ByBlock
 62
     0
100
AcDbLine
 10
-0.5
 20
-0.5
 30
0.0
 11
0.5
 21
0.5
 31
0.0
  0
ENDBLK
  5
355
330
352
100
AcDbEntity
  8
0
100
AcDbBlockEnd
  0
BLOCK
  5
357
330
356
100
AcDbEntity
  8
0
100
AcDbBlockBegin
  2
_DetailCallout
 70
     2
 10
0.0
 20
0.0
 30
0.0
  3
_DetailCallout
  1

  0
CIRCLE
  5
358
330
356
100
AcDbEntity
  8
0
  6
ByBlock
 62
     0
370
    -2
100
AcDbCircle
 10
0.0
 20
0.0
 30
0.0
 40
8.0
  0
LINE
  5
359
330
356
100
AcDbEntity
  8
0
  6
ByBlock
 62
     0
370
    -2
100
AcDbLine
 10
8.0
 20
0.0
 30
0.0
 11
-8.0
 21
0.0
 31
0.0
  0
ATTDEF
  5
35A
330
356
100
AcDbEntity
  8
0
 62
     0
100
AcDbText
 10
-15.0
 20
1.0
 30
0.0
 40
3.0
  1
VIEWNUMBER
  7
x01
 72
     1
 11
0.0
 21
1.0
 31
0.0
100
AcDbAttributeDefinition
  3
Enter view number
  2
VIEWNUMBER
 70
     0
280
     0
  0
ATTDEF
  5
35B
330
356
100
AcDbEntity
  8
0
 62
     0
100
AcDbText
 10
-16.0
 20
-6.0
 30
0.0
 40
3.0
  1
SHEETNUMBER
  7
x01
 72
     1
 11
0.0
 21
-6.0
 31
0.0
100
AcDbAttributeDefinition
  3
Enter sheet number
  2
SHEETNUMBER
 70
     0
280
     0
  0
ENDBLK
  5
35C
330
356
100
AcDbEntity
  8
0
100
AcDbBlockEnd
  0
BLOCK
  5
6592
330
6591
100
AcDbEntity
  8
0
100
AcDbBlockBegin
  2
mp000096
 70
     0
 10
0.0
 20
0.0
 30
0.0
  3
mp000096
  1
v:\mpcaddb\mp000000\mp000096.dwg
  0
MTEXT
  5
FFC3
102
{ACAD_XDICTIONARY
360
101BA
102
}
330
6591
100
AcDbEntity
  8
defpoints
 62
   253
370
     0
100
AcDbMText
 10
0.0
 20
-15.07001755932378
 30
0.0
 40
20.0
 41
1024.436706887209
 46
0.0
 71
     5
 72
     5
  3
The information provided is for guide only and must be used along side professional architectural/structural design. Professional architectural/structural design takes preference with any conflicting areas of the building design.\PAll documents or da
  3
ta downloaded from www.mpb.co.nz or emailed from MASONS Plastabrick Limited is the intellectual property of MASONS Plastabrick Limited. MASONS Plastabrick Limited takes no responsibility for any of the documents or data being used for any other purpo
  1
se than for professional architectural/structural design.
  7
mp000096$0$2mm
 73
     1
 44
1.0
1001
ACAD_MLEADERVER
1070
     2
  0
LWPOLYLINE
  5
FFC5
330
6591
100
AcDbEntity
  8
defpoints
 62
   253
100
AcDbPolyline
 90
        5
 70
     0
 43
0.0
 10
531.1521450536488
 20
-172.9993298591076
 10
531.1521450536488
 20
205.6618318460798
 10
-530.9433261265999
 20
205.6618318460798
 10
-530.9433261265999
 20
-172.9993298591076
 10
531.1521450536488
 20
-172.9993298591076
  0
MTEXT
  5
FFC6
330
6591
100
AcDbEntity
  8
defpoints
 62
   253
370
     0
100
AcDbMText
 10
0.0
 20
159.8871316540671
 30
0.0
 40
30.0
 41
1026.407338423251
 46
0.0
 71
     5
 72
     5
  1
DISCLOSURE NOTE:
  7
mp000096$0$2mm
 73
     1
 44
1.0
1001
ACAD_MLEADERVER
1070
     2
  0
LWPOLYLINE
  5
FFC7
330
6591
100
AcDbEntity
  8
defpoints
 62
   253
100
AcDbPolyline
 90
        4
 70
     1
 43
0.0
 10
536.1521450536488
 20
-177.9993298591076
 10
536.1521450536488
 20
210.6618318460799
 10
-535.9433261265999
 20
210.6618318460798
 10
-535.9433261265999
 20
-177.9993298591077
  0
ENDBLK
  5
6593
330
6591
100
AcDbEntity
  8
0
100
AcDbBlockEnd
  0
BLOCK
  5
81AA
330
81A1
100
AcDbEntity
  8
0
100
AcDbBlockBegin
  2
*U3
 70
     1
 10
0.0
 20
0.0
 30
0.0
  3
*U3
  1

  0
LINE
  5
81AB
330
81A1
100
AcDbEntity
  8
0
  6
Continuous
 48
10.0
370
     0
100
AcDbLine
 10
0.0
 20
0.0
 30
0.0
 11
0.0
 21
27.85219326595689
 31
0.0
1001
AcDbBlockRepETag
1070
     1
1071
        0
1005
81AB
  0
ENDBLK
  5
81AC
330
81A1
100
AcDbEntity
  8
0
100
AcDbBlockEnd
  0
BLOCK
  5
D535
330
D534
100
AcDbEntity
  8
0
100
AcDbBlockBegin
  2
mp001455
 70
     0
 10
0.0
 20
0.0
 30
0.0
  3
mp001455
  1
V:\mpcaddb\mp001000\mp001455.dwg
  0
INSERT
  5
FFEE
330
D534
100
AcDbEntity
  8
mp001455$0$MP Annotation (00134142)
100
AcDbBlockReference
  2
*U14
 10
0.0
 20
0.0
 30
0.0
1001
AcadAnnotativeMTextDecomposition
1000
AnnotativeData
1002
{
1070
     1
1070
     1
1002
}
  0
ENDBLK
  5
D536
330
D534
100
AcDbEntity
  8
0
100
AcDbBlockEnd
  0
BLOCK
  5
D985
330
D984
100
AcDbEntity
  8
0
100
AcDbBlockBegin
  2
mp001456
 70
     0
 10
0.0
 20
0.0
 30
0.0
  3
mp001456
  1
V:\mpcaddb\mp001000\mp001456.dwg
  0
LINE
  5
10007
330
D984
100
AcDbEntity
  8
mp001456$0$Fixings (00134143)
100
AcDbLine
 10
-15.06891655991117
 20
-11.75364076026198
 30
0.0
 11
-0.75
 21
-5.897381473446301
 31
0.0
  0
LINE
  5
10008
330
D984
100
AcDbEntity
  8
mp001456$0$Fixings (00134143)
100
AcDbLine
 10
-85.00000000000001
 20
-11.75364076026207
 30
0.0
 11
-85.00000000000001
 21
-12.50364076026207
 31
0.0
  0
LWPOLYLINE
  5
10009
330
D984
100
AcDbEntity
  8
mp001456$0$Fixings (00134143)
100
AcDbPolyline
 90
       12
 70
     0
 43
0.0
 10
0.0
 20
19.08246059363773
 10
0.0
 20
-8.503640760261987
 42
-0.4142135623730947
 10
-4.0
 20
-12.50364076026199
 10
-37.83369564036316
 20
-12.50364076026201
 42
0.3073551605568402
 10
-42.03986542281433
 20
-12.50364076026201
 10
-61.09919480511361
 20
-12.50364076026204
 42
0.3073551605568479
 10
-65.30536458756488
 20
-12.50364076026204
 10
-68.58604599176522
 20
-12.50364076026204
 42
0.3073551605568507
 10
-72.79221577421653
 20
-12.50364076026207
 10
-76.07289717841682
 20
-12.50364076026207
 42
0.3073551605568536
 10
-80.27906696086816
 20
-12.50364076026207
 10
-85.00000000000001
 20
-12.50364076026207
  0
LWPOLYLINE
  5
1000A
330
D984
100
AcDbEntity
  8
mp001456$0$Fixings (00134143)
100
AcDbPolyline
 90
       12
 70
     0
 43
0.0
 10
-0.75
 20
19.08246059363773
 10
-0.75
 20
-8.503640760261987
 42
-0.4142135623730948
 10
-4.0
 20
-11.75364076026198
 10
-37.61459254365316
 20
-11.75364076026201
 42
0.2783555843736619
 10
-42.25896851952431
 20
-11.75364076026201
 10
-60.88009170840361
 20
-11.75364076026204
 42
0.2783555843736687
 10
-65.52446768427488
 20
-11.75364076026207
 10
-68.36694289505523
 20
-11.75364076026204
 42
0.2783555843736727
 10
-73.01131887092655
 20
-11.75364076026207
 10
-75.85379408170684
 20
-11.75364076026207
 42
0.278355584373674
 10
-80.49817005757816
 20
-11.75364076026207
 10
-85.00000000000001
 20
-11.75364076026207
  0
LINE
  5
1000B
330
D984
100
AcDbEntity
  8
mp001456$0$Fixings (00134143)
100
AcDbLine
 10
0.0
 20
19.08246059363773
 30
0.0
 11
-0.75
 21
19.08246059363773
 31
0.0
  0
HATCH
  5
1000C
330
D984
100
AcDbEntity
  8
mp001456$0$Fixings (00134143)
100
AcDbHatch
 10
0.0
 20
0.0
 30
0.0
210
0.0
220
0.0
230
1.0
  2
ANGLE
 70
     0
 71
     0
 91
        1
 92
        7
 72
     0
 73
     1
 93
        4
 10
0.0
 20
19.08246059363773
 10
-0.7499999999999929
 20
19.0824605936377
 10
-0.7499999999999929
 20
11.28586646208191
 10
0.0000000000000071
 20
11.28586646208188
 97
        0
 75
     0
 76
     1
 52
0.0
 41
1.0
 77
     0
 78
     2
 53
0.0
 43
0.0
 44
0.0
 45
0.0
 46
6.985
 79
     2
 49
5.08
 49
-1.905
 53
90.0
 43
0.0
 44
0.0
 45
-6.985
 46
0.0000000000000004
 79
     2
 49
5.08
 49
-1.905
 47
0.0324212230789676
 98
        1
 10
-0.2615444825933082
 20
15.44798123011332
1001
ACAD
1010
0.0
1020
0.0
1030
0.0
  0
HATCH
  5
1000D
330
D984
100
AcDbEntity
  8
mp001456$0$Fixings (00134143)
100
AcDbHatch
 10
0.0
 20
0.0
 30
0.0
210
0.0
220
0.0
230
1.0
  2
SOLID
 70
     1
 71
     0
 91
        2
 92
        7
 72
     1
 73
     1
 93
       24
 10
-0.75
 20
-8.503640760261987
 42
-0.4142135623730948
 10
-4.0
 20
-11.75364076026198
 42
0.0
 10
-37.61459254365316
 20
-11.75364076026201
 42
0.2783555843736619
 10
-42.25896851952431
 20
-11.75364076026201
 42
0.0
 10
-60.88009170840361
 20
-11.75364076026204
 42
0.2783555843736687
 10
-65.52446768427488
 20
-11.75364076026207
 42
0.0
 10
-68.36694289505523
 20
-11.75364076026204
 42
0.2783555843736727
 10
-73.01131887092655
 20
-11.75364076026207
 42
0.0
 10
-75.85379408170684
 20
-11.75364076026207
 42
0.278355584373674
 10
-80.49817005757816
 20
-11.75364076026207
 42
0.0
 10
-85.00000000000001
 20
-11.75364076026207
 42
0.0
 10
-85.00000000000001
 20
-12.5036407602621
 42
0.0
 10
-80.27906696086816
 20
-12.50364076026207
 42
-0.3073551605568536
 10
-76.07289717841682
 20
-12.50364076026207
 42
0.0
 10
-72.79221577421653
 20
-12.50364076026207
 42
-0.3073551605568507
 10
-68.58604599176522
 20
-12.50364076026204
 42
0.0
 10
-65.30536458756488
 20
-12.50364076026204
 42
-0.3073551605568479
 10
-61.09919480511361
 20
-12.50364076026204
 42
0.0
 10
-42.03986542281433
 20
-12.50364076026201
 42
-0.3073551605568402
 10
-37.83369564036316
 20
-12.50364076026201
 42
0.0
 10
-4.0
 20
-12.50364076026199
 42
0.4142135623730948
 10
0.0
 20
-8.503640760261987
 42
0.0
 10
0.0
 20
11.28586646208194
 42
0.0
 10
-0.7500000000000071
 20
11.28586646208194
 42
0.0
 97
        0
 92
        7
 72
     0
 73
     1
 93
        4
 10
-0.75
 20
11.28586646208194
 10
-0.0000000000000071
 20
11.28586646208197
 10
0.0
 20
19.0824605936377
 10
-0.7499999999999929
 20
19.08246059363776
 97
        0
 75
     0
 76
     1
 47
0.1667079125202903
 98
        2
 10
-0.5
 20
5.5
 10
-0.5
 20
14.5
450
        0
451
        0
460
0.0
461
0.0
452
        1
462
1.0
453
        2
463
0.0
 63
     5
421
      255
463
1.0
 63
     7
421
 16777215
470
LINEAR
1001
ACAD
1010
0.0
1020
0.0
1030
0.0
  0
INSERT
  5
1000E
330
D984
100
AcDbEntity
  8
mp001456$0$Fixings (00134143)
100
AcDbBlockReference
  2
mp001491
 10
-0.75
 20
11.28586646208191
 30
0.0
 50
90.0
1001
AEC_XDATA_BOUND_SPACE
1070
   100
1070
     1
  0
ENDBLK
  5
D986
330
D984
100
AcDbEntity
  8
0
100
AcDbBlockEnd
  0
BLOCK
  5
DA5F
330
DA5E
100
AcDbEntity
  8
0
100
AcDbBlockBegin
  2
mp001237
 70
     0
 10
0.0
 20
0.0
 30
0.0
  3
mp001237
  1
V:\mpcaddb\mp001000\mp001237.dwg
  0
LINE
  5
F738
330
DA5E
100
AcDbEntity
  8
0
 48
5.0
100
AcDbLine
 10
6.815844310624015
 20
74.71297549165228
 30
0.0
 11
7.315844310624015
 21
74.71297549165228
 31
0.0
210
0.0
220
1.0
230
0.0
  0
LINE
  5
F73A
330
DA5E
100
AcDbEntity
  8
0
 48
5.0
100
AcDbLine
 10
0.0
 20
100.0
 30
0.0
 11
0.0
 21
81.0288198022763
 31
0.0
210
0.0
220
1.0
230
0.0
  0
LINE
  5
F73B
330
DA5E
100
AcDbEntity
  8
0
 48
5.0
100
AcDbLine
 10
0.0
 20
100.0
 30
0.0
 11
0.5
 21
100.0
 31
0.0
210
0.0
220
1.0
230
0.0
  0
LINE
  5
F73C
330
DA5E
100
AcDbEntity
  8
0
 48
5.0
100
AcDbLine
 10
6.815844310624015
 20
62.77242130757167
 30
0.0
 11
7.315844310624015
 21
62.77242130757167
 31
0.0
210
0.0
220
1.0
230
0.0
  0
LINE
  5
F73D
330
DA5E
100
AcDbEntity
  8
0
 48
5.0
100
AcDbLine
 10
6.815844310624015
 20
50.83186712349107
 30
0.0
 11
7.315844310624015
 21
50.83186712349107
 31
0.0
210
0.0
220
1.0
230
0.0
  0
LINE
  5
F73E
330
DA5E
100
AcDbEntity
  8
0
 48
5.0
100
AcDbLine
 10
6.815844310624015
 20
38.89131293941046
 30
0.0
 11
7.315844310624015
 21
38.89131293941046
 31
0.0
210
0.0
220
1.0
230
0.0
  0
LINE
  5
F73F
330
DA5E
100
AcDbEntity
  8
0
 48
5.0
100
AcDbLine
 10
0.0
 20
26.95075875532984
 30
0.0
 11
0.5
 21
26.95075875532984
 31
0.0
210
0.0
220
1.0
230
0.0
  0
ARC
  5
F742
330
DA5E
100
AcDbEntity
  8
0
 48
5.0
100
AcDbCircle
 10
0.5
 20
74.71297549165228
 30
0.0
 40
6.815844310624015
100
AcDbArc
 50
0.0
 51
90.0
  0
ARC
  5
F743
330
DA5E
100
AcDbEntity
  8
0
 48
5.0
100
AcDbCircle
 10
0.5
 20
62.77242130757167
 30
0.0
 40
6.815844310624015
100
AcDbArc
 50
0.0
 51
90.0
  0
ARC
  5
F744
330
DA5E
100
AcDbEntity
  8
0
 48
5.0
100
AcDbCircle
 10
0.5
 20
50.83186712349107
 30
0.0
 40
6.815844310624015
100
AcDbArc
 50
0.0
 51
90.0
  0
ARC
  5
F745
330
DA5E
100
AcDbEntity
  8
0
 48
5.0
100
AcDbCircle
 10
0.5
 20
38.89131293941046
 30
0.0
 40
6.815844310624015
100
AcDbArc
 50
0.0
 51
90.0
  0
ARC
  5
F746
330
DA5E
100
AcDbEntity
  8
0
 48
5.0
100
AcDbCircle
 10
0.5
 20
26.95075875532984
 30
0.0
 40
6.815844310624015
100
AcDbArc
 50
0.0
 51
90.0
  0
ARC
  5
F747
330
DA5E
100
AcDbEntity
  8
0
 48
5.0
100
AcDbCircle
 10
0.5000000000000569
 20
15.01020457124832
 30
0.0
 40
6.815844310624015
100
AcDbArc
 50
0.0
 51
90.0
  0
ARC
  5
F748
330
DA5E
100
AcDbEntity
  8
0
 48
5.0
100
AcDbCircle
 10
0.5
 20
74.71297549165228
 30
0.0
 40
6.315844310624015
100
AcDbArc
 50
0.0
 51
90.0
  0
ARC
  5
F749
330
DA5E
100
AcDbEntity
  8
0
 48
5.0
100
AcDbCircle
 10
0.5
 20
62.77242130757167
 30
0.0
 40
6.315844310624015
100
AcDbArc
 50
0.0
 51
90.0
  0
ARC
  5
F74A
330
DA5E
100
AcDbEntity
  8
0
 48
5.0
100
AcDbCircle
 10
0.5
 20
50.83186712349107
 30
0.0
 40
6.315844310624015
100
AcDbArc
 50
0.0
 51
90.0
  0
ARC
  5
F74B
330
DA5E
100
AcDbEntity
  8
0
 48
5.0
100
AcDbCircle
 10
0.5
 20
38.89131293941046
 30
0.0
 40
6.315844310624015
100
AcDbArc
 50
0.0
 51
90.0
  0
ARC
  5
F74C
330
DA5E
100
AcDbEntity
  8
0
 48
5.0
100
AcDbCircle
 10
0.5
 20
26.95075875532984
 30
0.0
 40
6.315844310624015
100
AcDbArc
 50
0.0
 51
90.0
  0
ARC
  5
F74D
330
DA5E
100
AcDbEntity
  8
0
 48
5.0
100
AcDbCircle
 10
0.5000000000000569
 20
15.01020457124832
 30
0.0
 40
6.315844310624015
100
AcDbArc
 50
0.0
 51
90.0
  0
LINE
  5
F74E
330
DA5E
100
AcDbEntity
  8
0
 48
5.0
100
AcDbLine
 10
0.5
 20
81.0288198022763
 30
0.0
 11
0.0
 21
81.0288198022763
 31
0.0
  0
LINE
  5
F74F
330
DA5E
100
AcDbEntity
  8
0
 48
5.0
100
AcDbLine
 10
0.5
 20
69.08826561819569
 30
0.0
 11
0.0
 21
69.08826561819569
 31
0.0
  0
LINE
  5
F750
330
DA5E
100
AcDbEntity
  8
0
 48
5.0
100
AcDbLine
 10
0.5
 20
57.14771143411508
 30
0.0
 11
0.0
 21
57.14771143411508
 31
0.0
  0
LINE
  5
F751
330
DA5E
100
AcDbEntity
  8
0
 48
5.0
100
AcDbLine
 10
0.5
 20
45.20715725003447
 30
0.0
 11
0.0
 21
45.20715725003447
 31
0.0
  0
LINE
  5
F752
330
DA5E
100
AcDbEntity
  8
0
 48
5.0
100
AcDbLine
 10
0.5
 20
33.26660306595386
 30
0.0
 11
0.0
 21
33.26660306595386
 31
0.0
  0
LINE
  5
F753
330
DA5E
100
AcDbEntity
  8
0
 48
5.0
100
AcDbLine
 10
0.5
 20
21.32604888187234
 30
0.0
 11
0.0
 21
21.32604888187234
 31
0.0
  0
LINE
  5
F754
330
DA5E
100
AcDbEntity
  8
0
 48
5.0
100
AcDbLine
 10
0.5
 20
81.52881980227631
 30
0.0
 11
0.5
 21
100.0
 31
0.0
210
0.0
220
1.0
230
0.0
  0
LINE
  5
F755
330
DA5E
100
AcDbEntity
  8
0
 48
5.0
100
AcDbLine
 10
0.0
 20
74.71297549165228
 30
0.0
 11
0.0
 21
69.08826561819569
 31
0.0
210
0.0
220
1.0
230
0.0
  0
LINE
  5
F756
330
DA5E
100
AcDbEntity
  8
0
 48
5.0
100
AcDbLine
 10
0.5
 20
69.58826561819569
 30
0.0
 11
0.5
 21
74.71297549165228
 31
0.0
210
0.0
220
1.0
230
0.0
  0
LINE
  5
F757
330
DA5E
100
AcDbEntity
  8
0
 48
5.0
100
AcDbLine
 10
0.0
 20
62.77242130757167
 30
0.0
 11
0.0
 21
57.14771143411508
 31
0.0
210
0.0
220
1.0
230
0.0
  0
LINE
  5
F758
330
DA5E
100
AcDbEntity
  8
0
 48
5.0
100
AcDbLine
 10
0.5
 20
57.64771143411508
 30
0.0
 11
0.5
 21
62.77242130757167
 31
0.0
210
0.0
220
1.0
230
0.0
  0
LINE
  5
F759
330
DA5E
100
AcDbEntity
  8
0
 48
5.0
100
AcDbLine
 10
0.0
 20
50.83186712349107
 30
0.0
 11
0.0
 21
45.20715725003447
 31
0.0
210
0.0
220
1.0
230
0.0
  0
LINE
  5
F75A
330
DA5E
100
AcDbEntity
  8
0
 48
5.0
100
AcDbLine
 10
0.5
 20
45.70715725003447
 30
0.0
 11
0.5
 21
50.83186712349107
 31
0.0
210
0.0
220
1.0
230
0.0
  0
LINE
  5
F75B
330
DA5E
100
AcDbEntity
  8
0
 48
5.0
100
AcDbLine
 10
0.0
 20
38.89131293941046
 30
0.0
 11
0.0
 21
33.26660306595386
 31
0.0
210
0.0
220
1.0
230
0.0
  0
LINE
  5
F75C
330
DA5E
100
AcDbEntity
  8
0
 48
5.0
100
AcDbLine
 10
0.5
 20
33.76660306595386
 30
0.0
 11
0.5
 21
38.89131293941046
 31
0.0
210
0.0
220
1.0
230
0.0
  0
LINE
  5
F75D
330
DA5E
100
AcDbEntity
  8
0
 48
5.0
100
AcDbLine
 10
0.0
 20
26.95075875532984
 30
0.0
 11
0.0
 21
21.32604888187234
 31
0.0
210
0.0
220
1.0
230
0.0
  0
LINE
  5
F75E
330
DA5E
100
AcDbEntity
  8
0
 48
5.0
100
AcDbLine
 10
0.5
 20
21.82604888187234
 30
0.0
 11
0.5
 21
26.95075875532984
 31
0.0
210
0.0
220
1.0
230
0.0
  0
LINE
  5
F760
330
DA5E
100
AcDbEntity
  8
0
 48
5.0
100
AcDbLine
 10
6.815844310624072
 20
15.01020457124832
 30
0.0
 11
7.315844310624015
 21
15.01020457124832
 31
0.0
210
0.0
220
1.0
230
0.0
  0
LINE
  5
F761
330
DA5E
100
AcDbEntity
  8
0
 48
5.0
100
AcDbLine
 10
6.815844310624015
 20
26.95075875532984
 30
0.0
 11
7.315844310624015
 21
26.95075875532984
 31
0.0
210
0.0
220
1.0
230
0.0
  0
LINE
  5
F762
330
DA5E
100
AcDbEntity
  8
0
 48
5.0
100
AcDbLine
 10
0.5
 20
74.71297549165228
 30
0.0
 11
0.0
 21
74.71297549165228
 31
0.0
  0
LINE
  5
F763
330
DA5E
100
AcDbEntity
  8
0
 48
5.0
100
AcDbLine
 10
0.5
 20
62.77242130757167
 30
0.0
 11
0.0
 21
62.77242130757167
 31
0.0
  0
LINE
  5
F764
330
DA5E
100
AcDbEntity
  8
0
 48
5.0
100
AcDbLine
 10
0.0
 20
50.83186712349107
 30
0.0
 11
0.5
 21
50.83186712349107
 31
0.0
  0
LINE
  5
F765
330
DA5E
100
AcDbEntity
  8
0
 48
5.0
100
AcDbLine
 10
0.0
 20
38.89131293941046
 30
0.0
 11
0.5
 21
38.89131293941046
 31
0.0
  0
ENDBLK
  5
DA60
330
DA5E
100
AcDbEntity
  8
0
100
AcDbBlockEnd
  0
BLOCK
  5
DAE3
330
DAE2
100
AcDbEntity
  8
0
100
AcDbBlockBegin
  2
mp001460
 70
     0
 10
0.0
 20
0.0
 30
0.0
  3
mp001460
  1
V:\mpcaddb\mp001000\mp001460.dwg
  0
INSERT
  5
10130
330
DAE2
100
AcDbEntity
  8
mp001460$0$MP Annotation (00134142)
100
AcDbBlockReference
  2
*U15
 10
0.0
 20
0.0
 30
0.0
1001
AcadAnnotativeMTextDecomposition
1000
AnnotativeData
1002
{
1070
     1
1070
     1
1002
}
  0
ENDBLK
  5
DAE4
330
DAE2
100
AcDbEntity
  8
0
100
AcDbBlockEnd
  0
BLOCK
  5
F97B
330
F979
100
AcDbEntity
  8
0
100
AcDbBlockBegin
  2
*U8
 70
     1
 10
0.0
 20
0.0
 30
0.0
  3
*U8
  1

  0
LINE
  5
F97C
330
F979
100
AcDbEntity
  8
0
  6
Continuous
 48
10.0
370
     0
100
AcDbLine
 10
0.0
 20
0.0
 30
0.0
 11
0.0
 21
48.60076323506291
 31
0.0
1001
AcDbBlockRepETag
1070
     1
1071
        0
1005
F97C
  0
ENDBLK
  5
F97D
330
F979
100
AcDbEntity
  8
0
100
AcDbBlockEnd
  0
BLOCK
  5
FDD0
330
FDCF
100
AcDbEntity
  8
0
100
AcDbBlockBegin
  2
mp001491
 70
     0
 10
0.0
 20
0.0
 30
0.0
  3
mp001491
  1
V:\mpcaddb\mp001000\mp001491.dwg
  0
LINE
  5
100CF
330
FDCF
100
AcDbEntity
  8
0
100
AcDbLine
 10
7.0
 20
0.0
 30
0.0
 11
-7.0
 21
0.0000000000000009
 31
0.0
  0
LINE
  5
100D0
330
FDCF
100
AcDbEntity
  8
0
100
AcDbLine
 10
7.0
 20
1.365495479007222
 30
0.0
 11
-7.0
 21
1.365495479007223
 31
0.0
  0
LINE
  5
100D1
330
FDCF
100
AcDbEntity
  8
0
100
AcDbLine
 10
4.174056963871407
 20
6.0
 30
0.0
 11
-4.174056963871407
 21
6.0
 31
0.0
  0
LINE
  5
100D2
330
FDCF
100
AcDbEntity
  8
0
100
AcDbLine
 10
4.174056963871407
 20
6.0
 30
0.0
 11
4.174056963871407
 21
1.365495479007222
 31
0.0
  0
LINE
  5
100D3
330
FDCF
100
AcDbEntity
  8
0
100
AcDbLine
 10
-4.174056963871407
 20
6.0
 30
0.0
 11
-4.174056963871408
 21
1.365495479007222
 31
0.0
  0
LINE
  5
100D4
330
FDCF
100
AcDbEntity
  8
0
100
AcDbLine
 10
1.699375798427354
 20
6.0
 30
0.0
 11
1.699375798427354
 21
1.365495479007222
 31
0.0
  0
LINE
  5
100D5
330
FDCF
100
AcDbEntity
  8
0
100
AcDbLine
 10
-1.699375798427354
 20
5.999999999999999
 30
0.0
 11
-1.699375798427354
 21
1.365495479007222
 31
0.0
  0
LINE
  5
100D6
330
FDCF
100
AcDbEntity
  8
0
100
AcDbLine
 10
7.0
 20
0.0
 30
0.0
 11
7.0
 21
1.365495479007222
 31
0.0
  0
LINE
  5
100D7
330
FDCF
100
AcDbEntity
  8
mp001491$0$MP Hidden Lines (00134167)
 48
5.0
100
AcDbLine
 10
1.725920000000769
 20
0.0
 30
0.0
 11
1.725920000000769
 21
-14.11559753991059
 31
0.0
  0
LINE
  5
100D8
330
FDCF
100
AcDbEntity
  8
mp001491$0$MP Hidden Lines (00134167)
 48
5.0
100
AcDbLine
 10
-1.72591999999895
 20
-0.0000000000000001
 30
0.0
 11
-1.725919999998952
 21
-12.50597811318584
 31
0.0
  0
LINE
  5
100D9
330
FDCF
100
AcDbEntity
  8
mp001491$0$MP Hidden Lines (00134167)
 48
5.0
100
AcDbLine
 10
2.153728779254379
 20
-31.4670880499034
 30
0.0
 11
1.084210917062591
 21
-31.85547952707566
 31
0.0
  0
LINE
  5
100DA
330
FDCF
100
AcDbEntity
  8
mp001491$0$MP Hidden Lines (00134167)
 48
5.0
100
AcDbLine
 10
-0.9053562264125503
 20
-32.18461328481317
 30
0.0
 11
-1.386398019170883
 21
-30.7034156598038
 31
0.0
  0
LINE
  5
100DB
330
FDCF
100
AcDbEntity
  8
mp001491$0$MP Hidden Lines (00134167)
 48
5.0
100
AcDbLine
 10
-0.9053562264125503
 20
-32.18461328481317
 30
0.0
 11
-1.709356226412637
 21
-32.69681777450387
 31
0.0
  0
LINE
  5
100DC
330
FDCF
100
AcDbEntity
  8
mp001491$0$MP Hidden Lines (00134167)
 48
5.0
100
AcDbLine
 10
-1.709356226412637
 20
-32.69681777450205
 30
0.0
 11
-0.5034819323282136
 21
-33.25912619260634
 31
0.0
  0
LINE
  5
100DD
330
FDCF
100
AcDbEntity
  8
mp001491$0$MP Hidden Lines (00134167)
 48
5.0
100
AcDbLine
 10
-1.709356226412637
 20
-32.69681777450205
 30
0.0
 11
0.3005180676718737
 21
-32.74692170291564
 31
0.0
  0
LINE
  5
100DE
330
FDCF
100
AcDbEntity
  8
mp001491$0$MP Hidden Lines (00134167)
 48
5.0
100
AcDbLine
 10
0.3005180676718737
 20
-32.74692170291746
 30
0.0
 11
-0.5034819323282136
 21
-33.25912619260634
 31
0.0
  0
LINE
  5
100DF
330
FDCF
100
AcDbEntity
  8
mp001491$0$MP Hidden Lines (00134167)
 48
5.0
100
AcDbLine
 10
-0.9053562264125503
 20
-32.18461328481317
 30
0.0
 11
0.3005180676718737
 21
-32.74692170291746
 31
0.0
  0
LINE
  5
100E0
330
FDCF
100
AcDbEntity
  8
mp001491$0$MP Hidden Lines (00134167)
 48
5.0
100
AcDbLine
 10
1.084210917062591
 20
-31.85547952707566
 30
0.0
 11
0.0
 21
-34.97233674780182
 31
0.0
  0
LINE
  5
100E1
330
FDCF
100
AcDbEntity
  8
mp001491$0$MP Hidden Lines (00134167)
 48
5.0
100
AcDbLine
 10
0.0
 20
-34.97233674780182
 30
0.0
 11
-0.5658342455844832
 21
-33.23005083143107
 31
0.0
  0
LINE
  5
100E2
330
FDCF
100
AcDbEntity
  8
mp001491$0$MP Hidden Lines (00134167)
 48
5.0
100
AcDbLine
 10
-2.529919999999039
 20
-28.02618260287454
 30
0.0
 11
1.725920000000769
 21
-30.01071338675683
 31
0.0
  0
LINE
  5
100E3
330
FDCF
100
AcDbEntity
  8
mp001491$0$MP Hidden Lines (00134167)
 48
5.0
100
AcDbLine
 10
1.725920000000767
 20
-27.8667133867566
 30
0.0
 11
1.725920000000769
 21
-29.1235975399104
 31
0.0
  0
LINE
  5
100E4
330
FDCF
100
AcDbEntity
  8
mp001491$0$MP Hidden Lines (00134167)
 48
5.0
100
AcDbLine
 10
-1.72591999999895
 20
-26.25709396003185
 30
0.0
 11
-1.725919999998952
 21
-27.51397811318566
 31
0.0
  0
LINE
  5
100E5
330
FDCF
100
AcDbEntity
  8
mp001491$0$MP Hidden Lines (00134167)
 48
5.0
100
AcDbLine
 10
-1.72591999999895
 20
-29.65797811318589
 30
0.0
 11
-2.529919999999037
 21
-30.17018260287477
 31
0.0
  0
LINE
  5
100E6
330
FDCF
100
AcDbEntity
  8
mp001491$0$MP Hidden Lines (00134167)
 48
5.0
100
AcDbLine
 10
-1.725919999998952
 20
-27.51397811318566
 30
0.0
 11
-2.529919999999039
 21
-28.02618260287454
 31
0.0
  0
LINE
  5
100E7
330
FDCF
100
AcDbEntity
  8
mp001491$0$MP Hidden Lines (00134167)
 48
5.0
100
AcDbLine
 10
-1.725919999998952
 20
-28.40109396003209
 30
0.0
 11
-1.72591999999895
 21
-29.65797811318589
 31
0.0
  0
LINE
  5
100E8
330
FDCF
100
AcDbEntity
  8
mp001491$0$MP Hidden Lines (00134167)
 48
5.0
100
AcDbLine
 10
-2.529919999999039
 20
-28.02618260287454
 30
0.0
 11
2.529920000000856
 21
-29.49850889706795
 31
0.0
  0
LINE
  5
100E9
330
FDCF
100
AcDbEntity
  8
mp001491$0$MP Hidden Lines (00134167)
 48
5.0
100
AcDbLine
 10
-1.725919999998952
 20
-27.51397811318566
 30
0.0
 11
2.529920000000856
 21
-29.49850889706795
 31
0.0
  0
LINE
  5
100EA
330
FDCF
100
AcDbEntity
  8
mp001491$0$MP Hidden Lines (00134167)
 48
5.0
100
AcDbLine
 10
2.529920000000856
 20
-29.49850889706795
 30
0.0
 11
1.725920000000769
 21
-30.01071338675683
 31
0.0
  0
LINE
  5
100EB
330
FDCF
100
AcDbEntity
  8
mp001491$0$MP Hidden Lines (00134167)
 48
5.0
100
AcDbLine
 10
-2.529919999999037
 20
-21.59418260287385
 30
0.0
 11
1.725920000000769
 21
-23.57871338675796
 31
0.0
  0
LINE
  5
100EC
330
FDCF
100
AcDbEntity
  8
mp001491$0$MP Hidden Lines (00134167)
 48
5.0
100
AcDbLine
 10
1.725920000000769
 20
-23.57871338675796
 30
0.0
 11
1.725920000000769
 21
-24.83559753991176
 31
0.0
  0
LINE
  5
100ED
330
FDCF
100
AcDbEntity
  8
mp001491$0$MP Hidden Lines (00134167)
 48
5.0
100
AcDbLine
 10
1.725920000000769
 20
-21.43471338675772
 30
0.0
 11
1.725920000000769
 21
-22.69159753991153
 31
0.0
  0
LINE
  5
100EE
330
FDCF
100
AcDbEntity
  8
mp001491$0$MP Hidden Lines (00134167)
 48
5.0
100
AcDbLine
 10
-1.72591999999895
 20
-21.08197811318496
 30
0.0
 11
-2.529919999999037
 21
-21.59418260287385
 31
0.0
  0
LINE
  5
100EF
330
FDCF
100
AcDbEntity
  8
mp001491$0$MP Hidden Lines (00134167)
 48
5.0
100
AcDbLine
 10
-1.72591999999895
 20
-21.96909396003139
 30
0.0
 11
-1.72591999999895
 21
-23.22597811318519
 31
0.0
  0
LINE
  5
100F0
330
FDCF
100
AcDbEntity
  8
mp001491$0$MP Hidden Lines (00134167)
 48
5.0
100
AcDbLine
 10
-1.72591999999895
 20
-23.22597811318519
 30
0.0
 11
-2.529919999999037
 21
-23.73818260287408
 31
0.0
  0
LINE
  5
100F1
330
FDCF
100
AcDbEntity
  8
mp001491$0$MP Hidden Lines (00134167)
 48
5.0
100
AcDbLine
 10
-2.529919999999037
 20
-23.73818260287408
 30
0.0
 11
1.725920000000769
 21
-25.72271338675637
 31
0.0
  0
LINE
  5
100F2
330
FDCF
100
AcDbEntity
  8
mp001491$0$MP Hidden Lines (00134167)
 48
5.0
100
AcDbLine
 10
-2.529919999999037
 20
-23.73818260287408
 30
0.0
 11
2.529920000000856
 21
-25.21050889706748
 31
0.0
  0
LINE
  5
100F3
330
FDCF
100
AcDbEntity
  8
mp001491$0$MP Hidden Lines (00134167)
 48
5.0
100
AcDbLine
 10
-2.529919999999037
 20
-21.59418260287385
 30
0.0
 11
2.529920000000856
 21
-23.06650889706725
 31
0.0
  0
LINE
  5
100F4
330
FDCF
100
AcDbEntity
  8
mp001491$0$MP Hidden Lines (00134167)
 48
5.0
100
AcDbLine
 10
-1.72591999999895
 20
-21.08197811318496
 30
0.0
 11
2.529920000000856
 21
-23.06650889706725
 31
0.0
  0
LINE
  5
100F5
330
FDCF
100
AcDbEntity
  8
mp001491$0$MP Hidden Lines (00134167)
 48
5.0
100
AcDbLine
 10
-1.72591999999895
 20
-23.22597811318519
 30
0.0
 11
2.529920000000856
 21
-25.21050889706748
 31
0.0
  0
LINE
  5
100F6
330
FDCF
100
AcDbEntity
  8
mp001491$0$MP Hidden Lines (00134167)
 48
5.0
100
AcDbLine
 10
2.529920000000856
 20
-25.21050889706748
 30
0.0
 11
1.725920000000769
 21
-25.72271338675637
 31
0.0
  0
LINE
  5
100F7
330
FDCF
100
AcDbEntity
  8
mp001491$0$MP Hidden Lines (00134167)
 48
5.0
100
AcDbLine
 10
2.529920000000856
 20
-23.06650889706725
 30
0.0
 11
1.725920000000769
 21
-23.57871338675796
 31
0.0
  0
LINE
  5
100F8
330
FDCF
100
AcDbEntity
  8
mp001491$0$MP Hidden Lines (00134167)
 48
5.0
100
AcDbLine
 10
-2.529919999999037
 20
-30.17018260287477
 30
0.0
 11
2.153728779254379
 21
-31.4670880499034
 31
0.0
  0
LINE
  5
100F9
330
FDCF
100
AcDbEntity
  8
mp001491$0$MP Hidden Lines (00134167)
 48
5.0
100
AcDbLine
 10
-2.529919999999037
 20
-30.17018260287477
 30
0.0
 11
1.084210917062591
 21
-31.85547952707566
 31
0.0
  0
LINE
  5
100FA
330
FDCF
100
AcDbEntity
  8
mp001491$0$MP Hidden Lines (00134167)
 48
5.0
100
AcDbLine
 10
-1.72591999999895
 20
-29.65797811318589
 30
0.0
 11
2.153728779254379
 21
-31.46708804990158
 31
0.0
  0
LINE
  5
100FB
330
FDCF
100
AcDbEntity
  8
mp001491$0$MP Hidden Lines (00134167)
 48
5.0
100
AcDbLine
 10
1.725920000000769
 20
-30.01071338675683
 30
0.0
 11
1.349728779254292
 21
-31.09217669274585
 31
0.0
  0
LINE
  5
100FC
330
FDCF
100
AcDbEntity
  8
mp001491$0$MP Hidden Lines (00134167)
 48
5.0
100
AcDbLine
 10
1.725920000000769
 20
-30.01071338675683
 30
0.0
 11
1.349728779254292
 21
-31.09217669274585
 31
0.0
  0
LINE
  5
100FD
330
FDCF
100
AcDbEntity
  8
mp001491$0$MP Hidden Lines (00134167)
 48
5.0
100
AcDbLine
 10
-2.529919999999037
 20
-17.3061826028752
 30
0.0
 11
1.725920000000769
 21
-19.29071338675749
 31
0.0
  0
LINE
  5
100FE
330
FDCF
100
AcDbEntity
  8
mp001491$0$MP Hidden Lines (00134167)
 48
5.0
100
AcDbLine
 10
1.725920000000769
 20
-19.29071338675749
 30
0.0
 11
1.725920000000767
 21
-20.54759753991129
 31
0.0
  0
LINE
  5
100FF
330
FDCF
100
AcDbEntity
  8
mp001491$0$MP Hidden Lines (00134167)
 48
5.0
100
AcDbLine
 10
1.725920000000769
 20
-17.14671338675725
 30
0.0
 11
1.725920000000769
 21
-18.40359753991106
 31
0.0
  0
LINE
  5
10100
330
FDCF
100
AcDbEntity
  8
mp001491$0$MP Hidden Lines (00134167)
 48
5.0
100
AcDbLine
 10
-1.72591999999895
 20
-16.79397811318449
 30
0.0
 11
-2.529919999999037
 21
-17.3061826028752
 31
0.0
  0
LINE
  5
10101
330
FDCF
100
AcDbEntity
  8
mp001491$0$MP Hidden Lines (00134167)
 48
5.0
100
AcDbLine
 10
-1.72591999999895
 20
-18.93797811318473
 30
0.0
 11
-2.529919999999037
 21
-19.45018260287361
 31
0.0
  0
LINE
  5
10102
330
FDCF
100
AcDbEntity
  8
mp001491$0$MP Hidden Lines (00134167)
 48
5.0
100
AcDbLine
 10
-1.72591999999895
 20
-17.68109396003092
 30
0.0
 11
-1.72591999999895
 21
-18.93797811318473
 31
0.0
  0
LINE
  5
10103
330
FDCF
100
AcDbEntity
  8
mp001491$0$MP Hidden Lines (00134167)
 48
5.0
100
AcDbLine
 10
-2.529919999999037
 20
-13.01818260287473
 30
0.0
 11
1.725920000000769
 21
-15.00271338675702
 31
0.0
  0
LINE
  5
10104
330
FDCF
100
AcDbEntity
  8
mp001491$0$MP Hidden Lines (00134167)
 48
5.0
100
AcDbLine
 10
1.725920000000769
 20
-15.00271338675702
 30
0.0
 11
1.725920000000769
 21
-16.25959753991083
 31
0.0
  0
LINE
  5
10105
330
FDCF
100
AcDbEntity
  8
mp001491$0$MP Hidden Lines (00134167)
 48
5.0
100
AcDbLine
 10
-1.72591999999895
 20
-14.64997811318426
 30
0.0
 11
-2.529919999999037
 21
-15.16218260287496
 31
0.0
  0
LINE
  5
10106
330
FDCF
100
AcDbEntity
  8
mp001491$0$MP Hidden Lines (00134167)
 48
5.0
100
AcDbLine
 10
-1.725919999998952
 20
-12.50597811318584
 30
0.0
 11
-2.529919999999037
 21
-13.01818260287473
 31
0.0
  0
LINE
  5
10107
330
FDCF
100
AcDbEntity
  8
mp001491$0$MP Hidden Lines (00134167)
 48
5.0
100
AcDbLine
 10
-1.72591999999895
 20
-13.39309396003045
 30
0.0
 11
-1.72591999999895
 21
-14.64997811318426
 31
0.0
  0
LINE
  5
10108
330
FDCF
100
AcDbEntity
  8
mp001491$0$MP Hidden Lines (00134167)
 48
5.0
100
AcDbLine
 10
-2.529919999999037
 20
-15.16218260287496
 30
0.0
 11
1.725920000000769
 21
-17.14671338675725
 31
0.0
  0
LINE
  5
10109
330
FDCF
100
AcDbEntity
  8
mp001491$0$MP Hidden Lines (00134167)
 48
5.0
100
AcDbLine
 10
-1.72591999999895
 20
-15.53709396003069
 30
0.0
 11
-1.72591999999895
 21
-16.79397811318449
 31
0.0
  0
LINE
  5
1010A
330
FDCF
100
AcDbEntity
  8
mp001491$0$MP Hidden Lines (00134167)
 48
5.0
100
AcDbLine
 10
-2.529919999999037
 20
-19.45018260287361
 30
0.0
 11
2.529920000000858
 21
-20.92250889706702
 31
0.0
  0
LINE
  5
1010B
330
FDCF
100
AcDbEntity
  8
mp001491$0$MP Hidden Lines (00134167)
 48
5.0
100
AcDbLine
 10
-1.72591999999895
 20
-18.93797811318473
 30
0.0
 11
2.529920000000858
 21
-20.92250889706702
 31
0.0
  0
LINE
  5
1010C
330
FDCF
100
AcDbEntity
  8
mp001491$0$MP Hidden Lines (00134167)
 48
5.0
100
AcDbLine
 10
-2.529919999999037
 20
-15.16218260287496
 30
0.0
 11
2.529920000000856
 21
-16.63450889706837
 31
0.0
  0
LINE
  5
1010D
330
FDCF
100
AcDbEntity
  8
mp001491$0$MP Hidden Lines (00134167)
 48
5.0
100
AcDbLine
 10
-1.72591999999895
 20
-14.64997811318426
 30
0.0
 11
2.529920000000856
 21
-16.63450889706837
 31
0.0
  0
LINE
  5
1010E
330
FDCF
100
AcDbEntity
  8
mp001491$0$MP Hidden Lines (00134167)
 48
5.0
100
AcDbLine
 10
-2.529919999999037
 20
-13.01818260287473
 30
0.0
 11
2.529920000000856
 21
-14.49050889706813
 31
0.0
  0
LINE
  5
1010F
330
FDCF
100
AcDbEntity
  8
mp001491$0$MP Hidden Lines (00134167)
 48
5.0
100
AcDbLine
 10
-1.725919999998952
 20
-12.50597811318584
 30
0.0
 11
2.529920000000856
 21
-14.49050889706813
 31
0.0
  0
LINE
  5
10110
330
FDCF
100
AcDbEntity
  8
mp001491$0$MP Hidden Lines (00134167)
 48
5.0
100
AcDbLine
 10
-2.529919999999037
 20
-17.3061826028752
 30
0.0
 11
2.529920000000856
 21
-18.7785088970686
 31
0.0
  0
LINE
  5
10111
330
FDCF
100
AcDbEntity
  8
mp001491$0$MP Hidden Lines (00134167)
 48
5.0
100
AcDbLine
 10
-1.72591999999895
 20
-16.79397811318449
 30
0.0
 11
2.529920000000856
 21
-18.7785088970686
 31
0.0
  0
LINE
  5
10112
330
FDCF
100
AcDbEntity
  8
mp001491$0$MP Hidden Lines (00134167)
 48
5.0
100
AcDbLine
 10
2.529920000000856
 20
-16.63450889706837
 30
0.0
 11
1.725920000000769
 21
-17.14671338675725
 31
0.0
  0
LINE
  5
10113
330
FDCF
100
AcDbEntity
  8
mp001491$0$MP Hidden Lines (00134167)
 48
5.0
100
AcDbLine
 10
2.529920000000856
 20
-14.49050889706813
 30
0.0
 11
1.725920000000769
 21
-15.00271338675702
 31
0.0
  0
LINE
  5
10114
330
FDCF
100
AcDbEntity
  8
mp001491$0$MP Hidden Lines (00134167)
 48
5.0
100
AcDbLine
 10
2.529920000000856
 20
-18.7785088970686
 30
0.0
 11
1.725920000000769
 21
-19.29071338675749
 31
0.0
  0
LINE
  5
10115
330
FDCF
100
AcDbEntity
  8
mp001491$0$MP Hidden Lines (00134167)
 48
5.0
100
AcDbLine
 10
-2.529919999999037
 20
-19.45018260287361
 30
0.0
 11
1.725920000000769
 21
-21.43471338675772
 31
0.0
  0
LINE
  5
10116
330
FDCF
100
AcDbEntity
  8
mp001491$0$MP Hidden Lines (00134167)
 48
5.0
100
AcDbLine
 10
2.529920000000858
 20
-20.92250889706702
 30
0.0
 11
1.725920000000769
 21
-21.43471338675772
 31
0.0
  0
LINE
  5
10117
330
FDCF
100
AcDbEntity
  8
mp001491$0$MP Hidden Lines (00134167)
 48
5.0
100
AcDbLine
 10
-1.72591999999895
 20
-19.82509396003115
 30
0.0
 11
-1.72591999999895
 21
-21.08197811318496
 31
0.0
  0
LINE
  5
10118
330
FDCF
100
AcDbEntity
  8
mp001491$0$MP Hidden Lines (00134167)
 48
5.0
100
AcDbLine
 10
1.725920000000769
 20
-25.72271338675637
 30
0.0
 11
1.725920000000769
 21
-26.97959753991199
 31
0.0
  0
LINE
  5
10119
330
FDCF
100
AcDbEntity
  8
mp001491$0$MP Hidden Lines (00134167)
 48
5.0
100
AcDbLine
 10
-1.72591999999895
 20
-24.11309396003162
 30
0.0
 11
-1.72591999999895
 21
-25.36997811318542
 31
0.0
  0
LINE
  5
1011A
330
FDCF
100
AcDbEntity
  8
mp001491$0$MP Hidden Lines (00134167)
 48
5.0
100
AcDbLine
 10
-1.72591999999895
 20
-25.36997811318542
 30
0.0
 11
-2.529919999999037
 21
-25.88218260287431
 31
0.0
  0
LINE
  5
1011B
330
FDCF
100
AcDbEntity
  8
mp001491$0$MP Hidden Lines (00134167)
 48
5.0
100
AcDbLine
 10
-2.529919999999037
 20
-25.88218260287431
 30
0.0
 11
1.725920000000767
 21
-27.8667133867566
 31
0.0
  0
LINE
  5
1011C
330
FDCF
100
AcDbEntity
  8
mp001491$0$MP Hidden Lines (00134167)
 48
5.0
100
AcDbLine
 10
-2.529919999999037
 20
-25.88218260287431
 30
0.0
 11
2.529920000000855
 21
-27.35450889706772
 31
0.0
  0
LINE
  5
1011D
330
FDCF
100
AcDbEntity
  8
mp001491$0$MP Hidden Lines (00134167)
 48
5.0
100
AcDbLine
 10
-1.72591999999895
 20
-25.36997811318542
 30
0.0
 11
2.529920000000855
 21
-27.35450889706772
 31
0.0
  0
LINE
  5
1011E
330
FDCF
100
AcDbEntity
  8
mp001491$0$MP Hidden Lines (00134167)
 48
5.0
100
AcDbLine
 10
2.529920000000855
 20
-27.35450889706772
 30
0.0
 11
1.725920000000767
 21
-27.8667133867566
 31
0.0
  0
LINE
  5
1011F
330
FDCF
100
AcDbEntity
  8
0
100
AcDbLine
 10
-7.0
 20
0.0000000000000009
 30
0.0
 11
-7.0
 21
1.365495479007223
 31
0.0
  0
ENDBLK
  5
FDD1
330
FDCF
100
AcDbEntity
  8
0
100
AcDbBlockEnd
  0
BLOCK
  5
10148
330
10147
100
AcDbEntity
  8
0
100
AcDbBlockBegin
  2
*D11
 70
     1
 10
0.0
 20
0.0
 30
0.0
  3
*D11
  1

  0
LINE
  5
10154
330
10147
100
AcDbEntity
  8
MP Annotation (00134142)
370
     9
100
AcDbLine
 10
-69.06563752019156
 20
276.8468684594249
 30
0.0
 11
165.5655101118871
 21
276.8468684594248
 31
0.0
  0
LINE
  5
10155
330
10147
100
AcDbEntity
  8
MP Annotation (00134142)
370
     9
100
AcDbLine
 10
50.92489152825783
 20
226.8468684594249
 30
0.0
 11
165.5655101118871
 21
226.8468684594249
 31
0.0
  0
LINE
  5
10156
330
10147
100
AcDbEntity
  8
MP Annotation (00134142)
370
     9
100
AcDbLine
 10
163.5655101118871
 20
276.8468684594248
 30
0.0
 11
163.5655101118871
 21
260.5071685958504
 31
0.0
  0
LINE
  5
10157
330
10147
100
AcDbEntity
  8
MP Annotation (00134142)
370
     9
100
AcDbLine
 10
163.5655101118871
 20
226.8468684594249
 30
0.0
 11
163.5655101118871
 21
243.1865683229992
 31
0.0
  0
INSERT
  5
10158
330
10147
100
AcDbEntity
  8
MP Annotation (00134142)
370
     9
100
AcDbBlockReference
  2
_OBLIQUE
 10
163.5655101118871
 20
276.8468684594248
 30
0.0
 41
6.0
 42
6.0
 43
6.0
 50
90.0
  0
INSERT
  5
10159
330
10147
100
AcDbEntity
  8
MP Annotation (00134142)
370
     9
100
AcDbBlockReference
  2
_OBLIQUE
 10
163.5655101118871
 20
226.8468684594249
 30
0.0
 41
6.0
 42
6.0
 43
6.0
 50
270.0
  0
MTEXT
  5
1015A
330
10147
100
AcDbEntity
  8
MP Annotation (00134142)
100
AcDbMText
 10
163.565510111887
 20
251.8468684594249
 30
0.0
 40
4.0
 41
0.0
 46
0.0
 71
     5
 72
     1
  1
\A1;50 MIN
  7
2mm
 11
0.0000000000000001
 21
1.0
 31
0.0
 73
     1
 44
1.0
  0
POINT
  5
1015B
330
10147
100
AcDbEntity
  8
defpoints
 62
     0
100
AcDbPoint
 10
-75.06563752019156
 20
276.8468684594249
 30
0.0
  0
POINT
  5
1015C
330
10147
100
AcDbEntity
  8
defpoints
 62
     0
100
AcDbPoint
 10
44.92489152825783
 20
226.8468684594249
 30
0.0
  0
POINT
  5
1015D
330
10147
100
AcDbEntity
  8
defpoints
 62
     0
100
AcDbPoint
 10
163.5655101118871
 20
226.8468684594249
 30
0.0
  0
ENDBLK
  5
10149
330
10147
100
AcDbEntity
  8
0
100
AcDbBlockEnd
  0
BLOCK
  5
101BD
330
101BC
100
AcDbEntity
  8
0
100
AcDbBlockBegin
  2
*U14
 70
     1
 10
0.0
 20
0.0
 30
0.0
  3
*U14
  1

  0
MTEXT
  5
101BF
102
{ACAD_XDICTIONARY
360
101C0
102
}
330
101BC
100
AcDbEntity
  8
mp001455$0$MP Annotation (00134142) @ 2
100
AcDbMText
 10
0.0
 20
0.0
 30
0.0
 40
4.8
 41
71.49424212496978
 46
0.0
 71
     1
 72
     5
  1
Cavity 40mm - 75mm. Recommended 50mm.
  7
mp001455$0$Standard
 73
     1
 44
1.0
1001
ACAD_MLEADERVER
1070
     2
1001
AcadAnnotative
1000
AnnotativeData
1002
{
1070
     1
1070
     0
1002
}
  0
MTEXT
  5
101C8
102
{ACAD_XDICTIONARY
360
101C9
102
}
330
101BC
100
AcDbEntity
  8
mp001455$0$MP Annotation (00134142) @ 5
100
AcDbMText
 10
0.0
 20
0.0
 30
0.0
 40
12.0
 41
178.7356053124244
 46
0.0
 71
     1
 72
     5
  1
Cavity 40mm - 75mm. Recommended 50mm.
  7
mp001455$0$Standard
 73
     1
 44
1.0
1001
ACAD_MLEADERVER
1070
     2
1001
AcadAnnotative
1000
AnnotativeData
1002
{
1070
     1
1070
     0
1002
}
  0
ENDBLK
  5
101BE
330
101BC
100
AcDbEntity
  8
0
100
AcDbBlockEnd
  0
BLOCK
  5
101D3
330
101D2
100
AcDbEntity
  8
0
100
AcDbBlockBegin
  2
*U15
 70
     1
 10
0.0
 20
0.0
 30
0.0
  3
*U15
  1

  0
MTEXT
  5
101D5
102
{ACAD_XDICTIONARY
360
101D6
102
}
330
101D2
100
AcDbEntity
  8
mp001460$0$MP Annotation (00134142) @ 2
100
AcDbMText
 10
0.0
 20
0.0
 30
0.0
 40
4.8
 41
71.49424212496978
 46
0.0
 71
     1
 72
     5
  1
MASONS Aluminium Weep Hole Grille
  7
mp001460$0$Standard
 73
     1
 44
1.0
1001
ACAD_MLEADERVER
1070
     2
1001
AcadAnnotative
1000
AnnotativeData
1002
{
1070
     1
1070
     0
1002
}
  0
MTEXT
  5
101DE
102
{ACAD_XDICTIONARY
360
101DF
102
}
330
101D2
100
AcDbEntity
  8
mp001460$0$MP Annotation (00134142) @ 5
100
AcDbMText
 10
0.0
 20
0.0
 30
0.0
 40
12.0
 41
178.7356053124244
 46
0.0
 71
     1
 72
     5
  1
MASONS Aluminium Weep Hole Grille
  7
mp001460$0$Standard
 73
     1
 44
1.0
1001
ACAD_MLEADERVER
1070
     2
1001
AcadAnnotative
1000
AnnotativeData
1002
{
1070
     1
1070
     0
1002
}
  0
ENDBLK
  5
101D4
330
101D2
100
AcDbEntity
  8
0
100
AcDbBlockEnd
  0
ENDSEC
  0
SECTION
  2
ENTITIES
  0
MTEXT
  5
4852
102
{ACAD_XDICTIONARY
360
F964
102
}
330
1F
100
AcDbEntity
  8
MP Annotation (00134142) @ 2
100
AcDbMText
 10
47.21441272018796
 20
12.56588740755856
 30
0.0
 40
8.8
 41
0.0
 46
0.0
 71
     1
 72
     5
  1
{\fArial|b1|i0|c0|p34;Detail 11   Scale 1:2}
 73
     1
 44
1.0
1001
ACAD_MLEADERVER
1070
     2
1001
AcadAnnotative
1000
AnnotativeData
1002
{
1070
     1
1070
     0
1002
}
  0
INSERT
  5
65A6
330
1F
100
AcDbEntity
  8
0
100
AcDbBlockReference
  2
mp000096
 10
-4.936210305828808
 20
-32.74584842802326
 30
0.0
 41
0.09375
 42
0.09375
 43
0.09375
1001
AEC_XDATA_BOUND_SPACE
1070
   100
1070
     1
  0
MTEXT
  5
6674
102
{ACAD_XDICTIONARY
360
F96A
102
}
330
1F
100
AcDbEntity
  8
MP Annotation (00134142) @ 2
100
AcDbMText
 10
-179.0958003709954
 20
12.56588740755856
 30
0.0
 40
8.8
 41
202.1789529078724
 46
0.0
 71
     1
 72
     5
  1
{\fArial|b1|i0|c0|p34;FOUNDATION OPTION}
 73
     1
 44
1.0
1001
ACAD_MLEADERVER
1070
     2
1001
AcadAnnotative
1000
AnnotativeData
1002
{
1070
     1
1070
     0
1002
}
  0
INSERT
  5
8414
102
{ACAD_XDICTIONARY
360
F96F
102
}
330
1F
100
AcDbEntity
  8
MP Annotation (00134142) @ 2
100
AcDbBlockReference
  2
*U8
 10
158.6525489163625
 20
226.8468684594246
 30
0.0
 41
2.0
 42
2.0
 43
2.0
 50
90.0
  0
MULTILEADER
  5
8611
102
{ACAD_XDICTIONARY
360
8612
102
}
330
1F
100
AcDbEntity
  8
MP Annotation (00134142) @ 2
 92
      568
310
38020000100000000C00000010000000220000000C00000016000000000000C00C00000013000000112700003C0000000600000002000000609842BDCF0549409D21F377ACC66F40000000000000000070070C65738D56409D21F377ACC66F4000000000000000000C00000013000000010000000C00000014000000010000
310
00540000000700000003000000E428F34EC3D63F40D0D88EC051596D400000000000000000C0882B1B77B73B40ED3CE6D0ECFA6C400000000000000000D331C40ECEA83E4057DA60D1FF7E6D4000000000000000000C00000013000000891300003C00000006000000020000005BADDBAEC83F3F4093D9F7C8286C6D400000
310
000000000000609842BDCF0549409D21F377ACC66F4000000000000000000C000000130000009A3A00000C00000016000000000000C00C00000012000000FF7F00000C00000017000000FFFFFFFF0C00000016000000000000C00C00000013000000993A0000D40000002600000050679237E76F5640A5D72582BA8D6F4000
310
0000000000000000000000000000000000000000000000000000000000F03F000000000000F03F000000000000000000000000000000004D00410053004F004E00530020004400720079006600690078002000440050004300000011000000010000003433333333331340000000000000F03F000000000000000000000000
310
0000F03F00000000000000000000000000000000000000000000000000000000010000002200000041007200690061006C0000000000000000007300
100
AcDbMLeader
300
CONTEXT_DATA{
 40
2.0
 10
90.21016813444816
 20
254.2085532902392
 30
0.0
 41
4.8
140
5.0
145
0.036
174
     1
175
     1
176
     0
177
     0
290
     1
304
MASONS Dryfix DPC
 11
0.0
 21
0.0
 31
1.0
340
11
 12
90.24616813444817
 22
257.3141467418081
 32
0.0
 13
1.0
 23
0.0
 33
0.0
 42
0.0
 43
65.10132702625742
 44
0.0
 45
1.0
170
     1
 90
-1073741824
171
     1
172
     5
 91
-1073741824
141
0.0
 92
  2952328
291
     0
292
     0
173
     0
293
     0
142
0.0
143
0.0
294
     0
295
     0
296
     0
110
365.8712297266607
120
270.254516047719
130
0.0
111
1.0
121
0.0
131
0.0
112
0.0
122
1.0
132
0.0
297
     0
302
LEADER{
290
     1
291
     1
 10
50.04540220023841
 20
254.2085532902392
 30
0.0
 11
1.0
 21
0.0
 31
0.0
 90
        0
 40
40.16476593420975
304
LEADER_LINE{
 10
27.71666116535994
 20
231.8414082047306
 30
0.0
 91
        0
305
}
303
}
301
}
340
2C4
 90
   345760
170
     1
 91
-1073741824
341
15
171
    -1
290
     1
291
     1
 41
0.3635
 42
2.5
172
     2
343
11
173
     1
 95
        1
174
     1
175
     0
 92
-1056964608
292
     0
 93
-1056964608
 10
1.0
 20
1.0
 30
1.0
 43
0.0
176
     0
293
     0
294
     0
178
     0
179
     1
 45
2.0
1001
ACAD_MLEADERVER
1070
     2
  0
MULTILEADER
  5
8616
102
{ACAD_XDICTIONARY
360
8617
102
}
330
1F
100
AcDbEntity
  8
MP Annotation (00134142) @ 2
 92
      572
310
3C020000100000000C00000010000000220000000C00000016000000000000C00C00000013000000112700003C0000000600000002000000A0841328F0834D40BE7D5B0844706640000000000000000070070C65738D5640BE7D5B084470664000000000000000000C00000013000000010000000C00000014000000010000
310
00540000000700000003000000232BB20D85FF35409723B1DC995566400000000000000000C01B8F2485FF30400D7D8198447066400000000000000000AAFD6B3B85FF35409E780632EF8A664000000000000000000C00000013000000891300003C000000060000000200000066148F2485FF35401BCE5B87447066400000
310
000000000000A0841328F0834D40BE7D5B084470664000000000000000000C000000130000009A3A00000C00000016000000000000C00C00000012000000FF7F00000C00000017000000FFFFFFFF0C00000016000000000000C00C00000013000000993A0000D80000002600000064615774617A5640AF11F6F32722664000
310
0000000000000000000000000000000000000000000000000000000000F03F000000000000F03F0000000000000000000000000000000043006F006E0063007200650074006500200066006F0075006E0064006100740069006F006E00000013000000010000003433333333331340000000000000F03F0000000000000000
310
000000000000F03F00000000000000000000000000000000000000000000000000000000010000002200000041007200690061006C0000000000000000000000
100
AcDbMLeader
300
CONTEXT_DATA{
 40
2.0
 10
90.21016813444816
 20
179.5083047663629
 30
0.0
 41
4.8
140
5.0
145
0.036
174
     1
175
     1
176
     0
177
     0
290
     1
304
Concrete foundation
 11
0.0
 21
0.0
 31
1.0
340
11
 12
90.24616813444822
 22
181.9492324607694
 32
0.0
 13
1.0
 23
0.0
 33
0.0
 42
0.0
 43
65.10132702625742
 44
0.0
 45
1.0
170
     1
 90
-1073741824
171
     1
172
     5
 91
-1073741824
141
0.0
 92
  2952328
291
     0
292
     0
173
     0
293
     0
142
0.0
143
0.0
294
     0
295
     0
296
     0
110
371.2165507876939
120
302.1912273884215
130
0.0
111
1.0
121
0.0
131
0.0
112
0.0
122
1.0
132
0.0
297
     0
302
LEADER{
290
     1
291
     1
 10
59.03076649621039
 20
179.5083047663629
 30
0.0
 11
1.0
 21
0.0
 31
0.0
 90
        0
 40
31.17940163823778
304
LEADER_LINE{
 10
16.99812534803254
 20
179.5083735016891
 30
0.0
 91
        0
305
}
303
}
301
}
340
2C4
 90
   345760
170
     1
 91
-1073741824
341
15
171
    -1
290
     1
291
     1
 41
0.3635
 42
2.5
172
     2
343
11
173
     1
 95
        1
174
     1
175
     0
 92
-1056964608
292
     0
 93
-1056964608
 10
1.0
 20
1.0
 30
1.0
 43
0.0
176
     0
293
     0
294
     0
178
     0
179
     1
 45
2.0
1001
ACAD_MLEADERVER
1070
     2
  0
MTEXT
  5
861B
330
1F
100
AcDbEntity
  8
MP Annotation (00134142)
100
AcDbMText
 10
88.75389727904234
 20
110.4209671028127
 30
0.0
 40
4.8
 41
53.2334393338059
 46
4.88218927637431
 71
     1
 72
     5
  1
Ground
 73
     1
 44
1.0
1001
ACAD_MLEADERVER
1070
     2
  0
LWPOLYLINE
  5
CF8A
102
{ACAD_REACTORS
330
D856
102
}
330
1F
100
AcDbEntity
  8
Detail Line Breaks (00134164)
100
AcDbPolyline
 90
       21
 70
     0
 43
0.0
 10
176.4610978532275
 20
123.4231842896163
 10
176.4610978532275
 20
83.0935533610955
 10
166.3667886371777
 20
77.2656012179248
 10
186.5724177808947
 20
77.26560121792477
 10
176.4610978532275
 20
71.42782793582253
 10
176.4610978532275
 20
41.785945859099
 10
4.573474289106798
 20
41.785945859099
 10
-1.254477854063907
 20
51.88025507514885
 10
-1.254477854063907
 20
31.67462593143182
 10
-7.092251136166055
 20
41.785945859099
 10
-195.7498980709326
 20
41.785945859099
 10
-195.7498980709326
 20
252.8039487769641
 10
-185.6385781432654
 20
258.6417220590663
 10
-205.8442072869825
 20
258.6417220590663
 10
-195.7498980709326
 20
264.469674202237
 10
-195.7498980709326
 20
442.7667328168825
 10
-113.799359571042
 20
442.7667328168825
 10
-107.9615862889397
 20
432.6554128892153
 10
-107.9615862889397
 20
452.8610420329323
 10
-102.133634145769
 20
442.7667328168825
 10
71.47648012251306
 20
442.7667328168825
  0
LINE
  5
D008
330
1F
100
AcDbEntity
  8
Detail Brick Veneer Perimeter (00134240)
100
AcDbLine
 10
44.93436247980844
 20
236.8468686202053
 30
0.0
 11
-25.06563752019156
 21
236.8468686202052
 31
0.0
  0
LINE
  5
D00A
330
1F
100
AcDbEntity
  8
Timber Perimeter (00134144)
100
AcDbLine
 10
-75.06563752019156
 20
281.8152048011945
 30
0.0
 11
-165.0656375201915
 21
281.8152048011945
 31
0.0
  0
LINE
  5
D00B
330
1F
100
AcDbEntity
  8
Timber Inner (00134145)
100
AcDbLine
 10
-165.0656375201915
 20
281.8152048011945
 30
0.0
 11
-75.06563752019156
 21
326.8152048011945
 31
0.0
  0
HATCH
  5
D011
330
1F
100
AcDbEntity
  8
MASONS Render & Coating System Hatch (00134156)
100
AcDbHatch
 10
0.0
 20
0.0
 30
0.0
210
0.0
220
0.0
230
1.0
  2
AR-SAND
 70
     0
 71
     0
 91
        3
 92
        1
 93
        3
 72
     1
 10
44.92489152825783
 20
226.8468684594249
 11
44.92489152825783
 21
223.066068459425
 72
     1
 10
44.92489152825783
 20
223.066068459425
 11
44.92798877897704
 21
226.8468684594249
 72
     1
 10
44.92798877897712
 20
226.8468684594249
 11
44.92489152825791
 21
226.8468684594249
 97
        0
 92
        1
 93
        3
 72
     2
 10
64.25315352393432
 20
228.8374404865569
 40
12.63287800823818
 50
189.0659217251687
 51
207.1842424595901
 73
     1
 72
     1
 10
53.01567730836587
 20
223.0660684594248
 11
53.01567730836587
 21
226.8468684594249
 72
     1
 10
53.01567730836587
 20
226.8468684594249
 11
51.77808920442761
 21
226.8468684594249
 97
        0
 92
        1
 93
        6
 72
     1
 10
53.00620453557758
 20
216.8468684594244
 11
44.92489152825784
 21
216.8468684594245
 72
     1
 10
44.92489152825784
 20
216.8468684594245
 11
44.92489152825783
 21
82.18381786505544
 72
     1
 10
44.92489152825783
 20
82.18381786505544
 11
53.01567730836587
 21
82.18381786505542
 72
     1
 10
53.01567730836587
 20
82.18381786505542
 11
53.01567730836587
 21
223.0660684594248
 72
     1
 10
53.01567730836587
 20
223.0660684594248
 11
50.79271139573105
 21
223.0660684594249
 72
     2
 10
42.4769852746778
 20
216.6028894360991
 40
10.53204557566694
 50
322.1448037801195
 51
358.6726017470563
 73
     0
 97
        0
 75
     0
 76
     1
 52
0.0
 41
3.0
 77
     0
 78
     4
 53
37.5
 43
50.30744031944777
 44
-0.0000000000000853
 45
-0.1889800743288245
 46
5.780471307039475
 79
     6
 49
0.0
 49
-4.56
 49
0.0
 49
-5.099999999999999
 49
0.0
 49
-4.875
 53
7.499999999999999
 43
50.30744031944777
 44
-0.0000000000000853
 45
5.309330115803181
 46
8.466438195689221
 79
     6
 49
0.0
 49
-2.459999999999999
 49
0.0
 49
-4.11
 49
0.0
 49
-1.575
 53
327.5
 43
46.61744031944772
 44
-0.0000000000000853
 45
9.342425585254485
 46
0.0169771606108935
 79
     6
 49
0.0
 49
-1.5
 49
0.0
 49
-5.4
 49
0.0
 49
-7.05
 53
317.5
 43
46.61744031944772
 44
-0.0000000000000853
 45
9.01837981371688
 46
2.633026694802747
 79
     6
 49
0.0
 49
-0.75
 49
0.0
 49
-3.54
 49
0.0
 49
-4.05
 98
        1
 10
48.65276354739126
 20
184.2582331664111
1001
ACAD
1010
0.0
1020
0.0
1030
0.0
  0
LINE
  5
D01F
102
{ACAD_REACTORS
330
E660
102
}
330
1F
100
AcDbEntity
  8
Detail Concrete Perimeter (00134151)
100
AcDbLine
 10
44.92489152825783
 20
226.8468684594249
 30
0.0
 11
-75.06563752019156
 21
226.8468684594249
 31
0.0
  0
LINE
  5
D020
102
{ACAD_REACTORS
330
E660
102
}
330
1F
100
AcDbEntity
  8
Detail Concrete Perimeter (00134151)
100
AcDbLine
 10
-75.06563752019156
 20
226.8468684594249
 30
0.0
 11
-75.06563752019156
 21
276.8468684594249
 31
0.0
  0
LINE
  5
D021
330
1F
100
AcDbEntity
  8
Detail Concrete Perimeter (00134151)
100
AcDbLine
 10
-75.06563752019156
 20
276.8468684594249
 30
0.0
 11
-195.7498980709326
 21
276.8468684594249
 31
0.0
  0
LINE
  5
D028
330
1F
100
AcDbEntity
  8
Timber Perimeter (00134144)
100
AcDbLine
 10
-165.0656375201915
 20
281.8152048011945
 30
0.0
 11
-165.0656375201915
 21
326.8152048011945
 31
0.0
  0
LINE
  5
D029
330
1F
100
AcDbEntity
  8
Timber Perimeter (00134144)
100
AcDbLine
 10
-165.0656375201915
 20
326.8152048011945
 30
0.0
 11
-75.06563752019156
 21
326.8152048011945
 31
0.0
  0
LINE
  5
D02A
330
1F
100
AcDbEntity
  8
Timber Perimeter (00134144)
100
AcDbLine
 10
-75.06563752019156
 20
326.8152048011945
 30
0.0
 11
-75.06563752019156
 21
281.8152048011945
 31
0.0
  0
LINE
  5
D037
330
1F
100
AcDbEntity
  8
Timber Inner (00134145)
100
AcDbLine
 10
-75.06563752019156
 20
281.8152048011945
 30
0.0
 11
-165.0656375201915
 21
326.8152048011945
 31
0.0
  0
LINE
  5
D038
330
1F
100
AcDbEntity
  8
Timber Perimeter (00134144)
100
AcDbLine
 10
-75.06563752019156
 20
326.8152048011945
 30
0.0
 11
-75.06563752019156
 21
442.7667328168825
 31
0.0
  0
LINE
  5
D03A
330
1F
100
AcDbEntity
  8
MASONS Barricade Building Wrap Perimeter (00134139)
 48
5.0
100
AcDbLine
 10
-165.0656375201915
 20
280.0309415347491
 30
0.0
 11
-73.10395524934211
 21
280.0309415347491
 31
0.0
  0
LWPOLYLINE
  5
D03B
330
1F
100
AcDbEntity
  8
MASONS Barricade Building Wrap Perimeter (00134139)
 48
5.0
100
AcDbPolyline
 90
        3
 70
     0
 43
0.0
 10
-73.10522341769114
 20
280.0309415347491
 10
-73.10395524934211
 20
442.7667328168825
 10
-73.10395524934211
 20
442.7667328168825
  0
LWPOLYLINE
  5
D04E
330
1F
100
AcDbEntity
  8
Detail Linning Inner Perimeter (00134146)
100
AcDbPolyline
 90
        5
 70
     0
 43
0.0
 10
-165.0656375201915
 20
442.7667328168825
 10
-165.0656375201915
 20
292.6134056751536
 10
-165.0656375201915
 20
282.6144251168417
 10
-175.0646180785033
 20
282.6144251168417
 10
-175.0646180785033
 20
442.7667328168825
  0
LINE
  5
D0BB
330
1F
100
AcDbEntity
  8
Detail Ground Perimeter (00134162)
100
AcDbLine
 10
53.01567730836587
 20
105.148724405068
 30
0.0
 11
176.4610978532275
 21
105.148724405068
 31
0.0
  0
LINE
  5
D0C3
102
{ACAD_REACTORS
330
D011
102
}
330
1F
100
AcDbEntity
  8
MASONS Render & Coating System Perimeter (00134155)
100
AcDbLine
 10
53.01567730836587
 20
82.18381786505544
 30
0.0
 11
44.92489152825783
 21
82.18381786505544
 31
0.0
  0
LINE
  5
D0C4
330
1F
100
AcDbEntity
  8
Detail Concrete Perimeter (00134151)
100
AcDbLine
 10
44.92489152825783
 20
41.785945859099
 30
0.0
 11
44.92489152825783
 21
226.8468684594249
 31
0.0
  0
LINE
  5
D113
330
1F
100
AcDbEntity
  8
MASONS Plaster Perimeter (00134237)
100
AcDbLine
 10
44.93436247980844
 20
306.8468686202052
 30
0.0
 11
-25.06563752019156
 21
306.8468686202052
 31
0.0
  0
LINE
  5
D123
330
1F
100
AcDbEntity
  8
Detail Brick Veneer Perimeter (00134240)
100
AcDbLine
 10
-25.06563932936922
 20
306.8468686202052
 30
0.0
 11
44.93436428898621
 21
306.8468686202052
 31
0.0
  0
ARC
  5
D124
330
1F
100
AcDbEntity
  8
MP Grout or Mortar Perimeter (00038172)
100
AcDbCircle
 10
-39.69194664313659
 20
311.8468686202052
 30
0.0
 40
15.45875007508107
100
AcDbArc
 50
341.1288246939875
 51
18.87117530601209
  0
ARC
  5
D125
330
1F
100
AcDbEntity
  8
MP Grout or Mortar Perimeter (00038172)
100
AcDbCircle
 10
59.56217868088424
 20
311.8468686202052
 30
0.0
 40
15.45875007508107
100
AcDbArc
 50
161.1288246939875
 51
198.8711753060121
  0
LINE
  5
D126
330
1F
100
AcDbEntity
  8
Detail Brick Veneer Perimeter (00134240)
100
AcDbLine
 10
44.93436247980844
 20
300.8463724197621
 30
0.0
 11
44.93436246774852
 21
236.8468684594254
 31
0.0
  0
LINE
  5
D127
330
1F
100
AcDbEntity
  8
Detail Brick Veneer Perimeter (00134240)
100
AcDbLine
 10
-25.06563752019156
 20
306.8468686202052
 30
0.0
 11
-25.06563752019156
 21
236.8468686202053
 31
0.0
  0
LINE
  5
D128
330
1F
100
AcDbEntity
  8
Detail Brick Veneer Perimeter (00134240)
100
AcDbLine
 10
44.93436428898599
 20
316.846868620205
 30
0.0
 11
-25.06563571101401
 21
316.846868620205
 31
0.0
  0
LINE
  5
D129
330
1F
100
AcDbEntity
  8
MASONS Plaster Perimeter (00134237)
100
AcDbLine
 10
44.93436428898599
 20
386.846868620205
 30
0.0
 11
-25.06563571101401
 21
386.846868620205
 31
0.0
  0
LINE
  5
D12A
330
1F
100
AcDbEntity
  8
Detail Brick Veneer Perimeter (00134240)
100
AcDbLine
 10
-25.06563752019167
 20
386.846868620205
 30
0.0
 11
44.93436609816376
 21
386.846868620205
 31
0.0
  0
ARC
  5
D12B
330
1F
100
AcDbEntity
  8
MP Grout or Mortar Perimeter (00038172)
100
AcDbCircle
 10
-39.69194483395904
 20
391.846868620205
 30
0.0
 40
15.45875007508107
100
AcDbArc
 50
341.1288246939875
 51
18.87117530601209
  0
ARC
  5
D12C
330
1F
100
AcDbEntity
  8
MP Grout or Mortar Perimeter (00038172)
100
AcDbCircle
 10
59.56218049006179
 20
391.846868620205
 30
0.0
 40
15.45875007508107
100
AcDbArc
 50
161.1288246939875
 51
198.8711753060121
  0
LINE
  5
D12D
330
1F
100
AcDbEntity
  8
Detail Brick Veneer Perimeter (00134240)
100
AcDbLine
 10
44.93436428898599
 20
386.846868620205
 30
0.0
 11
44.93436428898599
 21
316.846868620205
 31
0.0
  0
LINE
  5
D12E
330
1F
100
AcDbEntity
  8
Detail Brick Veneer Perimeter (00134240)
100
AcDbLine
 10
-25.06563571101401
 20
386.846868620205
 30
0.0
 11
-25.06563571101401
 21
316.846868620205
 31
0.0
  0
LINE
  5
D12F
330
1F
100
AcDbEntity
  8
Detail Brick Veneer Perimeter (00134240)
100
AcDbLine
 10
44.93436609816353
 20
396.8468686202048
 30
0.0
 11
-25.06563390183635
 21
396.8468686202048
 31
0.0
  0
LINE
  5
D134
330
1F
100
AcDbEntity
  8
Detail Brick Veneer Perimeter (00134240)
100
AcDbLine
 10
44.93436609816353
 20
442.7667328168825
 30
0.0
 11
44.93436609816353
 21
396.8468686202048
 31
0.0
  0
LINE
  5
D135
330
1F
100
AcDbEntity
  8
Detail Brick Veneer Perimeter (00134240)
100
AcDbLine
 10
-25.06563390183635
 20
442.7667328168825
 30
0.0
 11
-25.06563390183635
 21
396.8468686202048
 31
0.0
  0
MULTILEADER
  5
D141
102
{ACAD_XDICTIONARY
360
D142
102
}
330
1F
100
AcDbEntity
  8
MP Annotation (00134142) @ 2
 92
      772
310
04030000110000000C00000010000000220000000C00000016000000000000C00C00000013000000112700003C00000006000000020000000030F114E4223DC03601B58D68AC7A40000000000000000070070C65738D56403601B58D68AC7A4000000000000000000C00000013000000010000000C00000014000000010000
310
005400000007000000030000001903E182273D51C0DD0CD95F132078400000000000000000309EE4BDAB4552C0005A3B0C1FF1774000000000000000002BBC07C95D8851C0BEBCD721FC32784000000000000000000C00000013000000891300003C0000000600000002000000A25FF4A5C26251C0CE64D8C0872978400000
310
0000000000000030F114E4223DC03601B58D68AC7A4000000000000000000C000000130000009A3A00000C00000016000000000000C00C00000012000000FF7F00000C00000017000000FFFFFFFF0C00000016000000000000C00C00000013000000993A0000D40000002600000054679237E76F56403A5CCE92EF8F7A4000
310
0000000000000000000000000000000000000000000000000000000000F03F000000000000F03F000000000000000000000000000000004D00410053004F004E005300200042006100720072006900630061006400650000006F0010000000010000003433333333331340000000000000F03F000000000000000000000000
310
0000F03F00000000000000000000000000000000000000000000000000000000010000002200000041007200690061006C0000000000000000000000CC0000002600000040C3AE8152705640395CCE92EF0F7A40000000000000000000000000000000000000000000000000000000000000F03F000000000000F03F000000
310
000000000000000000000000004200750069006C00640069006E0067002000570072006100700000000D000000010000003433333333331340000000000000F03F0000000000000000000000000000F03F00000000000000000000000000000000000000000000000000000000010000002200000041007200690061006C00
310
00000000000000006600
100
AcDbMLeader
300
CONTEXT_DATA{
 40
2.0
 10
90.21016813444816
 20
426.7755257673737
 30
0.0
 41
4.8
140
5.0
145
0.036
174
     1
175
     1
176
     0
177
     0
290
     1
304
MASONS Barricade Building Wrap
 11
0.0
 21
0.0
 31
1.0
340
11
 12
90.24616813444822
 22
429.8811192189426
 32
0.0
 13
1.0
 23
0.0
 33
0.0
 42
0.0
 43
76.52966841136048
 44
0.0
 45
1.0
170
     1
 90
-1073741824
171
     1
172
     5
 91
-1073741824
141
0.0
 92
  2952328
291
     0
292
     0
173
     0
293
     0
142
0.0
143
0.0
294
     0
295
     0
296
     0
110
421.7946316025302
120
450.8104998942982
130
0.0
111
1.0
121
0.0
131
0.0
112
0.0
122
1.0
132
0.0
297
     0
302
LEADER{
290
     1
291
     1
 10
-29.13629275215498
 20
426.7755257673737
 30
0.0
 11
1.0
 21
0.0
 31
0.0
 90
        0
 40
119.3464608866031
304
LEADER_LINE{
 10
-73.08860728574723
 20
383.0700800245686
 30
0.0
 91
        0
305
}
303
}
301
}
340
2C4
 90
   345760
170
     1
 91
-1073741824
341
15
171
    -1
290
     1
291
     1
 41
0.3635
 42
2.5
172
     2
343
11
173
     1
 95
        1
174
     1
175
     0
 92
-1056964608
292
     0
 93
-1056964608
 10
1.0
 20
1.0
 30
1.0
 43
0.0
176
     0
293
     0
294
     0
178
     0
179
     1
 45
2.0
1001
ACAD_MLEADERVER
1070
     2
  0
LINE
  5
D1D3
330
1F
100
AcDbEntity
  8
MASONS Render & Coating System Perimeter (00134155)
100
AcDbLine
 10
53.00620453557758
 20
216.8468684594244
 30
0.0
 11
44.91541875546954
 21
216.8468684594245
 31
0.0
  0
LWPOLYLINE
  5
D1E7
102
{ACAD_REACTORS
330
D011
102
}
330
1F
100
AcDbEntity
  8
Detail Flexible Sealant Perimeter (00134153)
100
AcDbPolyline
 90
        4
 70
     0
 43
0.0
 10
44.92338625930506
 20
226.846868459425
 10
44.91541875546954
 20
216.8468684594245
 10
53.00620453557758
 20
216.8468684594244
 42
0.3406281987001887
 10
44.92338625930506
 20
226.846868459425
 42
59.75146408012498
  0
DIMENSION
  5
D234
102
{ACAD_XDICTIONARY
360
D235
102
}
330
1F
100
AcDbEntity
  8
MP Annotation (00134142) @ 2
100
AcDbDimension
  2
*D11
 10
163.5655101118871
 20
226.8468684594249
 30
0.0
 11
163.565510111887
 21
251.8468684594249
 31
0.0
  1
<> MIN
 71
     5
 42
49.99999999999997
 73
     0
 74
     0
 75
     0
  3
2mm
100
AcDbAlignedDimension
 13
-75.06563752019156
 23
276.8468684594249
 33
0.0
 14
44.92489152825783
 24
226.8468684594249
 34
0.0
 50
90.0
100
AcDbRotatedDimension
1001
AcadAnnotative
1000
AnnotativeData
1002
{
1070
     1
1070
     0
1002
}
1001
ACAD
1000
DSTYLE
1002
{
1070
    40
1040
2.0
1070
   279
1070
     2
1070
   289
1070
     3
1070
   174
1070
     0
1070
   175
1070
     0
1070
   172
1070
     0
1002
}
  0
MULTILEADER
  5
D27C
102
{ACAD_XDICTIONARY
360
D27D
102
}
330
1F
100
AcDbEntity
  8
MP Annotation (00134142) @ 2
 92
      580
310
44020000100000000C00000010000000220000000C00000016000000000000C00C00000013000000112700003C000000060000000200000060EB35F7008A4640B654E3798CA9754000000000000000006F070C65738D5640B654E3798CA9754000000000000000000C00000013000000010000000C00000014000000010000
310
00540000000700000003000000136ECB87D87C2D409A3D2BB01A9D754000000000000000000054E8AAA17D23405EB1DD8595AA75400000000000000000CD394E9B687E2D40EF9EE757C5B7754000000000000000000C00000013000000891300003C0000000600000002000000F0D38C91A07D2D40456E090470AA75400000
310
00000000000060EB35F7008A4640B654E3798CA9754000000000000000000C000000130000009A3A00000C00000016000000000000C00C00000012000000FF7F00000C00000017000000FFFFFFFF0C00000016000000000000C00C00000013000000993A0000E00000002600000032479EAD6D7B5640373B40E8208D754000
310
0000000000000000000000000000000000000000000000000000000000F03F000000000000F03F00000000000000000000000000000000370030006D006D00200043006C0061007900200042007200690063006B002000560065006E0065006500720000006F0016000000010000003433333333331340000000000000F03F
310
0000000000000000000000000000F03F00000000000000000000000000000000000000000000000000000000010000002200000041007200690061006C0000000000000000000000
100
AcDbMLeader
300
CONTEXT_DATA{
 40
2.0
 10
90.21016813444814
 20
346.5967959289659
 30
0.0
 41
4.8
140
5.0
145
0.036
174
     1
175
     1
176
     0
177
     0
290
     1
304
70mm Clay Brick Veneer
 11
0.0
 21
0.0
 31
1.0
340
11
 12
90.24616813444822
 22
349.7023893805348
 32
0.0
 13
1.0
 23
0.0
 33
0.0
 42
0.0
 43
163.4126254524094
 44
0.0
 45
1.0
170
     1
 90
-1073741824
171
     1
172
     5
 91
-1073741824
141
0.0
 92
  2952328
291
     0
292
     0
173
     0
293
     0
142
0.0
143
0.0
294
     0
295
     0
296
     0
110
421.7946316025302
120
396.7578175622949
130
0.0
111
1.0
121
0.0
131
0.0
112
0.0
122
1.0
132
0.0
297
     0
302
LEADER{
290
     1
291
     1
 10
45.07815446980271
 20
346.5967959289659
 30
0.0
 11
1.0
 21
0.0
 31
0.0
 90
        0
 40
45.13201366464544
304
LEADER_LINE{
 10
9.74537405096089
 20
346.6615046176793
 30
0.0
 91
        0
305
}
303
}
301
}
340
2C4
 90
   345760
170
     1
 91
-1073741824
341
15
171
    -1
290
     1
291
     1
 41
0.3635
 42
2.5
172
     2
343
11
173
     1
 95
        1
174
     1
175
     0
 92
-1056964608
292
     0
 93
-1056964608
 10
1.0
 20
1.0
 30
1.0
 43
0.0
176
     0
293
     0
294
     0
178
     0
179
     1
 45
2.0
1001
ACAD_MLEADERVER
1070
     2
  0
HATCH
  5
D28F
330
1F
100
AcDbEntity
  8
Detail Flexible Sealant Hatch (00134154)
100
AcDbHatch
 10
0.0
 20
0.0
 30
0.0
210
0.0
220
0.0
230
1.0
  2
ANSI31
 70
     0
 71
     0
 91
        1
 92
        1
 93
        6
 72
     2
 10
42.47698527467779
 20
216.6028894360991
 40
10.53204557566694
 50
29.63070399595084
 51
76.56856033116719
 73
     1
 72
     1
 10
44.92338625930506
 20
226.846868459425
 11
44.92338625930506
 21
223.0660245280378
 72
     1
 10
44.92338625930506
 20
223.0660245280378
 11
44.92028897259706
 21
223.0660245280378
 72
     1
 10
44.92028897259706
 20
223.0660245280378
 11
44.91519420810095
 21
216.8468684594245
 72
     1
 10
44.91519420810095
 20
216.8468684594245
 11
52.3315257888974
 21
216.8468684594244
 72
     2
 10
64.2421773034308
 20
221.0570925948323
 40
12.63287800823819
 50
160.5323160616431
 51
183.4168634629221
 73
     0
 97
        0
 75
     0
 76
     1
 52
0.0
 41
18.0
 77
     0
 78
     1
 53
45.0
 43
-0.0109762205033803
 44
-7.780347891724375
 45
-1.590990257669731
 46
1.590990257669732
 79
     0
 98
        1
 10
49.85774318656081
 20
221.2049041696872
1001
ACAD
1010
0.0
1020
0.0
1030
0.0
  0
MULTILEADER
  5
D2BF
102
{ACAD_XDICTIONARY
360
D2C0
102
}
330
1F
100
AcDbEntity
  8
MP Annotation (00134142) @ 2
 92
     1020
310
FC030000120000000C00000010000000220000000C00000016000000000000C00C00000013000000112700003C0000000600000002000000E07CDFD699E54F40D476B681F5596B40000000000000000070070C65738D5640D476B681F5596B4000000000000000000C00000013000000010000000C00000014000000010000
310
00540000000700000003000000163085AFFB254B404A2383408D3F6B400000000000000000E0A1530E13A64840F4E2D3E15A5A6B4000000000000000007A51914E2A264B4088709294E2746B4000000000000000000C00000013000000891300003C0000000600000002000000C8400BFF12264B40E9C98AEA375A6B400000
310
000000000000E07CDFD699E54F40D476B681F5596B4000000000000000000C000000130000009A3A00000C00000016000000000000C00C00000012000000FF7F00000C00000017000000FFFFFFFF0C00000016000000000000C00C00000013000000993A0000DC0000002600000050679237E76F56404C688631B10B6B4000
310
0000000000000000000000000000000000000000000000000000000000F03F000000000000F03F000000000000000000000000000000004D00410053004F004E005300200043006F006E00740072006F006C0020004A006F0069006E0074003A00000015000000010000003433333333331340000000000000F03F00000000
310
00000000000000000000F03F00000000000000000000000000000000000000000000000000000000010000002200000041007200690061006C0000000000000000000000E4000000260000003CC3AE8152705640CD12CECFF7086A40000000000000000000000000000000000000000000000000000000000000F03F000000
310
000000F03F0000000000000000000000000000000042004F005300540049004B002000730061006600650020007300650061006C00200066006C0065007800690062006C006500000019000000010000003433333333331340000000000000F03F0000000000000000000000000000F03F0000000000000000000000000000
310
0000000000000000000000000000010000002200000041007200690061006C0000000000000000000000D800000026000000DD6180998D825640CD12CECFF7086940000000000000000000000000000000000000000000000000000000000000F03F000000000000F03F000000000000000000000000000000007300650061
310
006C0061006E00740020006F0072002000730069006D0069006C00610072000000000012000000010000003433333333331340000000000000F03F0000000000000000000000000000F03F00000000000000000000000000000000000000000000000000000000010000002200000041007200690061006C00000000000000
310
00000000
100
AcDbMLeader
300
CONTEXT_DATA{
 40
2.0
 10
90.21016813444816
 20
218.8112190784219
 30
0.0
 41
4.8
140
5.0
145
0.036
174
     1
175
     1
176
     0
177
     0
290
     1
304
MASONS Control Joint: BOSTIK safe seal flexible sealant or similar
 11
0.0
 21
0.0
 31
1.0
340
11
 12
90.24616813444817
 22
221.2505096650522
 32
0.0
 13
1.0
 23
0.0
 33
0.0
 42
0.0
 43
78.77952602286928
 44
0.0
 45
1.0
170
     1
 90
-1073741824
171
     1
172
     5
 91
-1073741824
141
0.0
 92
  2952328
291
     0
292
     0
173
     0
293
     0
142
0.0
143
0.0
294
     0
295
     0
296
     0
110
-251.3994878577098
120
404.8619996053605
130
0.0
111
1.0
121
0.0
131
0.0
112
0.0
122
1.0
132
0.0
297
     0
302
LEADER{
290
     1
291
     1
 10
63.7937573043107
 20
218.8112190784219
 30
0.0
 11
1.0
 21
0.0
 31
0.0
 90
        0
 40
26.41641083013747
304
LEADER_LINE{
 10
49.29745654185876
 20
218.823594011155
 30
0.0
 91
        0
305
}
303
}
301
}
340
2C4
 90
   345760
170
     1
 91
-1073741824
341
15
171
    -1
290
     1
291
     1
 41
0.3635
 42
2.5
172
     2
343
11
173
     1
 95
        1
174
     1
175
     0
 92
-1056964608
292
     0
 93
-1056964608
 10
1.0
 20
1.0
 30
1.0
 43
0.0
176
     0
293
     0
294
     0
178
     0
179
     1
 45
2.0
1001
ACAD_MLEADERVER
1070
     2
  0
MTEXT
  5
D321
330
1F
100
AcDbEntity
  8
MP Annotation (00134142)
100
AcDbMText
 10
90.21016813444816
 20
163.95671660918
 30
0.0
 40
4.8
 41
69.74850665712096
 46
0.0
 71
     1
 72
     5
  1
Note: Ground clearances as per NZ Building Code for clay brick construction
 73
     1
 44
1.0
1001
ACAD_MLEADERVER
1070
     2
  0
MULTILEADER
  5
D37E
102
{ACAD_XDICTIONARY
360
D37F
102
}
330
1F
100
AcDbEntity
  8
MP Annotation (00134142) @ 2
 92
      796
310
1C030000110000000C00000010000000220000000C00000016000000000000C00C00000013000000112700003C0000000600000002000000D02E5EB85B2F5240586C58EE7BE67840000000000000000070070C65738D5640586C58EE7BE6784000000000000000000C00000013000000010000000C00000014000000010000
310
00540000000700000003000000917251883BDB4B403C5203E5DAD878400000000000000000208161FD1D5B4940881B19FF19E678400000000000000000F661074100DB4B404871A68E85F3784000000000000000000C00000013000000891300003C0000000600000002000000436AACE41DDB4B40C2E1D43930E678400000
310
000000000000D02E5EB85B2F5240586C58EE7BE6784000000000000000000C000000130000009A3A00000C00000016000000000000C00C00000012000000FF7F00000C00000017000000FFFFFFFF0C00000016000000000000C00C00000013000000993A0000D80000002600000054679237E76F56405CC771F302CA784000
310
0000000000000000000000000000000000000000000000000000000000F03F000000000000F03F000000000000000000000000000000004D00410053004F004E005300200050006C00610073007400610062007200690063006B000000000012000000010000003433333333331340000000000000F03F0000000000000000
310
000000000000F03F00000000000000000000000000000000000000000000000000000000010000002200000041007200690061006C0000000000000000000000E000000026000000ADC9126A046E56401928D9ABB3487840000000000000000000000000000000000000000000000000000000000000F03F000000000000F0
310
3F00000000000000000000000000000000520065006E0064006500720020002600200043006F006100740069006E0067002000530079007300740065006D00000017000000010000003433333333331340000000000000F03F0000000000000000000000000000F03F00000000000000000000000000000000000000000000
310
000000000000010000002200000041007200690061006C0000000000000000000000
100
AcDbMLeader
300
CONTEXT_DATA{
 40
2.0
 10
90.21016813444816
 20
398.4052566007645
 30
0.0
 41
4.8
140
5.0
145
0.036
174
     1
175
     1
176
     0
177
     0
290
     1
304
MASONS Plastabrick Render & Coating System
 11
0.0
 21
0.0
 31
1.0
340
11
 12
90.24616813444822
 22
401.5108500523333
 32
0.0
 13
1.0
 23
0.0
 33
0.0
 42
0.0
 43
83.98810940585462
 44
0.0
 45
1.0
170
     1
 90
-1073741824
171
     1
172
     5
 91
-1073741824
141
0.0
 92
  2952328
291
     0
292
     0
173
     0
293
     0
142
0.0
143
0.0
294
     0
295
     0
296
     0
110
-57.8784121894073
120
413.2035204789636
130
0.0
111
1.0
121
0.0
131
0.0
112
0.0
122
1.0
132
0.0
297
     0
302
LEADER{
290
     1
291
     1
 10
72.73997315595193
 20
398.4052566007645
 30
0.0
 11
1.0
 21
0.0
 31
0.0
 90
        0
 40
17.47019497849623
304
LEADER_LINE{
 10
50.7118527151199
 20
398.3813467961086
 30
0.0
 91
        0
305
}
303
}
301
}
340
2C4
 90
   345760
170
     1
 91
-1073741824
341
15
171
    -1
290
     1
291
     1
 41
0.3635
 42
2.5
172
     2
343
11
173
     1
 95
        1
174
     1
175
     0
 92
-1056964608
292
     0
 93
-1056964608
 10
1.0
 20
1.0
 30
1.0
 43
0.0
176
     0
293
     0
294
     0
178
     1
179
     1
 45
2.0
1001
ACAD_MLEADERVER
1070
     2
  0
MULTILEADER
  5
D383
102
{ACAD_XDICTIONARY
360
D384
102
}
330
1F
100
AcDbEntity
  8
MP Annotation (00134142) @ 2
 92
      580
310
44020000100000000C00000010000000220000000C00000016000000000000C00C00000013000000112700003C0000000600000002000000106AA269A0F450405EE7575EC68E7740000000000000000070070C65738D56405EE7575EC68E774000000000000000000C00000013000000010000000C00000014000000010000
310
005400000007000000030000002551ECFA81F6494032B5FB8826817740000000000000000080B02DD8627647408E96186F648E7740000000000000000035E4867E43F649409E898132D19B774000000000000000000C00000013000000891300003C0000000600000002000000AD9AB9BC62F64940689FBEDD7B8E77400000
310
000000000000106AA269A0F450405EE7575EC68E774000000000000000000C000000130000009A3A00000C00000016000000000000C00C00000012000000FF7F00000C00000017000000FFFFFFFF0C00000016000000000000C00C00000013000000993A0000E00000002600000054679237E76F5640624271634D72774000
310
0000000000000000000000000000000000000000000000000000000000F03F000000000000F03F000000000000000000000000000000004D00410053004F004E00530020005200650069006E0066006F007200630069006E00670020006D00650073006800000017000000010000003433333333331340000000000000F03F
310
0000000000000000000000000000F03F00000000000000000000000000000000000000000000000000000000010000002200000041007200690061006C0000000000000000000000
100
AcDbMLeader
300
CONTEXT_DATA{
 40
2.0
 10
90.21016813444816
 20
376.9234298166028
 30
0.0
 41
4.8
140
5.0
145
0.036
174
     1
175
     1
176
     0
177
     0
290
     1
304
MASONS Reinforcing mesh
 11
0.0
 21
0.0
 31
1.0
340
11
 12
90.24616813444822
 22
380.0290232681717
 32
0.0
 13
1.0
 23
0.0
 33
0.0
 42
0.0
 43
178.3609630659339
 44
0.0
 45
1.0
170
     1
 90
-1073741824
171
     1
172
     5
 91
-1073741824
141
0.0
 92
  2952328
291
     0
292
     0
173
     0
293
     0
142
0.0
143
0.0
294
     0
295
     0
296
     0
110
-95.44648111827427
120
391.721693694802
130
0.0
111
1.0
121
0.0
131
0.0
112
0.0
122
1.0
132
0.0
297
     0
302
LEADER{
290
     1
291
     1
 10
67.82229081021092
 20
376.9234298166028
 30
0.0
 11
1.0
 21
0.0
 31
0.0
 90
        0
 40
22.38787732423725
304
LEADER_LINE{
 10
46.9248914931386
 20
376.899520011947
 30
0.0
 91
        0
305
}
303
}
301
}
340
2C4
 90
   345760
170
     1
 91
-1073741824
341
15
171
    -1
290
     1
291
     1
 41
0.3635
 42
2.5
172
     2
343
11
173
     1
 95
        1
174
     1
175
     0
 92
-1056964608
292
     0
 93
-1056964608
 10
1.0
 20
1.0
 30
1.0
 43
0.0
176
     0
293
     0
294
     0
178
     0
179
     3
 45
2.0
1001
ACAD_MLEADERVER
1070
     2
  0
LINE
  5
D47F
330
1F
100
AcDbEntity
  8
MP Hidden Lines (00134167)
 48
30.0
100
AcDbLine
 10
44.93436430104611
 20
306.8468684594252
 30
0.0
 11
-25.06563750813166
 21
236.8468684594252
 31
0.0
  0
LINE
  5
D480
330
1F
100
AcDbEntity
  8
MP Hidden Lines (00134167)
 48
30.0
100
AcDbLine
 10
-25.06563750813166
 20
306.8468684594252
 30
0.0
 11
44.93436430104611
 21
236.8468684594252
 31
0.0
  0
INSERT
  5
D54C
330
1F
100
AcDbEntity
  8
MP Annotation (00134142)
100
AcDbBlockReference
  2
mp001455
 10
90.21016813444816
 20
319.1770419697026
 30
0.0
1001
AEC_XDATA_BOUND_SPACE
1070
   100
1070
     1
  0
MULTILEADER
  5
D54D
102
{ACAD_XDICTIONARY
360
D54E
102
}
330
1F
100
AcDbEntity
  8
MP Annotation (00134142) @ 2
 92
      356
310
640100000F0000000C00000010000000220000000C00000016000000000000C00C00000013000000122700003C00000006000000020000000052FD628DC9054046DEF529D5F27340000000000000000070070C65738D564046DEF529D5F2734000000000000000000C00000013000000010000000C00000014000000010000
310
005400000007000000030000006009F7B868D144C0F188A0D47FE5734000000000000000006009F7B8685147C046DEF529D5F2734000000000000000006009F7B868D144C09B334B7F2A00744000000000000000000C00000013000000891300003C00000006000000020000006009F7B868D144C046DEF529D5F273400000
310
0000000000000052FD628DC9054046DEF529D5F2734000000000000000000C000000130000009A3A00000C00000016000000000000C00C00000012000000FF7F00000C00000017000000FFFFFFFF0C00000016000000000000C00C00000013000000993A0000
100
AcDbMLeader
300
CONTEXT_DATA{
 40
2.0
 10
90.21016813444816
 20
319.1770419697026
 30
0.0
 41
4.0
140
5.0
145
4.0
174
     1
175
     1
176
     0
177
     0
290
     1
304

 11
0.0
 21
0.0
 31
1.0
340
380
 12
94.21016813444817
 22
321.1770419697026
 32
0.0
 13
1.0
 23
0.0
 33
0.0
 42
0.0
 43
0.0
 44
0.0
 45
1.0
170
     1
 90
-1073741824
171
     1
172
     5
 91
-1073741824
141
0.0
 92
  2957760
291
     0
292
     0
173
     0
293
     0
142
0.0
143
0.0
294
     0
295
     0
296
     0
110
165.864969270699
120
282.5990448699243
130
0.0
111
1.0
121
0.0
131
0.0
112
0.0
122
1.0
132
0.0
297
     0
302
LEADER{
290
     1
291
     1
 10
2.723414204936716
 20
319.1770419697026
 30
0.0
 11
1.0
 21
0.0
 31
0.0
 90
        1
 40
87.48675392951145
304
LEADER_LINE{
 10
-46.63600837766966
 20
319.1770419697026
 30
0.0
 91
        0
305
}
303
}
301
}
340
389
 90
   345824
170
     1
 91
-1073741824
341
15
171
    -1
290
     1
291
     1
 41
5.0
 42
2.5
172
     2
343
380
173
     1
 95
        1
174
     1
175
     2
 92
-1073741824
292
     0
 93
-1056964608
 10
1.0
 20
1.0
 30
1.0
 43
0.0
176
     0
293
     0
294
     0
178
     0
179
     3
 45
2.0
1001
ACAD_MLEADERVER
1070
     2
  0
HATCH
  5
D5DD
330
1F
100
AcDbEntity
  8
MP Grout or Mortar Hatch (00038171)
100
AcDbHatch
 10
0.0
 20
0.0
 30
0.0
210
0.0
220
0.0
230
1.0
  2
AR-SAND
 70
     0
 71
     0
 91
        1
 92
        7
 72
     1
 73
     1
 93
        4
 10
44.93286263838832
 20
396.8468686202056
 42
0.0
 10
-25.06563390183669
 20
396.8468686202056
 42
-0.166187136636617
 10
-25.06563390183647
 20
386.8468686202051
 42
0.0
 10
44.93286263838808
 20
386.8468686202051
 42
-0.1661871366366168
 97
        0
 75
     0
 76
     1
 52
90.0
 41
1.5
 77
     0
 78
     4
 53
127.5
 43
0.0
 44
6.000496200443109
 45
-2.890235653519738
 46
-0.0944900371644121
 79
     6
 49
0.0
 49
-2.28
 49
0.0
 49
-2.549999999999999
 49
0.0
 49
-2.4375
 53
97.49999999999994
 43
0.0
 44
6.000496200443109
 45
-4.23321909784461
 46
2.654665057901591
 79
     6
 49
0.0
 49
-1.229999999999999
 49
0.0
 49
-2.055
 49
0.0
 49
-0.7875000000000001
 53
57.5
 43
0.0
 44
4.15549620044311
 45
-0.0084885803054465
 46
4.671212792627242
 79
     6
 49
0.0
 49
-0.75
 49
0.0
 49
-2.7
 49
0.0
 49
-3.525
 53
47.5
 43
0.0
 44
4.15549620044311
 45
-1.316513347401373
 46
4.50918990685844
 79
     6
 49
0.0
 49
-0.375
 49
0.0
 49
-1.77
 49
0.0
 49
-2.025
 47
0.3647616381685164
 98
        1
 10
16.05446727851472
 20
392.019817279307
1001
ACAD
1010
0.0
1020
0.0
1030
0.0
  0
HATCH
  5
D5E5
330
1F
100
AcDbEntity
  8
MP Grout or Mortar Hatch (00038171)
100
AcDbHatch
 10
0.0
 20
0.0
 30
0.0
210
0.0
220
0.0
230
1.0
  2
AR-SAND
 70
     0
 71
     0
 91
        1
 92
        7
 72
     1
 73
     1
 93
        4
 10
44.93135736943531
 20
316.8468686202058
 42
0.0
 10
-25.0671391707898
 20
316.8468686202058
 42
-0.166187136636617
 10
-25.06713917078958
 20
306.8468686202053
 42
0.0
 10
44.93135736943509
 20
306.8468686202053
 42
-0.1661871366366168
 97
        0
 75
     0
 76
     1
 52
90.0
 41
1.5
 77
     0
 78
     4
 53
127.5
 43
0.0
 44
6.000496200443109
 45
-2.890235653519738
 46
-0.0944900371644121
 79
     6
 49
0.0
 49
-2.28
 49
0.0
 49
-2.549999999999999
 49
0.0
 49
-2.4375
 53
97.49999999999994
 43
0.0
 44
6.000496200443109
 45
-4.23321909784461
 46
2.654665057901591
 79
     6
 49
0.0
 49
-1.229999999999999
 49
0.0
 49
-2.055
 49
0.0
 49
-0.7875000000000001
 53
57.5
 43
0.0
 44
4.15549620044311
 45
-0.0084885803054465
 46
4.671212792627242
 79
     6
 49
0.0
 49
-0.75
 49
0.0
 49
-2.7
 49
0.0
 49
-3.525
 53
47.5
 43
0.0
 44
4.15549620044311
 45
-1.316513347401373
 46
4.50918990685844
 79
     6
 49
0.0
 49
-0.375
 49
0.0
 49
-1.77
 49
0.0
 49
-2.025
 47
0.3647616381685164
 98
        1
 10
16.05296200956149
 20
312.0198172793072
1001
ACAD
1010
0.0
1020
0.0
1030
0.0
  0
HATCH
  5
D81A
330
1F
100
AcDbEntity
  8
Detail Ground Hatch (00134163)
100
AcDbHatch
 10
0.0
 20
0.0
 30
0.0
210
0.0
220
0.0
230
1.0
  2
EARTH
 70
     0
 71
     0
 91
        1
 92
        7
 72
     0
 73
     1
 93
       10
 10
176.4610978532275
 20
41.78594585909901
 10
176.4610978532275
 20
71.42782793582252
 10
186.5724177808947
 20
77.26560121792477
 10
166.3667886371777
 20
77.26560121792478
 10
176.4610978532275
 20
83.09355336109552
 10
176.4610978532275
 20
105.148724405068
 10
53.00211492811468
 20
105.148724405068
 10
53.01567730836587
 20
82.18381786505544
 10
44.92489152825783
 20
82.18381786505542
 10
44.92489152825783
 20
41.78594585909899
 97
        0
 75
     0
 76
     1
 52
45.0
 41
50.0
 77
     0
 78
     6
 53
45.0
 43
0.0
 44
0.0
 45
0.0000000000000018
 46
17.67766952966369
 79
     2
 49
12.5
 49
-12.5
 53
45.0
 43
-3.314563036811932
 44
3.314563036811939
 45
0.0000000000000018
 46
17.67766952966369
 79
     2
 49
12.5
 49
-12.5
 53
45.0
 43
-6.629126073623865
 44
6.629126073623883
 45
0.0000000000000018
 46
17.67766952966369
 79
     2
 49
12.5
 49
-12.5
 53
135.0
 43
-6.629126073623865
 44
8.838834764831844
 45
-17.67766952966368
 46
0.0000000000000018
 79
     2
 49
12.5
 49
-12.5
 53
135.0
 43
-3.314563036811932
 44
12.15339780164378
 45
-17.67766952966368
 46
0.0000000000000018
 79
     2
 49
12.5
 49
-12.5
 53
135.0
 43
0.0
 44
15.46796083845572
 45
-17.67766952966368
 46
0.0000000000000018
 79
     2
 49
12.5
 49
-12.5
 47
0.5484511958560967
 98
        1
 10
93.5215208735426
 20
59.81531863126145
1001
ACAD
1010
0.0
1020
0.0
1030
0.0
  0
HATCH
  5
D856
330
1F
100
AcDbEntity
  8
Detail Concrete Hatch (00134152)
100
AcDbHatch
 10
0.0
 20
0.0
 30
0.0
210
0.0
220
0.0
230
1.0
  2
AR-CONC
 70
     0
 71
     0
 91
        1
 92
        1
 93
       15
 72
     1
 10
4.573474289106798
 20
41.78594585909899
 11
44.92489152825783
 21
41.785945859099
 72
     1
 10
44.92489152825783
 20
41.785945859099
 11
44.92489152825783
 21
223.066068459425
 72
     1
 10
44.92489152825783
 20
223.066068459425
 11
44.92798877897712
 21
226.8468684594249
 72
     1
 10
44.92798877897712
 20
226.8468684594249
 11
-75.06563752019156
 21
226.8468684594249
 72
     1
 10
-75.06563752019156
 20
226.8468684594249
 11
-75.06563752019156
 21
276.8468684594249
 72
     1
 10
-75.06563752019156
 20
276.8468684594249
 11
-195.7498980709326
 21
276.8468684594248
 72
     1
 10
-195.7498980709326
 20
276.8468684594248
 11
-195.7498980709326
 21
258.469178001794
 72
     1
 10
-195.7498980709326
 20
258.469178001794
 11
-205.8442072869825
 21
252.6412258586232
 72
     1
 10
-205.8442072869825
 20
252.6412258586232
 11
-185.6385781432654
 21
252.6412258586232
 72
     1
 10
-185.6385781432654
 20
252.6412258586232
 11
-195.7498980709326
 21
246.803452576521
 72
     1
 10
-195.7498980709326
 20
246.803452576521
 11
-195.7498980709326
 21
41.785945859099
 72
     1
 10
-195.7498980709326
 20
41.785945859099
 11
-7.092251136166055
 21
41.78594585909901
 72
     1
 10
-7.092251136166055
 20
41.78594585909901
 11
-1.254477854063906
 21
31.67462593143182
 72
     1
 10
-1.254477854063907
 20
31.67462593143182
 11
-1.254477854063906
 21
51.88025507514884
 72
     1
 10
-1.254477854063907
 20
51.88025507514884
 11
4.5734742891068
 21
41.78594585909899
 97
        0
 75
     0
 76
     1
 52
0.0
 41
10.0
 77
     0
 78
    13
 53
50.0
 43
0.0
 44
0.0
 45
71.72601826007535
 46
-6.27521349825951
 79
     2
 49
7.5
 49
-82.5
 53
355.0
 43
0.0
 44
0.0
 45
-13.8751333613
 46
75.21921337000119
 79
     2
 49
6.0
 49
-66.0
 53
100.4514
 43
5.977167999999892
 44
-0.5229339999999994
 45
57.85093817140215
 46
68.94395420609535
 79
     2
 49
6.374018999999994
 49
-70.1142111999999
 53
46.1842
 43
0.0
 44
20.0
 45
106.7241048625644
 46
-16.5519014329018
 79
     2
 49
11.25
 49
-123.75
 53
96.6356
 43
8.893674500000088
 44
18.6206693
 45
93.46627055487033
 46
97.41178709004417
 79
     2
 49
9.561028799999998
 49
-105.1713
 53
351.1842000000001
 43
0.0
 44
20.0
 45
93.46619451336271
 46
97.41186009253247
 79
     2
 49
9.0
 49
-99.0
 53
21.0
 43
10.0
 44
15.0
 45
59.69070521184616
 46
-40.26188906653388
 79
     2
 49
7.5
 49
-82.5
 53
326.0
 43
10.0
 44
15.0
 45
24.33153319215817
 46
72.5150045046853
 79
     2
 49
6.0
 49
-66.0
 53
71.45140000000001
 43
14.97422329999995
 44
11.6448394
 45
84.02226285814899
 46
32.25304967099524
 79
     2
 49
6.374019
 49
-70.1142112
 53
37.5
 43
0.0
 44
0.0
 45
1.215985531729066
 46
33.28938538313115
 79
     6
 49
0.0
 49
-65.19999999999999
 49
0.0
 49
-67.0
 49
0.0
 49
-66.25
 53
7.499999999999999
 43
0.0
 44
0.0
 45
26.30695374421486
 46
39.44117118823603
 79
     6
 49
0.0
 49
-38.2
 49
0.0
 49
-63.7
 49
0.0
 49
-25.25
 53
327.5
 43
-22.29999999999995
 44
0.0
 45
53.3822436172409
 46
-2.255487173437979
 79
     6
 49
0.0
 49
-25.0
 49
0.0
 49
-78.0
 49
0.0
 49
-103.5
 53
317.5
 43
-32.29999999999995
 44
0.0
 45
58.31861693423862
 46
10.01049823323176
 79
     6
 49
0.0
 49
-32.5
 49
0.0
 49
-51.79999999999999
 49
0.0
 49
-73.5
 98
        1
 10
-89.25602290662572
 20
128.410267101712
1001
ACAD
1010
0.0
1020
0.0
1030
0.0
  0
INSERT
  5
D98B
330
1F
100
AcDbEntity
  8
0
100
AcDbBlockReference
  2
mp001456
 10
-72.19584538862682
 20
403.7744981359357
 30
0.0
 41
-1.0
1001
AEC_XDATA_BOUND_SPACE
1070
   100
1070
     1
  0
ARC
  5
D9FA
330
1F
100
AcDbEntity
  8
Inulation (00134150)
100
AcDbCircle
 10
-142.8897862101996
 20
334.1845723031499
 30
0.0
 40
9.804782738504439
100
AcDbArc
 50
90.0
 51
228.7299876444091
  0
ARC
  5
D9FB
330
1F
100
AcDbEntity
  8
Inulation (00134150)
100
AcDbCircle
 10
-101.3810037395417
 20
348.891746410907
 30
0.0
 40
9.804782738504439
100
AcDbArc
 50
270.0
 51
90.0
  0
LINE
  5
D9FC
330
1F
100
AcDbEntity
  8
Inulation (00134150)
100
AcDbLine
 10
-142.8897862101996
 20
343.9893550416543
 30
0.0
 11
-101.3810037395417
 21
339.0869636724017
 31
0.0
  0
ARC
  5
D9FD
330
1F
100
AcDbEntity
  8
Inulation (00134150)
100
AcDbCircle
 10
-142.8897862101996
 20
363.5989205186632
 30
0.0
 40
9.804782738504439
100
AcDbArc
 50
90.0
 51
270.0
  0
LINE
  5
D9FE
330
1F
100
AcDbEntity
  8
Inulation (00134150)
100
AcDbLine
 10
-101.3810037395417
 20
358.6965291494114
 30
0.0
 11
-142.8897862101996
 21
353.7941377801587
 31
0.0
  0
ARC
  5
D9FF
330
1F
100
AcDbEntity
  8
Inulation (00134150)
100
AcDbCircle
 10
-101.3810037395417
 20
378.3060946264202
 30
0.0
 40
9.804782738504439
100
AcDbArc
 50
270.0
 51
90.0
  0
LINE
  5
DA00
330
1F
100
AcDbEntity
  8
Inulation (00134150)
100
AcDbLine
 10
-142.8897862101996
 20
373.4037032571675
 30
0.0
 11
-101.3810037395417
 21
368.5013118879158
 31
0.0
  0
ARC
  5
DA01
330
1F
100
AcDbEntity
  8
Inulation (00134150)
100
AcDbCircle
 10
-142.8897862101996
 20
393.0132687341763
 30
0.0
 40
9.804782738504439
100
AcDbArc
 50
90.0
 51
270.0
  0
LINE
  5
DA02
330
1F
100
AcDbEntity
  8
Inulation (00134150)
100
AcDbLine
 10
-101.3810037395417
 20
388.1108773649246
 30
0.0
 11
-142.8897862101996
 21
383.2084859956719
 31
0.0
  0
ARC
  5
DA03
330
1F
100
AcDbEntity
  8
Inulation (00134150)
100
AcDbCircle
 10
-101.3810037395417
 20
407.7204428419333
 30
0.0
 40
9.804782738504439
100
AcDbArc
 50
270.0
 51
90.0
  0
LINE
  5
DA04
330
1F
100
AcDbEntity
  8
Inulation (00134150)
100
AcDbLine
 10
-142.8897862101996
 20
402.8180514726807
 30
0.0
 11
-101.3810037395417
 21
397.915660103429
 31
0.0
  0
LINE
  5
DA06
330
1F
100
AcDbEntity
  8
Inulation (00134150)
100
AcDbLine
 10
-101.3810037395417
 20
417.5252255804378
 30
0.0
 11
-142.8897862101996
 21
412.6228342111851
 31
0.0
  0
LINE
  5
DA8E
330
1F
100
AcDbEntity
  8
MASONS Render & Coating System Inner lines (00134157)
 48
5.0
100
AcDbLine
 10
46.93436247980844
 20
442.7667328168825
 30
0.0
 11
46.93436247980844
 21
294.662882214853
 31
0.0
  0
LINE
  5
DA8F
330
1F
100
AcDbEntity
  8
MASONS Render & Coating System Inner lines (00134157)
 48
5.0
100
AcDbLine
 10
46.93436247980844
 20
294.662882214853
 30
0.0
 11
46.93436247980844
 21
226.0400379321253
 31
0.0
  0
INSERT
  5
DA90
330
1F
100
AcDbEntity
  8
MP Hidden Lines (00134167)
100
AcDbBlockReference
  2
mp001237
 10
44.93285903209335
 20
218.7439415001648
 30
0.0
1001
AEC_XDATA_BOUND_SPACE
1070
   100
1070
     1
  0
LWPOLYLINE
  5
DA91
330
1F
100
AcDbEntity
  8
MASONS Render & Coating System Perimeter (00134155)
100
AcDbPolyline
 90
        3
 70
     0
 43
0.0
 10
53.01567730836587
 20
442.7667328168825
 10
53.01417386065077
 20
300.285448025705
 42
-0.0381441143739086
 10
52.24870334271736
 20
293.4569169918171
 42
1.94766570510196
  0
LWPOLYLINE
  5
DA92
330
1F
100
AcDbEntity
  8
MASONS Render & Coating System Perimeter (00134155)
100
AcDbPolyline
 90
        3
 70
     0
 43
0.0
 10
53.01567730836587
 20
82.18381786505544
 10
53.01567730836587
 20
226.8468684594247
 42
0.0039822572350659
 10
53.01567730836587
 20
226.8468684594247
 42
0.0640160633228906
  0
MULTILEADER
  5
DA93
102
{ACAD_XDICTIONARY
360
DA94
102
}
330
1F
100
AcDbEntity
  8
MP Annotation (00134142) @ 2
 92
      284
310
1C0100000D0000000C00000010000000220000000C00000016000000000000C00C00000013000000010000000C000000140000000100000054000000070000000300000064CEF2A5DE8D4C4007225A179B4B7240000000000000000060BD2030E80D4A400EE25992F7587240000000000000000039E932B5F18D4C40F68DE9
310
C14566724000000000000000000C00000013000000891300003C0000000600000002000000CFDB922DE88D4C40FED7A16CF05872400000000000000000E00C508A22535640FE4DC768C258724000000000000000000C000000130000009A3A00000C00000016000000000000C00C00000012000000FF7F00000C0000001700
310
0000FFFFFFFF0C00000016000000000000C00C00000013000000993A0000
100
AcDbMLeader
300
CONTEXT_DATA{
 40
2.0
 10
89.29898317162907
 20
293.5474632058466
 30
0.0
 41
4.0
140
5.0
145
4.0
174
     1
175
     1
176
     0
177
     0
290
     1
304

 11
0.0
 21
0.0
 31
1.0
340
380
 12
93.29898317162905
 22
295.5474632058466
 32
0.0
 13
1.0
 23
0.0
 33
0.0
 42
0.0
 43
0.0
 44
0.0
 45
1.0
170
     1
 90
-1073741824
171
     1
172
     5
 91
-1073741824
141
0.0
 92
  2957760
291
     0
292
     0
173
     0
293
     0
142
0.0
143
0.0
294
     0
295
     0
296
     0
110
36.39861454754328
120
297.1436625478867
130
0.0
111
1.0
121
0.0
131
0.0
112
0.0
122
1.0
132
0.0
297
     0
302
LEADER{
290
     1
291
     1
 10
89.29898317162907
 20
293.5474632058466
 30
0.0
 11
1.0
 21
0.0
 31
0.0
 90
        0
 40
0.0
304
LEADER_LINE{
 10
52.10864831541653
 20
293.5604423056656
 30
0.0
 91
        0
305
}
303
}
301
}
340
389
 90
   345760
170
     1
 91
-1073741824
341
15
171
    -1
290
     1
291
     0
 41
0.0
 42
2.5
172
     2
343
380
173
     1
 95
        1
174
     1
175
     0
 92
-1073741824
292
     0
 93
-1056964608
 10
1.0
 20
1.0
 30
1.0
 43
0.0
176
     0
293
     0
294
     0
178
     0
179
     1
 45
2.0
1001
ACAD_MLEADERVER
1070
     2
  0
LINE
  5
DA98
330
1F
100
AcDbEntity
  8
MASONS Render & Coating System Perimeter (00134155)
100
AcDbLine
 10
53.01417386065077
 20
300.285448025705
 30
0.0
 11
53.01567730836587
 21
226.8468684594247
 31
0.0
  0
INSERT
  5
DAE6
330
1F
100
AcDbEntity
  8
MP Annotation (00134142)
100
AcDbBlockReference
  2
mp001460
 10
90.1450718694682
 20
293.7884746529379
 30
0.0
1001
AEC_XDATA_BOUND_SPACE
1070
   100
1070
     1
  0
LINE
  5
DC01
102
{ACAD_REACTORS
330
E660
102
}
330
1F
100
AcDbEntity
  8
MP Grout or Mortar Perimeter (00038172)
100
AcDbLine
 10
-75.06563752019156
 20
242.2928808045144
 30
0.0
 11
-59.61962517510244
 21
226.8468684594253
 31
0.0
  0
LWPOLYLINE
  5
DC02
330
1F
100
AcDbEntity
  8
MASONS Dryfix DPC Perimeter (00134138)
 48
5.0
100
AcDbPolyline
 90
        5
 70
     0
 43
0.0
 10
-165.0656375201915
 20
278.3227294741717
 10
-73.10395524934211
 20
278.3227294741717
 10
-73.10395524934211
 20
243.0564652819516
 10
-61.52401095080517
 20
231.8468684594251
 10
41.8280740278542
 20
231.8468684594251
  0
ARC
  5
E25A
330
1F
100
AcDbEntity
  8
Inulation (00134150)
100
AcDbCircle
 10
-142.8897862101996
 20
422.4276169496896
 30
0.0
 40
9.804782738504439
100
AcDbArc
 50
90.0
 51
270.0
  0
ARC
  5
E25B
330
1F
100
AcDbEntity
  8
Inulation (00134150)
100
AcDbCircle
 10
-101.3810037395417
 20
437.1347910574466
 30
0.0
 40
9.804782738504439
100
AcDbArc
 50
270.0
 51
35.05815688265131
  0
LINE
  5
E25C
330
1F
100
AcDbEntity
  8
Inulation (00134150)
100
AcDbLine
 10
-142.8897862101996
 20
432.232399688194
 30
0.0
 11
-108.3858471906344
 21
428.1573147835891
 31
0.0
  0
LINE
  5
E25D
330
1F
100
AcDbEntity
  8
Inulation (00134150)
100
AcDbLine
 10
-107.9615862889397
 20
428.1072074843868
 30
0.0
 11
-101.3810037395417
 21
427.3300083189422
 31
0.0
  0
HATCH
  5
E660
330
1F
100
AcDbEntity
  8
MP Grout or Mortar Hatch (00038171)
100
AcDbHatch
 10
0.0
 20
0.0
 30
0.0
210
0.0
220
0.0
230
1.0
  2
AR-SAND
 70
     0
 71
     1
 91
        1
 92
        7
 72
     0
 73
     1
 93
        3
 10
-75.06563752019156
 20
242.2928808045145
 10
-75.06563752019156
 20
226.8468684594249
 10
-59.61962517510198
 20
226.8468684594249
 97
        3
330
D020
330
D01F
330
DC01
 75
     0
 76
     1
 52
90.0
 41
2.0
 77
     0
 78
     4
 53
127.5
 43
0.0
 44
0.0
 45
-3.853647538026317
 46
-0.1259867162192161
 79
     6
 49
0.0
 49
-3.04
 49
0.0
 49
-3.399999999999999
 49
0.0
 49
-3.25
 53
97.49999999999996
 43
0.0
 44
0.0
 45
-5.64429213045948
 46
3.539553410535454
 79
     6
 49
0.0
 49
-1.639999999999999
 49
0.0
 49
-2.74
 49
0.0
 49
-1.05
 53
57.5
 43
0.0
 44
-2.46
 45
-0.0113181070739286
 46
6.22828372350299
 79
     6
 49
0.0
 49
-1.0
 49
0.0
 49
-3.6
 49
0.0
 49
-4.7
 53
47.5
 43
0.0
 44
-2.46
 45
-1.755351129868497
 46
6.012253209144586
 79
     6
 49
0.0
 49
-0.5
 49
0.0
 49
-2.359999999999999
 49
0.0
 49
-2.7
 47
0.4097347651653541
 98
        1
 10
-70.9068077852919
 20
232.259013855679
1001
ACAD
1010
0.0
1020
0.0
1030
0.0
  0
LINE
  5
EA72
330
1F
100
AcDbEntity
  8
MP Annotation (00134142)
100
AcDbLine
 10
87.38538939141994
 20
166.4143298020002
 30
0.0
 11
158.4290717422689
 21
166.4143298020002
 31
0.0
  0
LINE
  5
EA74
330
1F
100
AcDbEntity
  8
MP Annotation (00134142)
100
AcDbLine
 10
158.4290717422689
 20
166.4143298020002
 30
0.0
 11
158.4290717422689
 21
131.6741110802319
 31
0.0
  0
LINE
  5
EA75
330
1F
100
AcDbEntity
  8
MP Annotation (00134142)
100
AcDbLine
 10
158.4290717422689
 20
131.6741110802319
 30
0.0
 11
87.38538939141994
 21
131.6741110802319
 31
0.0
  0
LINE
  5
EA76
330
1F
100
AcDbEntity
  8
MP Annotation (00134142)
100
AcDbLine
 10
87.38538939141994
 20
131.6741110802319
 30
0.0
 11
87.38538939141994
 21
166.4143298020002
 31
0.0
  0
ARC
  5
EE0C
330
1F
100
AcDbEntity
  8
MP Grout or Mortar Perimeter (00038172)
100
AcDbCircle
 10
-39.69345190002957
 20
231.8468684594251
 30
0.0
 40
15.45875007508107
100
AcDbArc
 50
341.1288246939875
 51
18.87117530601209
  0
HATCH
  5
EE0E
330
1F
100
AcDbEntity
  8
MP Grout or Mortar Hatch (00038171)
100
AcDbHatch
 10
0.0
 20
0.0
 30
0.0
210
0.0
220
0.0
230
1.0
  2
AR-SAND
 70
     0
 71
     0
 91
        1
 92
        7
 72
     1
 73
     1
 93
        4
 10
44.92985211254222
 20
236.8468684594256
 42
0.0
 10
-25.06864442768279
 20
236.8468684594256
 42
-0.166187136636617
 10
-25.06864442768256
 20
226.8468684594252
 42
0.0
 10
44.92985211254199
 20
226.8468684594252
 42
-0.1661871366366168
 97
        0
 75
     0
 76
     1
 52
90.0
 41
1.5
 77
     0
 78
     4
 53
127.5
 43
-0.0015052568930969
 44
-73.99950396033705
 45
-2.890235653519738
 46
-0.0944900371644121
 79
     6
 49
0.0
 49
-2.28
 49
0.0
 49
-2.549999999999999
 49
0.0
 49
-2.4375
 53
97.49999999999992
 43
-0.0015052568930969
 44
-73.99950396033705
 45
-4.23321909784461
 46
2.654665057901591
 79
     6
 49
0.0
 49
-1.229999999999999
 49
0.0
 49
-2.055
 49
0.0
 49
-0.7875000000000001
 53
57.5
 43
-0.0015052568930969
 44
-75.84450396033705
 45
-0.0084885803054465
 46
4.671212792627242
 79
     6
 49
0.0
 49
-0.75
 49
0.0
 49
-2.7
 49
0.0
 49
-3.525
 53
47.5
 43
-0.0015052568930969
 44
-75.84450396033705
 45
-1.316513347401373
 46
4.50918990685844
 79
     6
 49
0.0
 49
-0.375
 49
0.0
 49
-1.77
 49
0.0
 49
-2.025
 47
0.3647616381685164
 98
        1
 10
16.0514567526684
 20
232.019817118527
1001
ACAD
1010
0.0
1020
0.0
1030
0.0
  0
HATCH
  5
F11A
330
1F
100
AcDbEntity
  8
Detail Linning Inner Hatch (00134147)
100
AcDbHatch
 10
0.0
 20
0.0
 30
0.0
210
0.0
220
0.0
230
1.0
  2
HONEY
 70
     0
 71
     0
 91
        1
 92
        1
 93
        4
 72
     1
 10
-165.0656375201915
 20
442.7667328168825
 11
-175.0646180785033
 21
442.7667328168825
 72
     1
 10
-175.0646180785033
 20
442.7667328168825
 11
-175.0646180785034
 21
282.6144251168417
 72
     1
 10
-175.0646180785033
 20
282.6144251168417
 11
-165.0656375201915
 21
282.6144251168418
 72
     1
 10
-165.0656375201915
 20
282.6144251168418
 11
-165.0656375201915
 21
442.7667328168825
 97
        0
 75
     0
 76
     1
 52
45.0
 41
20.0
 77
     0
 78
     3
 53
45.0
 43
0.0
 44
0.7675566574168898
 45
1.120719346900072
 46
4.182581511999034
 79
     2
 49
2.5
 49
-5.0
 53
165.0
 43
0.0
 44
0.7675566574168898
 45
-4.182581516240327
 46
-1.120719331071347
 79
     2
 49
2.5
 49
-5.0
 53
104.9999999999999
 43
0.0
 44
0.7675566574168898
 45
-3.061862169340254
 46
3.061862180927685
 79
     2
 49
-5.0
 49
2.5
 98
        1
 10
-168.955458096683
 20
387.9919252956398
1001
ACAD
1010
0.0
1020
0.0
1030
0.0
  0
LWPOLYLINE
  5
F1F5
330
1F
100
AcDbEntity
  8
defpoints
100
AcDbPolyline
 90
        5
 70
     0
 43
0.0
 10
44.92489152825783
 20
82.18381786505544
 10
53.01567730836587
 20
82.18381786505544
 10
53.01567730836587
 20
442.7667328168825
 10
44.93436609816353
 20
442.7667328168825
 10
44.92489152825783
 20
82.18381786505544
  0
MULTILEADER
  5
F431
102
{ACAD_XDICTIONARY
360
F432
102
}
330
1F
100
AcDbEntity
  8
MP Annotation (00134142) @ 2
 92
      568
310
38020000100000000C00000010000000220000000C00000016000000000000C00C00000013000000112700003C00000006000000020000000053C084B7971FC09241092232BB7640000000000000000070070C65738D56409241092232BB764000000000000000000C00000013000000010000000C00000014000000010000
310
00540000000700000003000000792F06621A7C40C0C9DEBAFC943478400000000000000000609E96B98AF841C0EEB2F1D74776784000000000000000009647BA7069CC3FC051BEE9738E47784000000000000000000C00000013000000891300003C0000000600000002000000A2A9318D273140C08D4E52B8113E78400000
310
0000000000000053C084B7971FC09241092232BB764000000000000000000C000000130000009A3A00000C00000016000000000000C00C00000012000000FF7F00000C00000017000000FFFFFFFF0C00000016000000000000C00C00000013000000993A0000D40000002600000054679237E76F56400D0093AE1694764000
310
0000000000000000000000000000000000000000000000000000000000F03F000000000000F03F000000000000000000000000000000004D00410053004F004E005300200042007200690063006B00200054006900650000006B0010000000010000003433333333331340000000000000F03F000000000000000000000000
310
0000F03F00000000000000000000000000000000000000000000000000000000010000002200000041007200690061006C0000000000000000000000
100
AcDbMLeader
300
CONTEXT_DATA{
 40
2.0
 10
90.21016813444816
 20
363.6997394906586
 30
0.0
 41
4.8
140
5.0
145
0.036
174
     1
175
     1
176
     0
177
     0
290
     1
304
MASONS Brick Tie
 11
0.0
 21
0.0
 31
1.0
340
11
 12
90.24616813444822
 22
366.1406671850651
 32
0.0
 13
1.0
 23
0.0
 33
0.0
 42
0.0
 43
178.3609630659339
 44
0.0
 45
1.0
170
     1
 90
-1073741824
171
     1
172
     5
 91
-1073741824
141
0.0
 92
  2952328
291
     0
292
     0
173
     0
293
     0
142
0.0
143
0.0
294
     0
295
     0
296
     0
110
-95.44648111827427
120
378.4980033688577
130
0.0
111
1.0
121
0.0
131
0.0
112
0.0
122
1.0
132
0.0
297
     0
302
LEADER{
290
     1
291
     1
 10
-7.898161005247629
 20
363.6997394906586
 30
0.0
 11
1.0
 21
0.0
 31
0.0
 90
        0
 40
98.1083291396958
304
LEADER_LINE{
 10
-35.9417335496371
 20
391.3925399247517
 30
0.0
 91
        0
305
}
303
}
301
}
340
2C4
 90
   345760
170
     1
 91
-1073741824
341
15
171
    -1
290
     1
291
     1
 41
0.3635
 42
2.5
172
     2
343
11
173
     1
 95
        1
174
     1
175
     0
 92
-1056964608
292
     0
 93
-1056964608
 10
1.0
 20
1.0
 30
1.0
 43
0.0
176
     0
293
     0
294
     0
178
     0
179
     1
 45
2.0
1001
ACAD_MLEADERVER
1070
     2
  0
LINE
  5
F5B1
330
1F
100
AcDbEntity
  8
MASONS Render & Coating System Inner lines (00134157)
 48
5.0
100
AcDbLine
 10
46.93436247980844
 20
216.8468684594245
 30
0.0
 11
46.93436247980844
 21
84.7629052087815
 31
0.0
  0
ARC
  5
FB27
330
1F
100
AcDbEntity
  8
MP Grout or Mortar Perimeter (00038172)
100
AcDbCircle
 10
59.56217685964645
 20
231.8468684594251
 30
0.0
 40
15.45875007508107
100
AcDbArc
 50
161.1288246939879
 51
198.8711753060125
  0
HATCH
  5
FC3D
330
1F
100
AcDbEntity
  8
MASONS Render & Coating System Hatch (00134156)
100
AcDbHatch
 10
0.0
 20
0.0
 30
0.0
210
0.0
220
0.0
230
1.0
  2
AR-SAND
 70
     0
 71
     0
 91
        1
 92
        7
 72
     1
 73
     1
 93
        4
 10
53.01567730836578
 20
442.7667328168825
 42
0.0
 10
44.93436609816348
 20
442.7667328168824
 42
0.0
 10
44.93436246774848
 20
226.8468684594247
 42
-0.3401466915642337
 10
53.00620453557752
 20
216.8468684594244
 42
0.0
 97
        0
 75
     0
 76
     1
 52
0.0
 41
3.0
 77
     0
 78
     4
 53
37.5
 43
-200.0
 44
0.0
 45
-0.1889800743288245
 46
5.780471307039475
 79
     6
 49
0.0
 49
-4.56
 49
0.0
 49
-5.099999999999999
 49
0.0
 49
-4.875
 53
7.499999999999999
 43
-200.0
 44
0.0
 45
5.309330115803181
 46
8.466438195689221
 79
     6
 49
0.0
 49
-2.459999999999999
 49
0.0
 49
-4.11
 49
0.0
 49
-1.575
 53
327.5
 43
-203.69
 44
0.0
 45
9.342425585254485
 46
0.0169771606108935
 79
     6
 49
0.0
 49
-1.5
 49
0.0
 49
-5.4
 49
0.0
 49
-7.05
 53
317.5
 43
-203.69
 44
0.0
 45
9.01837981371688
 46
2.633026694802747
 79
     6
 49
0.0
 49
-0.75
 49
0.0
 49
-3.54
 49
0.0
 49
-4.05
 47
0.4207809988651904
 98
        1
 10
47.53843357565142
 20
371.9218003985685
1001
ACAD
1010
0.0
1020
0.0
1030
0.0
  0
MTEXT
  5
FCD6
102
{ACAD_XDICTIONARY
360
FCD7
102
}
330
1F
100
AcDbEntity
  8
MP Annotation (00134142) @ 2
100
AcDbMText
 10
9.934363396457229
 20
268.6459164999594
 30
0.0
 40
5.0
 41
25.87181524849839
 46
0.0
 71
     5
 72
     5
  1
{\fArial|b1|i0|c0|p34;VENT EVERY\P6TH PERPEND}
  7
2mm
 73
     1
 44
1.0
1001
ACAD_MLEADERVER
1070
     2
1001
AcadAnnotative
1000
AnnotativeData
1002
{
1070
     1
1070
     0
1002
}
  0
VIEWPORT
  5
DD
330
1B
100
AcDbEntity
 67
     1
  8
0
100
AcDbViewport
 10
32.70558483348077
 20
267.0948427325116
 30
0.0
 40
1684.484633990016
 41
803.9785668234332
 68
     1
 69
     1
 12
32.70558483348077
 22
267.0948427325116
 13
0.0
 23
0.0
 14
0.5
 24
0.5
 15
0.5
 25
0.5
 16
0.0
 26
0.0
 36
1.0
 17
0.0
 27
0.0
 37
0.0
 42
50.0
 43
0.0
 44
0.0
 45
803.9785668234332
 50
0.0
 51
0.0
 72
  1000
 90
    32832
  1

281
     0
 71
     0
 74
     0
110
0.0
120
0.0
130
0.0
111
1.0
121
0.0
131
0.0
112
0.0
122
1.0
132
0.0
 79
     0
146
0.0
170
     0
 61
     5
348
220
292
     1
282
     1
141
0.0
142
0.0
 63
   250
421
  3355443
  0
VIEWPORT
  5
7286
102
{ACAD_XDICTIONARY
360
7287
102
}
330
1B
100
AcDbEntity
 67
     1
  8
0
100
AcDbViewport
 10
77.31868113181625
 20
135.7196043244615
 30
0.0
 40
208.4104189386481
 41
295.4095336800116
 68
     2
 69
     2
 12
-213.8355605926524
 22
318.3632559612219
 13
0.0
 23
0.0
 14
0.5
 24
0.5
 15
0.5
 25
0.5
 16
0.0
 26
0.0
 36
506.6644142278971
 17
120.0886600198171
 27
173.4779415605293
 37
481.3071417340059
 42
50.0
 43
0.0
 44
0.0
 45
1477.047667961938
 50
0.0
 51
0.0
 72
  1000
331
101C5
331
101DB
331
101B7
 90
   819296
  1

281
     0
 71
     1
 74
     0
110
0.0
120
0.0
130
0.0
111
1.0
121
0.0
131
0.0
112
0.0
122
1.0
132
0.0
 79
     0
146
0.0
170
     0
 61
     5
348
220
292
     1
282
     1
141
0.0
142
0.0
 63
   250
421
  3355443
  0
ENDSEC
  0
SECTION
  2
OBJECTS
  0
DICTIONARY
  5
C
330
0
100
AcDbDictionary
281
     1
  3
ACAD_BACKGROUND
350
83C
  3
ACAD_COLOR
350
EB
  3
ACAD_FIELDLIST
350
E70
  3
ACAD_FLATSHOT
350
89C
  3
ACAD_GROUP
350
D
  3
ACAD_IMAGE_DICT
350
E6E
  3
ACAD_IMAGE_VARS
350
E74
  3
ACAD_LAYOUT
350
1A
  3
ACAD_MATERIAL
350
EA
  3
ACAD_MLEADERSTYLE
350
2C3
  3
ACAD_MLINESTYLE
350
17
  3
ACAD_PLOTSETTINGS
350
19
  3
ACAD_PLOTSTYLENAME
350
E
  3
ACAD_SCALELIST
350
2A1
  3
ACAD_TABLESTYLE
350
22B
  3
ACAD_VISUALSTYLE
350
21A
  3
AcAec
350
A21
  3
ACDB_RECOMPOSE_DATA
350
310
  3
AcDbVariableDictionary
350
25B
  3
AEC_DISP_REP_CONFIGURATIONS
350
A0A
  3
AEC_DISP_REP_SETS
350
A01
  3
AEC_DISP_REPS
350
8DB
  3
AEC_DISPLAY_PROPS_DEFAULTS
350
8DF
  3
AEC_LAYERKEY_STYLES
350
A0C
  3
AEC_PROPERTY_SET_DEFS
350
3C2
  3
AEC_VARS
350
8DD
  3
ASE_INDEX_DICTIONARY
350
3E43
  0
DICTIONARY
  5
28F
330
2
100
AcDbDictionary
280
     1
281
     1
  3
ACAD_LAYERFILTERS
360
1BB9
  3
ACAD_LAYERSTATES
360
290
  3
ACLYDICTIONARY
360
1BB8
  0
DICTIONARY
  5
308
330
10
100
AcDbDictionary
280
     1
281
     1
  3
ADSK_XREC_LAYER_RECONCILED
360
43AF
  0
DICTIONARY
  5
37E
330
37D
100
AcDbDictionary
280
     1
281
     1
  0
DICTIONARY
  5
CF5A
330
CF59
100
AcDbDictionary
280
     1
281
     1
  0
DICTIONARY
  5
CF60
330
CF5F
100
AcDbDictionary
280
     1
281
     1
  0
DICTIONARY
  5
CFB7
330
CFB6
100
AcDbDictionary
280
     1
281
     1
  0
DICTIONARY
  5
CFBB
330
CFBA
100
AcDbDictionary
280
     1
281
     1
  0
DICTIONARY
  5
CFBD
330
CFBC
100
AcDbDictionary
280
     1
281
     1
  0
DICTIONARY
  5
CFBF
330
CFBE
100
AcDbDictionary
280
     1
281
     1
  0
DICTIONARY
  5
CFC1
330
CFC0
100
AcDbDictionary
280
     1
281
     1
  0
DICTIONARY
  5
CFC3
330
CFC2
100
AcDbDictionary
280
     1
281
     1
  0
DICTIONARY
  5
CFC5
330
CFC4
100
AcDbDictionary
280
     1
281
     1
  0
DICTIONARY
  5
CFC7
330
CFC6
100
AcDbDictionary
280
     1
281
     1
  0
DICTIONARY
  5
CFC9
330
CFC8
100
AcDbDictionary
280
     1
281
     1
  0
DICTIONARY
  5
CFCB
330
CFCA
100
AcDbDictionary
280
     1
281
     1
  0
DICTIONARY
  5
CFCD
330
CFCC
100
AcDbDictionary
280
     1
281
     1
  0
DICTIONARY
  5
D042
330
D041
100
AcDbDictionary
280
     1
281
     1
  0
DICTIONARY
  5
D044
330
D043
100
AcDbDictionary
280
     1
281
     1
  0
DICTIONARY
  5
D115
330
D114
100
AcDbDictionary
280
     1
281
     1
  0
DICTIONARY
  5
D9E0
330
D9DF
100
AcDbDictionary
280
     1
281
     1
  0
DICTIONARY
  5
E11A
330
E119
100
AcDbDictionary
280
     1
281
     1
  0
DICTIONARY
  5
101B8
330
101B7
100
AcDbDictionary
280
     1
281
     1
  3
ASDK_XREC_ANNO_SCALE_INFO
360
101B9
  0
DICTIONARY
  5
101C6
330
101C5
100
AcDbDictionary
280
     1
281
     1
  3
ASDK_XREC_ANNO_SCALE_INFO
360
101C7
  0
DICTIONARY
  5
101CF
330
101CE
100
AcDbDictionary
280
     1
281
     1
  3
ASDK_XREC_ANNO_SCALE_INFO
360
101D0
  0
DICTIONARY
  5
101DC
330
101DB
100
AcDbDictionary
280
     1
281
     1
  3
ASDK_XREC_ANNO_SCALE_INFO
360
101DD
  0
DICTIONARY
  5
101E5
330
101E4
100
AcDbDictionary
280
     1
281
     1
  3
ASDK_XREC_ANNO_SCALE_INFO
360
101E6
  0
DICTIONARY
  5
102E
330
1F
100
AcDbDictionary
280
     1
281
     1
  3
ACAD_SORTENTS
360
FA31
  0
DICTIONARY
  5
FFC8
330
6591
100
AcDbDictionary
280
     1
281
     1
  3
ACAD_SORTENTS
360
FFC9
  0
DICTIONARY
  5
81A2
330
81A1
100
AcDbDictionary
280
     1
281
     1
  3
ACAD_ENHANCEDBLOCK
360
81A3
  3
AcDbDynamicBlockRoundTripPurgePreventer
360
81A9
  0
DICTIONARY
  5
FFF5
330
D534
100
AcDbDictionary
280
     1
281
     1
  3
ACAD_SORTENTS
360
FFF6
  0
DICTIONARY
  5
1000F
330
D984
100
AcDbDictionary
280
     1
281
     1
  3
ACAD_SORTENTS
360
10010
  0
DICTIONARY
  5
F766
330
DA5E
100
AcDbDictionary
280
     1
281
     1
  3
ACAD_SORTENTS
360
FB20
  0
DICTIONARY
  5
10137
330
DAE2
100
AcDbDictionary
280
     1
281
     1
  3
ACAD_SORTENTS
360
10138
  0
DICTIONARY
  5
F97A
330
F979
100
AcDbDictionary
280
     1
281
     1
  0
DICTIONARY
  5
10120
330
FDCF
100
AcDbDictionary
280
     1
281
     1
  3
ACAD_SORTENTS
360
10121
  0
DICTIONARY
  5
101BA
330
FFC3
100
AcDbDictionary
280
     1
281
     1
  3
ACAD_MTEXT_2008_RT
360
101BB
  0
DICTIONARY
  5
101C0
330
101BF
100
AcDbDictionary
280
     1
281
     1
  3
AcDbContextDataManager
360
101C1
  0
DICTIONARY
  5
101C9
330
101C8
100
AcDbDictionary
280
     1
281
     1
  3
AcDbContextDataManager
360
101CA
  0
DICTIONARY
  5
101D6
330
101D5
100
AcDbDictionary
280
     1
281
     1
  3
AcDbContextDataManager
360
101D7
  0
DICTIONARY
  5
101DF
330
101DE
100
AcDbDictionary
280
     1
281
     1
  3
AcDbContextDataManager
360
101E0
  0
DICTIONARY
  5
F964
330
4852
100
AcDbDictionary
280
     1
281
     1
  3
AcDbContextDataManager
360
F965
  0
DICTIONARY
  5
F96A
330
6674
100
AcDbDictionary
280
     1
281
     1
  3
AcDbContextDataManager
360
F96B
  0
DICTIONARY
  5
F96F
330
8414
100
AcDbDictionary
280
     1
281
     1
  3
AcDbBlockRepresentation
360
F970
  3
AcDbContextDataManager
360
F976
  0
DICTIONARY
  5
8612
330
8611
100
AcDbDictionary
280
     1
281
     1
  3
AcDbContextDataManager
360
8613
  0
DICTIONARY
  5
8617
330
8616
100
AcDbDictionary
280
     1
281
     1
  3
AcDbContextDataManager
360
8618
  0
DICTIONARY
  5
D142
330
D141
100
AcDbDictionary
280
     1
281
     1
  3
AcDbContextDataManager
360
D143
  0
DICTIONARY
  5
D235
330
D234
100
AcDbDictionary
280
     1
281
     1
  3
AcDbContextDataManager
360
D236
  0
DICTIONARY
  5
D27D
330
D27C
100
AcDbDictionary
280
     1
281
     1
  3
AcDbContextDataManager
360
D27E
  0
DICTIONARY
  5
D2C0
330
D2BF
100
AcDbDictionary
280
     1
281
     1
  3
AcDbContextDataManager
360
D2C1
  0
DICTIONARY
  5
D37F
330
D37E
100
AcDbDictionary
280
     1
281
     1
  3
AcDbContextDataManager
360
D380
  0
DICTIONARY
  5
D384
330
D383
100
AcDbDictionary
280
     1
281
     1
  3
AcDbContextDataManager
360
D385
  0
DICTIONARY
  5
D54E
330
D54D
100
AcDbDictionary
280
     1
281
     1
  3
AcDbContextDataManager
360
D54F
  0
DICTIONARY
  5
DA94
330
DA93
100
AcDbDictionary
280
     1
281
     1
  3
AcDbContextDataManager
360
DA95
  0
DICTIONARY
  5
F432
330
F431
100
AcDbDictionary
280
     1
281
     1
  3
AcDbContextDataManager
360
F433
  0
DICTIONARY
  5
FCD7
330
FCD6
100
AcDbDictionary
280
     1
281
     1
  3
AcDbContextDataManager
360
FCD8
  0
DICTIONARY
  5
7287
330
7286
100
AcDbDictionary
280
     1
281
     1
  3
ASDK_XREC_ANNOTATION_SCALE_INFO
360
7288
  0
DICTIONARY
  5
83C
102
{ACAD_REACTORS
330
C
102
}
330
C
100
AcDbDictionary
281
     1
  0
DICTIONARY
  5
EB
102
{ACAD_REACTORS
330
C
102
}
330
C
100
AcDbDictionary
281
     1
  0
FIELDLIST
  5
E70
102
{ACAD_REACTORS
330
C
102
}
330
C
100
AcDbIdSet
 90
        0
100
AcDbFieldList
  0
XRECORD
  5
89C
102
{ACAD_REACTORS
330
C
102
}
330
C
100
AcDbXrecord
280
     1
 71
     0
  0
DICTIONARY
  5
D
102
{ACAD_REACTORS
330
C
102
}
330
C
100
AcDbDictionary
281
     1
  0
DICTIONARY
  5
E6E
102
{ACAD_REACTORS
330
C
102
}
330
C
100
AcDbDictionary
281
     1
  0
RASTERVARIABLES
  5
E74
102
{ACAD_REACTORS
330
C
102
}
330
C
100
AcDbRasterVariables
 90
        0
 70
     1
 71
     1
 72
     1
  0
DICTIONARY
  5
1A
102
{ACAD_REACTORS
330
C
102
}
330
C
100
AcDbDictionary
281
     1
  3
1
350
1E
  3
Model
350
22
  0
DICTIONARY
  5
EA
102
{ACAD_REACTORS
330
C
102
}
330
C
100
AcDbDictionary
281
     1
  3
ByBlock
350
218
  3
ByLayer
350
217
  3
Global
350
219
  0
DICTIONARY
  5
2C3
102
{ACAD_REACTORS
330
C
102
}
330
C
100
AcDbDictionary
281
     1
  3
2mm
350
389
  3
Standard
350
2C4
  0
DICTIONARY
  5
17
102
{ACAD_REACTORS
330
C
102
}
330
C
100
AcDbDictionary
281
     1
  3
Standard
350
18
  0
DICTIONARY
  5
19
102
{ACAD_REACTORS
330
C
102
}
330
C
100
AcDbDictionary
281
     1
  0
ACDBDICTIONARYWDFLT
  5
E
102
{ACAD_REACTORS
330
C
102
}
330
C
100
AcDbDictionary
281
     1
  3
Normal
350
F
100
AcDbDictionaryWithDefault
340
F
  0
DICTIONARY
  5
2A1
102
{ACAD_REACTORS
330
C
102
}
330
C
100
AcDbDictionary
281
     1
  3
*A1
350
13E3
  3
*A10
350
8332
  3
*A11
350
8325
  3
*A12
350
13E4
  3
*A13
350
8320
  3
*A14
350
13F0
  3
*A15
350
13F4
  3
*A16
350
13E6
  3
*A17
350
13ED
  3
*A18
350
13EF
  3
*A19
350
832B
  3
*A2
350
D547
  3
*A20
350
8326
  3
*A21
350
13E5
  3
*A22
350
13E9
  3
*A23
350
13EE
  3
*A24
350
13F5
  3
*A25
350
13F6
  3
*A26
350
8330
  3
*A27
350
832C
  3
*A28
350
831D
  3
*A29
350
13F1
  3
*A3
350
831E
  3
*A30
350
13EA
  3
*A31
350
13EB
  3
*A32
350
8335
  3
*A33
350
8331
  3
*A34
350
8324
  3
*A35
350
8321
  3
*A36
350
8322
  3
*A37
350
8323
  3
*A38
350
13F2
  3
*A39
350
8336
  3
*A4
350
832A
  3
*A40
350
8327
  3
*A41
350
8328
  3
*A42
350
8329
  3
*A43
350
13E7
  3
*A44
350
13F3
  3
*A45
350
832D
  3
*A46
350
832E
  3
*A47
350
832F
  3
*A48
350
D548
  3
*A49
350
13E8
  3
*A5
350
D549
  3
*A6
350
8333
  3
*A7
350
13EC
  3
*A8
350
8334
  3
*A9
350
831F
  3
A0
350
A6E
  3
A1
350
A77
  3
A2
350
A78
  3
A3
350
A79
  3
A4
350
A7A
  3
A5
350
A7B
  3
A6
350
A7C
  3
A7
350
A7D
  3
A8
350
A7E
  3
A9
350
A7F
  3
B0
350
A80
  3
B1
350
A6F
  3
B2
350
A81
  3
B3
350
A82
  3
B4
350
A70
  3
B5
350
A71
  3
B6
350
A72
  3
B7
350
A73
  3
B8
350
A74
  3
B9
350
A75
  3
C0
350
A76
  3
C1
350
2A2
  0
DICTIONARY
  5
22B
102
{ACAD_REACTORS
330
C
102
}
330
C
100
AcDbDictionary
281
     1
  3
Standard
350
22C
  0
DICTIONARY
  5
21A
102
{ACAD_REACTORS
330
C
102
}
330
C
100
AcDbDictionary
281
     1
  3
2dWireframe
350
220
  3
3D Hidden
350
222
  3
3dWireframe
350
221
  3
Basic
350
21F
  3
Brighten
350
226
  3
ColorChange
350
22A
  3
Conceptual
350
223
  3
Dim
350
225
  3
Facepattern
350
229
  3
Flat
350
21B
  3
FlatWithEdges
350
21C
  3
Gouraud
350
21D
  3
GouraudWithEdges
350
21E
  3
Linepattern
350
228
  3
Realistic
350
224
  3
Thicken
350
227
  0
DICTIONARY
  5
A21
102
{ACAD_REACTORS
330
C
102
}
330
C
100
AcDbDictionary
281
     1
  3
AcAecLayerManager
350
A22
  0
XRECORD
  5
310
102
{ACAD_REACTORS
330
C
102
}
330
C
100
AcDbXrecord
280
     1
 90
        1
330
22C
330
4852
330
6674
330
8414
330
8611
330
8616
330
D141
330
D234
330
D27C
330
D2BF
330
D37E
330
D383
330
D54D
330
DA93
330
F431
330
FCD6
330
FFC3
330
FFEE
330
10130
  0
DICTIONARY
  5
25B
102
{ACAD_REACTORS
330
C
102
}
330
C
100
AcDbDictionary
281
     1
  3
CANNOSCALE
350
313
  3
CMLEADERSTYLE
350
311
  3
CTABLESTYLE
350
25C
  3
LAYEREVAL
350
315
  3
LAYERNOTIFY
350
316
  3
LIGHTINGUNITS
350
314
  3
MLEADERSCALE
350
A3E
  3
MSLTSCALE
350
312
  0
DICTIONARY
  5
A0A
102
{ACAD_REACTORS
330
C
102
}
330
C
100
AcDbDictionary
281
     1
  3
Medium Detail
350
A11
  3
Standard
350
A0B
  0
DICTIONARY
  5
A01
102
{ACAD_REACTORS
330
C
102
}
330
C
100
AcDbDictionary
281
     1
  3
Elevation
350
A05
  3
Model
350
A02
  3
Model High Detail
350
A09
  3
Model Low Detail
350
A08
  3
Plan
350
A03
  3
Plan Diagnostic
350
A14
  3
Plan High Detail
350
A07
  3
Plan Low Detail
350
A06
  3
Reflected
350
A04
  0
DICTIONARY
  5
8DB
102
{ACAD_REACTORS
330
C
102
}
330
C
100
AcDbDictionary
281
     1
  3
AecDbDispRep2dSection
350
8DC
  3
AecDbDispRepAnchor
350
8E1
  3
AecDbDispRepAnchorBubToGrid
350
987
  3
AecDbDispRepAnchorBubToGridMdl
350
989
  3
AecDbDispRepAnchorBubToGridRcp
350
98B
  3
AecDbDispRepAnchorEntToNode
350
8FD
  3
AecDbDispRepAnchorExtendedTagToEnt
350
90D
  3
AecDbDispRepAnchorTagToEnt
350
90B
  3
AecDbDispRepBdgElevLineModel
350
90F
  3
AecDbDispRepBdgElevLinePlan
350
911
  3
AecDbDispRepBdgElevLinePlan100
350
9A3
  3
AecDbDispRepBdgElevLinePlan50
350
9BE
  3
AecDbDispRepBdgElevLineRcp
350
913
  3
AecDbDispRepBdgSectionLineModel
350
915
  3
AecDbDispRepBdgSectionLinePlan
350
917
  3
AecDbDispRepBdgSectionLinePlan100
350
9A5
  3
AecDbDispRepBdgSectionLinePlan50
350
9C0
  3
AecDbDispRepBdgSectionLineRcp
350
919
  3
AecDbDispRepBdgSectionModel
350
91B
  3
AecDbDispRepBdgSectionSubDiv
350
91C
  3
AecDbDispRepCeilingGrid
350
91E
  3
AecDbDispRepCeilingGridModel
350
920
  3
AecDbDispRepCeilingGridPlan100
350
9A7
  3
AecDbDispRepCeilingGridPlan50
350
9C2
  3
AecDbDispRepCeilingGridRcp
350
922
  3
AecDbDispRepClipVolModel
350
8E2
  3
AecDbDispRepClipVolPlan
350
8E4
  3
AecDbDispRepClipVolResSubDiv
350
8E7
  3
AecDbDispRepClipVolResult
350
8E6
  3
AecDbDispRepColumnGrid
350
98D
  3
AecDbDispRepColumnGridModel
350
98F
  3
AecDbDispRepColumnGridPlan100
350
9A9
  3
AecDbDispRepColumnGridPlan50
350
9C4
  3
AecDbDispRepColumnGridRcp
350
991
  3
AecDbDispRepCurtainWallLayoutModel
350
924
  3
AecDbDispRepCurtainWallLayoutPlan
350
926
  3
AecDbDispRepCurtainWallLayoutPlan100
350
9AB
  3
AecDbDispRepCurtainWallLayoutPlan50
350
9C6
  3
AecDbDispRepCurtainWallUnitModel
350
928
  3
AecDbDispRepCurtainWallUnitPlan
350
92A
  3
AecDbDispRepCurtainWallUnitPlan100
350
9AD
  3
AecDbDispRepCurtainWallUnitPlan50
350
9C8
  3
AecDbDispRepDimGroupPlan
350
9DD
  3
AecDbDispRepDimGroupPlan100
350
9D9
  3
AecDbDispRepDimGroupPlan50
350
9DB
  3
AecDbDispRepDisplayTheme
350
8E9
  3
AecDbDispRepDoorElev
350
92E
  3
AecDbDispRepDoorModel
350
92C
  3
AecDbDispRepDoorNominal
350
932
  3
AecDbDispRepDoorPlan
350
930
  3
AecDbDispRepDoorPlan50
350
9DF
  3
AecDbDispRepDoorPlanHekto
350
9E1
  3
AecDbDispRepDoorRcp
350
934
  3
AecDbDispRepDoorThresholdPlan
350
936
  3
AecDbDispRepDoorThresholdSymbolPlan
350
9E3
  3
AecDbDispRepEditInPlaceProfile
350
8EB
  3
AecDbDispRepEntRef
350
8ED
  3
AecDbDispRepLayoutCurve
350
8EF
  3
AecDbDispRepLayoutGrid2d
350
8F1
  3
AecDbDispRepLayoutGrid3d
350
8F3
  3
AecDbDispRepMaskBlockRef
350
8F5
  3
AecDbDispRepMaskBlockRefRcp
350
938
  3
AecDbDispRepMassElemModel
350
8FF
  3
AecDbDispRepMassElemPlan100
350
9E5
  3
AecDbDispRepMassElemPlan50
350
9E7
  3
AecDbDispRepMassElemRcp
350
93A
  3
AecDbDispRepMassElemSchem
350
901
  3
AecDbDispRepMassGroupModel
350
903
  3
AecDbDispRepMassGroupPlan
350
905
  3
AecDbDispRepMassGroupPlan100
350
9E9
  3
AecDbDispRepMassGroupPlan50
350
9EB
  3
AecDbDispRepMassGroupRcp
350
93C
  3
AecDbDispRepMaterial
350
8F7
  3
AecDbDispRepMvBlockRef
350
8F9
  3
AecDbDispRepMvBlockRef$Plan
350
A17
  3
AecDbDispRepMvBlockRefModel
350
8FA
  3
AecDbDispRepMvBlockRefPlan100
350
9AF
  3
AecDbDispRepMvBlockRefPlan50
350
9CA
  3
AecDbDispRepMvBlockRefRcp
350
93E
  3
AecDbDispRepOpening
350
93F
  3
AecDbDispRepOpeningModel
350
941
  3
AecDbDispRepOpeningPlan100
350
9ED
  3
AecDbDispRepOpeningPlan50
350
9EF
  3
AecDbDispRepOpeningPlanReflected
350
9F1
  3
AecDbDispRepOpeningSillPlan
350
9F3
  3
AecDbDispRepPolygonModel
350
907
  3
AecDbDispRepPolygonTrueColour
350
909
  3
AecDbDispRepRailingModel
350
943
  3
AecDbDispRepRailingPlan
350
945
  3
AecDbDispRepRailingPlan100
350
9F5
  3
AecDbDispRepRailingPlan50
350
9F7
  3
AecDbDispRepRoofModel
350
947
  3
AecDbDispRepRoofPlan
350
949
  3
AecDbDispRepRoofPlan100
350
9B0
  3
AecDbDispRepRoofPlan50
350
9CB
  3
AecDbDispRepRoofRcp
350
94B
  3
AecDbDispRepRoofSlabModel
350
94F
  3
AecDbDispRepRoofSlabPlan
350
953
  3
AecDbDispRepRoofSlabPlan100
350
9B2
  3
AecDbDispRepRoofSlabPlan50
350
9CD
  3
AecDbDispRepScheduleTable
350
985
  3
AecDbDispRepSlabModel
350
94D
  3
AecDbDispRepSlabPlan
350
951
  3
AecDbDispRepSlabPlan100
350
9B4
  3
AecDbDispRepSlabPlan50
350
9CF
  3
AecDbDispRepSlice
350
8FB
  3
AecDbDispRepSpaceDecomposed
350
955
  3
AecDbDispRepSpaceModel
350
957
  3
AecDbDispRepSpacePlan
350
959
  3
AecDbDispRepSpacePlan100
350
9B6
  3
AecDbDispRepSpacePlan50
350
9D1
  3
AecDbDispRepSpaceRcp
350
95B
  3
AecDbDispRepSpaceVolume
350
95D
  3
AecDbDispRepStairModel
350
95F
  3
AecDbDispRepStairPlan
350
961
  3
AecDbDispRepStairPlan100
350
9F9
  3
AecDbDispRepStairPlan50
350
9FB
  3
AecDbDispRepStairPlanOverlapping
350
963
  3
AecDbDispRepStairRcp
350
965
  3
AecDbDispRepWallGraph
350
967
  3
AecDbDispRepWallModel
350
969
  3
AecDbDispRepWallPlan
350
96B
  3
AecDbDispRepWallPlan100
350
9B8
  3
AecDbDispRepWallPlan50
350
9D3
  3
AecDbDispRepWallRcp
350
96D
  3
AecDbDispRepWallSchem
350
96F
  3
AecDbDispRepWindowAssemblyModel
350
971
  3
AecDbDispRepWindowAssemblyPlan
350
973
  3
AecDbDispRepWindowAssemblyPlan100
350
9BA
  3
AecDbDispRepWindowAssemblyPlan50
350
9D5
  3
AecDbDispRepWindowAssemblySillPlan
350
975
  3
AecDbDispRepWindowElev
350
979
  3
AecDbDispRepWindowModel
350
977
  3
AecDbDispRepWindowNominal
350
97D
  3
AecDbDispRepWindowPlan
350
97B
  3
AecDbDispRepWindowPlan100
350
9FD
  3
AecDbDispRepWindowPlan50
350
9FF
  3
AecDbDispRepWindowRcp
350
97F
  3
AecDbDispRepWindowSillPlan
350
981
  3
AecDbDispRepZone
350
983
  3
AecDbDispRepZonePlan100
350
9BC
  3
AecDbDispRepZonePlan50
350
9D7
  3
AecsDbDispRepMemberElevationDesign
350
993
  3
AecsDbDispRepMemberElevationDetail
350
995
  3
AecsDbDispRepMemberLogical
350
997
  3
AecsDbDispRepMemberModelDesign
350
999
  3
AecsDbDispRepMemberModelDetail
350
99B
  3
AecsDbDispRepMemberPlanDesign
350
99D
  3
AecsDbDispRepMemberPlanDetail
350
99F
  3
AecsDbDispRepMemberPlanSketch
350
9A1
  0
DICTIONARY
  5
8DF
102
{ACAD_REACTORS
330
C
102
}
330
C
100
AcDbDictionary
281
     1
  3
*A1
350
8E0
  3
*A10
350
9D8
  3
*A100
350
97E
  3
*A101
350
96E
  3
*A102
350
918
  3
*A103
350
92D
  3
*A104
350
954
  3
*A105
350
9C5
  3
*A106
350
91D
  3
*A107
350
984
  3
*A108
350
90A
  3
*A109
350
9F6
  3
*A11
350
952
  3
*A110
350
98E
  3
*A111
350
980
  3
*A112
350
8F0
  3
*A113
350
9FE
  3
*A114
350
94C
  3
*A115
350
94E
  3
*A116
350
8FC
  3
*A117
350
8EE
  3
*A118
350
9E4
  3
*A119
350
93D
  3
*A12
350
937
  3
*A120
350
948
  3
*A121
350
99C
  3
*A122
350
992
  3
*A123
350
93B
  3
*A124
350
9B9
  3
*A125
350
9EA
  3
*A126
350
940
  3
*A127
350
9A2
  3
*A128
350
8E8
  3
*A129
350
9AA
  3
*A13
350
99E
  3
*A130
350
91F
  3
*A131
350
9B3
  3
*A132
350
978
  3
*A133
350
97A
  3
*A134
350
8E5
  3
*A135
350
900
  3
*A136
350
95A
  3
*A137
350
8F4
  3
*A138
350
962
  3
*A139
350
958
  3
*A14
350
9E2
  3
*A140
350
904
  3
*A141
350
970
  3
*A15
350
9D2
  3
*A16
350
9D6
  3
*A17
350
942
  3
*A18
350
998
  3
*A19
350
99A
  3
*A2
350
916
  3
*A20
350
929
  3
*A21
350
9BF
  3
*A22
350
923
  3
*A23
350
988
  3
*A24
350
982
  3
*A25
350
994
  3
*A26
350
9F2
  3
*A27
350
9E6
  3
*A28
350
986
  3
*A29
350
8F2
  3
*A3
350
9D0
  3
*A30
350
92B
  3
*A31
350
98A
  3
*A32
350
9F8
  3
*A33
350
97C
  3
*A34
350
A00
  3
*A35
350
9F4
  3
*A36
350
968
  3
*A37
350
8EC
  3
*A38
350
9C9
  3
*A39
350
9CC
  3
*A4
350
9BD
  3
*A40
350
966
  3
*A41
350
946
  3
*A42
350
9A6
  3
*A43
350
8E3
  3
*A44
350
9B1
  3
*A45
350
9A4
  3
*A46
350
921
  3
*A47
350
94A
  3
*A48
350
9C1
  3
*A49
350
90E
  3
*A5
350
960
  3
*A50
350
914
  3
*A51
350
98C
  3
*A52
350
9EE
  3
*A53
350
9F0
  3
*A54
350
95E
  3
*A55
350
972
  3
*A56
350
8F8
  3
*A57
350
96C
  3
*A58
350
9DC
  3
*A59
350
9D4
  3
*A6
350
976
  3
*A60
350
9E8
  3
*A61
350
933
  3
*A62
350
925
  3
*A63
350
9DA
  3
*A64
350
9EC
  3
*A65
350
90C
  3
*A66
350
974
  3
*A67
350
9DE
  3
*A68
350
939
  3
*A69
350
9CE
  3
*A7
350
9A0
  3
*A70
350
944
  3
*A71
350
935
  3
*A72
350
9B7
  3
*A73
350
9A8
  3
*A74
350
906
  3
*A75
350
908
  3
*A76
350
8F6
  3
*A77
350
9B5
  3
*A78
350
990
  3
*A79
350
9FC
  3
*A8
350
902
  3
*A80
350
950
  3
*A81
350
8EA
  3
*A82
350
9FA
  3
*A83
350
96A
  3
*A84
350
996
  3
*A85
350
8FE
  3
*A86
350
956
  3
*A87
350
9AE
  3
*A88
350
95C
  3
*A89
350
9E0
  3
*A9
350
964
  3
*A90
350
92F
  3
*A91
350
931
  3
*A92
350
9AC
  3
*A93
350
9C3
  3
*A94
350
912
  3
*A95
350
9BB
  3
*A96
350
91A
  3
*A97
350
910
  3
*A98
350
9C7
  3
*A99
350
927
  0
DICTIONARY
  5
A0C
102
{ACAD_REACTORS
330
C
102
}
330
C
100
AcDbDictionary
281
     1
  3
AIA (256 Color)
350
A1A
  0
DICTIONARY
  5
3C2
102
{ACAD_REACTORS
330
C
102
}
330
C
100
AcDbDictionary
281
     1
  0
DICTIONARY
  5
8DD
102
{ACAD_REACTORS
330
C
102
}
330
C
100
AcDbDictionary
281
     1
  3
AEC_VARS_ARCHBASE
350
A1D
  3
AEC_VARS_DWG_SETUP
350
8DE
  3
AECMX_VARS_MUNICH
350
A1E
  0
DICTIONARY
  5
3E43
102
{ACAD_REACTORS
330
C
102
}
330
C
100
AcDbDictionary
281
     1
  3
ASEBlockHierarchyIndexRecord
350
3E44
1001
DCO15
1040
1692121483.687
  0
DICTIONARY
  5
1BB9
102
{ACAD_REACTORS
330
28F
102
}
330
28F
100
AcDbDictionary
281
     1
  0
DICTIONARY
  5
290
102
{ACAD_REACTORS
330
28F
102
}
330
28F
100
AcDbDictionary
281
     1
  3
00000050
350
3D97
  3
00000561
350
3D8B
  3
mp000096$0$00000050
350
FFB9
  3
mp000096$0$00000561
350
FFBC
  3
mp001237$0$00000050
350
F6CB
  3
mp001237$0$00000561
350
F6CE
  0
DICTIONARY
  5
1BB8
102
{ACAD_REACTORS
330
28F
102
}
330
28F
100
AcDbDictionary
281
     1
1001
ACAD
1000
<All
  0
XRECORD
  5
43AF
102
{ACAD_REACTORS
330
308
102
}
330
308
100
AcDbXrecord
280
     1
290
     1
  0
XRECORD
  5
101B9
102
{ACAD_REACTORS
330
101B8
102
}
330
101B8
100
AcDbXrecord
280
     1
 70
     1
340
A73
340
C6D3
 70
    -1
  0
XRECORD
  5
101C7
102
{ACAD_REACTORS
330
101C6
102
}
330
101C6
100
AcDbXrecord
280
     1
 70
     1
340
A73
340
D543
 70
    -1
  0
XRECORD
  5
101D0
102
{ACAD_REACTORS
330
101CF
102
}
330
101CF
100
AcDbXrecord
280
     1
 70
     1
340
A7D
340
D543
 70
    -1
  0
XRECORD
  5
101DD
102
{ACAD_REACTORS
330
101DC
102
}
330
101DC
100
AcDbXrecord
280
     1
 70
     1
340
A73
340
DAE5
 70
    -1
  0
XRECORD
  5
101E6
102
{ACAD_REACTORS
330
101E5
102
}
330
101E5
100
AcDbXrecord
280
     1
 70
     1
340
A7D
340
DAE5
 70
    -1
  0
SORTENTSTABLE
  5
FA31
102
{ACAD_REACTORS
330
102E
102
}
330
102E
100
AcDbSortentsTable
330
1F
331
D9FC
  5
DA00
331
D020
  5
D04E
331
FC3D
  5
FB28
331
D12B
  5
D141
331
DA90
  5
65A6
331
D124
  5
D12B
331
E25D
  5
EA74
331
D321
  5
D54D
331
D01F
  5
D03B
331
DC01
  5
E25B
331
DA00
  5
DA04
331
D383
  5
D5E5
331
65A6
  5
6674
331
D54D
  5
D9FA
331
D1D3
  5
D37E
331
DA8F
  5
DA93
331
D12F
  5
D234
331
D011
  5
D02A
331
D00A
  5
D028
331
CF8A
  5
D01F
331
D0C4
  5
D038
331
DA04
  5
DA90
331
D128
  5
D12F
331
D028
  5
D0C3
331
E25A
  5
E25D
331
DAE6
  5
E25A
331
D9FD
  5
DA01
331
8616
  5
CF8A
331
D021
  5
D0BB
331
EA74
  5
EA76
331
D03A
  5
D125
331
D04E
  5
D127
331
D5DD
  5
D9FB
331
DA98
  5
DC02
331
D12C
  5
D149
331
D234
  5
D47F
331
DA01
  5
DA06
331
DC02
  5
E25C
331
D47F
  5
D81A
331
D125
  5
D12C
331
DA91
  5
DAE6
331
D141
  5
D2BF
331
D9FA
  5
D9FE
331
D037
  5
D123
331
F5B1
  5
DA98
331
D00B
  5
D029
331
EE0E
  5
F31B
331
D129
  5
D134
331
D029
  5
D0C4
331
E25B
  5
E660
331
D1E7
  5
D383
331
D9FE
  5
DA02
331
D5E5
  5
D9FC
331
D134
  5
D27C
331
EA75
  5
EE0C
331
D98B
  5
D9FD
331
D03B
  5
D126
331
D27C
  5
D480
331
D113
  5
D129
331
D12D
  5
D1D3
331
F11A
  5
D011
331
861B
  5
D008
331
D126
  5
D12D
331
DA02
  5
DA8E
331
D480
  5
D856
331
D28F
  5
D020
331
DA92
  5
DC01
331
D008
  5
D021
331
D0BB
  5
D128
331
F1F5
  5
4852
331
D9FB
  5
D9FF
331
D856
  5
D00B
331
D038
  5
D124
331
EA72
  5
EA75
331
D37E
  5
D5DD
331
D12A
  5
D135
331
DA06
  5
DA91
331
D02A
  5
D113
331
D123
  5
D12A
331
E25C
  5
EA72
331
D9FF
  5
DA03
331
8414
  5
8616
331
F431
  5
F5B1
331
8611
  5
861B
331
6674
  5
8611
331
D135
  5
D28F
331
EA76
  5
EE0E
331
D12E
  5
D1E7
331
DA8E
  5
DA92
331
D54C
  5
D98B
331
D2BF
  5
D54C
331
DA93
  5
F11A
331
EE0C
  5
F1F5
331
D127
  5
D12E
331
E660
  5
D03A
331
4852
  5
8414
331
D81A
  5
D00A
331
D0C3
  5
D037
331
FB27
  5
FB27
331
DA03
  5
DA8F
  0
SORTENTSTABLE
  5
FFC9
102
{ACAD_REACTORS
330
FFC8
102
}
330
FFC8
100
AcDbSortentsTable
330
6591
331
FFC7
  5
FFC6
331
FFC6
  5
FFC7
  0
ACAD_EVALUATION_GRAPH
  5
81A3
102
{ACAD_REACTORS
330
81A2
102
}
330
81A2
100
AcDbEvalGraph
 96
        8
 97
        8
 91
        0
 93
       32
 95
        1
360
81A4
 92
        2
 92
        2
 92
        0
 92
        3
 91
        1
 93
       32
 95
        2
360
81A5
 92
       -1
 92
       -1
 92
        2
 92
        2
 91
        2
 93
       32
 95
        3
360
81A6
 92
        0
 92
        0
 92
       -1
 92
       -1
 91
        3
 93
       32
 95
        4
360
81A7
 92
        1
 92
        1
 92
       -1
 92
       -1
 91
        4
 93
       32
 95
        8
360
81A8
 92
        3
 92
        3
 92
       -1
 92
       -1
 92
        0
 93
        0
 94
        1
 91
        0
 91
        2
 92
       -1
 92
       -1
 92
       -1
 92
        1
 92
       -1
 92
        1
 93
        0
 94
        1
 91
        0
 91
        3
 92
       -1
 92
       -1
 92
        0
 92
        3
 92
       -1
 92
        2
 93
        0
 94
        2
 91
        1
 91
        0
 92
       -1
 92
       -1
 92
       -1
 92
       -1
 92
       -1
 92
        3
 93
        0
 94
        2
 91
        0
 91
        4
 92
       -1
 92
       -1
 92
        1
 92
       -1
 92
       -1
  0
ACDB_DYNAMICBLOCKPURGEPREVENTER_VERSION
  5
81A9
102
{ACAD_REACTORS
330
81A2
102
}
330
81A2
100
AcDbDynamicBlockPurgePreventer
 70
     1
  0
SORTENTSTABLE
  5
FFF6
102
{ACAD_REACTORS
330
FFF5
102
}
330
FFF5
100
AcDbSortentsTable
330
D534
  0
SORTENTSTABLE
  5
10010
102
{ACAD_REACTORS
330
1000F
102
}
330
1000F
100
AcDbSortentsTable
330
D984
331
1000B
  5
1000D
331
10009
  5
1000B
331
1000C
  5
1000A
331
1000A
  5
1000C
331
10008
  5
10009
331
1000D
  5
10008
  0
SORTENTSTABLE
  5
FB20
102
{ACAD_REACTORS
330
F766
102
}
330
F766
100
AcDbSortentsTable
330
DA5E
331
F759
  5
F73D
331
F744
  5
F753
331
F756
  5
F74C
331
F74D
  5
F75A
331
F73B
  5
F742
331
F752
  5
F760
331
F749
  5
F752
331
F75E
  5
F748
331
F75A
  5
F74A
331
F73C
  5
F743
331
F757
  5
F73C
331
F74E
  5
F75B
331
F745
  5
F755
331
F753
  5
F761
331
F74A
  5
F754
331
F75B
  5
F73E
331
F73D
  5
F744
331
F746
  5
F757
331
F74F
  5
F75C
331
F760
  5
F74E
331
F754
  5
F74D
331
F74B
  5
F756
331
F742
  5
F74F
331
F75C
  5
F749
331
F73E
  5
F745
331
F747
  5
F759
331
F750
  5
F75D
331
F74C
  5
F758
331
F743
  5
F751
331
F761
  5
F747
331
F758
  5
F74B
331
F755
  5
F73B
331
F75D
  5
F73F
331
F748
  5
F750
331
F73F
  5
F746
331
F751
  5
F75E
  0
SORTENTSTABLE
  5
10138
102
{ACAD_REACTORS
330
10137
102
}
330
10137
100
AcDbSortentsTable
330
DAE2
  0
SORTENTSTABLE
  5
10121
102
{ACAD_REACTORS
330
10120
102
}
330
10120
100
AcDbSortentsTable
330
FDCF
  0
XRECORD
  5
101BB
102
{ACAD_REACTORS
330
101BA
102
}
330
101BA
100
AcDbXrecord
280
     1
 40
14753640.0
  1
\pxqc;The information provided is for guide only and must be used along side professional architectural/structural design. Professional architectural/structural design takes preference with any conflicting areas of the building design.\PAll documents
  1
 or data downloaded from www.mpb.co.nz or emailed from MASONS Plastabrick Limited is the intellectual property of MASONS Plastabrick Limited. MASONS Plastabrick Limited takes no responsibility for any of the documents or data being used for any other
  1
 purpose than for professional architectural/structural design.
  0
DICTIONARY
  5
101C1
102
{ACAD_REACTORS
330
101C0
102
}
330
101C0
100
AcDbDictionary
281
     1
  3
ACDB_ANNOTATIONSCALES
350
101C2
  0
DICTIONARY
  5
101CA
102
{ACAD_REACTORS
330
101C9
102
}
330
101C9
100
AcDbDictionary
281
     1
  3
ACDB_ANNOTATIONSCALES
350
101CB
  0
DICTIONARY
  5
101D7
102
{ACAD_REACTORS
330
101D6
102
}
330
101D6
100
AcDbDictionary
281
     1
  3
ACDB_ANNOTATIONSCALES
350
101D8
  0
DICTIONARY
  5
101E0
102
{ACAD_REACTORS
330
101DF
102
}
330
101DF
100
AcDbDictionary
281
     1
  3
ACDB_ANNOTATIONSCALES
350
101E1
  0
DICTIONARY
  5
F965
102
{ACAD_REACTORS
330
F964
102
}
330
F964
100
AcDbDictionary
281
     1
  3
ACDB_ANNOTATIONSCALES
350
F966
  0
DICTIONARY
  5
F96B
102
{ACAD_REACTORS
330
F96A
102
}
330
F96A
100
AcDbDictionary
281
     1
  3
ACDB_ANNOTATIONSCALES
350
F96C
  0
DICTIONARY
  5
F970
102
{ACAD_REACTORS
330
F96F
102
}
330
F96F
100
AcDbDictionary
280
     1
281
     1
  3
AcDbRepData
360
F971
  3
AppDataCache
360
F972
  0
DICTIONARY
  5
F976
102
{ACAD_REACTORS
330
F96F
102
}
330
F96F
100
AcDbDictionary
281
     1
  3
ACDB_ANNOTATIONSCALES
350
F977
  0
DICTIONARY
  5
8613
102
{ACAD_REACTORS
330
8612
102
}
330
8612
100
AcDbDictionary
281
     1
  3
ACDB_ANNOTATIONSCALES
350
8614
  0
DICTIONARY
  5
8618
102
{ACAD_REACTORS
330
8617
102
}
330
8617
100
AcDbDictionary
281
     1
  3
ACDB_ANNOTATIONSCALES
350
8619
  0
DICTIONARY
  5
D143
102
{ACAD_REACTORS
330
D142
102
}
330
D142
100
AcDbDictionary
281
     1
  3
ACDB_ANNOTATIONSCALES
350
D144
  0
DICTIONARY
  5
D236
102
{ACAD_REACTORS
330
D235
102
}
330
D235
100
AcDbDictionary
281
     1
  3
ACDB_ANNOTATIONSCALES
350
D237
  0
DICTIONARY
  5
D27E
102
{ACAD_REACTORS
330
D27D
102
}
330
D27D
100
AcDbDictionary
281
     1
  3
ACDB_ANNOTATIONSCALES
350
D27F
  0
DICTIONARY
  5
D2C1
102
{ACAD_REACTORS
330
D2C0
102
}
330
D2C0
100
AcDbDictionary
281
     1
  3
ACDB_ANNOTATIONSCALES
350
D2C2
  0
DICTIONARY
  5
D380
102
{ACAD_REACTORS
330
D37F
102
}
330
D37F
100
AcDbDictionary
281
     1
  3
ACDB_ANNOTATIONSCALES
350
D381
  0
DICTIONARY
  5
D385
102
{ACAD_REACTORS
330
D384
102
}
330
D384
100
AcDbDictionary
281
     1
  3
ACDB_ANNOTATIONSCALES
350
D386
  0
DICTIONARY
  5
D54F
102
{ACAD_REACTORS
330
D54E
102
}
330
D54E
100
AcDbDictionary
281
     1
  3
ACDB_ANNOTATIONSCALES
350
D550
  0
DICTIONARY
  5
DA95
102
{ACAD_REACTORS
330
DA94
102
}
330
DA94
100
AcDbDictionary
281
     1
  3
ACDB_ANNOTATIONSCALES
350
DA96
  0
DICTIONARY
  5
F433
102
{ACAD_REACTORS
330
F432
102
}
330
F432
100
AcDbDictionary
281
     1
  3
ACDB_ANNOTATIONSCALES
350
F434
  0
DICTIONARY
  5
FCD8
102
{ACAD_REACTORS
330
FCD7
102
}
330
FCD7
100
AcDbDictionary
281
     1
  3
ACDB_ANNOTATIONSCALES
350
FCD9
  0
XRECORD
  5
7288
102
{ACAD_REACTORS
330
7287
102
}
330
7287
100
AcDbXrecord
280
     1
 90
        1
340
A7D
  0
LAYOUT
  5
1E
102
{ACAD_XDICTIONARY
360
292
102
}
102
{ACAD_REACTORS
330
1A
102
}
330
1A
100
AcDbPlotSettings
  1

  2
DWF6 ePlot.pc3
  4
ISO_full_bleed_A4_(210.00_x_297.00_MM)
  6

 40
0.7937499880790711
 41
0.7937499880790711
 42
0.7937469482421875
 43
0.79376220703125
 44
210.0
 45
297.0
 46
0.0
 47
0.0
 48
0.0
 49
0.0
140
0.0
141
0.0
142
1.0
143
1.0
 70
   640
 72
     1
 73
     0
 74
     5
  7

 75
    16
147
25.4
 76
     1
 77
     2
 78
   300
148
26.88757040002311
149
11.98663957798333
100
AcDbLayout
  1
1
 70
     1
 71
     1
 10
-27.68132038810219
 20
-12.78038956606241
 11
182.3186796118978
 21
284.2196104339376
 12
0.0
 22
0.0
 32
0.0
 14
-26.8865283375078
 24
-11.98516251554429
 34
0.0
 15
181.5238906011403
 25
283.4243711644673
 35
0.0
146
0.0
 13
0.0
 23
0.0
 33
0.0
 16
1.0
 26
0.0
 36
0.0
 17
0.0
 27
1.0
 37
0.0
 76
     0
330
1B
331
DD
1001
ACAD_PSEXT
1000
DWF6 ePlot.pc3
1000
DWF6 ePlot
1000
File
1000

1070
     0
  0
LAYOUT
  5
22
102
{ACAD_XDICTIONARY
360
5897
102
}
102
{ACAD_REACTORS
330
1A
102
}
330
1A
100
AcDbPlotSettings
  1

  2
none_device
  4
Letter_(8.50_x_11.00_Inches)
  6

 40
6.4
 41
6.4
 42
6.4
 43
6.4
 44
215.8999938964844
 45
279.3999938964844
 46
21.082
 47
0.0
 48
0.0
 49
0.0
140
0.0
141
0.0
142
1.0
143
1.558974244562341
 70
 11924
 72
     0
 73
     1
 74
     0
  7

 75
     0
147
0.6414474154964215
 76
     0
 77
     2
 78
   300
148
42.66874504805538
149
1.074921630094033
100
AcDbLayout
  1
Model
 70
     1
 71
     0
 10
0.0
 20
0.0
 11
12.0
 21
9.0
 12
0.0
 22
0.0
 32
0.0
 14
0.0
 24
0.0
 34
0.0
 15
0.0
 25
0.0
 35
0.0
146
0.0
 13
0.0
 23
0.0
 33
0.0
 16
1.0
 26
0.0
 36
0.0
 17
0.0
 27
1.0
 37
0.0
 76
     0
330
1F
331
215
  0
MATERIAL
  5
218
102
{ACAD_REACTORS
330
EA
102
}
330
EA
100
AcDbMaterial
  1
ByBlock
 73
     1
 78
     1
172
     1
176
     1
270
     1
274
     1
 94
       63
  0
MATERIAL
  5
217
102
{ACAD_REACTORS
330
EA
102
}
330
EA
100
AcDbMaterial
  1
ByLayer
 73
     1
 78
     1
172
     1
176
     1
270
     1
274
     1
 94
       63
  0
MATERIAL
  5
219
102
{ACAD_REACTORS
330
EA
102
}
330
EA
100
AcDbMaterial
  1
Global
 73
     1
 78
     1
172
     1
176
     1
270
     1
274
     1
 94
       63
  0
MLEADERSTYLE
  5
389
102
{ACAD_REACTORS
330
2C3
330
D54D
330
DA93
102
}
330
2C3
100
AcDbMLeaderStyle
170
     2
171
     1
172
     0
 90
        2
 40
0.0
 41
0.0
173
     1
 91
-1073741824
340
15
 92
       -1
290
     1
 42
2.0
291
     0
 43
0.0
  3
Standard
 44
4.0
300

342
380
174
     1
178
     1
175
     1
176
     0
 93
-1073741824
 45
2.0
292
     0
297
     0
 46
4.0
343
356
 94
-1056964608
 47
1.0
 49
1.0
140
1.0
293
     1
141
0.0
294
     1
177
     0
142
0.0
295
     0
296
     1
143
0.0
1001
ACAD_MLEADERVER
1070
     2
  0
MLEADERSTYLE
  5
2C4
102
{ACAD_REACTORS
330
2C3
330
8611
330
D141
330
8616
330
D27C
330
D2BF
330
D37E
330
D383
330
F431
102
}
330
2C3
100
AcDbMLeaderStyle
170
     2
171
     1
172
     0
 90
        2
 40
0.0
 41
0.0
173
     1
 91
-1056964608
340
14
 92
       -2
290
     1
 42
0.09
291
     1
 43
0.36
  3
Standard
 44
0.18
300

342
11
174
     1
178
     6
175
     1
176
     0
 93
-1056964608
 45
0.18
292
     0
297
     0
 46
0.18
 94
-1056964608
 47
1.0
 49
1.0
140
1.0
293
     1
141
0.0
294
     1
177
     0
142
1.0
295
     0
296
     0
143
0.125
1001
ACAD_MLEADERVER
1070
     2
  0
MLINESTYLE
  5
18
102
{ACAD_REACTORS
330
17
102
}
330
17
100
AcDbMlineStyle
  2
STANDARD
 70
     0
  3

 62
   256
 51
90.0
 52
90.0
 71
     2
 49
0.5
 62
   256
  6
BYLAYER
 49
-0.5
 62
   256
  6
BYLAYER
  0
ACDBPLACEHOLDER
  5
F
102
{ACAD_REACTORS
330
E
102
}
330
E
  0
SCALE
  5
13E3
102
{ACAD_REACTORS
330
2A1
102
}
330
2A1
100
AcDbScale
 70
     0
300
1:2_XREF
140
1.0
141
2.0
290
     0
  0
SCALE
  5
8332
102
{ACAD_REACTORS
330
2A1
102
}
330
2A1
100
AcDbScale
 70
     0
300
100:1_XREF
140
100.0
141
1.0
290
     0
  0
SCALE
  5
8325
102
{ACAD_REACTORS
330
2A1
102
}
330
2A1
100
AcDbScale
 70
     0
300
4:1_XREF
140
4.0
141
1.0
290
     0
  0
SCALE
  5
13E4
102
{ACAD_REACTORS
330
2A1
102
}
330
2A1
100
AcDbScale
 70
     0
300
1:2.5_XREF
140
1.0
141
2.5
290
     0
  0
SCALE
  5
8320
102
{ACAD_REACTORS
330
2A1
102
}
330
2A1
100
AcDbScale
 70
     0
300
1:16_XREF
140
1.0
141
16.0
290
     0
  0
SCALE
  5
13F0
102
{ACAD_REACTORS
330
2A1
102
}
330
2A1
100
AcDbScale
 70
     0
300
1:500_XREF
140
1.0
141
500.0
290
     0
  0
SCALE
  5
13F4
102
{ACAD_REACTORS
330
2A1
102
}
330
2A1
100
AcDbScale
 70
     0
300
1:2000_XREF
140
1.0
141
2000.0
290
     0
  0
SCALE
  5
13E6
102
{ACAD_REACTORS
330
2A1
102
}
330
2A1
100
AcDbScale
 70
     0
300
1:7.5_XREF
140
1.0
141
7.5
290
     0
  0
SCALE
  5
13ED
102
{ACAD_REACTORS
330
2A1
102
}
330
2A1
100
AcDbScale
 70
     0
300
1:150_XREF
140
1.0
141
150.0
290
     0
  0
SCALE
  5
13EF
102
{ACAD_REACTORS
330
2A1
102
}
330
2A1
100
AcDbScale
 70
     0
300
1:250_XREF
140
1.0
141
250.0
290
     0
  0
SCALE
  5
832B
102
{ACAD_REACTORS
330
2A1
102
}
330
2A1
100
AcDbScale
 70
     0
300
1/128" = 1'-0"_XREF
140
0.0078125
141
12.0
290
     0
  0
SCALE
  5
D547
102
{ACAD_REACTORS
330
2A1
102
}
330
2A1
100
AcDbScale
 70
     0
300
*1-40_XREF
140
1.0
141
40.0
290
     0
  0
SCALE
  5
8326
102
{ACAD_REACTORS
330
2A1
102
}
330
2A1
100
AcDbScale
 70
     0
300
8:1_XREF
140
8.0
141
1.0
290
     0
  0
SCALE
  5
13E5
102
{ACAD_REACTORS
330
2A1
102
}
330
2A1
100
AcDbScale
 70
     0
300
1:5_XREF
140
1.0
141
5.0
290
     0
  0
SCALE
  5
13E9
102
{ACAD_REACTORS
330
2A1
102
}
330
2A1
100
AcDbScale
 70
     0
300
1:25_XREF
140
1.0
141
25.0
290
     0
  0
SCALE
  5
13EE
102
{ACAD_REACTORS
330
2A1
102
}
330
2A1
100
AcDbScale
 70
     0
300
1:200_XREF
140
1.0
141
200.0
290
     0
  0
SCALE
  5
13F5
102
{ACAD_REACTORS
330
2A1
102
}
330
2A1
100
AcDbScale
 70
     0
300
1:2500_XREF
140
1.0
141
2500.0
290
     0
  0
SCALE
  5
13F6
102
{ACAD_REACTORS
330
2A1
102
}
330
2A1
100
AcDbScale
 70
     0
300
1:5000_XREF
140
1.0
141
5000.0
290
     0
  0
SCALE
  5
8330
102
{ACAD_REACTORS
330
2A1
102
}
330
2A1
100
AcDbScale
 70
     0
300
3/16" = 1'-0"_XREF
140
0.1875
141
12.0
290
     0
  0
SCALE
  5
832C
102
{ACAD_REACTORS
330
2A1
102
}
330
2A1
100
AcDbScale
 70
     0
300
1/64" = 1'-0"_XREF
140
0.015625
141
12.0
290
     0
  0
SCALE
  5
831D
102
{ACAD_REACTORS
330
2A1
102
}
330
2A1
100
AcDbScale
 70
     0
300
1/4" = 1'-0"_XREF
140
0.25
141
12.0
290
     0
  0
SCALE
  5
13F1
102
{ACAD_REACTORS
330
2A1
102
}
330
2A1
100
AcDbScale
 70
     0
300
1:750_XREF
140
1.0
141
750.0
290
     0
  0
SCALE
  5
831E
102
{ACAD_REACTORS
330
2A1
102
}
330
2A1
100
AcDbScale
 70
     0
300
1:4_XREF
140
1.0
141
4.0
290
     0
  0
SCALE
  5
13EA
102
{ACAD_REACTORS
330
2A1
102
}
330
2A1
100
AcDbScale
 70
     0
300
1:50_XREF
140
1.0
141
50.0
290
     0
  0
SCALE
  5
13EB
102
{ACAD_REACTORS
330
2A1
102
}
330
2A1
100
AcDbScale
 70
     0
300
1:75_XREF
140
1.0
141
75.0
290
     0
  0
SCALE
  5
8335
102
{ACAD_REACTORS
330
2A1
102
}
330
2A1
100
AcDbScale
 70
     0
300
1-1/2" = 1'-0"_XREF
140
1.5
141
12.0
290
     0
  0
SCALE
  5
8331
102
{ACAD_REACTORS
330
2A1
102
}
330
2A1
100
AcDbScale
 70
     0
300
3/8" = 1'-0"_XREF
140
0.375
141
12.0
290
     0
  0
SCALE
  5
8324
102
{ACAD_REACTORS
330
2A1
102
}
330
2A1
100
AcDbScale
 70
     0
300
2:1_XREF
140
2.0
141
1.0
290
     0
  0
SCALE
  5
8321
102
{ACAD_REACTORS
330
2A1
102
}
330
2A1
100
AcDbScale
 70
     0
300
1:30_XREF
140
1.0
141
30.0
290
     0
  0
SCALE
  5
8322
102
{ACAD_REACTORS
330
2A1
102
}
330
2A1
100
AcDbScale
 70
     0
300
1/32" = 1'-0"_XREF
140
0.03125
141
12.0
290
     0
  0
SCALE
  5
8323
102
{ACAD_REACTORS
330
2A1
102
}
330
2A1
100
AcDbScale
 70
     0
300
3" = 1'-0"_XREF
140
3.0
141
12.0
290
     0
  0
SCALE
  5
13F2
102
{ACAD_REACTORS
330
2A1
102
}
330
2A1
100
AcDbScale
 70
     0
300
1:1000_XREF
140
1.0
141
1000.0
290
     0
  0
SCALE
  5
8336
102
{ACAD_REACTORS
330
2A1
102
}
330
2A1
100
AcDbScale
 70
     0
300
6" = 1'-0"_XREF
140
6.0
141
12.0
290
     0
  0
SCALE
  5
832A
102
{ACAD_REACTORS
330
2A1
102
}
330
2A1
100
AcDbScale
 70
     0
300
1'-0" = 1'-0"_XREF
140
12.0
141
12.0
290
     0
  0
SCALE
  5
8327
102
{ACAD_REACTORS
330
2A1
102
}
330
2A1
100
AcDbScale
 70
     0
300
10:1_XREF
140
10.0
141
1.0
290
     0
  0
SCALE
  5
8328
102
{ACAD_REACTORS
330
2A1
102
}
330
2A1
100
AcDbScale
 70
     0
300
1/16" = 1'-0"_XREF
140
0.0625
141
12.0
290
     0
  0
SCALE
  5
8329
102
{ACAD_REACTORS
330
2A1
102
}
330
2A1
100
AcDbScale
 70
     0
300
1/2" = 1'-0"_XREF
140
0.5
141
12.0
290
     0
  0
SCALE
  5
13E7
102
{ACAD_REACTORS
330
2A1
102
}
330
2A1
100
AcDbScale
 70
     0
300
1:10_XREF
140
1.0
141
10.0
290
     0
  0
SCALE
  5
13F3
102
{ACAD_REACTORS
330
2A1
102
}
330
2A1
100
AcDbScale
 70
     0
300
1:1250_XREF
140
1.0
141
1250.0
290
     0
  0
SCALE
  5
832D
102
{ACAD_REACTORS
330
2A1
102
}
330
2A1
100
AcDbScale
 70
     0
300
1:40_XREF
140
1.0
141
40.0
290
     0
  0
SCALE
  5
832E
102
{ACAD_REACTORS
330
2A1
102
}
330
2A1
100
AcDbScale
 70
     0
300
3/32" = 1'-0"_XREF
140
0.09375
141
12.0
290
     0
  0
SCALE
  5
832F
102
{ACAD_REACTORS
330
2A1
102
}
330
2A1
100
AcDbScale
 70
     0
300
1/8" = 1'-0"_XREF
140
0.125
141
12.0
290
     0
  0
SCALE
  5
D548
102
{ACAD_REACTORS
330
2A1
102
}
330
2A1
100
AcDbScale
 70
     0
300
*1:0.5_XREF
140
1.0
141
0.5
290
     0
  0
SCALE
  5
13E8
102
{ACAD_REACTORS
330
2A1
102
}
330
2A1
100
AcDbScale
 70
     0
300
1:20_XREF
140
1.0
141
20.0
290
     0
  0
SCALE
  5
D549
102
{ACAD_REACTORS
330
2A1
102
}
330
2A1
100
AcDbScale
 70
     0
300
*1:4_XREF
140
1.0
141
4.0
290
     0
  0
SCALE
  5
8333
102
{ACAD_REACTORS
330
2A1
102
}
330
2A1
100
AcDbScale
 70
     0
300
3/4" = 1'-0"_XREF
140
0.75
141
12.0
290
     0
  0
SCALE
  5
13EC
102
{ACAD_REACTORS
330
2A1
102
}
330
2A1
100
AcDbScale
 70
     0
300
1:100_XREF
140
1.0
141
100.0
290
     0
  0
SCALE
  5
8334
102
{ACAD_REACTORS
330
2A1
102
}
330
2A1
100
AcDbScale
 70
     0
300
1" = 1'-0"_XREF
140
1.0
141
12.0
290
     0
  0
SCALE
  5
831F
102
{ACAD_REACTORS
330
2A1
102
}
330
2A1
100
AcDbScale
 70
     0
300
1:8_XREF
140
1.0
141
8.0
290
     0
  0
SCALE
  5
A6E
102
{ACAD_REACTORS
330
2A1
102
}
330
2A1
100
AcDbScale
 70
     0
300
*1:1
140
1.0
141
1.0
290
     0
  0
SCALE
  5
A77
102
{ACAD_REACTORS
330
2A1
102
}
330
2A1
100
AcDbScale
 70
     0
300
*1:2.5
140
1.0
141
2.5
290
     0
  0
SCALE
  5
A78
102
{ACAD_REACTORS
330
2A1
102
}
330
2A1
100
AcDbScale
 70
     0
300
*1:25
140
1.0
141
25.0
290
     0
  0
SCALE
  5
A79
102
{ACAD_REACTORS
330
2A1
102
}
330
2A1
100
AcDbScale
 70
     0
300
*1:250
140
1.0
141
250.0
290
     0
  0
SCALE
  5
A7A
102
{ACAD_REACTORS
330
2A1
102
}
330
2A1
100
AcDbScale
 70
     0
300
*1:2500
140
1.0
141
2500.0
290
     0
  0
SCALE
  5
A7B
102
{ACAD_REACTORS
330
2A1
102
}
330
2A1
100
AcDbScale
 70
     0
300
*1:40
140
1.0
141
40.0
290
     0
  0
SCALE
  5
A7C
102
{ACAD_REACTORS
330
2A1
102
}
330
2A1
100
AcDbScale
 70
     0
300
*1:400
140
1.0
141
400.0
290
     0
  0
SCALE
  5
A7D
102
{ACAD_REACTORS
330
2A1
102
}
330
2A1
100
AcDbScale
 70
     0
300
*1:5
140
1.0
141
5.0
290
     0
  0
SCALE
  5
A7E
102
{ACAD_REACTORS
330
2A1
102
}
330
2A1
100
AcDbScale
 70
     0
300
*1:50
140
1.0
141
50.0
290
     0
  0
SCALE
  5
A7F
102
{ACAD_REACTORS
330
2A1
102
}
330
2A1
100
AcDbScale
 70
     0
300
*1:500
140
1.0
141
500.0
290
     0
  0
SCALE
  5
A80
102
{ACAD_REACTORS
330
2A1
102
}
330
2A1
100
AcDbScale
 70
     0
300
*1:5000
140
1.0
141
5000.0
290
     0
  0
SCALE
  5
A6F
102
{ACAD_REACTORS
330
2A1
102
}
330
2A1
100
AcDbScale
 70
     0
300
*1:10
140
1.0
141
10.0
290
     0
  0
SCALE
  5
A81
102
{ACAD_REACTORS
330
2A1
102
}
330
2A1
100
AcDbScale
 70
     0
300
*1:750
140
1.0
141
750.0
290
     0
  0
SCALE
  5
A82
102
{ACAD_REACTORS
330
2A1
102
}
330
2A1
100
AcDbScale
 70
     0
300
*1:8
140
1.0
141
8.0
290
     0
  0
SCALE
  5
A70
102
{ACAD_REACTORS
330
2A1
102
}
330
2A1
100
AcDbScale
 70
     0
300
*1:15
140
1.0
141
15.0
290
     0
  0
SCALE
  5
A71
102
{ACAD_REACTORS
330
2A1
102
}
330
2A1
100
AcDbScale
 70
     0
300
*1:100
140
1.0
141
100.0
290
     0
  0
SCALE
  5
A72
102
{ACAD_REACTORS
330
2A1
102
}
330
2A1
100
AcDbScale
 70
     0
300
*1:1000
140
1.0
141
1000.0
290
     0
  0
SCALE
  5
A73
102
{ACAD_REACTORS
330
2A1
102
}
330
2A1
100
AcDbScale
 70
     0
300
*1:2
140
1.0
141
2.0
290
     0
  0
SCALE
  5
A74
102
{ACAD_REACTORS
330
2A1
102
}
330
2A1
100
AcDbScale
 70
     0
300
*1:20
140
1.0
141
20.0
290
     0
  0
SCALE
  5
A75
102
{ACAD_REACTORS
330
2A1
102
}
330
2A1
100
AcDbScale
 70
     0
300
*1:200
140
1.0
141
200.0
290
     0
  0
SCALE
  5
A76
102
{ACAD_REACTORS
330
2A1
102
}
330
2A1
100
AcDbScale
 70
     0
300
*1:2000
140
1.0
141
2000.0
290
     0
  0
SCALE
  5
2A2
102
{ACAD_REACTORS
330
2A1
102
}
330
2A1
100
AcDbScale
 70
     0
300
1:1
140
1.0
141
1.0
290
     1
  0
TABLESTYLE
  5
22C
102
{ACAD_XDICTIONARY
360
30E
102
}
102
{ACAD_REACTORS
330
22B
102
}
330
22B
100
AcDbTableStyle
  3
Standard
 70
     0
 71
     0
 40
0.06
 41
0.06
280
     0
281
     0
  7
Standard
140
0.18
170
     2
 62
     0
 63
     7
283
     0
 90
      512
 91
        0
  1

274
    -2
284
     1
 64
     0
275
    -2
285
     1
 65
     0
276
    -2
286
     1
 66
     0
277
    -2
287
     1
 67
     0
278
    -2
288
     1
 68
     0
279
    -2
289
     1
 69
     0
  7
Standard
140
0.25
170
     5
 62
     0
 63
     7
283
     0
 90
      512
 91
        0
  1

274
    -2
284
     1
 64
     0
275
    -2
285
     1
 65
     0
276
    -2
286
     1
 66
     0
277
    -2
287
     1
 67
     0
278
    -2
288
     1
 68
     0
279
    -2
289
     1
 69
     0
  7
Standard
140
0.18
170
     5
 62
     0
 63
     7
283
     0
 90
      512
 91
        0
  1

274
    -2
284
     1
 64
     0
275
    -2
285
     1
 65
     0
276
    -2
286
     1
 66
     0
277
    -2
287
     1
 67
     0
278
    -2
288
     1
 68
     0
279
    -2
289
     1
 69
     0
  0
VISUALSTYLE
  5
220
102
{ACAD_REACTORS
330
21A
102
}
330
21A
100
AcDbVisualStyle
  2
2dWireframe
 70
     4
 71
     0
 72
     2
 73
     1
 90
        0
 40
-0.6
 41
-30.0
 62
     5
 63
     7
421
 16777215
 74
     1
 91
        4
 64
     7
 65
   257
 75
     1
175
     1
 42
1.0
 92
        0
 66
   257
 43
1.0
 76
     1
 77
     6
 78
     2
 67
     7
 79
     5
170
     0
171
     0
290
     0
174
     0
 93
        1
 44
0.0
173
     0
291
     0
 45
0.0
  0
VISUALSTYLE
  5
222
102
{ACAD_REACTORS
330
21A
102
}
330
21A
100
AcDbVisualStyle
  2
3D Hidden
 70
     6
 71
     1
 72
     2
 73
     2
 90
        0
 40
-0.6
 41
-30.0
 62
     5
 63
     7
421
 16777215
 74
     2
 91
       10
 64
     7
 65
   257
 75
     2
175
     2
 42
40.0
 92
        0
 66
   257
 43
1.0
 76
     1
 77
     6
 78
     2
 67
     7
 79
     3
170
     0
171
     0
290
     0
174
     0
 93
        1
 44
0.0
173
     0
291
     0
 45
0.0
  0
VISUALSTYLE
  5
221
102
{ACAD_REACTORS
330
21A
102
}
330
21A
100
AcDbVisualStyle
  2
3dWireframe
 70
     5
 71
     0
 72
     2
 73
     1
 90
        0
 40
-0.6
 41
-30.0
 62
     5
 63
     7
421
 16777215
 74
     1
 91
        4
 64
     7
 65
   257
 75
     1
175
     1
 42
1.0
 92
        0
 66
   257
 43
1.0
 76
     1
 77
     6
 78
     2
 67
     7
 79
     5
170
     0
171
     0
290
     0
174
     0
 93
        1
 44
0.0
173
     0
291
     0
 45
0.0
  0
VISUALSTYLE
  5
21F
102
{ACAD_REACTORS
330
21A
102
}
330
21A
100
AcDbVisualStyle
  2
Basic
 70
     7
 71
     1
 72
     0
 73
     1
 90
        0
 40
-0.6
 41
-30.0
 62
     5
 63
     7
421
 16777215
 74
     0
 91
        4
 64
     7
 65
   257
 75
     1
175
     1
 42
1.0
 92
        8
 66
     7
 43
1.0
 76
     1
 77
     6
 78
     2
 67
     7
 79
     5
170
     0
171
     0
290
     0
174
     0
 93
        1
 44
0.0
173
     0
291
     1
 45
0.0
  0
VISUALSTYLE
  5
226
102
{ACAD_REACTORS
330
21A
102
}
330
21A
100
AcDbVisualStyle
  2
Brighten
 70
    12
 71
     2
 72
     2
 73
     1
 90
        0
 40
-0.6
 41
-30.0
 62
     5
 63
     7
421
 16777215
 74
     1
 91
        4
 64
     7
 65
   257
 75
     1
175
     1
 42
1.0
 92
        8
 66
     7
 43
1.0
 76
     1
 77
     6
 78
     2
 67
     7
 79
     5
170
     0
171
     0
290
     0
174
     0
 93
        1
 44
50.0
173
     0
291
     1
 45
0.0
  0
VISUALSTYLE
  5
22A
102
{ACAD_REACTORS
330
21A
102
}
330
21A
100
AcDbVisualStyle
  2
ColorChange
 70
    16
 71
     2
 72
     2
 73
     3
 90
        0
 40
-0.6
 41
-30.0
 62
     5
 63
     8
421
  8421504
 74
     1
 91
        4
 64
     7
 65
   257
 75
     1
175
     1
 42
1.0
 92
        8
 66
     8
424
  8421504
 43
1.0
 76
     1
 77
     6
 78
     2
 67
     7
 79
     5
170
     0
171
     0
290
     0
174
     0
 93
        1
 44
0.0
173
     0
291
     1
 45
0.0
  0
VISUALSTYLE
  5
223
102
{ACAD_XDICTIONARY
360
811
102
}
102
{ACAD_REACTORS
330
21A
102
}
330
21A
100
AcDbVisualStyle
  2
Conceptual
 70
     9
 71
     2
 72
     2
 73
     1
 90
        0
 40
-0.6
 41
-30.0
 62
     5
 63
     7
421
 16777215
 74
     0
 91
        0
 64
     7
 65
   257
 75
     1
175
     1
 42
40.0
 92
        8
 66
     7
 43
1.0
 76
     1
 77
     6
 78
     2
 67
     7
 79
     5
170
     0
171
     0
290
     0
174
     0
 93
       12
 44
0.0
173
     0
291
     0
 45
0.0
  0
VISUALSTYLE
  5
225
102
{ACAD_REACTORS
330
21A
102
}
330
21A
100
AcDbVisualStyle
  2
Dim
 70
    11
 71
     2
 72
     2
 73
     1
 90
        0
 40
-0.6
 41
-30.0
 62
     5
 63
     7
421
 16777215
 74
     1
 91
        4
 64
     7
 65
   257
 75
     1
175
     1
 42
1.0
 92
        8
 66
     7
 43
1.0
 76
     1
 77
     6
 78
     2
 67
     7
 79
     5
170
     0
171
     0
290
     0
174
     0
 93
        1
 44
-50.0
173
     0
291
     1
 45
0.0
  0
VISUALSTYLE
  5
229
102
{ACAD_REACTORS
330
21A
102
}
330
21A
100
AcDbVisualStyle
  2
Facepattern
 70
    15
 71
     2
 72
     2
 73
     1
 90
        0
 40
-0.6
 41
-30.0
 62
     5
 63
     7
421
 16777215
 74
     1
 91
        4
 64
     7
 65
   257
 75
     1
175
     1
 42
1.0
 92
        8
 66
     7
 43
1.0
 76
     1
 77
     6
 78
     2
 67
     7
 79
     5
170
     0
171
     0
290
     0
174
     0
 93
        1
 44
0.0
173
     0
291
     1
 45
0.0
  0
VISUALSTYLE
  5
21B
102
{ACAD_REACTORS
330
21A
102
}
330
21A
100
AcDbVisualStyle
  2
Flat
 70
     0
 71
     2
 72
     1
 73
     1
 90
        2
 40
-0.6
 41
30.0
 62
     5
 63
     7
421
 16777215
 74
     0
 91
        4
 64
     7
 65
   257
 75
     1
175
     1
 42
1.0
 92
        8
 66
     7
 43
1.0
 76
     1
 77
     6
 78
     2
 67
     7
 79
     5
170
     0
171
     0
290
     0
174
     0
 93
        1
 44
0.0
173
     0
291
     1
 45
0.0
  0
VISUALSTYLE
  5
21C
102
{ACAD_REACTORS
330
21A
102
}
330
21A
100
AcDbVisualStyle
  2
FlatWithEdges
 70
     1
 71
     2
 72
     1
 73
     1
 90
        2
 40
-0.6
 41
30.0
 62
     5
 63
     7
421
 16777215
 74
     1
 91
        4
 64
     7
 65
   257
 75
     1
175
     1
 42
1.0
 92
        0
 66
   257
 43
1.0
 76
     1
 77
     6
 78
     2
 67
     7
 79
     5
170
     0
171
     0
290
     0
174
     0
 93
        1
 44
0.0
173
     0
291
     1
 45
0.0
  0
VISUALSTYLE
  5
21D
102
{ACAD_REACTORS
330
21A
102
}
330
21A
100
AcDbVisualStyle
  2
Gouraud
 70
     2
 71
     2
 72
     2
 73
     1
 90
        2
 40
-0.6
 41
30.0
 62
     5
 63
     7
421
 16777215
 74
     0
 91
        4
 64
     7
 65
   257
 75
     1
175
     1
 42
1.0
 92
        0
 66
     7
 43
1.0
 76
     1
 77
     6
 78
     2
 67
     7
 79
     5
170
     0
171
     0
290
     0
174
     0
 93
        1
 44
0.0
173
     0
291
     1
 45
0.0
  0
VISUALSTYLE
  5
21E
102
{ACAD_REACTORS
330
21A
102
}
330
21A
100
AcDbVisualStyle
  2
GouraudWithEdges
 70
     3
 71
     2
 72
     2
 73
     1
 90
        2
 40
-0.6
 41
30.0
 62
     5
 63
     7
421
 16777215
 74
     1
 91
        4
 64
     7
 65
   257
 75
     1
175
     1
 42
1.0
 92
        0
 66
   257
 43
1.0
 76
     1
 77
     6
 78
     2
 67
     7
 79
     5
170
     0
171
     0
290
     0
174
     0
 93
        1
 44
0.0
173
     0
291
     1
 45
0.0
  0
VISUALSTYLE
  5
228
102
{ACAD_REACTORS
330
21A
102
}
330
21A
100
AcDbVisualStyle
  2
Linepattern
 70
    14
 71
     2
 72
     2
 73
     1
 90
        0
 40
-0.6
 41
-30.0
 62
     5
 63
     7
421
 16777215
 74
     1
 91
        4
 64
     7
 65
   257
 75
     7
175
     7
 42
1.0
 92
        8
 66
     7
 43
1.0
 76
     1
 77
     6
 78
     2
 67
     7
 79
     5
170
     0
171
     0
290
     0
174
     0
 93
        1
 44
0.0
173
     0
291
     1
 45
0.0
  0
VISUALSTYLE
  5
224
102
{ACAD_REACTORS
330
21A
102
}
330
21A
100
AcDbVisualStyle
  2
Realistic
 70
     8
 71
     2
 72
     2
 73
     1
 90
        0
 40
-0.6
 41
-30.0
 62
     5
 63
     7
421
 16777215
 74
     1
 91
        0
 64
     7
 65
   257
 75
     1
175
     1
 42
1.0
 92
        8
 66
     7
 43
1.0
 76
     1
 77
     6
 78
     2
 67
     7
 79
     5
170
     0
171
     0
290
     0
174
     0
 93
       13
 44
0.0
173
     0
291
     0
 45
0.0
  0
VISUALSTYLE
  5
227
102
{ACAD_REACTORS
330
21A
102
}
330
21A
100
AcDbVisualStyle
  2
Thicken
 70
    13
 71
     2
 72
     2
 73
     1
 90
        0
 40
-0.6
 41
-30.0
 62
     5
 63
     7
421
 16777215
 74
     1
 91
        4
 64
     7
 65
   257
 75
     1
175
     1
 42
1.0
 92
       12
 66
     7
 43
1.0
 76
     1
 77
     6
 78
     2
 67
     7
 79
     5
170
     0
171
     0
290
     0
174
     0
 93
        1
 44
0.0
173
     0
291
     1
 45
0.0
  0
DICTIONARY
  5
A22
102
{ACAD_REACTORS
330
A21
102
}
330
A21
100
AcDbDictionary
280
     1
281
     1
  3
DefaultStandard
360
A38
  3
Standards
360
A23
  0
DICTIONARYVAR
  5
313
102
{ACAD_REACTORS
330
25B
102
}
330
25B
100
DictionaryVariables
280
     0
  1
*1:2
  0
DICTIONARYVAR
  5
311
102
{ACAD_REACTORS
330
25B
102
}
330
25B
100
DictionaryVariables
280
     0
  1
2mm
  0
DICTIONARYVAR
  5
25C
102
{ACAD_REACTORS
330
25B
102
}
330
25B
100
DictionaryVariables
280
     0
  1
STANDARD
  0
DICTIONARYVAR
  5
315
102
{ACAD_REACTORS
330
25B
102
}
330
25B
100
DictionaryVariables
280
     0
  1
1
  0
DICTIONARYVAR
  5
316
102
{ACAD_REACTORS
330
25B
102
}
330
25B
100
DictionaryVariables
280
     0
  1
15
  0
DICTIONARYVAR
  5
314
102
{ACAD_REACTORS
330
25B
102
}
330
25B
100
DictionaryVariables
280
     0
  1
0
  0
DICTIONARYVAR
  5
A3E
102
{ACAD_REACTORS
330
25B
102
}
330
25B
100
DictionaryVariables
280
     0
  1
0.000000
  0
DICTIONARYVAR
  5
312
102
{ACAD_REACTORS
330
25B
102
}
330
25B
100
DictionaryVariables
280
     0
  1
0
  0
XRECORD
  5
3E44
102
{ACAD_REACTORS
330
3E43
102
}
330
3E43
100
AcDbXrecord
280
     1
330
0
330
0
330
0
  0
XRECORD
  5
3D97
102
{ACAD_XDICTIONARY
360
3D98
102
}
102
{ACAD_REACTORS
330
290
102
}
330
290
100
AcDbXrecord
280
     1
 91
      514
301

290
     0
302
0
330
0
 90
        8
 62
     7
370
    -3
331
16
  1
Color_7
330
0
 90
        8
 62
     7
370
    -3
331
16
  1
Color_7
330
0
 90
        8
 62
     7
370
    -3
331
16
  1
Color_7
330
0
 90
        0
 62
    30
370
    -3
331
16
  1
Color_30
330
0
 90
        8
 62
   252
370
    -3
331
16
  1
Color_252
330
0
 90
        8
 62
     3
370
    30
331
16
  1
Color_3
330
0
 90
        8
 62
   253
370
    -3
331
16
  1
Color_253
330
0
 90
        8
 62
     1
370
    -3
331
16
  1
Color_1
330
0
 90
        0
 62
     5
370
    -3
331
16
  1
Color_5
330
0
 90
        8
 62
     2
370
    -3
331
16
  1
Color_2
330
0
 90
        0
 62
   178
370
    -3
331
16
  1
Color_178
 92
-1039794079
330
0
 90
        8
 62
     7
370
    -3
331
16
  1
Color_7
330
0
 90
        8
 62
     7
370
    -3
331
16
  1
Color_7
330
0
 90
        8
 62
     7
370
    -3
331
16
  1
Color_7
330
0
 90
        8
 62
     7
370
    -3
331
16
  1
Color_7
330
0
 90
        8
 62
     7
370
    -3
331
16
  1
Color_7
330
0
 90
        0
 62
     4
370
    -3
331
16
  1
Color_4
330
0
 90
        0
 62
     7
370
    -3
331
16
  1
Color_7
330
37D
 90
        0
 62
     7
370
    -3
331
16
  1
Color_7
330
10
 90
        8
 62
     7
370
    -3
331
16
  1
Color_7
330
0
 90
       10
 62
     7
370
    -3
331
16
  1
Color_7
330
0
 90
       10
 62
     7
370
    -3
331
16
  1
Color_7
330
0
 90
       10
 62
     7
370
    -3
331
16
  1
Color_7
330
0
 90
       10
 62
     7
370
    -3
331
16
  1
Color_7
330
0
 90
       10
 62
     7
370
    -3
331
16
  1
Color_7
330
0
 90
       10
 62
     7
370
    -3
331
16
  1
Color_7
330
0
 90
       10
 62
     7
370
    -3
331
16
  1
Color_7
330
0
 90
       10
 62
     7
370
    -3
331
16
  1
Color_7
330
0
 90
       10
 62
     7
370
    -3
331
16
  1
Color_7
330
0
 90
       10
 62
     7
370
    -3
331
16
  1
Color_7
330
0
 90
       10
 62
     7
370
    -3
331
16
  1
Color_7
330
0
 90
       10
 62
     7
370
    -3
331
16
  1
Color_7
330
0
 90
       10
 62
     7
370
    -3
331
16
  1
Color_7
330
0
 90
       10
 62
     7
370
    -3
331
16
  1
Color_7
330
0
 90
       10
 62
     7
370
    -3
331
16
  1
Color_7
330
0
 90
       10
 62
     7
370
    -3
331
16
  1
Color_7
330
0
 90
       10
 62
     7
370
    -3
331
16
  1
Color_7
330
0
 90
       10
 62
     7
370
    -3
331
16
  1
Color_7
330
0
 90
       10
 62
     7
370
    -3
331
16
  1
Color_7
330
0
 90
       10
 62
     7
370
    -3
331
16
  1
Color_7
330
0
 90
       10
 62
     7
370
    -3
331
16
  1
Color_7
330
0
 90
       10
 62
     7
370
    -3
331
16
  1
Color_7
330
0
 90
       10
 62
     7
370
    -3
331
16
  1
Color_7
330
0
 90
       10
 62
     7
370
    -3
331
16
  1
Color_7
330
0
 90
       10
 62
     7
370
    -3
331
16
  1
Color_7
330
0
 90
       10
 62
     7
370
    -3
331
16
  1
Color_7
330
0
 90
       10
 62
     7
370
    -3
331
16
  1
Color_7
330
0
 90
       10
 62
     7
370
    -3
331
16
  1
Color_7
330
0
 90
       10
 62
     7
370
    -3
331
16
  1
Color_7
330
0
 90
       10
 62
     7
370
    -3
331
16
  1
Color_7
330
0
 90
       10
 62
     7
370
    -3
331
16
  1
Color_7
330
0
 90
       10
 62
     7
370
    -3
331
16
  1
Color_7
330
0
 90
       10
 62
     7
370
    -3
331
16
  1
Color_7
330
0
 90
       10
 62
     7
370
    -3
331
16
  1
Color_7
330
0
 90
       10
 62
     7
370
    -3
331
16
  1
Color_7
330
0
 90
       10
 62
     7
370
    -3
331
16
  1
Color_7
330
0
 90
       10
 62
     7
370
    -3
331
16
  1
Color_7
330
0
 90
       10
 62
     7
370
    -3
331
16
  1
Color_7
330
0
 90
       10
 62
     7
370
    -3
331
16
  1
Color_7
330
0
 90
       10
 62
     7
370
    -3
331
16
  1
Color_7
330
0
 90
       10
 62
     7
370
    -3
331
16
  1
Color_7
330
0
 90
       10
 62
     7
370
    -3
331
16
  1
Color_7
330
0
 90
       10
 62
     7
370
    -3
331
16
  1
Color_7
330
0
 90
       10
 62
     7
370
    -3
331
16
  1
Color_7
330
0
 90
       10
 62
     7
370
    -3
331
16
  1
Color_7
330
0
 90
       10
 62
     7
370
    -3
331
16
  1
Color_7
330
0
 90
       10
 62
     7
370
    -3
331
16
  1
Color_7
330
0
 90
       10
 62
     7
370
    -3
331
16
  1
Color_7
330
0
 90
       10
 62
     7
370
    -3
331
16
  1
Color_7
330
0
 90
       10
 62
     7
370
    -3
331
16
  1
Color_7
330
0
 90
       10
 62
     7
370
    -3
331
16
  1
Color_7
330
0
 90
       10
 62
     7
370
    -3
331
16
  1
Color_7
330
0
 90
       10
 62
     7
370
    -3
331
16
  1
Color_7
330
0
 90
       10
 62
     7
370
    -3
331
16
  1
Color_7
330
0
 90
       10
 62
     7
370
    -3
331
16
  1
Color_7
330
0
 90
       10
 62
     7
370
    -3
331
16
  1
Color_7
330
0
 90
       10
 62
     7
370
    -3
331
16
  1
Color_7
330
0
 90
       10
 62
     7
370
    -3
331
16
  1
Color_7
330
0
 90
       10
 62
     7
370
    -3
331
16
  1
Color_7
330
0
 90
       10
 62
     7
370
    -3
331
16
  1
Color_7
330
0
 90
       10
 62
     7
370
    -3
331
16
  1
Color_7
330
0
 90
       10
 62
     7
370
    -3
331
16
  1
Color_7
330
0
 90
       10
 62
     7
370
    -3
331
16
  1
Color_7
330
0
 90
       10
 62
     7
370
    -3
331
16
  1
Color_7
330
0
 90
       10
 62
     7
370
    -3
331
16
  1
Color_7
330
0
 90
       10
 62
     7
370
    -3
331
16
  1
Color_7
330
0
 90
       10
 62
     7
370
    -3
331
16
  1
Color_7
330
0
 90
       10
 62
     7
370
    -3
331
16
  1
Color_7
330
0
 90
       10
 62
     7
370
    -3
331
16
  1
Color_7
330
0
 90
       10
 62
     7
370
    -3
331
16
  1
Color_7
330
0
 90
       10
 62
     7
370
    -3
331
16
  1
Color_7
330
0
 90
       10
 62
     7
370
    -3
331
16
  1
Color_7
330
0
 90
       10
 62
     7
370
    -3
331
16
  1
Color_7
330
0
 90
       10
 62
     7
370
    -3
331
16
  1
Color_7
330
0
 90
       10
 62
     7
370
    -3
331
16
  1
Color_7
330
0
 90
       10
 62
     7
370
    -3
331
16
  1
Color_7
330
0
 90
       10
 62
     7
370
    -3
331
16
  1
Color_7
330
0
 90
       10
 62
     7
370
    -3
331
16
  1
Color_7
330
0
 90
       10
 62
     7
370
    -3
331
16
  1
Color_7
330
0
 90
       10
 62
     7
370
    -3
331
16
  1
Color_7
330
0
 90
       10
 62
     7
370
    -3
331
16
  1
Color_7
330
0
 90
       10
 62
     7
370
    -3
331
16
  1
Color_7
330
0
 90
       10
 62
     7
370
    -3
331
16
  1
Color_7
330
0
 90
       10
 62
     7
370
    -3
331
16
  1
Color_7
330
0
 90
       10
 62
     7
370
    -3
331
16
  1
Color_7
  0
XRECORD
  5
3D8B
102
{ACAD_XDICTIONARY
360
3D8C
102
}
102
{ACAD_REACTORS
330
290
102
}
330
290
100
AcDbXrecord
280
     1
 91
      514
301

290
     0
302
0
330
0
 90
       10
 62
     7
370
    -3
331
16
  1
Color_7
330
0
 90
       10
 62
     7
370
    -3
331
16
  1
Color_7
330
0
 90
       10
 62
     7
370
    -3
331
16
  1
Color_7
330
0
 90
        2
 62
    30
370
    -3
331
16
  1
Color_30
330
0
 90
       10
 62
   252
370
    -3
331
16
  1
Color_252
330
0
 90
       10
 62
     3
370
    30
331
16
  1
Color_3
330
0
 90
       10
 62
   253
370
    -3
331
16
  1
Color_253
330
0
 90
       10
 62
     1
370
    -3
331
16
  1
Color_1
330
0
 90
        2
 62
     5
370
    -3
331
16
  1
Color_5
330
0
 90
       10
 62
     2
370
    -3
331
16
  1
Color_2
330
0
 90
        2
 62
   178
370
    -3
331
16
  1
Color_178
 92
-1039794079
330
0
 90
       10
 62
     7
370
    -3
331
16
  1
Color_7
330
0
 90
       10
 62
     7
370
    -3
331
16
  1
Color_7
330
0
 90
       10
 62
     7
370
    -3
331
16
  1
Color_7
330
0
 90
       10
 62
     7
370
    -3
331
16
  1
Color_7
330
0
 90
       10
 62
     7
370
    -3
331
16
  1
Color_7
330
0
 90
        2
 62
     4
370
    -3
331
16
  1
Color_4
330
0
 90
        2
 62
     7
370
    -3
331
16
  1
Color_7
330
10
 90
        8
 62
     7
370
    -3
331
16
  1
Color_7
330
37D
 90
        0
 62
     7
370
    -3
331
16
  1
Color_7
330
0
 90
       10
 62
     7
370
    -3
331
16
  1
Color_7
330
0
 90
       10
 62
     7
370
    -3
331
16
  1
Color_7
330
0
 90
       10
 62
     7
370
    -3
331
16
  1
Color_7
330
0
 90
       10
 62
     7
370
    -3
331
16
  1
Color_7
330
0
 90
       10
 62
     7
370
    -3
331
16
  1
Color_7
330
0
 90
       10
 62
     7
370
    -3
331
16
  1
Color_7
330
0
 90
       10
 62
     7
370
    -3
331
16
  1
Color_7
330
0
 90
       10
 62
     7
370
    -3
331
16
  1
Color_7
330
0
 90
       10
 62
     7
370
    -3
331
16
  1
Color_7
330
0
 90
       10
 62
     7
370
    -3
331
16
  1
Color_7
330
0
 90
       10
 62
     7
370
    -3
331
16
  1
Color_7
330
0
 90
       10
 62
     7
370
    -3
331
16
  1
Color_7
330
0
 90
       10
 62
     7
370
    -3
331
16
  1
Color_7
330
0
 90
       10
 62
     7
370
    -3
331
16
  1
Color_7
330
0
 90
       10
 62
     7
370
    -3
331
16
  1
Color_7
330
0
 90
       10
 62
     7
370
    -3
331
16
  1
Color_7
330
0
 90
       10
 62
     7
370
    -3
331
16
  1
Color_7
330
0
 90
       10
 62
     7
370
    -3
331
16
  1
Color_7
330
0
 90
       10
 62
     7
370
    -3
331
16
  1
Color_7
330
0
 90
       10
 62
     7
370
    -3
331
16
  1
Color_7
330
0
 90
       10
 62
     7
370
    -3
331
16
  1
Color_7
330
0
 90
       10
 62
     7
370
    -3
331
16
  1
Color_7
330
0
 90
       10
 62
     7
370
    -3
331
16
  1
Color_7
330
0
 90
       10
 62
     7
370
    -3
331
16
  1
Color_7
330
0
 90
       10
 62
     7
370
    -3
331
16
  1
Color_7
330
0
 90
       10
 62
     7
370
    -3
331
16
  1
Color_7
330
0
 90
       10
 62
     7
370
    -3
331
16
  1
Color_7
330
0
 90
       10
 62
     7
370
    -3
331
16
  1
Color_7
330
0
 90
       10
 62
     7
370
    -3
331
16
  1
Color_7
330
0
 90
       10
 62
     7
370
    -3
331
16
  1
Color_7
330
0
 90
       10
 62
     7
370
    -3
331
16
  1
Color_7
330
0
 90
       10
 62
     7
370
    -3
331
16
  1
Color_7
330
0
 90
       10
 62
     7
370
    -3
331
16
  1
Color_7
330
0
 90
       10
 62
     7
370
    -3
331
16
  1
Color_7
330
0
 90
       10
 62
     7
370
    -3
331
16
  1
Color_7
330
0
 90
       10
 62
     7
370
    -3
331
16
  1
Color_7
330
0
 90
       10
 62
     7
370
    -3
331
16
  1
Color_7
330
0
 90
       10
 62
     7
370
    -3
331
16
  1
Color_7
330
0
 90
       10
 62
     7
370
    -3
331
16
  1
Color_7
330
0
 90
       10
 62
     7
370
    -3
331
16
  1
Color_7
330
0
 90
       10
 62
     7
370
    -3
331
16
  1
Color_7
330
0
 90
       10
 62
     7
370
    -3
331
16
  1
Color_7
330
0
 90
       10
 62
     7
370
    -3
331
16
  1
Color_7
330
0
 90
       10
 62
     7
370
    -3
331
16
  1
Color_7
330
0
 90
       10
 62
     7
370
    -3
331
16
  1
Color_7
330
0
 90
       10
 62
     7
370
    -3
331
16
  1
Color_7
330
0
 90
       10
 62
     7
370
    -3
331
16
  1
Color_7
330
0
 90
       10
 62
     7
370
    -3
331
16
  1
Color_7
330
0
 90
       10
 62
     7
370
    -3
331
16
  1
Color_7
330
0
 90
       10
 62
     7
370
    -3
331
16
  1
Color_7
330
0
 90
       10
 62
     7
370
    -3
331
16
  1
Color_7
330
0
 90
       10
 62
     7
370
    -3
331
16
  1
Color_7
330
0
 90
       10
 62
     7
370
    -3
331
16
  1
Color_7
330
0
 90
       10
 62
     7
370
    -3
331
16
  1
Color_7
330
0
 90
       10
 62
     7
370
    -3
331
16
  1
Color_7
330
0
 90
       10
 62
     7
370
    -3
331
16
  1
Color_7
330
0
 90
       10
 62
     7
370
    -3
331
16
  1
Color_7
330
0
 90
       10
 62
     7
370
    -3
331
16
  1
Color_7
330
0
 90
       10
 62
     7
370
    -3
331
16
  1
Color_7
330
0
 90
       10
 62
     7
370
    -3
331
16
  1
Color_7
330
0
 90
       10
 62
     7
370
    -3
331
16
  1
Color_7
330
0
 90
       10
 62
     7
370
    -3
331
16
  1
Color_7
330
0
 90
       10
 62
     7
370
    -3
331
16
  1
Color_7
330
0
 90
       10
 62
     7
370
    -3
331
16
  1
Color_7
330
0
 90
       10
 62
     7
370
    -3
331
16
  1
Color_7
330
0
 90
       10
 62
     7
370
    -3
331
16
  1
Color_7
330
0
 90
       10
 62
     7
370
    -3
331
16
  1
Color_7
330
0
 90
       10
 62
     7
370
    -3
331
16
  1
Color_7
330
0
 90
       10
 62
     7
370
    -3
331
16
  1
Color_7
330
0
 90
       10
 62
     7
370
    -3
331
16
  1
Color_7
330
0
 90
       10
 62
     7
370
    -3
331
16
  1
Color_7
330
0
 90
       10
 62
     7
370
    -3
331
16
  1
Color_7
330
0
 90
       10
 62
     7
370
    -3
331
16
  1
Color_7
330
0
 90
       10
 62
     7
370
    -3
331
16
  1
Color_7
330
0
 90
       10
 62
     7
370
    -3
331
16
  1
Color_7
330
0
 90
       10
 62
     7
370
    -3
331
16
  1
Color_7
330
0
 90
       10
 62
     7
370
    -3
331
16
  1
Color_7
330
0
 90
       10
 62
     7
370
    -3
331
16
  1
Color_7
330
0
 90
       10
 62
     7
370
    -3
331
16
  1
Color_7
330
0
 90
       10
 62
     7
370
    -3
331
16
  1
Color_7
330
0
 90
       10
 62
     7
370
    -3
331
16
  1
Color_7
330
0
 90
       10
 62
     7
370
    -3
331
16
  1
Color_7
330
0
 90
       10
 62
     7
370
    -3
331
16
  1
Color_7
330
0
 90
       10
 62
     7
370
    -3
331
16
  1
Color_7
330
0
 90
       10
 62
     7
370
    -3
331
16
  1
Color_7
  0
XRECORD
  5
FFB9
102
{ACAD_XDICTIONARY
360
FFBA
102
}
102
{ACAD_REACTORS
330
290
102
}
330
290
100
AcDbXrecord
280
     1
 91
      514
301

290
     0
302
0
330
0
 90
        8
 62
     7
370
    -3
  6
Continuous
  1
Color_7
330
0
 90
        8
 62
     7
370
    -3
  6
Continuous
  1
Color_7
330
0
 90
        8
 62
     7
370
    -3
  6
Continuous
  1
Color_7
330
0
 90
        0
 62
    30
370
    -3
  6
Continuous
  1
Color_30
330
0
 90
        8
 62
   252
370
    -3
  6
Continuous
  1
Color_252
330
0
 90
        8
 62
     3
370
    30
  6
Continuous
  1
Color_3
330
0
 90
        8
 62
   253
370
    -3
  6
Continuous
  1
Color_253
330
0
 90
        8
 62
     1
370
    -3
  6
Continuous
  1
Color_1
330
0
 90
        0
 62
     5
370
    -3
  6
Continuous
  1
Color_5
330
0
 90
        8
 62
     2
370
    -3
  6
Continuous
  1
Color_2
330
0
 90
        0
 62
   178
370
    -3
  6
Continuous
  1
Color_178
 92
-1039794079
330
0
 90
        8
 62
     7
370
    -3
  6
Continuous
  1
Color_7
330
0
 90
        8
 62
     7
370
    -3
  6
Continuous
  1
Color_7
330
0
 90
        8
 62
     7
370
    -3
  6
Continuous
  1
Color_7
330
0
 90
        8
 62
     7
370
    -3
  6
Continuous
  1
Color_7
330
0
 90
        8
 62
     7
370
    -3
  6
Continuous
  1
Color_7
330
0
 90
        0
 62
     4
370
    -3
  6
Continuous
  1
Color_4
330
0
 90
        0
 62
     7
370
    -3
  6
Continuous
  1
Color_7
  8
defpoints
 90
        0
 62
     7
370
    -3
  6
Continuous
  1
Color_7
  8
0
 90
        8
 62
     7
370
    -3
  6
Continuous
  1
Color_7
330
0
 90
       10
 62
     7
370
    -3
  6
Continuous
  1
Color_7
330
0
 90
       10
 62
     7
370
    -3
  6
Continuous
  1
Color_7
330
0
 90
       10
 62
     7
370
    -3
  6
Continuous
  1
Color_7
330
0
 90
       10
 62
     7
370
    -3
  6
Continuous
  1
Color_7
330
0
 90
       10
 62
     7
370
    -3
  6
Continuous
  1
Color_7
330
0
 90
       10
 62
     7
370
    -3
  6
Continuous
  1
Color_7
330
0
 90
       10
 62
     7
370
    -3
  6
Continuous
  1
Color_7
330
0
 90
       10
 62
     7
370
    -3
  6
Continuous
  1
Color_7
330
0
 90
       10
 62
     7
370
    -3
  6
Continuous
  1
Color_7
330
0
 90
       10
 62
     7
370
    -3
  6
Continuous
  1
Color_7
330
0
 90
        2
 62
     7
370
    -3
  6
Continuous
  1
Color_7
330
0
 90
       10
 62
     7
370
    -3
  6
Continuous
  1
Color_7
330
0
 90
        2
 62
     7
370
    -3
  6
Continuous
  1
Color_7
330
0
 90
       10
 62
     7
370
    -3
  6
Continuous
  1
Color_7
330
0
 90
        2
 62
     7
370
    -3
  6
Continuous
  1
Color_7
330
0
 90
       10
 62
     7
370
    -3
  6
Continuous
  1
Color_7
330
0
 90
        2
 62
     7
370
    -3
  6
Continuous
  1
Color_7
330
0
 90
       10
 62
     7
370
    -3
  6
Continuous
  1
Color_7
330
0
 90
        2
 62
     7
370
    -3
  6
Continuous
  1
Color_7
330
0
 90
       10
 62
     7
370
    -3
  6
Continuous
  1
Color_7
330
0
 90
        2
 62
     7
370
    -3
  6
Continuous
  1
Color_7
330
0
 90
       10
 62
     7
370
    -3
  6
Continuous
  1
Color_7
330
0
 90
        2
 62
     7
370
    -3
  6
Continuous
  1
Color_7
  0
XRECORD
  5
FFBC
102
{ACAD_XDICTIONARY
360
FFBD
102
}
102
{ACAD_REACTORS
330
290
102
}
330
290
100
AcDbXrecord
280
     1
 91
      514
301

290
     0
302
0
330
0
 90
       10
 62
     7
370
    -3
  6
Continuous
  1
Color_7
330
0
 90
       10
 62
     7
370
    -3
  6
Continuous
  1
Color_7
330
0
 90
       10
 62
     7
370
    -3
  6
Continuous
  1
Color_7
330
0
 90
        2
 62
    30
370
    -3
  6
Continuous
  1
Color_30
330
0
 90
       10
 62
   252
370
    -3
  6
Continuous
  1
Color_252
330
0
 90
       10
 62
     3
370
    30
  6
Continuous
  1
Color_3
330
0
 90
       10
 62
   253
370
    -3
  6
Continuous
  1
Color_253
330
0
 90
       10
 62
     1
370
    -3
  6
Continuous
  1
Color_1
330
0
 90
        2
 62
     5
370
    -3
  6
Continuous
  1
Color_5
330
0
 90
       10
 62
     2
370
    -3
  6
Continuous
  1
Color_2
330
0
 90
        2
 62
   178
370
    -3
  6
Continuous
  1
Color_178
 92
-1039794079
330
0
 90
       10
 62
     7
370
    -3
  6
Continuous
  1
Color_7
330
0
 90
       10
 62
     7
370
    -3
  6
Continuous
  1
Color_7
330
0
 90
       10
 62
     7
370
    -3
  6
Continuous
  1
Color_7
330
0
 90
       10
 62
     7
370
    -3
  6
Continuous
  1
Color_7
330
0
 90
       10
 62
     7
370
    -3
  6
Continuous
  1
Color_7
330
0
 90
        2
 62
     4
370
    -3
  6
Continuous
  1
Color_4
330
0
 90
        2
 62
     7
370
    -3
  6
Continuous
  1
Color_7
  8
0
 90
        8
 62
     7
370
    -3
  6
Continuous
  1
Color_7
  8
defpoints
 90
        0
 62
     7
370
    -3
  6
Continuous
  1
Color_7
330
0
 90
       10
 62
     7
370
    -3
  6
Continuous
  1
Color_7
330
0
 90
       10
 62
     7
370
    -3
  6
Continuous
  1
Color_7
330
0
 90
       10
 62
     7
370
    -3
  6
Continuous
  1
Color_7
330
0
 90
       10
 62
     7
370
    -3
  6
Continuous
  1
Color_7
330
0
 90
       10
 62
     7
370
    -3
  6
Continuous
  1
Color_7
330
0
 90
       10
 62
     7
370
    -3
  6
Continuous
  1
Color_7
330
0
 90
       10
 62
     7
370
    -3
  6
Continuous
  1
Color_7
330
0
 90
       10
 62
     7
370
    -3
  6
Continuous
  1
Color_7
330
0
 90
       10
 62
     7
370
    -3
  6
Continuous
  1
Color_7
330
0
 90
       10
 62
     7
370
    -3
  6
Continuous
  1
Color_7
330
0
 90
        2
 62
     7
370
    -3
  6
Continuous
  1
Color_7
330
0
 90
       10
 62
     7
370
    -3
  6
Continuous
  1
Color_7
330
0
 90
        2
 62
     7
370
    -3
  6
Continuous
  1
Color_7
330
0
 90
       10
 62
     7
370
    -3
  6
Continuous
  1
Color_7
330
0
 90
        2
 62
     7
370
    -3
  6
Continuous
  1
Color_7
330
0
 90
       10
 62
     7
370
    -3
  6
Continuous
  1
Color_7
330
0
 90
        2
 62
     7
370
    -3
  6
Continuous
  1
Color_7
330
0
 90
       10
 62
     7
370
    -3
  6
Continuous
  1
Color_7
330
0
 90
        2
 62
     7
370
    -3
  6
Continuous
  1
Color_7
330
0
 90
       10
 62
     7
370
    -3
  6
Continuous
  1
Color_7
330
0
 90
        2
 62
     7
370
    -3
  6
Continuous
  1
Color_7
330
0
 90
       10
 62
     7
370
    -3
  6
Continuous
  1
Color_7
330
0
 90
        2
 62
     7
370
    -3
  6
Continuous
  1
Color_7
  0
XRECORD
  5
F6CB
102
{ACAD_XDICTIONARY
360
F6CC
102
}
102
{ACAD_REACTORS
330
290
102
}
330
290
100
AcDbXrecord
280
     1
 91
      514
301

290
     0
302
0
330
0
 90
        8
 62
     7
370
    -3
  6
Continuous
  1
Color_7
330
0
 90
        8
 62
     7
370
    -3
  6
Continuous
  1
Color_7
330
0
 90
        8
 62
     7
370
    -3
  6
Continuous
  1
Color_7
330
0
 90
        0
 62
    30
370
    -3
  6
Continuous
  1
Color_30
330
0
 90
        8
 62
   252
370
    -3
  6
Continuous
  1
Color_252
330
0
 90
        8
 62
     3
370
    30
  6
Continuous
  1
Color_3
330
0
 90
        8
 62
   253
370
    -3
  6
Continuous
  1
Color_253
330
0
 90
        8
 62
     1
370
    -3
  6
Continuous
  1
Color_1
330
0
 90
        0
 62
     5
370
    -3
  6
Continuous
  1
Color_5
330
0
 90
        8
 62
     2
370
    -3
  6
Continuous
  1
Color_2
330
0
 90
        0
 62
   178
370
    -3
  6
Continuous
  1
Color_178
 92
-1039794079
330
0
 90
        8
 62
     7
370
    -3
  6
Continuous
  1
Color_7
330
0
 90
        8
 62
     7
370
    -3
  6
Continuous
  1
Color_7
330
0
 90
        8
 62
     7
370
    -3
  6
Continuous
  1
Color_7
330
0
 90
        8
 62
     7
370
    -3
  6
Continuous
  1
Color_7
330
0
 90
        8
 62
     7
370
    -3
  6
Continuous
  1
Color_7
330
0
 90
        0
 62
     4
370
    -3
  6
Continuous
  1
Color_4
330
0
 90
        0
 62
     7
370
    -3
  6
Continuous
  1
Color_7
  8
defpoints
 90
        0
 62
     7
370
    -3
  6
Continuous
  1
Color_7
  8
0
 90
        8
 62
     7
370
    -3
  6
Continuous
  1
Color_7
330
0
 90
       10
 62
     7
370
    -3
  6
Continuous
  1
Color_7
330
0
 90
       10
 62
     7
370
    -3
  6
Continuous
  1
Color_7
330
0
 90
       10
 62
     7
370
    -3
  6
Continuous
  1
Color_7
330
0
 90
       10
 62
     7
370
    -3
  6
Continuous
  1
Color_7
330
0
 90
       10
 62
     7
370
    -3
  6
Continuous
  1
Color_7
330
0
 90
       10
 62
     7
370
    -3
  6
Continuous
  1
Color_7
330
0
 90
       10
 62
     7
370
    -3
  6
Continuous
  1
Color_7
  0
XRECORD
  5
F6CE
102
{ACAD_XDICTIONARY
360
F6CF
102
}
102
{ACAD_REACTORS
330
290
102
}
330
290
100
AcDbXrecord
280
     1
 91
      514
301

290
     0
302
0
330
0
 90
       10
 62
     7
370
    -3
  6
Continuous
  1
Color_7
330
0
 90
       10
 62
     7
370
    -3
  6
Continuous
  1
Color_7
330
0
 90
       10
 62
     7
370
    -3
  6
Continuous
  1
Color_7
330
0
 90
        2
 62
    30
370
    -3
  6
Continuous
  1
Color_30
330
0
 90
       10
 62
   252
370
    -3
  6
Continuous
  1
Color_252
330
0
 90
       10
 62
     3
370
    30
  6
Continuous
  1
Color_3
330
0
 90
       10
 62
   253
370
    -3
  6
Continuous
  1
Color_253
330
0
 90
       10
 62
     1
370
    -3
  6
Continuous
  1
Color_1
330
0
 90
        2
 62
     5
370
    -3
  6
Continuous
  1
Color_5
330
0
 90
       10
 62
     2
370
    -3
  6
Continuous
  1
Color_2
330
0
 90
        2
 62
   178
370
    -3
  6
Continuous
  1
Color_178
 92
-1039794079
330
0
 90
       10
 62
     7
370
    -3
  6
Continuous
  1
Color_7
330
0
 90
       10
 62
     7
370
    -3
  6
Continuous
  1
Color_7
330
0
 90
       10
 62
     7
370
    -3
  6
Continuous
  1
Color_7
330
0
 90
       10
 62
     7
370
    -3
  6
Continuous
  1
Color_7
330
0
 90
       10
 62
     7
370
    -3
  6
Continuous
  1
Color_7
330
0
 90
        2
 62
     4
370
    -3
  6
Continuous
  1
Color_4
330
0
 90
        2
 62
     7
370
    -3
  6
Continuous
  1
Color_7
  8
0
 90
        8
 62
     7
370
    -3
  6
Continuous
  1
Color_7
  8
defpoints
 90
        0
 62
     7
370
    -3
  6
Continuous
  1
Color_7
330
0
 90
       10
 62
     7
370
    -3
  6
Continuous
  1
Color_7
330
0
 90
       10
 62
     7
370
    -3
  6
Continuous
  1
Color_7
330
0
 90
       10
 62
     7
370
    -3
  6
Continuous
  1
Color_7
330
0
 90
       10
 62
     7
370
    -3
  6
Continuous
  1
Color_7
330
0
 90
       10
 62
     7
370
    -3
  6
Continuous
  1
Color_7
330
0
 90
       10
 62
     7
370
    -3
  6
Continuous
  1
Color_7
330
0
 90
       10
 62
     7
370
    -3
  6
Continuous
  1
Color_7
  0
BLOCKLINEARPARAMETER
  5
81A4
330
81A3
100
AcDbEvalExpr
 90
        1
 98
       27
 99
       53
100
AcDbBlockElement
300
Linear
 98
       27
 99
       53
1071
        0
100
AcDbBlockParameter
280
     1
281
     0
100
AcDbBlock2PtParameter
1010
0.0
1020
0.0
1030
0.0
1011
0.0
1021
27.85219326595689
1031
0.0
170
     4
 91
        0
 91
        2
 91
        0
 91
        0
171
     0
172
     0
173
     1
 94
        2
303
DisplacementX
174
     1
 95
        2
304
DisplacementY
177
     0
100
AcDbBlockLinearParameter
305
Distance
306

140
-6.180622679414227
307

 96
        1
141
0.0
142
0.0
143
0.0
175
     0
  0
BLOCKLINEARGRIP
  5
81A5
330
81A3
100
AcDbEvalExpr
 90
        2
 98
       27
 99
       53
100
AcDbBlockElement
300
End Grip
 98
       27
 99
       53
1071
        0
100
AcDbBlockGrip
 91
        3
 92
        4
1010
0.0
1020
27.85219326595689
1030
0.0
280
     1
 93
       -1
100
AcDbBlockLinearGrip
140
0.0
141
27.85219326595689
142
0.0
  0
BLOCKGRIPLOCATIONCOMPONENT
  5
81A6
330
81A3
100
AcDbEvalExpr
 90
        3
 98
       27
 99
       53
  1

 70
    40
140
1.797693134862314E+99
100
AcDbBlockGripExpr
 91
        1
300
UpdatedEndX
  0
BLOCKGRIPLOCATIONCOMPONENT
  5
81A7
330
81A3
100
AcDbEvalExpr
 90
        4
 98
       27
 99
       53
  1

 70
    40
140
1.797693134862314E+99
100
AcDbBlockGripExpr
 91
        1
300
UpdatedEndY
  0
BLOCKSTRETCHACTION
  5
81A8
330
81A3
100
AcDbEvalExpr
 90
        8
 98
       27
 99
       53
100
AcDbBlockElement
300
Stretch
 98
       27
 99
       53
1071
        0
100
AcDbBlockAction
 70
     0
 71
     2
330
81A5
330
81AB
1010
0.0
1020
27.85219326595689
1030
0.0
100
AcDbBlockStretchAction
 92
        1
301
EndXDelta
 93
        1
302
EndYDelta
 72
     2
1011
13.21978034439962
1021
31.68534425474627
1011
-6.652819483715575
1021
22.2909530023162
 73
     1
331
81AB
 74
     1
 94
        1
 75
     0
140
1.0
141
0.0
280
     0
  0
DICTIONARY
  5
101C2
102
{ACAD_REACTORS
330
101C1
102
}
330
101C1
100
AcDbDictionary
281
     1
  0
DICTIONARY
  5
101CB
102
{ACAD_REACTORS
330
101CA
102
}
330
101CA
100
AcDbDictionary
281
     1
  0
DICTIONARY
  5
101D8
102
{ACAD_REACTORS
330
101D7
102
}
330
101D7
100
AcDbDictionary
281
     1
  0
DICTIONARY
  5
101E1
102
{ACAD_REACTORS
330
101E0
102
}
330
101E0
100
AcDbDictionary
281
     1
  0
DICTIONARY
  5
F966
102
{ACAD_REACTORS
330
F965
102
}
330
F965
100
AcDbDictionary
281
     1
  0
DICTIONARY
  5
F96C
102
{ACAD_REACTORS
330
F96B
102
}
330
F96B
100
AcDbDictionary
281
     1
  0
ACDB_BLOCKREPRESENTATION_DATA
  5
F971
102
{ACAD_REACTORS
330
F970
102
}
330
F970
100
AcDbBlockRepresentationData
 70
     1
340
81A1
  0
DICTIONARY
  5
F972
102
{ACAD_REACTORS
330
F970
102
}
330
F970
100
AcDbDictionary
280
     1
281
     1
  3
ACAD_ENHANCEDBLOCKDATA
360
F973
  0
DICTIONARY
  5
F977
102
{ACAD_REACTORS
330
F976
102
}
330
F976
100
AcDbDictionary
281
     1
  3
*A1
350
F978
  0
DICTIONARY
  5
8614
102
{ACAD_REACTORS
330
8613
102
}
330
8613
100
AcDbDictionary
281
     1
  0
DICTIONARY
  5
8619
102
{ACAD_REACTORS
330
8618
102
}
330
8618
100
AcDbDictionary
281
     1
  0
DICTIONARY
  5
D144
102
{ACAD_REACTORS
330
D143
102
}
330
D143
100
AcDbDictionary
281
     1
  0
DICTIONARY
  5
D237
102
{ACAD_REACTORS
330
D236
102
}
330
D236
100
AcDbDictionary
281
     1
  0
DICTIONARY
  5
D27F
102
{ACAD_REACTORS
330
D27E
102
}
330
D27E
100
AcDbDictionary
281
     1
  0
DICTIONARY
  5
D2C2
102
{ACAD_REACTORS
330
D2C1
102
}
330
D2C1
100
AcDbDictionary
281
     1
  0
DICTIONARY
  5
D381
102
{ACAD_REACTORS
330
D380
102
}
330
D380
100
AcDbDictionary
281
     1
  0
DICTIONARY
  5
D386
102
{ACAD_REACTORS
330
D385
102
}
330
D385
100
AcDbDictionary
281
     1
  0
DICTIONARY
  5
D550
102
{ACAD_REACTORS
330
D54F
102
}
330
D54F
100
AcDbDictionary
281
     1
  0
DICTIONARY
  5
DA96
102
{ACAD_REACTORS
330
DA95
102
}
330
DA95
100
AcDbDictionary
281
     1
  0
DICTIONARY
  5
F434
102
{ACAD_REACTORS
330
F433
102
}
330
F433
100
AcDbDictionary
281
     1
  0
DICTIONARY
  5
FCD9
102
{ACAD_REACTORS
330
FCD8
102
}
330
FCD8
100
AcDbDictionary
281
     1
  0
DICTIONARY
  5
292
330
1E
100
AcDbDictionary
280
     1
281
     1
  0
DICTIONARY
  5
5897
330
22
100
AcDbDictionary
280
     1
281
     1
  0
DICTIONARY
  5
30E
330
22C
100
AcDbDictionary
280
     1
281
     1
  3
ACAD_ROUNDTRIP_2008_TABLESTYLE_CELLSTYLEMAP
360
101B6
  0
DICTIONARY
  5
811
330
223
100
AcDbDictionary
280
     1
281
     1
  3
LightingQuality
360
812
  0
XRECORD
  5
A38
102
{ACAD_REACTORS
330
A22
102
}
330
A22
100
AcDbXrecord
280
     1
1000
AIA Version 3
  0
BINRECORD
  5
A23
102
{ACAD_REACTORS
330
A22
102
}
330
A22
100
AcAecBinRecord
 90
        0
 91
    19403
 70
     0
310
0100FFFEFF0D4100490041002000560065007200730069006F006E00200033000500FFFF01001C004163416563556B4C6179657244657363726970746976654669656C64FFFEFF154400690073006300690070006C0069006E0065002000440065007300690067006E00610074006F0072000102000000007B333637354541
310
46100100002100000070BA406CD0EA76040B00FFFEFF001500FFFEFF01440002000000FFFEFF07500072006F0063006500730073000E00FFFEFF01440002000000FFFEFF12500072006F0063006500730073002000440065006D006F006C006900740069006F006E00000000000000FFFEFF01560002000000FFFEFF0E5000
310
72006F0063006500730073002000560061006300750075006D00000000000000FFFEFF01450002000000FFFEFF12500072006F006300650073007300200045006C0065006300740072006900630061006C00000000000000FFFEFF01570002000000FFFEFF0E500072006F0063006500730073002000570061007400650072
310
007300000000000000FFFEFF01580002000000FFFEFF0F500072006F00630065007300730020004500780068006100750073007400000000000000FFFEFF01470002000000FFFEFF0D500072006F006300650073007300200047006100730065007300000000000000FFFEFF014F0002000000FFFEFF0B500072006F006300
310
65007300730020004F0069006C00000000000000FFFEFF01500002000000FFFEFF0E500072006F006300650073007300200050006900700069006E006700000000000000FFFEFF01510002000000FFFEFF11500072006F0063006500730073002000450071007500690070006D0065006E007400000000000000FFFEFF0152
310
0002000000FFFEFF19500072006F006300650073007300200044007200610069006E0073002000260020005200650063006C00610069006D007300000000000000FFFEFF01410002000000FFFEFF0C500072006F00630065007300730020004100690072007300000000000000FFFEFF01530002000000FFFEFF0C50007200
310
6F00630065007300730020005300690074006500000000000000FFFEFF01540002000000FFFEFF18500072006F006300650073007300200045006E0074007200610069006E0065006400200053006F006C00690064007300000000000000FFFEFF01430002000000FFFEFF11500072006F0063006500730073002000430068
310
0065006D006900630061006C00730000000000000000000000FFFEFF01560002000000FFFEFF1053007500720076006500790020002F0020004D0061007000700069006E0067000500FFFEFF01460002000000FFFEFF0C4600690065006C0064002000530075007200760065007900000000000000FFFEFF01490002000000
310
FFFEFF0E4400690067006900740061006C002000530075007200760065007900000000000000FFFEFF014A0002000000FFFEFF1F53007500720076006500790020002F0020004D0061007000700069006E006700200028005500730065007200200044006500660069006E00650064002900000000000000FFFEFF014B0002
310
000000FFFEFF1F53007500720076006500790020002F0020004D0061007000700069006E006700200028005500730065007200200044006500660069006E00650064002900000000000000FFFEFF01410002000000FFFEFF0D410065007200690061006C00200053007500720076006500790000000000000000000000FFFE
310
FF01450002000000FFFEFF0A45006C0065006300740072006900630061006C000900FFFEFF01440002000000FFFEFF1545006C0065006300740072006900630061006C002000440065006D006F006C006900740069006F006E00000000000000FFFEFF01590002000000FFFEFF1C45006C0065006300740072006900630061
310
006C00200041007500780069006C0069006100720079002000530079007300740065006D007300000000000000FFFEFF01490002000000FFFEFF1A45006C0065006300740072006900630061006C00200049006E0073007400720075006D0065006E0074006100740069006F006E00000000000000FFFEFF014A0002000000
310
FFFEFF1945006C0065006300740072006900630061006C00200028005500730065007200200044006500660069006E00650064002900000000000000FFFEFF014B0002000000FFFEFF1945006C0065006300740072006900630061006C00200028005500730065007200200044006500660069006E00650064002900000000
310
000000FFFEFF014C0002000000FFFEFF1345006C0065006300740072006900630061006C0020004C00690067006800740069006E006700000000000000FFFEFF01500002000000FFFEFF1045006C0065006300740072006900630061006C00200050006F00770065007200000000000000FFFEFF01530002000000FFFEFF0F
310
45006C0065006300740072006900630061006C0020005300690074006500000000000000FFFEFF01540002000000FFFEFF1D45006C0065006300740072006900630061006C002000540065006C00650063006F006D006D0075006E00690063006100740069006F006E00730000000000000000000000FFFEFF015700020000
310
00FFFEFF0B43006900760069006C00200057006F0072006B0073000200FFFEFF014A0002000000FFFEFF1A43006900760069006C00200057006F0072006B007300200028005500730065007200200044006500660069006E00650064002900000000000000FFFEFF014B0002000000FFFEFF1A43006900760069006C002000
310
57006F0072006B007300200028005500730065007200200044006500660069006E0065006400290000000000000000000000FFFEFF01460002000000FFFEFF0F46006900720065002000500072006F00740065006300740069006F006E000400FFFEFF014A0002000000FFFEFF134600690072006500200028005500730065
310
007200200044006500660069006E00650064002900000000000000FFFEFF014B0002000000FFFEFF134600690072006500200028005500730065007200200044006500660069006E00650064002900000000000000FFFEFF01410002000000FFFEFF184600690072006500200044006500740065006300740069006F006E00
310
200061006E006400200041006C00610072006D00000000000000FFFEFF01530002000000FFFEFF10460069007200650020005300750070007000720065007300730069006F006E0000000000000000000000FFFEFF01470002000000FFFEFF07470065006E006500720061006C000500FFFEFF01490002000000FFFEFF1347
310
0065006E006500720061006C00200049006E0066006F0072006D006100740069006F006E00000000000000FFFEFF014A0002000000FFFEFF16470065006E006500720061006C00200028005500730065007200200044006500660069006E00650064002900000000000000FFFEFF014B0002000000FFFEFF16470065006E00
310
6500720061006C00200028005500730065007200200044006500660069006E00650064002900000000000000FFFEFF01520002000000FFFEFF10470065006E006500720061006C0020005200650073006F007500720063006500000000000000FFFEFF01430002000000FFFEFF13470065006E006500720061006C00200043
310
006F006E0074007200610063007400750061006C0000000000000000000000FFFEFF01580002000000FFFEFF114F00740068006500720020004400690073006300690070006C0069006E00650073000200FFFEFF014A0002000000FFFEFF204F00740068006500720020004400690073006300690070006C0069006E006500
310
7300200028005500730065007200200044006500660069006E00650064002900000000000000FFFEFF014B0002000000FFFEFF204F00740068006500720020004400690073006300690070006C0069006E0065007300200028005500730065007200200044006500660069006E0065006400290000000000000000000000FF
310
FEFF01480002000000FFFEFF13480061007A006100720064006F007500730020004D006100740065007200690061006C0073000700FFFEFF014A0002000000FFFEFF22480061007A006100720064006F007500730020004D006100740065007200690061006C00730020002800550073006500720020004400650066006900
310
6E00650064002900000000000000FFFEFF014B0002000000FFFEFF22480061007A006100720064006F007500730020004D006100740065007200690061006C007300200028005500730065007200200044006500660069006E00650064002900000000000000FFFEFF014C0002000000FFFEFF044C00650061006400000000
310
000000FFFEFF01500002000000FFFEFF03500043004200000000000000FFFEFF01520002000000FFFEFF0C5200650066007200690067006500720061006E0074007300000000000000FFFEFF01410002000000FFFEFF084100730062006500730074006F007300000000000000FFFEFF01430002000000FFFEFF0943006800
310
65006D006900630061006C00730000000000000000000000FFFEFF01490002000000FFFEFF0949006E0074006500720069006F00720073000600FFFEFF01440002000000FFFEFF1349006E0074006500720069006F0072002000440065006D006F006C006900740069006F006E00000000000000FFFEFF01460002000000FF
310
FEFF1149006E0074006500720069006F0072002000460069006E0069007300680065007300000000000000FFFEFF01470002000000FFFEFF1249006E0074006500720069006F0072007300200047007200610070006800690063007300000000000000FFFEFF014A0002000000FFFEFF1849006E0074006500720069006F00
310
72007300200028005500730065007200200044006500660069006E00650064002900000000000000FFFEFF014B0002000000FFFEFF1849006E0074006500720069006F0072007300200028005500730065007200200044006500660069006E00650064002900000000000000FFFEFF014E0002000000FFFEFF0F49006E0074
310
006500720069006F0072002000440065007300690067006E0000000000000000000000FFFEFF015A0002000000FFFEFF1A43006F006E00740072006100630074006F00720020002F002000530068006F0070002000440072006100770069006E00670073000200FFFEFF014A0002000000FFFEFF2943006F006E0074007200
310
6100630074006F00720020002F002000530068006F0070002000440072006100770069006E0067007300200028005500730065007200200044006500660069006E00650064002900000000000000FFFEFF014B0002000000FFFEFF2943006F006E00740072006100630074006F00720020002F002000530068006F00700020
310
00440072006100770069006E0067007300200028005500730065007200200044006500660069006E0065006400290000000000000000000000FFFEFF014C0002000000FFFEFF094C0061006E006400730063006100700065000500FFFEFF01440002000000FFFEFF144C0061006E0064007300630061007000650020004400
310
65006D006F006C006900740069006F006E00000000000000FFFEFF01490002000000FFFEFF144C0061006E006400730063006100700065002000490072007200690067006100740069006F006E00000000000000FFFEFF014A0002000000FFFEFF184C0061006E006400730063006100700065002000280055007300650072
310
00200044006500660069006E00650064002900000000000000FFFEFF014B0002000000FFFEFF184C0061006E00640073006300610070006500200028005500730065007200200044006500660069006E00650064002900000000000000FFFEFF01500002000000FFFEFF124C0061006E006400730063006100700065002000
310
50006C0061006E00740069006E00670000000000000000000000FFFEFF014D0002000000FFFEFF0A4D0065006300680061006E006900630061006C000700FFFEFF01440002000000FFFEFF154D0065006300680061006E006900630061006C002000440065006D006F006C006900740069006F006E00000000000000FFFEFF
310
01480002000000FFFEFF0F4D0065006300680061006E006900630061006C0020004800560041004300000000000000FFFEFF01490002000000FFFEFF1A4D0065006300680061006E006900630061006C00200049006E0073007400720075006D0065006E0074006100740069006F006E00000000000000FFFEFF014A000200
310
0000FFFEFF194D0065006300680061006E006900630061006C00200028005500730065007200200044006500660069006E00650064002900000000000000FFFEFF014B0002000000FFFEFF194D0065006300680061006E006900630061006C00200028005500730065007200200044006500660069006E0065006400290000
310
0000000000FFFEFF01500002000000FFFEFF114D0065006300680061006E006900630061006C00200050006900700069006E006700000000000000FFFEFF01530002000000FFFEFF0F4D0065006300680061006E006900630061006C002000530069007400650000000000000000000000FFFEFF014F0002000000FFFEFF0A
310
4F007000650072006100740069006F006E0073000200FFFEFF014A0002000000FFFEFF194F007000650072006100740069006F006E007300200028005500730065007200200044006500660069006E00650064002900000000000000FFFEFF014B0002000000FFFEFF194F007000650072006100740069006F006E00730020
310
0028005500730065007200200044006500660069006E0065006400290000000000000000000000FFFEFF01500002000000FFFEFF0850006C0075006D00620069006E0067000600FFFEFF01440002000000FFFEFF1350006C0075006D00620069006E0067002000440065006D006F006C006900740069006F006E0000000000
310
0000FFFEFF014A0002000000FFFEFF1750006C0075006D00620069006E006700200028005500730065007200200044006500660069006E00650064002900000000000000FFFEFF014B0002000000FFFEFF1750006C0075006D00620069006E006700200028005500730065007200200044006500660069006E006500640029
310
00000000000000FFFEFF01500002000000FFFEFF0F50006C0075006D00620069006E006700200050006900700069006E006700000000000000FFFEFF01510002000000FFFEFF1250006C0075006D00620069006E0067002000450071007500690070006D0065006E007400000000000000FFFEFF01530002000000FFFEFF0D
310
50006C0075006D00620069006E0067002000530069007400650000000000000000000000FFFEFF01510002000000FFFEFF09450071007500690070006D0065006E0074001100FFFEFF01440002000000FFFEFF1344006500740065006E00740069006F006E002000450071007500690070006D0065006E0074000000000000
310
00FFFEFF01560002000000FFFEFF1C56006900640065006F002F00500068006F0074006F0067007200610070006800690063002000450071007500690070006D0065006E007400000000000000FFFEFF01450002000000FFFEFF1545006400750063006100740069006F006E0061006C002000450071007500690070006D00
310
65006E007400000000000000FFFEFF01460002000000FFFEFF1646006F006F006400200053006500720076006900630065002000450071007500690070006D0065006E007400000000000000FFFEFF01590002000000FFFEFF12530065006300750072006900740079002000450071007500690070006D0065006E00740000
310
0000000000FFFEFF01480002000000FFFEFF1248006F00730070006900740061006C002000450071007500690070006D0065006E007400000000000000FFFEFF014A0002000000FFFEFF18450071007500690070006D0065006E007400200028005500730065007200200044006500660069006E0065006400290000000000
310
0000FFFEFF014B0002000000FFFEFF18450071007500690070006D0065006E007400200028005500730065007200200044006500660069006E00650064002900000000000000FFFEFF014C0002000000FFFEFF144C00610062006F007200610074006F00720079002000450071007500690070006D0065006E007400000000
310
000000FFFEFF014D0002000000FFFEFF154D00610069006E00740065006E0061006E00630065002000450071007500690070006D0065006E007400000000000000FFFEFF01500002000000FFFEFF155000610072006B0069006E00670020004C006F0074002000450071007500690070006D0065006E007400000000000000
310
FFFEFF01520002000000FFFEFF10520065007400610069006C002000450071007500690070006D0065006E007400000000000000FFFEFF01410002000000FFFEFF124100740068006C0065007400690063002000450071007500690070006D0065006E007400000000000000FFFEFF01530002000000FFFEFF0E5300690074
310
0065002000450071007500690070006D0065006E007400000000000000FFFEFF01420002000000FFFEFF0E420061006E006B002000450071007500690070006D0065006E007400000000000000FFFEFF01540002000000FFFEFF145400680065006100740072006900630061006C002000450071007500690070006D006500
310
6E007400000000000000FFFEFF01430002000000FFFEFF16440072007900200043006C00650061006E0069006E0067002000450071007500690070006D0065006E00740000000000000000000000FFFEFF01410002000000FFFEFF0D4100720063006800690074006500630074007500720061006C000A00FFFEFF01440002
310
000000FFFEFF184100720063006800690074006500630074007500720061006C002000440065006D006F006C006900740069006F006E00000000000000FFFEFF01450002000000FFFEFF164100720063006800690074006500630074007500720061006C00200045006C0065006D0065006E0074007300000000000000FFFE
310
FF01460002000000FFFEFF164100720063006800690074006500630074007500720061006C002000460069006E0069007300680065007300000000000000FFFEFF01470002000000FFFEFF164100720063006800690074006500630074007500720061006C00200047007200610070006800690063007300000000000000FF
310
FEFF01490002000000FFFEFF164100720063006800690074006500630074007500720061006C00200049006E0074006500720069006F007200000000000000FFFEFF014A0002000000FFFEFF1C4100720063006800690074006500630074007500720061006C00200028005500730065007200200044006500660069006E00
310
650064002900000000000000FFFEFF014B0002000000FFFEFF1C4100720063006800690074006500630074007500720061006C00200028005500730065007200200044006500660069006E00650064002900000000000000FFFEFF01500002000000FFFEFF144100720063006800690074006500630074007500720061006C
310
00200050006100760069006E006700000000000000FFFEFF01530002000000FFFEFF124100720063006800690074006500630074007500720061006C0020005300690074006500000000000000FFFEFF01540002000000FFFEFF1C4100720063006800690074006500630074007500720061006C0020005400720061006E00
310
730070006F00720074006100740069006F006E0000000000000001000000FFFEFF01520002000000FFFEFF085200650073006F0075007200630065000700FFFEFF01450002000000FFFEFF135200650073006F007500720063006500200045006C0065006300740072006900630061006C00000000000000FFFEFF014A0002
310
000000FFFEFF175200650073006F007500720063006500200028005500730065007200200044006500660069006E00650064002900000000000000FFFEFF014B0002000000FFFEFF175200650073006F007500720063006500200028005500730065007200200044006500660069006E00650064002900000000000000FFFE
310
FF014D0002000000FFFEFF135200650073006F00750072006300650020004D0065006300680061006E006900630061006C00000000000000FFFEFF01410002000000FFFEFF165200650073006F00750072006300650020004100720063006800690074006500630074007500720061006C00000000000000FFFEFF01530002
310
000000FFFEFF135200650073006F00750072006300650020005300740072007500630074007500720061006C00000000000000FFFEFF01430002000000FFFEFF0E5200650073006F007500720063006500200043006900760069006C0000000000000000000000FFFEFF01420002000000FFFEFF0C470065006F0074006500
310
630068006E006900630061006C000200FFFEFF014A0002000000FFFEFF1B470065006F0074006500630068006E006900630061006C00200028005500730065007200200044006500660069006E00650064002900000000000000FFFEFF014B0002000000FFFEFF1B470065006F0074006500630068006E006900630061006C
310
00200028005500730065007200200044006500660069006E0065006400290000000000000000000000FFFEFF01530002000000FFFEFF0A5300740072007500630074007500720061006C000600FFFEFF01440002000000FFFEFF155300740072007500630074007500720061006C002000440065006D006F006C0069007400
310
69006F006E00000000000000FFFEFF01460002000000FFFEFF125300740072007500630074007500720061006C0020004600720061006D0069006E006700000000000000FFFEFF014A0002000000FFFEFF195300740072007500630074007500720061006C00200028005500730065007200200044006500660069006E0065
310
0064002900000000000000FFFEFF014B0002000000FFFEFF195300740072007500630074007500720061006C00200028005500730065007200200044006500660069006E00650064002900000000000000FFFEFF01530002000000FFFEFF0F5300740072007500630074007500720061006C00200053006900740065000000
310
00000000FFFEFF01420002000000FFFEFF175300740072007500630074007500720061006C00200053007500620073007400720075006300740075007200650000000000000000000000FFFEFF01430002000000FFFEFF0543006900760069006C000900FFFEFF01440002000000FFFEFF1043006900760069006C00200044
310
0065006D006F006C006900740069006F006E00000000000000FFFEFF01550002000000FFFEFF0F43006900760069006C0020005500740069006C0069007400690065007300000000000000FFFEFF01470002000000FFFEFF0D43006900760069006C002000470072006100640069006E006700000000000000FFFEFF014900
310
02000000FFFEFF1243006900760069006C00200049006D00700072006F00760065006D0065006E0074007300000000000000FFFEFF014A0002000000FFFEFF1443006900760069006C00200028005500730065007200200044006500660069006E00650064002900000000000000FFFEFF014B0002000000FFFEFF14430069
310
00760069006C00200028005500730065007200200044006500660069006E00650064002900000000000000FFFEFF01500002000000FFFEFF0C43006900760069006C00200050006100760069006E006700000000000000FFFEFF01530002000000FFFEFF0A43006900760069006C0020005300690074006500000000000000
310
FFFEFF01540002000000FFFEFF1443006900760069006C0020005400720061006E00730070006F00720074006100740069006F006E0000000000000000000000FFFEFF01540002000000FFFEFF12540065006C00650063006F006D006D0075006E00690063006100740069006F006E0073000900FFFEFF01590002000000FF
310
FEFF0853006500630075007200690074007900000000000000FFFEFF01490002000000FFFEFF0849006E0074006500720063006F006D00000000000000FFFEFF014A0002000000FFFEFF21540065006C00650063006F006D006D0075006E00690063006100740069006F006E00730020002800550073006500720020004400
310
6500660069006E00650064002900000000000000FFFEFF014B0002000000FFFEFF21540065006C00650063006F006D006D0075006E00690063006100740069006F006E007300200028005500730065007200200044006500660069006E00650064002900000000000000FFFEFF014D0002000000FFFEFF0A4D006F006E0069
310
0074006F00720069006E006700000000000000FFFEFF014E0002000000FFFEFF0D440061007400610020004E006500740077006F0072006B007300000000000000FFFEFF01410002000000FFFEFF0E41007500640069006F0020002F002000560069007300750061006C00000000000000FFFEFF01540002000000FFFEFF09
310
540065006C006500700068006F006E006500000000000000FFFEFF01430002000000FFFEFF1143006C006F0063006B00200061006E0064002000500072006F006700720061006D00000000000000000000000180FFFEFF054D0061006A006F0072000300000000000000000000000000000000000000000000000000000000
310
000000FFFEFF002300FFFEFF052D0046006C006F00720002000000FFFEFF0546006C006F006F007200000000000000FFFEFF052D004500710070006D0002000000FFFEFF09450071007500690070006D0065006E007400000000000000FFFEFF052D00530069007400650002000000FFFEFF09530069007400650020007000
310
6C0061006E00000000000000FFFEFF052D0050006C0061006E0002000000FFFEFF154B0065007900200070006C0061006E002000280066006C006F006F007200200070006C0061006E002900000000000000FFFEFF052D004400650074006C0002000000FFFEFF06440065007400610069006C00000000000000FFFEFF052D
310
0054006F0070006F0002000000FFFEFF0A54006F0070006F00670072006100700068007900000000000000FFFEFF052D004300740072006C0002000000FFFEFF0E43006F006E00740072006F006C00200050006F0069006E0074007300000000000000FFFEFF052D004600750072006E0002000000FFFEFF0B460075007200
310
6E0069007300680069006E0067007300000000000000FFFEFF052D0053006C006100620002000000FFFEFF0553006C00610062007300000000000000FFFEFF052D0050006F006C00790002000000FFFEFF0850006F006C00790067006F006E007300000000000000FFFEFF052D0043006F006D006D0002000000FFFEFF1254
310
0065006C00650063006F006D006D0075006E00690063006100740069006F006E007300000000000000FFFEFF052D00570061006C006C0002000000FFFEFF05570061006C006C007300000000000000FFFEFF052D0047006C0061007A0002000000FFFEFF0747006C0061007A0069006E006700000000000000FFFEFF052D00
310
410072006500610002000000FFFEFF044100720065006100000000000000FFFEFF052D0043006F006400650002000000FFFEFF1443006F0064006500200063006F006D0070006C00690061006E0063006500200070006C0061006E00000000000000FFFEFF052D005300740072006D0002000000FFFEFF0844007200610069
310
006E00610067006500000000000000FFFEFF052D0044006F006F00720002000000FFFEFF0544006F006F0072007300000000000000FFFEFF052D0041006E006E006F0002000000FFFEFF0A41006E006E006F0074006100740069006F006E00000000000000FFFEFF052D004200650061006D0002000000FFFEFF0542006500
310
61006D007300000000000000FFFEFF052D004C0069007400650002000000FFFEFF114C00690067006800740069006E006700200066006900780074007500720065007300000000000000FFFEFF052D00480056004100430002000000FFFEFF044800560041004300000000000000FFFEFF052D004100630063007300020000
310
00FFFEFF0B410063006300650073007300200070006C0061006E00000000000000FFFEFF052D0043006F006C00730002000000FFFEFF0743006F006C0075006D006E007300000000000000FFFEFF052D0043006C006E00670002000000FFFEFF074300650069006C0069006E006700000000000000FFFEFF052D0045007600
310
6100630002000000FFFEFF0F450076006100630075006100740069006F006E00200070006C0061006E00000000000000FFFEFF052D0043006F006E00760002000000FFFEFF1143006F006E0076006500790069006E0067002000730079007300740065006D007300000000000000FFFEFF052D005300650063007400020000
310
00FFFEFF07530065006300740069006F006E00000000000000FFFEFF052D00500072006F00700002000000FFFEFF08500072006F0070006500720074007900000000000000FFFEFF052D0052006F006F00660002000000FFFEFF0452006F006F006600000000000000FFFEFF052D0045006C006500630002000000FFFEFF0A
310
45006C0065006300740072006900630061006C00000000000000FFFEFF052D00470072006900640002000000FFFEFF0A470072006900640020006C0069006E0065007300000000000000FFFEFF052D00540069006E006E0002000000FFFEFF1E54007200690061006E00670075006C00610074006500640020006900720072
310
006500670075006C006100720020006E006500740077006F0072006B00000000000000FFFEFF052D00500072006F00740002000000FFFEFF1646006900720065002000700072006F00740065006300740069006F006E002000730079007300740065006D00000000000000FFFEFF052D00460069007200650002000000FFFE
310
FF1446006900720065002000700072006F00740065006300740069006F006E00200070006C0061006E00000000000000FFFEFF052D0045006C006500760002000000FFFEFF0945006C00650076006100740069006F006E000000000000000180FFFEFF074D0069006E006F00720020003100040000000000000000F00E7704
310
00000000000000000000000000000000F00000FFFEFF006A00FFFEFF052D00410062006F00760002000000FFFEFF0E45006C0065006D0065006E00740073002000610062006F0076006500000000000000FFFEFF052D005400610062006C0002000000FFFEFF0B440061007400610020007400610062006C00650073000000
310
00000000FFFEFF052D00420064007200790002000000FFFEFF0842006F0075006E006400610072007900000000000000FFFEFF052D004500710070006D0002000000FFFEFF09450071007500690070006D0065006E007400000000000000FFFEFF052D0043006E007400720002000000FFFEFF0A430065006E007400650072
310
006C0069006E006500000000000000FFFEFF052D0057006B007300660002000000FFFEFF1E530079007300740065006D00200077006F0072006B0020007300750072006600610063006500200063006F006D0070006F006E0065006E0074007300000000000000FFFEFF052D00420072006E00670002000000FFFEFF1A4200
310
65006100720069006E0067007300200026002000640069007300740061006E006300650020006C006100620065006C007300000000000000FFFEFF052D00530077006300680002000000FFFEFF0853007700690074006300680065007300000000000000FFFEFF052D005400680069006E0002000000FFFEFF195400680069
310
006E0020007700650069006700680074002000670072006100700068006900630020006C0069006E0065007300000000000000FFFEFF052D00520061006900730002000000FFFEFF06520061006900730065006400000000000000FFFEFF052D004F00700065006E0002000000FFFEFF084F00700065006E0069006E006700
310
7300000000000000FFFEFF052D004E0070006C00740002000000FFFEFF204E006F006E002D0070006C006F007400740069006E00670020006700720061007000680069006300200069006E0066006F0072006D006100740069006F006E00000000000000FFFEFF052D00500072006F00660002000000FFFEFF08500072006F
310
00660069006C0065007300000000000000FFFEFF052D005200650066006C0002000000FFFEFF0E5200650066006C0065006300740065006400200050006C0061006E00000000000000FFFEFF052D00460069006E00650002000000FFFEFF19460069006E006500200077006500690067006800740020006700720061007000
310
68006900630020006C0069006E0065007300000000000000FFFEFF052D004100700070006C0002000000FFFEFF0A4100700070006C00690061006E00630065007300000000000000FFFEFF052D00440069006D00730002000000FFFEFF0A440069006D0065006E00730069006F006E007300000000000000FFFEFF052D0050
310
006F007700720002000000FFFEFF0550006F00770065007200000000000000FFFEFF052D0053006C006100620002000000FFFEFF0553006C00610062007300000000000000FFFEFF052D0043006F006E006E0002000000FFFEFF0B43006F006E006E0065006300740069006F006E007300000000000000FFFEFF052D005700
310
61006C006C0002000000FFFEFF05570061006C006C007300000000000000FFFEFF052D004100730073006D0002000000FFFEFF0A41007300730065006D0062006C00690065007300000000000000FFFEFF052D005600680063006C0002000000FFFEFF08560065006800690063006C0065007300000000000000FFFEFF052D
310
0043006F006D006D0002000000FFFEFF1A540065006C006500700068006F006E0065002C00200063006F006D006D0075006E00690063006100740069006F006E0073002000000000000000FFFEFF052D00460072006500650002000000FFFEFF0C46007200650065007300740061006E00640069006E006700000000000000
310
FFFEFF052D00530079006D00620002000000FFFEFF07530079006D0062006F006C007300000000000000FFFEFF052D00520064006D00650002000000FFFEFF1B52006500610064002D006D00650020006C006100790065007200200028006E006F007400200070006C006F0074007400650064002900000000000000FFFEFF
310
052D0053006C006300650002000000FFFEFF0653006C006900630065007300000000000000FFFEFF052D00460061007300630002000000FFFEFF074600610073006300690061007300000000000000FFFEFF052D00460069006C00650002000000FFFEFF0D460069006C006500200063006100620069006E00650074007300
310
000000000000FFFEFF052D004D00610073006B0002000000FFFEFF1241004400540020004D00610073006B0069006E00670020004F0062006A00650063007400000000000000FFFEFF052D004A0061006D00620002000000FFFEFF1544006F006F007200200061006E0064002000770069006E0064006F00770020006A0061
310
006D0062007300000000000000FFFEFF052D005300690067006E0002000000FFFEFF055300690067006E007300000000000000FFFEFF052D0046006E007300680002000000FFFEFF08460069006E0069007300680065007300000000000000FFFEFF052D00530063006800640002000000FFFEFF0953006300680065006400
310
75006C0065007300000000000000FFFEFF052D00500072006800740002000000FFFEFF0E5000610072007400690061006C002000680065006900670068007400000000000000FFFEFF052D00470072007000730002000000FFFEFF06470072006F00750070007300000000000000FFFEFF052D00540068006C006400020000
310
00FFFEFF0A5400680072006500730068006F006C0064007300000000000000FFFEFF052D005300630072006E0002000000FFFEFF14530063007200650065006E006500640020004200610063006B00670072006F0075006E0064007300000000000000FFFEFF052D0043006F006D00700002000000FFFEFF1349006E007400
310
650072006E0061006C00200063006F006D0070006F006E0065006E0074007300000000000000FFFEFF052D005400690074006C0002000000FFFEFF18440072006100770069006E00670020006F0072002000640065007400610069006C0020007400690074006C0065007300000000000000FFFEFF052D0054006500780074
310
0002000000FFFEFF045400650078007400000000000000FFFEFF052D004D00610072006B0002000000FFFEFF1D4D00610072006B006500720073002C00200062007200650061006B0020006D00610072006B0073002C0020006C00650061006400650072007300000000000000FFFEFF052D00460075006C006C0002000000
310
FFFEFF0B460075006C006C002D00680065006900670068007400000000000000FFFEFF052D00450076007400720002000000FFFEFF1B45006C0065007600610074006F00720020006300610072007300200061006E0064002000650071007500690070006D0065006E007400000000000000FFFEFF052D0053007000630065
310
0002000000FFFEFF0553007000610063006500000000000000FFFEFF052D00530075007300700002000000FFFEFF12530075007300700065006E00640065006400200065006C0065006D0065006E0074007300000000000000FFFEFF052D00540065006500730002000000FFFEFF094D00610069006E002000740065006500
310
7300000000000000FFFEFF052D00460069007800740002000000FFFEFF1170006C0075006D00620069006E006700200066006900780074007500720065007300000000000000FFFEFF052D00520065006600720002000000FFFEFF195200650066006500720065006E00630065002C002000650078007400650072006E0061
310
006C002000660069006C0065007300000000000000FFFEFF052D004C00610062006C0002000000FFFEFF064C006100620065006C007300000000000000FFFEFF052D004C0069007400650002000000FFFEFF084C00690067006800740069006E006700000000000000FFFEFF052D00480065007600790002000000FFFEFF1A
310
4800650061007600790020007700650069006700680074002000670072006100700068006900630020006C0069006E0065007300000000000000FFFEFF052D00480065006100640002000000FFFEFF1744006F006F007200200061006E0064002000770069006E0064006F0077002000680065006100640065007200730000
310
0000000000FFFEFF052D004C00650067006E0002000000FFFEFF144C006500670065006E00640073002C002000530079006D0062006F006C0020006B00650079007300000000000000FFFEFF052D004B00650079006E0002000000FFFEFF084B00650079006E006F00740065007300000000000000FFFEFF052D0046006900
310
7800640002000000FFFEFF0F460069007800650064002000650071007500690070006D0065006E007400000000000000FFFEFF052D004C00650076006C0002000000FFFEFF274C006500760065006C0020006300680061006E006700650073002C002000720061006D00700073002C00200070006900740073002C00200064
310
0065007000720065007300730069006F006E007300000000000000FFFEFF052D004D00650064006D0002000000FFFEFF1B4D0065006400690075006D0020007700650069006700680074002000670072006100700068006900630020006C0069006E0065007300000000000000FFFEFF052D0042006C006F00770002000000
310
FFFEFF0E45006C0065006D0065006E00740073002000620065006C006F007700000000000000FFFEFF052D00410063006300730002000000FFFEFF06410063006300650073007300000000000000FFFEFF052D004F0063006300700002000000FFFEFF1A4F00630063007500700061006E00740020006F007200200065006D
310
0070006C006F0079006500650020006E0061006D0065007300000000000000FFFEFF052D00430061007300650002000000FFFEFF08430061007300650077006F0072006B00000000000000FFFEFF052D00520065007600730002000000FFFEFF095200650076006900730069006F006E007300000000000000FFFEFF052D00
310
420072006300650002000000FFFEFF06420072006100630065007300000000000000FFFEFF052D00480069006400650002000000FFFEFF0E480069006400640065006E0020006F0062006A006500630074007300000000000000FFFEFF052D0043006C006E00670002000000FFFEFF074300650069006C0069006E00670000
310
0000000000FFFEFF052D005500740069006C0002000000FFFEFF095500740069006C0069007400690065007300000000000000FFFEFF052D00500061007400740002000000FFFEFF19540065007800740075007200650020006F00720020006800610074006300680020007000610074007400650072006E00730000000000
310
0000FFFEFF052D00430061007600690002000000FFFEFF06430061007600690074007900000000000000FFFEFF052D0050006C006E00740002000000FFFEFF0650006C0061006E0074007300000000000000FFFEFF052D00530074007200730002000000FFFEFF215300740061006900720020007400720065006100640073
310
002C00200065007300630061006C00610074006F00720073002C0020006C00610064006400650072007300000000000000FFFEFF052D00520065007600630002000000FFFEFF0F5200650076006900730069006F006E00200063006C006F00750064007300000000000000FFFEFF052D004D006F007600650002000000FFFE
310
FF124D006F0076006500610062006C0065002000650071007500690070006D0065006E007400000000000000FFFEFF052D005000650070006C0002000000FFFEFF06500065006F0070006C006500000000000000FFFEFF052D00440065006D006F0002000000FFFEFF0A440065006D006F006C006900740069006F006E0000
310
0000000000FFFEFF052D00430075007200740002000000FFFEFF0C4300750072007400610069006E002000570061006C006C00000000000000FFFEFF052D005700640077006B0002000000FFFEFF164100720063006800690074006500630074007500720061006C00200077006F006F00640077006F0072006B0000000000
310
0000FFFEFF052D004E006F007400650002000000FFFEFF054E006F00740065007300000000000000FFFEFF052D004F0076006800640002000000FFFEFF084F007600650072006800650061006400000000000000FFFEFF052D00530075006200740002000000FFFEFF14530075006200740072006100630074006900760065
310
00200065006C0065006D0065006E0074007300000000000000FFFEFF052D00530044004600460002000000FFFEFF1053007500700070006C0079002000640069006600660075007300650072007300000000000000FFFEFF052D00530074006F00720002000000FFFEFF19530079007300740065006D002000730074006F00
310
7200610067006500200063006F006D0070006F006E0065006E0074007300000000000000FFFEFF052D004900640065006E0002000000FFFEFF134900640065006E00740069006600690063006100740069006F006E0020005400610067007300000000000000FFFEFF052D004800720061006C0002000000FFFEFF16480061
310
006E0064007200610069006C0073002C0020006700750061007200640020007200610069006C007300000000000000FFFEFF052D00570069006400650002000000FFFEFF19570069006400650020007700650069006700680074002000670072006100700068006900630020006C0069006E0065007300000000000000FFFE
310
FF052D004D0061007300730002000000FFFEFF104D0061007300730069006E006700200045006C0065006D0065006E0074007300000000000000FFFEFF052D004C0069006E00650002000000FFFEFF0D44006500660069006E0069006E00670020004C0069006E006500000000000000FFFEFF052D00560069006500770002
310
000000FFFEFF13560069006500770070006F0072007400200044006500660069006E006900740069006F006E00000000000000FFFEFF052D0050006B006E00670002000000FFFEFF075000610072006B0069006E006700000000000000FFFEFF052D00520044004600460002000000FFFEFF14520065007400750072006E00
310
20006100690072002000640069006600660075007300650072007300000000000000FFFEFF052D00530065006100740002000000FFFEFF07530065006100740069006E006700000000000000FFFEFF052D0050006E006C00730002000000FFFEFF0D530079007300740065006D002000700061006E0065006C007300000000
310
000000FFFEFF052D004D0061007400630002000000FFFEFF0B4D00610074006300680020006C0069006E0065007300000000000000FFFEFF052D00410064007400760002000000FFFEFF1141006400640069007400690076006500200065006C0065006D0065006E0074007300000000000000FFFEFF052D00430068006100
310
730002000000FFFEFF0543006800610073006500000000000000FFFEFF052D005300700063006C0002000000FFFEFF0B5300700065006300690061006C007400690065007300000000000000FFFEFF052D00470072006900640002000000FFFEFF044700720069006400000000000000FFFEFF052D004E00690063006E0002
310
000000FFFEFF0F4E006F007400200069006E00200063006F006E0074007200610063007400000000000000FFFEFF052D004D0063007500740002000000FFFEFF164D00610069006E00200063007500740020006C0069006E006500200065006C0065006D0065006E0074007300000000000000FFFEFF052D00460069007200
310
650002000000FFFEFF0A46006900720065002000770061006C006C007300000000000000FFFEFF052D00530069006C006C0002000000FFFEFF0C570069006E0064006F0077002000730069006C006C007300000000000000FFFEFF052D005400700074006E0002000000FFFEFF1154006F0069006C00650074002000700061
310
00720074006900740069006F006E007300000000000000FFFEFF052D00520069007300720002000000FFFEFF0C530074006100690072002000720069007300650072007300000000000000FFFEFF052D004F0074006C006E0002000000FFFEFF074F00750074006C0069006E006500000000000000FFFEFF052D0054007400
310
6C00620002000000FFFEFF1642006F007200640065007200200061006E00640020007400690074006C006500200062006C006F0063006B000000000000000180FFFEFF074D0069006E006F0072002000320005000000004164642062656C6F77207468652073656C6563746564206974656DFFFEFF001600FFFEFF052D0041
310
0062006F00760002000000FFFEFF0E45006C0065006D0065006E00740073002000610062006F0076006500000000000000FFFEFF052D00420064007200790002000000FFFEFF0D4500640067006500200062006F0075006E006400610072007900000000000000FFFEFF052D005400680069006E0002000000FFFEFF0E4D00
310
69006E006F00720020006C0069006E00650077006F0072006B00000000000000FFFEFF052D004E0070006C00740002000000FFFEFF154E006F006E002D0070006C006F007400740069006E006700200065006C0065006D0065006E0074007300000000000000FFFEFF052D005200650066006C0002000000FFFEFF0F520065
310
0066006C0065006300740065006400200050006C0061006E007300000000000000FFFEFF052D00440069006D00730002000000FFFEFF0A440069006D0065006E00730069006F006E007300000000000000FFFEFF052D005300630061006C0002000000FFFEFF10470072006100700068006900630061006C00200053006300
310
61006C0065007300000000000000FFFEFF052D0053006C006300650002000000FFFEFF0653006C006900630065007300000000000000FFFEFF052D0047006C0061007A0002000000FFFEFF0747006C0061007A0069006E006700000000000000FFFEFF052D00460061007300630002000000FFFEFF06460061007300630069
310
006100000000000000FFFEFF052D00470072007000730002000000FFFEFF06470072006F00750070007300000000000000FFFEFF052D005400690074006C0002000000FFFEFF065400690074006C0065007300000000000000FFFEFF052D00530066006900740002000000FFFEFF0653006F00660066006900740000000000
310
0000FFFEFF052D00500061007400740002000000FFFEFF0E4800610074006300680020007000610074007400650072006E007300000000000000FFFEFF052D00480069006400650002000000FFFEFF0F480069006400640065006E00200065006C0065006D0065006E0074007300000000000000FFFEFF052D004E006F0074
310
00650002000000FFFEFF16470065006E006500720061006C0020005400650078007400200061006E00640020004E006F00740065007300000000000000FFFEFF052D0055006E006900740002000000FFFEFF0455006E0069007400000000000000FFFEFF052D004900640065006E0002000000FFFEFF0A4900640065006E00
310
740069006600690065007200000000000000FFFEFF052D004C0069006E00650002000000FFFEFF10470065006E006500720061006C0020006C0069006E00650077006F0072006B00000000000000FFFEFF052D00530069006C006C0002000000FFFEFF05530069006C006C007300000000000000FFFEFF052D005200690073
310
00720002000000FFFEFF06520069007300650072007300000000000000FFFEFF052D004F0074006C006E0002000000FFFEFF074F00750074006C0069006E0065000000000000000180FFFEFF06530074006100740075007300060000000000000000A434770470040000B10000005073770400000000050000FFFEFF000F00
310
FFFEFF022D00310002000000FFFEFF075000680061007300650020003100000000000000FFFEFF022D00320002000000FFFEFF075000680061007300650020003200000000000000FFFEFF022D00540002000000FFFEFF0E540065006D0070006F007200610072007900200077006F0072006B00000000000000FFFEFF022D
310
00330002000000FFFEFF075000680061007300650020003300000000000000FFFEFF022D00440002000000FFFEFF144500780069007300740069006E006700200074006F002000640065006D006F006C00690073006800000000000000FFFEFF022D00340002000000FFFEFF07500068006100730065002000340000000000
310
0000FFFEFF022D00450002000000FFFEFF124500780069007300740069006E006700200074006F002000720065006D00610069006E00000000000000FFFEFF022D00350002000000FFFEFF075000680061007300650020003500000000000000FFFEFF022D00460002000000FFFEFF0B460075007400750072006500200077
310
006F0072006B00000000000000FFFEFF022D00360002000000FFFEFF075000680061007300650020003600000000000000FFFEFF022D00370002000000FFFEFF075000680061007300650020003700000000000000FFFEFF022D00380002000000FFFEFF075000680061007300650020003800000000000000FFFEFF022D00
310
390002000000FFFEFF075000680061007300650020003900000000000000FFFEFF022D004D0002000000FFFEFF114900740065006D007300200074006F0020006200650020006D006F00760065006400000000000000FFFEFF022D004E0002000000FFFEFF084E0065007700200077006F0072006B000000000000000600FF
310
FF04001A004163416563556B4C61796572436F6D706F6E656E744669656C64FFFEFF174400690073006300690070006C0069006E0065002000440065007300690067006E00610074006F0072002000310001000000FFFEFF0440002C0040004000000000000100000000FFFEFF014100000000000780FFFEFF174400690073
310
006300690070006C0069006E0065002000440065007300690067006E00610074006F0072002000320001000000FFFEFF0440002C0040004000010000000100000000FFFEFF014400000000000780FFFEFF054D0061006A006F00720005000000FFFEFF052D00400040004000400000000000010000002DFFFEFF052D005700
310
61006C006C00000000000780FFFEFF064D0069006E006F007200310005000000FFFEFF022D002A0001000000010000002DFFFEFF052D004900640065006E00000000000780FFFEFF064D0069006E006F007200320005000000FFFEFF022D002A0001000000010000002DFFFEFF052D005400650078007400000000000780FF
310
FEFF0653007400610074007500730002000000FFFEFF022D002A0001000000010000002DFFFEFF022D004E0000000000050000010203040500FFFEFF00FFFEFF0320002D002000FFFEFF022C002000FFFEFF012000FFFEFF0320002D002000FFFEFF00
  0
DICTIONARY
  5
3D98
330
3D97
100
AcDbDictionary
280
     1
281
     1
  3
AcadLayerStateAnnoScale
360
3D99
  0
DICTIONARY
  5
3D8C
330
3D8B
100
AcDbDictionary
280
     1
281
     1
  3
AcadLayerStateAnnoScale
360
3D8D
  0
DICTIONARY
  5
FFBA
330
FFB9
100
AcDbDictionary
280
     1
281
     1
  3
AcadLayerStateAnnoScale
360
FFBB
  0
DICTIONARY
  5
FFBD
330
FFBC
100
AcDbDictionary
280
     1
281
     1
  3
AcadLayerStateAnnoScale
360
FFBE
  0
DICTIONARY
  5
F6CC
330
F6CB
100
AcDbDictionary
280
     1
281
     1
  3
AcadLayerStateAnnoScale
360
F6CD
  0
DICTIONARY
  5
F6CF
330
F6CE
100
AcDbDictionary
280
     1
281
     1
  3
AcadLayerStateAnnoScale
360
F6D0
  0
DICTIONARY
  5
F973
102
{ACAD_REACTORS
330
F972
102
}
330
F972
100
AcDbDictionary
280
     1
281
     1
  3
1
360
F974
  3
8
360
F975
  0
ACDB_BLKREFOBJECTCONTEXTDATA_CLASS
  5
F978
102
{ACAD_REACTORS
330
F977
102
}
330
F977
100
AcDbObjectContextData
 70
     3
290
     1
100
AcDbAnnotScaleObjectContextData
340
A73
 50
90.0
 10
158.6525489163625
 20
226.8468684594246
 30
0.0
 41
2.0
 42
2.0
 43
2.0
  0
CELLSTYLEMAP
  5
101B6
102
{ACAD_REACTORS
330
30E
102
}
330
30E
100
AcDbCellStyleMap
 90
        3
300
CELLSTYLE
  1
TABLEFORMAT_BEGIN
 90
        5
170
     1
 91
        0
 92
    32768
 62
   257
 93
        1
300
CONTENTFORMAT
  1
CONTENTFORMAT_BEGIN
 90
        0
 91
        0
 92
      512
 93
        0
300

 40
0.0
140
1.0
 94
        5
 62
     0
340
11
144
0.25
309
CONTENTFORMAT_END
171
     0
 94
        6
 95
        1
302
GRIDFORMAT
  1
GRIDFORMAT_BEGIN
 90
        0
 91
        1
 62
     0
 92
       -2
340
0
 93
        0
 40
0.045
309
GRIDFORMAT_END
 95
        2
302
GRIDFORMAT
  1
GRIDFORMAT_BEGIN
 90
        0
 91
        1
 62
     0
 92
       -2
340
0
 93
        0
 40
0.045
309
GRIDFORMAT_END
 95
        4
302
GRIDFORMAT
  1
GRIDFORMAT_BEGIN
 90
        0
 91
        1
 62
     0
 92
       -2
340
0
 93
        0
 40
0.045
309
GRIDFORMAT_END
 95
        8
302
GRIDFORMAT
  1
GRIDFORMAT_BEGIN
 90
        0
 91
        1
 62
     0
 92
       -2
340
0
 93
        0
 40
0.045
309
GRIDFORMAT_END
 95
       16
302
GRIDFORMAT
  1
GRIDFORMAT_BEGIN
 90
        0
 91
        1
 62
     0
 92
       -2
340
0
 93
        0
 40
0.045
309
GRIDFORMAT_END
 95
       32
302
GRIDFORMAT
  1
GRIDFORMAT_BEGIN
 90
        0
 91
        1
 62
     0
 92
       -2
340
0
 93
        0
 40
0.045
309
GRIDFORMAT_END
309
TABLEFORMAT_END
  1
CELLSTYLE_BEGIN
 90
        1
 91
        1
300
_TITLE
309
CELLSTYLE_END
300
CELLSTYLE
  1
TABLEFORMAT_BEGIN
 90
        5
170
     1
 91
        0
 92
        0
 62
   257
 93
        1
300
CONTENTFORMAT
  1
CONTENTFORMAT_BEGIN
 90
        0
 91
        0
 92
      512
 93
        0
300

 40
0.0
140
1.0
 94
        5
 62
     0
340
11
144
0.18
309
CONTENTFORMAT_END
171
     0
 94
        6
 95
        1
302
GRIDFORMAT
  1
GRIDFORMAT_BEGIN
 90
        0
 91
        1
 62
     0
 92
       -2
340
0
 93
        0
 40
0.045
309
GRIDFORMAT_END
 95
        2
302
GRIDFORMAT
  1
GRIDFORMAT_BEGIN
 90
        0
 91
        1
 62
     0
 92
       -2
340
0
 93
        0
 40
0.045
309
GRIDFORMAT_END
 95
        4
302
GRIDFORMAT
  1
GRIDFORMAT_BEGIN
 90
        0
 91
        1
 62
     0
 92
       -2
340
0
 93
        0
 40
0.045
309
GRIDFORMAT_END
 95
        8
302
GRIDFORMAT
  1
GRIDFORMAT_BEGIN
 90
        0
 91
        1
 62
     0
 92
       -2
340
0
 93
        0
 40
0.045
309
GRIDFORMAT_END
 95
       16
302
GRIDFORMAT
  1
GRIDFORMAT_BEGIN
 90
        0
 91
        1
 62
     0
 92
       -2
340
0
 93
        0
 40
0.045
309
GRIDFORMAT_END
 95
       32
302
GRIDFORMAT
  1
GRIDFORMAT_BEGIN
 90
        0
 91
        1
 62
     0
 92
       -2
340
0
 93
        0
 40
0.045
309
GRIDFORMAT_END
309
TABLEFORMAT_END
  1
CELLSTYLE_BEGIN
 90
        2
 91
        1
300
_HEADER
309
CELLSTYLE_END
300
CELLSTYLE
  1
TABLEFORMAT_BEGIN
 90
        5
170
     1
 91
        0
 92
        0
 62
   257
 93
        1
300
CONTENTFORMAT
  1
CONTENTFORMAT_BEGIN
 90
        0
 91
        0
 92
      512
 93
        0
300

 40
0.0
140
1.0
 94
        2
 62
     0
340
11
144
0.18
309
CONTENTFORMAT_END
171
     0
 94
        6
 95
        1
302
GRIDFORMAT
  1
GRIDFORMAT_BEGIN
 90
        0
 91
        1
 62
     0
 92
       -2
340
0
 93
        0
 40
0.045
309
GRIDFORMAT_END
 95
        2
302
GRIDFORMAT
  1
GRIDFORMAT_BEGIN
 90
        0
 91
        1
 62
     0
 92
       -2
340
0
 93
        0
 40
0.045
309
GRIDFORMAT_END
 95
        4
302
GRIDFORMAT
  1
GRIDFORMAT_BEGIN
 90
        0
 91
        1
 62
     0
 92
       -2
340
0
 93
        0
 40
0.045
309
GRIDFORMAT_END
 95
        8
302
GRIDFORMAT
  1
GRIDFORMAT_BEGIN
 90
        0
 91
        1
 62
     0
 92
       -2
340
0
 93
        0
 40
0.045
309
GRIDFORMAT_END
 95
       16
302
GRIDFORMAT
  1
GRIDFORMAT_BEGIN
 90
        0
 91
        1
 62
     0
 92
       -2
340
0
 93
        0
 40
0.045
309
GRIDFORMAT_END
 95
       32
302
GRIDFORMAT
  1
GRIDFORMAT_BEGIN
 90
        0
 91
        1
 62
     0
 92
       -2
340
0
 93
        0
 40
0.045
309
GRIDFORMAT_END
309
TABLEFORMAT_END
  1
CELLSTYLE_BEGIN
 90
        3
 91
        2
300
_DATA
309
CELLSTYLE_END
  0
XRECORD
  5
812
102
{ACAD_REACTORS
330
811
102
}
330
811
100
AcDbXrecord
280
     1
 90
        2
  0
XRECORD
  5
3D99
102
{ACAD_REACTORS
330
3D98
102
}
330
3D98
100
AcDbXrecord
280
     1
330
2A2
  0
XRECORD
  5
3D8D
102
{ACAD_REACTORS
330
3D8C
102
}
330
3D8C
100
AcDbXrecord
280
     1
330
2A2
  0
XRECORD
  5
FFBB
102
{ACAD_REACTORS
330
FFBA
102
}
330
FFBA
100
AcDbXrecord
280
     1
330
2A2
  0
XRECORD
  5
FFBE
102
{ACAD_REACTORS
330
FFBD
102
}
330
FFBD
100
AcDbXrecord
280
     1
330
2A2
  0
XRECORD
  5
F6CD
102
{ACAD_REACTORS
330
F6CC
102
}
330
F6CC
100
AcDbXrecord
280
     1
330
2A2
  0
XRECORD
  5
F6D0
102
{ACAD_REACTORS
330
F6CF
102
}
330
F6CF
100
AcDbXrecord
280
     1
330
2A2
  0
XRECORD
  5
F974
102
{ACAD_REACTORS
330
F973
102
}
330
F973
100
AcDbXrecord
280
     1
1071
 18597260
1071
 25303744
 70
    25
 70
   104
 10
0.0
 20
0.0
 30
0.0
 10
0.0
 20
48.60076323506291
 30
0.0
 10
0.0
 20
0.0
 30
-1.0
  0
XRECORD
  5
F975
102
{ACAD_REACTORS
330
F973
102
}
330
F973
100
AcDbXrecord
280
     1
1071
  6895636
1071
  9291323
 70
    25
 70
   104
 40
0.0
  0
ENDSEC
  0
EOF
