999
DXF file: 104-100-80-45_reducing_junction.dxf
999
Pro/ENGINEER 2006320 by Parametric Technology Corporation
  0
SECTION
  2
HEADER
  9
$EXTMAX
 10
420.0
 20
297.0
 30
0.0
  9
$EXTMIN
 10
0.0
 20
0.0
 30
0.0
  9
$LIMMIN
 10
0.0
 20
0.0
  9
$LIMMAX
 10
420.0
 20
297.0
  9
$VIEWCTR
 10
210.0
 20
148.5
  9
$VIEWSIZE
 40
297.0
  9
$CLAYER
  8
0
  9
$LTSCALE
 40
23.1
  9
$CELTYPE
  6
BYLAYER
  9
$DIMSCALE
 40
1.0
  9
$DIMASZ
 40
3.0
  9
$DIMEXO
 40
2.625
  9
$DIMDLI
 40
15.96
  9
$DIMEXE
 40
7.56
  9
$DIMCEN
 40
3.78
  9
$DIMLFAC
 40
1.0
  9
$DIMBLK
  1
_FILLED
  9
$DIMTXT
 40
3.0
  9
$PDMODE
 70
3
  9
$PDSIZE
 40
0.3125
  0
ENDSEC
  0
SECTION
  2
TABLES
  0
TABLE
  2
LTYPE
 70
6
  0
LTYPE
  2
BYBLOCK
 70
0
  3

 72
65
 73
0
 40
0.0
  0
LTYPE
  2
BYLAYER
 70
0
  3

 72
65
 73
0
 40
0.0
  0
LTYPE
  2
CONTINUOUS
 70
64
  3
Solid line
 72
65
 73
0
 40
0.0
  0
LTYPE
  2
CENTER
 70
64
  3
____ _ ____ _ ____ _ ____ _ ____ _ ____ _ ____
 72
65
 73
4
 40
0.6
 49
0.375
 49
-0.075
 49
0.075
 49
-0.075
  0
LTYPE
  2
HIDDEN
 70
64
  3
- - - - - - - - - - - - - - - - - - - -
 72
65
 73
2
 40
0.2
 49
0.1
 49
-0.1
  0
LTYPE
  2
PHANTOM
 70
64
  3
_____ _ _ _____ _ _ _____ _ _ _____
 72
65
 73
6
 40
0.8
 49
0.45
 49
-0.05
 49
0.1
 49
-0.05
 49
0.1
 49
-0.05
  0
LTYPE
  2
DOT
 70
64
  3
. . . . . . . . . . . . . . . . . . . .
 72
65
 73
2
 40
0.2
 49
0.1
 49
-0.1
  0
LTYPE
  2
DASHED
 70
64
  3
- - - - - - - - - - - - - - - - - - - -
 72
65
 73
2
 40
0.2
 49
0.1
 49
-0.1
  0
ENDTAB
  0
TABLE
  2
LAYER
 70
36
  0
LAYER
  2
0
 70
0
 62
7
  6
CONTINUOUS
  0
LAYER
  2
DEFAULT_1
 70
0
 62
7
  6
CENTER
  0
LAYER
  2
DEFAULT_2
 70
0
 62
8
  6
HIDDEN
  0
LAYER
  2
DEFAULT_3
 70
0
 62
7
  6
PHANTOM
  0
LAYER
  2
01___PRT_ALL_DTM_PLN
 70
0
 62
7
  6
CONTINUOUS
  0
LAYER
  2
01___PRT_DEF_DTM_PLN
 70
0
 62
7
  6
CONTINUOUS
  0
LAYER
  2
02___PRT_ALL_AXES
 70
0
 62
7
  6
CONTINUOUS
  0
LAYER
  2
03___PRT_ALL_CURVES
 70
0
 62
7
  6
CONTINUOUS
  0
LAYER
  2
04___PRT_ALL_DTM_PNT
 70
0
 62
7
  6
CONTINUOUS
  0
LAYER
  2
05___PRT_ALL_DTM_CSYS
 70
0
 62
7
  6
CONTINUOUS
  0
LAYER
  2
05___PRT_DEF_DTM_CSYS
 70
0
 62
7
  6
CONTINUOUS
  0
LAYER
  2
06___PRT_ALL_SURFS
 70
0
 62
7
  6
CONTINUOUS
  0
LAYER
  2
CURVES
 70
0
 62
7
  6
CONTINUOUS
  0
ENDTAB
  0
TABLE
  2
STYLE
 70
1
  0
STYLE
  2
STANDARD
 70
0
 40
0.0
 41
0.6
 50
0.0
 71
0
 42
0.2
  3
txt
  4

  0
ENDTAB
  0
ENDSEC
  0
SECTION
  2
BLOCKS
  0
BLOCK
  8
0
 62
7
  6
CONTINUOUS
  2
*D0
 70
65
 10
0.0
 20
0.0
  0
TEXT
  8
0
 62
7
  6
CONTINUOUS
 10
64.0349180382
 20
151.1337486744
  7
STANDARD
 40
3.0
  1
266
 41
0.6
 72
0
  0
LINE
  8
0
 62
7
  6
CONTINUOUS
 10
96.3536458014
 20
285.6337486744
 11
63.7349180382
 21
285.6337486744
  0
LINE
  8
0
 62
7
  6
CONTINUOUS
 10
97.4627135536
 20
19.6337486744
 11
63.7349180382
 21
19.6337486744
  0
LINE
  8
0
 62
7
  6
CONTINUOUS
 10
66.7349180382
 20
285.6337486744
 11
66.7349180382
 21
155.6337486744
  0
LINE
  8
0
 62
7
  6
CONTINUOUS
 10
66.7349180382
 20
19.6337486744
 11
66.7349180382
 21
149.6337486744
  0
INSERT
  8
0
 62
7
  6
CONTINUOUS
  2
_FILLED
 10
66.7349180382
 20
285.6337486744
 41
3.0
 42
3.0
 43
3.0
 50
90.0
  0
INSERT
  8
0
 62
7
  6
CONTINUOUS
  2
_FILLED
 10
66.7349180382
 20
19.6337486744
 41
3.0
 42
3.0
 43
3.0
 50
270.0
  0
ENDBLK
  8
0
  6
BYBLOCK
 62
0
  0
BLOCK
  8
0
 62
7
  6
CONTINUOUS
  2
*D1
 70
65
 10
0.0
 20
0.0
  0
TEXT
  8
0
 62
7
  6
CONTINUOUS
 10
248.0003323356
 20
54.6723244404
  7
STANDARD
 40
3.0
  1
73
 41
0.6
 72
0
  0
LINE
  8
0
 62
7
  6
CONTINUOUS
 10
218.4627135536
 20
19.6337486744
 11
252.8003323356
 21
19.6337486744
  0
LINE
  8
0
 62
7
  6
CONTINUOUS
 10
214.4627135536
 20
92.7109002063
 11
252.8003323356
 21
92.7109002063
  0
LINE
  8
0
 62
7
  6
CONTINUOUS
 10
249.8003323356
 20
19.6337486744
 11
249.8003323356
 21
53.1723244404
  0
LINE
  8
0
 62
7
  6
CONTINUOUS
 10
249.8003323356
 20
92.7109002063
 11
249.8003323356
 21
59.1723244404
  0
INSERT
  8
0
 62
7
  6
CONTINUOUS
  2
_FILLED
 10
249.8003323356
 20
19.6337486744
 41
3.0
 42
3.0
 43
3.0
 50
270.0
  0
INSERT
  8
0
 62
7
  6
CONTINUOUS
  2
_FILLED
 10
249.8003323356
 20
92.7109002063
 41
3.0
 42
3.0
 43
3.0
 50
90.0
  0
ENDBLK
  8
0
  6
BYBLOCK
 62
0
  0
BLOCK
  8
0
 62
7
  6
CONTINUOUS
  2
*D2
 70
65
 10
0.0
 20
0.0
  0
TEXT
  8
0
 62
7
  6
CONTINUOUS
 10
200.1304943648
 20
8.5908535814
  7
STANDARD
 40
3.0
  1
208
 41
0.6
 72
0
  0
LINE
  8
0
 62
7
  6
CONTINUOUS
 10
98.9627135536
 20
18.1337486744
 11
98.9627135536
 21
7.0908535814
  0
LINE
  8
0
 62
7
  6
CONTINUOUS
 10
306.6982751759
 20
178.6958524567
 11
306.6982751759
 21
7.0908535814
  0
LINE
  8
0
 62
7
  6
CONTINUOUS
 10
98.9627135536
 20
10.0908535814
 11
198.6304943648
 21
10.0908535814
  0
LINE
  8
0
 62
7
  6
CONTINUOUS
 10
306.6982751759
 20
10.0908535814
 11
207.0304943648
 21
10.0908535814
  0
INSERT
  8
0
 62
7
  6
CONTINUOUS
  2
_FILLED
 10
98.9627135536
 20
10.0908535814
 41
3.0
 42
3.0
 43
3.0
 50
180.0
  0
INSERT
  8
0
 62
7
  6
CONTINUOUS
  2
_FILLED
 10
306.6982751759
 20
10.0908535814
 41
3.0
 42
3.0
 43
3.0
 50
360.0
  0
ENDBLK
  8
0
  6
BYBLOCK
 62
0
  0
BLOCK
  8
0
 62
7
  6
CONTINUOUS
  2
*D3
 70
65
 10
0.0
 20
0.0
  0
TEXT
  8
0
 62
7
  6
CONTINUOUS
 10
155.2627135536
 20
12.7433589608
  7
STANDARD
 40
3.0
  1
118
 41
0.6
 72
0
  0
LINE
  8
0
 62
7
  6
CONTINUOUS
 10
98.9627135536
 20
18.1337486744
 11
98.9627135536
 21
11.2433589608
  0
LINE
  8
0
 62
7
  6
CONTINUOUS
 10
216.9627135536
 20
18.1337486744
 11
216.9627135536
 21
11.2433589608
  0
LINE
  8
0
 62
7
  6
CONTINUOUS
 10
98.9627135536
 20
14.2433589608
 11
153.7627135536
 21
14.2433589608
  0
LINE
  8
0
 62
7
  6
CONTINUOUS
 10
216.9627135536
 20
14.2433589608
 11
162.1627135536
 21
14.2433589608
  0
INSERT
  8
0
 62
7
  6
CONTINUOUS
  2
_FILLED
 10
98.9627135536
 20
14.2433589608
 41
3.0
 42
3.0
 43
3.0
 50
180.0
  0
INSERT
  8
0
 62
7
  6
CONTINUOUS
  2
_FILLED
 10
216.9627135536
 20
14.2433589608
 41
3.0
 42
3.0
 43
3.0
  0
ENDBLK
  8
0
  6
BYBLOCK
 62
0
  0
BLOCK
  8
0
 62
7
  6
CONTINUOUS
  2
*D4
 70
65
 10
0.0
 20
0.0
  0
TEXT
  8
0
 62
7
  6
CONTINUOUS
 10
286.2473938735
 20
224.9854433647
  7
STANDARD
 40
3.0
  1
92
 41
0.6
 72
0
  0
LINE
  8
0
 62
7
  6
CONTINUOUS
 10
307.7589353477
 20
181.2565126285
 11
322.6389503222
 21
196.136527603
  0
LINE
  8
0
 62
7
  6
CONTINUOUS
 10
242.8184631373
 20
246.1969848388
 11
257.6984781119
 21
261.0769998134
  0
LINE
  8
0
 62
7
  6
CONTINUOUS
 10
320.5176299787
 20
194.0152072595
 11
291.0473938735
 21
223.4854433647
  0
LINE
  8
0
 62
7
  6
CONTINUOUS
 10
255.5771577683
 20
258.9556794699
 11
285.0473938735
 21
229.4854433647
  0
INSERT
  8
0
 62
7
  6
CONTINUOUS
  2
_FILLED
 10
320.5176299787
 20
194.0152072595
 41
3.0
 42
3.0
 43
3.0
 50
315.0
  0
INSERT
  8
0
 62
7
  6
CONTINUOUS
  2
_FILLED
 10
255.5771577683
 20
258.9556794699
 41
3.0
 42
3.0
 43
3.0
 50
135.0
  0
ENDBLK
  8
0
  6
BYBLOCK
 62
0
  0
BLOCK
  8
0
 62
7
  6
CONTINUOUS
  2
*D5
 70
65
 10
0.0
 20
0.0
  0
TEXT
  8
0
 62
7
  6
CONTINUOUS
 10
196.2448647876
 20
194.0818497253
  7
STANDARD
 40
3.0
  1
45%%d
 41
0.6222222222
 72
0
  0
LINE
  8
0
 62
7
  6
CONTINUOUS
 10
159.0233737254
 20
97.4614232166
 11
235.9939512504
 21
174.4320007416
  0
LINE
  8
0
 62
7
  6
CONTINUOUS
 10
157.9627135536
 20
97.9007630448
 11
157.9627135536
 21
206.7535976843
  0
ARC
  8
0
 62
7
  6
CONTINUOUS
 10
157.9627135536
 20
96.4007630448
 40
107.3528346395
 50
45.0
 51
64.9924131885
  0
ARC
  8
0
 62
7
  6
CONTINUOUS
 10
157.9627135536
 20
96.4007630448
 40
107.3528346395
 50
69.962896376
 51
90.0
  0
SOLID
  8
0
 62
7
  6
CONTINUOUS
 10
231.1990097458
 20
173.8644660612
 11
233.8726309068
 21
172.310680398
 12
232.2447466651
 22
174.9398424119
 13
232.2447466651
 23
174.9398424119
  0
SOLID
  8
0
 62
7
  6
CONTINUOUS
 10
160.9728998288
 20
204.4616079869
 11
157.9627135536
 21
203.7535976843
 12
160.9519415859
 22
202.96175441
 13
160.9519415859
 23
202.96175441
  0
ENDBLK
  8
0
  6
BYBLOCK
 62
0
  0
BLOCK
  8
0
 62
7
  6
CONTINUOUS
  2
*D6
 70
65
 10
0.0
 20
0.0
  0
TEXT
  8
0
 62
7
  6
CONTINUOUS
 10
331.1156059838
 20
114.6499186182
  7
STANDARD
 40
3.0
  1
193
 41
0.6
 72
0
  0
LINE
  8
0
 62
7
  6
CONTINUOUS
 10
218.4627135536
 20
19.6337486744
 11
336.8156059838
 21
19.6337486744
  0
LINE
  8
0
 62
7
  6
CONTINUOUS
 10
275.7280390707
 20
212.6660885619
 11
336.8156059838
 21
212.6660885619
  0
LINE
  8
0
 62
7
  6
CONTINUOUS
 10
333.8156059838
 20
19.6337486744
 11
333.8156059838
 21
113.1499186182
  0
LINE
  8
0
 62
7
  6
CONTINUOUS
 10
333.8156059838
 20
212.6660885619
 11
333.8156059838
 21
119.1499186182
  0
INSERT
  8
0
 62
7
  6
CONTINUOUS
  2
_FILLED
 10
333.8156059838
 20
19.6337486744
 41
3.0
 42
3.0
 43
3.0
 50
270.0
  0
INSERT
  8
0
 62
7
  6
CONTINUOUS
  2
_FILLED
 10
333.8156059838
 20
212.6660885619
 41
3.0
 42
3.0
 43
3.0
 50
90.0
  0
ENDBLK
  8
0
  6
BYBLOCK
 62
0
  0
BLOCK
  8
0
  2
_FILLED
 70
64
 10
0.0
 20
0.0
  0
SOLID
  8
0
  6
BYBLOCK
 62
0
 10
0.0
 20
0.0
 11
-1.0
 21
0.25
 12
-1.0
 22
-0.25
 13
-1.0
 23
-0.25
  0
ENDBLK
  8
0
  6
BYBLOCK
 62
0
  0
ENDSEC
  0
SECTION
  2
ENTITIES
  0
DIMENSION
  8
0
 62
7
  6
CONTINUOUS
  2
*D0
 10
66.7349180382
 20
19.6337486744
 11
66.7349180382
 21
152.6337486744
 70
128
 13
96.3536458014
 23
285.6337486744
 14
97.4627135536
 24
19.6337486744
 50
270.0
  0
DIMENSION
  8
0
 62
7
  6
CONTINUOUS
  2
*D1
 10
249.8003323356
 20
92.7109002063
 11
249.8003323356
 21
56.1723244404
 70
128
 13
218.4627135536
 23
19.6337486744
 14
214.4627135536
 24
92.7109002063
 50
90.0
  0
DIMENSION
  8
0
 62
7
  6
CONTINUOUS
  2
*D2
 10
306.6982751759
 20
10.0908535814
 11
202.8304943648
 21
10.0908535814
 70
128
 13
98.9627135536
 23
18.1337486744
 14
306.6982751759
 24
178.6958524567
  0
DIMENSION
  8
0
 62
7
  6
CONTINUOUS
  2
*D3
 10
216.9627135536
 20
14.2433589608
 11
157.9627135536
 21
14.2433589608
 70
128
 13
98.9627135536
 23
18.1337486744
 14
216.9627135536
 24
18.1337486744
  0
DIMENSION
  8
0
 62
7
  6
CONTINUOUS
  2
*D4
 10
255.5771577683
 20
258.9556794699
 11
288.0473938735
 21
226.4854433647
 70
128
 13
307.7589353477
 23
181.2565126285
 14
242.8184631373
 24
246.1969848388
 50
135.0
  0
DIMENSION
  8
0
 62
7
  6
CONTINUOUS
  2
*D5
 10
157.9627135536
 20
97.9007630448
 11
199.0448647876
 21
195.5818497253
 70
130
 13
159.0233737254
 23
97.4614232166
 14
235.9939512504
 24
174.4320007416
 15
157.9627135536
 25
206.7535976843
 16
199.0448647876
 26
195.5818497253
  0
DIMENSION
  8
0
 62
7
  6
CONTINUOUS
  2
*D6
 10
333.8156059838
 20
212.6660885619
 11
333.8156059838
 21
116.1499186182
 70
128
 13
218.4627135536
 23
19.6337486744
 14
275.7280390707
 24
212.6660885619
 50
90.0
  0
LINE
  8
0
 62
7
  6
CONTINUOUS
 10
0.0
 20
0.0
 11
0.0
 21
297.0
  0
LINE
  8
0
 62
7
  6
CONTINUOUS
 10
0.0
 20
0.0
 11
420.0
 21
0.0
  0
LINE
  8
0
 62
7
  6
CONTINUOUS
 10
0.0
 20
297.0
 11
420.0
 21
297.0
  0
LINE
  8
0
 62
7
  6
CONTINUOUS
 10
420.0
 20
0.0
 11
420.0
 21
297.0
  0
LINE
  8
02___PRT_ALL_AXES
 62
7
  6
CONTINUOUS
 10
216.9627135536
 20
19.6337486744
 11
98.9627135536
 21
19.6337486744
  0
LINE
  8
0
 62
7
  6
CONTINUOUS
 10
98.9627135536
 20
267.4790481361
 11
98.9627135536
 21
235.6337486744
  0
LINE
  8
02___PRT_ALL_AXES
 62
7
  6
CONTINUOUS
 10
98.9627135536
 20
69.6337486744
 11
98.9627135536
 21
19.6337486744
  0
LINE
  8
02___PRT_ALL_AXES
 62
7
  6
CONTINUOUS
 10
97.8536458014
 20
285.6337486744
 11
96.9627135536
 21
268.6337486744
  0
LINE
  8
0
 62
7
  6
CONTINUOUS
 10
102.9627135536
 20
233.3243475977
 11
102.9627135536
 21
74.4007630448
  0
LINE
  8
0
 62
7
  6
CONTINUOUS
 10
105.1351639228
 20
240.6337486744
 11
105.1351639228
 21
243.6337486744
  0
LINE
  8
02___PRT_ALL_AXES
 62
7
  6
CONTINUOUS
 10
218.9627135536
 20
268.6337486744
 11
216.9627135536
 21
267.4790481361
  0
LINE
  8
02___PRT_ALL_AXES
 62
7
  6
CONTINUOUS
 10
216.9627135536
 20
69.6337486744
 11
98.9627135536
 21
69.6337486744
  0
LINE
  8
0
 62
7
  6
CONTINUOUS
 10
212.9627135536
 20
74.4007630448
 11
102.9627135536
 21
74.4007630448
  0
LINE
  8
0
 62
7
  6
CONTINUOUS
 10
127.4627135536
 20
240.6337486744
 11
127.4627135536
 21
243.6337486744
  0
LINE
  8
0
 62
7
  6
CONTINUOUS
 10
128.4627135536
 20
243.6337486744
 11
128.4627135536
 21
240.6337486744
  0
LINE
  8
0
 62
7
  6
CONTINUOUS
 10
216.9627135536
 20
235.6337486744
 11
212.9627135536
 21
233.3243475977
  0
LINE
  8
02___PRT_ALL_AXES
 62
7
  6
CENTER
 10
157.9627135536
 20
19.4729969574
 11
157.9627135536
 21
288.1337486744
  0
LINE
  8
02___PRT_ALL_AXES
 62
7
  6
CONTINUOUS
 10
212.9627135536
 20
214.3332665704
 11
234.8971150027
 21
236.2676680195
  0
LINE
  8
0
 62
7
  6
CONTINUOUS
 10
241.7578029655
 20
245.1363246671
 11
234.3161561924
 21
238.4358358164
  0
LINE
  8
02___PRT_ALL_AXES
 62
7
  6
CONTINUOUS
 10
212.9627135536
 20
74.4007630448
 11
216.9627135536
 21
69.6337486744
  0
LINE
  8
02___PRT_ALL_AXES
 62
7
  6
CONTINUOUS
 10
102.9627135536
 20
74.4007630448
 11
98.9627135536
 21
69.6337486744
  0
LINE
  8
02___PRT_ALL_AXES
 62
7
  6
CONTINUOUS
 10
187.4627135536
 20
243.6337486744
 11
187.4627135536
 21
240.6337486744
  0
LINE
  8
02___PRT_ALL_AXES
 62
7
  6
CONTINUOUS
 10
188.4627135536
 20
240.6337486744
 11
188.4627135536
 21
243.6337486744
  0
LINE
  8
02___PRT_ALL_AXES
 62
7
  6
CONTINUOUS
 10
211.7227803064
 20
210.9126985305
 11
210.763906128
 21
208.2479705106
  0
LINE
  8
02___PRT_ALL_AXES
 62
7
  6
CONTINUOUS
 10
212.9627135536
 20
214.3332665704
 11
211.7227803064
 21
210.9126985305
  0
POLYLINE
  8
02___PRT_ALL_AXES
 62
7
  6
CONTINUOUS
 66
1
 70
0
  0
VERTEX
  8
02___PRT_ALL_AXES
 62
7
  6
CONTINUOUS
 10
211.2970600535
 20
205.2653268424
  0
VERTEX
  8
02___PRT_ALL_AXES
 62
7
  6
CONTINUOUS
 10
210.7915138341
 20
203.7847122861
  0
VERTEX
  8
02___PRT_ALL_AXES
 62
7
  6
CONTINUOUS
 10
210.1921073994
 20
202.0185373024
  0
VERTEX
  8
02___PRT_ALL_AXES
 62
7
  6
CONTINUOUS
 10
209.4835125699
 20
199.9146910548
  0
VERTEX
  8
02___PRT_ALL_AXES
 62
7
  6
CONTINUOUS
 10
208.6521162636
 20
197.4223730797
  0
VERTEX
  8
02___PRT_ALL_AXES
 62
7
  6
CONTINUOUS
 10
207.6790534225
 20
194.4692373022
  0
VERTEX
  8
02___PRT_ALL_AXES
 62
7
  6
CONTINUOUS
 10
206.5465448038
 20
190.976738384
  0
VERTEX
  8
02___PRT_ALL_AXES
 62
7
  6
CONTINUOUS
 10
205.264891909
 20
186.9405656912
  0
VERTEX
  8
02___PRT_ALL_AXES
 62
7
  6
CONTINUOUS
 10
203.873864007
 20
182.4388056267
  0
VERTEX
  8
02___PRT_ALL_AXES
 62
7
  6
CONTINUOUS
 10
202.4096926578
 20
177.5297255057
  0
VERTEX
  8
02___PRT_ALL_AXES
 62
7
  6
CONTINUOUS
 10
200.9000925824
 20
172.2279130629
  0
VERTEX
  8
02___PRT_ALL_AXES
 62
7
  6
CONTINUOUS
 10
199.3892918669
 20
166.5818676364
  0
VERTEX
  8
02___PRT_ALL_AXES
 62
7
  6
CONTINUOUS
 10
197.9463412144
 20
160.7129944847
  0
VERTEX
  8
02___PRT_ALL_AXES
 62
7
  6
CONTINUOUS
 10
196.6669284567
 20
154.866873164
  0
VERTEX
  8
02___PRT_ALL_AXES
 62
7
  6
CONTINUOUS
 10
195.6475928767
 20
149.4088358727
  0
VERTEX
  8
02___PRT_ALL_AXES
 62
7
  6
CONTINUOUS
 10
194.9044175048
 20
144.4725605103
  0
VERTEX
  8
02___PRT_ALL_AXES
 62
7
  6
CONTINUOUS
 10
194.4101264531
 20
140.0125191885
  0
VERTEX
  8
02___PRT_ALL_AXES
 62
7
  6
CONTINUOUS
 10
194.1367762268
 20
135.9844621457
  0
VERTEX
  8
02___PRT_ALL_AXES
 62
7
  6
CONTINUOUS
 10
194.0564634115
 20
132.3620077908
  0
VERTEX
  8
02___PRT_ALL_AXES
 62
7
  6
CONTINUOUS
 10
194.1400521876
 20
129.0996449404
  0
VERTEX
  8
02___PRT_ALL_AXES
 62
7
  6
CONTINUOUS
 10
194.3623100148
 20
126.1399357156
  0
VERTEX
  8
02___PRT_ALL_AXES
 62
7
  6
CONTINUOUS
 10
194.704790098
 20
123.4237667122
  0
VERTEX
  8
02___PRT_ALL_AXES
 62
7
  6
CONTINUOUS
 10
195.1570065271
 20
120.8934474746
  0
VERTEX
  8
02___PRT_ALL_AXES
 62
7
  6
CONTINUOUS
 10
195.7084135467
 20
118.5267403791
  0
VERTEX
  8
02___PRT_ALL_AXES
 62
7
  6
CONTINUOUS
 10
196.3499400016
 20
116.3039880662
  0
VERTEX
  8
02___PRT_ALL_AXES
 62
7
  6
CONTINUOUS
 10
197.0778455178
 20
114.1971920196
  0
VERTEX
  8
02___PRT_ALL_AXES
 62
7
  6
CONTINUOUS
 10
197.8884490747
 20
112.1887954069
  0
VERTEX
  8
02___PRT_ALL_AXES
 62
7
  6
CONTINUOUS
 10
198.7764425095
 20
110.2697162071
  0
VERTEX
  8
02___PRT_ALL_AXES
 62
7
  6
CONTINUOUS
 10
199.7399054897
 20
108.4261897874
  0
VERTEX
  8
02___PRT_ALL_AXES
 62
7
  6
CONTINUOUS
 10
200.7719605148
 20
106.6560048644
  0
VERTEX
  8
02___PRT_ALL_AXES
 62
7
  6
CONTINUOUS
 10
201.8607136561
 20
104.9636697415
  0
VERTEX
  8
02___PRT_ALL_AXES
 62
7
  6
CONTINUOUS
 10
202.9954028024
 20
103.3495160218
  0
VERTEX
  8
02___PRT_ALL_AXES
 62
7
  6
CONTINUOUS
 10
204.1572010892
 20
101.8231846854
  0
VERTEX
  8
02___PRT_ALL_AXES
 62
7
  6
CONTINUOUS
 10
205.3252868065
 20
100.3936845783
  0
VERTEX
  8
02___PRT_ALL_AXES
 62
7
  6
CONTINUOUS
 10
206.4767131299
 20
99.0702830214
  0
VERTEX
  8
02___PRT_ALL_AXES
 62
7
  6
CONTINUOUS
 10
207.5843160789
 20
97.8652594034
  0
VERTEX
  8
02___PRT_ALL_AXES
 62
7
  6
CONTINUOUS
 10
208.6289530836
 20
96.7814613505
  0
VERTEX
  8
02___PRT_ALL_AXES
 62
7
  6
CONTINUOUS
 10
209.5918146818
 20
95.8223152303
  0
VERTEX
  8
02___PRT_ALL_AXES
 62
7
  6
CONTINUOUS
 10
210.4546039874
 20
94.9918452971
  0
VERTEX
  8
02___PRT_ALL_AXES
 62
7
  6
CONTINUOUS
 10
211.2029011168
 20
94.2917397417
  0
VERTEX
  8
02___PRT_ALL_AXES
 62
7
  6
CONTINUOUS
 10
211.8273877415
 20
93.7207093553
  0
VERTEX
  8
02___PRT_ALL_AXES
 62
7
  6
CONTINUOUS
 10
212.3204749759
 20
93.277810713
  0
VERTEX
  8
02___PRT_ALL_AXES
 62
7
  6
CONTINUOUS
 10
212.6760135342
 20
92.9626194532
  0
VERTEX
  8
02___PRT_ALL_AXES
 62
7
  6
CONTINUOUS
 10
212.9627135536
 20
92.7109002063
  0
SEQEND
  0
LINE
  8
02___PRT_ALL_AXES
 62
7
  6
CONTINUOUS
 10
210.7902631845
 20
240.6337486744
 11
210.7902631845
 21
243.6337486744
  0
LINE
  8
0
 62
7
  6
CONTINUOUS
 10
212.9627135536
 20
233.3243475977
 11
212.9627135536
 21
214.3332665704
  0
LINE
  8
0
 62
7
  6
CONTINUOUS
 10
212.9627135536
 20
92.7109002063
 11
212.9627135536
 21
74.4007630448
  0
LINE
  8
02___PRT_ALL_AXES
 62
7
  6
CENTER
 10
275.9958060237
 20
214.4338555148
 11
142.1929618163
 21
80.6310113075
  0
LINE
  8
02___PRT_ALL_AXES
 62
7
  6
CONTINUOUS
 10
218.0717813058
 20
285.6337486744
 11
218.9627135536
 21
268.6337486744
  0
LINE
  8
0
 62
7
  6
CONTINUOUS
 10
216.9627135536
 20
267.4790481361
 11
216.9627135536
 21
235.6337486744
  0
LINE
  8
02___PRT_ALL_AXES
 62
7
  6
CONTINUOUS
 10
216.9627135536
 20
69.6337486744
 11
216.9627135536
 21
19.6337486744
  0
LINE
  8
02___PRT_ALL_AXES
 62
7
  6
CONTINUOUS
 10
268.4071001216
 20
148.1552867743
 11
271.7531653365
 21
147.2587113021
  0
LINE
  8
0
 62
7
  6
CONTINUOUS
 10
98.9627135536
 20
235.6337486744
 11
102.9627135536
 21
233.3243475977
  0
POLYLINE
  8
02___PRT_ALL_AXES
 62
7
  6
CONTINUOUS
 66
1
 70
0
  0
VERTEX
  8
02___PRT_ALL_AXES
 62
7
  6
CONTINUOUS
 10
210.763906128
 20
208.2479705106
  0
VERTEX
  8
02___PRT_ALL_AXES
 62
7
  6
CONTINUOUS
 10
210.9575702009
 20
207.1793263017
  0
VERTEX
  8
02___PRT_ALL_AXES
 62
7
  6
CONTINUOUS
 10
211.1350900541
 20
206.1853202873
  0
VERTEX
  8
02___PRT_ALL_AXES
 62
7
  6
CONTINUOUS
 10
211.2970600535
 20
205.2653268424
  0
SEQEND
  0
LINE
  8
0
 62
7
  6
CONTINUOUS
 10
299.9977863252
 20
172.7542056836
 11
297.8296185283
 21
173.3351644939
  0
LINE
  8
02___PRT_ALL_AXES
 62
7
  6
CONTINUOUS
 10
268.4071001216
 20
148.1552867743
 11
211.2970600535
 21
205.2653268424
  0
LINE
  8
02___PRT_ALL_AXES
 62
7
  6
CONTINUOUS
 10
271.7531653365
 20
147.2587113021
 11
210.763906128
 21
208.2479705106
  0
LINE
  8
02___PRT_ALL_AXES
 62
7
  6
CONTINUOUS
 10
212.9627135536
 20
92.7109002063
 11
268.4071001216
 21
148.1552867743
  0
LINE
  8
02___PRT_ALL_AXES
 62
7
  6
CONTINUOUS
 10
271.7531653365
 20
147.2587113021
 11
297.8296185283
 21
173.3351644939
  0
LINE
  8
02___PRT_ALL_AXES
 62
7
  6
CONTINUOUS
 10
96.9627135536
 20
268.6337486744
 11
98.9627135536
 21
267.4790481361
  0
LINE
  8
0
 62
7
  6
CONTINUOUS
 10
234.3161561924
 20
238.4358358164
 11
234.8971150027
 21
236.2676680195
  0
LINE
  8
0
 62
7
  6
CONTINUOUS
 10
306.6982751759
 20
180.1958524567
 11
299.9977863252
 21
172.7542056836
  0
LINE
  8
0
 62
7
  6
CONTINUOUS
 10
212.9627135536
 20
233.3243475977
 11
102.9627135536
 21
233.3243475977
  0
LINE
  8
0
 62
7
  6
CONTINUOUS
 10
216.9627135536
 20
235.6337486744
 11
98.9627135536
 21
235.6337486744
  0
LINE
  8
0
 62
7
  6
CONTINUOUS
 10
128.4627135536
 20
240.6337486744
 11
105.1351639228
 21
240.6337486744
  0
LINE
  8
02___PRT_ALL_AXES
 62
7
  6
CONTINUOUS
 10
187.4627135536
 20
240.6337486744
 11
210.7902631845
 21
240.6337486744
  0
LINE
  8
02___PRT_ALL_AXES
 62
7
  6
CONTINUOUS
 10
210.7902631845
 20
243.6337486744
 11
187.4627135536
 21
243.6337486744
  0
LINE
  8
0
 62
7
  6
CONTINUOUS
 10
105.1351639228
 20
243.6337486744
 11
128.4627135536
 21
243.6337486744
  0
LINE
  8
0
 62
7
  6
CONTINUOUS
 10
234.8971150027
 20
236.2676680195
 11
297.8296185283
 21
173.3351644939
  0
LINE
  8
0
 62
7
  6
CONTINUOUS
 10
299.9977863252
 20
172.7542056836
 11
234.3161561924
 21
238.4358358164
  0
LINE
  8
0
 62
7
  6
CONTINUOUS
 10
306.6982751759
 20
180.1958524567
 11
241.7578029655
 21
245.1363246671
  0
LINE
  8
02___PRT_ALL_AXES
 62
7
  6
CONTINUOUS
 10
216.9627135536
 20
267.4790481361
 11
98.9627135536
 21
267.4790481361
  0
LINE
  8
02___PRT_ALL_AXES
 62
7
  6
CONTINUOUS
 10
218.9627135536
 20
268.6337486744
 11
96.9627135536
 21
268.6337486744
  0
LINE
  8
02___PRT_ALL_AXES
 62
7
  6
CONTINUOUS
 10
218.0717813058
 20
285.6337486744
 11
97.8536458014
 21
285.6337486744
  0
ENDSEC
  0
EOF
