  0
SECTION
  2
HEADER
  9
$ACADVER
  1
AC1018
  9
$ACADMAINTVER
 70
     0
  9
$DWGCODEPAGE
  3
ANSI_1252
  9
$INSBASE
 10
0.0
 20
0.0
 30
0.0
  9
$EXTMIN
 10
1.000000000000000E+20
 20
1.000000000000000E+20
 30
1.000000000000000E+20
  9
$EXTMAX
 10
-1.000000000000000E+20
 20
-1.000000000000000E+20
 30
-1.000000000000000E+20
  9
$LIMMIN
 10
0.0
 20
0.0
  9
$LIMMAX
 10
12.0
 20
9.0
  9
$ORTHOMODE
 70
     0
  9
$REGENMODE
 70
     1
  9
$FILLMODE
 70
     1
  9
$QTEXTMODE
 70
     0
  9
$MIRRTEXT
 70
     1
  9
$LTSCALE
 40
1.0
  9
$ATTMODE
 70
     1
  9
$TEXTSIZE
 40
0.2
  9
$TRACEWID
 40
0.05
  9
$TEXTSTYLE
  7
Standard
  9
$CLAYER
  8
0
  9
$CELTYPE
  6
ByLayer
  9
$CECOLOR
 62
   256
  9
$CELTSCALE
 40
1.0
  9
$DISPSILH
 70
     0
  9
$DIMSCALE
 40
1.0
  9
$DIMASZ
 40
0.18
  9
$DIMEXO
 40
0.0625
  9
$DIMDLI
 40
0.38
  9
$DIMRND
 40
0.0
  9
$DIMDLE
 40
0.0
  9
$DIMEXE
 40
0.18
  9
$DIMTP
 40
0.0
  9
$DIMTM
 40
0.0
  9
$DIMTXT
 40
0.18
  9
$DIMCEN
 40
0.09
  9
$DIMTSZ
 40
0.0
  9
$DIMTOL
 70
     0
  9
$DIMLIM
 70
     0
  9
$DIMTIH
 70
     1
  9
$DIMTOH
 70
     1
  9
$DIMSE1
 70
     0
  9
$DIMSE2
 70
     0
  9
$DIMTAD
 70
     0
  9
$DIMZIN
 70
     0
  9
$DIMBLK
  1

  9
$DIMASO
 70
     1
  9
$DIMSHO
 70
     1
  9
$DIMPOST
  1

  9
$DIMAPOST
  1

  9
$DIMALT
 70
     0
  9
$DIMALTD
 70
     2
  9
$DIMALTF
 40
25.4
  9
$DIMLFAC
 40
1.0
  9
$DIMTOFL
 70
     0
  9
$DIMTVP
 40
0.0
  9
$DIMTIX
 70
     0
  9
$DIMSOXD
 70
     0
  9
$DIMSAH
 70
     0
  9
$DIMBLK1
  1

  9
$DIMBLK2
  1

  9
$DIMSTYLE
  2
Standard
  9
$DIMCLRD
 70
     0
  9
$DIMCLRE
 70
     0
  9
$DIMCLRT
 70
     0
  9
$DIMTFAC
 40
1.0
  9
$DIMGAP
 40
0.09
  9
$DIMJUST
 70
     0
  9
$DIMSD1
 70
     0
  9
$DIMSD2
 70
     0
  9
$DIMTOLJ
 70
     1
  9
$DIMTZIN
 70
     0
  9
$DIMALTZ
 70
     0
  9
$DIMALTTZ
 70
     0
  9
$DIMUPT
 70
     0
  9
$DIMDEC
 70
     4
  9
$DIMTDEC
 70
     4
  9
$DIMALTU
 70
     2
  9
$DIMALTTD
 70
     2
  9
$DIMTXSTY
  7
Standard
  9
$DIMAUNIT
 70
     0
  9
$DIMADEC
 70
     0
  9
$DIMALTRND
 40
0.0
  9
$DIMAZIN
 70
     0
  9
$DIMDSEP
 70
    46
  9
$DIMATFIT
 70
     3
  9
$DIMFRAC
 70
     0
  9
$DIMLDRBLK
  1

  9
$DIMLUNIT
 70
     2
  9
$DIMLWD
 70
    -2
  9
$DIMLWE
 70
    -2
  9
$DIMTMOVE
 70
     0
  9
$LUNITS
 70
     2
  9
$LUPREC
 70
     4
  9
$SKETCHINC
 40
0.1
  9
$FILLETRAD
 40
0.5
  9
$AUNITS
 70
     0
  9
$AUPREC
 70
     0
  9
$MENU
  1
.
  9
$ELEVATION
 40
0.0
  9
$PELEVATION
 40
0.0
  9
$THICKNESS
 40
0.0
  9
$LIMCHECK
 70
     0
  9
$CHAMFERA
 40
0.5
  9
$CHAMFERB
 40
0.5
  9
$CHAMFERC
 40
1.0
  9
$CHAMFERD
 40
0.0
  9
$SKPOLY
 70
     0
  9
$TDCREATE
 40
2457123.729970787
  9
$TDUCREATE
 40
2457123.229970787
  9
$TDUPDATE
 40
2457123.729973252
  9
$TDUUPDATE
 40
2457123.229973252
  9
$TDINDWG
 40
0.0000000116
  9
$TDUSRTIMER
 40
0.0000000116
  9
$USRTIMER
 70
     1
  9
$ANGBASE
 50
0.0
  9
$ANGDIR
 70
     0
  9
$PDMODE
 70
     0
  9
$PDSIZE
 40
0.0
  9
$PLINEWID
 40
0.0
  9
$SPLFRAME
 70
     0
  9
$SPLINETYPE
 70
     6
  9
$SPLINESEGS
 70
     8
  9
$HANDSEED
  5
419
  9
$SURFTAB1
 70
     6
  9
$SURFTAB2
 70
     6
  9
$SURFTYPE
 70
     6
  9
$SURFU
 70
     6
  9
$SURFV
 70
     6
  9
$UCSBASE
  2

  9
$UCSNAME
  2

  9
$UCSORG
 10
0.0
 20
0.0
 30
0.0
  9
$UCSXDIR
 10
1.0
 20
0.0
 30
0.0
  9
$UCSYDIR
 10
0.0
 20
1.0
 30
0.0
  9
$UCSORTHOREF
  2

  9
$UCSORTHOVIEW
 70
     0
  9
$UCSORGTOP
 10
0.0
 20
0.0
 30
0.0
  9
$UCSORGBOTTOM
 10
0.0
 20
0.0
 30
0.0
  9
$UCSORGLEFT
 10
0.0
 20
0.0
 30
0.0
  9
$UCSORGRIGHT
 10
0.0
 20
0.0
 30
0.0
  9
$UCSORGFRONT
 10
0.0
 20
0.0
 30
0.0
  9
$UCSORGBACK
 10
0.0
 20
0.0
 30
0.0
  9
$PUCSBASE
  2

  9
$PUCSNAME
  2

  9
$PUCSORG
 10
0.0
 20
0.0
 30
0.0
  9
$PUCSXDIR
 10
1.0
 20
0.0
 30
0.0
  9
$PUCSYDIR
 10
0.0
 20
1.0
 30
0.0
  9
$PUCSORTHOREF
  2

  9
$PUCSORTHOVIEW
 70
     0
  9
$PUCSORGTOP
 10
0.0
 20
0.0
 30
0.0
  9
$PUCSORGBOTTOM
 10
0.0
 20
0.0
 30
0.0
  9
$PUCSORGLEFT
 10
0.0
 20
0.0
 30
0.0
  9
$PUCSORGRIGHT
 10
0.0
 20
0.0
 30
0.0
  9
$PUCSORGFRONT
 10
0.0
 20
0.0
 30
0.0
  9
$PUCSORGBACK
 10
0.0
 20
0.0
 30
0.0
  9
$USERI1
 70
     0
  9
$USERI2
 70
     0
  9
$USERI3
 70
     0
  9
$USERI4
 70
     0
  9
$USERI5
 70
     0
  9
$USERR1
 40
0.0
  9
$USERR2
 40
0.0
  9
$USERR3
 40
0.0
  9
$USERR4
 40
0.0
  9
$USERR5
 40
0.0
  9
$WORLDVIEW
 70
     1
  9
$SHADEDGE
 70
     3
  9
$SHADEDIF
 70
    70
  9
$TILEMODE
 70
     1
  9
$MAXACTVP
 70
    64
  9
$PINSBASE
 10
0.0
 20
0.0
 30
0.0
  9
$PLIMCHECK
 70
     0
  9
$PEXTMIN
 10
1.000000000000000E+20
 20
1.000000000000000E+20
 30
1.000000000000000E+20
  9
$PEXTMAX
 10
-1.000000000000000E+20
 20
-1.000000000000000E+20
 30
-1.000000000000000E+20
  9
$PLIMMIN
 10
0.0
 20
0.0
  9
$PLIMMAX
 10
12.0
 20
9.0
  9
$UNITMODE
 70
     0
  9
$VISRETAIN
 70
     1
  9
$PLINEGEN
 70
     0
  9
$PSLTSCALE
 70
     1
  9
$TREEDEPTH
 70
  3020
  9
$CMLSTYLE
  2
Standard
  9
$CMLJUST
 70
     0
  9
$CMLSCALE
 40
1.0
  9
$PROXYGRAPHICS
 70
     1
  9
$MEASUREMENT
 70
     0
  9
$CELWEIGHT
370
    -1
  9
$ENDCAPS
280
     0
  9
$JOINSTYLE
280
     0
  9
$LWDISPLAY
290
     1
  9
$INSUNITS
 70
     4
  9
$HYPERLINKBASE
  1

  9
$STYLESHEET
  1

  9
$XEDIT
290
     1
  9
$CEPSNTYPE
380
     0
  9
$PSTYLEMODE
290
     1
  9
$FINGERPRINTGUID
  2
{C47666D4-6F2A-4971-BBC9-66510FC43CD4}
  9
$VERSIONGUID
  2
{FAEB1C32-E019-11D5-929B-00C0DF256EC4}
  9
$EXTNAMES
290
     1
  9
$PSVPSCALE
 40
0.0
  9
$OLESTARTUP
290
     0
  9
$SORTENTS
280
   127
  9
$INDEXCTL
280
     0
  9
$HIDETEXT
280
     1
  9
$XCLIPFRAME
290
     0
  9
$HALOGAP
280
     0
  9
$OBSCOLOR
 70
   257
  9
$OBSLTYPE
280
     0
  9
$INTERSECTIONDISPLAY
280
     0
  9
$INTERSECTIONCOLOR
 70
   257
  9
$DIMASSOC
280
     2
  9
$PROJECTNAME
  1

  0
ENDSEC
  0
SECTION
  2
CLASSES
  0
CLASS
  1
ACDBDICTIONARYWDFLT
  2
AcDbDictionaryWithDefault
  3
ObjectDBX Classes
 90
        0
 91
        4
280
     0
281
     0
  0
CLASS
  1
VISUALSTYLE
  2
AcDbVisualStyle
  3
ObjectDBX Classes
 90
     4095
 91
        4
280
     0
281
     0
  0
CLASS
  1
MATERIAL
  2
AcDbMaterial
  3
ObjectDBX Classes
 90
     1153
 91
        4
280
     0
281
     0
  0
CLASS
  1
WIPEOUT
  2
AcDbWipeout
  3
WipeOut|AutoCAD Express Tool|expresstools@autodesk.com
 90
      127
 91
        4
280
     0
281
     1
  0
CLASS
  1
SCALE
  2
AcDbScale
  3
ObjectDBX Classes
 90
     1153
 91
        4
280
     0
281
     0
  0
CLASS
  1
DICTIONARYVAR
  2
AcDbDictionaryVar
  3
ObjectDBX Classes
 90
        0
 91
        4
280
     0
281
     0
  0
ENDSEC
  0
SECTION
  2
TABLES
  0
TABLE
  2
VPORT
  5
8
330
0
100
AcDbSymbolTable
 70
     1
  0
VPORT
  5
29
330
8
100
AcDbSymbolTableRecord
100
AcDbViewportTableRecord
  2
*Active
 70
     0
 10
0.0
 20
0.0
 11
1.0
 21
1.0
 12
478.222740802537
 22
370.5042721542637
 13
0.0
 23
0.0
 14
0.5
 24
0.5
 15
0.5
 25
0.5
 16
0.0
 26
0.0
 36
1.0
 17
0.0
 27
0.0
 37
0.0
 40
852.7287152840904
 41
1.150555407652098
 42
50.0
 43
0.0
 44
0.0
 50
0.0
 51
0.0
 71
     0
 72
   100
 73
     1
 74
     3
 75
     0
 76
     0
 77
     0
 78
     0
281
     0
 65
     1
110
0.0
120
0.0
130
0.0
111
1.0
121
0.0
131
0.0
112
0.0
122
1.0
132
0.0
 79
     0
146
0.0
  0
ENDTAB
  0
TABLE
  2
LTYPE
  5
5
330
0
100
AcDbSymbolTable
 70
     4
  0
LTYPE
  5
14
330
5
100
AcDbSymbolTableRecord
100
AcDbLinetypeTableRecord
  2
ByBlock
 70
     0
  3

 72
    65
 73
     0
 40
0.0
  0
LTYPE
  5
15
330
5
100
AcDbSymbolTableRecord
100
AcDbLinetypeTableRecord
  2
ByLayer
 70
     0
  3

 72
    65
 73
     0
 40
0.0
  0
LTYPE
  5
16
330
5
100
AcDbSymbolTableRecord
100
AcDbLinetypeTableRecord
  2
Continuous
 70
     0
  3
Solid line
 72
    65
 73
     0
 40
0.0
  0
LTYPE
  5
326
330
5
100
AcDbSymbolTableRecord
100
AcDbLinetypeTableRecord
  2
Above
 70
     0
  3
- - - - - 
 72
    65
 73
     2
 40
15.0
 49
10.0
 74
     0
 49
-4.999999999999999
 74
     0
  0
LTYPE
  5
34F
330
5
100
AcDbSymbolTableRecord
100
AcDbLinetypeTableRecord
  2
AStair_dashed
 70
     0
  3
- - - - - 
 72
    65
 73
     2
 40
18.00000000000001
 49
8.000000000000004
 74
     0
 49
-10.0
 74
     0
  0
LTYPE
  5
399
330
5
100
AcDbSymbolTableRecord
100
AcDbLinetypeTableRecord
  2
Wipeout_Contour
 70
     0
  3
- - - - - 
 72
    65
 73
     2
 40
1000.0
 49
0.0
 74
     0
 49
-1000.0
 74
     0
  0
ENDTAB
  0
TABLE
  2
LAYER
  5
2
330
0
100
AcDbSymbolTable
 70
     4
  0
LAYER
  5
10
330
2
100
AcDbSymbolTableRecord
100
AcDbLayerTableRecord
  2
0
 70
     0
 62
     7
  6
Continuous
370
    -3
390
F
  0
LAYER
  5
40
330
2
100
AcDbSymbolTableRecord
100
AcDbLayerTableRecord
  2
0_Pen_No__146
 70
     0
 62
     9
420
 13290186
  6
Continuous
370
     5
390
F
  0
LAYER
  5
50
330
2
100
AcDbSymbolTableRecord
100
AcDbLayerTableRecord
  2
0_Pen_No__1
 70
     0
 62
     7
  6
Continuous
370
    13
390
F
  0
LAYER
  5
39A
330
2
100
AcDbSymbolTableRecord
100
AcDbLayerTableRecord
  2
Key_ Sections_Pen_No__1
 70
     0
 62
     7
  6
Continuous
370
    13
390
F
  0
ENDTAB
  0
TABLE
  2
STYLE
  5
3
330
0
100
AcDbSymbolTable
 70
     2
  0
STYLE
  5
11
330
3
100
AcDbSymbolTableRecord
100
AcDbTextStyleTableRecord
  2
Standard
 70
     0
 40
0.0
 41
1.0
 50
0.0
 71
     0
 42
0.2
  3
txt
  4

  0
STYLE
  5
38F
330
3
100
AcDbSymbolTableRecord
100
AcDbTextStyleTableRecord
  2
GENERATED_STYLE_1
 70
     0
 40
0.0
 41
1.0
 50
0.0
 71
     0
 42
0.2
  3

  4

1001
ACAD
1000
Arial
1071
       34
  0
ENDTAB
  0
TABLE
  2
VIEW
  5
6
330
0
100
AcDbSymbolTable
 70
     0
  0
ENDTAB
  0
TABLE
  2
UCS
  5
7
330
0
100
AcDbSymbolTable
 70
     0
  0
ENDTAB
  0
TABLE
  2
APPID
  5
9
330
0
100
AcDbSymbolTable
 70
     1
  0
APPID
  5
12
330
9
100
AcDbSymbolTableRecord
100
AcDbRegAppTableRecord
  2
ACAD
 70
     0
  0
ENDTAB
  0
TABLE
  2
DIMSTYLE
  5
A
330
0
100
AcDbSymbolTable
 70
     3
100
AcDbDimStyleTable
  0
DIMSTYLE
105
27
330
A
100
AcDbSymbolTableRecord
100
AcDbDimStyleTableRecord
  2
Standard
 70
     0
178
     0
340
11
  0
DIMSTYLE
105
392
102
{ACAD_REACTORS
330
391
102
}
330
A
100
AcDbSymbolTableRecord
100
AcDbDimStyleTableRecord
  2
GENERATED_STYLE__1
 70
     0
 41
10.23882825346851
 42
0.0
 73
     0
 74
     0
 75
     1
 76
     1
 77
     1
140
12.5
172
     1
176
     7
177
     7
271
     0
178
     7
271
     0
279
     2
288
     1
340
38F
342
393
343
393
344
393
  0
DIMSTYLE
105
39D
330
A
100
AcDbSymbolTableRecord
100
AcDbDimStyleTableRecord
  2
GENERATED_STYLE__2
 70
     0
 41
9.12
172
     1
178
     0
340
0
341
39E
  0
ENDTAB
  0
TABLE
  2
BLOCK_RECORD
  5
1
330
0
100
AcDbSymbolTable
 70
     5
  0
BLOCK_RECORD
  5
1F
330
1
100
AcDbSymbolTableRecord
100
AcDbBlockTableRecord
  2
*Model_Space
340
22
  0
BLOCK_RECORD
  5
1B
330
1
100
AcDbSymbolTableRecord
100
AcDbBlockTableRecord
  2
*Paper_Space
340
1E
  0
BLOCK_RECORD
  5
23
330
1
100
AcDbSymbolTableRecord
100
AcDbBlockTableRecord
  2
*Paper_Space0
340
26
  0
BLOCK_RECORD
  5
387
330
1
100
AcDbSymbolTableRecord
100
AcDbBlockTableRecord
  2
*D1
340
0
  0
BLOCK_RECORD
  5
393
330
1
100
AcDbSymbolTableRecord
100
AcDbBlockTableRecord
  2
ARROWHEAD_2
340
0
  0
BLOCK_RECORD
  5
39E
330
1
100
AcDbSymbolTableRecord
100
AcDbBlockTableRecord
  2
ARROWHEAD_5
340
0
  0
BLOCK_RECORD
  5
3C7
330
1
100
AcDbSymbolTableRecord
100
AcDbBlockTableRecord
  2
DC-19-R Gutter   Wall Junction_STORY_MARKER
340
0
  0
ENDTAB
  0
ENDSEC
  0
SECTION
  2
BLOCKS
  0
BLOCK
  5
20
330
1F
100
AcDbEntity
  8
0
100
AcDbBlockBegin
  2
*Model_Space
 70
     0
 10
0.0
 20
0.0
 30
0.0
  3
*Model_Space
  1

  0
ENDBLK
  5
21
330
1F
100
AcDbEntity
  8
0
100
AcDbBlockEnd
  0
BLOCK
  5
1C
330
1B
100
AcDbEntity
 67
     1
  8
0
100
AcDbBlockBegin
  2
*Paper_Space
 70
     0
 10
0.0
 20
0.0
 30
0.0
  3
*Paper_Space
  1

  0
ENDBLK
  5
1D
330
1B
100
AcDbEntity
 67
     1
  8
0
100
AcDbBlockEnd
  0
BLOCK
  5
24
330
23
100
AcDbEntity
  8
0
100
AcDbBlockBegin
  2
*Paper_Space0
 70
     0
 10
0.0
 20
0.0
 30
0.0
  3
*Paper_Space0
  1

  0
ENDBLK
  5
25
330
23
100
AcDbEntity
  8
0
100
AcDbBlockEnd
  0
BLOCK
  5
388
330
387
100
AcDbEntity
  8
0
100
AcDbBlockBegin
  2
*D1
 70
     1
 10
0.0
 20
0.0
 30
0.0
  3
*D1
  1

  0
LINE
  5
38A
330
387
100
AcDbEntity
  8
0_Pen_No__1
  6
Continuous
100
AcDbLine
 10
38.43494283539429
 20
100.4812363352193
 30
0.0
 11
44.14021223330279
 21
97.18729749814344
 31
0.0
  0
LINE
  5
38B
330
387
100
AcDbEntity
  8
0_Pen_No__1
  6
Continuous
100
AcDbLine
 10
44.14021223330279
 20
97.18729749814344
 30
0.0
 11
52.80046626168612
 21
92.18729748175643
 31
0.0
  0
LINE
  5
38C
330
387
100
AcDbEntity
  8
0_Pen_No__1
  6
Continuous
100
AcDbLine
 10
50.87628188970194
 20
101.0763709238313
 30
0.0
 11
37.40414257690364
 21
93.29822407245557
 31
0.0
  0
LINE
  5
38D
330
387
100
AcDbEntity
  8
0_Pen_No__1
  6
Continuous
100
AcDbLine
 10
46.06439660528697
 20
88.29822405606856
 30
0.0
 11
59.53653591808528
 21
96.0763709074443
 31
0.0
  0
LINE
  5
38E
330
387
100
AcDbEntity
  8
0_Pen_No__1
  6
Continuous
100
AcDbLine
 10
52.80046626168612
 20
92.18729748175643
 30
0.0
 11
58.50573565959463
 21
88.89335864468053
 31
0.0
  0
MTEXT
  5
390
330
387
100
AcDbEntity
  8
0_Pen_No__1
100
AcDbMText
 10
18.15945011976945
 20
82.18729749814344
 30
0.0
 40
12.5
 41
0.0
 71
     7
 72
     1
  1
{10mm min}
  7
GENERATED_STYLE_1
 11
0.8660254028383338
 21
-0.5000000016387015
 31
0.0
 73
     1
 44
1.0
  0
ENDBLK
  5
389
330
387
100
AcDbEntity
  8
0
100
AcDbBlockEnd
  0
BLOCK
  5
394
330
393
100
AcDbEntity
  8
0
100
AcDbBlockBegin
  2
ARROWHEAD_2
 70
     0
 10
0.0
 20
0.0
 30
0.0
  3
ARROWHEAD_2
  1

  0
LINE
  5
396
330
393
100
AcDbEntity
  8
0
  6
Continuous
 62
     0
370
     0
100
AcDbLine
 10
-0.3781315
 20
-0.655
 30
0.0
 11
0.3781315
 21
0.655
 31
0.0
  0
LINE
  5
397
330
393
100
AcDbEntity
  8
0
  6
Continuous
 62
     0
370
     0
100
AcDbLine
 10
0.0
 20
0.0
 30
0.0
 11
-1.0
 21
0.0
 31
0.0
  0
ENDBLK
  5
395
330
393
100
AcDbEntity
  8
0
100
AcDbBlockEnd
  0
BLOCK
  5
39F
330
39E
100
AcDbEntity
  8
0
100
AcDbBlockBegin
  2
ARROWHEAD_5
 70
     0
 10
0.0
 20
0.0
 30
0.0
  3
ARROWHEAD_5
  1

  0
SOLID
  5
3A1
330
39E
100
AcDbEntity
  8
0
  6
Continuous
 62
     0
370
     0
100
AcDbTrace
 10
-1.0
 20
0.2679
 30
0.0
 11
0.0
 21
0.0
 31
0.0
 12
-1.0
 22
-0.2679
 32
0.0
 13
-1.0
 23
0.2679
 33
0.0
  0
LINE
  5
3A2
330
39E
100
AcDbEntity
  8
0
  6
Continuous
 62
     0
370
     0
100
AcDbLine
 10
0.0
 20
0.0
 30
0.0
 11
-1.0
 21
0.0
 31
0.0
  0
ENDBLK
  5
3A0
330
39E
100
AcDbEntity
  8
0
100
AcDbBlockEnd
  0
BLOCK
  5
3C8
330
3C7
100
AcDbEntity
  8
0
100
AcDbBlockBegin
  2
DC-19-R Gutter   Wall Junction_STORY_MARKER
 70
     0
 10
0.0
 20
0.0
 30
0.0
  3
DC-19-R Gutter   Wall Junction_STORY_MARKER
  1

  0
ENDBLK
  5
3C9
330
3C7
100
AcDbEntity
  8
0
100
AcDbBlockEnd
  0
ENDSEC
  0
SECTION
  2
ENTITIES
  0
HATCH
  5
3F
330
1F
100
AcDbEntity
  8
0_Pen_No__146
  6
Continuous
 62
   250
420
  3289650
370
     0
100
AcDbHatch
 10
0.0
 20
0.0
 30
0.0
210
0.0
220
0.0
230
1.0
  2
SOLID
 70
     1
 71
     0
 91
        1
 92
        3
 72
     0
 73
     1
 93
       48
 10
3.897210793704087
 20
276.6220649049733
 10
3.897210793704087
 20
279.8840172109738
 10
16.8875917937017
 20
272.3840172109742
 10
16.8875917937017
 20
371.7290888489721
 10
13.66864494192876
 20
375.9161362484735
 10
10.34220129914187
 20
381.3875121234705
 10
7.600284297346604
 20
387.134456639473
 10
5.526205696936959
 20
392.9823517949713
 10
4.182985327958022
 20
398.7535122549697
 10
3.897210793704087
 20
401.5130482419669
 10
3.897210793704087
 20
427.4927127649655
 10
8.821733609058136
 20
424.6495381794691
 10
8.821733609058136
 20
431.3859142634686
 10
6.191412153600862
 20
432.904531070466
 10
6.191412153600862
 20
430.9835024704678
 10
-2.164967006295093
 20
435.8080602489696
 10
-2.164967006295093
 20
412.01304824197
 10
-2.422022810668167
 20
408.8177611194687
 10
-1.92264822971433
 20
401.8405615644687
 10
-0.4249607021149515
 20
394.4887353784714
 10
2.025533294888415
 20
386.9856640794729
 10
5.35437673995709
 20
379.5593246919719
 10
9.46042441092887
 20
372.4353627804713
 10
10.82541399370296
 20
370.5741604869704
 10
10.82541399370029
 20
282.8840172109757
 10
-2.164967006295093
 20
290.3840172109742
 10
-2.714334996647416
 20
286.7464831624744
 10
-2.606930064947388
 20
278.6749018409756
 10
-1.29664766435944
 20
270.0520582079722
 10
1.176699936679793
 20
261.1399530024767
 10
4.737961324676743
 20
252.2093760324757
 10
9.278929372934286
 20
243.5316783589758
 10
10.82541399369896
 20
241.2290888489801
 10
10.82541399369719
 20
179.2290888489798
 10
-1.298941606295401
 20
186.229088848975
 10
-1.298941606294957
 20
173.4289292869771
 10
4.763236193703779
 20
169.9289292869783
 10
4.763236193703779
 20
175.7290888489782
 10
10.82541399369719
 20
172.2290888489828
 10
10.8254139936963
 20
152.2290888489832
 10
4.763236193703779
 20
155.7290888489786
 10
4.763236193703779
 20
148.7290888489807
 10
16.8875917937017
 20
141.7290888489817
 10
16.8875917937017
 20
242.3840172109768
 10
13.22506790984201
 20
247.9782365614758
 10
9.599217284034456
 20
255.0847110194769
 10
6.782338453831027
 20
262.374990585476
 10
4.860020857603065
 20
269.6275638029737
 97
        0
 75
     0
 76
     1
 98
        0
  0
HATCH
  5
41
330
1F
100
AcDbEntity
  8
0_Pen_No__146
  6
Continuous
 62
   250
420
  3289650
370
     0
100
AcDbHatch
 10
0.0
 20
0.0
 30
0.0
210
0.0
220
0.0
230
1.0
  2
SOLID
 70
     1
 71
     0
 91
        1
 92
        3
 72
     0
 73
     1
 93
       48
 10
3.897210793704087
 20
542.0019693103924
 10
3.897210793704087
 20
545.2639216163928
 10
16.88759179370214
 20
537.7639216163934
 10
16.88759179370214
 20
637.1089932543916
 10
13.66864494192921
 20
641.2960406538928
 10
10.34220129914187
 20
646.7674165288888
 10
7.600284297346604
 20
652.5143610448922
 10
5.526205696936959
 20
658.3622562003906
 10
4.182985327958022
 20
664.1334166603879
 10
3.897210793704087
 20
666.8929526473856
 10
3.897210793704087
 20
692.8726171703847
 10
8.821733609058136
 20
690.0294425848881
 10
8.821733609058136
 20
696.7658186688874
 10
6.191412153601306
 20
698.2844354758848
 10
6.191412153601306
 20
696.3634068758869
 10
-2.164967006294649
 20
701.1879646543883
 10
-2.164967006294649
 20
677.3929526473892
 10
-2.422022810668167
 20
674.1976655248876
 10
-1.92264822971433
 20
667.2204659698873
 10
-0.4249607021149515
 20
659.8686397838898
 10
2.025533294888415
 20
652.3655684848922
 10
5.35437673995709
 20
644.9392290973901
 10
9.460424410929313
 20
637.8152671858896
 10
10.82541399370296
 20
635.9540648923894
 10
10.82541399370029
 20
548.2639216163947
 10
-2.164967006295093
 20
555.7639216163932
 10
-2.714334996646972
 20
552.1263875678932
 10
-2.606930064947388
 20
544.0548062463946
 10
-1.296647664358996
 20
535.4319626133912
 10
1.176699936679793
 20
526.5198574078958
 10
4.737961324676743
 20
517.5892804378948
 10
9.278929372934286
 20
508.9115827643948
 10
10.82541399369896
 20
506.6089932543991
 10
10.82541399369719
 20
444.6089932543989
 10
-1.298941606294957
 20
451.6089932543939
 10
-1.298941606294957
 20
438.8088336923963
 10
4.763236193704223
 20
435.3088336923973
 10
4.763236193704223
 20
441.1089932543972
 10
10.82541399369719
 20
437.6089932544016
 10
10.8254139936963
 20
417.608993254402
 10
4.763236193704223
 20
421.1089932543977
 10
4.763236193704223
 20
414.1089932543995
 10
16.8875917937017
 20
407.108993254401
 10
16.88759179370214
 20
507.7639216163958
 10
13.22506790984201
 20
513.3581409668948
 10
9.599217284034456
 20
520.4646154248958
 10
6.782338453831027
 20
527.754894990895
 10
4.860020857603509
 20
535.0074682083925
 97
        0
 75
     0
 76
     1
 98
        0
  0
HATCH
  5
42
330
1F
100
AcDbEntity
  8
0_Pen_No__146
  6
Continuous
 62
   250
420
  3289650
370
     0
100
AcDbHatch
 10
0.0
 20
0.0
 30
0.0
210
0.0
220
0.0
230
1.0
  2
SOLID
 70
     1
 71
     0
 91
        1
 92
        3
 72
     0
 73
     1
 93
       32
 10
3.897210793704087
 20
11.24216049955429
 10
3.897210793704087
 20
14.50411280555475
 10
16.8875917937017
 20
7.004112805555351
 10
16.8875917937017
 20
106.3491844435533
 10
13.66864494192876
 20
110.5362318430543
 10
10.34220129914187
 20
116.0076077180514
 10
7.600284297346604
 20
121.7545522340537
 10
5.526205696936959
 20
127.6024473895523
 10
4.182985327958022
 20
133.3736078495507
 10
3.897210793704087
 20
136.1331438365478
 10
3.897210793704087
 20
162.1128083595467
 10
8.821733609058136
 20
159.26963377405
 10
8.821733609058136
 20
166.0060098580496
 10
6.191412153600862
 20
167.524626665047
 10
6.191412153600862
 20
165.6035980650485
 10
-2.164967006295093
 20
170.4281558435505
 10
-2.164967006295093
 20
146.6331438365507
 10
-2.422022810668167
 20
143.4378567140497
 10
-1.92264822971433
 20
136.4606571590496
 10
-0.4249607021149515
 20
129.1088309730524
 10
2.025533294888415
 20
121.6057596740538
 10
5.35437673995709
 20
114.1794202865529
 10
9.46042441092887
 20
107.0554583750523
 10
10.82541399370296
 20
105.1942560815513
 10
10.82541399370029
 20
17.50411280555664
 10
-2.164967006295093
 20
25.00411280555537
 10
-2.714334996647416
 20
21.36657875705539
 10
-2.606930064947388
 20
13.29499743555651
 10
-1.29664766435944
 20
4.672153802553147
 10
0.0
 20
0.0
 10
5.985876489505104
 20
0.0
 10
4.860020857603065
 20
4.247659397554671
 97
        0
 75
     0
 76
     1
 98
        0
  0
HATCH
  5
43
330
1F
100
AcDbEntity
  8
0_Pen_No__146
  6
Continuous
 62
   250
420
  3289650
370
     0
100
AcDbHatch
 10
0.0
 20
0.0
 30
0.0
210
0.0
220
0.0
230
1.0
  2
SOLID
 70
     1
 71
     0
 91
        1
 92
        3
 72
     0
 73
     1
 93
        5
 10
323.5474870713393
 20
357.9537687111423
 10
317.7323683282176
 20
361.3111290975249
 10
317.485309271335
 20
361.2964793518517
 10
317.4853092713337
 20
322.2792628600236
 10
323.5474870713393
 20
318.7792628600204
 97
        0
 75
     0
 76
     1
 98
        0
  0
HATCH
  5
44
330
1F
100
AcDbEntity
  8
0_Pen_No__146
  6
Continuous
 62
   250
420
  3289650
370
     0
100
AcDbHatch
 10
0.0
 20
0.0
 30
0.0
210
0.0
220
0.0
230
1.0
  2
SOLID
 70
     1
 71
     0
 91
        1
 92
        3
 72
     0
 73
     1
 93
        3
 10
323.5474870713393
 20
357.9537687111422
 10
323.9126077109953
 20
361.70929529046
 10
317.7323683282174
 20
361.3111290975249
 97
        0
 75
     0
 76
     1
 98
        0
  0
HATCH
  5
45
330
1F
100
AcDbEntity
  8
0_Pen_No__146
  6
Continuous
 62
   250
420
  3289650
370
     0
100
AcDbHatch
 10
0.0
 20
0.0
 30
0.0
210
0.0
220
0.0
230
1.0
  2
SOLID
 70
     1
 71
     0
 91
        1
 92
        3
 72
     0
 73
     1
 93
        5
 10
317.485309271335
 20
361.4537687111451
 10
317.7323683282174
 20
361.3111290975249
 10
323.9126077109953
 20
361.70929529046
 10
324.6207088478425
 20
368.9926212694618
 10
318.5585310478396
 20
372.4926212694636
 97
        0
 75
     0
 76
     1
 98
        0
  0
HATCH
  5
46
330
1F
100
AcDbEntity
  8
0_Pen_No__146
  6
Continuous
 62
   250
420
  3289650
370
     0
100
AcDbHatch
 10
0.0
 20
0.0
 30
0.0
210
0.0
220
0.0
230
1.0
  2
SOLID
 70
     1
 71
     0
 91
        1
 92
        3
 72
     0
 73
     1
 93
        4
 10
314.2416468430431
 20
379.2853653921523
 10
318.5585310478396
 20
372.4926212694636
 10
324.6207088478425
 20
368.9926212694616
 10
316.8065458011695
 20
381.2884363969661
 97
        0
 75
     0
 76
     1
 98
        0
  0
HATCH
  5
47
330
1F
100
AcDbEntity
  8
0_Pen_No__146
  6
Continuous
 62
   250
420
  3289650
370
     0
100
AcDbHatch
 10
0.0
 20
0.0
 30
0.0
210
0.0
220
0.0
230
1.0
  2
SOLID
 70
     1
 71
     0
 91
        1
 92
        3
 72
     0
 73
     1
 93
        4
 10
302.9439096680542
 20
397.0626867550512
 10
314.2416468430431
 20
379.2853653921523
 10
316.8065458011695
 20
381.2884363969661
 10
309.0060874680573
 20
393.5626867550491
 97
        0
 75
     0
 76
     1
 98
        0
  0
HATCH
  5
48
330
1F
100
AcDbEntity
  8
0_Pen_No__146
  6
Continuous
 62
   250
420
  3289650
370
     0
100
AcDbHatch
 10
0.0
 20
0.0
 30
0.0
210
0.0
220
0.0
230
1.0
  2
SOLID
 70
     1
 71
     0
 91
        1
 92
        3
 72
     0
 73
     1
 93
        5
 10
309.0060874680573
 20
393.5626867550491
 10
306.1716534752481
 20
406.0513178282176
 10
303.4146740242392
 20
407.6430606633633
 10
300.9749995862379
 20
405.7377843902138
 10
302.9439096680542
 20
397.0626867550512
 97
        0
 75
     0
 76
     1
 98
        0
  0
HATCH
  5
49
330
1F
100
AcDbEntity
  8
0_Pen_No__146
  6
Continuous
 62
   250
420
  3289650
370
     0
100
AcDbHatch
 10
0.0
 20
0.0
 30
0.0
210
0.0
220
0.0
230
1.0
  2
SOLID
 70
     1
 71
     0
 91
        1
 92
        3
 72
     0
 73
     1
 93
        7
 10
300.1094756752449
 20
409.5513178282194
 10
303.4146740242392
 20
407.6430606633633
 10
305.3879081847879
 20
409.1840680079918
 10
301.8367096921361
 20
414.6082465130402
 10
299.4136255149356
 20
419.3573626769266
 10
295.2447644261788
 20
416.1016692144116
 10
300.2705872164382
 20
408.8414538466637
 97
        0
 75
     0
 76
     1
 98
        0
  0
HATCH
  5
4A
330
1F
100
AcDbEntity
  8
0_Pen_No__146
  6
Continuous
 62
   250
420
  3289650
370
     0
100
AcDbHatch
 10
0.0
 20
0.0
 30
0.0
210
0.0
220
0.0
230
1.0
  2
SOLID
 70
     1
 71
     0
 91
        1
 92
        3
 72
     0
 73
     1
 93
       17
 10
295.3939802361249
 20
429.0050005370406
 10
293.4716626398972
 20
436.2575737545376
 10
292.508852575998
 20
443.2520748565377
 10
292.508852575998
 20
446.5140271625384
 10
305.4992335759956
 20
439.014027162539
 10
301.1589988609597
 20
450.4806971471756
 10
295.0968210609568
 20
453.9806971471775
 10
296.0465631038656
 20
451.4715290280332
 10
286.4466747759988
 20
457.014027162539
 10
285.8973067856465
 20
453.3764931140386
 10
286.0047117173468
 20
445.3049117925395
 10
287.3149941179345
 20
436.6820681595368
 10
289.7883417189739
 20
427.7699629540409
 10
293.3496031069707
 20
418.8393859840401
 10
295.2447644261788
 20
416.1016692144116
 10
299.4136255149356
 20
419.3573626769266
 10
298.2108590663284
 20
421.7147209710413
 97
        0
 75
     0
 76
     1
 98
        0
  0
HATCH
  5
4B
330
1F
100
AcDbEntity
  8
0_Pen_No__146
  6
Continuous
 62
   250
420
  3289650
370
     0
100
AcDbHatch
 10
0.0
 20
0.0
 30
0.0
210
0.0
220
0.0
230
1.0
  2
SOLID
 70
     1
 71
     0
 91
        1
 92
        3
 72
     0
 73
     1
 93
        4
 10
291.7913525183848
 20
475.2295220830673
 10
288.5853311554083
 20
471.1837082185741
 10
295.0968210609568
 20
453.9806971471775
 10
301.1589988609597
 20
450.4806971471756
 97
        0
 75
     0
 76
     1
 98
        0
  0
HATCH
  5
4C
330
1F
100
AcDbEntity
  8
0_Pen_No__146
  6
Continuous
 62
   250
420
  3289650
370
     0
100
AcDbHatch
 10
0.0
 20
0.0
 30
0.0
210
0.0
220
0.0
230
1.0
  2
SOLID
 70
     1
 71
     0
 91
        1
 92
        3
 72
     0
 73
     1
 93
        4
 10
288.5853311554083
 20
471.1837082185741
 10
291.7913525183848
 20
475.2295220830673
 10
287.268183412716
 20
487.1794950280178
 10
281.2060056127126
 20
490.6794950280199
 97
        0
 75
     0
 76
     1
 98
        0
  0
HATCH
  5
4D
330
1F
100
AcDbEntity
  8
0_Pen_No__146
  6
Continuous
 62
   250
420
  3289650
370
     0
100
AcDbHatch
 10
0.0
 20
0.0
 30
0.0
210
0.0
220
0.0
230
1.0
  2
SOLID
 70
     1
 71
     0
 91
        1
 92
        3
 72
     0
 73
     1
 93
        4
 10
287.6420771562766
 20
521.203825692048
 10
281.5798993562739
 20
524.7038256920501
 10
281.2060056127126
 20
490.6794950280197
 10
287.2681834127158
 20
487.179495028018
 97
        0
 75
     0
 76
     1
 98
        0
  0
HATCH
  5
4E
330
1F
100
AcDbEntity
  8
0_Pen_No__146
  6
Continuous
 62
   250
420
  3289650
370
     0
100
AcDbHatch
 10
0.0
 20
0.0
 30
0.0
210
0.0
220
0.0
230
1.0
  2
SOLID
 70
     1
 71
     0
 91
        1
 92
        3
 72
     0
 73
     1
 93
       18
 10
277.9567099611642
 20
535.5460982232935
 10
274.3308593353568
 20
542.6525726812944
 10
271.5139805051534
 20
549.9428522472932
 10
269.5916629089252
 20
557.1954254647918
 10
268.6288528450262
 20
564.1899265667907
 10
268.6288528450265
 20
567.4518788727914
 10
281.6192338450236
 20
559.9518788727925
 10
262.0722358420453
 20
574.6780451814523
 10
262.017307054675
 20
574.3143448242917
 10
262.124711986375
 20
566.2427635027925
 10
263.4349943869627
 20
557.6199198697904
 10
265.9083419880022
 20
548.707814664294
 10
269.4696033759991
 20
539.7772376942934
 10
276.3905874854664
 20
529.7793055569178
 10
281.5798993562742
 20
524.7038256920495
 10
287.6420771562766
 20
521.203825692048
 10
284.9860784460192
 20
526.5158231125632
 10
281.6192338450236
 20
529.951878872795
 97
        0
 75
     0
 76
     1
 98
        0
  0
LWPOLYLINE
  5
4F
330
1F
100
AcDbEntity
  8
0_Pen_No__1
  6
Continuous
100
AcDbPolyline
 90
        2
 70
   128
 43
0.0
 10
292.508852575998
 20
443.2520748565377
 10
292.508852575998
 20
446.5140271625382
  0
LWPOLYLINE
  5
51
330
1F
100
AcDbEntity
  8
0_Pen_No__1
  6
Continuous
100
AcDbPolyline
 90
        2
 70
   128
 43
0.0
 10
292.508852575998
 20
446.5140271625382
 10
305.4992335759956
 20
439.0140271625388
  0
LWPOLYLINE
  5
52
330
1F
100
AcDbEntity
  8
0_Pen_No__1
  6
Continuous
100
AcDbPolyline
 90
        2
 70
   128
 43
0.0
 10
286.4466747759988
 20
457.0140271625388
 10
285.8973067856465
 20
453.3764931140386
  0
LWPOLYLINE
  5
53
330
1F
100
AcDbEntity
  8
0_Pen_No__1
  6
Continuous
100
AcDbPolyline
 90
        2
 70
   128
 43
0.0
 10
285.8973067856465
 20
453.3764931140386
 10
286.0047117173468
 20
445.3049117925399
  0
LWPOLYLINE
  5
54
330
1F
100
AcDbEntity
  8
0_Pen_No__1
  6
Continuous
100
AcDbPolyline
 90
        2
 70
   128
 43
0.0
 10
286.0047117173468
 20
445.3049117925399
 10
287.3149941179345
 20
436.6820681595366
  0
LWPOLYLINE
  5
55
330
1F
100
AcDbEntity
  8
0_Pen_No__1
  6
Continuous
100
AcDbPolyline
 90
        2
 70
   128
 43
0.0
 10
287.3149941179345
 20
436.6820681595366
 10
289.7883417189737
 20
427.7699629540411
  0
LWPOLYLINE
  5
56
330
1F
100
AcDbEntity
  8
0_Pen_No__1
  6
Continuous
100
AcDbPolyline
 90
        2
 70
   128
 43
0.0
 10
289.7883417189737
 20
427.7699629540411
 10
293.3496031069709
 20
418.8393859840401
  0
LWPOLYLINE
  5
57
330
1F
100
AcDbEntity
  8
0_Pen_No__1
  6
Continuous
100
AcDbPolyline
 90
        2
 70
   128
 43
0.0
 10
305.4992335759956
 20
409.0140271625412
 10
301.836709692136
 20
414.6082465130402
  0
LWPOLYLINE
  5
58
330
1F
100
AcDbEntity
  8
0_Pen_No__1
  6
Continuous
100
AcDbPolyline
 90
        2
 70
   128
 43
0.0
 10
301.836709692136
 20
414.6082465130402
 10
298.2108590663284
 20
421.7147209710413
  0
LWPOLYLINE
  5
59
330
1F
100
AcDbEntity
  8
0_Pen_No__1
  6
Continuous
100
AcDbPolyline
 90
        2
 70
   128
 43
0.0
 10
298.2108590663284
 20
421.7147209710413
 10
295.3939802361249
 20
429.0050005370401
  0
LWPOLYLINE
  5
5A
330
1F
100
AcDbEntity
  8
0_Pen_No__1
  6
Continuous
100
AcDbPolyline
 90
        2
 70
   128
 43
0.0
 10
295.3939802361249
 20
429.0050005370401
 10
293.471662639897
 20
436.2575737545381
  0
LWPOLYLINE
  5
5B
330
1F
100
AcDbEntity
  8
0_Pen_No__1
  6
Continuous
100
AcDbPolyline
 90
        2
 70
   128
 43
0.0
 10
293.471662639897
 20
436.2575737545381
 10
292.508852575998
 20
443.2520748565377
  0
LWPOLYLINE
  5
5C
330
1F
100
AcDbEntity
  8
0_Pen_No__1
  6
Continuous
100
AcDbPolyline
 90
        2
 70
   128
 43
0.0
 10
296.0465631038658
 20
451.4715290280332
 10
286.4466747759988
 20
457.0140271625388
  0
LWPOLYLINE
  5
5D
330
1F
100
AcDbEntity
  8
0_Pen_No__1
  6
Continuous
100
AcDbPolyline
 90
        2
 70
   128
 43
0.0
 10
262.0722358420453
 20
574.6780451814523
 10
262.017307054675
 20
574.3143448242921
  0
LWPOLYLINE
  5
5E
330
1F
100
AcDbEntity
  8
0_Pen_No__1
  6
Continuous
100
AcDbPolyline
 90
        2
 70
   128
 43
0.0
 10
323.5474870713393
 20
318.7792628600204
 10
323.5474870713393
 20
357.9537687111426
  0
LWPOLYLINE
  5
5F
330
1F
100
AcDbEntity
  8
0_Pen_No__1
  6
Continuous
100
AcDbPolyline
 90
        2
 70
   128
 43
0.0
 10
317.485309271335
 20
361.4537687111448
 10
317.485309271335
 20
356.2792628600183
  0
LWPOLYLINE
  5
60
330
1F
100
AcDbEntity
  8
0_Pen_No__1
  6
Continuous
100
AcDbPolyline
 90
        2
 70
   128
 43
0.0
 10
293.3496031069709
 20
418.8393859840401
 10
300.2705872164379
 20
408.8414538466641
  0
LWPOLYLINE
  5
61
330
1F
100
AcDbEntity
  8
0_Pen_No__1
  6
Continuous
100
AcDbPolyline
 90
        2
 70
   128
 43
0.0
 10
268.6288528450265
 20
564.1899265667907
 10
268.6288528450265
 20
567.4518788727912
  0
LWPOLYLINE
  5
62
330
1F
100
AcDbEntity
  8
0_Pen_No__1
  6
Continuous
100
AcDbPolyline
 90
        2
 70
   128
 43
0.0
 10
268.6288528450265
 20
567.4518788727912
 10
281.6192338450239
 20
559.9518788727921
  0
LWPOLYLINE
  5
63
330
1F
100
AcDbEntity
  8
0_Pen_No__1
  6
Continuous
100
AcDbPolyline
 90
        2
 70
   128
 43
0.0
 10
262.017307054675
 20
574.3143448242921
 10
262.1247119863748
 20
566.242763502793
  0
LWPOLYLINE
  5
64
330
1F
100
AcDbEntity
  8
0_Pen_No__1
  6
Continuous
100
AcDbPolyline
 90
        2
 70
   128
 43
0.0
 10
262.1247119863748
 20
566.242763502793
 10
263.4349943869627
 20
557.6199198697899
  0
LWPOLYLINE
  5
65
330
1F
100
AcDbEntity
  8
0_Pen_No__1
  6
Continuous
100
AcDbPolyline
 90
        2
 70
   128
 43
0.0
 10
263.4349943869627
 20
557.6199198697899
 10
265.9083419880022
 20
548.7078146642945
  0
LWPOLYLINE
  5
66
330
1F
100
AcDbEntity
  8
0_Pen_No__1
  6
Continuous
100
AcDbPolyline
 90
        2
 70
   128
 43
0.0
 10
265.9083419880022
 20
548.7078146642945
 10
269.4696033759989
 20
539.7772376942934
  0
LWPOLYLINE
  5
67
330
1F
100
AcDbEntity
  8
0_Pen_No__1
  6
Continuous
100
AcDbPolyline
 90
        2
 70
   128
 43
0.0
 10
281.6192338450239
 20
529.9518788727945
 10
277.9567099611642
 20
535.5460982232935
  0
LWPOLYLINE
  5
68
330
1F
100
AcDbEntity
  8
0_Pen_No__1
  6
Continuous
100
AcDbPolyline
 90
        2
 70
   128
 43
0.0
 10
277.9567099611642
 20
535.5460982232935
 10
274.3308593353566
 20
542.6525726812946
  0
LWPOLYLINE
  5
69
330
1F
100
AcDbEntity
  8
0_Pen_No__1
  6
Continuous
100
AcDbPolyline
 90
        2
 70
   128
 43
0.0
 10
274.3308593353566
 20
542.6525726812946
 10
271.5139805051532
 20
549.9428522472937
  0
LWPOLYLINE
  5
6A
330
1F
100
AcDbEntity
  8
0_Pen_No__1
  6
Continuous
100
AcDbPolyline
 90
        2
 70
   128
 43
0.0
 10
271.5139805051532
 20
549.9428522472937
 10
269.5916629089252
 20
557.1954254647914
  0
LWPOLYLINE
  5
6B
330
1F
100
AcDbEntity
  8
0_Pen_No__1
  6
Continuous
100
AcDbPolyline
 90
        2
 70
   128
 43
0.0
 10
269.5916629089252
 20
557.1954254647914
 10
268.6288528450265
 20
564.1899265667907
  0
LWPOLYLINE
  5
6C
330
1F
100
AcDbEntity
  8
0_Pen_No__1
  6
Continuous
100
AcDbPolyline
 90
        2
 70
   128
 43
0.0
 10
269.4696033759989
 20
539.7772376942934
 10
276.3905874854664
 20
529.7793055569174
  0
LWPOLYLINE
  5
6D
330
1F
100
AcDbEntity
  8
0_Pen_No__1
  6
Continuous
100
AcDbPolyline
 90
        2
 70
   128
 43
0.0
 10
317.4853092713337
 20
322.2792628600234
 10
323.5474870713393
 20
318.7792628600204
  0
LWPOLYLINE
  5
6E
330
1F
100
AcDbEntity
  8
0_Pen_No__1
  6
Continuous
100
AcDbPolyline
 90
        2
 70
   128
 43
0.0
 10
317.485309271335
 20
356.2792628600183
 10
317.4853092713337
 20
322.2792628600234
  0
LWPOLYLINE
  5
6F
330
1F
100
AcDbEntity
  8
0_Pen_No__1
  6
Continuous
100
AcDbPolyline
 90
        2
 70
   128
 43
0.0
 10
3.897210793704087
 20
276.6220649049733
 10
3.897210793704087
 20
279.8840172109738
  0
LWPOLYLINE
  5
70
330
1F
100
AcDbEntity
  8
0_Pen_No__1
  6
Continuous
100
AcDbPolyline
 90
        2
 70
   128
 43
0.0
 10
3.897210793704087
 20
279.8840172109738
 10
16.8875917937017
 20
272.3840172109742
  0
LWPOLYLINE
  5
71
330
1F
100
AcDbEntity
  8
0_Pen_No__1
  6
Continuous
100
AcDbPolyline
 90
        2
 70
   128
 43
0.0
 10
16.8875917937017
 20
272.3840172109742
 10
16.8875917937017
 20
371.7290888489721
  0
LWPOLYLINE
  5
72
330
1F
100
AcDbEntity
  8
0_Pen_No__1
  6
Continuous
100
AcDbPolyline
 90
        2
 70
   128
 43
0.0
 10
16.8875917937017
 20
371.7290888489721
 10
13.66864494192876
 20
375.9161362484735
  0
LWPOLYLINE
  5
73
330
1F
100
AcDbEntity
  8
0_Pen_No__1
  6
Continuous
100
AcDbPolyline
 90
        2
 70
   128
 43
0.0
 10
13.66864494192876
 20
375.9161362484735
 10
10.34220129914187
 20
381.3875121234705
  0
LWPOLYLINE
  5
74
330
1F
100
AcDbEntity
  8
0_Pen_No__1
  6
Continuous
100
AcDbPolyline
 90
        2
 70
   128
 43
0.0
 10
10.34220129914187
 20
381.3875121234705
 10
7.600284297346604
 20
387.134456639473
  0
LWPOLYLINE
  5
75
330
1F
100
AcDbEntity
  8
0_Pen_No__1
  6
Continuous
100
AcDbPolyline
 90
        2
 70
   128
 43
0.0
 10
7.600284297346604
 20
387.134456639473
 10
5.526205696936959
 20
392.9823517949713
  0
LWPOLYLINE
  5
76
330
1F
100
AcDbEntity
  8
0_Pen_No__1
  6
Continuous
100
AcDbPolyline
 90
        2
 70
   128
 43
0.0
 10
5.526205696936959
 20
392.9823517949713
 10
4.182985327958022
 20
398.7535122549697
  0
LWPOLYLINE
  5
77
330
1F
100
AcDbEntity
  8
0_Pen_No__1
  6
Continuous
100
AcDbPolyline
 90
        2
 70
   128
 43
0.0
 10
4.182985327958022
 20
398.7535122549697
 10
3.897210793704087
 20
401.5130482419669
  0
LWPOLYLINE
  5
78
330
1F
100
AcDbEntity
  8
0_Pen_No__1
  6
Continuous
100
AcDbPolyline
 90
        2
 70
   128
 43
0.0
 10
3.897210793704087
 20
401.5130482419669
 10
3.897210793704087
 20
427.4927127649655
  0
LWPOLYLINE
  5
79
330
1F
100
AcDbEntity
  8
0_Pen_No__1
  6
Continuous
100
AcDbPolyline
 90
        2
 70
   128
 43
0.0
 10
3.897210793704087
 20
427.4927127649655
 10
8.821733609058136
 20
424.6495381794691
  0
LWPOLYLINE
  5
7A
330
1F
100
AcDbEntity
  8
0_Pen_No__1
  6
Continuous
100
AcDbPolyline
 90
        2
 70
   128
 43
0.0
 10
8.821733609058136
 20
424.6495381794691
 10
8.821733609058136
 20
431.3859142634686
  0
LWPOLYLINE
  5
7B
330
1F
100
AcDbEntity
  8
0_Pen_No__1
  6
Continuous
100
AcDbPolyline
 90
        2
 70
   128
 43
0.0
 10
8.821733609058136
 20
431.3859142634686
 10
6.191412153600862
 20
432.904531070466
  0
LWPOLYLINE
  5
7C
330
1F
100
AcDbEntity
  8
0_Pen_No__1
  6
Continuous
100
AcDbPolyline
 90
        2
 70
   128
 43
0.0
 10
6.191412153600862
 20
432.904531070466
 10
6.191412153600862
 20
430.9835024704678
  0
LWPOLYLINE
  5
7D
330
1F
100
AcDbEntity
  8
0_Pen_No__1
  6
Continuous
100
AcDbPolyline
 90
        2
 70
   128
 43
0.0
 10
6.191412153600862
 20
430.9835024704678
 10
-2.164967006295093
 20
435.8080602489696
  0
LWPOLYLINE
  5
7E
330
1F
100
AcDbEntity
  8
0_Pen_No__1
  6
Continuous
100
AcDbPolyline
 90
        2
 70
   128
 43
0.0
 10
-2.164967006295093
 20
435.8080602489696
 10
-2.164967006295093
 20
412.01304824197
  0
LWPOLYLINE
  5
7F
330
1F
100
AcDbEntity
  8
0_Pen_No__1
  6
Continuous
100
AcDbPolyline
 90
        2
 70
   128
 43
0.0
 10
-2.164967006295093
 20
412.01304824197
 10
-2.422022810668167
 20
408.8177611194687
  0
LWPOLYLINE
  5
80
330
1F
100
AcDbEntity
  8
0_Pen_No__1
  6
Continuous
100
AcDbPolyline
 90
        2
 70
   128
 43
0.0
 10
-2.422022810668167
 20
408.8177611194687
 10
-1.92264822971433
 20
401.8405615644687
  0
LWPOLYLINE
  5
81
330
1F
100
AcDbEntity
  8
0_Pen_No__1
  6
Continuous
100
AcDbPolyline
 90
        2
 70
   128
 43
0.0
 10
-1.92264822971433
 20
401.8405615644687
 10
-0.4249607021149515
 20
394.4887353784714
  0
LWPOLYLINE
  5
82
330
1F
100
AcDbEntity
  8
0_Pen_No__1
  6
Continuous
100
AcDbPolyline
 90
        2
 70
   128
 43
0.0
 10
-0.4249607021149515
 20
394.4887353784714
 10
2.025533294888415
 20
386.9856640794729
  0
LWPOLYLINE
  5
83
330
1F
100
AcDbEntity
  8
0_Pen_No__1
  6
Continuous
100
AcDbPolyline
 90
        2
 70
   128
 43
0.0
 10
2.025533294888415
 20
386.9856640794729
 10
5.35437673995709
 20
379.5593246919719
  0
LWPOLYLINE
  5
84
330
1F
100
AcDbEntity
  8
0_Pen_No__1
  6
Continuous
100
AcDbPolyline
 90
        2
 70
   128
 43
0.0
 10
5.35437673995709
 20
379.5593246919719
 10
9.46042441092887
 20
372.4353627804713
  0
LWPOLYLINE
  5
85
330
1F
100
AcDbEntity
  8
0_Pen_No__1
  6
Continuous
100
AcDbPolyline
 90
        2
 70
   128
 43
0.0
 10
9.46042441092887
 20
372.4353627804713
 10
10.82541399370296
 20
370.5741604869704
  0
LWPOLYLINE
  5
86
330
1F
100
AcDbEntity
  8
0_Pen_No__1
  6
Continuous
100
AcDbPolyline
 90
        2
 70
   128
 43
0.0
 10
10.82541399370296
 20
370.5741604869704
 10
10.82541399370029
 20
282.8840172109757
  0
LWPOLYLINE
  5
87
330
1F
100
AcDbEntity
  8
0_Pen_No__1
  6
Continuous
100
AcDbPolyline
 90
        2
 70
   128
 43
0.0
 10
10.82541399370029
 20
282.8840172109757
 10
-2.164967006295093
 20
290.3840172109742
  0
LWPOLYLINE
  5
88
330
1F
100
AcDbEntity
  8
0_Pen_No__1
  6
Continuous
100
AcDbPolyline
 90
        2
 70
   128
 43
0.0
 10
-2.164967006295093
 20
290.3840172109742
 10
-2.714334996647416
 20
286.7464831624744
  0
LWPOLYLINE
  5
89
330
1F
100
AcDbEntity
  8
0_Pen_No__1
  6
Continuous
100
AcDbPolyline
 90
        2
 70
   128
 43
0.0
 10
-2.714334996647416
 20
286.7464831624744
 10
-2.606930064947388
 20
278.6749018409756
  0
LWPOLYLINE
  5
8A
330
1F
100
AcDbEntity
  8
0_Pen_No__1
  6
Continuous
100
AcDbPolyline
 90
        2
 70
   128
 43
0.0
 10
-2.606930064947388
 20
278.6749018409756
 10
-1.29664766435944
 20
270.0520582079722
  0
LWPOLYLINE
  5
8B
330
1F
100
AcDbEntity
  8
0_Pen_No__1
  6
Continuous
100
AcDbPolyline
 90
        2
 70
   128
 43
0.0
 10
-1.29664766435944
 20
270.0520582079722
 10
1.176699936679793
 20
261.1399530024767
  0
LWPOLYLINE
  5
8C
330
1F
100
AcDbEntity
  8
0_Pen_No__1
  6
Continuous
100
AcDbPolyline
 90
        2
 70
   128
 43
0.0
 10
1.176699936679793
 20
261.1399530024767
 10
4.737961324676743
 20
252.2093760324757
  0
LWPOLYLINE
  5
8D
330
1F
100
AcDbEntity
  8
0_Pen_No__1
  6
Continuous
100
AcDbPolyline
 90
        2
 70
   128
 43
0.0
 10
4.737961324676743
 20
252.2093760324757
 10
9.278929372934286
 20
243.5316783589758
  0
LWPOLYLINE
  5
8E
330
1F
100
AcDbEntity
  8
0_Pen_No__1
  6
Continuous
100
AcDbPolyline
 90
        2
 70
   128
 43
0.0
 10
9.278929372934286
 20
243.5316783589758
 10
10.82541399369896
 20
241.2290888489801
  0
LWPOLYLINE
  5
8F
330
1F
100
AcDbEntity
  8
0_Pen_No__1
  6
Continuous
100
AcDbPolyline
 90
        2
 70
   128
 43
0.0
 10
10.82541399369896
 20
241.2290888489801
 10
10.82541399369719
 20
179.2290888489798
  0
LWPOLYLINE
  5
90
330
1F
100
AcDbEntity
  8
0_Pen_No__1
  6
Continuous
100
AcDbPolyline
 90
        2
 70
   128
 43
0.0
 10
10.82541399369719
 20
179.2290888489798
 10
-1.298941606295401
 20
186.229088848975
  0
LWPOLYLINE
  5
91
330
1F
100
AcDbEntity
  8
0_Pen_No__1
  6
Continuous
100
AcDbPolyline
 90
        2
 70
   128
 43
0.0
 10
-1.298941606295401
 20
186.229088848975
 10
-1.298941606294957
 20
173.4289292869771
  0
LWPOLYLINE
  5
92
330
1F
100
AcDbEntity
  8
0_Pen_No__1
  6
Continuous
100
AcDbPolyline
 90
        2
 70
   128
 43
0.0
 10
-1.298941606294957
 20
173.4289292869771
 10
4.763236193703779
 20
169.9289292869783
  0
LWPOLYLINE
  5
93
330
1F
100
AcDbEntity
  8
0_Pen_No__1
  6
Continuous
100
AcDbPolyline
 90
        2
 70
   128
 43
0.0
 10
4.763236193703779
 20
169.9289292869783
 10
4.763236193703779
 20
175.7290888489782
  0
LWPOLYLINE
  5
94
330
1F
100
AcDbEntity
  8
0_Pen_No__1
  6
Continuous
100
AcDbPolyline
 90
        2
 70
   128
 43
0.0
 10
4.763236193703779
 20
175.7290888489782
 10
10.82541399369719
 20
172.2290888489828
  0
LWPOLYLINE
  5
95
330
1F
100
AcDbEntity
  8
0_Pen_No__1
  6
Continuous
100
AcDbPolyline
 90
        2
 70
   128
 43
0.0
 10
10.82541399369719
 20
172.2290888489828
 10
10.8254139936963
 20
152.2290888489832
  0
LWPOLYLINE
  5
96
330
1F
100
AcDbEntity
  8
0_Pen_No__1
  6
Continuous
100
AcDbPolyline
 90
        2
 70
   128
 43
0.0
 10
10.8254139936963
 20
152.2290888489832
 10
4.763236193703779
 20
155.7290888489786
  0
LWPOLYLINE
  5
97
330
1F
100
AcDbEntity
  8
0_Pen_No__1
  6
Continuous
100
AcDbPolyline
 90
        2
 70
   128
 43
0.0
 10
4.763236193703779
 20
155.7290888489786
 10
4.763236193703779
 20
148.7290888489807
  0
LWPOLYLINE
  5
98
330
1F
100
AcDbEntity
  8
0_Pen_No__1
  6
Continuous
100
AcDbPolyline
 90
        2
 70
   128
 43
0.0
 10
4.763236193703779
 20
148.7290888489807
 10
16.8875917937017
 20
141.7290888489817
  0
LWPOLYLINE
  5
99
330
1F
100
AcDbEntity
  8
0_Pen_No__1
  6
Continuous
100
AcDbPolyline
 90
        2
 70
   128
 43
0.0
 10
16.8875917937017
 20
141.7290888489817
 10
16.8875917937017
 20
242.3840172109768
  0
LWPOLYLINE
  5
9A
330
1F
100
AcDbEntity
  8
0_Pen_No__1
  6
Continuous
100
AcDbPolyline
 90
        2
 70
   128
 43
0.0
 10
16.8875917937017
 20
242.3840172109768
 10
13.22506790984201
 20
247.9782365614758
  0
LWPOLYLINE
  5
9B
330
1F
100
AcDbEntity
  8
0_Pen_No__1
  6
Continuous
100
AcDbPolyline
 90
        2
 70
   128
 43
0.0
 10
13.22506790984201
 20
247.9782365614758
 10
9.599217284034456
 20
255.0847110194769
  0
LWPOLYLINE
  5
9C
330
1F
100
AcDbEntity
  8
0_Pen_No__1
  6
Continuous
100
AcDbPolyline
 90
        2
 70
   128
 43
0.0
 10
9.599217284034456
 20
255.0847110194769
 10
6.782338453831027
 20
262.374990585476
  0
LWPOLYLINE
  5
9D
330
1F
100
AcDbEntity
  8
0_Pen_No__1
  6
Continuous
100
AcDbPolyline
 90
        2
 70
   128
 43
0.0
 10
6.782338453831027
 20
262.374990585476
 10
4.860020857603065
 20
269.6275638029737
  0
LWPOLYLINE
  5
9E
330
1F
100
AcDbEntity
  8
0_Pen_No__1
  6
Continuous
100
AcDbPolyline
 90
        2
 70
   128
 43
0.0
 10
4.860020857603065
 20
269.6275638029737
 10
3.897210793704087
 20
276.6220649049733
  0
LWPOLYLINE
  5
9F
330
1F
100
AcDbEntity
  8
0_Pen_No__1
  6
Continuous
100
AcDbPolyline
 90
        2
 70
   128
 43
0.0
 10
3.897210793704087
 20
542.0019693103924
 10
3.897210793704087
 20
545.2639216163928
  0
LWPOLYLINE
  5
A0
330
1F
100
AcDbEntity
  8
0_Pen_No__1
  6
Continuous
100
AcDbPolyline
 90
        2
 70
   128
 43
0.0
 10
3.897210793704087
 20
545.2639216163928
 10
16.88759179370214
 20
537.7639216163934
  0
LWPOLYLINE
  5
A1
330
1F
100
AcDbEntity
  8
0_Pen_No__1
  6
Continuous
100
AcDbPolyline
 90
        2
 70
   128
 43
0.0
 10
16.88759179370214
 20
537.7639216163934
 10
16.88759179370214
 20
637.1089932543916
  0
LWPOLYLINE
  5
A2
330
1F
100
AcDbEntity
  8
0_Pen_No__1
  6
Continuous
100
AcDbPolyline
 90
        2
 70
   128
 43
0.0
 10
16.88759179370214
 20
637.1089932543916
 10
13.66864494192921
 20
641.2960406538928
  0
LWPOLYLINE
  5
A3
330
1F
100
AcDbEntity
  8
0_Pen_No__1
  6
Continuous
100
AcDbPolyline
 90
        2
 70
   128
 43
0.0
 10
13.66864494192921
 20
641.2960406538928
 10
10.34220129914187
 20
646.7674165288888
  0
LWPOLYLINE
  5
A4
330
1F
100
AcDbEntity
  8
0_Pen_No__1
  6
Continuous
100
AcDbPolyline
 90
        2
 70
   128
 43
0.0
 10
10.34220129914187
 20
646.7674165288888
 10
7.600284297346604
 20
652.5143610448922
  0
LWPOLYLINE
  5
A5
330
1F
100
AcDbEntity
  8
0_Pen_No__1
  6
Continuous
100
AcDbPolyline
 90
        2
 70
   128
 43
0.0
 10
7.600284297346604
 20
652.5143610448922
 10
5.526205696936959
 20
658.3622562003906
  0
LWPOLYLINE
  5
A6
330
1F
100
AcDbEntity
  8
0_Pen_No__1
  6
Continuous
100
AcDbPolyline
 90
        2
 70
   128
 43
0.0
 10
5.526205696936959
 20
658.3622562003906
 10
4.182985327958022
 20
664.1334166603879
  0
LWPOLYLINE
  5
A7
330
1F
100
AcDbEntity
  8
0_Pen_No__1
  6
Continuous
100
AcDbPolyline
 90
        2
 70
   128
 43
0.0
 10
4.182985327958022
 20
664.1334166603879
 10
3.897210793704087
 20
666.8929526473856
  0
LWPOLYLINE
  5
A8
330
1F
100
AcDbEntity
  8
0_Pen_No__1
  6
Continuous
100
AcDbPolyline
 90
        2
 70
   128
 43
0.0
 10
3.897210793704087
 20
666.8929526473856
 10
3.897210793704087
 20
692.8726171703847
  0
LWPOLYLINE
  5
A9
330
1F
100
AcDbEntity
  8
0_Pen_No__1
  6
Continuous
100
AcDbPolyline
 90
        2
 70
   128
 43
0.0
 10
3.897210793704087
 20
692.8726171703847
 10
8.821733609058136
 20
690.0294425848881
  0
LWPOLYLINE
  5
AA
330
1F
100
AcDbEntity
  8
0_Pen_No__1
  6
Continuous
100
AcDbPolyline
 90
        2
 70
   128
 43
0.0
 10
8.821733609058136
 20
690.0294425848881
 10
8.821733609058136
 20
696.7658186688874
  0
LWPOLYLINE
  5
AB
330
1F
100
AcDbEntity
  8
0_Pen_No__1
  6
Continuous
100
AcDbPolyline
 90
        2
 70
   128
 43
0.0
 10
8.821733609058136
 20
696.7658186688874
 10
6.191412153601306
 20
698.2844354758848
  0
LWPOLYLINE
  5
AC
330
1F
100
AcDbEntity
  8
0_Pen_No__1
  6
Continuous
100
AcDbPolyline
 90
        2
 70
   128
 43
0.0
 10
6.191412153601306
 20
698.2844354758848
 10
6.191412153601306
 20
696.3634068758869
  0
LWPOLYLINE
  5
AD
330
1F
100
AcDbEntity
  8
0_Pen_No__1
  6
Continuous
100
AcDbPolyline
 90
        2
 70
   128
 43
0.0
 10
6.191412153601306
 20
696.3634068758869
 10
-2.164967006294649
 20
701.1879646543883
  0
LWPOLYLINE
  5
AE
330
1F
100
AcDbEntity
  8
0_Pen_No__1
  6
Continuous
100
AcDbPolyline
 90
        2
 70
   128
 43
0.0
 10
-2.164967006294649
 20
701.1879646543883
 10
-2.164967006294649
 20
677.3929526473892
  0
LWPOLYLINE
  5
AF
330
1F
100
AcDbEntity
  8
0_Pen_No__1
  6
Continuous
100
AcDbPolyline
 90
        2
 70
   128
 43
0.0
 10
-2.164967006294649
 20
677.3929526473892
 10
-2.422022810668167
 20
674.1976655248876
  0
LWPOLYLINE
  5
B0
330
1F
100
AcDbEntity
  8
0_Pen_No__1
  6
Continuous
100
AcDbPolyline
 90
        2
 70
   128
 43
0.0
 10
-2.422022810668167
 20
674.1976655248876
 10
-1.92264822971433
 20
667.2204659698873
  0
LWPOLYLINE
  5
B1
330
1F
100
AcDbEntity
  8
0_Pen_No__1
  6
Continuous
100
AcDbPolyline
 90
        2
 70
   128
 43
0.0
 10
-1.92264822971433
 20
667.2204659698873
 10
-0.4249607021149515
 20
659.8686397838898
  0
LWPOLYLINE
  5
B2
330
1F
100
AcDbEntity
  8
0_Pen_No__1
  6
Continuous
100
AcDbPolyline
 90
        2
 70
   128
 43
0.0
 10
-0.4249607021149515
 20
659.8686397838898
 10
2.025533294888415
 20
652.3655684848922
  0
LWPOLYLINE
  5
B3
330
1F
100
AcDbEntity
  8
0_Pen_No__1
  6
Continuous
100
AcDbPolyline
 90
        2
 70
   128
 43
0.0
 10
2.025533294888415
 20
652.3655684848922
 10
5.35437673995709
 20
644.9392290973901
  0
LWPOLYLINE
  5
B4
330
1F
100
AcDbEntity
  8
0_Pen_No__1
  6
Continuous
100
AcDbPolyline
 90
        2
 70
   128
 43
0.0
 10
5.35437673995709
 20
644.9392290973901
 10
9.460424410929313
 20
637.8152671858896
  0
LWPOLYLINE
  5
B5
330
1F
100
AcDbEntity
  8
0_Pen_No__1
  6
Continuous
100
AcDbPolyline
 90
        2
 70
   128
 43
0.0
 10
9.460424410929313
 20
637.8152671858896
 10
10.82541399370296
 20
635.9540648923894
  0
LWPOLYLINE
  5
B6
330
1F
100
AcDbEntity
  8
0_Pen_No__1
  6
Continuous
100
AcDbPolyline
 90
        2
 70
   128
 43
0.0
 10
10.82541399370296
 20
635.9540648923894
 10
10.82541399370029
 20
548.2639216163947
  0
LWPOLYLINE
  5
B7
330
1F
100
AcDbEntity
  8
0_Pen_No__1
  6
Continuous
100
AcDbPolyline
 90
        2
 70
   128
 43
0.0
 10
10.82541399370029
 20
548.2639216163947
 10
-2.164967006295093
 20
555.7639216163932
  0
LWPOLYLINE
  5
B8
330
1F
100
AcDbEntity
  8
0_Pen_No__1
  6
Continuous
100
AcDbPolyline
 90
        2
 70
   128
 43
0.0
 10
-2.164967006295093
 20
555.7639216163932
 10
-2.714334996646972
 20
552.1263875678932
  0
LWPOLYLINE
  5
B9
330
1F
100
AcDbEntity
  8
0_Pen_No__1
  6
Continuous
100
AcDbPolyline
 90
        2
 70
   128
 43
0.0
 10
-2.714334996646972
 20
552.1263875678932
 10
-2.606930064947388
 20
544.0548062463946
  0
LWPOLYLINE
  5
BA
330
1F
100
AcDbEntity
  8
0_Pen_No__1
  6
Continuous
100
AcDbPolyline
 90
        2
 70
   128
 43
0.0
 10
-2.606930064947388
 20
544.0548062463946
 10
-1.296647664358996
 20
535.4319626133912
  0
LWPOLYLINE
  5
BB
330
1F
100
AcDbEntity
  8
0_Pen_No__1
  6
Continuous
100
AcDbPolyline
 90
        2
 70
   128
 43
0.0
 10
-1.296647664358996
 20
535.4319626133912
 10
1.176699936679793
 20
526.5198574078958
  0
LWPOLYLINE
  5
BC
330
1F
100
AcDbEntity
  8
0_Pen_No__1
  6
Continuous
100
AcDbPolyline
 90
        2
 70
   128
 43
0.0
 10
1.176699936679793
 20
526.5198574078958
 10
4.737961324676743
 20
517.5892804378948
  0
LWPOLYLINE
  5
BD
330
1F
100
AcDbEntity
  8
0_Pen_No__1
  6
Continuous
100
AcDbPolyline
 90
        2
 70
   128
 43
0.0
 10
4.737961324676743
 20
517.5892804378948
 10
9.278929372934286
 20
508.9115827643948
  0
LWPOLYLINE
  5
BE
330
1F
100
AcDbEntity
  8
0_Pen_No__1
  6
Continuous
100
AcDbPolyline
 90
        2
 70
   128
 43
0.0
 10
9.278929372934286
 20
508.9115827643948
 10
10.82541399369896
 20
506.6089932543991
  0
LWPOLYLINE
  5
BF
330
1F
100
AcDbEntity
  8
0_Pen_No__1
  6
Continuous
100
AcDbPolyline
 90
        2
 70
   128
 43
0.0
 10
10.82541399369896
 20
506.6089932543991
 10
10.82541399369719
 20
444.6089932543989
  0
LWPOLYLINE
  5
C0
330
1F
100
AcDbEntity
  8
0_Pen_No__1
  6
Continuous
100
AcDbPolyline
 90
        2
 70
   128
 43
0.0
 10
10.82541399369719
 20
444.6089932543989
 10
-1.298941606294957
 20
451.6089932543939
  0
LWPOLYLINE
  5
C1
330
1F
100
AcDbEntity
  8
0_Pen_No__1
  6
Continuous
100
AcDbPolyline
 90
        2
 70
   128
 43
0.0
 10
-1.298941606294957
 20
451.6089932543939
 10
-1.298941606294957
 20
438.8088336923963
  0
LWPOLYLINE
  5
C2
330
1F
100
AcDbEntity
  8
0_Pen_No__1
  6
Continuous
100
AcDbPolyline
 90
        2
 70
   128
 43
0.0
 10
-1.298941606294957
 20
438.8088336923963
 10
4.763236193704223
 20
435.3088336923973
  0
LWPOLYLINE
  5
C3
330
1F
100
AcDbEntity
  8
0_Pen_No__1
  6
Continuous
100
AcDbPolyline
 90
        2
 70
   128
 43
0.0
 10
4.763236193704223
 20
435.3088336923973
 10
4.763236193704223
 20
441.1089932543972
  0
LWPOLYLINE
  5
C4
330
1F
100
AcDbEntity
  8
0_Pen_No__1
  6
Continuous
100
AcDbPolyline
 90
        2
 70
   128
 43
0.0
 10
4.763236193704223
 20
441.1089932543972
 10
10.82541399369719
 20
437.6089932544016
  0
LWPOLYLINE
  5
C5
330
1F
100
AcDbEntity
  8
0_Pen_No__1
  6
Continuous
100
AcDbPolyline
 90
        2
 70
   128
 43
0.0
 10
10.82541399369719
 20
437.6089932544016
 10
10.8254139936963
 20
417.608993254402
  0
LWPOLYLINE
  5
C6
330
1F
100
AcDbEntity
  8
0_Pen_No__1
  6
Continuous
100
AcDbPolyline
 90
        2
 70
   128
 43
0.0
 10
10.8254139936963
 20
417.608993254402
 10
4.763236193704223
 20
421.1089932543977
  0
LWPOLYLINE
  5
C7
330
1F
100
AcDbEntity
  8
0_Pen_No__1
  6
Continuous
100
AcDbPolyline
 90
        2
 70
   128
 43
0.0
 10
4.763236193704223
 20
421.1089932543977
 10
4.763236193704223
 20
414.1089932543995
  0
LWPOLYLINE
  5
C8
330
1F
100
AcDbEntity
  8
0_Pen_No__1
  6
Continuous
100
AcDbPolyline
 90
        2
 70
   128
 43
0.0
 10
4.763236193704223
 20
414.1089932543995
 10
16.8875917937017
 20
407.108993254401
  0
LWPOLYLINE
  5
C9
330
1F
100
AcDbEntity
  8
0_Pen_No__1
  6
Continuous
100
AcDbPolyline
 90
        2
 70
   128
 43
0.0
 10
16.8875917937017
 20
407.108993254401
 10
16.88759179370214
 20
507.7639216163958
  0
LWPOLYLINE
  5
CA
330
1F
100
AcDbEntity
  8
0_Pen_No__1
  6
Continuous
100
AcDbPolyline
 90
        2
 70
   128
 43
0.0
 10
16.88759179370214
 20
507.7639216163958
 10
13.22506790984201
 20
513.3581409668948
  0
LWPOLYLINE
  5
CB
330
1F
100
AcDbEntity
  8
0_Pen_No__1
  6
Continuous
100
AcDbPolyline
 90
        2
 70
   128
 43
0.0
 10
13.22506790984201
 20
513.3581409668948
 10
9.599217284034456
 20
520.4646154248958
  0
LWPOLYLINE
  5
CC
330
1F
100
AcDbEntity
  8
0_Pen_No__1
  6
Continuous
100
AcDbPolyline
 90
        2
 70
   128
 43
0.0
 10
9.599217284034456
 20
520.4646154248958
 10
6.782338453831027
 20
527.754894990895
  0
LWPOLYLINE
  5
CD
330
1F
100
AcDbEntity
  8
0_Pen_No__1
  6
Continuous
100
AcDbPolyline
 90
        2
 70
   128
 43
0.0
 10
6.782338453831027
 20
527.754894990895
 10
4.860020857603509
 20
535.0074682083925
  0
LWPOLYLINE
  5
CE
330
1F
100
AcDbEntity
  8
0_Pen_No__1
  6
Continuous
100
AcDbPolyline
 90
        2
 70
   128
 43
0.0
 10
4.860020857603509
 20
535.0074682083925
 10
3.897210793704087
 20
542.0019693103924
  0
LWPOLYLINE
  5
CF
330
1F
100
AcDbEntity
  8
0_Pen_No__1
  6
Continuous
100
AcDbPolyline
 90
        2
 70
   128
 43
0.0
 10
3.897210793704087
 20
11.24216049955429
 10
3.897210793704087
 20
14.50411280555475
  0
LWPOLYLINE
  5
D0
330
1F
100
AcDbEntity
  8
0_Pen_No__1
  6
Continuous
100
AcDbPolyline
 90
        2
 70
   128
 43
0.0
 10
3.897210793704087
 20
14.50411280555475
 10
16.8875917937017
 20
7.004112805555351
  0
LWPOLYLINE
  5
D1
330
1F
100
AcDbEntity
  8
0_Pen_No__1
  6
Continuous
100
AcDbPolyline
 90
        2
 70
   128
 43
0.0
 10
16.8875917937017
 20
7.004112805555351
 10
16.8875917937017
 20
106.3491844435533
  0
LWPOLYLINE
  5
D2
330
1F
100
AcDbEntity
  8
0_Pen_No__1
  6
Continuous
100
AcDbPolyline
 90
        2
 70
   128
 43
0.0
 10
16.8875917937017
 20
106.3491844435533
 10
13.66864494192876
 20
110.5362318430543
  0
LWPOLYLINE
  5
D3
330
1F
100
AcDbEntity
  8
0_Pen_No__1
  6
Continuous
100
AcDbPolyline
 90
        2
 70
   128
 43
0.0
 10
13.66864494192876
 20
110.5362318430543
 10
10.34220129914187
 20
116.0076077180514
  0
LWPOLYLINE
  5
D4
330
1F
100
AcDbEntity
  8
0_Pen_No__1
  6
Continuous
100
AcDbPolyline
 90
        2
 70
   128
 43
0.0
 10
10.34220129914187
 20
116.0076077180514
 10
7.600284297346604
 20
121.7545522340537
  0
LWPOLYLINE
  5
D5
330
1F
100
AcDbEntity
  8
0_Pen_No__1
  6
Continuous
100
AcDbPolyline
 90
        2
 70
   128
 43
0.0
 10
7.600284297346604
 20
121.7545522340537
 10
5.526205696936959
 20
127.6024473895523
  0
LWPOLYLINE
  5
D6
330
1F
100
AcDbEntity
  8
0_Pen_No__1
  6
Continuous
100
AcDbPolyline
 90
        2
 70
   128
 43
0.0
 10
5.526205696936959
 20
127.6024473895523
 10
4.182985327958022
 20
133.3736078495507
  0
LWPOLYLINE
  5
D7
330
1F
100
AcDbEntity
  8
0_Pen_No__1
  6
Continuous
100
AcDbPolyline
 90
        2
 70
   128
 43
0.0
 10
4.182985327958022
 20
133.3736078495507
 10
3.897210793704087
 20
136.1331438365478
  0
LWPOLYLINE
  5
D8
330
1F
100
AcDbEntity
  8
0_Pen_No__1
  6
Continuous
100
AcDbPolyline
 90
        2
 70
   128
 43
0.0
 10
3.897210793704087
 20
136.1331438365478
 10
3.897210793704087
 20
162.1128083595467
  0
LWPOLYLINE
  5
D9
330
1F
100
AcDbEntity
  8
0_Pen_No__1
  6
Continuous
100
AcDbPolyline
 90
        2
 70
   128
 43
0.0
 10
3.897210793704087
 20
162.1128083595467
 10
8.821733609058136
 20
159.26963377405
  0
LWPOLYLINE
  5
DA
330
1F
100
AcDbEntity
  8
0_Pen_No__1
  6
Continuous
100
AcDbPolyline
 90
        2
 70
   128
 43
0.0
 10
8.821733609058136
 20
159.26963377405
 10
8.821733609058136
 20
166.0060098580496
  0
LWPOLYLINE
  5
DB
330
1F
100
AcDbEntity
  8
0_Pen_No__1
  6
Continuous
100
AcDbPolyline
 90
        2
 70
   128
 43
0.0
 10
8.821733609058136
 20
166.0060098580496
 10
6.191412153600862
 20
167.524626665047
  0
LWPOLYLINE
  5
DC
330
1F
100
AcDbEntity
  8
0_Pen_No__1
  6
Continuous
100
AcDbPolyline
 90
        2
 70
   128
 43
0.0
 10
6.191412153600862
 20
167.524626665047
 10
6.191412153600862
 20
165.6035980650485
  0
LWPOLYLINE
  5
DD
330
1F
100
AcDbEntity
  8
0_Pen_No__1
  6
Continuous
100
AcDbPolyline
 90
        2
 70
   128
 43
0.0
 10
6.191412153600862
 20
165.6035980650485
 10
-2.164967006295093
 20
170.4281558435505
  0
LWPOLYLINE
  5
DE
330
1F
100
AcDbEntity
  8
0_Pen_No__1
  6
Continuous
100
AcDbPolyline
 90
        2
 70
   128
 43
0.0
 10
-2.164967006295093
 20
170.4281558435505
 10
-2.164967006295093
 20
146.6331438365507
  0
LWPOLYLINE
  5
DF
330
1F
100
AcDbEntity
  8
0_Pen_No__1
  6
Continuous
100
AcDbPolyline
 90
        2
 70
   128
 43
0.0
 10
-2.164967006295093
 20
146.6331438365507
 10
-2.422022810668167
 20
143.4378567140497
  0
LWPOLYLINE
  5
E0
330
1F
100
AcDbEntity
  8
0_Pen_No__1
  6
Continuous
100
AcDbPolyline
 90
        2
 70
   128
 43
0.0
 10
-2.422022810668167
 20
143.4378567140497
 10
-1.92264822971433
 20
136.4606571590496
  0
LWPOLYLINE
  5
E1
330
1F
100
AcDbEntity
  8
0_Pen_No__1
  6
Continuous
100
AcDbPolyline
 90
        2
 70
   128
 43
0.0
 10
-1.92264822971433
 20
136.4606571590496
 10
-0.4249607021149515
 20
129.1088309730524
  0
LWPOLYLINE
  5
E2
330
1F
100
AcDbEntity
  8
0_Pen_No__1
  6
Continuous
100
AcDbPolyline
 90
        2
 70
   128
 43
0.0
 10
-0.4249607021149515
 20
129.1088309730524
 10
2.025533294888415
 20
121.6057596740538
  0
LWPOLYLINE
  5
E3
330
1F
100
AcDbEntity
  8
0_Pen_No__1
  6
Continuous
100
AcDbPolyline
 90
        2
 70
   128
 43
0.0
 10
2.025533294888415
 20
121.6057596740538
 10
5.35437673995709
 20
114.1794202865529
  0
LWPOLYLINE
  5
E4
330
1F
100
AcDbEntity
  8
0_Pen_No__1
  6
Continuous
100
AcDbPolyline
 90
        2
 70
   128
 43
0.0
 10
5.35437673995709
 20
114.1794202865529
 10
9.46042441092887
 20
107.0554583750523
  0
LWPOLYLINE
  5
E5
330
1F
100
AcDbEntity
  8
0_Pen_No__1
  6
Continuous
100
AcDbPolyline
 90
        2
 70
   128
 43
0.0
 10
9.46042441092887
 20
107.0554583750523
 10
10.82541399370296
 20
105.1942560815513
  0
LWPOLYLINE
  5
E6
330
1F
100
AcDbEntity
  8
0_Pen_No__1
  6
Continuous
100
AcDbPolyline
 90
        2
 70
   128
 43
0.0
 10
10.82541399370296
 20
105.1942560815513
 10
10.82541399370029
 20
17.50411280555664
  0
LWPOLYLINE
  5
E7
330
1F
100
AcDbEntity
  8
0_Pen_No__1
  6
Continuous
100
AcDbPolyline
 90
        2
 70
   128
 43
0.0
 10
10.82541399370029
 20
17.50411280555664
 10
-2.164967006295093
 20
25.00411280555537
  0
LWPOLYLINE
  5
E8
330
1F
100
AcDbEntity
  8
0_Pen_No__1
  6
Continuous
100
AcDbPolyline
 90
        2
 70
   128
 43
0.0
 10
-2.164967006295093
 20
25.00411280555537
 10
-2.714334996647416
 20
21.36657875705539
  0
LWPOLYLINE
  5
E9
330
1F
100
AcDbEntity
  8
0_Pen_No__1
  6
Continuous
100
AcDbPolyline
 90
        2
 70
   128
 43
0.0
 10
-2.714334996647416
 20
21.36657875705539
 10
-2.606930064947388
 20
13.29499743555651
  0
LWPOLYLINE
  5
EA
330
1F
100
AcDbEntity
  8
0_Pen_No__1
  6
Continuous
100
AcDbPolyline
 90
        2
 70
   128
 43
0.0
 10
-2.606930064947388
 20
13.29499743555651
 10
-1.29664766435944
 20
4.672153802553147
  0
LWPOLYLINE
  5
EB
330
1F
100
AcDbEntity
  8
0_Pen_No__1
  6
Continuous
100
AcDbPolyline
 90
        2
 70
   128
 43
0.0
 10
-1.29664766435944
 20
4.672153802553147
 10
0.0
 20
0.0
  0
LWPOLYLINE
  5
EC
330
1F
100
AcDbEntity
  8
0_Pen_No__1
  6
Continuous
100
AcDbPolyline
 90
        2
 70
   128
 43
0.0
 10
0.0
 20
0.0
 10
5.985876489505104
 20
0.0
  0
LWPOLYLINE
  5
ED
330
1F
100
AcDbEntity
  8
0_Pen_No__1
  6
Continuous
100
AcDbPolyline
 90
        2
 70
   128
 43
0.0
 10
5.985876489505104
 20
0.0
 10
4.860020857603065
 20
4.247659397554671
  0
LWPOLYLINE
  5
EE
330
1F
100
AcDbEntity
  8
0_Pen_No__1
  6
Continuous
100
AcDbPolyline
 90
        2
 70
   128
 43
0.0
 10
4.860020857603065
 20
4.247659397554671
 10
3.897210793704087
 20
11.24216049955429
  0
LWPOLYLINE
  5
EF
330
1F
100
AcDbEntity
  8
0_Pen_No__1
  6
Continuous
100
AcDbPolyline
 90
        2
 70
   128
 43
0.0
 10
459.3040449670829
 20
-15.94974013850148
 10
459.3740733783376
 20
-15.5373929108179
  0
LWPOLYLINE
  5
F0
330
1F
100
AcDbEntity
  8
0_Pen_No__1
  6
Continuous
100
AcDbPolyline
 90
        2
 70
   128
 43
0.0
 10
459.3740733783376
 20
-15.5373929108179
 10
460.2730474390864
 20
-13.970667854042
  0
LWPOLYLINE
  5
F1
330
1F
100
AcDbEntity
  8
0_Pen_No__1
  6
Continuous
100
AcDbPolyline
 90
        2
 70
   128
 43
0.0
 10
460.2730474390864
 20
-13.970667854042
 10
461.583815571138
 20
-12.8824877925825
  0
LWPOLYLINE
  5
F2
330
1F
100
AcDbEntity
  8
0_Pen_No__1
  6
Continuous
100
AcDbPolyline
 90
        2
 70
   128
 43
0.0
 10
461.583815571138
 20
-12.8824877925825
 10
463.2665507480791
 20
-12.30591652696289
  0
LWPOLYLINE
  5
F3
330
1F
100
AcDbEntity
  8
0_Pen_No__1
  6
Continuous
100
AcDbPolyline
 90
        2
 70
   128
 43
0.0
 10
463.2665507480791
 20
-12.30591652696289
 10
465.2701239130659
 20
-12.25847288332871
  0
LWPOLYLINE
  5
F4
330
1F
100
AcDbEntity
  8
0_Pen_No__1
  6
Continuous
100
AcDbPolyline
 90
        2
 70
   128
 43
0.0
 10
465.2701239130659
 20
-12.25847288332871
 10
467.5336575093354
 20
-12.74159841278422
  0
LWPOLYLINE
  5
F5
330
1F
100
AcDbEntity
  8
0_Pen_No__1
  6
Continuous
100
AcDbPolyline
 90
        2
 70
   128
 43
0.0
 10
467.5336575093354
 20
-12.74159841278422
 10
469.9883752139693
 20
-13.74061359059142
  0
LWPOLYLINE
  5
F6
330
1F
100
AcDbEntity
  8
0_Pen_No__1
  6
Continuous
100
AcDbPolyline
 90
        2
 70
   128
 43
0.0
 10
210.180754362117
 20
136.2593869011778
 10
211.466412590962
 20
135.5171117734252
  0
LWPOLYLINE
  5
F7
330
1F
100
AcDbEntity
  8
0_Pen_No__1
  6
Continuous
100
AcDbPolyline
 90
        2
 70
   128
 43
0.0
 10
262.1422785326386
 20
106.2593868027367
 10
263.4279367614831
 20
105.5171116749841
  0
LWPOLYLINE
  5
F8
330
1F
100
AcDbEntity
  8
0_Pen_No__1
  6
Continuous
100
AcDbPolyline
 90
        2
 70
   128
 43
0.0
 10
314.103802702908
 20
76.25938670444154
 10
315.389460931752
 20
75.51711157668872
  0
LWPOLYLINE
  5
F9
330
1F
100
AcDbEntity
  8
0_Pen_No__1
  6
Continuous
100
AcDbPolyline
 90
        2
 70
   128
 43
0.0
 10
366.0653268731773
 20
46.25938660614592
 10
367.3509851020214
 20
45.51711147839355
  0
LWPOLYLINE
  5
FA
330
1F
100
AcDbEntity
  8
0_Pen_No__1
  6
Continuous
100
AcDbPolyline
 90
        2
 70
   128
 43
0.0
 10
418.0268510436989
 20
16.25938650770509
 10
419.3125092725429
 20
15.51711137995227
  0
LWPOLYLINE
  5
FB
330
1F
100
AcDbEntity
  8
0_Pen_No__1
  6
Continuous
100
AcDbPolyline
 90
        2
 70
   128
 43
0.0
 10
469.9883752139693
 20
-13.74061359059142
 10
471.2740334428132
 20
-14.4828887183438
  0
LWPOLYLINE
  5
FC
330
1F
100
AcDbEntity
  8
0_Pen_No__1
  6
Continuous
100
AcDbPolyline
 90
        2
 70
   128
 43
0.0
 10
460.0571722275273
 20
-16.63989852369874
 10
460.11770921157
 20
-16.26719598353821
  0
LWPOLYLINE
  5
FD
330
1F
100
AcDbEntity
  8
0_Pen_No__1
  6
Continuous
100
AcDbPolyline
 90
        2
 70
   128
 43
0.0
 10
460.11770921157
 20
-16.26719598353821
 10
460.9704252357591
 20
-14.78108907595932
  0
LWPOLYLINE
  5
FE
330
1F
100
AcDbEntity
  8
0_Pen_No__1
  6
Continuous
100
AcDbPolyline
 90
        2
 70
   128
 43
0.0
 10
460.9704252357591
 20
-14.78108907595932
 10
462.2137458597902
 20
-13.74890292496345
  0
LWPOLYLINE
  5
FF
330
1F
100
AcDbEntity
  8
0_Pen_No__1
  6
Continuous
100
AcDbPolyline
 90
        2
 70
   128
 43
0.0
 10
462.2137458597902
 20
-13.74890292496345
 10
463.8098934156503
 20
-13.20199998443539
  0
LWPOLYLINE
  5
100
330
1F
100
AcDbEntity
  8
0_Pen_No__1
  6
Continuous
100
AcDbPolyline
 90
        2
 70
   128
 43
0.0
 10
463.8098934156503
 20
-13.20199998443539
 10
465.7103697675462
 20
-13.15699762347766
  0
LWPOLYLINE
  5
101
330
1F
100
AcDbEntity
  8
0_Pen_No__1
  6
Continuous
100
AcDbPolyline
 90
        2
 70
   128
 43
0.0
 10
465.7103697675462
 20
-13.15699762347766
 10
467.8574299032121
 20
-13.61526321605677
  0
LWPOLYLINE
  5
102
330
1F
100
AcDbEntity
  8
0_Pen_No__1
  6
Continuous
100
AcDbPolyline
 90
        2
 70
   128
 43
0.0
 10
467.8574299032121
 20
-13.61526321605677
 10
470.1858364868894
 20
-14.56287259403466
  0
LWPOLYLINE
  5
103
330
1F
100
AcDbEntity
  8
0_Pen_No__1
  6
Continuous
100
AcDbPolyline
 90
        2
 70
   128
 43
0.0
 10
470.1858364868894
 20
-14.56287259403466
 10
471.4053392748276
 20
-15.26695286000523
  0
LWPOLYLINE
  5
104
330
1F
100
AcDbEntity
  8
0_Pen_No__1
  6
Continuous
100
AcDbPolyline
 90
        2
 70
   128
 43
0.0
 10
471.2740334428132
 20
-14.4828887183438
 10
471.4053392748276
 20
-15.26695286000523
  0
LWPOLYLINE
  5
105
330
1F
100
AcDbEntity
  8
0_Pen_No__1
  6
Continuous
100
AcDbPolyline
 90
        2
 70
   128
 43
0.0
 10
460.057172227585
 20
-16.63989852379555
 10
459.8057515734109
 20
-17.73913497943991
  0
LWPOLYLINE
  5
106
330
1F
100
AcDbEntity
  8
0_Pen_No__1
  6
Continuous
100
AcDbPolyline
 90
        2
 70
   128
 43
0.0
 10
459.8057515734109
 20
-17.73913497943991
 10
458.9530355492215
 20
-19.2252418870188
  0
LWPOLYLINE
  5
107
330
1F
100
AcDbEntity
  8
0_Pen_No__1
  6
Continuous
100
AcDbPolyline
 90
        2
 70
   128
 43
0.0
 10
458.9530355492215
 20
-19.2252418870188
 10
457.7097149251905
 20
-20.25742803801578
  0
LWPOLYLINE
  5
108
330
1F
100
AcDbEntity
  8
0_Pen_No__1
  6
Continuous
100
AcDbPolyline
 90
        2
 70
   128
 43
0.0
 10
457.7097149251905
 20
-20.25742803801578
 10
456.1135673693304
 20
-20.80433097854295
  0
LWPOLYLINE
  5
109
330
1F
100
AcDbEntity
  8
0_Pen_No__1
  6
Continuous
100
AcDbPolyline
 90
        2
 70
   128
 43
0.0
 10
456.1135673693304
 20
-20.80433097854295
 10
454.2130910174347
 20
-20.84933333949957
  0
LWPOLYLINE
  5
10A
330
1F
100
AcDbEntity
  8
0_Pen_No__1
  6
Continuous
100
AcDbPolyline
 90
        2
 70
   128
 43
0.0
 10
454.2130910174347
 20
-20.84933333949957
 10
452.0660308817685
 20
-20.39106774692046
  0
LWPOLYLINE
  5
10B
330
1F
100
AcDbEntity
  8
0_Pen_No__1
  6
Continuous
100
AcDbPolyline
 90
        2
 70
   128
 43
0.0
 10
452.0660308817685
 20
-20.39106774692046
 10
449.7376242980915
 20
-19.44345836894279
  0
LWPOLYLINE
  5
10C
330
1F
100
AcDbEntity
  8
0_Pen_No__1
  6
Continuous
100
AcDbPolyline
 90
        2
 70
   128
 43
0.0
 10
449.7376242980915
 20
-19.44345836894279
 10
448.518121510153
 20
-18.73937810297199
  0
LWPOLYLINE
  5
10D
330
1F
100
AcDbEntity
  8
0_Pen_No__1
  6
Continuous
100
AcDbPolyline
 90
        2
 70
   128
 43
0.0
 10
397.776100127822
 20
10.55654172937526
 10
396.5565973398837
 20
11.26062199534605
  0
LWPOLYLINE
  5
10E
330
1F
100
AcDbEntity
  8
0_Pen_No__1
  6
Continuous
100
AcDbPolyline
 90
        2
 70
   128
 43
0.0
 10
345.8145759573003
 20
40.55654182783919
 10
344.5950731693621
 20
41.26062209380999
  0
LWPOLYLINE
  5
10F
330
1F
100
AcDbEntity
  8
0_Pen_No__1
  6
Continuous
100
AcDbPolyline
 90
        2
 70
   128
 43
0.0
 10
293.853051787031
 20
70.55654192615724
 10
292.6335489990928
 20
71.26062219212803
  0
LWPOLYLINE
  5
110
330
1F
100
AcDbEntity
  8
0_Pen_No__1
  6
Continuous
100
AcDbPolyline
 90
        2
 70
   128
 43
0.0
 10
241.8915276165097
 20
100.5565420246198
 10
240.6720248285712
 20
101.2606222905908
  0
LWPOLYLINE
  5
111
330
1F
100
AcDbEntity
  8
0_Pen_No__1
  6
Continuous
100
AcDbPolyline
 90
        2
 70
   128
 43
0.0
 10
189.9300034462401
 20
130.5565421229379
 10
188.7105006583019
 20
131.2606223889087
  0
LWPOLYLINE
  5
112
330
1F
100
AcDbEntity
  8
0_Pen_No__1
  6
Continuous
100
AcDbPolyline
 90
        2
 70
   128
 43
0.0
 10
459.3040449671417
 20
-15.94974013859829
 10
459.0621157401795
 20
-17.00933190672071
  0
LWPOLYLINE
  5
113
330
1F
100
AcDbEntity
  8
0_Pen_No__1
  6
Continuous
100
AcDbPolyline
 90
        2
 70
   128
 43
0.0
 10
459.0621157401795
 20
-17.00933190672071
 10
458.2556577525487
 20
-18.41482066510125
  0
LWPOLYLINE
  5
114
330
1F
100
AcDbEntity
  8
0_Pen_No__1
  6
Continuous
100
AcDbPolyline
 90
        2
 70
   128
 43
0.0
 10
458.2556577525487
 20
-18.41482066510125
 10
457.0797846365391
 20
-19.39101290563616
  0
LWPOLYLINE
  5
115
330
1F
100
AcDbEntity
  8
0_Pen_No__1
  6
Continuous
100
AcDbPolyline
 90
        2
 70
   128
 43
0.0
 10
457.0797846365391
 20
-19.39101290563616
 10
455.5702247017592
 20
-19.90824752107045
  0
LWPOLYLINE
  5
116
330
1F
100
AcDbEntity
  8
0_Pen_No__1
  6
Continuous
100
AcDbPolyline
 90
        2
 70
   128
 43
0.0
 10
455.5702247017592
 20
-19.90824752107045
 10
453.7728451629546
 20
-19.95080859935039
  0
LWPOLYLINE
  5
117
330
1F
100
AcDbEntity
  8
0_Pen_No__1
  6
Continuous
100
AcDbPolyline
 90
        2
 70
   128
 43
0.0
 10
453.7728451629546
 20
-19.95080859935039
 10
451.7422584878927
 20
-19.51740294364834
  0
LWPOLYLINE
  5
118
330
1F
100
AcDbEntity
  8
0_Pen_No__1
  6
Continuous
100
AcDbPolyline
 90
        2
 70
   128
 43
0.0
 10
451.7422584878927
 20
-19.51740294364834
 10
449.5401630251701
 20
-18.62119936549933
  0
LWPOLYLINE
  5
119
330
1F
100
AcDbEntity
  8
0_Pen_No__1
  6
Continuous
100
AcDbPolyline
 90
        2
 70
   128
 43
0.0
 10
448.518121510153
 20
-18.73937810297199
 10
448.3868156781376
 20
-17.95531396131145
  0
LWPOLYLINE
  5
11A
330
1F
100
AcDbEntity
  8
0_Pen_No__1
  6
Continuous
100
AcDbPolyline
 90
        2
 70
   128
 43
0.0
 10
466.567452725795
 20
-13.3399322433313
 10
457.7097149251905
 20
-20.25742803801578
  0
LWPOLYLINE
  5
11B
330
1F
100
AcDbEntity
  8
0_Pen_No__1
  6
Continuous
100
AcDbPolyline
 90
        2
 70
   128
 43
0.0
 10
419.3125092725722
 20
15.51711138003531
 10
419.7824209095176
 20
15.29111929645211
  0
LWPOLYLINE
  5
11C
330
1F
100
AcDbEntity
  8
0_Pen_No__1
  6
Continuous
100
AcDbPolyline
 90
        2
 70
   128
 43
0.0
 10
419.7824209095176
 20
15.29111929645211
 10
422.3886569938102
 20
13.49881542316023
  0
LWPOLYLINE
  5
11D
330
1F
100
AcDbEntity
  8
0_Pen_No__1
  6
Continuous
100
AcDbPolyline
 90
        2
 70
   128
 43
0.0
 10
422.3886569938102
 20
13.49881542316023
 10
424.9789605645446
 20
11.30485502766032
  0
LWPOLYLINE
  5
11E
330
1F
100
AcDbEntity
  8
0_Pen_No__1
  6
Continuous
100
AcDbPolyline
 90
        2
 70
   128
 43
0.0
 10
424.9789605645446
 20
11.30485502766032
 10
427.4746265584816
 20
8.775900486370446
  0
LWPOLYLINE
  5
11F
330
1F
100
AcDbEntity
  8
0_Pen_No__1
  6
Continuous
100
AcDbPolyline
 90
        2
 70
   128
 43
0.0
 10
427.4746265584816
 20
8.775900486370446
 10
429.7998254272644
 20
5.988792803314991
  0
LWPOLYLINE
  5
120
330
1F
100
AcDbEntity
  8
0_Pen_No__1
  6
Continuous
100
AcDbPolyline
 90
        2
 70
   128
 43
0.0
 10
429.7998254272644
 20
5.988792803314991
 10
431.8839071798699
 20
3.028216835101794
  0
LWPOLYLINE
  5
121
330
1F
100
AcDbEntity
  8
0_Pen_No__1
  6
Continuous
100
AcDbPolyline
 90
        2
 70
   128
 43
0.0
 10
431.8839071798699
 20
3.028216835101794
 10
433.6635480468436
 20
-0.0158718156030302
  0
LWPOLYLINE
  5
122
330
1F
100
AcDbEntity
  8
0_Pen_No__1
  6
Continuous
100
AcDbPolyline
 90
        2
 70
   128
 43
0.0
 10
419.443815104587
 20
14.73304723837587
 10
419.8895467449894
 20
14.51868391085853
  0
LWPOLYLINE
  5
123
330
1F
100
AcDbEntity
  8
0_Pen_No__1
  6
Continuous
100
AcDbPolyline
 90
        2
 70
   128
 43
0.0
 10
419.8895467449894
 20
14.51868391085853
 10
422.3616751065649
 20
12.8186056775671
  0
LWPOLYLINE
  5
124
330
1F
100
AcDbEntity
  8
0_Pen_No__1
  6
Continuous
100
AcDbPolyline
 90
        2
 70
   128
 43
0.0
 10
422.3616751065649
 20
12.8186056775671
 10
424.8186907855729
 20
10.73753875098349
  0
LWPOLYLINE
  5
125
330
1F
100
AcDbEntity
  8
0_Pen_No__1
  6
Continuous
100
AcDbPolyline
 90
        2
 70
   128
 43
0.0
 10
424.8186907855729
 20
10.73753875098349
 10
427.1859386039179
 20
8.338715296600906
  0
LWPOLYLINE
  5
126
330
1F
100
AcDbEntity
  8
0_Pen_No__1
  6
Continuous
100
AcDbPolyline
 90
        2
 70
   128
 43
0.0
 10
427.1859386039179
 20
8.338715296600906
 10
429.391490934524
 20
5.695022351218548
  0
LWPOLYLINE
  5
127
330
1F
100
AcDbEntity
  8
0_Pen_No__1
  6
Continuous
100
AcDbPolyline
 90
        2
 70
   128
 43
0.0
 10
429.391490934524
 20
5.695022351218548
 10
431.3683331858886
 20
2.886787187208806
  0
LWPOLYLINE
  5
128
330
1F
100
AcDbEntity
  8
0_Pen_No__1
  6
Continuous
100
AcDbPolyline
 90
        2
 70
   128
 43
0.0
 10
431.3683331858886
 20
2.886787187208806
 10
433.0564000065342
 20
-0.0006633910064613
  0
LWPOLYLINE
  5
129
330
1F
100
AcDbEntity
  8
0_Pen_No__1
  6
Continuous
100
AcDbPolyline
 90
        2
 70
   128
 43
0.0
 10
433.0564000065342
 20
-0.0006633910064613
 10
433.7304001734266
 20
-1.440129524866163
  0
LWPOLYLINE
  5
12A
330
1F
100
AcDbEntity
  8
0_Pen_No__1
  6
Continuous
100
AcDbPolyline
 90
        2
 70
   128
 43
0.0
 10
419.3125092725722
 20
15.51711138003531
 10
419.443815104587
 20
14.73304723837587
  0
LWPOLYLINE
  5
12B
330
1F
100
AcDbEntity
  8
0_Pen_No__1
  6
Continuous
100
AcDbPolyline
 90
        2
 70
   128
 43
0.0
 10
434.3888506107101
 20
-1.564945906994075
 10
433.7304001734266
 20
-1.440129524866163
  0
LWPOLYLINE
  5
12C
330
1F
100
AcDbEntity
  8
0_Pen_No__1
  6
Continuous
100
AcDbPolyline
 90
        2
 70
   128
 43
0.0
 10
447.1017233957113
 20
-17.90447392096273
 10
444.6265556143718
 20
-16.04749142868089
  0
LWPOLYLINE
  5
12D
330
1F
100
AcDbEntity
  8
0_Pen_No__1
  6
Continuous
100
AcDbPolyline
 90
        2
 70
   128
 43
0.0
 10
444.6265556143718
 20
-16.04749142868089
 10
442.1960860764624
 20
-13.83314251946654
  0
LWPOLYLINE
  5
12E
330
1F
100
AcDbEntity
  8
0_Pen_No__1
  6
Continuous
100
AcDbPolyline
 90
        2
 70
   128
 43
0.0
 10
442.1960860764624
 20
-13.83314251946654
 10
439.8841633690154
 20
-11.32870906441397
  0
LWPOLYLINE
  5
12F
330
1F
100
AcDbEntity
  8
0_Pen_No__1
  6
Continuous
100
AcDbPolyline
 90
        2
 70
   128
 43
0.0
 10
439.8841633690154
 20
-11.32870906441397
 10
437.7610340936071
 20
-8.610287006748706
  0
LWPOLYLINE
  5
130
330
1F
100
AcDbEntity
  8
0_Pen_No__1
  6
Continuous
100
AcDbPolyline
 90
        2
 70
   128
 43
0.0
 10
437.7610340936071
 20
-8.610287006748706
 10
435.8912084589148
 20
-5.760474225105505
  0
LWPOLYLINE
  5
131
330
1F
100
AcDbEntity
  8
0_Pen_No__1
  6
Continuous
100
AcDbPolyline
 90
        2
 70
   128
 43
0.0
 10
435.8912084589148
 20
-5.760474225105505
 10
434.3315001706725
 20
-2.865860838780043
  0
LWPOLYLINE
  5
132
330
1F
100
AcDbEntity
  8
0_Pen_No__1
  6
Continuous
100
AcDbPolyline
 90
        2
 70
   128
 43
0.0
 10
448.3868156780915
 20
-17.95531396110672
 10
447.0472541586457
 20
-17.16570156117225
  0
LWPOLYLINE
  5
133
330
1F
100
AcDbEntity
  8
0_Pen_No__1
  6
Continuous
100
AcDbPolyline
 90
        2
 70
   128
 43
0.0
 10
447.0472541586457
 20
-17.16570156117225
 10
444.7063589821018
 20
-15.40945643230252
  0
LWPOLYLINE
  5
134
330
1F
100
AcDbEntity
  8
0_Pen_No__1
  6
Continuous
100
AcDbPolyline
 90
        2
 70
   128
 43
0.0
 10
444.7063589821018
 20
-15.40945643230252
 10
442.4077372640421
 20
-13.31523125700695
  0
LWPOLYLINE
  5
135
330
1F
100
AcDbEntity
  8
0_Pen_No__1
  6
Continuous
100
AcDbPolyline
 90
        2
 70
   128
 43
0.0
 10
442.4077372640421
 20
-13.31523125700695
 10
440.2212314622105
 20
-10.94665800750538
  0
LWPOLYLINE
  5
136
330
1F
100
AcDbEntity
  8
0_Pen_No__1
  6
Continuous
100
AcDbPolyline
 90
        2
 70
   128
 43
0.0
 10
440.2212314622105
 20
-10.94665800750538
 10
438.2132774489697
 20
-8.375704583428622
  0
LWPOLYLINE
  5
137
330
1F
100
AcDbEntity
  8
0_Pen_No__1
  6
Continuous
100
AcDbPolyline
 90
        2
 70
   128
 43
0.0
 10
438.2132774489697
 20
-8.375704583428622
 10
436.4448858909391
 20
-5.680488103600889
  0
LWPOLYLINE
  5
138
330
1F
100
AcDbEntity
  8
0_Pen_No__1
  6
Continuous
100
AcDbPolyline
 90
        2
 70
   128
 43
0.0
 10
436.4448858909391
 20
-5.680488103600889
 10
434.9697884707604
 20
-2.942901356920102
  0
LWPOLYLINE
  5
139
330
1F
100
AcDbEntity
  8
0_Pen_No__1
  6
Continuous
100
AcDbPolyline
 90
        2
 70
   128
 43
0.0
 10
434.9697884707604
 20
-2.942901356920102
 10
434.3888506106026
 20
-1.564945906901927
  0
LWPOLYLINE
  5
13A
330
1F
100
AcDbEntity
  8
0_Pen_No__1
  6
Continuous
100
AcDbPolyline
 90
        2
 70
   128
 43
0.0
 10
407.3425207968127
 20
14.05025995980347
 10
407.4125492080673
 20
14.46260718748682
  0
LWPOLYLINE
  5
13B
330
1F
100
AcDbEntity
  8
0_Pen_No__1
  6
Continuous
100
AcDbPolyline
 90
        2
 70
   128
 43
0.0
 10
407.4125492080673
 20
14.46260718748682
 10
408.3115232688161
 20
16.02933224426273
  0
LWPOLYLINE
  5
13C
330
1F
100
AcDbEntity
  8
0_Pen_No__1
  6
Continuous
100
AcDbPolyline
 90
        2
 70
   128
 43
0.0
 10
408.3115232688161
 20
16.02933224426273
 10
409.6222914008676
 20
17.11751230572201
  0
LWPOLYLINE
  5
13D
330
1F
100
AcDbEntity
  8
0_Pen_No__1
  6
Continuous
100
AcDbPolyline
 90
        2
 70
   128
 43
0.0
 10
409.6222914008676
 20
17.11751230572201
 10
411.3050265778089
 20
17.69408357134184
  0
LWPOLYLINE
  5
13E
330
1F
100
AcDbEntity
  8
0_Pen_No__1
  6
Continuous
100
AcDbPolyline
 90
        2
 70
   128
 43
0.0
 10
411.3050265778089
 20
17.69408357134184
 10
413.3085997427956
 20
17.74152721497602
  0
LWPOLYLINE
  5
13F
330
1F
100
AcDbEntity
  8
0_Pen_No__1
  6
Continuous
100
AcDbPolyline
 90
        2
 70
   128
 43
0.0
 10
413.3085997427956
 20
17.74152721497602
 10
415.5721333390654
 20
17.25840168552051
  0
LWPOLYLINE
  5
140
330
1F
100
AcDbEntity
  8
0_Pen_No__1
  6
Continuous
100
AcDbPolyline
 90
        2
 70
   128
 43
0.0
 10
415.5721333390654
 20
17.25840168552051
 10
418.0268510436989
 20
16.25938650771353
  0
LWPOLYLINE
  5
141
330
1F
100
AcDbEntity
  8
0_Pen_No__1
  6
Continuous
100
AcDbPolyline
 90
        2
 70
   128
 43
0.0
 10
408.0956480572571
 20
13.36010157460599
 10
408.1561850412996
 20
13.7328041147663
  0
LWPOLYLINE
  5
142
330
1F
100
AcDbEntity
  8
0_Pen_No__1
  6
Continuous
100
AcDbPolyline
 90
        2
 70
   128
 43
0.0
 10
408.1561850412996
 20
13.7328041147663
 10
409.0089010654889
 20
15.21891102234518
  0
LWPOLYLINE
  5
143
330
1F
100
AcDbEntity
  8
0_Pen_No__1
  6
Continuous
100
AcDbPolyline
 90
        2
 70
   128
 43
0.0
 10
409.0089010654889
 20
15.21891102234518
 10
410.2522216895199
 20
16.25109717334128
  0
LWPOLYLINE
  5
144
330
1F
100
AcDbEntity
  8
0_Pen_No__1
  6
Continuous
100
AcDbPolyline
 90
        2
 70
   128
 43
0.0
 10
410.2522216895199
 20
16.25109717334128
 10
411.84836924538
 20
16.79800011386934
  0
LWPOLYLINE
  5
145
330
1F
100
AcDbEntity
  8
0_Pen_No__1
  6
Continuous
100
AcDbPolyline
 90
        2
 70
   128
 43
0.0
 10
411.84836924538
 20
16.79800011386934
 10
413.7488455972758
 20
16.84300247482684
  0
LWPOLYLINE
  5
146
330
1F
100
AcDbEntity
  8
0_Pen_No__1
  6
Continuous
100
AcDbPolyline
 90
        2
 70
   128
 43
0.0
 10
413.7488455972758
 20
16.84300247482684
 10
415.8959057329419
 20
16.38473688224773
  0
LWPOLYLINE
  5
147
330
1F
100
AcDbEntity
  8
0_Pen_No__1
  6
Continuous
100
AcDbPolyline
 90
        2
 70
   128
 43
0.0
 10
415.8959057329419
 20
16.38473688224773
 10
418.2243123166191
 20
15.43712750426918
  0
LWPOLYLINE
  5
148
330
1F
100
AcDbEntity
  8
0_Pen_No__1
  6
Continuous
100
AcDbPolyline
 90
        2
 70
   128
 43
0.0
 10
408.0956480573157
 20
13.36010157450873
 10
407.8442274031426
 20
12.26086511886437
  0
LWPOLYLINE
  5
149
330
1F
100
AcDbEntity
  8
0_Pen_No__1
  6
Continuous
100
AcDbPolyline
 90
        2
 70
   128
 43
0.0
 10
407.8442274031426
 20
12.26086511886437
 10
406.9915113789522
 20
10.77475821128571
  0
LWPOLYLINE
  5
14A
330
1F
100
AcDbEntity
  8
0_Pen_No__1
  6
Continuous
100
AcDbPolyline
 90
        2
 70
   128
 43
0.0
 10
406.9915113789522
 20
10.77475821128571
 10
405.7481907549212
 20
9.742572060289834
  0
LWPOLYLINE
  5
14B
330
1F
100
AcDbEntity
  8
0_Pen_No__1
  6
Continuous
100
AcDbPolyline
 90
        2
 70
   128
 43
0.0
 10
405.7481907549212
 20
9.742572060289834
 10
404.152043199061
 20
9.19566911976155
  0
LWPOLYLINE
  5
14C
330
1F
100
AcDbEntity
  8
0_Pen_No__1
  6
Continuous
100
AcDbPolyline
 90
        2
 70
   128
 43
0.0
 10
404.152043199061
 20
9.19566911976155
 10
402.2515668471653
 20
9.150666758804938
  0
LWPOLYLINE
  5
14D
330
1F
100
AcDbEntity
  8
0_Pen_No__1
  6
Continuous
100
AcDbPolyline
 90
        2
 70
   128
 43
0.0
 10
402.2515668471653
 20
9.150666758804938
 10
400.1045067115001
 20
9.608932351384269
  0
LWPOLYLINE
  5
14E
330
1F
100
AcDbEntity
  8
0_Pen_No__1
  6
Continuous
100
AcDbPolyline
 90
        2
 70
   128
 43
0.0
 10
400.1045067115001
 20
9.608932351384269
 10
397.776100127822
 20
10.55654172936194
  0
LWPOLYLINE
  5
14F
330
1F
100
AcDbEntity
  8
0_Pen_No__1
  6
Continuous
100
AcDbPolyline
 90
        2
 70
   128
 43
0.0
 10
407.3425207968722
 20
14.05025995970599
 10
407.1005915699113
 20
12.99066819158401
  0
LWPOLYLINE
  5
150
330
1F
100
AcDbEntity
  8
0_Pen_No__1
  6
Continuous
100
AcDbPolyline
 90
        2
 70
   128
 43
0.0
 10
407.1005915699113
 20
12.99066819158401
 10
406.2941335822794
 20
11.58517943320325
  0
LWPOLYLINE
  5
151
330
1F
100
AcDbEntity
  8
0_Pen_No__1
  6
Continuous
100
AcDbPolyline
 90
        2
 70
   128
 43
0.0
 10
406.2941335822794
 20
11.58517943320325
 10
405.1182604662698
 20
10.60898719266856
  0
LWPOLYLINE
  5
152
330
1F
100
AcDbEntity
  8
0_Pen_No__1
  6
Continuous
100
AcDbPolyline
 90
        2
 70
   128
 43
0.0
 10
405.1182604662698
 20
10.60898719266856
 10
403.6087005314899
 20
10.09175257723427
  0
LWPOLYLINE
  5
153
330
1F
100
AcDbEntity
  8
0_Pen_No__1
  6
Continuous
100
AcDbPolyline
 90
        2
 70
   128
 43
0.0
 10
403.6087005314899
 20
10.09175257723427
 10
401.8113209926852
 20
10.04919149895389
  0
LWPOLYLINE
  5
154
330
1F
100
AcDbEntity
  8
0_Pen_No__1
  6
Continuous
100
AcDbPolyline
 90
        2
 70
   128
 43
0.0
 10
401.8113209926852
 20
10.04919149895389
 10
399.7807343176234
 20
10.48259715465594
  0
LWPOLYLINE
  5
155
330
1F
100
AcDbEntity
  8
0_Pen_No__1
  6
Continuous
100
AcDbPolyline
 90
        2
 70
   128
 43
0.0
 10
399.7807343176234
 20
10.48259715465594
 10
397.5786388549008
 20
11.37880073280517
  0
LWPOLYLINE
  5
156
330
1F
100
AcDbEntity
  8
0_Pen_No__1
  6
Continuous
100
AcDbPolyline
 90
        2
 70
   128
 43
0.0
 10
396.5565973398837
 20
11.26062199533229
 10
396.4252915078692
 20
12.04468613699305
  0
LWPOLYLINE
  5
157
330
1F
100
AcDbEntity
  8
0_Pen_No__1
  6
Continuous
100
AcDbPolyline
 90
        2
 70
   128
 43
0.0
 10
414.6059285555186
 20
16.6600678549681
 10
405.7481907549212
 20
9.742572060289834
  0
LWPOLYLINE
  5
158
330
1F
100
AcDbEntity
  8
0_Pen_No__1
  6
Continuous
100
AcDbPolyline
 90
        2
 70
   128
 43
0.0
 10
367.3509851020507
 20
45.51711147848658
 10
367.820896738996
 20
45.29111939490249
  0
LWPOLYLINE
  5
159
330
1F
100
AcDbEntity
  8
0_Pen_No__1
  6
Continuous
100
AcDbPolyline
 90
        2
 70
   128
 43
0.0
 10
367.820896738996
 20
45.29111939490249
 10
370.4271328232887
 20
43.49881552161039
  0
LWPOLYLINE
  5
15A
330
1F
100
AcDbEntity
  8
0_Pen_No__1
  6
Continuous
100
AcDbPolyline
 90
        2
 70
   128
 43
0.0
 10
370.4271328232887
 20
43.49881552161039
 10
373.0174363940239
 20
41.30485512611071
  0
LWPOLYLINE
  5
15B
330
1F
100
AcDbEntity
  8
0_Pen_No__1
  6
Continuous
100
AcDbPolyline
 90
        2
 70
   128
 43
0.0
 10
373.0174363940239
 20
41.30485512611071
 10
375.513102387961
 20
38.77590058482083
  0
LWPOLYLINE
  5
15C
330
1F
100
AcDbEntity
  8
0_Pen_No__1
  6
Continuous
100
AcDbPolyline
 90
        2
 70
   128
 43
0.0
 10
375.513102387961
 20
38.77590058482083
 10
377.8383012567428
 20
35.9887929017656
  0
LWPOLYLINE
  5
15D
330
1F
100
AcDbEntity
  8
0_Pen_No__1
  6
Continuous
100
AcDbPolyline
 90
        2
 70
   128
 43
0.0
 10
377.8383012567428
 20
35.9887929017656
 10
379.9223830093492
 20
33.02821693355196
  0
LWPOLYLINE
  5
15E
330
1F
100
AcDbEntity
  8
0_Pen_No__1
  6
Continuous
100
AcDbPolyline
 90
        2
 70
   128
 43
0.0
 10
379.9223830093492
 20
33.02821693355196
 10
381.702023876322
 20
29.98412828284847
  0
LWPOLYLINE
  5
15F
330
1F
100
AcDbEntity
  8
0_Pen_No__1
  6
Continuous
100
AcDbPolyline
 90
        2
 70
   128
 43
0.0
 10
367.4822909340651
 20
44.73304733682626
 10
367.9280225744677
 20
44.51868400930914
  0
LWPOLYLINE
  5
160
330
1F
100
AcDbEntity
  8
0_Pen_No__1
  6
Continuous
100
AcDbPolyline
 90
        2
 70
   128
 43
0.0
 10
367.9280225744677
 20
44.51868400930914
 10
370.4001509360433
 20
42.81860577601748
  0
LWPOLYLINE
  5
161
330
1F
100
AcDbEntity
  8
0_Pen_No__1
  6
Continuous
100
AcDbPolyline
 90
        2
 70
   128
 43
0.0
 10
370.4001509360433
 20
42.81860577601748
 10
372.8571666150522
 20
40.73753884943388
  0
LWPOLYLINE
  5
162
330
1F
100
AcDbEntity
  8
0_Pen_No__1
  6
Continuous
100
AcDbPolyline
 90
        2
 70
   128
 43
0.0
 10
372.8571666150522
 20
40.73753884943388
 10
375.2244144333965
 20
38.33871539505152
  0
LWPOLYLINE
  5
163
330
1F
100
AcDbEntity
  8
0_Pen_No__1
  6
Continuous
100
AcDbPolyline
 90
        2
 70
   128
 43
0.0
 10
375.2244144333965
 20
38.33871539505152
 10
377.4299667640024
 20
35.69502244967004
  0
LWPOLYLINE
  5
164
330
1F
100
AcDbEntity
  8
0_Pen_No__1
  6
Continuous
100
AcDbPolyline
 90
        2
 70
   128
 43
0.0
 10
377.4299667640024
 20
35.69502244967004
 10
379.4068090153671
 20
32.88678728566008
  0
LWPOLYLINE
  5
165
330
1F
100
AcDbEntity
  8
0_Pen_No__1
  6
Continuous
100
AcDbPolyline
 90
        2
 70
   128
 43
0.0
 10
379.4068090153671
 20
32.88678728566008
 10
381.0948758360126
 20
29.99933670744392
  0
LWPOLYLINE
  5
166
330
1F
100
AcDbEntity
  8
0_Pen_No__1
  6
Continuous
100
AcDbPolyline
 90
        2
 70
   128
 43
0.0
 10
381.0948758360126
 20
29.99933670744392
 10
381.7688760029052
 20
28.55987057358422
  0
LWPOLYLINE
  5
167
330
1F
100
AcDbEntity
  8
0_Pen_No__1
  6
Continuous
100
AcDbPolyline
 90
        2
 70
   128
 43
0.0
 10
367.3509851020507
 20
45.51711147848658
 10
367.4822909340651
 20
44.73304733682626
  0
LWPOLYLINE
  5
168
330
1F
100
AcDbEntity
  8
0_Pen_No__1
  6
Continuous
100
AcDbPolyline
 90
        2
 70
   128
 43
0.0
 10
382.4273264401885
 20
28.43505419145631
 10
381.7688760029052
 20
28.55987057358422
  0
LWPOLYLINE
  5
169
330
1F
100
AcDbEntity
  8
0_Pen_No__1
  6
Continuous
100
AcDbPolyline
 90
        2
 70
   128
 43
0.0
 10
395.140199225442
 20
12.09552617734155
 10
392.6650314441025
 20
13.95250866962383
  0
LWPOLYLINE
  5
16A
330
1F
100
AcDbEntity
  8
0_Pen_No__1
  6
Continuous
100
AcDbPolyline
 90
        2
 70
   128
 43
0.0
 10
392.6650314441025
 20
13.95250866962383
 10
390.2345619061931
 20
16.16685757883907
  0
LWPOLYLINE
  5
16B
330
1F
100
AcDbEntity
  8
0_Pen_No__1
  6
Continuous
100
AcDbPolyline
 90
        2
 70
   128
 43
0.0
 10
390.2345619061931
 20
16.16685757883907
 10
387.922639198746
 20
18.67129103389165
  0
LWPOLYLINE
  5
16C
330
1F
100
AcDbEntity
  8
0_Pen_No__1
  6
Continuous
100
AcDbPolyline
 90
        2
 70
   128
 43
0.0
 10
387.922639198746
 20
18.67129103389165
 10
385.7995099233378
 20
21.38971309155579
  0
LWPOLYLINE
  5
16D
330
1F
100
AcDbEntity
  8
0_Pen_No__1
  6
Continuous
100
AcDbPolyline
 90
        2
 70
   128
 43
0.0
 10
385.7995099233378
 20
21.38971309155579
 10
383.9296842886455
 20
24.23952587319922
  0
LWPOLYLINE
  5
16E
330
1F
100
AcDbEntity
  8
0_Pen_No__1
  6
Continuous
100
AcDbPolyline
 90
        2
 70
   128
 43
0.0
 10
383.9296842886455
 20
24.23952587319922
 10
382.3699760004029
 20
27.13413925952446
  0
LWPOLYLINE
  5
16F
330
1F
100
AcDbEntity
  8
0_Pen_No__1
  6
Continuous
100
AcDbPolyline
 90
        2
 70
   128
 43
0.0
 10
396.4252915078221
 20
12.04468613719778
 10
395.0857299883763
 20
12.83429853713336
  0
LWPOLYLINE
  5
170
330
1F
100
AcDbEntity
  8
0_Pen_No__1
  6
Continuous
100
AcDbPolyline
 90
        2
 70
   128
 43
0.0
 10
395.0857299883763
 20
12.83429853713336
 10
392.7448348118327
 20
14.59054366600199
  0
LWPOLYLINE
  5
171
330
1F
100
AcDbEntity
  8
0_Pen_No__1
  6
Continuous
100
AcDbPolyline
 90
        2
 70
   128
 43
0.0
 10
392.7448348118327
 20
14.59054366600199
 10
390.4462130937727
 20
16.68476884129777
  0
LWPOLYLINE
  5
172
330
1F
100
AcDbEntity
  8
0_Pen_No__1
  6
Continuous
100
AcDbPolyline
 90
        2
 70
   128
 43
0.0
 10
390.4462130937727
 20
16.68476884129777
 10
388.2597072919402
 20
19.05334209080023
  0
LWPOLYLINE
  5
173
330
1F
100
AcDbEntity
  8
0_Pen_No__1
  6
Continuous
100
AcDbPolyline
 90
        2
 70
   128
 43
0.0
 10
388.2597072919402
 20
19.05334209080023
 10
386.2517532787004
 20
21.62429551487699
  0
LWPOLYLINE
  5
174
330
1F
100
AcDbEntity
  8
0_Pen_No__1
  6
Continuous
100
AcDbPolyline
 90
        2
 70
   128
 43
0.0
 10
386.2517532787004
 20
21.62429551487699
 10
384.4833617206698
 20
24.31951199470339
  0
LWPOLYLINE
  5
175
330
1F
100
AcDbEntity
  8
0_Pen_No__1
  6
Continuous
100
AcDbPolyline
 90
        2
 70
   128
 43
0.0
 10
384.4833617206698
 20
24.31951199470339
 10
383.0082643004911
 20
27.05709874138551
  0
LWPOLYLINE
  5
176
330
1F
100
AcDbEntity
  8
0_Pen_No__1
  6
Continuous
100
AcDbPolyline
 90
        2
 70
   128
 43
0.0
 10
383.0082643004911
 20
27.05709874138551
 10
382.4273264403326
 20
28.43505419140346
  0
LWPOLYLINE
  5
177
330
1F
100
AcDbEntity
  8
0_Pen_No__1
  6
Continuous
100
AcDbPolyline
 90
        2
 70
   128
 43
0.0
 10
355.3809966262913
 20
44.05026005825385
 10
355.4510250375458
 20
44.4626072859372
  0
LWPOLYLINE
  5
178
330
1F
100
AcDbEntity
  8
0_Pen_No__1
  6
Continuous
100
AcDbPolyline
 90
        2
 70
   128
 43
0.0
 10
355.4510250375458
 20
44.4626072859372
 10
356.3499990982957
 20
46.02933234271311
  0
LWPOLYLINE
  5
179
330
1F
100
AcDbEntity
  8
0_Pen_No__1
  6
Continuous
100
AcDbPolyline
 90
        2
 70
   128
 43
0.0
 10
356.3499990982957
 20
46.02933234271311
 10
357.660767230346
 20
47.11751240417239
  0
LWPOLYLINE
  5
17A
330
1F
100
AcDbEntity
  8
0_Pen_No__1
  6
Continuous
100
AcDbPolyline
 90
        2
 70
   128
 43
0.0
 10
357.660767230346
 20
47.11751240417239
 10
359.3435024072882
 20
47.69408366979222
  0
LWPOLYLINE
  5
17B
330
1F
100
AcDbEntity
  8
0_Pen_No__1
  6
Continuous
100
AcDbPolyline
 90
        2
 70
   128
 43
0.0
 10
359.3435024072882
 20
47.69408366979222
 10
361.3470755722741
 20
47.7415273134264
  0
LWPOLYLINE
  5
17C
330
1F
100
AcDbEntity
  8
0_Pen_No__1
  6
Continuous
100
AcDbPolyline
 90
        2
 70
   128
 43
0.0
 10
361.3470755722741
 20
47.7415273134264
 10
363.6106091685445
 20
47.2584017839709
  0
LWPOLYLINE
  5
17D
330
1F
100
AcDbEntity
  8
0_Pen_No__1
  6
Continuous
100
AcDbPolyline
 90
        2
 70
   128
 43
0.0
 10
363.6106091685445
 20
47.2584017839709
 10
366.0653268731773
 20
46.25938660616391
  0
LWPOLYLINE
  5
17E
330
1F
100
AcDbEntity
  8
0_Pen_No__1
  6
Continuous
100
AcDbPolyline
 90
        2
 70
   128
 43
0.0
 10
356.1341238867355
 20
43.36010167305637
 10
356.1946608707771
 20
43.73280421321668
  0
LWPOLYLINE
  5
17F
330
1F
100
AcDbEntity
  8
0_Pen_No__1
  6
Continuous
100
AcDbPolyline
 90
        2
 70
   128
 43
0.0
 10
356.1946608707771
 20
43.73280421321668
 10
357.0473768949673
 20
45.21891112079557
  0
LWPOLYLINE
  5
180
330
1F
100
AcDbEntity
  8
0_Pen_No__1
  6
Continuous
100
AcDbPolyline
 90
        2
 70
   128
 43
0.0
 10
357.0473768949673
 20
45.21891112079557
 10
358.2906975189983
 20
46.25109727179144
  0
LWPOLYLINE
  5
181
330
1F
100
AcDbEntity
  8
0_Pen_No__1
  6
Continuous
100
AcDbPolyline
 90
        2
 70
   128
 43
0.0
 10
358.2906975189983
 20
46.25109727179144
 10
359.8868450748585
 20
46.79800021231972
  0
LWPOLYLINE
  5
182
330
1F
100
AcDbEntity
  8
0_Pen_No__1
  6
Continuous
100
AcDbPolyline
 90
        2
 70
   128
 43
0.0
 10
359.8868450748585
 20
46.79800021231972
 10
361.7873214267542
 20
46.84300257327745
  0
LWPOLYLINE
  5
183
330
1F
100
AcDbEntity
  8
0_Pen_No__1
  6
Continuous
100
AcDbPolyline
 90
        2
 70
   128
 43
0.0
 10
361.7873214267542
 20
46.84300257327745
 10
363.9343815624194
 20
46.38473698069811
  0
LWPOLYLINE
  5
184
330
1F
100
AcDbEntity
  8
0_Pen_No__1
  6
Continuous
100
AcDbPolyline
 90
        2
 70
   128
 43
0.0
 10
363.9343815624194
 20
46.38473698069811
 10
366.2627881460987
 20
45.43712760272045
  0
LWPOLYLINE
  5
185
330
1F
100
AcDbEntity
  8
0_Pen_No__1
  6
Continuous
100
AcDbPolyline
 90
        2
 70
   128
 43
0.0
 10
356.134123886795
 20
43.36010167295934
 10
355.8827032326208
 20
42.26086521731609
  0
LWPOLYLINE
  5
186
330
1F
100
AcDbEntity
  8
0_Pen_No__1
  6
Continuous
100
AcDbPolyline
 90
        2
 70
   128
 43
0.0
 10
355.8827032326208
 20
42.26086521731609
 10
355.0299872084306
 20
40.77475830973609
  0
LWPOLYLINE
  5
187
330
1F
100
AcDbEntity
  8
0_Pen_No__1
  6
Continuous
100
AcDbPolyline
 90
        2
 70
   128
 43
0.0
 10
355.0299872084306
 20
40.77475830973609
 10
353.7866665844005
 20
39.74257215874022
  0
LWPOLYLINE
  5
188
330
1F
100
AcDbEntity
  8
0_Pen_No__1
  6
Continuous
100
AcDbPolyline
 90
        2
 70
   128
 43
0.0
 10
353.7866665844005
 20
39.74257215874022
 10
352.1905190285395
 20
39.19566921821216
  0
LWPOLYLINE
  5
189
330
1F
100
AcDbEntity
  8
0_Pen_No__1
  6
Continuous
100
AcDbPolyline
 90
        2
 70
   128
 43
0.0
 10
352.1905190285395
 20
39.19566921821216
 10
350.290042676644
 20
39.15066685725532
  0
LWPOLYLINE
  5
18A
330
1F
100
AcDbEntity
  8
0_Pen_No__1
  6
Continuous
100
AcDbPolyline
 90
        2
 70
   128
 43
0.0
 10
350.290042676644
 20
39.15066685725532
 10
348.1429825409786
 20
39.60893244983465
  0
LWPOLYLINE
  5
18B
330
1F
100
AcDbEntity
  8
0_Pen_No__1
  6
Continuous
100
AcDbPolyline
 90
        2
 70
   128
 43
0.0
 10
348.1429825409786
 20
39.60893244983465
 10
345.8145759573003
 20
40.55654182781321
  0
LWPOLYLINE
  5
18C
330
1F
100
AcDbEntity
  8
0_Pen_No__1
  6
Continuous
100
AcDbPolyline
 90
        2
 70
   128
 43
0.0
 10
355.3809966263506
 20
44.0502600581566
 10
355.1390673993888
 20
42.99066829003528
  0
LWPOLYLINE
  5
18D
330
1F
100
AcDbEntity
  8
0_Pen_No__1
  6
Continuous
100
AcDbPolyline
 90
        2
 70
   128
 43
0.0
 10
355.1390673993888
 20
42.99066829003528
 10
354.3326094117578
 20
41.58517953165364
  0
LWPOLYLINE
  5
18E
330
1F
100
AcDbEntity
  8
0_Pen_No__1
  6
Continuous
100
AcDbPolyline
 90
        2
 70
   128
 43
0.0
 10
354.3326094117578
 20
41.58517953165364
 10
353.1567362957481
 20
40.60898729112006
  0
LWPOLYLINE
  5
18F
330
1F
100
AcDbEntity
  8
0_Pen_No__1
  6
Continuous
100
AcDbPolyline
 90
        2
 70
   128
 43
0.0
 10
353.1567362957481
 20
40.60898729112006
 10
351.6471763609683
 20
40.09175267568465
  0
LWPOLYLINE
  5
190
330
1F
100
AcDbEntity
  8
0_Pen_No__1
  6
Continuous
100
AcDbPolyline
 90
        2
 70
   128
 43
0.0
 10
351.6471763609683
 20
40.09175267568465
 10
349.8497968221637
 20
40.0491915974045
  0
LWPOLYLINE
  5
191
330
1F
100
AcDbEntity
  8
0_Pen_No__1
  6
Continuous
100
AcDbPolyline
 90
        2
 70
   128
 43
0.0
 10
349.8497968221637
 20
40.0491915974045
 10
347.8192101471027
 20
40.48259725310744
  0
LWPOLYLINE
  5
192
330
1F
100
AcDbEntity
  8
0_Pen_No__1
  6
Continuous
100
AcDbPolyline
 90
        2
 70
   128
 43
0.0
 10
347.8192101471027
 20
40.48259725310744
 10
345.6171146843794
 20
41.37880083125556
  0
LWPOLYLINE
  5
193
330
1F
100
AcDbEntity
  8
0_Pen_No__1
  6
Continuous
100
AcDbPolyline
 90
        2
 70
   128
 43
0.0
 10
344.5950731693621
 20
41.26062209378289
 10
344.4637673373467
 20
42.04468623544344
  0
LWPOLYLINE
  5
194
330
1F
100
AcDbEntity
  8
0_Pen_No__1
  6
Continuous
100
AcDbPolyline
 90
        2
 70
   128
 43
0.0
 10
362.6444043849943
 20
46.66006795341649
 10
353.7866665844005
 20
39.74257215874022
  0
LWPOLYLINE
  5
195
330
1F
100
AcDbEntity
  8
0_Pen_No__1
  6
Continuous
100
AcDbPolyline
 90
        2
 70
   128
 43
0.0
 10
315.3894609317813
 20
75.51711157679131
 10
315.8593725687275
 20
75.29111949320722
  0
LWPOLYLINE
  5
196
330
1F
100
AcDbEntity
  8
0_Pen_No__1
  6
Continuous
100
AcDbPolyline
 90
        2
 70
   128
 43
0.0
 10
315.8593725687275
 20
75.29111949320722
 10
318.4656086530193
 20
73.49881561991512
  0
LWPOLYLINE
  5
197
330
1F
100
AcDbEntity
  8
0_Pen_No__1
  6
Continuous
100
AcDbPolyline
 90
        2
 70
   128
 43
0.0
 10
318.4656086530193
 20
73.49881561991512
 10
321.0559122237538
 20
71.304855224415
  0
LWPOLYLINE
  5
198
330
1F
100
AcDbEntity
  8
0_Pen_No__1
  6
Continuous
100
AcDbPolyline
 90
        2
 70
   128
 43
0.0
 10
321.0559122237538
 20
71.304855224415
 10
323.5515782176917
 20
68.77590068312533
  0
LWPOLYLINE
  5
199
330
1F
100
AcDbEntity
  8
0_Pen_No__1
  6
Continuous
100
AcDbPolyline
 90
        2
 70
   128
 43
0.0
 10
323.5515782176917
 20
68.77590068312533
 10
325.8767770864735
 20
65.98879300007121
  0
LWPOLYLINE
  5
19A
330
1F
100
AcDbEntity
  8
0_Pen_No__1
  6
Continuous
100
AcDbPolyline
 90
        2
 70
   128
 43
0.0
 10
325.8767770864735
 20
65.98879300007121
 10
327.960858839079
 20
63.02821703185779
  0
LWPOLYLINE
  5
19B
330
1F
100
AcDbEntity
  8
0_Pen_No__1
  6
Continuous
100
AcDbPolyline
 90
        2
 70
   128
 43
0.0
 10
327.960858839079
 20
63.02821703185779
 10
329.7404997060536
 20
59.98412838115297
  0
LWPOLYLINE
  5
19C
330
1F
100
AcDbEntity
  8
0_Pen_No__1
  6
Continuous
100
AcDbPolyline
 90
        2
 70
   128
 43
0.0
 10
315.5207667637958
 20
74.73304743513076
 10
315.9664984041983
 20
74.51868410761453
  0
LWPOLYLINE
  5
19D
330
1F
100
AcDbEntity
  8
0_Pen_No__1
  6
Continuous
100
AcDbPolyline
 90
        2
 70
   128
 43
0.0
 10
315.9664984041983
 20
74.51868410761453
 10
318.438626765774
 20
72.81860587432199
  0
LWPOLYLINE
  5
19E
330
1F
100
AcDbEntity
  8
0_Pen_No__1
  6
Continuous
100
AcDbPolyline
 90
        2
 70
   128
 43
0.0
 10
318.438626765774
 20
72.81860587432199
 10
320.8956424447829
 20
70.73753894773816
  0
LWPOLYLINE
  5
19F
330
1F
100
AcDbEntity
  8
0_Pen_No__1
  6
Continuous
100
AcDbPolyline
 90
        2
 70
   128
 43
0.0
 10
320.8956424447829
 20
70.73753894773816
 10
323.2628902631269
 20
68.33871549335602
  0
LWPOLYLINE
  5
1A0
330
1F
100
AcDbEntity
  8
0_Pen_No__1
  6
Continuous
100
AcDbPolyline
 90
        2
 70
   128
 43
0.0
 10
323.2628902631269
 20
68.33871549335602
 10
325.4684425937331
 20
65.69502254797432
  0
LWPOLYLINE
  5
1A1
330
1F
100
AcDbEntity
  8
0_Pen_No__1
  6
Continuous
100
AcDbPolyline
 90
        2
 70
   128
 43
0.0
 10
325.4684425937331
 20
65.69502254797432
 10
327.4452848450977
 20
62.8867873839648
  0
LWPOLYLINE
  5
1A2
330
1F
100
AcDbEntity
  8
0_Pen_No__1
  6
Continuous
100
AcDbPolyline
 90
        2
 70
   128
 43
0.0
 10
327.4452848450977
 20
62.8867873839648
 10
329.1333516657442
 20
59.99933680574954
  0
LWPOLYLINE
  5
1A3
330
1F
100
AcDbEntity
  8
0_Pen_No__1
  6
Continuous
100
AcDbPolyline
 90
        2
 70
   128
 43
0.0
 10
329.1333516657442
 20
59.99933680574954
 10
329.8073518326357
 20
58.55987067188894
  0
LWPOLYLINE
  5
1A4
330
1F
100
AcDbEntity
  8
0_Pen_No__1
  6
Continuous
100
AcDbPolyline
 90
        2
 70
   128
 43
0.0
 10
315.3894609317813
 20
75.51711157679131
 10
315.5207667637958
 20
74.73304743513076
  0
LWPOLYLINE
  5
1A5
330
1F
100
AcDbEntity
  8
0_Pen_No__1
  6
Continuous
100
AcDbPolyline
 90
        2
 70
   128
 43
0.0
 10
330.4658022699192
 20
58.43505428976192
 10
329.8073518326357
 20
58.55987067188894
  0
LWPOLYLINE
  5
1A6
330
1F
100
AcDbEntity
  8
0_Pen_No__1
  6
Continuous
100
AcDbPolyline
 90
        2
 70
   128
 43
0.0
 10
343.1786750549204
 20
42.09552627579216
 10
340.7035072735809
 20
43.95250876807511
  0
LWPOLYLINE
  5
1A7
330
1F
100
AcDbEntity
  8
0_Pen_No__1
  6
Continuous
100
AcDbPolyline
 90
        2
 70
   128
 43
0.0
 10
340.7035072735809
 20
43.95250876807511
 10
338.2730377356717
 20
46.16685767728945
  0
LWPOLYLINE
  5
1A8
330
1F
100
AcDbEntity
  8
0_Pen_No__1
  6
Continuous
100
AcDbPolyline
 90
        2
 70
   128
 43
0.0
 10
338.2730377356717
 20
46.16685767728945
 10
335.9611150282245
 20
48.67129113234203
  0
LWPOLYLINE
  5
1A9
330
1F
100
AcDbEntity
  8
0_Pen_No__1
  6
Continuous
100
AcDbPolyline
 90
        2
 70
   128
 43
0.0
 10
335.9611150282245
 20
48.67129113234203
 10
333.8379857528162
 20
51.38971319000618
  0
LWPOLYLINE
  5
1AA
330
1F
100
AcDbEntity
  8
0_Pen_No__1
  6
Continuous
100
AcDbPolyline
 90
        2
 70
   128
 43
0.0
 10
333.8379857528162
 20
51.38971319000618
 10
331.9681601181248
 20
54.23952597164961
  0
LWPOLYLINE
  5
1AB
330
1F
100
AcDbEntity
  8
0_Pen_No__1
  6
Continuous
100
AcDbPolyline
 90
        2
 70
   128
 43
0.0
 10
331.9681601181248
 20
54.23952597164961
 10
330.4084518298813
 20
57.13413935797485
  0
LWPOLYLINE
  5
1AC
330
1F
100
AcDbEntity
  8
0_Pen_No__1
  6
Continuous
100
AcDbPolyline
 90
        2
 70
   128
 43
0.0
 10
344.4637673373006
 20
42.04468623564816
 10
343.1242058178556
 20
42.83429863558374
  0
LWPOLYLINE
  5
1AD
330
1F
100
AcDbEntity
  8
0_Pen_No__1
  6
Continuous
100
AcDbPolyline
 90
        2
 70
   128
 43
0.0
 10
343.1242058178556
 20
42.83429863558374
 10
340.7833106413119
 20
44.59054376445237
  0
LWPOLYLINE
  5
1AE
330
1F
100
AcDbEntity
  8
0_Pen_No__1
  6
Continuous
100
AcDbPolyline
 90
        2
 70
   128
 43
0.0
 10
340.7833106413119
 20
44.59054376445237
 10
338.4846889232511
 20
46.68476893974904
  0
LWPOLYLINE
  5
1AF
330
1F
100
AcDbEntity
  8
0_Pen_No__1
  6
Continuous
100
AcDbPolyline
 90
        2
 70
   128
 43
0.0
 10
338.4846889232511
 20
46.68476893974904
 10
336.2981831214196
 20
49.05334218925061
  0
LWPOLYLINE
  5
1B0
330
1F
100
AcDbEntity
  8
0_Pen_No__1
  6
Continuous
100
AcDbPolyline
 90
        2
 70
   128
 43
0.0
 10
336.2981831214196
 20
49.05334218925061
 10
334.2902291081788
 20
51.62429561332738
  0
LWPOLYLINE
  5
1B1
330
1F
100
AcDbEntity
  8
0_Pen_No__1
  6
Continuous
100
AcDbPolyline
 90
        2
 70
   128
 43
0.0
 10
334.2902291081788
 20
51.62429561332738
 10
332.5218375501482
 20
54.319512093154
  0
LWPOLYLINE
  5
1B2
330
1F
100
AcDbEntity
  8
0_Pen_No__1
  6
Continuous
100
AcDbPolyline
 90
        2
 70
   128
 43
0.0
 10
332.5218375501482
 20
54.319512093154
 10
331.0467401299704
 20
57.05709883983589
  0
LWPOLYLINE
  5
1B3
330
1F
100
AcDbEntity
  8
0_Pen_No__1
  6
Continuous
100
AcDbPolyline
 90
        2
 70
   128
 43
0.0
 10
331.0467401299704
 20
57.05709883983589
 10
330.4658022698117
 20
58.43505428985407
  0
LWPOLYLINE
  5
1B4
330
1F
100
AcDbEntity
  8
0_Pen_No__1
  6
Continuous
100
AcDbPolyline
 90
        2
 70
   128
 43
0.0
 10
303.4194724560222
 20
74.05026015655835
 10
303.4895008672773
 20
74.46260738424148
  0
LWPOLYLINE
  5
1B5
330
1F
100
AcDbEntity
  8
0_Pen_No__1
  6
Continuous
100
AcDbPolyline
 90
        2
 70
   128
 43
0.0
 10
303.4895008672773
 20
74.46260738424148
 10
304.3884749280257
 20
76.02933244101872
  0
LWPOLYLINE
  5
1B6
330
1F
100
AcDbEntity
  8
0_Pen_No__1
  6
Continuous
100
AcDbPolyline
 90
        2
 70
   128
 43
0.0
 10
304.3884749280257
 20
76.02933244101872
 10
305.6992430600767
 20
77.11751250247711
  0
LWPOLYLINE
  5
1B7
330
1F
100
AcDbEntity
  8
0_Pen_No__1
  6
Continuous
100
AcDbPolyline
 90
        2
 70
   128
 43
0.0
 10
305.6992430600767
 20
77.11751250247711
 10
307.3819782370189
 20
77.69408376809672
  0
LWPOLYLINE
  5
1B8
330
1F
100
AcDbEntity
  8
0_Pen_No__1
  6
Continuous
100
AcDbPolyline
 90
        2
 70
   128
 43
0.0
 10
307.3819782370189
 20
77.69408376809672
 10
309.3855514020052
 20
77.7415274117309
  0
LWPOLYLINE
  5
1B9
330
1F
100
AcDbEntity
  8
0_Pen_No__1
  6
Continuous
100
AcDbPolyline
 90
        2
 70
   128
 43
0.0
 10
309.3855514020052
 20
77.7415274117309
 10
311.6490849982742
 20
77.2584018822754
  0
LWPOLYLINE
  5
1BA
330
1F
100
AcDbEntity
  8
0_Pen_No__1
  6
Continuous
100
AcDbPolyline
 90
        2
 70
   128
 43
0.0
 10
311.6490849982742
 20
77.2584018822754
 10
314.103802702908
 20
76.25938670446952
  0
LWPOLYLINE
  5
1BB
330
1F
100
AcDbEntity
  8
0_Pen_No__1
  6
Continuous
100
AcDbPolyline
 90
        2
 70
   128
 43
0.0
 10
304.1725997164662
 20
73.36010177136198
 10
304.2331367005087
 20
73.7328043115214
  0
LWPOLYLINE
  5
1BC
330
1F
100
AcDbEntity
  8
0_Pen_No__1
  6
Continuous
100
AcDbPolyline
 90
        2
 70
   128
 43
0.0
 10
304.2331367005087
 20
73.7328043115214
 10
305.085852724698
 20
75.21891121910006
  0
LWPOLYLINE
  5
1BD
330
1F
100
AcDbEntity
  8
0_Pen_No__1
  6
Continuous
100
AcDbPolyline
 90
        2
 70
   128
 43
0.0
 10
305.085852724698
 20
75.21891121910006
 10
306.329173348729
 20
76.25109737009727
  0
LWPOLYLINE
  5
1BE
330
1F
100
AcDbEntity
  8
0_Pen_No__1
  6
Continuous
100
AcDbPolyline
 90
        2
 70
   128
 43
0.0
 10
306.329173348729
 20
76.25109737009727
 10
307.9253209045896
 20
76.79800031062423
  0
LWPOLYLINE
  5
1BF
330
1F
100
AcDbEntity
  8
0_Pen_No__1
  6
Continuous
100
AcDbPolyline
 90
        2
 70
   128
 43
0.0
 10
307.9253209045896
 20
76.79800031062423
 10
309.8257972564849
 20
76.84300267158196
  0
LWPOLYLINE
  5
1C0
330
1F
100
AcDbEntity
  8
0_Pen_No__1
  6
Continuous
100
AcDbPolyline
 90
        2
 70
   128
 43
0.0
 10
309.8257972564849
 20
76.84300267158196
 10
311.972857392151
 20
76.38473707900373
  0
LWPOLYLINE
  5
1C1
330
1F
100
AcDbEntity
  8
0_Pen_No__1
  6
Continuous
100
AcDbPolyline
 90
        2
 70
   128
 43
0.0
 10
311.972857392151
 20
76.38473707900373
 10
314.3012639758282
 20
75.43712770102518
  0
LWPOLYLINE
  5
1C2
330
1F
100
AcDbEntity
  8
0_Pen_No__1
  6
Continuous
100
AcDbPolyline
 90
        2
 70
   128
 43
0.0
 10
304.1725997165252
 20
73.36010177126472
 10
303.9211790623515
 20
72.26086531562036
  0
LWPOLYLINE
  5
1C3
330
1F
100
AcDbEntity
  8
0_Pen_No__1
  6
Continuous
100
AcDbPolyline
 90
        2
 70
   128
 43
0.0
 10
303.9211790623515
 20
72.26086531562036
 10
303.0684630381613
 20
70.7747584080417
  0
LWPOLYLINE
  5
1C4
330
1F
100
AcDbEntity
  8
0_Pen_No__1
  6
Continuous
100
AcDbPolyline
 90
        2
 70
   128
 43
0.0
 10
303.0684630381613
 20
70.7747584080417
 10
301.8251424141307
 20
69.7425722570445
  0
LWPOLYLINE
  5
1C5
330
1F
100
AcDbEntity
  8
0_Pen_No__1
  6
Continuous
100
AcDbPolyline
 90
        2
 70
   128
 43
0.0
 10
301.8251424141307
 20
69.7425722570445
 10
300.2289948582701
 20
69.19566931651755
  0
LWPOLYLINE
  5
1C6
330
1F
100
AcDbEntity
  8
0_Pen_No__1
  6
Continuous
100
AcDbPolyline
 90
        2
 70
   128
 43
0.0
 10
300.2289948582701
 20
69.19566931651755
 10
298.3285185063745
 20
69.15066695556094
  0
LWPOLYLINE
  5
1C7
330
1F
100
AcDbEntity
  8
0_Pen_No__1
  6
Continuous
100
AcDbPolyline
 90
        2
 70
   128
 43
0.0
 10
298.3285185063745
 20
69.15066695556094
 10
296.1814583707092
 20
69.60893254814027
  0
LWPOLYLINE
  5
1C8
330
1F
100
AcDbEntity
  8
0_Pen_No__1
  6
Continuous
100
AcDbPolyline
 90
        2
 70
   128
 43
0.0
 10
296.1814583707092
 20
69.60893254814027
 10
293.853051787031
 20
70.55654192611772
  0
LWPOLYLINE
  5
1C9
330
1F
100
AcDbEntity
  8
0_Pen_No__1
  6
Continuous
100
AcDbPolyline
 90
        2
 70
   128
 43
0.0
 10
303.4194724560813
 20
74.05026015646199
 10
303.1775432291197
 20
72.99066838834001
  0
LWPOLYLINE
  5
1CA
330
1F
100
AcDbEntity
  8
0_Pen_No__1
  6
Continuous
100
AcDbPolyline
 90
        2
 70
   128
 43
0.0
 10
303.1775432291197
 20
72.99066838834001
 10
302.3710852414885
 20
71.58517962995926
  0
LWPOLYLINE
  5
1CB
330
1F
100
AcDbEntity
  8
0_Pen_No__1
  6
Continuous
100
AcDbPolyline
 90
        2
 70
   128
 43
0.0
 10
302.3710852414885
 20
71.58517962995926
 10
301.1952121254789
 20
70.60898738942456
  0
LWPOLYLINE
  5
1CC
330
1F
100
AcDbEntity
  8
0_Pen_No__1
  6
Continuous
100
AcDbPolyline
 90
        2
 70
   128
 43
0.0
 10
301.1952121254789
 20
70.60898738942456
 10
299.6856521906992
 20
70.09175277399027
  0
LWPOLYLINE
  5
1CD
330
1F
100
AcDbEntity
  8
0_Pen_No__1
  6
Continuous
100
AcDbPolyline
 90
        2
 70
   128
 43
0.0
 10
299.6856521906992
 20
70.09175277399027
 10
297.8882726518943
 20
70.0491916957099
  0
LWPOLYLINE
  5
1CE
330
1F
100
AcDbEntity
  8
0_Pen_No__1
  6
Continuous
100
AcDbPolyline
 90
        2
 70
   128
 43
0.0
 10
297.8882726518943
 20
70.0491916957099
 10
295.857685976833
 20
70.48259735141194
  0
LWPOLYLINE
  5
1CF
330
1F
100
AcDbEntity
  8
0_Pen_No__1
  6
Continuous
100
AcDbPolyline
 90
        2
 70
   128
 43
0.0
 10
295.857685976833
 20
70.48259735141194
 10
293.6555905141098
 20
71.37880092956117
  0
LWPOLYLINE
  5
1D0
330
1F
100
AcDbEntity
  8
0_Pen_No__1
  6
Continuous
100
AcDbPolyline
 90
        2
 70
   128
 43
0.0
 10
292.6335489990928
 20
71.26062219208829
 10
292.5022431670778
 20
72.04468633374906
  0
LWPOLYLINE
  5
1D1
330
1F
100
AcDbEntity
  8
0_Pen_No__1
  6
Continuous
100
AcDbPolyline
 90
        2
 70
   128
 43
0.0
 10
310.6828802147286
 20
76.6600680517241
 10
301.8251424141307
 20
69.7425722570445
  0
LWPOLYLINE
  5
1D2
330
1F
100
AcDbEntity
  8
0_Pen_No__1
  6
Continuous
100
AcDbPolyline
 90
        2
 70
   128
 43
0.0
 10
263.4279367612609
 20
105.5171116752417
 10
263.897848398206
 20
105.2911195916576
  0
LWPOLYLINE
  5
1D3
330
1F
100
AcDbEntity
  8
0_Pen_No__1
  6
Continuous
100
AcDbPolyline
 90
        2
 70
   128
 43
0.0
 10
263.897848398206
 20
105.2911195916576
 10
266.5040844824977
 20
103.4988157183653
  0
LWPOLYLINE
  5
1D4
330
1F
100
AcDbEntity
  8
0_Pen_No__1
  6
Continuous
100
AcDbPolyline
 90
        2
 70
   128
 43
0.0
 10
266.5040844824977
 20
103.4988157183653
 10
269.0943880532326
 20
101.3048553228667
  0
LWPOLYLINE
  5
1D5
330
1F
100
AcDbEntity
  8
0_Pen_No__1
  6
Continuous
100
AcDbPolyline
 90
        2
 70
   128
 43
0.0
 10
269.0943880532326
 20
101.3048553228667
 10
271.59005404717
 20
98.77590078157684
  0
LWPOLYLINE
  5
1D6
330
1F
100
AcDbEntity
  8
0_Pen_No__1
  6
Continuous
100
AcDbPolyline
 90
        2
 70
   128
 43
0.0
 10
271.59005404717
 20
98.77590078157684
 10
273.9152529159519
 20
95.9887930985216
  0
LWPOLYLINE
  5
1D7
330
1F
100
AcDbEntity
  8
0_Pen_No__1
  6
Continuous
100
AcDbPolyline
 90
        2
 70
   128
 43
0.0
 10
273.9152529159519
 20
95.9887930985216
 10
275.9993346685583
 20
93.02821713030818
  0
LWPOLYLINE
  5
1D8
330
1F
100
AcDbEntity
  8
0_Pen_No__1
  6
Continuous
100
AcDbPolyline
 90
        2
 70
   128
 43
0.0
 10
275.9993346685583
 20
93.02821713030818
 10
277.778975535532
 20
89.98412847960357
  0
LWPOLYLINE
  5
1D9
330
1F
100
AcDbEntity
  8
0_Pen_No__1
  6
Continuous
100
AcDbPolyline
 90
        2
 70
   128
 43
0.0
 10
263.5592425932747
 20
104.7330475335811
 10
264.0049742336768
 20
104.5186842060651
  0
LWPOLYLINE
  5
1DA
330
1F
100
AcDbEntity
  8
0_Pen_No__1
  6
Continuous
100
AcDbPolyline
 90
        2
 70
   128
 43
0.0
 10
264.0049742336768
 20
104.5186842060651
 10
266.4771025952523
 20
102.8186059727724
  0
LWPOLYLINE
  5
1DB
330
1F
100
AcDbEntity
  8
0_Pen_No__1
  6
Continuous
100
AcDbPolyline
 90
        2
 70
   128
 43
0.0
 10
266.4771025952523
 20
102.8186059727724
 10
268.9341182742613
 20
100.7375390461888
  0
LWPOLYLINE
  5
1DC
330
1F
100
AcDbEntity
  8
0_Pen_No__1
  6
Continuous
100
AcDbPolyline
 90
        2
 70
   128
 43
0.0
 10
268.9341182742613
 20
100.7375390461888
 10
271.3013660926063
 20
98.3387155918064
  0
LWPOLYLINE
  5
1DD
330
1F
100
AcDbEntity
  8
0_Pen_No__1
  6
Continuous
100
AcDbPolyline
 90
        2
 70
   128
 43
0.0
 10
271.3013660926063
 20
98.3387155918064
 10
273.5069184232115
 20
95.69502264642493
  0
LWPOLYLINE
  5
1DE
330
1F
100
AcDbEntity
  8
0_Pen_No__1
  6
Continuous
100
AcDbPolyline
 90
        2
 70
   128
 43
0.0
 10
273.5069184232115
 20
95.69502264642493
 10
275.4837606745762
 20
92.88678748241519
  0
LWPOLYLINE
  5
1DF
330
1F
100
AcDbEntity
  8
0_Pen_No__1
  6
Continuous
100
AcDbPolyline
 90
        2
 70
   128
 43
0.0
 10
275.4837606745762
 20
92.88678748241519
 10
277.1718274952226
 20
89.99933690419992
  0
LWPOLYLINE
  5
1E0
330
1F
100
AcDbEntity
  8
0_Pen_No__1
  6
Continuous
100
AcDbPolyline
 90
        2
 70
   128
 43
0.0
 10
277.1718274952226
 20
89.99933690419992
 10
277.8458276621141
 20
88.55987077034133
  0
LWPOLYLINE
  5
1E1
330
1F
100
AcDbEntity
  8
0_Pen_No__1
  6
Continuous
100
AcDbPolyline
 90
        2
 70
   128
 43
0.0
 10
263.4279367612609
 20
105.5171116752417
 10
263.5592425932747
 20
104.7330475335811
  0
LWPOLYLINE
  5
1E2
330
1F
100
AcDbEntity
  8
0_Pen_No__1
  6
Continuous
100
AcDbPolyline
 90
        2
 70
   128
 43
0.0
 10
278.5042780993978
 20
88.43505438821342
 10
277.8458276621141
 20
88.55987077034133
  0
LWPOLYLINE
  5
1E3
330
1F
100
AcDbEntity
  8
0_Pen_No__1
  6
Continuous
100
AcDbPolyline
 90
        2
 70
   128
 43
0.0
 10
291.2171508846511
 20
72.09552637409755
 10
288.7419831033122
 20
73.95250886637983
  0
LWPOLYLINE
  5
1E4
330
1F
100
AcDbEntity
  8
0_Pen_No__1
  6
Continuous
100
AcDbPolyline
 90
        2
 70
   128
 43
0.0
 10
288.7419831033122
 20
73.95250886637983
 10
286.3115135654026
 20
76.16685777559418
  0
LWPOLYLINE
  5
1E5
330
1F
100
AcDbEntity
  8
0_Pen_No__1
  6
Continuous
100
AcDbPolyline
 90
        2
 70
   128
 43
0.0
 10
286.3115135654026
 20
76.16685777559418
 10
283.9995908579554
 20
78.67129123064653
  0
LWPOLYLINE
  5
1E6
330
1F
100
AcDbEntity
  8
0_Pen_No__1
  6
Continuous
100
AcDbPolyline
 90
        2
 70
   128
 43
0.0
 10
283.9995908579554
 20
78.67129123064653
 10
281.8764615825469
 20
81.3897132883118
  0
LWPOLYLINE
  5
1E7
330
1F
100
AcDbEntity
  8
0_Pen_No__1
  6
Continuous
100
AcDbPolyline
 90
        2
 70
   128
 43
0.0
 10
281.8764615825469
 20
81.3897132883118
 10
280.0066359478546
 20
84.23952606995522
  0
LWPOLYLINE
  5
1E8
330
1F
100
AcDbEntity
  8
0_Pen_No__1
  6
Continuous
100
AcDbPolyline
 90
        2
 70
   128
 43
0.0
 10
280.0066359478546
 20
84.23952606995522
 10
278.446927659612
 20
87.13413945628045
  0
LWPOLYLINE
  5
1E9
330
1F
100
AcDbEntity
  8
0_Pen_No__1
  6
Continuous
100
AcDbPolyline
 90
        2
 70
   128
 43
0.0
 10
292.5022431670315
 20
72.04468633395378
 10
291.1626816475858
 20
72.83429873388847
  0
LWPOLYLINE
  5
1EA
330
1F
100
AcDbEntity
  8
0_Pen_No__1
  6
Continuous
100
AcDbPolyline
 90
        2
 70
   128
 43
0.0
 10
291.1626816475858
 20
72.83429873388847
 10
288.8217864710423
 20
74.59054386275798
  0
LWPOLYLINE
  5
1EB
330
1F
100
AcDbEntity
  8
0_Pen_No__1
  6
Continuous
100
AcDbPolyline
 90
        2
 70
   128
 43
0.0
 10
288.8217864710423
 20
74.59054386275798
 10
286.5231647529818
 20
76.68476903805377
  0
LWPOLYLINE
  5
1EC
330
1F
100
AcDbEntity
  8
0_Pen_No__1
  6
Continuous
100
AcDbPolyline
 90
        2
 70
   128
 43
0.0
 10
286.5231647529818
 20
76.68476903805377
 10
284.3366589511502
 20
79.0533422875549
  0
LWPOLYLINE
  5
1ED
330
1F
100
AcDbEntity
  8
0_Pen_No__1
  6
Continuous
100
AcDbPolyline
 90
        2
 70
   128
 43
0.0
 10
284.3366589511502
 20
79.0533422875549
 10
282.3287049379095
 20
81.62429571163187
  0
LWPOLYLINE
  5
1EE
330
1F
100
AcDbEntity
  8
0_Pen_No__1
  6
Continuous
100
AcDbPolyline
 90
        2
 70
   128
 43
0.0
 10
282.3287049379095
 20
81.62429571163187
 10
280.5603133798793
 20
84.3195121914594
  0
LWPOLYLINE
  5
1EF
330
1F
100
AcDbEntity
  8
0_Pen_No__1
  6
Continuous
100
AcDbPolyline
 90
        2
 70
   128
 43
0.0
 10
280.5603133798793
 20
84.3195121914594
 10
279.085215959701
 20
87.05709893814017
  0
LWPOLYLINE
  5
1F0
330
1F
100
AcDbEntity
  8
0_Pen_No__1
  6
Continuous
100
AcDbPolyline
 90
        2
 70
   128
 43
0.0
 10
279.085215959701
 20
87.05709893814017
 10
278.5042780995419
 20
88.43505438815946
  0
LWPOLYLINE
  5
1F1
330
1F
100
AcDbEntity
  8
0_Pen_No__1
  6
Continuous
100
AcDbPolyline
 90
        2
 70
   128
 43
0.0
 10
251.4579482857533
 20
104.050260254866
 10
251.5279766970075
 20
104.4626074825473
  0
LWPOLYLINE
  5
1F2
330
1F
100
AcDbEntity
  8
0_Pen_No__1
  6
Continuous
100
AcDbPolyline
 90
        2
 70
   128
 43
0.0
 10
251.5279766970075
 20
104.4626074825473
 10
252.4269507577568
 20
106.0293325393234
  0
LWPOLYLINE
  5
1F3
330
1F
100
AcDbEntity
  8
0_Pen_No__1
  6
Continuous
100
AcDbPolyline
 90
        2
 70
   128
 43
0.0
 10
252.4269507577568
 20
106.0293325393234
 10
253.7377188898078
 20
107.1175126007827
  0
LWPOLYLINE
  5
1F4
330
1F
100
AcDbEntity
  8
0_Pen_No__1
  6
Continuous
100
AcDbPolyline
 90
        2
 70
   128
 43
0.0
 10
253.7377188898078
 20
107.1175126007827
 10
255.4204540667495
 20
107.6940838664023
  0
LWPOLYLINE
  5
1F5
330
1F
100
AcDbEntity
  8
0_Pen_No__1
  6
Continuous
100
AcDbPolyline
 90
        2
 70
   128
 43
0.0
 10
255.4204540667495
 20
107.6940838664023
 10
257.4240272317356
 20
107.7415275100367
  0
LWPOLYLINE
  5
1F6
330
1F
100
AcDbEntity
  8
0_Pen_No__1
  6
Continuous
100
AcDbPolyline
 90
        2
 70
   128
 43
0.0
 10
257.4240272317356
 20
107.7415275100367
 10
259.6875608280049
 20
107.258401980581
  0
LWPOLYLINE
  5
1F7
330
1F
100
AcDbEntity
  8
0_Pen_No__1
  6
Continuous
100
AcDbPolyline
 90
        2
 70
   128
 43
0.0
 10
259.6875608280049
 20
107.258401980581
 10
262.1422785326386
 20
106.259386802774
  0
LWPOLYLINE
  5
1F8
330
1F
100
AcDbEntity
  8
0_Pen_No__1
  6
Continuous
100
AcDbPolyline
 90
        2
 70
   128
 43
0.0
 10
252.2110755461968
 20
103.3601018696667
 10
252.2716125302393
 20
103.732804409827
  0
LWPOLYLINE
  5
1F9
330
1F
100
AcDbEntity
  8
0_Pen_No__1
  6
Continuous
100
AcDbPolyline
 90
        2
 70
   128
 43
0.0
 10
252.2716125302393
 20
103.732804409827
 10
253.1243285544291
 20
105.2189113174057
  0
LWPOLYLINE
  5
1FA
330
1F
100
AcDbEntity
  8
0_Pen_No__1
  6
Continuous
100
AcDbPolyline
 90
        2
 70
   128
 43
0.0
 10
253.1243285544291
 20
105.2189113174057
 10
254.3676491784597
 20
106.2510974684018
  0
LWPOLYLINE
  5
1FB
330
1F
100
AcDbEntity
  8
0_Pen_No__1
  6
Continuous
100
AcDbPolyline
 90
        2
 70
   128
 43
0.0
 10
254.3676491784597
 20
106.2510974684018
 10
255.9637967343202
 20
106.7980004089298
  0
LWPOLYLINE
  5
1FC
330
1F
100
AcDbEntity
  8
0_Pen_No__1
  6
Continuous
100
AcDbPolyline
 90
        2
 70
   128
 43
0.0
 10
255.9637967343202
 20
106.7980004089298
 10
257.8642730862155
 20
106.8430027698876
  0
LWPOLYLINE
  5
1FD
330
1F
100
AcDbEntity
  8
0_Pen_No__1
  6
Continuous
100
AcDbPolyline
 90
        2
 70
   128
 43
0.0
 10
257.8642730862155
 20
106.8430027698876
 10
260.0113332218816
 20
106.3847371773082
  0
LWPOLYLINE
  5
1FE
330
1F
100
AcDbEntity
  8
0_Pen_No__1
  6
Continuous
100
AcDbPolyline
 90
        2
 70
   128
 43
0.0
 10
260.0113332218816
 20
106.3847371773082
 10
262.3397398055598
 20
105.4371277993308
  0
LWPOLYLINE
  5
1FF
330
1F
100
AcDbEntity
  8
0_Pen_No__1
  6
Continuous
100
AcDbPolyline
 90
        2
 70
   128
 43
0.0
 10
252.2110755460041
 20
103.3601018697153
 10
251.9596548918302
 20
102.260865414071
  0
LWPOLYLINE
  5
200
330
1F
100
AcDbEntity
  8
0_Pen_No__1
  6
Continuous
100
AcDbPolyline
 90
        2
 70
   128
 43
0.0
 10
251.9596548918302
 20
102.260865414071
 10
251.1069388676397
 20
100.7747585064921
  0
LWPOLYLINE
  5
201
330
1F
100
AcDbEntity
  8
0_Pen_No__1
  6
Continuous
100
AcDbPolyline
 90
        2
 70
   128
 43
0.0
 10
251.1069388676397
 20
100.7747585064921
 10
249.8636182436096
 20
99.74257235549622
  0
LWPOLYLINE
  5
202
330
1F
100
AcDbEntity
  8
0_Pen_No__1
  6
Continuous
100
AcDbPolyline
 90
        2
 70
   128
 43
0.0
 10
249.8636182436096
 20
99.74257235549622
 10
248.2674706877486
 20
99.19566941496815
  0
LWPOLYLINE
  5
203
330
1F
100
AcDbEntity
  8
0_Pen_No__1
  6
Continuous
100
AcDbPolyline
 90
        2
 70
   128
 43
0.0
 10
248.2674706877486
 20
99.19566941496815
 10
246.3669943358533
 20
99.15066705401132
  0
LWPOLYLINE
  5
204
330
1F
100
AcDbEntity
  8
0_Pen_No__1
  6
Continuous
100
AcDbPolyline
 90
        2
 70
   128
 43
0.0
 10
246.3669943358533
 20
99.15066705401132
 10
244.2199342001876
 20
99.60893264659066
  0
LWPOLYLINE
  5
205
330
1F
100
AcDbEntity
  8
0_Pen_No__1
  6
Continuous
100
AcDbPolyline
 90
        2
 70
   128
 43
0.0
 10
244.2199342001876
 20
99.60893264659066
 10
241.8915276165097
 20
100.5565420245683
  0
LWPOLYLINE
  5
206
330
1F
100
AcDbEntity
  8
0_Pen_No__1
  6
Continuous
100
AcDbPolyline
 90
        2
 70
   128
 43
0.0
 10
251.4579482855606
 20
104.0502602549137
 10
251.2160190585988
 20
102.9906684867902
  0
LWPOLYLINE
  5
207
330
1F
100
AcDbEntity
  8
0_Pen_No__1
  6
Continuous
100
AcDbPolyline
 90
        2
 70
   128
 43
0.0
 10
251.2160190585988
 20
102.9906684867902
 10
250.4095610709678
 20
101.5851797284096
  0
LWPOLYLINE
  5
208
330
1F
100
AcDbEntity
  8
0_Pen_No__1
  6
Continuous
100
AcDbPolyline
 90
        2
 70
   128
 43
0.0
 10
250.4095610709678
 20
101.5851797284096
 10
249.2336879549577
 20
100.6089874878749
  0
LWPOLYLINE
  5
209
330
1F
100
AcDbEntity
  8
0_Pen_No__1
  6
Continuous
100
AcDbPolyline
 90
        2
 70
   128
 43
0.0
 10
249.2336879549577
 20
100.6089874878749
 10
247.7241280201783
 20
100.0917528724407
  0
LWPOLYLINE
  5
20A
330
1F
100
AcDbEntity
  8
0_Pen_No__1
  6
Continuous
100
AcDbPolyline
 90
        2
 70
   128
 43
0.0
 10
247.7241280201783
 20
100.0917528724407
 10
245.9267484813732
 20
100.0491917941605
  0
LWPOLYLINE
  5
20B
330
1F
100
AcDbEntity
  8
0_Pen_No__1
  6
Continuous
100
AcDbPolyline
 90
        2
 70
   128
 43
0.0
 10
245.9267484813732
 20
100.0491917941605
 10
243.896161806312
 20
100.4825974498623
  0
LWPOLYLINE
  5
20C
330
1F
100
AcDbEntity
  8
0_Pen_No__1
  6
Continuous
100
AcDbPolyline
 90
        2
 70
   128
 43
0.0
 10
243.896161806312
 20
100.4825974498623
 10
241.6940663435882
 20
101.3788010280116
  0
LWPOLYLINE
  5
20D
330
1F
100
AcDbEntity
  8
0_Pen_No__1
  6
Continuous
100
AcDbPolyline
 90
        2
 70
   128
 43
0.0
 10
240.6720248285712
 20
101.2606222905389
 10
240.5407189965567
 20
102.0446864321994
  0
LWPOLYLINE
  5
20E
330
1F
100
AcDbEntity
  8
0_Pen_No__1
  6
Continuous
100
AcDbPolyline
 90
        2
 70
   128
 43
0.0
 10
258.7213560440551
 20
106.6600681500563
 10
249.8636182436096
 20
99.74257235549622
  0
LWPOLYLINE
  5
20F
330
1F
100
AcDbEntity
  8
0_Pen_No__1
  6
Continuous
100
AcDbPolyline
 90
        2
 70
   128
 43
0.0
 10
211.4664125909909
 20
135.5171117735473
 10
211.9363242279362
 20
135.2911196899632
  0
LWPOLYLINE
  5
210
330
1F
100
AcDbEntity
  8
0_Pen_No__1
  6
Continuous
100
AcDbPolyline
 90
        2
 70
   128
 43
0.0
 10
211.9363242279362
 20
135.2911196899632
 10
214.5425603122284
 20
133.4988158166711
  0
LWPOLYLINE
  5
211
330
1F
100
AcDbEntity
  8
0_Pen_No__1
  6
Continuous
100
AcDbPolyline
 90
        2
 70
   128
 43
0.0
 10
214.5425603122284
 20
133.4988158166711
 10
217.1328638829637
 20
131.304855421171
  0
LWPOLYLINE
  5
212
330
1F
100
AcDbEntity
  8
0_Pen_No__1
  6
Continuous
100
AcDbPolyline
 90
        2
 70
   128
 43
0.0
 10
217.1328638829637
 20
131.304855421171
 10
219.6285298769007
 20
128.7759008798813
  0
LWPOLYLINE
  5
213
330
1F
100
AcDbEntity
  8
0_Pen_No__1
  6
Continuous
100
AcDbPolyline
 90
        2
 70
   128
 43
0.0
 10
219.6285298769007
 20
128.7759008798813
 10
221.9537287456825
 20
125.9887931968261
  0
LWPOLYLINE
  5
214
330
1F
100
AcDbEntity
  8
0_Pen_No__1
  6
Continuous
100
AcDbPolyline
 90
        2
 70
   128
 43
0.0
 10
221.9537287456825
 20
125.9887931968261
 10
224.037810498289
 20
123.0282172286127
  0
LWPOLYLINE
  5
215
330
1F
100
AcDbEntity
  8
0_Pen_No__1
  6
Continuous
100
AcDbPolyline
 90
        2
 70
   128
 43
0.0
 10
224.037810498289
 20
123.0282172286127
 10
225.8174513652627
 20
119.9841285779092
  0
LWPOLYLINE
  5
216
330
1F
100
AcDbEntity
  8
0_Pen_No__1
  6
Continuous
100
AcDbPolyline
 90
        2
 70
   128
 43
0.0
 10
211.5977184230049
 20
134.7330476318868
 10
212.0434500634074
 20
134.5186843043699
  0
LWPOLYLINE
  5
217
330
1F
100
AcDbEntity
  8
0_Pen_No__1
  6
Continuous
100
AcDbPolyline
 90
        2
 70
   128
 43
0.0
 10
212.0434500634074
 20
134.5186843043699
 10
214.515578424983
 20
132.8186060710778
  0
LWPOLYLINE
  5
218
330
1F
100
AcDbEntity
  8
0_Pen_No__1
  6
Continuous
100
AcDbPolyline
 90
        2
 70
   128
 43
0.0
 10
214.515578424983
 20
132.8186060710778
 10
216.972594103992
 20
130.7375391444941
  0
LWPOLYLINE
  5
219
330
1F
100
AcDbEntity
  8
0_Pen_No__1
  6
Continuous
100
AcDbPolyline
 90
        2
 70
   128
 43
0.0
 10
216.972594103992
 20
130.7375391444941
 10
219.3398419223365
 20
128.338715690112
  0
LWPOLYLINE
  5
21A
330
1F
100
AcDbEntity
  8
0_Pen_No__1
  6
Continuous
100
AcDbPolyline
 90
        2
 70
   128
 43
0.0
 10
219.3398419223365
 20
128.338715690112
 10
221.5453942529424
 20
125.6950227447303
  0
LWPOLYLINE
  5
21B
330
1F
100
AcDbEntity
  8
0_Pen_No__1
  6
Continuous
100
AcDbPolyline
 90
        2
 70
   128
 43
0.0
 10
221.5453942529424
 20
125.6950227447303
 10
223.5222365043068
 20
122.8867875807208
  0
LWPOLYLINE
  5
21C
330
1F
100
AcDbEntity
  8
0_Pen_No__1
  6
Continuous
100
AcDbPolyline
 90
        2
 70
   128
 43
0.0
 10
223.5222365043068
 20
122.8867875807208
 10
225.2103033249533
 20
119.9993370025044
  0
LWPOLYLINE
  5
21D
330
1F
100
AcDbEntity
  8
0_Pen_No__1
  6
Continuous
100
AcDbPolyline
 90
        2
 70
   128
 43
0.0
 10
225.2103033249533
 20
119.9993370025044
 10
225.8843034918447
 20
118.5598708686458
  0
LWPOLYLINE
  5
21E
330
1F
100
AcDbEntity
  8
0_Pen_No__1
  6
Continuous
100
AcDbPolyline
 90
        2
 70
   128
 43
0.0
 10
211.4664125909909
 20
135.5171117735473
 10
211.5977184230049
 20
134.7330476318868
  0
LWPOLYLINE
  5
21F
330
1F
100
AcDbEntity
  8
0_Pen_No__1
  6
Continuous
100
AcDbPolyline
 90
        2
 70
   128
 43
0.0
 10
226.5427539291292
 20
118.4350544865159
 10
225.8843034918447
 20
118.5598708686458
  0
LWPOLYLINE
  5
220
330
1F
100
AcDbEntity
  8
0_Pen_No__1
  6
Continuous
100
AcDbPolyline
 90
        2
 70
   128
 43
0.0
 10
239.2556267141295
 20
102.0955264725482
 10
236.7804589327904
 20
103.9525089648302
  0
LWPOLYLINE
  5
221
330
1F
100
AcDbEntity
  8
0_Pen_No__1
  6
Continuous
100
AcDbPolyline
 90
        2
 70
   128
 43
0.0
 10
236.7804589327904
 20
103.9525089648302
 10
234.3499893948817
 20
106.1668578740446
  0
LWPOLYLINE
  5
222
330
1F
100
AcDbEntity
  8
0_Pen_No__1
  6
Continuous
100
AcDbPolyline
 90
        2
 70
   128
 43
0.0
 10
234.3499893948817
 20
106.1668578740446
 10
232.038066687434
 20
108.671291329098
  0
LWPOLYLINE
  5
223
330
1F
100
AcDbEntity
  8
0_Pen_No__1
  6
Continuous
100
AcDbPolyline
 90
        2
 70
   128
 43
0.0
 10
232.038066687434
 20
108.671291329098
 10
229.9149374120253
 20
111.3897133867622
  0
LWPOLYLINE
  5
224
330
1F
100
AcDbEntity
  8
0_Pen_No__1
  6
Continuous
100
AcDbPolyline
 90
        2
 70
   128
 43
0.0
 10
229.9149374120253
 20
111.3897133867622
 10
228.045111777333
 20
114.2395261684056
  0
LWPOLYLINE
  5
225
330
1F
100
AcDbEntity
  8
0_Pen_No__1
  6
Continuous
100
AcDbPolyline
 90
        2
 70
   128
 43
0.0
 10
228.045111777333
 20
114.2395261684056
 10
226.4854034890904
 20
117.1341395547308
  0
LWPOLYLINE
  5
226
330
1F
100
AcDbEntity
  8
0_Pen_No__1
  6
Continuous
100
AcDbPolyline
 90
        2
 70
   128
 43
0.0
 10
240.5407189965096
 20
102.0446864324042
 10
239.2011574770643
 20
102.8342988323384
  0
LWPOLYLINE
  5
227
330
1F
100
AcDbEntity
  8
0_Pen_No__1
  6
Continuous
100
AcDbPolyline
 90
        2
 70
   128
 43
0.0
 10
239.2011574770643
 20
102.8342988323384
 10
236.8602623005205
 20
104.5905439612084
  0
LWPOLYLINE
  5
228
330
1F
100
AcDbEntity
  8
0_Pen_No__1
  6
Continuous
100
AcDbPolyline
 90
        2
 70
   128
 43
0.0
 10
236.8602623005205
 20
104.5905439612084
 10
234.5616405824602
 20
106.6847691365042
  0
LWPOLYLINE
  5
229
330
1F
100
AcDbEntity
  8
0_Pen_No__1
  6
Continuous
100
AcDbPolyline
 90
        2
 70
   128
 43
0.0
 10
234.5616405824602
 20
106.6847691365042
 10
232.3751347806287
 20
109.0533423860066
  0
LWPOLYLINE
  5
22A
330
1F
100
AcDbEntity
  8
0_Pen_No__1
  6
Continuous
100
AcDbPolyline
 90
        2
 70
   128
 43
0.0
 10
232.3751347806287
 20
109.0533423860066
 10
230.3671807673882
 20
111.6242958100834
  0
LWPOLYLINE
  5
22B
330
1F
100
AcDbEntity
  8
0_Pen_No__1
  6
Continuous
100
AcDbPolyline
 90
        2
 70
   128
 43
0.0
 10
230.3671807673882
 20
111.6242958100834
 10
228.5987892093577
 20
114.31951228991
  0
LWPOLYLINE
  5
22C
330
1F
100
AcDbEntity
  8
0_Pen_No__1
  6
Continuous
100
AcDbPolyline
 90
        2
 70
   128
 43
0.0
 10
228.5987892093577
 20
114.31951228991
 10
227.1236917891795
 20
117.0570990365919
  0
LWPOLYLINE
  5
22D
330
1F
100
AcDbEntity
  8
0_Pen_No__1
  6
Continuous
100
AcDbPolyline
 90
        2
 70
   128
 43
0.0
 10
227.1236917891795
 20
117.0570990365919
 10
226.5427539290217
 20
118.435054486609
  0
LWPOLYLINE
  5
22E
330
1F
100
AcDbEntity
  8
0_Pen_No__1
  6
Continuous
100
AcDbPolyline
 90
        2
 70
   128
 43
0.0
 10
199.4964241152319
 20
134.0502603533164
 10
199.5664525264864
 20
134.4626075809975
  0
LWPOLYLINE
  5
22F
330
1F
100
AcDbEntity
  8
0_Pen_No__1
  6
Continuous
100
AcDbPolyline
 90
        2
 70
   128
 43
0.0
 10
199.5664525264864
 20
134.4626075809975
 10
200.4654265872352
 20
136.0293326377736
  0
LWPOLYLINE
  5
230
330
1F
100
AcDbEntity
  8
0_Pen_No__1
  6
Continuous
100
AcDbPolyline
 90
        2
 70
   128
 43
0.0
 10
200.4654265872352
 20
136.0293326377736
 10
201.7761947192862
 20
137.1175126992331
  0
LWPOLYLINE
  5
231
330
1F
100
AcDbEntity
  8
0_Pen_No__1
  6
Continuous
100
AcDbPolyline
 90
        2
 70
   128
 43
0.0
 10
201.7761947192862
 20
137.1175126992331
 10
203.4589298962279
 20
137.6940839648527
  0
LWPOLYLINE
  5
232
330
1F
100
AcDbEntity
  8
0_Pen_No__1
  6
Continuous
100
AcDbPolyline
 90
        2
 70
   128
 43
0.0
 10
203.4589298962279
 20
137.6940839648527
 10
205.4625030612147
 20
137.7415276084869
  0
LWPOLYLINE
  5
233
330
1F
100
AcDbEntity
  8
0_Pen_No__1
  6
Continuous
100
AcDbPolyline
 90
        2
 70
   128
 43
0.0
 10
205.4625030612147
 20
137.7415276084869
 10
207.7260366574838
 20
137.2584020790314
  0
LWPOLYLINE
  5
234
330
1F
100
AcDbEntity
  8
0_Pen_No__1
  6
Continuous
100
AcDbPolyline
 90
        2
 70
   128
 43
0.0
 10
207.7260366574838
 20
137.2584020790314
 10
210.180754362117
 20
136.2593869012242
  0
LWPOLYLINE
  5
235
330
1F
100
AcDbEntity
  8
0_Pen_No__1
  6
Continuous
100
AcDbPolyline
 90
        2
 70
   128
 43
0.0
 10
200.2495513756761
 20
133.3601019681191
 10
200.3100883597178
 20
133.7328045082774
  0
LWPOLYLINE
  5
236
330
1F
100
AcDbEntity
  8
0_Pen_No__1
  6
Continuous
100
AcDbPolyline
 90
        2
 70
   128
 43
0.0
 10
200.3100883597178
 20
133.7328045082774
 10
201.1628043839075
 20
135.2189114158561
  0
LWPOLYLINE
  5
237
330
1F
100
AcDbEntity
  8
0_Pen_No__1
  6
Continuous
100
AcDbPolyline
 90
        2
 70
   128
 43
0.0
 10
201.1628043839075
 20
135.2189114158561
 10
202.4061250079381
 20
136.2510975668522
  0
LWPOLYLINE
  5
238
330
1F
100
AcDbEntity
  8
0_Pen_No__1
  6
Continuous
100
AcDbPolyline
 90
        2
 70
   128
 43
0.0
 10
202.4061250079381
 20
136.2510975668522
 10
204.0022725637991
 20
136.7980005073802
  0
LWPOLYLINE
  5
239
330
1F
100
AcDbEntity
  8
0_Pen_No__1
  6
Continuous
100
AcDbPolyline
 90
        2
 70
   128
 43
0.0
 10
204.0022725637991
 20
136.7980005073802
 10
205.9027489156939
 20
136.8430028683379
  0
LWPOLYLINE
  5
23A
330
1F
100
AcDbEntity
  8
0_Pen_No__1
  6
Continuous
100
AcDbPolyline
 90
        2
 70
   128
 43
0.0
 10
205.9027489156939
 20
136.8430028683379
 10
208.0498090513603
 20
136.3847372757586
  0
LWPOLYLINE
  5
23B
330
1F
100
AcDbEntity
  8
0_Pen_No__1
  6
Continuous
100
AcDbPolyline
 90
        2
 70
   128
 43
0.0
 10
208.0498090513603
 20
136.3847372757586
 10
210.3782156350382
 20
135.4371278977812
  0
LWPOLYLINE
  5
23C
330
1F
100
AcDbEntity
  8
0_Pen_No__1
  6
Continuous
100
AcDbPolyline
 90
        2
 70
   128
 43
0.0
 10
200.2495513757343
 20
133.360101968021
 10
199.9981307215608
 20
132.2608655123764
  0
LWPOLYLINE
  5
23D
330
1F
100
AcDbEntity
  8
0_Pen_No__1
  6
Continuous
100
AcDbPolyline
 90
        2
 70
   128
 43
0.0
 10
199.9981307215608
 20
132.2608655123764
 10
199.1454146973703
 20
130.7747586047968
  0
LWPOLYLINE
  5
23E
330
1F
100
AcDbEntity
  8
0_Pen_No__1
  6
Continuous
100
AcDbPolyline
 90
        2
 70
   128
 43
0.0
 10
199.1454146973703
 20
130.7747586047968
 10
197.9020940733403
 20
129.7425724538005
  0
LWPOLYLINE
  5
23F
330
1F
100
AcDbEntity
  8
0_Pen_No__1
  6
Continuous
100
AcDbPolyline
 90
        2
 70
   128
 43
0.0
 10
197.9020940733403
 20
129.7425724538005
 10
196.3059465174795
 20
129.1956695132727
  0
LWPOLYLINE
  5
240
330
1F
100
AcDbEntity
  8
0_Pen_No__1
  6
Continuous
100
AcDbPolyline
 90
        2
 70
   128
 43
0.0
 10
196.3059465174795
 20
129.1956695132727
 10
194.4054701655839
 20
129.150667152316
  0
LWPOLYLINE
  5
241
330
1F
100
AcDbEntity
  8
0_Pen_No__1
  6
Continuous
100
AcDbPolyline
 90
        2
 70
   128
 43
0.0
 10
194.4054701655839
 20
129.150667152316
 10
192.2584100299183
 20
129.6089327448949
  0
LWPOLYLINE
  5
242
330
1F
100
AcDbEntity
  8
0_Pen_No__1
  6
Continuous
100
AcDbPolyline
 90
        2
 70
   128
 43
0.0
 10
192.2584100299183
 20
129.6089327448949
 10
189.9300034462401
 20
130.5565421228737
  0
LWPOLYLINE
  5
243
330
1F
100
AcDbEntity
  8
0_Pen_No__1
  6
Continuous
100
AcDbPolyline
 90
        2
 70
   128
 43
0.0
 10
199.4964241152908
 20
134.050260353218
 10
199.2544948883295
 20
132.990668585096
  0
LWPOLYLINE
  5
244
330
1F
100
AcDbEntity
  8
0_Pen_No__1
  6
Continuous
100
AcDbPolyline
 90
        2
 70
   128
 43
0.0
 10
199.2544948883295
 20
132.990668585096
 10
198.4480369006982
 20
131.5851798267141
  0
LWPOLYLINE
  5
245
330
1F
100
AcDbEntity
  8
0_Pen_No__1
  6
Continuous
100
AcDbPolyline
 90
        2
 70
   128
 43
0.0
 10
198.4480369006982
 20
131.5851798267141
 10
197.2721637846879
 20
130.6089875861805
  0
LWPOLYLINE
  5
246
330
1F
100
AcDbEntity
  8
0_Pen_No__1
  6
Continuous
100
AcDbPolyline
 90
        2
 70
   128
 43
0.0
 10
197.2721637846879
 20
130.6089875861805
 10
195.7626038499085
 20
130.0917529707463
  0
LWPOLYLINE
  5
247
330
1F
100
AcDbEntity
  8
0_Pen_No__1
  6
Continuous
100
AcDbPolyline
 90
        2
 70
   128
 43
0.0
 10
195.7626038499085
 20
130.0917529707463
 10
193.9652243111039
 20
130.049191892465
  0
LWPOLYLINE
  5
248
330
1F
100
AcDbEntity
  8
0_Pen_No__1
  6
Continuous
100
AcDbPolyline
 90
        2
 70
   128
 43
0.0
 10
193.9652243111039
 20
130.049191892465
 10
191.9346376360425
 20
130.4825975481681
  0
LWPOLYLINE
  5
249
330
1F
100
AcDbEntity
  8
0_Pen_No__1
  6
Continuous
100
AcDbPolyline
 90
        2
 70
   128
 43
0.0
 10
191.9346376360425
 20
130.4825975481681
 10
189.7325421733189
 20
131.3788011263161
  0
LWPOLYLINE
  5
24A
330
1F
100
AcDbEntity
  8
0_Pen_No__1
  6
Continuous
100
AcDbPolyline
 90
        2
 70
   128
 43
0.0
 10
188.7105006583019
 20
131.2606223888436
 10
188.5791948262874
 20
132.0446865305037
  0
LWPOLYLINE
  5
24B
330
1F
100
AcDbEntity
  8
0_Pen_No__1
  6
Continuous
100
AcDbPolyline
 90
        2
 70
   128
 43
0.0
 10
206.7598318739749
 20
136.660068248509
 10
197.9020940733403
 20
129.7425724538005
  0
LWPOLYLINE
  5
24C
330
1F
100
AcDbEntity
  8
0_Pen_No__1
  6
Continuous
100
AcDbPolyline
 90
        2
 70
   128
 43
0.0
 10
159.504888420722
 20
165.5171118718518
 10
159.9748000576673
 20
165.2911197882675
  0
LWPOLYLINE
  5
24D
330
1F
100
AcDbEntity
  8
0_Pen_No__1
  6
Continuous
100
AcDbPolyline
 90
        2
 70
   128
 43
0.0
 10
159.9748000576673
 20
165.2911197882675
 10
162.5810361419591
 20
163.4988159149756
  0
LWPOLYLINE
  5
24E
330
1F
100
AcDbEntity
  8
0_Pen_No__1
  6
Continuous
100
AcDbPolyline
 90
        2
 70
   128
 43
0.0
 10
162.5810361419591
 20
163.4988159149756
 10
165.1713397126944
 20
161.3048555194768
  0
LWPOLYLINE
  5
24F
330
1F
100
AcDbEntity
  8
0_Pen_No__1
  6
Continuous
100
AcDbPolyline
 90
        2
 70
   128
 43
0.0
 10
165.1713397126944
 20
161.3048555194768
 10
167.6670057066314
 20
158.7759009781861
  0
LWPOLYLINE
  5
250
330
1F
100
AcDbEntity
  8
0_Pen_No__1
  6
Continuous
100
AcDbPolyline
 90
        2
 70
   128
 43
0.0
 10
167.6670057066314
 20
158.7759009781861
 10
169.9922045754132
 20
155.9887932951317
  0
LWPOLYLINE
  5
251
330
1F
100
AcDbEntity
  8
0_Pen_No__1
  6
Continuous
100
AcDbPolyline
 90
        2
 70
   128
 43
0.0
 10
169.9922045754132
 20
155.9887932951317
 10
172.0762863280196
 20
153.0282173269183
  0
LWPOLYLINE
  5
252
330
1F
100
AcDbEntity
  8
0_Pen_No__1
  6
Continuous
100
AcDbPolyline
 90
        2
 70
   128
 43
0.0
 10
172.0762863280196
 20
153.0282173269183
 10
173.8559271949933
 20
149.9841286762137
  0
LWPOLYLINE
  5
253
330
1F
100
AcDbEntity
  8
0_Pen_No__1
  6
Continuous
100
AcDbPolyline
 90
        2
 70
   128
 43
0.0
 10
159.636194252736
 20
164.7330477301915
 10
160.0819258931383
 20
164.5186844026755
  0
LWPOLYLINE
  5
254
330
1F
100
AcDbEntity
  8
0_Pen_No__1
  6
Continuous
100
AcDbPolyline
 90
        2
 70
   128
 43
0.0
 10
160.0819258931383
 20
164.5186844026755
 10
162.5540542547141
 20
162.8186061693827
  0
LWPOLYLINE
  5
255
330
1F
100
AcDbEntity
  8
0_Pen_No__1
  6
Continuous
100
AcDbPolyline
 90
        2
 70
   128
 43
0.0
 10
162.5540542547141
 20
162.8186061693827
 10
165.0110699337226
 20
160.7375392427991
  0
LWPOLYLINE
  5
256
330
1F
100
AcDbEntity
  8
0_Pen_No__1
  6
Continuous
100
AcDbPolyline
 90
        2
 70
   128
 43
0.0
 10
165.0110699337226
 20
160.7375392427991
 10
167.3783177520678
 20
158.3387157884163
  0
LWPOLYLINE
  5
257
330
1F
100
AcDbEntity
  8
0_Pen_No__1
  6
Continuous
100
AcDbPolyline
 90
        2
 70
   128
 43
0.0
 10
167.3783177520678
 20
158.3387157884163
 10
169.5838700826728
 20
155.695022843035
  0
LWPOLYLINE
  5
258
330
1F
100
AcDbEntity
  8
0_Pen_No__1
  6
Continuous
100
AcDbPolyline
 90
        2
 70
   128
 43
0.0
 10
169.5838700826728
 20
155.695022843035
 10
171.5607123340377
 20
152.8867876790253
  0
LWPOLYLINE
  5
259
330
1F
100
AcDbEntity
  8
0_Pen_No__1
  6
Continuous
100
AcDbPolyline
 90
        2
 70
   128
 43
0.0
 10
171.5607123340377
 20
152.8867876790253
 10
173.2487791546839
 20
149.99933710081
  0
LWPOLYLINE
  5
25A
330
1F
100
AcDbEntity
  8
0_Pen_No__1
  6
Continuous
100
AcDbPolyline
 90
        2
 70
   128
 43
0.0
 10
173.2487791546839
 20
149.99933710081
 10
173.922779321577
 20
148.5598709669483
  0
LWPOLYLINE
  5
25B
330
1F
100
AcDbEntity
  8
0_Pen_No__1
  6
Continuous
100
AcDbPolyline
 90
        2
 70
   128
 43
0.0
 10
159.504888420722
 20
165.5171118718518
 10
159.636194252736
 20
164.7330477301915
  0
LWPOLYLINE
  5
25C
330
1F
100
AcDbEntity
  8
0_Pen_No__1
  6
Continuous
100
AcDbPolyline
 90
        2
 70
   128
 43
0.0
 10
174.5812297588594
 20
148.4350545848224
 10
173.922779321577
 20
148.5598709669483
  0
LWPOLYLINE
  5
25D
330
1F
100
AcDbEntity
  8
0_Pen_No__1
  6
Continuous
100
AcDbPolyline
 90
        2
 70
   128
 43
0.0
 10
187.2941025438606
 20
132.0955265708527
 10
184.8189347625215
 20
133.9525090631358
  0
LWPOLYLINE
  5
25E
330
1F
100
AcDbEntity
  8
0_Pen_No__1
  6
Continuous
100
AcDbPolyline
 90
        2
 70
   128
 43
0.0
 10
184.8189347625215
 20
133.9525090631358
 10
182.3884652246124
 20
136.1668579723502
  0
LWPOLYLINE
  5
25F
330
1F
100
AcDbEntity
  8
0_Pen_No__1
  6
Continuous
100
AcDbPolyline
 90
        2
 70
   128
 43
0.0
 10
182.3884652246124
 20
136.1668579723502
 10
180.0765425171651
 20
138.6712914274025
  0
LWPOLYLINE
  5
260
330
1F
100
AcDbEntity
  8
0_Pen_No__1
  6
Continuous
100
AcDbPolyline
 90
        2
 70
   128
 43
0.0
 10
180.0765425171651
 20
138.6712914274025
 10
177.953413241756
 20
141.3897134850678
  0
LWPOLYLINE
  5
261
330
1F
100
AcDbEntity
  8
0_Pen_No__1
  6
Continuous
100
AcDbPolyline
 90
        2
 70
   128
 43
0.0
 10
177.953413241756
 20
141.3897134850678
 10
176.0835876070641
 20
144.2395262667101
  0
LWPOLYLINE
  5
262
330
1F
100
AcDbEntity
  8
0_Pen_No__1
  6
Continuous
100
AcDbPolyline
 90
        2
 70
   128
 43
0.0
 10
176.0835876070641
 20
144.2395262667101
 10
174.5238793188215
 20
147.1341396530356
  0
LWPOLYLINE
  5
263
330
1F
100
AcDbEntity
  8
0_Pen_No__1
  6
Continuous
100
AcDbPolyline
 90
        2
 70
   128
 43
0.0
 10
188.5791948262408
 20
132.0446865307087
 10
187.2396333067956
 20
132.8342989306443
  0
LWPOLYLINE
  5
264
330
1F
100
AcDbEntity
  8
0_Pen_No__1
  6
Continuous
100
AcDbPolyline
 90
        2
 70
   128
 43
0.0
 10
187.2396333067956
 20
132.8342989306443
 10
184.8987381302516
 20
134.5905440595131
  0
LWPOLYLINE
  5
265
330
1F
100
AcDbEntity
  8
0_Pen_No__1
  6
Continuous
100
AcDbPolyline
 90
        2
 70
   128
 43
0.0
 10
184.8987381302516
 20
134.5905440595131
 10
182.6001164121913
 20
136.6847692348098
  0
LWPOLYLINE
  5
266
330
1F
100
AcDbEntity
  8
0_Pen_No__1
  6
Continuous
100
AcDbPolyline
 90
        2
 70
   128
 43
0.0
 10
182.6001164121913
 20
136.6847692348098
 10
180.4136106103593
 20
139.0533424843109
  0
LWPOLYLINE
  5
267
330
1F
100
AcDbEntity
  8
0_Pen_No__1
  6
Continuous
100
AcDbPolyline
 90
        2
 70
   128
 43
0.0
 10
180.4136106103593
 20
139.0533424843109
 10
178.4056565971186
 20
141.6242959083879
  0
LWPOLYLINE
  5
268
330
1F
100
AcDbEntity
  8
0_Pen_No__1
  6
Continuous
100
AcDbPolyline
 90
        2
 70
   128
 43
0.0
 10
178.4056565971186
 20
141.6242959083879
 10
176.6372650390888
 20
144.3195123882147
  0
LWPOLYLINE
  5
269
330
1F
100
AcDbEntity
  8
0_Pen_No__1
  6
Continuous
100
AcDbPolyline
 90
        2
 70
   128
 43
0.0
 10
176.6372650390888
 20
144.3195123882147
 10
175.1621676189101
 20
147.0570991348962
  0
LWPOLYLINE
  5
26A
330
1F
100
AcDbEntity
  8
0_Pen_No__1
  6
Continuous
100
AcDbPolyline
 90
        2
 70
   128
 43
0.0
 10
175.1621676189101
 20
147.0570991348962
 10
174.5812297587514
 20
148.4350545849146
  0
LWPOLYLINE
  5
26B
330
1F
100
AcDbEntity
  8
0_Pen_No__1
  6
Continuous
100
AcDbPolyline
 90
        2
 70
   128
 43
0.0
 10
449.5401630251701
 20
-18.62119936549933
 10
448.65526061285
 20
-18.1103007173079
  0
LWPOLYLINE
  5
26C
330
1F
100
AcDbEntity
  8
0_Pen_No__1
  6
Continuous
100
AcDbPolyline
 90
        2
 70
   128
 43
0.0
 10
433.6635480468436
 20
-0.0158718156030302
 10
434.2727597868423
 20
-1.317003466886235
  0
LWPOLYLINE
  5
26D
330
1F
100
AcDbEntity
  8
0_Pen_No__1
  6
Continuous
100
AcDbPolyline
 90
        2
 70
   128
 43
0.0
 10
448.2428577674842
 20
-18.57712227407149
 10
447.1017233957113
 20
-17.90447392096273
  0
LWPOLYLINE
  5
26E
330
1F
100
AcDbEntity
  8
0_Pen_No__1
  6
Continuous
100
AcDbPolyline
 90
        2
 70
   128
 43
0.0
 10
434.3315001706725
 20
-2.865860838780043
 10
433.8206992213464
 20
-1.654307167371027
  0
LWPOLYLINE
  5
26F
330
1F
100
AcDbEntity
  8
0_Pen_No__1
  6
Continuous
100
AcDbPolyline
 90
        2
 70
   128
 43
0.0
 10
418.2243123166191
 20
15.43712750426918
 10
419.1753701697758
 20
14.88803399433503
  0
LWPOLYLINE
  5
270
330
1F
100
AcDbEntity
  8
0_Pen_No__1
  6
Continuous
100
AcDbPolyline
 90
        2
 70
   128
 43
0.0
 10
397.5786388549008
 20
11.37880073280517
 10
396.6937364425806
 20
11.8896993809966
  0
LWPOLYLINE
  5
271
330
1F
100
AcDbEntity
  8
0_Pen_No__1
  6
Continuous
100
AcDbPolyline
 90
        2
 70
   128
 43
0.0
 10
381.702023876322
 20
29.98412828284847
 10
382.3112356164069
 20
28.68299663138141
  0
LWPOLYLINE
  5
272
330
1F
100
AcDbEntity
  8
0_Pen_No__1
  6
Continuous
100
AcDbPolyline
 90
        2
 70
   128
 43
0.0
 10
396.2813335972148
 20
11.42287782423301
 10
395.140199225442
 20
12.09552617734155
  0
LWPOLYLINE
  5
273
330
1F
100
AcDbEntity
  8
0_Pen_No__1
  6
Continuous
100
AcDbPolyline
 90
        2
 70
   128
 43
0.0
 10
382.3699760004029
 20
27.13413925952446
 10
381.8591750510034
 20
28.34569293110734
  0
LWPOLYLINE
  5
274
330
1F
100
AcDbEntity
  8
0_Pen_No__1
  6
Continuous
100
AcDbPolyline
 90
        2
 70
   128
 43
0.0
 10
366.2627881460987
 20
45.43712760272045
 10
367.2138459992542
 20
44.8880340927863
  0
LWPOLYLINE
  5
275
330
1F
100
AcDbEntity
  8
0_Pen_No__1
  6
Continuous
100
AcDbPolyline
 90
        2
 70
   128
 43
0.0
 10
345.6171146843794
 20
41.37880083125556
 10
344.7322122720602
 20
41.88969947944698
  0
LWPOLYLINE
  5
276
330
1F
100
AcDbEntity
  8
0_Pen_No__1
  6
Continuous
100
AcDbPolyline
 90
        2
 70
   128
 43
0.0
 10
329.7404997060536
 20
59.98412838115297
 10
330.3497114460523
 20
58.68299672986976
  0
LWPOLYLINE
  5
277
330
1F
100
AcDbEntity
  8
0_Pen_No__1
  6
Continuous
100
AcDbPolyline
 90
        2
 70
   128
 43
0.0
 10
344.3198094266933
 20
41.4228779226834
 10
343.1786750549204
 20
42.09552627579216
  0
LWPOLYLINE
  5
278
330
1F
100
AcDbEntity
  8
0_Pen_No__1
  6
Continuous
100
AcDbPolyline
 90
        2
 70
   128
 43
0.0
 10
330.4084518298813
 20
57.13413935797485
 10
329.8976508805555
 20
58.34569302938497
  0
LWPOLYLINE
  5
279
330
1F
100
AcDbEntity
  8
0_Pen_No__1
  6
Continuous
100
AcDbPolyline
 90
        2
 70
   128
 43
0.0
 10
314.3012639758282
 20
75.43712770102518
 10
315.2523218289858
 20
74.88803419109102
  0
LWPOLYLINE
  5
27A
330
1F
100
AcDbEntity
  8
0_Pen_No__1
  6
Continuous
100
AcDbPolyline
 90
        2
 70
   128
 43
0.0
 10
293.6555905141098
 20
71.37880092956117
 10
292.77068810179
 20
71.8896995777526
  0
LWPOLYLINE
  5
27B
330
1F
100
AcDbEntity
  8
0_Pen_No__1
  6
Continuous
100
AcDbPolyline
 90
        2
 70
   128
 43
0.0
 10
277.778975535532
 20
89.98412847960357
 10
278.388187275616
 20
88.6829968281374
  0
LWPOLYLINE
  5
27C
330
1F
100
AcDbEntity
  8
0_Pen_No__1
  6
Continuous
100
AcDbPolyline
 90
        2
 70
   128
 43
0.0
 10
292.3582852564235
 20
71.42287802098902
 10
291.2171508846511
 20
72.09552637409755
  0
LWPOLYLINE
  5
27D
330
1F
100
AcDbEntity
  8
0_Pen_No__1
  6
Continuous
100
AcDbPolyline
 90
        2
 70
   128
 43
0.0
 10
278.446927659612
 20
87.13413945628045
 10
277.9361267102125
 20
88.34569312786445
  0
LWPOLYLINE
  5
27E
330
1F
100
AcDbEntity
  8
0_Pen_No__1
  6
Continuous
100
AcDbPolyline
 90
        2
 70
   128
 43
0.0
 10
262.3397398055598
 20
105.4371277993308
 10
263.2907976584635
 20
104.8880342895414
  0
LWPOLYLINE
  5
27F
330
1F
100
AcDbEntity
  8
0_Pen_No__1
  6
Continuous
100
AcDbPolyline
 90
        2
 70
   128
 43
0.0
 10
241.6940663435882
 20
101.3788010280116
 10
240.8091639312686
 20
101.889699676203
  0
LWPOLYLINE
  5
280
330
1F
100
AcDbEntity
  8
0_Pen_No__1
  6
Continuous
100
AcDbPolyline
 90
        2
 70
   128
 43
0.0
 10
225.8174513652627
 20
119.9841285779092
 10
226.4266631052605
 20
118.6829969266258
  0
LWPOLYLINE
  5
281
330
1F
100
AcDbEntity
  8
0_Pen_No__1
  6
Continuous
100
AcDbPolyline
 90
        2
 70
   128
 43
0.0
 10
240.3967610859024
 20
101.4228781194394
 10
239.2556267141295
 20
102.0955264725482
  0
LWPOLYLINE
  5
282
330
1F
100
AcDbEntity
  8
0_Pen_No__1
  6
Continuous
100
AcDbPolyline
 90
        2
 70
   128
 43
0.0
 10
226.4854034890904
 20
117.1341395547308
 10
225.9746025397651
 20
118.345693226139
  0
LWPOLYLINE
  5
283
330
1F
100
AcDbEntity
  8
0_Pen_No__1
  6
Continuous
100
AcDbPolyline
 90
        2
 70
   128
 43
0.0
 10
210.3782156350382
 20
135.4371278977812
 10
211.329273488194
 20
134.888034387847
  0
LWPOLYLINE
  5
284
330
1F
100
AcDbEntity
  8
0_Pen_No__1
  6
Continuous
100
AcDbPolyline
 90
        2
 70
   128
 43
0.0
 10
189.7325421733189
 20
131.3788011263161
 10
188.8476397609997
 20
131.8896997745077
  0
LWPOLYLINE
  5
285
330
1F
100
AcDbEntity
  8
0_Pen_No__1
  6
Continuous
100
AcDbPolyline
 90
        2
 70
   128
 43
0.0
 10
173.8559271949933
 20
149.9841286762137
 10
174.465138934992
 20
148.6829970249296
  0
LWPOLYLINE
  5
286
330
1F
100
AcDbEntity
  8
0_Pen_No__1
  6
Continuous
100
AcDbPolyline
 90
        2
 70
   128
 43
0.0
 10
188.4352369156333
 20
131.4228782177439
 10
187.2941025438606
 20
132.0955265708527
  0
LWPOLYLINE
  5
287
330
1F
100
AcDbEntity
  8
0_Pen_No__1
  6
Continuous
100
AcDbPolyline
 90
        2
 70
   128
 43
0.0
 10
174.5238793188215
 20
147.1341396530356
 10
174.0130783694953
 20
148.3456933244457
  0
LWPOLYLINE
  5
288
330
1F
100
AcDbEntity
  8
0_Pen_No__1
  6
Continuous
100
AcDbPolyline
 90
        2
 70
   128
 43
0.0
 10
521.9498993842083
 20
-43.74061368901783
 10
523.2355576130532
 20
-44.48288881677043
  0
LWPOLYLINE
  5
289
330
1F
100
AcDbEntity
  8
0_Pen_No__1
  6
Continuous
100
AcDbPolyline
 90
        2
 70
   128
 43
0.0
 10
523.2355576130825
 20
-44.48288881664831
 10
523.7054692500269
 20
-44.70888090023239
  0
LWPOLYLINE
  5
28A
330
1F
100
AcDbEntity
  8
0_Pen_No__1
  6
Continuous
100
AcDbPolyline
 90
        2
 70
   128
 43
0.0
 10
523.7054692500269
 20
-44.70888090023239
 10
526.3117053343196
 20
-46.50118477352472
  0
LWPOLYLINE
  5
28B
330
1F
100
AcDbEntity
  8
0_Pen_No__1
  6
Continuous
100
AcDbPolyline
 90
        2
 70
   128
 43
0.0
 10
523.3668634450961
 20
-45.26695295830885
 10
523.8125950854989
 20
-45.48131628582575
  0
LWPOLYLINE
  5
28C
330
1F
100
AcDbEntity
  8
0_Pen_No__1
  6
Continuous
100
AcDbPolyline
 90
        2
 70
   128
 43
0.0
 10
523.8125950854989
 20
-45.48131628582575
 10
526.2847234470743
 20
-47.18139451911762
  0
LWPOLYLINE
  5
28D
330
1F
100
AcDbEntity
  8
0_Pen_No__1
  6
Continuous
100
AcDbPolyline
 90
        2
 70
   128
 43
0.0
 10
523.2355576130825
 20
-44.48288881664831
 10
523.3668634450961
 20
-45.26695295830885
  0
LWPOLYLINE
  5
28E
330
1F
100
AcDbEntity
  8
0_Pen_No__1
  6
Continuous
100
AcDbPolyline
 90
        2
 70
   128
 43
0.0
 10
511.2655691373232
 20
-45.94974023687948
 10
511.3355975485776
 20
-45.5373930091979
  0
LWPOLYLINE
  5
28F
330
1F
100
AcDbEntity
  8
0_Pen_No__1
  6
Continuous
100
AcDbPolyline
 90
        2
 70
   128
 43
0.0
 10
511.3355975485776
 20
-45.5373930091979
 10
512.2345716093264
 20
-43.97066795242199
  0
LWPOLYLINE
  5
290
330
1F
100
AcDbEntity
  8
0_Pen_No__1
  6
Continuous
100
AcDbPolyline
 90
        2
 70
   128
 43
0.0
 10
512.2345716093264
 20
-43.97066795242199
 10
513.5453397413769
 20
-42.88248789096249
  0
LWPOLYLINE
  5
291
330
1F
100
AcDbEntity
  8
0_Pen_No__1
  6
Continuous
100
AcDbPolyline
 90
        2
 70
   128
 43
0.0
 10
513.5453397413769
 20
-42.88248789096249
 10
515.2280749183192
 20
-42.30591662534289
  0
LWPOLYLINE
  5
292
330
1F
100
AcDbEntity
  8
0_Pen_No__1
  6
Continuous
100
AcDbPolyline
 90
        2
 70
   128
 43
0.0
 10
515.2280749183192
 20
-42.30591662534289
 10
517.2316480833059
 20
-42.25847298170849
  0
LWPOLYLINE
  5
293
330
1F
100
AcDbEntity
  8
0_Pen_No__1
  6
Continuous
100
AcDbPolyline
 90
        2
 70
   128
 43
0.0
 10
517.2316480833059
 20
-42.25847298170849
 10
519.4951816795755
 20
-42.74159851116421
  0
LWPOLYLINE
  5
294
330
1F
100
AcDbEntity
  8
0_Pen_No__1
  6
Continuous
100
AcDbPolyline
 90
        2
 70
   128
 43
0.0
 10
519.4951816795755
 20
-42.74159851116421
 10
521.9498993842083
 20
-43.74061368897119
  0
LWPOLYLINE
  5
295
330
1F
100
AcDbEntity
  8
0_Pen_No__1
  6
Continuous
100
AcDbPolyline
 90
        2
 70
   128
 43
0.0
 10
512.0186963977674
 20
-46.63989862207674
 10
512.079233381809
 20
-46.26719608191821
  0
LWPOLYLINE
  5
296
330
1F
100
AcDbEntity
  8
0_Pen_No__1
  6
Continuous
100
AcDbPolyline
 90
        2
 70
   128
 43
0.0
 10
512.079233381809
 20
-46.26719608191821
 10
512.9319494059991
 20
-44.78108917433954
  0
LWPOLYLINE
  5
297
330
1F
100
AcDbEntity
  8
0_Pen_No__1
  6
Continuous
100
AcDbPolyline
 90
        2
 70
   128
 43
0.0
 10
512.9319494059991
 20
-44.78108917433954
 10
514.1752700300293
 20
-43.74890302334367
  0
LWPOLYLINE
  5
298
330
1F
100
AcDbEntity
  8
0_Pen_No__1
  6
Continuous
100
AcDbPolyline
 90
        2
 70
   128
 43
0.0
 10
514.1752700300293
 20
-43.74890302334367
 10
515.7714175858903
 20
-43.20200008281561
  0
LWPOLYLINE
  5
299
330
1F
100
AcDbEntity
  8
0_Pen_No__1
  6
Continuous
100
AcDbPolyline
 90
        2
 70
   128
 43
0.0
 10
515.7714175858903
 20
-43.20200008281561
 10
517.6718939377852
 20
-43.15699772185766
  0
LWPOLYLINE
  5
29A
330
1F
100
AcDbEntity
  8
0_Pen_No__1
  6
Continuous
100
AcDbPolyline
 90
        2
 70
   128
 43
0.0
 10
517.6718939377852
 20
-43.15699772185766
 10
519.8189540734512
 20
-43.61526331443721
  0
LWPOLYLINE
  5
29B
330
1F
100
AcDbEntity
  8
0_Pen_No__1
  6
Continuous
100
AcDbPolyline
 90
        2
 70
   128
 43
0.0
 10
519.8189540734512
 20
-43.61526331443721
 10
522.1473606571294
 20
-44.56287269241444
  0
LWPOLYLINE
  5
29C
330
1F
100
AcDbEntity
  8
0_Pen_No__1
  6
Continuous
100
AcDbPolyline
 90
        2
 70
   128
 43
0.0
 10
511.2655691373824
 20
-45.9497402369774
 10
511.0236399104207
 20
-47.00933200509982
  0
LWPOLYLINE
  5
29D
330
1F
100
AcDbEntity
  8
0_Pen_No__1
  6
Continuous
100
AcDbPolyline
 90
        2
 70
   128
 43
0.0
 10
471.2740334428132
 20
-14.4828887183438
 10
471.7439450797585
 20
-14.70888080192789
  0
LWPOLYLINE
  5
29E
330
1F
100
AcDbEntity
  8
0_Pen_No__1
  6
Continuous
100
AcDbPolyline
 90
        2
 70
   128
 43
0.0
 10
471.7439450797585
 20
-14.70888080192789
 10
474.3501811640502
 20
-16.50118467521999
  0
LWPOLYLINE
  5
29F
330
1F
100
AcDbEntity
  8
0_Pen_No__1
  6
Continuous
100
AcDbPolyline
 90
        2
 70
   128
 43
0.0
 10
474.3501811640502
 20
-16.50118467521999
 10
476.9404847347856
 20
-18.69514507071901
  0
LWPOLYLINE
  5
2A0
330
1F
100
AcDbEntity
  8
0_Pen_No__1
  6
Continuous
100
AcDbPolyline
 90
        2
 70
   128
 43
0.0
 10
476.9404847347856
 20
-18.69514507071901
 10
479.4361507287228
 20
-21.22409961200955
  0
LWPOLYLINE
  5
2A1
330
1F
100
AcDbEntity
  8
0_Pen_No__1
  6
Continuous
100
AcDbPolyline
 90
        2
 70
   128
 43
0.0
 10
479.4361507287228
 20
-21.22409961200955
 10
481.7613495975044
 20
-24.0112072950639
  0
LWPOLYLINE
  5
2A2
330
1F
100
AcDbEntity
  8
0_Pen_No__1
  6
Continuous
100
AcDbPolyline
 90
        2
 70
   128
 43
0.0
 10
481.7613495975044
 20
-24.0112072950639
 10
483.845431350111
 20
-26.97178326327732
  0
LWPOLYLINE
  5
2A3
330
1F
100
AcDbEntity
  8
0_Pen_No__1
  6
Continuous
100
AcDbPolyline
 90
        2
 70
   128
 43
0.0
 10
483.845431350111
 20
-26.97178326327732
 10
485.6250722170845
 20
-30.01587191398192
  0
LWPOLYLINE
  5
2A4
330
1F
100
AcDbEntity
  8
0_Pen_No__1
  6
Continuous
100
AcDbPolyline
 90
        2
 70
   128
 43
0.0
 10
471.4053392748276
 20
-15.26695286000412
 10
471.8510709152293
 20
-15.48131618752036
  0
LWPOLYLINE
  5
2A5
330
1F
100
AcDbEntity
  8
0_Pen_No__1
  6
Continuous
100
AcDbPolyline
 90
        2
 70
   128
 43
0.0
 10
471.8510709152293
 20
-15.48131618752036
 10
474.3231992768049
 20
-17.18139442081312
  0
LWPOLYLINE
  5
2A6
330
1F
100
AcDbEntity
  8
0_Pen_No__1
  6
Continuous
100
AcDbPolyline
 90
        2
 70
   128
 43
0.0
 10
474.3231992768049
 20
-17.18139442081312
 10
476.7802149558138
 20
-19.26246134739673
  0
LWPOLYLINE
  5
2A7
330
1F
100
AcDbEntity
  8
0_Pen_No__1
  6
Continuous
100
AcDbPolyline
 90
        2
 70
   128
 43
0.0
 10
476.7802149558138
 20
-19.26246134739673
 10
479.1474627741588
 20
-21.66128480177909
  0
LWPOLYLINE
  5
2A8
330
1F
100
AcDbEntity
  8
0_Pen_No__1
  6
Continuous
100
AcDbPolyline
 90
        2
 70
   128
 43
0.0
 10
479.1474627741588
 20
-21.66128480177909
 10
481.353015104764
 20
-24.30497774716078
  0
LWPOLYLINE
  5
2A9
330
1F
100
AcDbEntity
  8
0_Pen_No__1
  6
Continuous
100
AcDbPolyline
 90
        2
 70
   128
 43
0.0
 10
481.353015104764
 20
-24.30497774716078
 10
483.3298573561286
 20
-27.1132129111703
  0
LWPOLYLINE
  5
2AA
330
1F
100
AcDbEntity
  8
0_Pen_No__1
  6
Continuous
100
AcDbPolyline
 90
        2
 70
   128
 43
0.0
 10
483.3298573561286
 20
-27.1132129111703
 10
485.0179241767751
 20
-30.00066348938557
  0
LWPOLYLINE
  5
2AB
330
1F
100
AcDbEntity
  8
0_Pen_No__1
  6
Continuous
100
AcDbPolyline
 90
        2
 70
   128
 43
0.0
 10
485.0179241767751
 20
-30.00066348938557
 10
485.6919243436675
 20
-31.44012962324727
  0
LWPOLYLINE
  5
2AC
330
1F
100
AcDbEntity
  8
0_Pen_No__1
  6
Continuous
100
AcDbPolyline
 90
        2
 70
   128
 43
0.0
 10
471.2740334428132
 20
-14.4828887183438
 10
471.4053392748276
 20
-15.26695286000412
  0
LWPOLYLINE
  5
2AD
330
1F
100
AcDbEntity
  8
0_Pen_No__1
  6
Continuous
100
AcDbPolyline
 90
        2
 70
   128
 43
0.0
 10
486.3503747809512
 20
-31.56494600537318
 10
485.6919243436675
 20
-31.44012962324727
  0
LWPOLYLINE
  5
2AE
330
1F
100
AcDbEntity
  8
0_Pen_No__1
  6
Continuous
100
AcDbPolyline
 90
        2
 70
   128
 43
0.0
 10
496.5880797846127
 20
-46.04749152705978
 10
494.1576102467036
 20
-43.83314261784543
  0
LWPOLYLINE
  5
2AF
330
1F
100
AcDbEntity
  8
0_Pen_No__1
  6
Continuous
100
AcDbPolyline
 90
        2
 70
   128
 43
0.0
 10
494.1576102467036
 20
-43.83314261784543
 10
491.8456875392563
 20
-41.32870916279307
  0
LWPOLYLINE
  5
2B0
330
1F
100
AcDbEntity
  8
0_Pen_No__1
  6
Continuous
100
AcDbPolyline
 90
        2
 70
   128
 43
0.0
 10
491.8456875392563
 20
-41.32870916279307
 10
489.7225582638471
 20
-38.61028710512782
  0
LWPOLYLINE
  5
2B1
330
1F
100
AcDbEntity
  8
0_Pen_No__1
  6
Continuous
100
AcDbPolyline
 90
        2
 70
   128
 43
0.0
 10
489.7225582638471
 20
-38.61028710512782
 10
487.8527326291558
 20
-35.76047432348528
  0
LWPOLYLINE
  5
2B2
330
1F
100
AcDbEntity
  8
0_Pen_No__1
  6
Continuous
100
AcDbPolyline
 90
        2
 70
   128
 43
0.0
 10
487.8527326291558
 20
-35.76047432348528
 10
486.2930243409131
 20
-32.86586093716004
  0
LWPOLYLINE
  5
2B3
330
1F
100
AcDbEntity
  8
0_Pen_No__1
  6
Continuous
100
AcDbPolyline
 90
        2
 70
   128
 43
0.0
 10
499.0087783288868
 20
-47.16570165955136
 10
496.6678831523428
 20
-45.40945653068251
  0
LWPOLYLINE
  5
2B4
330
1F
100
AcDbEntity
  8
0_Pen_No__1
  6
Continuous
100
AcDbPolyline
 90
        2
 70
   128
 43
0.0
 10
496.6678831523428
 20
-45.40945653068251
 10
494.3692614342831
 20
-43.31523135538584
  0
LWPOLYLINE
  5
2B5
330
1F
100
AcDbEntity
  8
0_Pen_No__1
  6
Continuous
100
AcDbPolyline
 90
        2
 70
   128
 43
0.0
 10
494.3692614342831
 20
-43.31523135538584
 10
492.1827556324505
 20
-40.9466581058845
  0
LWPOLYLINE
  5
2B6
330
1F
100
AcDbEntity
  8
0_Pen_No__1
  6
Continuous
100
AcDbPolyline
 90
        2
 70
   128
 43
0.0
 10
492.1827556324505
 20
-40.9466581058845
 10
490.1748016192098
 20
-38.37570468180795
  0
LWPOLYLINE
  5
2B7
330
1F
100
AcDbEntity
  8
0_Pen_No__1
  6
Continuous
100
AcDbPolyline
 90
        2
 70
   128
 43
0.0
 10
490.1748016192098
 20
-38.37570468180795
 10
488.40641006118
 20
-35.68048820198089
  0
LWPOLYLINE
  5
2B8
330
1F
100
AcDbEntity
  8
0_Pen_No__1
  6
Continuous
100
AcDbPolyline
 90
        2
 70
   128
 43
0.0
 10
488.40641006118
 20
-35.68048820198089
 10
486.9313126410015
 20
-32.94290145529921
  0
LWPOLYLINE
  5
2B9
330
1F
100
AcDbEntity
  8
0_Pen_No__1
  6
Continuous
100
AcDbPolyline
 90
        2
 70
   128
 43
0.0
 10
486.9313126410015
 20
-32.94290145529921
 10
486.3503747808426
 20
-31.56494600528104
  0
LWPOLYLINE
  5
2BA
330
1F
100
AcDbEntity
  8
0_Pen_No__1
  6
Continuous
100
AcDbPolyline
 90
        2
 70
   128
 43
0.0
 10
522.1473606571294
 20
-44.56287269241444
 10
523.0984185102851
 20
-45.11196620234858
  0
LWPOLYLINE
  5
2BB
330
1F
100
AcDbEntity
  8
0_Pen_No__1
  6
Continuous
100
AcDbPolyline
 90
        2
 70
   128
 43
0.0
 10
485.6250722170845
 20
-30.01587191398192
 10
486.2342839570832
 20
-31.31700356526601
  0
LWPOLYLINE
  5
2BC
330
1F
100
AcDbEntity
  8
0_Pen_No__1
  6
Continuous
100
AcDbPolyline
 90
        2
 70
   128
 43
0.0
 10
486.2930243409131
 20
-32.86586093716004
 10
485.7822233915865
 20
-31.65430726574991
  0
LWPOLYLINE
  5
2BD
330
1F
100
AcDbEntity
  8
0_Pen_No__1
  6
Continuous
100
AcDbPolyline
 90
        2
 70
   128
 43
0.0
 10
208.1820587810097
 20
142.1202051141374
 10
201.7761947192862
 20
137.1175126992331
  0
LWPOLYLINE
  5
2BE
330
1F
100
AcDbEntity
  8
0_Pen_No__1
  6
Continuous
100
AcDbPolyline
 90
        2
 70
   128
 43
0.0
 10
260.1435829515308
 20
112.1202050156865
 10
253.7377188898078
 20
107.1175126007827
  0
LWPOLYLINE
  5
2BF
330
1F
100
AcDbEntity
  8
0_Pen_No__1
  6
Continuous
100
AcDbPolyline
 90
        2
 70
   128
 43
0.0
 10
162.9701406111259
 20
168.2233183541667
 10
159.504888420722
 20
165.5171118718518
  0
LWPOLYLINE
  5
2C0
330
1F
100
AcDbEntity
  8
0_Pen_No__1
  6
Continuous
100
AcDbPolyline
 90
        2
 70
   128
 43
0.0
 10
704.3598166017207
 20
669.2962931478786
 10
305.4992335759956
 20
439.0140271625388
  0
LWPOLYLINE
  5
2C1
330
1F
100
AcDbEntity
  8
0_Pen_No__1
  6
Continuous
100
AcDbPolyline
 90
        2
 70
   128
 43
0.0
 10
704.3598166017207
 20
639.2962931478813
 10
305.4992335759956
 20
409.0140271625412
  0
LWPOLYLINE
  5
2C2
330
1F
100
AcDbEntity
  8
0_Pen_No__1
  6
Continuous
100
AcDbPolyline
 90
        2
 70
   128
 43
0.0
 10
704.3598166017207
 20
388.4535333985449
 10
305.6992430600767
 20
77.11751250247711
  0
LWPOLYLINE
  5
2C3
330
1F
100
AcDbEntity
  8
0_Pen_No__1
  6
Continuous
100
AcDbPolyline
 90
        2
 70
   128
 43
0.0
 10
704.3598166017207
 20
176.7146761768453
 10
461.583815571138
 20
-12.88248779258227
  0
LWPOLYLINE
  5
2C4
330
1F
100
AcDbEntity
  8
0_Pen_No__1
  6
Continuous
100
AcDbPolyline
 90
        2
 70
   128
 43
0.0
 10
704.3598166017207
 20
106.1350571030085
 10
513.5453397413769
 20
-42.88248789096249
  0
LWPOLYLINE
  5
2C5
330
1F
100
AcDbEntity
  8
0_Pen_No__1
  6
Continuous
100
AcDbPolyline
 90
        2
 70
   128
 43
0.0
 10
704.3598166017207
 20
247.2942952506311
 10
409.6222914008676
 20
17.11751230572201
  0
LWPOLYLINE
  5
2C6
330
1F
100
AcDbEntity
  8
0_Pen_No__1
  6
Continuous
100
AcDbPolyline
 90
        2
 70
   128
 43
0.0
 10
704.3598166017207
 20
317.8739143247594
 10
357.660767230346
 20
47.11751240417239
  0
LWPOLYLINE
  5
2C7
330
1F
100
AcDbEntity
  8
0_Pen_No__1
  6
Continuous
100
AcDbPolyline
 90
        2
 70
   128
 43
0.0
 10
10.82541399376602
 20
297.8840172110111
 10
-2.164967006295093
 20
290.3840172109751
  0
LWPOLYLINE
  5
2C8
330
1F
100
AcDbEntity
  8
0_Pen_No__1
  6
Continuous
100
AcDbPolyline
 90
        2
 70
   128
 43
0.0
 10
10.82541399378156
 20
193.2290888490191
 10
-1.298941606295401
 20
186.229088848975
  0
LWPOLYLINE
  5
2C9
330
1F
100
AcDbEntity
  8
0_Pen_No__1
  6
Continuous
100
AcDbPolyline
 90
        2
 70
   128
 43
0.0
 10
0.0170279430800058
 20
172.6691539100798
 10
-2.164967006295093
 20
171.4093785331829
  0
LWPOLYLINE
  5
2CA
330
1F
100
AcDbEntity
  8
0_Pen_No__1
  6
Continuous
100
AcDbPolyline
 90
        2
 70
   128
 43
0.0
 10
10.82541399369674
 20
171.1812915761757
 10
6.191412153600862
 20
168.5058493546792
  0
LWPOLYLINE
  5
2CB
330
1F
100
AcDbEntity
  8
0_Pen_No__1
  6
Continuous
100
AcDbPolyline
 90
        2
 70
   128
 43
0.0
 10
10.82541399369674
 20
168.1440579621785
 10
8.821733609058136
 20
166.987232547682
  0
LWPOLYLINE
  5
2CC
330
1F
100
AcDbEntity
  8
0_Pen_No__1
  6
Continuous
100
AcDbPolyline
 90
        2
 70
   128
 43
0.0
 10
10.82541399369674
 20
161.4076818781791
 10
8.821733609058136
 20
160.2508564636824
  0
LWPOLYLINE
  5
2CD
330
1F
100
AcDbEntity
  8
0_Pen_No__1
  6
Continuous
100
AcDbPolyline
 90
        2
 70
   128
 43
0.0
 10
5.040113447825068
 20
175.5692336910801
 10
4.763236193703779
 20
175.4093785331825
  0
LWPOLYLINE
  5
2CE
330
1F
100
AcDbEntity
  8
0_Pen_No__1
  6
Continuous
100
AcDbPolyline
 90
        2
 70
   128
 43
0.0
 10
10.82541399376602
 20
563.2639216164299
 10
-2.164967006295093
 20
555.7639216163941
  0
LWPOLYLINE
  5
2CF
330
1F
100
AcDbEntity
  8
0_Pen_No__1
  6
Continuous
100
AcDbPolyline
 90
        2
 70
   128
 43
0.0
 10
10.82541399378156
 20
458.6089932544381
 10
-1.298941606295401
 20
451.6089932543939
  0
LWPOLYLINE
  5
2D0
330
1F
100
AcDbEntity
  8
0_Pen_No__1
  6
Continuous
100
AcDbPolyline
 90
        2
 70
   128
 43
0.0
 10
0.866791715357973
 20
437.5584469706828
 10
-2.164967006295093
 20
435.8080602489696
  0
LWPOLYLINE
  5
2D1
330
1F
100
AcDbEntity
  8
0_Pen_No__1
  6
Continuous
100
AcDbPolyline
 90
        2
 70
   128
 43
0.0
 10
10.82541399369674
 20
435.5799732919618
 10
6.191412153600862
 20
432.904531070466
  0
LWPOLYLINE
  5
2D2
330
1F
100
AcDbEntity
  8
0_Pen_No__1
  6
Continuous
100
AcDbPolyline
 90
        2
 70
   128
 43
0.0
 10
5.889877220103479
 20
440.4585267516832
 10
4.763236193704223
 20
439.8080602489691
  0
LWPOLYLINE
  5
2D3
330
1F
100
AcDbEntity
  8
0_Pen_No__1
  6
Continuous
100
AcDbPolyline
 90
        2
 70
   128
 43
0.0
 10
10.82541399369674
 20
432.5427396779648
 10
8.821733609058136
 20
431.3859142634686
  0
LWPOLYLINE
  5
2D4
330
1F
100
AcDbEntity
  8
0_Pen_No__1
  6
Continuous
100
AcDbPolyline
 90
        2
 70
   128
 43
0.0
 10
10.82541399369674
 20
425.8063635939653
 10
8.821733609058136
 20
424.6495381794691
  0
LWPOLYLINE
  5
2D5
330
1F
100
AcDbEntity
  8
0_Pen_No__1
  6
Continuous
100
AcDbPolyline
 90
        2
 70
   128
 43
0.0
 10
71.90838289750312
 20
403.4953576917363
 10
16.8875917937017
 20
371.7290888489721
  0
LWPOLYLINE
  5
2D6
330
1F
100
AcDbEntity
  8
0_Pen_No__1
  6
Continuous
100
AcDbPolyline
 90
        2
 70
   128
 43
0.0
 10
120.6741153715904
 20
332.3051949479153
 10
16.8875917937017
 20
272.3840172109742
  0
LWPOLYLINE
  5
2D7
330
1F
100
AcDbEntity
  8
0_Pen_No__1
  6
Continuous
100
AcDbPolyline
 90
        2
 70
   128
 43
0.0
 10
125.4671416150044
 20
305.0724499518783
 10
16.8875917937017
 20
242.3840172109768
  0
LWPOLYLINE
  5
2D8
330
1F
100
AcDbEntity
  8
0_Pen_No__1
  6
Continuous
100
AcDbPolyline
 90
        2
 70
   128
 43
0.0
 10
10.82541399376602
 20
32.50411280559207
 10
-2.164967006295093
 20
25.00411280555625
  0
LWPOLYLINE
  5
2D9
330
1F
100
AcDbEntity
  8
0_Pen_No__1
  6
Continuous
100
AcDbPolyline
 90
        2
 70
   128
 43
0.0
 10
92.41480592022965
 20
50.60977055234328
 10
16.8875917937017
 20
7.004112805555351
  0
LWPOLYLINE
  5
2DA
330
1F
100
AcDbEntity
  8
0_Pen_No__1
  6
Continuous
100
AcDbPolyline
 90
        2
 70
   128
 43
0.0
 10
159.5048884207218
 20
188.6893195512197
 10
16.8875917937017
 20
106.3491844435533
  0
LWPOLYLINE
  5
2DB
330
1F
100
AcDbEntity
  8
0_Pen_No__1
  6
Continuous
100
AcDbPolyline
 90
        2
 70
   128
 43
0.0
 10
287.2581805680621
 20
693.8624546575018
 10
16.88759179370214
 20
537.7639216163932
  0
LWPOLYLINE
  5
2DC
330
1F
100
AcDbEntity
  8
0_Pen_No__1
  6
Continuous
100
AcDbPolyline
 90
        2
 70
   128
 43
0.0
 10
115.187469761407
 20
693.862454657502
 10
16.88759179370214
 20
637.1089932543919
  0
LWPOLYLINE
  5
2DD
330
1F
100
AcDbEntity
  8
0_Pen_No__1
  6
Continuous
100
AcDbPolyline
 90
        2
 70
   128
 43
0.0
 10
28.45108600898261
 20
701.3624547013213
 10
8.821733609058136
 20
690.0294425848881
  0
LWPOLYLINE
  5
2DE
330
1F
100
AcDbEntity
  8
0_Pen_No__1
  6
Continuous
100
AcDbPolyline
 90
        2
 70
   128
 43
0.0
 10
16.7833404235902
 20
701.3624547013213
 10
8.821733609058136
 20
696.7658186688876
  0
LWPOLYLINE
  5
2DF
330
1F
100
AcDbEntity
  8
0_Pen_No__1
  6
Continuous
100
AcDbPolyline
 90
        2
 70
   128
 43
0.0
 10
11.52269751267831
 20
701.3624547013213
 10
6.191412153601306
 20
698.2844354758851
  0
LWPOLYLINE
  5
2E0
330
1F
100
AcDbEntity
  8
0_Pen_No__1
  6
Continuous
100
AcDbPolyline
 90
        2
 70
   128
 43
0.0
 10
-1.862741683666069
 20
701.3624547013213
 10
-2.164967006294649
 20
701.1879646543886
  0
LWPOLYLINE
  5
2E1
330
1F
100
AcDbEntity
  8
0_Pen_No__1
  6
Continuous
100
AcDbPolyline
 90
        2
 70
   128
 43
0.0
 10
339.219704568058
 20
693.8624546575018
 10
16.88759179370214
 20
507.7639216163958
  0
LWPOLYLINE
  5
2E2
330
1F
100
AcDbEntity
  8
0_Pen_No__1
  6
Continuous
100
AcDbPolyline
 90
        2
 70
   128
 43
0.0
 10
526.3117053343196
 20
-46.50118477352472
 10
527.4909585088329
 20
-47.5000000438196
  0
LWPOLYLINE
  5
2E3
330
1F
100
AcDbEntity
  8
0_Pen_No__1
  6
Continuous
100
AcDbPolyline
 90
        2
 70
   128
 43
0.0
 10
526.2847234470743
 20
-47.18139451911762
 10
526.6608856740609
 20
-47.5000000438196
  0
LWPOLYLINE
  5
2E4
330
1F
100
AcDbEntity
  8
0_Pen_No__1
  6
Continuous
100
AcDbPolyline
 90
        2
 70
   128
 43
0.0
 10
512.0186963978259
 20
-46.63989862217466
 10
511.8219714247996
 20
-47.5000000438196
  0
LWPOLYLINE
  5
2E5
330
1F
100
AcDbEntity
  8
0_Pen_No__1
  6
Continuous
100
AcDbPolyline
 90
        2
 70
   128
 43
0.0
 10
511.0236399104207
 20
-47.00933200509982
 10
510.7420985912592
 20
-47.50000004381982
  0
LWPOLYLINE
  5
2E6
330
1F
100
AcDbEntity
  8
0_Pen_No__1
  6
Continuous
100
AcDbPolyline
 90
        2
 70
   128
 43
0.0
 10
518.5289768960662
 20
-43.33993234168665
 10
513.2020797020598
 20
-47.5000000438196
  0
LWPOLYLINE
  5
2E7
330
1F
100
AcDbEntity
  8
0_Pen_No__1
  6
Continuous
100
AcDbPolyline
 90
        2
 70
   128
 43
0.0
 10
498.5241251150043
 20
-47.5000000438196
 10
496.5880797846127
 20
-46.04749152705978
  0
LWPOLYLINE
  5
2E8
330
1F
100
AcDbEntity
  8
0_Pen_No__1
  6
Continuous
100
AcDbPolyline
 90
        2
 70
   128
 43
0.0
 10
499.5759087989944
 20
-47.5000000438196
 10
499.0087783288868
 20
-47.16570165955136
  0
LWPOLYLINE
  5
2E9
330
1F
100
AcDbEntity
  8
0_Pen_No__1
  6
Continuous
100
AcDbPolyline
 90
        2
 70
   128
 43
0.0
 10
704.3598166017207
 20
35.55543802887951
 10
598.0087156834362
 20
-47.5000000438196
  0
LWPOLYLINE
  5
2EA
330
1F
100
AcDbEntity
  8
0_Pen_No__1
  6
Continuous
100
AcDbPolyline
 90
        2
 70
   128
 43
0.0
 10
114.2999721347824
 20
33.24517721279297
 10
43.72725557407841
 20
-7.500000043819593
  0
LWPOLYLINE
  5
2EB
330
1F
100
AcDbEntity
  8
0_Pen_No__1
  6
Continuous
100
AcDbPolyline
 90
        2
 70
   128
 43
0.0
 10
292.6032661937656
 20
460.568536890411
 10
286.4466747759988
 20
457.0140271625397
  0
LWPOLYLINE
  5
2EC
330
1F
100
AcDbEntity
  8
0_Pen_No__1
  6
Continuous
100
AcDbPolyline
 90
        2
 70
   128
 43
0.0
 10
704.3598166017207
 20
768.6413647858766
 10
284.9860784460194
 20
526.515823112563
  0
LWPOLYLINE
  5
2ED
330
1F
100
AcDbEntity
  8
0_Pen_No__1
  6
Continuous
100
AcDbPolyline
 90
        2
 70
   128
 43
0.0
 10
344.6519186307632
 20
330.9639121551945
 10
323.5474870713393
 20
318.7792628600213
  0
LWPOLYLINE
  5
2EE
330
1F
100
AcDbEntity
  8
0_Pen_No__1
  6
Continuous
100
AcDbPolyline
 90
        2
 70
   128
 43
0.0
 10
159.5048884207218
 20
224.0692239566499
 10
16.8875917937017
 20
141.7290888489826
  0
LWPOLYLINE
  5
2EF
330
1F
100
AcDbEntity
  8
0_Pen_No__1
  6
Continuous
100
AcDbPolyline
 90
        2
 70
   128
 43
0.0
 10
170.5687776043256
 20
230.4569633830015
 10
159.5048884207218
 20
224.0692239566499
  0
LWPOLYLINE
  5
2F0
330
1F
100
AcDbEntity
  8
0_Pen_No__1
  6
Continuous
100
AcDbPolyline
 90
        2
 70
   128
 43
0.0
 10
58.66980166427238
 20
431.2319636250706
 10
16.88759179370214
 20
407.1089932544019
  0
LWPOLYLINE
  5
2F1
330
1F
100
AcDbEntity
  8
0_Pen_No__1
  6
Continuous
100
AcDbPolyline
 90
        2
 70
   128
 43
0.0
 10
513.5591537613946
 20
693.862454657502
 10
281.6192338450239
 20
559.9518788727923
  0
LWPOLYLINE
  5
2F2
330
1F
100
AcDbEntity
  8
0_Pen_No__1
  6
Continuous
100
AcDbPolyline
 90
        2
 70
   128
 43
0.0
 10
298.2403794674469
 20
331.6963271153774
 10
317.4853092713348
 20
346.7257538137275
  0
LWPOLYLINE
  5
2F3
330
1F
100
AcDbEntity
  8
0_Pen_No__1
  6
Continuous
100
AcDbPolyline
 90
        2
 70
   128
 43
0.0
 10
159.5048884207218
 20
170.2239826478488
 10
288.391620862682
 20
95.81119265233629
  0
LWPOLYLINE
  5
2F4
330
1F
100
AcDbEntity
  8
0_Pen_No__1
  6
Continuous
100
AcDbPolyline
 90
        2
 70
   128
 43
0.0
 10
159.5048884207218
 20
217.48212729162
 10
288.391620862682
 20
95.81119265233629
  0
LWPOLYLINE
  5
2F5
330
1F
100
AcDbEntity
  8
0_Pen_No__1
  6
Continuous
100
AcDbPolyline
 90
        2
 70
   128
 43
0.0
 10
288.391620862682
 20
95.81119265233629
 10
296.6749477500585
 20
75.34586282877298
  0
LWPOLYLINE
  5
2F6
330
1F
100
AcDbEntity
  8
0_Pen_No__1
  6
Continuous
100
AcDbPolyline
 90
        2
 70
   128
 43
0.0
 10
161.6179751943501
 20
321.2167768457464
 10
161.6179751943501
 20
305.787380229492
  0
LWPOLYLINE
  5
2F7
330
1F
100
AcDbEntity
  8
0_Pen_No__1
  6
Continuous
100
AcDbPolyline
 90
        2
 70
   128
 43
0.0
 10
187.7741507831074
 20
192.3010081720516
 10
704.359816601721
 20
595.7312350919253
  0
LWPOLYLINE
  5
2F8
330
1F
100
AcDbEntity
  8
0_Pen_No__1
  6
Continuous
100
AcDbPolyline
 90
        2
 70
   128
 43
0.0
 10
296.6749477500585
 20
75.34586282877298
 10
704.3598166017207
 20
393.7294534613031
  0
LWPOLYLINE
  5
2F9
330
1F
100
AcDbEntity
  8
0_Pen_No__1
  6
Continuous
100
AcDbPolyline
 90
        2
 70
   128
 43
0.0
 10
288.391620862682
 20
95.81119265233629
 10
704.3598166017207
 20
420.6636899288979
  0
LWPOLYLINE
  5
2FA
330
1F
100
AcDbEntity
  8
0_Pen_No__1
  6
Continuous
100
AcDbPolyline
 90
        2
 70
   128
 43
0.0
 10
155.7802479824468
 20
151.6427024391392
 10
77.35329741439001
 20
106.3628812190826
  0
LWPOLYLINE
  5
2FB
330
1F
100
AcDbEntity
  8
0_Pen_No__1
  6
Continuous
100
AcDbPolyline
 90
        2
 70
   128
 43
0.0
 10
79.90795437667231
 20
93.66225837889519
 10
80.90377241916525
 20
78.44657355764839
  0
LWPOLYLINE
  5
2FC
330
1F
100
AcDbEntity
  8
0_Pen_No__1
  6
Continuous
100
AcDbPolyline
 90
        2
 70
   128
 43
0.0
 10
80.90377241916525
 20
78.44657355764839
 10
90.71790364934907
 20
57.88252102676206
  0
LWPOLYLINE
  5
2FD
330
1F
100
AcDbEntity
  8
0_Pen_No__1
  6
Continuous
100
AcDbPolyline
 90
        2
 70
   128
 43
0.0
 10
90.71790364934907
 20
57.88252102676206
 10
104.8810898561612
 20
42.20483526097707
  0
LWPOLYLINE
  5
2FE
330
1F
100
AcDbEntity
  8
0_Pen_No__1
  6
Continuous
100
AcDbPolyline
 90
        2
 70
   128
 43
0.0
 10
155.7802479824468
 20
151.6427024391392
 10
155.7802479824468
 20
71.59147803512911
  0
LWPOLYLINE
  5
2FF
330
1F
100
AcDbEntity
  8
0_Pen_No__1
  6
Continuous
100
AcDbPolyline
 90
        2
 70
   128
 43
0.0
 10
77.35329741439001
 20
106.3628812190826
 10
77.35329741439001
 20
95.13719027020106
  0
LWPOLYLINE
  5
300
330
1F
100
AcDbEntity
  8
0_Pen_No__1
  6
Continuous
100
AcDbPolyline
 90
        2
 70
   128
 43
0.0
 10
146.6796910493628
 20
66.33726901707726
 10
155.7802479824468
 20
71.59147803512911
  0
LWPOLYLINE
  5
301
330
1F
100
AcDbEntity
  8
0_Pen_No__1
  6
Continuous
100
AcDbPolyline
 90
        2
 70
   128
 43
0.0
 10
77.35329741439001
 20
106.3628812190826
 10
343.8516239961058
 20
-47.50000004381938
  0
LWPOLYLINE
  5
302
330
1F
100
AcDbEntity
  8
0_Pen_No__1
  6
Continuous
100
AcDbPolyline
 90
        2
 70
   128
 43
0.0
 10
77.35329741439001
 20
95.13719027020106
 10
324.4081570075432
 20
-47.5000000438196
  0
LWPOLYLINE
  5
303
330
1F
100
AcDbEntity
  8
0_Pen_No__1
  6
Continuous
100
AcDbPolyline
 90
        2
 70
   128
 43
0.0
 10
90.71790364934907
 20
57.88252102676206
 10
273.2457835756672
 20
-47.50000004381938
  0
LWPOLYLINE
  5
304
330
1F
100
AcDbEntity
  8
0_Pen_No__1
  6
Continuous
100
AcDbPolyline
 90
        2
 70
   128
 43
0.0
 10
104.8810898561612
 20
42.20483526097707
 10
260.2544216097027
 20
-47.50000004381938
  0
LWPOLYLINE
  5
305
330
1F
100
AcDbEntity
  8
0_Pen_No__1
  6
Continuous
100
AcDbPolyline
 90
        2
 70
   128
 43
0.0
 10
155.7802479824468
 20
71.59147803512911
 10
362.0527378622731
 20
-47.5000000438196
  0
LWPOLYLINE
  5
306
330
1F
100
AcDbEntity
  8
0_Pen_No__1
  6
Continuous
100
AcDbPolyline
 90
        2
 70
   128
 43
0.0
 10
155.7802479824468
 20
151.6427024391392
 10
500.7055251322197
 20
-47.5000000438196
  0
LWPOLYLINE
  5
307
330
1F
100
AcDbEntity
  8
0_Pen_No__1
  6
Continuous
100
AcDbPolyline
 90
        2
 70
   128
 43
0.0
 10
42.63059706586758
 20
421.9717244921278
 10
48.44689793593737
 20
407.6336366501482
  0
LWPOLYLINE
  5
308
330
1F
100
AcDbEntity
  8
0_Pen_No__1
  6
Continuous
100
AcDbPolyline
 90
        2
 70
   128
 43
0.0
 10
48.44689793593737
 20
407.6336366501482
 10
61.62710106894886
 20
408.4089427167957
  0
LWPOLYLINE
  5
309
330
1F
100
AcDbEntity
  8
0_Pen_No__1
  6
Continuous
100
AcDbPolyline
 90
        2
 70
   128
 43
0.0
 10
61.62710106894886
 20
408.4089427167957
 10
71.90838289750312
 20
403.4953576917363
  0
LWPOLYLINE
  5
30A
330
1F
100
AcDbEntity
  8
0_Pen_No__1
  6
Continuous
100
AcDbPolyline
 90
        2
 70
   128
 43
0.0
 10
71.90838289750312
 20
403.4953576917363
 10
81.0097527351421
 20
372.7448636510057
  0
LWPOLYLINE
  5
30B
330
1F
100
AcDbEntity
  8
0_Pen_No__1
  6
Continuous
100
AcDbPolyline
 90
        2
 70
   128
 43
0.0
 10
81.0097527351421
 20
372.7448636510057
 10
97.29118013474447
 20
357.2387423180531
  0
LWPOLYLINE
  5
30C
330
1F
100
AcDbEntity
  8
0_Pen_No__1
  6
Continuous
100
AcDbPolyline
 90
        2
 70
   128
 43
0.0
 10
97.29118013474447
 20
357.2387423180531
 10
106.5948529345171
 20
346.3844573849867
  0
LWPOLYLINE
  5
30D
330
1F
100
AcDbEntity
  8
0_Pen_No__1
  6
Continuous
100
AcDbPolyline
 90
        2
 70
   128
 43
0.0
 10
106.5948529345171
 20
346.3844573849867
 10
120.6741153715904
 20
332.3051949479153
  0
LWPOLYLINE
  5
30E
330
1F
100
AcDbEntity
  8
0_Pen_No__1
  6
Continuous
100
AcDbPolyline
 90
        2
 70
   128
 43
0.0
 10
114.2145086984212
 20
328.5757392800047
 10
115.8985257342899
 20
313.0462965191395
  0
LWPOLYLINE
  5
30F
330
1F
100
AcDbEntity
  8
0_Pen_No__1
  6
Continuous
100
AcDbPolyline
 90
        2
 70
   128
 43
0.0
 10
115.8985257342899
 20
313.0462965191395
 10
125.4671416150044
 20
305.0724499518783
  0
LWPOLYLINE
  5
310
330
1F
100
AcDbEntity
  8
0_Pen_No__1
  6
Continuous
100
AcDbPolyline
 90
        2
 70
   128
 43
0.0
 10
125.4671416150044
 20
305.0724499518783
 10
134.5058713338354
 20
272.7303810534637
  0
LWPOLYLINE
  5
311
330
1F
100
AcDbEntity
  8
0_Pen_No__1
  6
Continuous
100
AcDbPolyline
 90
        2
 70
   128
 43
0.0
 10
287.268183412716
 20
487.179495028018
 10
281.2060056127126
 20
490.6794950280199
  0
LWPOLYLINE
  5
312
330
1F
100
AcDbEntity
  8
0_Pen_No__1
  6
Continuous
100
AcDbPolyline
 90
        2
 70
   128
 43
0.0
 10
287.6420771562766
 20
521.203825692048
 10
281.5798993562739
 20
524.7038256920501
  0
LWPOLYLINE
  5
313
330
1F
100
AcDbEntity
  8
0_Pen_No__1
  6
Continuous
100
AcDbPolyline
 90
        2
 70
   128
 43
0.0
 10
298.2403794674469
 20
397.8152153328173
 10
301.7677495143769
 20
399.8517433878431
  0
LWPOLYLINE
  5
314
330
1F
100
AcDbEntity
  8
0_Pen_No__1
  6
Continuous
100
AcDbPolyline
 90
        2
 70
   128
 43
0.0
 10
296.5083286617705
 20
398.8152153360945
 10
301.8466421181065
 20
401.8972920605971
  0
LWPOLYLINE
  5
315
330
1F
100
AcDbEntity
  8
0_Pen_No__1
  6
Continuous
100
AcDbPolyline
 90
        2
 70
   128
 43
0.0
 10
323.5474870713395
 20
357.9537687111423
 10
317.4853092713366
 20
361.4537687111442
  0
LWPOLYLINE
  5
316
330
1F
100
AcDbEntity
  8
0_Pen_No__1
  6
Continuous
100
AcDbPolyline
 90
        2
 70
   128
 43
0.0
 10
324.6207088478425
 20
368.9926212694618
 10
318.5585310478396
 20
372.4926212694636
  0
LWPOLYLINE
  5
317
330
1F
100
AcDbEntity
  8
0_Pen_No__1
  6
Continuous
100
AcDbPolyline
 90
        2
 70
   128
 43
0.0
 10
309.0060874680573
 20
393.5626867550494
 10
302.9439096680542
 20
397.0626867550512
  0
LWPOLYLINE
  5
318
330
1F
100
AcDbEntity
  8
0_Pen_No__1
  6
Continuous
100
AcDbPolyline
 90
        2
 70
   128
 43
0.0
 10
306.1716534752479
 20
406.0513178282176
 10
300.1094756752449
 20
409.5513178282194
  0
LWPOLYLINE
  5
319
330
1F
100
AcDbEntity
  8
0_Pen_No__1
  6
Continuous
100
AcDbPolyline
 90
        2
 70
   128
 43
0.0
 10
301.1589988609597
 20
450.4806971471759
 10
295.0968210609568
 20
453.9806971471777
  0
LWPOLYLINE
  5
31A
330
1F
100
AcDbEntity
  8
0_Pen_No__1
  6
Continuous
100
AcDbPolyline
 90
        2
 70
   128
 43
0.0
 10
154.9701709194362
 20
265.3911117178448
 10
169.1781331747453
 20
244.826955822003
  0
LWPOLYLINE
  5
31B
330
1F
100
AcDbEntity
  8
0_Pen_No__1
  6
Continuous
100
AcDbPolyline
 90
        2
 70
   128
 43
0.0
 10
134.5058713338354
 20
272.7303810534637
 10
154.9701709194362
 20
265.3911117178448
  0
LWPOLYLINE
  5
31C
330
1F
100
AcDbEntity
  8
0_Pen_No__1
  6
Continuous
100
AcDbPolyline
 90
        2
 70
   128
 43
0.0
 10
169.1781331747453
 20
244.826955822003
 10
170.5687776043256
 20
230.4569633830015
  0
LWPOLYLINE
  5
31D
330
1F
100
AcDbEntity
  8
0_Pen_No__1
  6
Continuous
100
AcDbPolyline
 90
        2
 70
   128
 43
0.0
 10
159.5048884207218
 20
321.2167768457464
 10
159.5048884207218
 20
258.8277048080895
  0
LWPOLYLINE
  5
31E
330
1F
100
AcDbEntity
  8
0_Pen_No__1
  6
Continuous
100
AcDbPolyline
 90
        2
 70
   128
 43
0.0
 10
159.5048884207218
 20
224.0692239566499
 10
159.5048884207218
 20
170.2239826478488
  0
LWPOLYLINE
  5
31F
330
1F
100
AcDbEntity
  8
0_Pen_No__1
  6
Continuous
100
AcDbPolyline
 90
        2
 70
   128
 43
0.0
 10
58.66980166427282
 20
431.2319636250709
 10
77.82362790806152
 20
466.7248165204571
  0
LWPOLYLINE
  5
320
330
1F
100
AcDbEntity
  8
0_Pen_No__1
  6
Continuous
100
AcDbPolyline
 90
        2
 70
   128
 43
0.0
 10
77.82362790806152
 20
466.7248165204571
 10
121.2407676403273
 20
492.309916719828
  0
LWPOLYLINE
  5
321
330
1F
100
AcDbEntity
  8
0_Pen_No__1
  6
Continuous
100
AcDbPolyline
 90
        2
 70
   128
 43
0.0
 10
121.2407676403273
 20
492.309916719828
 10
160.7813770393551
 20
544.2554231852175
  0
LWPOLYLINE
  5
322
330
1F
100
AcDbEntity
  8
0_Pen_No__1
  6
Continuous
100
AcDbPolyline
 90
        2
 70
   128
 43
0.0
 10
160.7813770393551
 20
544.2554231852175
 10
208.0750471048589
 20
576.0429719177695
  0
LWPOLYLINE
  5
323
330
1F
100
AcDbEntity
  8
0_Pen_No__1
  6
Continuous
100
AcDbPolyline
 90
        2
 70
   128
 43
0.0
 10
208.0750471048589
 20
576.0429719177695
 10
256.1440232370105
 20
579.1441961843599
  0
LWPOLYLINE
  5
324
330
1F
100
AcDbEntity
  8
0_Pen_No__1
  6
Continuous
100
AcDbPolyline
 90
        2
 70
   128
 43
0.0
 10
256.1440232370105
 20
579.1441961843599
 10
281.6192338450239
 20
559.9518788727921
  0
LWPOLYLINE
  5
325
330
1F
100
AcDbEntity
  8
0_Pen_No__1
  6
Continuous
100
AcDbPolyline
 90
        2
 70
   128
 43
0.0
 10
159.5048884207218
 20
321.2167768457464
 10
161.6179751943501
 20
321.2167768457464
  0
LWPOLYLINE
  5
327
330
1F
100
AcDbEntity
  8
0_Pen_No__1
  6
Above
100
AcDbPolyline
 90
        2
 70
   128
 43
0.0
 10
227.5142775323864
 20
337.816889381057
 10
250.4769133216458
 20
309.4777133624352
  0
LWPOLYLINE
  5
328
330
1F
100
AcDbEntity
  8
0_Pen_No__1
  6
Above
100
AcDbPolyline
 90
        2
 70
   128
 43
0.0
 10
101.9430165346307
 20
351.81159985152
 10
280.6585936038903
 20
491.3804469601882
  0
LWPOLYLINE
  5
329
330
1F
100
AcDbEntity
  8
0_Pen_No__1
  6
Above
100
AcDbPolyline
 90
        2
 70
   128
 43
0.0
 10
126.8784870433581
 20
300.0224227353122
 10
146.4826727077546
 20
386.5950729244369
  0
LWPOLYLINE
  5
32A
330
1F
100
AcDbEntity
  8
0_Pen_No__1
  6
Above
100
AcDbPolyline
 90
        2
 70
   128
 43
0.0
 10
115.4349238987884
 20
317.3214778355436
 10
172.1153820793313
 20
247.3696876344439
  0
LWPOLYLINE
  5
32B
330
1F
100
AcDbEntity
  8
0_Pen_No__1
  6
Above
100
AcDbPolyline
 90
        2
 70
   128
 43
0.0
 10
140.233137562195
 20
270.676367466001
 10
170.7794500770547
 20
405.569765905872
  0
LWPOLYLINE
  5
32C
330
1F
100
AcDbEntity
  8
0_Pen_No__1
  6
Above
100
AcDbPolyline
 90
        2
 70
   128
 43
0.0
 10
115.3862704224669
 20
337.593039897038
 10
122.1858953384543
 20
367.6203799430012
  0
LWPOLYLINE
  5
32D
330
1F
100
AcDbEntity
  8
0_Pen_No__1
  6
Above
100
AcDbPolyline
 90
        2
 70
   128
 43
0.0
 10
266.4804202922934
 20
480.3079297478828
 10
286.2751619447859
 20
455.8783880749916
  0
LWPOLYLINE
  5
32E
330
1F
100
AcDbEntity
  8
0_Pen_No__1
  6
Above
100
AcDbPolyline
 90
        2
 70
   128
 43
0.0
 10
248.7065328015974
 20
308.0951256094323
 10
286.7409861009913
 20
476.0563700595418
  0
LWPOLYLINE
  5
32F
330
1F
100
AcDbEntity
  8
0_Pen_No__1
  6
Continuous
100
AcDbPolyline
 90
        2
 70
   128
 43
0.0
 10
227.5142775323866
 20
242.8166991480177
 10
192.8732614188535
 20
222.8166990824695
  0
LWPOLYLINE
  5
330
330
1F
100
AcDbEntity
  8
0_Pen_No__1
  6
Continuous
100
AcDbPolyline
 90
        2
 70
   128
 43
0.0
 10
192.8732614188535
 20
222.8166990824695
 10
175.5527533620866
 20
232.8166991152435
  0
LWPOLYLINE
  5
331
330
1F
100
AcDbEntity
  8
0_Pen_No__1
  6
Continuous
100
AcDbPolyline
 90
        2
 70
   128
 43
0.0
 10
175.5527533620866
 20
333.7494393318704
 10
159.5048884207218
 20
321.2167768457464
  0
LWPOLYLINE
  5
332
330
1F
100
AcDbEntity
  8
0_Pen_No__1
  6
Continuous
100
AcDbPolyline
 90
        2
 70
   128
 43
0.0
 10
161.6179751943501
 20
305.787380229492
 10
175.5527533620866
 20
316.6698167550574
  0
LWPOLYLINE
  5
333
330
1F
100
AcDbEntity
  8
0_Pen_No__1
  6
Above
100
AcDbPolyline
 90
        2
 70
   128
 43
0.0
 10
227.5142775323866
 20
306.0534173230948
 10
234.7141712050675
 20
297.1677190096237
  0
LWPOLYLINE
  5
334
330
1F
100
AcDbEntity
  8
0_Pen_No__1
  6
Continuous
100
AcDbPolyline
 90
        2
 70
   128
 43
0.0
 10
291.2502322769601
 20
424.1039792680864
 10
227.5142775323866
 20
374.3290583073745
  0
LWPOLYLINE
  5
335
330
1F
100
AcDbEntity
  8
0_Pen_No__1
  6
Above
100
AcDbPolyline
 90
        2
 70
   128
 43
0.0
 10
227.5142775323868
 20
302.8300919005865
 10
267.9665595542558
 20
481.4685378316125
  0
LWPOLYLINE
  5
336
330
1F
100
AcDbEntity
  8
0_Pen_No__1
  6
Above
100
AcDbPolyline
 90
        2
 70
   128
 43
0.0
 10
227.5142775323866
 20
374.3290583073745
 10
175.5527533620866
 20
333.7494393318704
  0
LWPOLYLINE
  5
337
330
1F
100
AcDbEntity
  8
0_Pen_No__1
  6
Above
100
AcDbPolyline
 90
        2
 70
   128
 43
0.0
 10
175.5527533620866
 20
316.6698167550574
 10
227.5142775323868
 20
357.2494357305617
  0
LWPOLYLINE
  5
338
330
1F
100
AcDbEntity
  8
0_Pen_No__1
  6
Continuous
100
AcDbPolyline
 90
        2
 70
   128
 43
0.0
 10
227.5142775323866
 20
577.2971158163194
 10
227.5142775323866
 20
242.8166991480177
  0
LWPOLYLINE
  5
339
330
1F
100
AcDbEntity
  8
0_Pen_No__1
  6
Continuous
100
AcDbPolyline
 90
        2
 70
   128
 43
0.0
 10
192.8732614188535
 20
565.8253782599621
 10
192.8732614188535
 20
222.8166990824695
  0
LWPOLYLINE
  5
33A
330
1F
100
AcDbEntity
  8
0_Pen_No__1
  6
Continuous
100
AcDbPolyline
 90
        2
 70
   128
 43
0.0
 10
175.5527533620866
 20
554.1837253037748
 10
175.5527533620866
 20
232.8166991152435
  0
LWPOLYLINE
  5
33B
330
1F
100
AcDbEntity
  8
0_Pen_No__1
  6
Above
100
AcDbPolyline
 90
        2
 70
   128
 43
0.0
 10
171.9039675928247
 20
406.4479636310131
 10
175.5527533620864
 20
401.9448402475155
  0
LWPOLYLINE
  5
33C
330
1F
100
AcDbEntity
  8
0_Pen_No__1
  6
Above
100
AcDbPolyline
 90
        2
 70
   128
 43
0.0
 10
156.1412254762467
 20
394.1379692782015
 10
175.5527533620866
 20
370.181368189553
  0
LWPOLYLINE
  5
33D
330
1F
100
AcDbEntity
  8
0_Pen_No__1
  6
Above
100
AcDbPolyline
 90
        2
 70
   128
 43
0.0
 10
157.6453866920797
 20
259.2487848726587
 10
175.5686223951061
 20
338.3983114757122
  0
LWPOLYLINE
  5
33E
330
1F
100
AcDbEntity
  8
0_Pen_No__1
  6
Above
100
AcDbPolyline
 90
        2
 70
   128
 43
0.0
 10
140.3784833596684
 20
381.8279749253896
 10
175.5686223951063
 20
338.3983114757124
  0
LWPOLYLINE
  5
33F
330
1F
100
AcDbEntity
  8
0_Pen_No__1
  6
Above
100
AcDbPolyline
 90
        2
 70
   128
 43
0.0
 10
124.6157412430906
 20
369.5179805725782
 10
175.5527533620866
 20
306.6544240736285
  0
LWPOLYLINE
  5
340
330
1F
100
AcDbEntity
  8
0_Pen_No__1
  6
Above
100
AcDbPolyline
 90
        2
 70
   128
 43
0.0
 10
109.0790887968003
 20
356.9289592377999
 10
175.5527533620866
 20
274.8909520156661
  0
LWPOLYLINE
  5
341
330
1F
100
AcDbEntity
  8
0_Pen_No__1
  6
Above
100
AcDbPolyline
 90
        2
 70
   128
 43
0.0
 10
219.1921939425592
 20
443.377946689448
 10
219.3085197594573
 20
443.2343839978284
  0
LWPOLYLINE
  5
342
330
1F
100
AcDbEntity
  8
0_Pen_No__1
  6
Above
100
AcDbPolyline
 90
        2
 70
   128
 43
0.0
 10
227.5142775323866
 20
401.3438334969816
 10
282.0023975548019
 20
334.0977020680585
  0
LWPOLYLINE
  5
343
330
1F
100
AcDbEntity
  8
0_Pen_No__1
  6
Above
100
AcDbPolyline
 90
        2
 70
   128
 43
0.0
 10
227.5142775323866
 20
391.1506696294035
 10
243.6697821849556
 20
462.4938448501775
  0
LWPOLYLINE
  5
344
330
1F
100
AcDbEntity
  8
0_Pen_No__1
  6
Above
100
AcDbPolyline
 90
        2
 70
   128
 43
0.0
 10
227.5142775323866
 20
369.5803614390193
 10
266.2396554382238
 20
321.7877077152468
  0
LWPOLYLINE
  5
345
330
1F
100
AcDbEntity
  8
0_Pen_No__1
  6
Above
100
AcDbPolyline
 90
        2
 70
   128
 43
0.0
 10
344.6519186307629
 20
330.9639121551943
 10
704.3598166017207
 20
611.8796411530817
  0
LWPOLYLINE
  5
346
330
1F
100
AcDbEntity
  8
0_Pen_No__1
  6
Continuous
100
AcDbPolyline
 90
        2
 70
   128
 43
0.0
 10
324.8349832832345
 20
340.3497657710116
 10
722.8946246970196
 20
651.2164856377499
  0
LWPOLYLINE
  5
347
330
1F
100
AcDbEntity
  8
0_Pen_No__1
  6
Continuous
100
AcDbPolyline
 90
        2
 70
   128
 43
0.0
 10
326.5670340889111
 20
339.3497657677341
 10
724.2315582323417
 20
649.9079167743854
  0
LWPOLYLINE
  5
348
330
1F
100
AcDbEntity
  8
0_Pen_No__1
  6
Continuous
100
AcDbPolyline
 90
        2
 70
   128
 43
0.0
 10
326.5670340889111
 20
313.341925372966
 10
724.2315582323417
 20
623.9000763796178
  0
LWPOLYLINE
  5
349
330
1F
100
AcDbEntity
  8
0_Pen_No__1
  6
Above
100
AcDbPolyline
 90
        2
 70
   128
 43
0.0
 10
250.7176781757154
 20
467.9979353950713
 10
296.6845141204719
 20
411.2682869865519
  0
LWPOLYLINE
  5
34A
330
1F
100
AcDbEntity
  8
0_Pen_No__1
  6
Above
100
AcDbPolyline
 90
        2
 70
   128
 43
0.0
 10
168.6575364486003
 20
245.5804510835288
 10
287.1364626161503
 20
338.1071765265468
  0
LWPOLYLINE
  5
34B
330
1F
100
AcDbEntity
  8
0_Pen_No__1
  6
Above
100
AcDbPolyline
 90
        2
 70
   128
 43
0.0
 10
234.9549360591372
 20
455.6879410422598
 10
280.7586781638383
 20
399.1595737533512
  0
LWPOLYLINE
  5
34C
330
1F
100
AcDbEntity
  8
0_Pen_No__1
  6
Above
100
AcDbPolyline
 90
        2
 70
   128
 43
0.0
 10
273.003310170898
 20
327.0698185908677
 10
278.580590647379
 20
351.6992502827906
  0
LWPOLYLINE
  5
34D
330
1F
100
AcDbEntity
  8
0_Pen_No__1
  6
Continuous
100
AcDbPolyline
 90
        2
 70
   128
 43
0.0
 10
278.6719529544186
 20
419.7653904066619
 10
276.939902148742
 20
420.7653904099391
  0
LWPOLYLINE
  5
34E
330
1F
100
AcDbEntity
  8
0_Pen_No__1
  6
Above
100
AcDbPolyline
 90
        2
 70
   128
 43
0.0
 10
227.5142775323866
 20
433.1073055549438
 10
276.6730963570312
 20
372.4382938472041
  0
LWPOLYLINE
  5
350
330
1F
100
AcDbEntity
  8
0_Pen_No__1
  6
AStair_dashed
100
AcDbPolyline
 90
        2
 70
   128
 43
0.0
 10
488.9996483130852
 20
567.4155401664075
 10
565.4057703998503
 20
627.0852933382942
  0
LWPOLYLINE
  5
351
330
1F
100
AcDbEntity
  8
0_Pen_No__1
  6
AStair_dashed
100
AcDbPolyline
 90
        2
 70
   128
 43
0.0
 10
488.9996483130852
 20
567.4155401664075
 10
499.9242469627243
 20
561.1082201676875
  0
LWPOLYLINE
  5
352
330
1F
100
AcDbEntity
  8
0_Pen_No__1
  6
Continuous
100
AcDbPolyline
 90
        2
 70
   128
 43
0.0
 10
227.5142775323868
 20
357.2494357305617
 10
280.720235908749
 20
398.8009019859221
  0
LWPOLYLINE
  5
353
330
1F
100
AcDbEntity
  8
0_Pen_No__1
  6
AStair_dashed
100
AcDbPolyline
 90
        2
 70
   128
 43
0.0
 10
368.0509566451537
 20
458.1210972997275
 10
368.0509566451537
 20
421.3080220399458
  0
LWPOLYLINE
  5
354
330
1F
100
AcDbEntity
  8
0_Pen_No__1
  6
AStair_dashed
100
AcDbPolyline
 90
        2
 70
   128
 43
0.0
 10
576.3303690494896
 20
620.7779733395736
 10
576.3303690494898
 20
583.9648980797919
  0
LWPOLYLINE
  5
355
330
1F
100
AcDbEntity
  8
0_Pen_No__1
  6
Continuous
100
AcDbPolyline
 90
        2
 70
   128
 43
0.0
 10
280.720235908749
 20
404.7586641265616
 10
291.6448345583882
 20
361.6382688680592
  0
LWPOLYLINE
  5
356
330
1F
100
AcDbEntity
  8
0_Pen_No__1
  6
AStair_dashed
100
AcDbPolyline
 90
        2
 70
   128
 43
0.0
 10
499.9242469627243
 20
561.1082201676875
 10
499.9242469627243
 20
524.2951449079053
  0
LWPOLYLINE
  5
357
330
1F
100
AcDbEntity
  8
0_Pen_No__1
  6
Continuous
100
AcDbPolyline
 90
        2
 70
   128
 43
0.0
 10
293.1017508496801
 20
360.7555640952939
 10
296.8820846056457
 20
362.9381408164649
  0
LWPOLYLINE
  5
358
330
1F
100
AcDbEntity
  8
0_Pen_No__1
  6
Continuous
100
AcDbPolyline
 90
        2
 70
   128
 43
0.0
 10
294.8338016553566
 20
359.7555640920166
 10
296.8820846056457
 20
360.9381408099104
  0
LWPOLYLINE
  5
359
330
1F
100
AcDbEntity
  8
0_Pen_No__1
  6
Continuous
100
AcDbPolyline
 90
        2
 70
   128
 43
0.0
 10
278.580590647379
 20
351.6992502827906
 10
293.1017508456386
 20
360.0830460688372
  0
LWPOLYLINE
  5
35A
330
1F
100
AcDbEntity
  8
0_Pen_No__1
  6
AStair_dashed
100
AcDbPolyline
 90
        2
 70
   128
 43
0.0
 10
499.9242469627243
 20
561.1082201676875
 10
576.3303690494896
 20
620.7779733395736
  0
LWPOLYLINE
  5
35B
330
1F
100
AcDbEntity
  8
0_Pen_No__1
  6
AStair_dashed
100
AcDbPolyline
 90
        2
 70
   128
 43
0.0
 10
488.9996483130849
 20
530.6024649066248
 10
499.9242469627243
 20
524.2951449079053
  0
LWPOLYLINE
  5
35C
330
1F
100
AcDbEntity
  8
0_Pen_No__1
  6
AStair_dashed
100
AcDbPolyline
 90
        2
 70
   128
 43
0.0
 10
291.6448345583882
 20
398.4513441278413
 10
368.0509566451537
 20
458.1210972997275
  0
LWPOLYLINE
  5
35D
330
1F
100
AcDbEntity
  8
0_Pen_No__1
  6
AStair_dashed
100
AcDbPolyline
 90
        2
 70
   128
 43
0.0
 10
565.4057703998503
 20
627.0852933382942
 10
576.3303690494896
 20
620.7779733395736
  0
LWPOLYLINE
  5
35E
330
1F
100
AcDbEntity
  8
0_Pen_No__1
  6
AStair_dashed
100
AcDbPolyline
 90
        2
 70
   128
 43
0.0
 10
295.2447644261788
 20
416.1016692144116
 10
357.1263579955142
 20
464.428417298448
  0
LWPOLYLINE
  5
35F
330
1F
100
AcDbEntity
  8
0_Pen_No__1
  6
AStair_dashed
100
AcDbPolyline
 90
        2
 70
   128
 43
0.0
 10
357.1263579955142
 20
464.428417298448
 10
368.0509566451537
 20
458.1210972997275
  0
LWPOLYLINE
  5
360
330
1F
100
AcDbEntity
  8
0_Pen_No__1
  6
AStair_dashed
100
AcDbPolyline
 90
        2
 70
   128
 43
0.0
 10
291.6448345583882
 20
361.6382688680592
 10
368.0509566451537
 20
421.3080220399458
  0
LWPOLYLINE
  5
361
330
1F
100
AcDbEntity
  8
0_Pen_No__1
  6
Continuous
100
AcDbPolyline
 90
        2
 70
   128
 43
0.0
 10
280.720235908749
 20
404.7586641265616
 10
295.2447644261788
 20
416.1016692144116
  0
LWPOLYLINE
  5
362
330
1F
100
AcDbEntity
  8
0_Pen_No__1
  6
AStair_dashed
100
AcDbPolyline
 90
        2
 70
   128
 43
0.0
 10
488.9996483130849
 20
530.6024649066248
 10
488.9996483130849
 20
567.4155401664077
  0
LWPOLYLINE
  5
363
330
1F
100
AcDbEntity
  8
0_Pen_No__1
  6
AStair_dashed
100
AcDbPolyline
 90
        2
 70
   128
 43
0.0
 10
499.9242469627243
 20
524.2951449079053
 10
576.3303690494898
 20
583.9648980797919
  0
LWPOLYLINE
  5
364
330
1F
100
AcDbEntity
  8
0_Pen_No__1
  6
Continuous
100
AcDbPolyline
 90
        2
 70
   128
 43
0.0
 10
71.65954195480207
 20
103.0755899574248
 10
50.04181151594756
 20
90.59458741474324
  0
LWPOLYLINE
  5
365
330
1F
100
AcDbEntity
  8
0_Pen_No__1
  6
Continuous
100
AcDbPolyline
 90
        2
 70
   128
 43
0.0
 10
70.11249283751964
 20
112.182400761983
 10
41.38155748756422
 20
95.59458743113025
  0
LWPOLYLINE
  5
366
330
1F
100
AcDbEntity
  8
0_Pen_No__1
  6
Continuous
100
AcDbPolyline
 90
        2
 70
   128
 43
0.0
 10
305.4992335759956
 20
439.0140271625388
 10
287.268183412716
 20
487.179495028018
  0
LWPOLYLINE
  5
367
330
1F
100
AcDbEntity
  8
0_Pen_No__1
  6
Continuous
100
AcDbPolyline
 90
        2
 70
   128
 43
0.0
 10
287.268183412716
 20
487.179495028018
 10
287.6420771562766
 20
521.203825692048
  0
LWPOLYLINE
  5
368
330
1F
100
AcDbEntity
  8
0_Pen_No__1
  6
Continuous
100
AcDbPolyline
 90
        2
 70
   128
 43
0.0
 10
287.6420771562766
 20
521.203825692048
 10
284.9860784460194
 20
526.515823112563
  0
LWPOLYLINE
  5
369
330
1F
100
AcDbEntity
  8
0_Pen_No__1
  6
Continuous
100
AcDbPolyline
 90
        2
 70
   128
 43
0.0
 10
281.5798993562739
 20
524.7038256920501
 10
281.2060056127126
 20
490.6794950280199
  0
LWPOLYLINE
  5
36A
330
1F
100
AcDbEntity
  8
0_Pen_No__1
  6
Continuous
100
AcDbPolyline
 90
        2
 70
   128
 43
0.0
 10
281.2060056127126
 20
490.6794950280199
 10
296.0465631038656
 20
451.4715290280334
  0
LWPOLYLINE
  5
36B
330
1F
100
AcDbEntity
  8
0_Pen_No__1
  6
Continuous
100
AcDbPolyline
 90
        2
 70
   128
 43
0.0
 10
281.6192338450239
 20
529.9518788727945
 10
284.9860784460194
 20
526.515823112563
  0
LWPOLYLINE
  5
36C
330
1F
100
AcDbEntity
  8
0_Pen_No__1
  6
Continuous
100
AcDbPolyline
 90
        2
 70
   128
 43
0.0
 10
276.3905874854664
 20
529.7793055569174
 10
281.5798993562739
 20
524.7038256920501
  0
LWPOLYLINE
  5
36D
330
1F
100
AcDbEntity
  8
0_Pen_No__1
  6
Continuous
100
AcDbPolyline
 90
        2
 70
   128
 43
0.0
 10
324.6207088478425
 20
368.9926212694618
 10
323.5474870713393
 20
357.9537687111426
  0
LWPOLYLINE
  5
36E
330
1F
100
AcDbEntity
  8
0_Pen_No__1
  6
Continuous
100
AcDbPolyline
 90
        2
 70
   128
 43
0.0
 10
298.2403794674469
 20
331.6963271153774
 10
298.2403794674469
 20
397.8152153328173
  0
LWPOLYLINE
  5
36F
330
1F
100
AcDbEntity
  8
0_Pen_No__1
  6
Continuous
100
AcDbPolyline
 90
        2
 70
   128
 43
0.0
 10
296.5083286617702
 20
330.6963271186542
 10
296.5083286617705
 20
398.8152153360945
  0
LWPOLYLINE
  5
370
330
1F
100
AcDbEntity
  8
0_Pen_No__1
  6
Continuous
100
AcDbPolyline
 90
        2
 70
   128
 43
0.0
 10
324.8349832832345
 20
316.3419253762439
 10
298.2403794674469
 20
331.6963271153774
  0
LWPOLYLINE
  5
371
330
1F
100
AcDbEntity
  8
0_Pen_No__1
  6
Continuous
100
AcDbPolyline
 90
        2
 70
   128
 43
0.0
 10
305.4992335759956
 20
409.0140271625412
 10
309.0060874680573
 20
393.5626867550494
  0
LWPOLYLINE
  5
372
330
1F
100
AcDbEntity
  8
0_Pen_No__1
  6
Continuous
100
AcDbPolyline
 90
        2
 70
   128
 43
0.0
 10
309.0060874680573
 20
393.5626867550494
 10
324.6207088478425
 20
368.9926212694618
  0
LWPOLYLINE
  5
373
330
1F
100
AcDbEntity
  8
0_Pen_No__1
  6
Continuous
100
AcDbPolyline
 90
        2
 70
   128
 43
0.0
 10
318.5585310478396
 20
372.4926212694636
 10
302.9439096680542
 20
397.0626867550512
  0
LWPOLYLINE
  5
374
330
1F
100
AcDbEntity
  8
0_Pen_No__1
  6
Continuous
100
AcDbPolyline
 90
        2
 70
   128
 43
0.0
 10
318.5585310478396
 20
372.4926212694636
 10
317.485309271335
 20
361.4537687111448
  0
LWPOLYLINE
  5
375
330
1F
100
AcDbEntity
  8
0_Pen_No__1
  6
Continuous
100
AcDbPolyline
 90
        2
 70
   128
 43
0.0
 10
302.9439096680542
 20
397.0626867550512
 10
300.1800639011771
 20
409.240303243292
  0
LWPOLYLINE
  5
376
330
1F
100
AcDbEntity
  8
0_Pen_No__1
  6
Continuous
100
AcDbPolyline
 90
        2
 70
   128
 43
0.0
 10
326.5670340889111
 20
339.3497657677341
 10
326.5670340889111
 20
313.341925372966
  0
LWPOLYLINE
  5
377
330
1F
100
AcDbEntity
  8
0_Pen_No__1
  6
Continuous
100
AcDbPolyline
 90
        2
 70
   128
 43
0.0
 10
324.8349832832345
 20
340.3497657710116
 10
324.8349832832345
 20
316.3419253762439
  0
LWPOLYLINE
  5
378
330
1F
100
AcDbEntity
  8
0_Pen_No__1
  6
Continuous
100
AcDbPolyline
 90
        2
 70
   128
 43
0.0
 10
324.8349832832345
 20
340.3497657710116
 10
326.5670340889111
 20
339.3497657677341
  0
LWPOLYLINE
  5
379
330
1F
100
AcDbEntity
  8
0_Pen_No__1
  6
Continuous
100
AcDbPolyline
 90
        2
 70
   128
 43
0.0
 10
276.9399021527834
 20
350.4407661113295
 10
276.939902148742
 20
420.7653904099391
  0
LWPOLYLINE
  5
37A
330
1F
100
AcDbEntity
  8
0_Pen_No__1
  6
Continuous
100
AcDbPolyline
 90
        2
 70
   128
 43
0.0
 10
293.1017508456386
 20
343.3154544967435
 10
278.6719529584601
 20
351.6465022276637
  0
LWPOLYLINE
  5
37B
330
1F
100
AcDbEntity
  8
0_Pen_No__1
  6
Continuous
100
AcDbPolyline
 90
        2
 70
   128
 43
0.0
 10
294.8338016553566
 20
340.1097183738547
 10
294.8338016553566
 20
359.7555640920166
  0
LWPOLYLINE
  5
37C
330
1F
100
AcDbEntity
  8
0_Pen_No__1
  6
Continuous
100
AcDbPolyline
 90
        2
 70
   128
 43
0.0
 10
293.1017508456386
 20
343.3154544967435
 10
293.1017508496801
 20
360.7555640952939
  0
LWPOLYLINE
  5
37D
330
1F
100
AcDbEntity
  8
0_Pen_No__1
  6
Continuous
100
AcDbPolyline
 90
        2
 70
   128
 43
0.0
 10
278.6719529584601
 20
351.6465022276637
 10
278.6719529544186
 20
419.7653904066619
  0
LWPOLYLINE
  5
37E
330
1F
100
AcDbEntity
  8
0_Pen_No__1
  6
Continuous
100
AcDbPolyline
 90
        2
 70
   128
 43
0.0
 10
294.8338016513152
 20
340.1097183738547
 10
276.9399021527834
 20
350.4407661113295
  0
LWPOLYLINE
  5
37F
330
1F
100
AcDbEntity
  8
0_Pen_No__1
  6
Continuous
100
AcDbPolyline
 90
        2
 70
   128
 43
0.0
 10
326.5670340889111
 20
313.341925372966
 10
296.5083286617702
 20
330.6963271186542
  0
LWPOLYLINE
  5
380
330
1F
100
AcDbEntity
  8
0_Pen_No__1
  6
Continuous
100
AcDbPolyline
 90
        2
 70
   128
 43
0.0
 10
280.720235908749
 20
367.945588866779
 10
280.720235908749
 20
404.7586641265616
  0
LWPOLYLINE
  5
381
330
1F
100
AcDbEntity
  8
0_Pen_No__1
  6
Continuous
100
AcDbPolyline
 90
        2
 70
   128
 43
0.0
 10
280.720235908749
 20
367.945588866779
 10
291.6448345583882
 20
361.6382688680592
  0
LWPOLYLINE
  5
382
330
1F
100
AcDbEntity
  8
0_Pen_No__1
  6
Continuous
100
AcDbPolyline
 90
        2
 70
   128
 43
0.0
 10
291.6448345583882
 20
398.4513441278413
 10
291.6448345583882
 20
361.6382688680592
  0
LWPOLYLINE
  5
383
330
1F
100
AcDbEntity
  8
0_Pen_No__1
  6
Continuous
100
AcDbPolyline
 90
        2
 70
   128
 43
0.0
 10
280.720235908749
 20
404.7586641265616
 10
291.6448345583882
 20
398.4513441278413
  0
LWPOLYLINE
  5
384
330
1F
100
AcDbEntity
  8
0_Pen_No__1
  6
Continuous
100
AcDbPolyline
 90
        2
 70
   128
 43
0.0
 10
294.8338016553566
 20
359.7555640920166
 10
293.1017508496801
 20
360.7555640952939
  0
LWPOLYLINE
  5
385
330
1F
100
AcDbEntity
  8
0_Pen_No__1
  6
Continuous
100
AcDbPolyline
 90
        2
 70
   128
 43
0.0
 10
278.6719529544186
 20
419.7653904066619
 10
289.6339631431865
 20
428.3262285223394
  0
LWPOLYLINE
  5
386
330
1F
100
AcDbEntity
  8
0_Pen_No__1
  6
Continuous
100
AcDbPolyline
 90
        2
 70
   128
 43
0.0
 10
276.939902148742
 20
420.7653904099391
 10
289.0973434952573
 20
430.2598066234002
  0
DIMENSION
  5
391
330
1F
100
AcDbEntity
  8
0
  6
Continuous
100
AcDbDimension
  2
*D1
 10
52.80046626168612
 20
92.18729748175643
 30
0.0
 11
55.87599454240755
 21
67.62851870042857
 31
0.0
 70
   160
  1
10mm min
 71
     5
 42
-1.0
 53
329.9999998915844
  3
GENERATED_STYLE__1
100
AcDbAlignedDimension
 13
54.24904425687171
 23
114.696308091632
 33
0.0
 14
62.90929828525505
 24
109.696308075245
 34
0.0
 50
329.9999998915844
100
AcDbRotatedDimension
  0
WIPEOUT
  5
398
330
1F
100
AcDbEntity
  8
Key_ Sections_Pen_No__1
  6
Wipeout_Contour
 48
4539.144869119985
 92
      296
310
28010000060000000C0000000E000000120000000C00000016000000000000C20C00000014000000010000006C00000007000000040000009CC786E7E0E287402C8FB37F11A488400000000000000000366120817A028D402C8FB37F11A488400000000000000000366120817A028D40829DE031AF73864000000000000000
310
009CC786E7E0E28740829DE031AF73864000000000000000000C0000000E000000070000008400000006000000050000009CC786E7E0E287402C8FB37F11A488400000000000000000366120817A028D402C8FB37F11A488400000000000000000366120817A028D40829DE031AF73864000000000000000009CC786E7E0E2
310
8740829DE031AF73864000000000000000009CC786E7E0E287402C8FB37F11A488400000000000000000
100
AcDbWipeout
 90
        0
 10
764.3598166017214
 20
718.4605443523471
 30
0.0
 11
163.95
 21
0.0
 31
0.0
 12
0.0
 22
70.048
 32
0.0
 13
1.0
 23
1.0
340
0
 70
    15
280
     1
281
    50
282
    50
283
     0
360
0
 71
     2
 91
        5
 14
-0.5
 24
-0.5
 14
0.5
 24
-0.5
 14
0.5
 24
0.5
 14
-0.5
 24
0.5
 14
-0.5
 24
-0.5
  0
MTEXT
  5
39B
102
{ACAD_REACTORS
330
39C
102
}
330
1F
100
AcDbEntity
  8
Key_ Sections_Pen_No__1
  6
Continuous
100
AcDbMText
 10
769.3598166017214
 20
754.2870871174841
 30
0.0
 40
12.49999999999999
 41
153.95
 71
     4
 72
     1
  1
{Palliside Rusticated \Pweatherboard fixed \Pwith Palliside nails}
  7
GENERATED_STYLE_1
 73
     1
 44
0.9558154610760363
  0
LEADER
  5
39C
330
1F
100
AcDbEntity
  8
Key_ Sections_Pen_No__1
  6
Continuous
100
AcDbLeader
  3
GENERATED_STYLE__2
 72
     1
 73
     0
 74
     0
 40
52.72875499698015
 41
149.6249999999999
 76
     3
 10
110.936679513771
 20
612.0631881150376
 30
0.0
 10
263.8131933358882
 20
700.5571421264644
 30
0.0
 10
769.2698166017213
 20
754.2870871174841
 30
0.0
340
39B
  0
WIPEOUT
  5
3A3
330
1F
100
AcDbEntity
  8
Key_ Sections_Pen_No__1
  6
Wipeout_Contour
 48
4280.725449752424
 92
      296
310
28010000060000000C0000000E000000120000000C00000016000000000000C20C00000014000000010000006C00000007000000040000009CC786E7E0E28740ACB0368AC0CA854000000000000000004038C4F1B7948B40ACB0368AC0CA854000000000000000004038C4F1B7948B40C80A9BC59FDA844000000000000000
310
009CC786E7E0E28740C80A9BC59FDA844000000000000000000C0000000E000000070000008400000006000000050000009CC786E7E0E28740ACB0368AC0CA854000000000000000004038C4F1B7948B40ACB0368AC0CA854000000000000000004038C4F1B7948B40C80A9BC59FDA844000000000000000009CC786E7E0E2
310
8740C80A9BC59FDA844000000000000000009CC786E7E0E28740ACB0368AC0CA85400000000000000000
100
AcDbWipeout
 90
        0
 10
764.3598166017214
 20
667.3280136215844
 30
0.0
 11
118.23
 21
0.0
 31
0.0
 12
0.0
 22
30.01600000000008
 32
0.0
 13
1.0
 23
1.0
340
0
 70
    15
280
     1
281
    50
282
    50
283
     0
360
0
 71
     2
 91
        5
 14
-0.5
 24
-0.5
 14
0.5
 24
-0.5
 14
0.5
 24
0.5
 14
-0.5
 24
0.5
 14
-0.5
 24
-0.5
  0
MTEXT
  5
3A4
102
{ACAD_REACTORS
330
3A5
102
}
330
1F
100
AcDbEntity
  8
Key_ Sections_Pen_No__1
  6
Continuous
100
AcDbMText
 10
769.3598166017214
 20
681.4368707644417
 30
0.0
 40
12.49999999999999
 41
108.23
 71
     4
 72
     1
  1
{Cavity battens}
  7
GENERATED_STYLE_1
 73
     1
 44
1.0
  0
LEADER
  5
3A5
330
1F
100
AcDbEntity
  8
Key_ Sections_Pen_No__1
  6
Continuous
100
AcDbLeader
  3
GENERATED_STYLE__2
 72
     1
 73
     0
 74
     0
 40
33.74583333333332
 41
55.41249999999997
 76
     3
 10
227.7343138709882
 20
523.2369878546112
 30
0.0
 10
402.0851213183349
 20
630.8932409690522
 30
0.0
 10
769.2698166017213
 20
681.4368707644417
 30
0.0
340
3A4
  0
WIPEOUT
  5
3A6
330
1F
100
AcDbEntity
  8
Key_ Sections_Pen_No__1
  6
Wipeout_Contour
 48
4215.673347295226
 92
      296
310
28010000060000000C0000000E000000120000000C00000016000000000000C20C00000014000000010000006C00000007000000040000009CC786E7E0E2874050849AFCE0D284400000000000000000EE7FA56CCCBE8C4050849AFCE0D284400000000000000000EE7FA56CCCBE8C40A692C7AE7EA2824000000000000000
310
009CC786E7E0E28740A692C7AE7EA2824000000000000000000C0000000E000000070000008400000006000000050000009CC786E7E0E2874050849AFCE0D284400000000000000000EE7FA56CCCBE8C4050849AFCE0D284400000000000000000EE7FA56CCCBE8C40A692C7AE7EA2824000000000000000009CC786E7E0E2
310
8740A692C7AE7EA2824000000000000000009CC786E7E0E2874050849AFCE0D284400000000000000000
100
AcDbWipeout
 90
        0
 10
764.3598166017214
 20
596.3118568030957
 30
0.0
 11
155.49
 21
0.0
 31
0.0
 12
0.0
 22
70.048
 32
0.0
 13
1.0
 23
1.0
340
0
 70
    15
280
     1
281
    50
282
    50
283
     0
360
0
 71
     2
 91
        5
 14
-0.5
 24
-0.5
 14
0.5
 24
-0.5
 14
0.5
 24
0.5
 14
-0.5
 24
0.5
 14
-0.5
 24
-0.5
  0
MTEXT
  5
3A7
102
{ACAD_REACTORS
330
3A8
102
}
330
1F
100
AcDbEntity
  8
Key_ Sections_Pen_No__1
  6
Continuous
100
AcDbMText
 10
769.3598166017214
 20
630.4369709968041
 30
0.0
 40
12.49999999999999
 41
145.49
 71
     4
 72
     1
  1
{Flashing tape \Papplied over top of \Papron flashing}
  7
GENERATED_STYLE_1
 73
     1
 44
0.9496448171979252
  0
LEADER
  5
3A8
330
1F
100
AcDbEntity
  8
Key_ Sections_Pen_No__1
  6
Continuous
100
AcDbLeader
  3
GENERATED_STYLE__2
 72
     1
 73
     0
 74
     0
 40
56.14533357356807
 41
143.5124999999999
 76
     3
 10
264.5172467925743
 20
419.2038224471315
 30
0.0
 10
498.6050201306336
 20
579.6019778150037
 30
0.0
 10
769.2698166017213
 20
630.4369709968041
 30
0.0
340
3A7
  0
WIPEOUT
  5
3A9
330
1F
100
AcDbEntity
  8
Key_ Sections_Pen_No__1
  6
Wipeout_Contour
 48
4045.149951578156
 92
      296
310
28010000060000000C0000000E000000120000000C00000016000000000000C20C00000014000000010000006C00000007000000040000009CC786E7E0E28740FD9993C351B082400000000000000000EE7FA56CCC1E8C40FD9993C351B082400000000000000000EE7FA56CCC1E8C40374E5C3A1020814000000000000000
310
009CC786E7E0E28740374E5C3A1020814000000000000000000C0000000E000000070000008400000006000000050000009CC786E7E0E28740FD9993C351B082400000000000000000EE7FA56CCC1E8C40FD9993C351B082400000000000000000EE7FA56CCC1E8C40374E5C3A1020814000000000000000009CC786E7E0E2
310
8740374E5C3A1020814000000000000000009CC786E7E0E28740FD9993C351B082400000000000000000
100
AcDbWipeout
 90
        0
 10
764.3598166017214
 20
548.0079238139505
 30
0.0
 11
135.49
 21
0.0
 31
0.0
 12
0.0
 22
50.03199999999993
 32
0.0
 13
1.0
 23
1.0
340
0
 70
    15
280
     1
281
    50
282
    50
283
     0
360
0
 71
     2
 91
        5
 14
-0.5
 24
-0.5
 14
0.5
 24
-0.5
 14
0.5
 24
0.5
 14
-0.5
 24
0.5
 14
-0.5
 24
-0.5
  0
MTEXT
  5
3AA
102
{ACAD_REACTORS
330
3AB
102
}
330
1F
100
AcDbEntity
  8
Key_ Sections_Pen_No__1
  6
Continuous
100
AcDbMText
 10
769.3598166017214
 20
572.1206237679474
 30
0.0
 40
12.49999999999999
 41
125.49
 71
     4
 72
     1
  1
{Palliside trim up \Prake (optional)}
  7
GENERATED_STYLE_1
 73
     1
 44
0.9486241143143664
  0
LEADER
  5
3AB
330
1F
100
AcDbEntity
  8
Key_ Sections_Pen_No__1
  6
Continuous
100
AcDbLeader
  3
GENERATED_STYLE__2
 72
     1
 73
     0
 74
     0
 40
36.13800238154928
 41
121.0874999999999
 76
     3
 10
557.3540616457768
 20
510.5239238139504
 30
0.0
 10
669.7322563112039
 20
559.3614804199542
 30
0.0
 10
769.2698166017213
 20
572.1206237679474
 30
0.0
340
3AA
  0
WIPEOUT
  5
3AC
330
1F
100
AcDbEntity
  8
Key_ Sections_Pen_No__1
  6
Wipeout_Contour
 48
3888.356714129258
 92
      296
310
28010000060000000C0000000E000000120000000C00000016000000000000C20C00000014000000010000006C00000007000000040000009CC786E7E0E28740623CE0D904748040000000000000000022B3D89FFF718C40623CE0D904748040000000000000000022B3D89FFF718C4070951A1845877C4000000000000000
310
009CC786E7E0E2874070951A1845877C4000000000000000000C0000000E000000070000008400000006000000050000009CC786E7E0E28740623CE0D904748040000000000000000022B3D89FFF718C40623CE0D904748040000000000000000022B3D89FFF718C4070951A1845877C4000000000000000009CC786E7E0E2
310
874070951A1845877C4000000000000000009CC786E7E0E28740623CE0D9047480400000000000000000
100
AcDbWipeout
 90
        0
 10
764.3598166017214
 20
456.4543686903407
 30
0.0
 11
145.8900000000001
 21
0.0
 31
0.0
 12
0.0
 22
70.048
 32
0.0
 13
1.0
 23
1.0
340
0
 70
    15
280
     1
281
    50
282
    50
283
     0
360
0
 71
     2
 91
        5
 14
-0.5
 24
-0.5
 14
0.5
 24
-0.5
 14
0.5
 24
0.5
 14
-0.5
 24
0.5
 14
-0.5
 24
-0.5
  0
MTEXT
  5
3AD
102
{ACAD_REACTORS
330
3AE
102
}
330
1F
100
AcDbEntity
  8
Key_ Sections_Pen_No__1
  6
Continuous
100
AcDbMText
 10
769.3598166017214
 20
492.2723400269062
 30
0.0
 40
12.49999999999999
 41
135.89
 71
     4
 72
     1
  1
{100mm max long \Pcavity packers at \P300mm centres}
  7
GENERATED_STYLE_1
 73
     1
 44
0.9584963487371178
  0
LEADER
  5
3AE
330
1F
100
AcDbEntity
  8
Key_ Sections_Pen_No__1
  6
Continuous
100
AcDbLeader
  3
GENERATED_STYLE__2
 72
     1
 73
     0
 74
     0
 40
52.7477726814834
 41
130.75
 76
     3
 10
368.2709929837558
 20
439.7145596698364
 30
0.0
 10
563.1597769055785
 20
478.4425367975659
 30
0.0
 10
769.2698166017213
 20
492.2723400269062
 30
0.0
340
3AD
  0
WIPEOUT
  5
3AF
330
1F
100
AcDbEntity
  8
Key_ Sections_Pen_No__1
  6
Wipeout_Contour
 48
3652.044020961341
 92
      296
310
28010000060000000C0000000E000000120000000C00000016000000000000C20C00000014000000010000006C00000007000000040000009CC786E7E0E2874063DC2003B5CF7B4000000000000000007B17147F4F6E8A4063DC2003B5CF7B4000000000000000007B17147F4F6E8A409C90E97973EF794000000000000000
310
009CC786E7E0E287409C90E97973EF794000000000000000000C0000000E000000070000008400000006000000050000009CC786E7E0E2874063DC2003B5CF7B4000000000000000007B17147F4F6E8A4063DC2003B5CF7B4000000000000000007B17147F4F6E8A409C90E97973EF794000000000000000009CC786E7E0E2
310
87409C90E97973EF794000000000000000009CC786E7E0E2874063DC2003B5CF7B400000000000000000
100
AcDbWipeout
 90
        0
 10
764.3598166017214
 20
414.9656924365643
 30
0.0
 11
81.42899999999997
 21
0.0
 31
0.0
 12
0.0
 22
30.01600000000002
 32
0.0
 13
1.0
 23
1.0
340
0
 70
    15
280
     1
281
    50
282
    50
283
     0
360
0
 71
     2
 91
        5
 14
-0.5000000000000007
 24
-0.4999999999999991
 14
0.4999999999999993
 24
-0.4999999999999991
 14
0.4999999999999993
 24
0.500000000000001
 14
-0.5000000000000007
 24
0.500000000000001
 14
-0.5000000000000007
 24
-0.4999999999999991
  0
MTEXT
  5
3B0
102
{ACAD_REACTORS
330
3B1
102
}
330
1F
100
AcDbEntity
  8
Key_ Sections_Pen_No__1
  6
Continuous
100
AcDbMText
 10
769.3598166017214
 20
429.1731210079928
 30
0.0
 40
12.49999999999999
 41
71.429
 71
     4
 72
     1
  1
{Vent strip}
  7
GENERATED_STYLE_1
 73
     1
 44
1.0
  0
LEADER
  5
3B1
330
1F
100
AcDbEntity
  8
Key_ Sections_Pen_No__1
  6
Continuous
100
AcDbLeader
  3
GENERATED_STYLE__2
 72
     1
 73
     0
 74
     0
 40
36.79583333333332
 41
35.68749999999999
 76
     3
 10
295.053837989917
 20
352.3279789058081
 30
0.0
 10
587.2232346057651
 20
415.5180966762868
 30
0.0
 10
769.2698166017213
 20
429.1731210079928
 30
0.0
340
3B0
  0
WIPEOUT
  5
3B2
330
1F
100
AcDbEntity
  8
Key_ Sections_Pen_No__1
  6
Wipeout_Contour
 48
3604.708169430798
 92
      296
310
28010000060000000C0000000E000000120000000C00000016000000000000C20C00000014000000010000006C00000007000000040000009CC786E7E0E28740C4D9017C2FAD774000000000000000004A0F6862F59C8B40C4D9017C2FAD774000000000000000004A0F6862F59C8B40FE8DCAF2EDCC754000000000000000
310
009CC786E7E0E28740FE8DCAF2EDCC754000000000000000000C0000000E000000070000008400000006000000050000009CC786E7E0E28740C4D9017C2FAD774000000000000000004A0F6862F59C8B40C4D9017C2FAD774000000000000000004A0F6862F59C8B40FE8DCAF2EDCC754000000000000000009CC786E7E0E2
310
8740FE8DCAF2EDCC754000000000000000009CC786E7E0E28740C4D9017C2FAD77400000000000000000
100
AcDbWipeout
 90
        0
 10
764.3598166017214
 20
348.8080928718845
 30
0.0
 11
119.26
 21
0.0
 31
0.0
 12
0.0
 22
30.01599999999996
 32
0.0
 13
1.0
 23
1.0
340
0
 70
    15
280
     1
281
    50
282
    50
283
     0
360
0
 71
     2
 91
        5
 14
-0.5
 24
-0.5
 14
0.5
 24
-0.5
 14
0.5
 24
0.5
 14
-0.5
 24
0.5
 14
-0.5
 24
-0.5
  0
MTEXT
  5
3B3
102
{ACAD_REACTORS
330
3B4
102
}
330
1F
100
AcDbEntity
  8
Key_ Sections_Pen_No__1
  6
Continuous
100
AcDbMText
 10
769.3598166017214
 20
362.9169500147416
 30
0.0
 40
12.49999999999999
 41
109.26
 71
     4
 72
     1
  1
{Apron flashing}
  7
GENERATED_STYLE_1
 73
     1
 44
1.0
  0
LEADER
  5
3B4
330
1F
100
AcDbEntity
  8
Key_ Sections_Pen_No__1
  6
Continuous
100
AcDbLeader
  3
GENERATED_STYLE__2
 72
     1
 73
     0
 74
     0
 40
37.20833333333332
 41
58.79999999999997
 76
     3
 10
535.552340297709
 20
288.8160928718845
 30
0.0
 10
670.2539573740247
 20
349.1791062180287
 30
0.0
 10
769.2698166017213
 20
362.9169500147416
 30
0.0
340
3B3
  0
WIPEOUT
  5
3B5
330
1F
100
AcDbEntity
  8
Key_ Sections_Pen_No__1
  6
Wipeout_Contour
 48
3426.412083397157
 92
      296
310
28010000060000000C0000000E000000120000000C00000016000000000000C20C00000014000000010000006C00000007000000040000009CC786E7E0E28740754058156C3C744000000000000000005A67A116BE098A40754058156C3C744000000000000000005A67A116BE098A40AEF4208C2A5C724000000000000000
310
009CC786E7E0E28740AEF4208C2A5C724000000000000000000C0000000E000000070000008400000006000000050000009CC786E7E0E28740754058156C3C744000000000000000005A67A116BE098A40754058156C3C744000000000000000005A67A116BE098A40AEF4208C2A5C724000000000000000009CC786E7E0E2
310
8740AEF4208C2A5C724000000000000000009CC786E7E0E28740754058156C3C74400000000000000000
100
AcDbWipeout
 90
        0
 10
764.3598166017214
 20
293.7603875434241
 30
0.0
 11
68.85799999999995
 21
0.0
 31
0.0
 12
0.0
 22
30.01600000000002
 32
0.0
 13
1.0
 23
1.0
340
0
 70
    15
280
     1
281
    50
282
    50
283
     0
360
0
 71
     2
 91
        5
 14
-0.5
 24
-0.4999999999999991
 14
0.5
 24
-0.4999999999999991
 14
0.5
 24
0.500000000000001
 14
-0.5
 24
0.500000000000001
 14
-0.5
 24
-0.4999999999999991
  0
MTEXT
  5
3B6
102
{ACAD_REACTORS
330
3B7
102
}
330
1F
100
AcDbEntity
  8
Key_ Sections_Pen_No__1
  6
Continuous
100
AcDbMText
 10
769.3598166017214
 20
307.8692446862813
 30
0.0
 40
12.49999999999999
 41
58.858
 71
     4
 72
     1
  1
{Roofing}
  7
GENERATED_STYLE_1
 73
     1
 44
1.0
  0
LEADER
  5
3B7
330
1F
100
AcDbEntity
  8
Key_ Sections_Pen_No__1
  6
Continuous
100
AcDbLeader
  3
GENERATED_STYLE__2
 72
     1
 73
     0
 74
     0
 40
16.37499999999999
 41
57.58749999999997
 76
     3
 10
628.6761769820248
 20
258.7683875434241
 30
0.0
 10
718.2127789181507
 20
300.8063045231335
 30
0.0
 10
769.2698166017213
 20
307.8692446862813
 30
0.0
340
3B6
  0
WIPEOUT
  5
3B8
330
1F
100
AcDbEntity
  8
Key_ Sections_Pen_No__1
  6
Wipeout_Contour
 48
3567.121653250784
 92
      296
310
28010000060000000C0000000E000000120000000C00000016000000000000C20C00000014000000010000006C00000007000000040000009CC786E7E0E28740AF6784D3BCC271400000000000000000032EED4D47F98D40AF6784D3BCC271400000000000000000032EED4D47F98D402B9CD5734642634000000000000000
310
009CC786E7E0E287402B9CD5734642634000000000000000000C0000000E000000070000008400000006000000050000009CC786E7E0E28740AF6784D3BCC271400000000000000000032EED4D47F98D40AF6784D3BCC271400000000000000000032EED4D47F98D402B9CD5734642634000000000000000009CC786E7E0E2
310
87402B9CD5734642634000000000000000009CC786E7E0E28740AF6784D3BCC271400000000000000000
100
AcDbWipeout
 90
        0
 10
764.3598166017214
 20
154.0711001560279
 30
0.0
 11
194.8000000000001
 21
0.0
 31
0.0
 12
0.0
 22
130.1
 32
0.0
 13
1.0
 23
1.0
340
0
 70
    15
280
     1
281
    50
282
    50
283
     0
360
0
 71
     2
 91
        5
 14
-0.5000000000000003
 24
-0.5000000000000001
 14
0.4999999999999997
 24
-0.5000000000000001
 14
0.4999999999999997
 24
0.4999999999999999
 14
-0.5000000000000003
 24
0.4999999999999999
 14
-0.5000000000000003
 24
-0.5000000000000001
  0
MTEXT
  5
3B9
102
{ACAD_REACTORS
330
3BA
102
}
330
1F
100
AcDbEntity
  8
Key_ Sections_Pen_No__1
  6
Continuous
100
AcDbMText
 10
769.3598166017214
 20
219.9260284974417
 30
0.0
 40
12.49999999999999
 41
184.8
 71
     4
 72
     1
  1
{Apron flashing upstand \Pbehind Palliside weather\Pboard and building \Punderlay100mm min \Pupstand cover behind \Pweatherboards}
  7
GENERATED_STYLE_1
 73
     1
 44
0.7989336958630188
  0
LEADER
  5
3BA
330
1F
100
AcDbEntity
  8
Key_ Sections_Pen_No__1
  6
Continuous
100
AcDbLeader
  3
GENERATED_STYLE__2
 72
     1
 73
     0
 74
     0
 40
112.7764320780414
 41
177.2124999999999
 76
     3
 10
265.4629974511835
 20
296.7668136867844
 30
0.0
 10
557.7135110124686
 20
235.0093555850455
 30
0.0
 10
769.2698166017213
 20
219.9260284974417
 30
0.0
340
3B9
  0
WIPEOUT
  5
3BB
330
1F
100
AcDbEntity
  8
Key_ Sections_Pen_No__1
  6
Wipeout_Contour
 48
3430.684475991774
 92
      296
310
28010000060000000C0000000E000000120000000C00000016000000000000C20C00000014000000010000006C00000007000000040000009CC786E7E0E287404AB93034211B634000000000000000009CC786E7E0288D404AB93034211B634000000000000000009CC786E7E0288D4044E5C9F92FB3544000000000000000
310
009CC786E7E0E2874044E5C9F92FB3544000000000000000000C0000000E000000070000008400000006000000050000009CC786E7E0E287404AB93034211B634000000000000000009CC786E7E0288D404AB93034211B634000000000000000009CC786E7E0288D4044E5C9F92FB3544000000000000000009CC786E7E0E2
310
874044E5C9F92FB3544000000000000000009CC786E7E0E287404AB93034211B63400000000000000000
100
AcDbWipeout
 90
        0
 10
764.3598166017214
 20
82.79980320659985
 30
0.0
 11
168.75
 21
0.0
 31
0.0
 12
0.0
 22
70.048
 32
0.0
 13
1.0
 23
1.0
340
0
 70
    15
280
     1
281
    50
282
    50
283
     0
360
0
 71
     2
 91
        5
 14
-0.5
 24
-0.5
 14
0.5
 24
-0.5
 14
0.5
 24
0.5
 14
-0.5
 24
0.5
 14
-0.5
 24
-0.5
  0
MTEXT
  5
3BC
102
{ACAD_REACTORS
330
3BD
102
}
330
1F
100
AcDbEntity
  8
Key_ Sections_Pen_No__1
  6
Continuous
100
AcDbMText
 10
769.3598166017214
 20
116.9249174003082
 30
0.0
 40
12.49999999999999
 41
158.75
 71
     4
 72
     1
  1
{Tapered stop end to \Pdivert apron flashing \Pwater into gutter.}
  7
GENERATED_STYLE_1
 73
     1
 44
0.9544562503071139
  0
LEADER
  5
3BD
330
1F
100
AcDbEntity
  8
Key_ Sections_Pen_No__1
  6
Continuous
100
AcDbLeader
  3
GENERATED_STYLE__2
 72
     1
 73
     0
 74
     0
 40
56.13433238265332
 41
155.3499999999999
 76
     3
 10
223.9482546417022
 20
156.6466599719781
 30
0.0
 10
369.852515429144
 20
131.9579199646716
 30
0.0
 10
769.2698166017213
 20
116.9249174003082
 30
0.0
340
3BC
  0
WIPEOUT
  5
3BE
330
1F
100
AcDbEntity
  8
Key_ Sections_Pen_No__1
  6
Wipeout_Contour
 48
3436.162050702658
 92
      296
310
28010000060000000C0000000E000000120000000C00000016000000000000C20C00000014000000010000006C00000007000000040000009CC786E7E0E28740307513F5B601504000000000000000002B8A7C103DBA8D40307513F5B601504000000000000000002B8A7C103DBA8D40FC814198B71518C000000000000000
310
009CC786E7E0E28740FC814198B71518C000000000000000000C0000000E000000070000008400000006000000050000009CC786E7E0E28740307513F5B601504000000000000000002B8A7C103DBA8D40307513F5B601504000000000000000002B8A7C103DBA8D40FC814198B71518C000000000000000009CC786E7E0E2
310
8740FC814198B71518C000000000000000009CC786E7E0E28740307513F5B60150400000000000000000
100
AcDbWipeout
 90
        0
 10
764.3598166017214
 20
-6.021208170889164
 30
0.0
 11
186.92
 21
0.0
 31
0.0
 12
0.0
 22
70.048
 32
0.0
 13
1.0
 23
1.0
340
0
 70
    15
280
     1
281
    50
282
    50
283
     0
360
0
 71
     2
 91
        5
 14
-0.5000000000000003
 24
-0.5
 14
0.4999999999999997
 24
-0.5
 14
0.4999999999999997
 24
0.5
 14
-0.5000000000000003
 24
0.5
 14
-0.5000000000000003
 24
-0.5
  0
MTEXT
  5
3BF
102
{ACAD_REACTORS
330
3C0
102
}
330
1F
100
AcDbEntity
  8
Key_ Sections_Pen_No__1
  6
Continuous
100
AcDbMText
 10
769.3598166017214
 20
28.10390602281922
 30
0.0
 40
12.49999999999999
 41
176.92
 71
     4
 72
     1
  1
{Stop spouting min \P10mm clear of finished \Pwall cladding}
  7
GENERATED_STYLE_1
 73
     1
 44
0.949644817197925
  0
LEADER
  5
3C0
330
1F
100
AcDbEntity
  8
Key_ Sections_Pen_No__1
  6
Continuous
100
AcDbLeader
  3
GENERATED_STYLE__2
 72
     1
 73
     0
 74
     0
 40
56.13463309722264
 41
172.3499999999999
 76
     3
 10
116.5667726984185
 20
129.0027918291109
 30
0.0
 10
295.29499575997
 20
64.78132348360337
 30
0.0
 10
769.2698166017213
 20
28.10390602281922
 30
0.0
340
3BF
  0
WIPEOUT
  5
3C1
330
1F
100
AcDbEntity
  8
Key_ Sections_Pen_No__1
  6
Wipeout_Contour
 48
1535.477843892571
 92
      296
310
28010000060000000C0000000E000000120000000C00000016000000000000C20C00000014000000010000006C0000000700000004000000D927B3E8A0EC7240EC8B99B970BC6E400000000000000000C25C3CF1D6F4744048F0D498C0636C400000000000000000DFB6A02CB604744079049DAEEC23694000000000000000
310
00F681172480FC71401DA061CF9C7C6B4000000000000000000C0000000E00000007000000840000000600000005000000D927B3E8A0EC7240EC8B99B970BC6E400000000000000000C25C3CF1D6F4744048F0D498C0636C400000000000000000DFB6A02CB604744079049DAEEC2369400000000000000000F681172480FC
310
71401DA061CF9C7C6B400000000000000000D927B3E8A0EC7240EC8B99B970BC6E400000000000000000
100
AcDbWipeout
 90
        0
 10
287.7812844198482
 20
201.1226418558834
 30
0.0
 11
47.52119173427923
 21
0.0
 31
0.0
 12
0.0
 22
44.76611851999368
 32
0.0
 13
1.0
 23
1.0
340
0
 70
    15
280
     1
281
    50
282
    50
283
     0
360
0
 71
     2
 91
        5
 14
-0.1841830044179212
 24
-0.5000000000000003
 14
0.5
 24
-0.080676176076867
 14
0.1841830044179212
 24
0.4999999999999997
 14
-0.5
 24
0.0806761760768664
 14
-0.1841830044179212
 24
-0.5000000000000003
  0
MTEXT
  5
3C2
102
{ACAD_REACTORS
330
3C3
102
}
330
1F
100
AcDbEntity
  8
Key_ Sections_Pen_No__1
  6
Continuous
100
AcDbMText
 10
323.8694919923482
 20
217.314750925545
 30
0.0
 40
12.49999999999999
 41
27.543
 71
     6
 72
     1
  1
{Fall}
  7
GENERATED_STYLE_1
 11
0.8660254037844397
 21
-0.4999999999999981
 31
0.0
 73
     1
 44
1.0
  0
LEADER
  5
3C3
330
1F
100
AcDbEntity
  8
Key_ Sections_Pen_No__1
  6
Continuous
100
AcDbLeader
  3
GENERATED_STYLE__2
 72
     1
 73
     0
 40
12.69999999999999
 41
25.44999999999999
 76
     2
 10
345.1189842298164
 20
204.1199511158802
 30
0.0
 10
323.9474342786888
 20
217.269750925545
 30
0.0
340
3C2
211
0.8660254037844397
221
-0.4999999999999981
231
0.0
  0
WIPEOUT
  5
3C4
330
1F
100
AcDbEntity
  8
Key_ Sections_Pen_No__1
  6
Wipeout_Contour
 48
2334.435298694447
 92
      296
310
28010000060000000C0000000E000000120000000C00000016000000000000C20C00000014000000010000006C000000070000000400000066E579D3AAC67C404B512FBBD10F774000000000000000004F1A03DCE0CE7E407903CDAA79E3754000000000000000006C746717C0DE7D40920DB1B58F43744000000000000000
310
00833FDE0E8AD67B40645B13C6E76F754000000000000000000C0000000E0000000700000084000000060000000500000066E579D3AAC67C404B512FBBD10F774000000000000000004F1A03DCE0CE7E407903CDAA79E3754000000000000000006C746717C0DE7D40920DB1B58F4374400000000000000000833FDE0E8AD6
310
7B40645B13C6E76F7540000000000000000066E579D3AAC67C404B512FBBD10F77400000000000000000
100
AcDbWipeout
 90
        0
 10
445.4087055856291
 20
324.2225853840001
 30
0.0
 11
47.52119173427923
 21
0.0
 31
0.0
 12
0.0
 22
44.76611851999365
 32
0.0
 13
1.0
 23
1.0
340
0
 70
    15
280
     1
281
    50
282
    50
283
     0
360
0
 71
     2
 91
        5
 14
-0.1841830044179212
 24
-0.5000000000000007
 14
0.5
 24
-0.0806761760768671
 14
0.1841830044179212
 24
0.4999999999999994
 14
-0.5
 24
0.0806761760768658
 14
-0.1841830044179212
 24
-0.5000000000000007
  0
MTEXT
  5
3C5
102
{ACAD_REACTORS
330
3C6
102
}
330
1F
100
AcDbEntity
  8
Key_ Sections_Pen_No__1
  6
Continuous
100
AcDbMText
 10
481.496913158129
 20
340.4146944536618
 30
0.0
 40
12.49999999999999
 41
27.543
 71
     6
 72
     1
  1
{Fall}
  7
GENERATED_STYLE_1
 11
0.8660254037844397
 21
-0.4999999999999981
 31
0.0
 73
     1
 44
1.0
  0
LEADER
  5
3C6
330
1F
100
AcDbEntity
  8
Key_ Sections_Pen_No__1
  6
Continuous
100
AcDbLeader
  3
GENERATED_STYLE__2
 72
     1
 73
     0
 40
12.69999999999999
 41
25.44999999999999
 76
     2
 10
502.7464053955972
 20
327.219894643997
 30
0.0
 10
481.5748554444696
 20
340.3696944536618
 30
0.0
340
3C5
211
0.8660254037844397
221
-0.4999999999999981
231
0.0
  0
ENDSEC
  0
SECTION
  2
OBJECTS
  0
DICTIONARY
  5
C
330
0
100
AcDbDictionary
281
     1
  3
ACAD_GROUP
350
D
  3
ACAD_LAYOUT
350
1A
  3
ACAD_MATERIAL
350
3B
  3
ACAD_MLEADERSTYLE
350
417
  3
ACAD_MLINESTYLE
350
17
  3
ACAD_PLOTSETTINGS
350
19
  3
ACAD_PLOTSTYLENAME
350
E
  3
ACAD_SCALELIST
350
3CA
  3
ACAD_TABLESTYLE
350
416
  3
ACAD_VISUALSTYLE
350
2A
  3
AcDbVariableDictionary
350
3EE
  3
WATERMARKS
350
3EC
  0
DICTIONARY
  5
D
102
{ACAD_REACTORS
330
C
102
}
330
C
100
AcDbDictionary
281
     1
  0
DICTIONARY
  5
1A
102
{ACAD_REACTORS
330
C
102
}
330
C
100
AcDbDictionary
281
     1
  3
Layout1
350
1E
  3
Layout2
350
26
  3
Model
350
22
  0
DICTIONARY
  5
3B
102
{ACAD_REACTORS
330
C
102
}
330
C
100
AcDbDictionary
281
     1
  3
ByBlock
350
3D
  3
ByLayer
350
3C
  3
Global
350
3E
  0
DICTIONARY
  5
417
102
{ACAD_REACTORS
330
C
102
}
330
C
100
AcDbDictionary
281
     1
  0
DICTIONARY
  5
17
102
{ACAD_REACTORS
330
C
102
}
330
C
100
AcDbDictionary
281
     1
  3
Standard
350
18
  0
DICTIONARY
  5
19
102
{ACAD_REACTORS
330
C
102
}
330
C
100
AcDbDictionary
281
     1
  0
ACDBDICTIONARYWDFLT
  5
E
102
{ACAD_REACTORS
330
C
102
}
330
C
100
AcDbDictionary
281
     1
  3
Normal
350
F
100
AcDbDictionaryWithDefault
340
F
  0
DICTIONARY
  5
3CA
102
{ACAD_REACTORS
330
C
102
}
330
C
100
AcDbDictionary
281
     1
  3
A0
350
3CB
  3
A1
350
3CC
  3
A2
350
3CD
  3
A3
350
3CE
  3
A4
350
3CF
  3
A5
350
3D0
  3
A6
350
3D1
  3
A7
350
3D2
  3
A8
350
3D3
  3
A9
350
3D4
  3
B0
350
3D5
  3
B1
350
3D6
  3
B2
350
3D7
  3
B3
350
3D8
  3
B4
350
3D9
  3
B5
350
3DA
  3
B6
350
3DB
  3
B7
350
3DC
  3
B8
350
3DD
  3
B9
350
3DE
  3
C0
350
3DF
  3
C1
350
3E0
  3
C2
350
3E1
  3
C3
350
3E2
  3
C4
350
3E3
  3
C5
350
3E4
  3
C6
350
3E5
  3
C7
350
3E6
  3
C8
350
3E7
  3
C9
350
3E8
  3
D0
350
3E9
  3
D1
350
3EA
  3
D2
350
3EB
  0
DICTIONARY
  5
416
102
{ACAD_REACTORS
330
C
102
}
330
C
100
AcDbDictionary
281
     1
  0
DICTIONARY
  5
2A
102
{ACAD_REACTORS
330
C
102
}
330
C
100
AcDbDictionary
281
     1
  3
2dWireframe
350
2F
  3
3D Hidden
350
31
  3
3dWireframe
350
30
  3
Basic
350
32
  3
Brighten
350
36
  3
ColorChange
350
3A
  3
Conceptual
350
34
  3
Dim
350
35
  3
Facepattern
350
39
  3
Flat
350
2B
  3
FlatWithEdges
350
2C
  3
Gouraud
350
2D
  3
GouraudWithEdges
350
2E
  3
Linepattern
350
38
  3
Realistic
350
33
  3
Thicken
350
37
  0
DICTIONARY
  5
3EE
102
{ACAD_REACTORS
330
C
102
}
330
C
100
AcDbDictionary
281
     1
  3
CANNOSCALE
350
3EF
  3
XCLIPFRAME
350
418
  0
DICTIONARY
  5
3EC
102
{ACAD_REACTORS
330
C
102
}
330
C
100
AcDbDictionary
281
     1
  3
AC_WATERMARK
350
3ED
  0
LAYOUT
  5
1E
102
{ACAD_REACTORS
330
1A
102
}
330
1A
100
AcDbPlotSettings
  1

  2
none_device
  4

  6

 40
0.0
 41
0.0
 42
0.0
 43
0.0
 44
0.0
 45
0.0
 46
0.0
 47
0.0
 48
0.0
 49
0.0
140
0.0
141
0.0
142
1.0
143
1.0
 70
   688
 72
     0
 73
     0
 74
     5
  7

 75
    16
 76
     0
 77
     2
 78
   300
147
1.0
148
0.0
149
0.0
100
AcDbLayout
  1
Layout1
 70
     1
 71
     1
 10
0.0
 20
0.0
 11
12.0
 21
9.0
 12
0.0
 22
0.0
 32
0.0
 14
1.000000000000000E+20
 24
1.000000000000000E+20
 34
1.000000000000000E+20
 15
-1.000000000000000E+20
 25
-1.000000000000000E+20
 35
-1.000000000000000E+20
146
0.0
 13
0.0
 23
0.0
 33
0.0
 16
1.0
 26
0.0
 36
0.0
 17
0.0
 27
1.0
 37
0.0
 76
     0
330
1B
  0
LAYOUT
  5
26
102
{ACAD_REACTORS
330
1A
102
}
330
1A
100
AcDbPlotSettings
  1

  2
none_device
  4

  6

 40
0.0
 41
0.0
 42
0.0
 43
0.0
 44
0.0
 45
0.0
 46
0.0
 47
0.0
 48
0.0
 49
0.0
140
0.0
141
0.0
142
1.0
143
1.0
 70
   688
 72
     0
 73
     0
 74
     5
  7

 75
    16
 76
     0
 77
     2
 78
   300
147
1.0
148
0.0
149
0.0
100
AcDbLayout
  1
Layout2
 70
     1
 71
     2
 10
0.0
 20
0.0
 11
0.0
 21
0.0
 12
0.0
 22
0.0
 32
0.0
 14
0.0
 24
0.0
 34
0.0
 15
0.0
 25
0.0
 35
0.0
146
0.0
 13
0.0
 23
0.0
 33
0.0
 16
1.0
 26
0.0
 36
0.0
 17
0.0
 27
1.0
 37
0.0
 76
     0
330
23
  0
LAYOUT
  5
22
102
{ACAD_REACTORS
330
1A
102
}
330
1A
100
AcDbPlotSettings
  1

  2
none_device
  4

  6

 40
0.0
 41
0.0
 42
0.0
 43
0.0
 44
0.0
 45
0.0
 46
0.0
 47
0.0
 48
0.0
 49
0.0
140
0.0
141
0.0
142
1.0
143
1.0
 70
  1712
 72
     0
 73
     0
 74
     0
  7

 75
     0
 76
     0
 77
     2
 78
   300
147
1.0
148
0.0
149
0.0
100
AcDbLayout
  1
Model
 70
     1
 71
     0
 10
0.0
 20
0.0
 11
12.0
 21
9.0
 12
0.0
 22
0.0
 32
0.0
 14
1.000000000000000E+20
 24
1.000000000000000E+20
 34
1.000000000000000E+20
 15
-1.000000000000000E+20
 25
-1.000000000000000E+20
 35
-1.000000000000000E+20
146
0.0
 13
0.0
 23
0.0
 33
0.0
 16
1.0
 26
0.0
 36
0.0
 17
0.0
 27
1.0
 37
0.0
 76
     0
330
1F
331
29
  0
MATERIAL
  5
3D
102
{ACAD_REACTORS
330
3B
102
}
102
{ACAD_XDICTIONARY
360
412
102
}
330
3B
100
AcDbMaterial
  1
ByBlock
  0
MATERIAL
  5
3C
102
{ACAD_REACTORS
330
3B
102
}
102
{ACAD_XDICTIONARY
360
410
102
}
330
3B
100
AcDbMaterial
  1
ByLayer
  0
MATERIAL
  5
3E
102
{ACAD_REACTORS
330
3B
102
}
102
{ACAD_XDICTIONARY
360
414
102
}
330
3B
100
AcDbMaterial
  1
Global
  0
MLINESTYLE
  5
18
102
{ACAD_REACTORS
330
17
102
}
330
17
100
AcDbMlineStyle
  2
Standard
 70
     0
  3

 62
   256
 51
90.0
 52
90.0
 71
     2
 49
0.5
 62
   256
  6
BYLAYER
 49
-0.5
 62
   256
  6
BYLAYER
  0
ACDBPLACEHOLDER
  5
F
102
{ACAD_REACTORS
330
E
102
}
330
E
  0
SCALE
  5
3CB
102
{ACAD_REACTORS
330
3CA
102
}
330
3CA
100
AcDbScale
 70
     0
300
1:1
140
1.0
141
1.0
290
     1
  0
SCALE
  5
3CC
102
{ACAD_REACTORS
330
3CA
102
}
330
3CA
100
AcDbScale
 70
     0
300
1:2
140
1.0
141
2.0
290
     0
  0
SCALE
  5
3CD
102
{ACAD_REACTORS
330
3CA
102
}
330
3CA
100
AcDbScale
 70
     0
300
1:4
140
1.0
141
4.0
290
     0
  0
SCALE
  5
3CE
102
{ACAD_REACTORS
330
3CA
102
}
330
3CA
100
AcDbScale
 70
     0
300
1:5
140
1.0
141
5.0
290
     0
  0
SCALE
  5
3CF
102
{ACAD_REACTORS
330
3CA
102
}
330
3CA
100
AcDbScale
 70
     0
300
1:8
140
1.0
141
8.0
290
     0
  0
SCALE
  5
3D0
102
{ACAD_REACTORS
330
3CA
102
}
330
3CA
100
AcDbScale
 70
     0
300
1:10
140
1.0
141
10.0
290
     0
  0
SCALE
  5
3D1
102
{ACAD_REACTORS
330
3CA
102
}
330
3CA
100
AcDbScale
 70
     0
300
1:16
140
1.0
141
16.0
290
     0
  0
SCALE
  5
3D2
102
{ACAD_REACTORS
330
3CA
102
}
330
3CA
100
AcDbScale
 70
     0
300
1:20
140
1.0
141
20.0
290
     0
  0
SCALE
  5
3D3
102
{ACAD_REACTORS
330
3CA
102
}
330
3CA
100
AcDbScale
 70
     0
300
1:30
140
1.0
141
30.0
290
     0
  0
SCALE
  5
3D4
102
{ACAD_REACTORS
330
3CA
102
}
330
3CA
100
AcDbScale
 70
     0
300
1:40
140
1.0
141
40.0
290
     0
  0
SCALE
  5
3D5
102
{ACAD_REACTORS
330
3CA
102
}
330
3CA
100
AcDbScale
 70
     0
300
1:50
140
1.0
141
50.0
290
     0
  0
SCALE
  5
3D6
102
{ACAD_REACTORS
330
3CA
102
}
330
3CA
100
AcDbScale
 70
     0
300
1:100
140
1.0
141
100.0
290
     0
  0
SCALE
  5
3D7
102
{ACAD_REACTORS
330
3CA
102
}
330
3CA
100
AcDbScale
 70
     0
300
2:1
140
2.0
141
1.0
290
     0
  0
SCALE
  5
3D8
102
{ACAD_REACTORS
330
3CA
102
}
330
3CA
100
AcDbScale
 70
     0
300
4:1
140
4.0
141
1.0
290
     0
  0
SCALE
  5
3D9
102
{ACAD_REACTORS
330
3CA
102
}
330
3CA
100
AcDbScale
 70
     0
300
8:1
140
8.0
141
1.0
290
     0
  0
SCALE
  5
3DA
102
{ACAD_REACTORS
330
3CA
102
}
330
3CA
100
AcDbScale
 70
     0
300
10:1
140
10.0
141
1.0
290
     0
  0
SCALE
  5
3DB
102
{ACAD_REACTORS
330
3CA
102
}
330
3CA
100
AcDbScale
 70
     0
300
100:1
140
100.0
141
1.0
290
     0
  0
SCALE
  5
3DC
102
{ACAD_REACTORS
330
3CA
102
}
330
3CA
100
AcDbScale
 70
     0
300
1/128" = 1'-0"
140
0.0078125
141
12.0
290
     0
  0
SCALE
  5
3DD
102
{ACAD_REACTORS
330
3CA
102
}
330
3CA
100
AcDbScale
 70
     0
300
1/64" = 1'-0"
140
0.015625
141
12.0
290
     0
  0
SCALE
  5
3DE
102
{ACAD_REACTORS
330
3CA
102
}
330
3CA
100
AcDbScale
 70
     0
300
1/32" = 1'-0"
140
0.03125
141
12.0
290
     0
  0
SCALE
  5
3DF
102
{ACAD_REACTORS
330
3CA
102
}
330
3CA
100
AcDbScale
 70
     0
300
1/16" = 1'-0"
140
0.0625
141
12.0
290
     0
  0
SCALE
  5
3E0
102
{ACAD_REACTORS
330
3CA
102
}
330
3CA
100
AcDbScale
 70
     0
300
3/32" = 1'-0"
140
0.09375
141
12.0
290
     0
  0
SCALE
  5
3E1
102
{ACAD_REACTORS
330
3CA
102
}
330
3CA
100
AcDbScale
 70
     0
300
1/8" = 1'-0"
140
0.125
141
12.0
290
     0
  0
SCALE
  5
3E2
102
{ACAD_REACTORS
330
3CA
102
}
330
3CA
100
AcDbScale
 70
     0
300
3/16" = 1'-0"
140
0.1875
141
12.0
290
     0
  0
SCALE
  5
3E3
102
{ACAD_REACTORS
330
3CA
102
}
330
3CA
100
AcDbScale
 70
     0
300
1/4" = 1'-0"
140
0.25
141
12.0
290
     0
  0
SCALE
  5
3E4
102
{ACAD_REACTORS
330
3CA
102
}
330
3CA
100
AcDbScale
 70
     0
300
3/8" = 1'-0"
140
0.375
141
12.0
290
     0
  0
SCALE
  5
3E5
102
{ACAD_REACTORS
330
3CA
102
}
330
3CA
100
AcDbScale
 70
     0
300
1/2" = 1'-0"
140
0.5
141
12.0
290
     0
  0
SCALE
  5
3E6
102
{ACAD_REACTORS
330
3CA
102
}
330
3CA
100
AcDbScale
 70
     0
300
3/4" = 1'-0"
140
0.75
141
12.0
290
     0
  0
SCALE
  5
3E7
102
{ACAD_REACTORS
330
3CA
102
}
330
3CA
100
AcDbScale
 70
     0
300
1" = 1'-0"
140
1.0
141
12.0
290
     0
  0
SCALE
  5
3E8
102
{ACAD_REACTORS
330
3CA
102
}
330
3CA
100
AcDbScale
 70
     0
300
1-1/2" = 1'-0"
140
1.5
141
12.0
290
     0
  0
SCALE
  5
3E9
102
{ACAD_REACTORS
330
3CA
102
}
330
3CA
100
AcDbScale
 70
     0
300
3" = 1'-0"
140
3.0
141
12.0
290
     0
  0
SCALE
  5
3EA
102
{ACAD_REACTORS
330
3CA
102
}
330
3CA
100
AcDbScale
 70
     0
300
6" = 1'-0"
140
6.0
141
12.0
290
     0
  0
SCALE
  5
3EB
102
{ACAD_REACTORS
330
3CA
102
}
330
3CA
100
AcDbScale
 70
     0
300
1'-0" = 1'-0"
140
12.0
141
12.0
290
     0
  0
VISUALSTYLE
  5
2F
102
{ACAD_REACTORS
330
2A
102
}
102
{ACAD_XDICTIONARY
360
3F8
102
}
330
2A
100
AcDbVisualStyle
  2
2dWireframe
 70
     4
 71
     0
 72
     2
 73
     0
 90
        0
 40
-0.6
 41
-30.0
 62
     5
 63
     7
421
 16777215
 74
     1
 91
        4
 64
     7
 65
   257
 75
     1
175
     1
 42
1.0
 92
        0
 66
   257
 43
1.0
 76
     1
 77
     6
 78
     2
 67
     7
 79
     5
170
     0
171
     0
290
     0
174
     0
 93
        1
 44
0.0
173
     0
291
     0
 45
0.0
1001
ACAD
1000
AcDbSavedByObjectVersion
1070
     0
  0
VISUALSTYLE
  5
31
102
{ACAD_REACTORS
330
2A
102
}
102
{ACAD_XDICTIONARY
360
3FC
102
}
330
2A
100
AcDbVisualStyle
  2
3D Hidden
 70
     6
 71
     1
 72
     2
 73
     2
 90
        0
 40
-0.6
 41
-30.0
 62
     5
 63
     7
421
 16777215
 74
     2
 91
        2
 64
     7
 65
   257
 75
     2
175
     1
 42
40.0
 92
        0
 66
   257
 43
1.0
 76
     1
 77
     6
 78
     2
 67
     7
 79
     3
170
     0
171
     0
290
     0
174
     0
 93
        1
 44
0.0
173
     0
291
     0
 45
0.0
1001
ACAD
1000
AcDbSavedByObjectVersion
1070
     0
  0
VISUALSTYLE
  5
30
102
{ACAD_REACTORS
330
2A
102
}
102
{ACAD_XDICTIONARY
360
3FA
102
}
330
2A
100
AcDbVisualStyle
  2
3dWireframe
 70
     5
 71
     0
 72
     2
 73
     0
 90
        0
 40
-0.6
 41
-30.0
 62
     5
 63
     7
421
 16777215
 74
     1
 91
        4
 64
     7
 65
   257
 75
     1
175
     1
 42
1.0
 92
        0
 66
   257
 43
1.0
 76
     1
 77
     6
 78
     2
 67
     7
 79
     5
170
     0
171
     0
290
     0
174
     0
 93
        1
 44
0.0
173
     0
291
     0
 45
0.0
1001
ACAD
1000
AcDbSavedByObjectVersion
1070
     0
  0
VISUALSTYLE
  5
32
102
{ACAD_REACTORS
330
2A
102
}
102
{ACAD_XDICTIONARY
360
3FE
102
}
330
2A
100
AcDbVisualStyle
  2
Basic
 70
     7
 71
     1
 72
     0
 73
     1
 90
        0
 40
-0.6
 41
-30.0
 62
     5
 63
     7
421
 16777215
 74
     0
 91
        4
 64
     7
 65
   257
 75
     1
175
     1
 42
1.0
 92
        8
 66
     7
 43
1.0
 76
     1
 77
     6
 78
     2
 67
     7
 79
     5
170
     0
171
     0
290
     0
174
     0
 93
        1
 44
0.0
173
     0
291
     1
 45
0.0
1001
ACAD
1000
AcDbSavedByObjectVersion
1070
     0
  0
VISUALSTYLE
  5
36
102
{ACAD_REACTORS
330
2A
102
}
102
{ACAD_XDICTIONARY
360
406
102
}
330
2A
100
AcDbVisualStyle
  2
Brighten
 70
    12
 71
     2
 72
     2
 73
     0
 90
        0
 40
-0.6
 41
-30.0
 62
     5
 63
     7
421
 16777215
 74
     1
 91
        4
 64
     7
 65
   257
 75
     1
175
     1
 42
1.0
 92
        8
 66
     7
 43
1.0
 76
     1
 77
     6
 78
     2
 67
     7
 79
     5
170
     0
171
     0
290
     0
174
     0
 93
        1
 44
50.0
173
     0
291
     1
 45
0.0
1001
ACAD
1000
AcDbSavedByObjectVersion
1070
     0
  0
VISUALSTYLE
  5
3A
102
{ACAD_REACTORS
330
2A
102
}
102
{ACAD_XDICTIONARY
360
40E
102
}
330
2A
100
AcDbVisualStyle
  2
ColorChange
 70
    16
 71
     2
 72
     2
 73
     3
 90
        0
 40
-0.6
 41
-30.0
 62
     5
 63
     8
421
  8421504
 74
     1
 91
        4
 64
     7
 65
   257
 75
     1
175
     1
 42
1.0
 92
        8
 66
     8
424
  8421504
 43
1.0
 76
     1
 77
     6
 78
     2
 67
     7
 79
     5
170
     0
171
     0
290
     0
174
     0
 93
        1
 44
0.0
173
     0
291
     1
 45
0.0
1001
ACAD
1000
AcDbSavedByObjectVersion
1070
     0
  0
VISUALSTYLE
  5
34
102
{ACAD_REACTORS
330
2A
102
}
102
{ACAD_XDICTIONARY
360
402
102
}
330
2A
100
AcDbVisualStyle
  2
Conceptual
 70
     9
 71
     3
 72
     2
 73
     0
 90
        0
 40
-0.6
 41
-30.0
 62
     5
 63
     7
421
 16777215
 74
     2
 91
        2
 64
     7
 65
   257
 75
     1
175
     1
 42
40.0
 92
        8
 66
     7
 43
1.0
 76
     1
 77
     6
 78
     2
 67
     7
 79
     3
170
     0
171
     0
290
     0
174
     0
 93
        1
 44
0.0
173
     0
291
     0
 45
0.0
1001
ACAD
1000
AcDbSavedByObjectVersion
1070
     0
  0
VISUALSTYLE
  5
35
102
{ACAD_REACTORS
330
2A
102
}
102
{ACAD_XDICTIONARY
360
404
102
}
330
2A
100
AcDbVisualStyle
  2
Dim
 70
    11
 71
     2
 72
     2
 73
     0
 90
        0
 40
-0.6
 41
-30.0
 62
     5
 63
     7
421
 16777215
 74
     1
 91
        4
 64
     7
 65
   257
 75
     1
175
     1
 42
1.0
 92
        8
 66
     7
 43
1.0
 76
     1
 77
     6
 78
     2
 67
     7
 79
     5
170
     0
171
     0
290
     0
174
     0
 93
        1
 44
-50.0
173
     0
291
     1
 45
0.0
1001
ACAD
1000
AcDbSavedByObjectVersion
1070
     0
  0
VISUALSTYLE
  5
39
102
{ACAD_REACTORS
330
2A
102
}
102
{ACAD_XDICTIONARY
360
40C
102
}
330
2A
100
AcDbVisualStyle
  2
Facepattern
 70
    15
 71
     2
 72
     2
 73
     0
 90
        0
 40
-0.6
 41
-30.0
 62
     5
 63
     7
421
 16777215
 74
     1
 91
        4
 64
     7
 65
   257
 75
     1
175
     1
 42
1.0
 92
        8
 66
     7
 43
1.0
 76
     1
 77
     6
 78
     2
 67
     7
 79
     5
170
     0
171
     0
290
     0
174
     0
 93
        1
 44
0.0
173
     0
291
     1
 45
0.0
1001
ACAD
1000
AcDbSavedByObjectVersion
1070
     0
  0
VISUALSTYLE
  5
2B
102
{ACAD_REACTORS
330
2A
102
}
102
{ACAD_XDICTIONARY
360
3F0
102
}
330
2A
100
AcDbVisualStyle
  2
Flat
 70
     0
 71
     2
 72
     1
 73
     1
 90
        2
 40
-0.6
 41
30.0
 62
     5
 63
     7
421
 16777215
 74
     0
 91
        4
 64
     7
 65
   257
 75
     1
175
     1
 42
1.0
 92
        8
 66
     7
 43
1.0
 76
     1
 77
     6
 78
     2
 67
     7
 79
     5
170
     0
171
     0
290
     0
174
     0
 93
       13
 44
0.0
173
     0
291
     1
 45
0.0
1001
ACAD
1000
AcDbSavedByObjectVersion
1070
     0
  0
VISUALSTYLE
  5
2C
102
{ACAD_REACTORS
330
2A
102
}
102
{ACAD_XDICTIONARY
360
3F2
102
}
330
2A
100
AcDbVisualStyle
  2
FlatWithEdges
 70
     1
 71
     2
 72
     1
 73
     1
 90
        2
 40
-0.6
 41
30.0
 62
     5
 63
     7
421
 16777215
 74
     1
 91
        4
 64
     7
 65
   257
 75
     1
175
     1
 42
1.0
 92
        0
 66
   257
 43
1.0
 76
     1
 77
     6
 78
     2
 67
     7
 79
     5
170
     0
171
     0
290
     0
174
     0
 93
       13
 44
0.0
173
     0
291
     1
 45
0.0
1001
ACAD
1000
AcDbSavedByObjectVersion
1070
     0
  0
VISUALSTYLE
  5
2D
102
{ACAD_REACTORS
330
2A
102
}
102
{ACAD_XDICTIONARY
360
3F4
102
}
330
2A
100
AcDbVisualStyle
  2
Gouraud
 70
     2
 71
     2
 72
     2
 73
     1
 90
        2
 40
-0.6
 41
30.0
 62
     5
 63
     7
421
 16777215
 74
     0
 91
        4
 64
     7
 65
   257
 75
     1
175
     1
 42
1.0
 92
        0
 66
     7
 43
1.0
 76
     1
 77
     6
 78
     2
 67
     7
 79
     5
170
     0
171
     0
290
     0
174
     0
 93
       13
 44
0.0
173
     0
291
     1
 45
0.0
1001
ACAD
1000
AcDbSavedByObjectVersion
1070
     0
  0
VISUALSTYLE
  5
2E
102
{ACAD_REACTORS
330
2A
102
}
102
{ACAD_XDICTIONARY
360
3F6
102
}
330
2A
100
AcDbVisualStyle
  2
GouraudWithEdges
 70
     3
 71
     2
 72
     2
 73
     1
 90
        2
 40
-0.6
 41
30.0
 62
     5
 63
     7
421
 16777215
 74
     1
 91
        4
 64
     7
 65
   257
 75
     1
175
     1
 42
1.0
 92
        0
 66
   257
 43
1.0
 76
     1
 77
     6
 78
     2
 67
     7
 79
     5
170
     0
171
     0
290
     0
174
     0
 93
       13
 44
0.0
173
     0
291
     1
 45
0.0
1001
ACAD
1000
AcDbSavedByObjectVersion
1070
     0
  0
VISUALSTYLE
  5
38
102
{ACAD_REACTORS
330
2A
102
}
102
{ACAD_XDICTIONARY
360
40A
102
}
330
2A
100
AcDbVisualStyle
  2
Linepattern
 70
    14
 71
     2
 72
     2
 73
     0
 90
        0
 40
-0.6
 41
-30.0
 62
     5
 63
     7
421
 16777215
 74
     1
 91
        4
 64
     7
 65
   257
 75
     7
175
     7
 42
1.0
 92
        8
 66
     7
 43
1.0
 76
     1
 77
     6
 78
     2
 67
     7
 79
     5
170
     0
171
     0
290
     0
174
     0
 93
        1
 44
0.0
173
     0
291
     1
 45
0.0
1001
ACAD
1000
AcDbSavedByObjectVersion
1070
     0
  0
VISUALSTYLE
  5
33
102
{ACAD_REACTORS
330
2A
102
}
102
{ACAD_XDICTIONARY
360
400
102
}
330
2A
100
AcDbVisualStyle
  2
Realistic
 70
     8
 71
     2
 72
     2
 73
     0
 90
        0
 40
-0.6
 41
-30.0
 62
     5
 63
     7
421
 16777215
 74
     1
 91
        0
 64
     7
 65
   257
 75
     1
175
     1
 42
1.0
 92
        8
 66
     8
424
  7895160
 43
1.0
 76
     1
 77
     6
 78
     2
 67
     7
 79
     5
170
     0
171
     0
290
     0
174
     0
 93
       13
 44
0.0
173
     0
291
     0
 45
0.0
1001
ACAD
1000
AcDbSavedByObjectVersion
1070
     0
  0
VISUALSTYLE
  5
37
102
{ACAD_REACTORS
330
2A
102
}
102
{ACAD_XDICTIONARY
360
408
102
}
330
2A
100
AcDbVisualStyle
  2
Thicken
 70
    13
 71
     2
 72
     2
 73
     0
 90
        0
 40
-0.6
 41
-30.0
 62
     5
 63
     7
421
 16777215
 74
     1
 91
        4
 64
     7
 65
   257
 75
     1
175
     1
 42
1.0
 92
       12
 66
     7
 43
1.0
 76
     1
 77
     6
 78
     2
 67
     7
 79
     5
170
     0
171
     0
290
     0
174
     0
 93
        1
 44
0.0
173
     0
291
     1
 45
0.0
1001
ACAD
1000
AcDbSavedByObjectVersion
1070
     0
  0
DICTIONARYVAR
  5
3EF
102
{ACAD_REACTORS
330
3EE
102
}
330
3EE
100
DictionaryVariables
280
     0
  1
1:1
  0
DICTIONARYVAR
  5
418
102
{ACAD_REACTORS
330
3EE
102
}
330
3EE
100
DictionaryVariables
280
     0
  1
0
  0
XRECORD
  5
3ED
102
{ACAD_REACTORS
330
3EC
102
}
330
3EC
100
AcDbXrecord
280
     1
1000
This DWG file was created in ArchiCAD(TM)®
  0
DICTIONARY
  5
412
330
3D
100
AcDbDictionary
280
     1
281
     1
  3
ACAD_XREC_ROUNDTRIP
360
413
  0
DICTIONARY
  5
410
330
3C
100
AcDbDictionary
280
     1
281
     1
  3
ACAD_XREC_ROUNDTRIP
360
411
  0
DICTIONARY
  5
414
330
3E
100
AcDbDictionary
280
     1
281
     1
  3
ACAD_XREC_ROUNDTRIP
360
415
  0
DICTIONARY
  5
3F8
330
2F
100
AcDbDictionary
280
     1
281
     1
  3
ACAD_XREC_ROUNDTRIP
360
3F9
  0
DICTIONARY
  5
3FC
330
31
100
AcDbDictionary
280
     1
281
     1
  3
ACAD_XREC_ROUNDTRIP
360
3FD
  0
DICTIONARY
  5
3FA
330
30
100
AcDbDictionary
280
     1
281
     1
  3
ACAD_XREC_ROUNDTRIP
360
3FB
  0
DICTIONARY
  5
3FE
330
32
100
AcDbDictionary
280
     1
281
     1
  3
ACAD_XREC_ROUNDTRIP
360
3FF
  0
DICTIONARY
  5
406
330
36
100
AcDbDictionary
280
     1
281
     1
  3
ACAD_XREC_ROUNDTRIP
360
407
  0
DICTIONARY
  5
40E
330
3A
100
AcDbDictionary
280
     1
281
     1
  3
ACAD_XREC_ROUNDTRIP
360
40F
  0
DICTIONARY
  5
402
330
34
100
AcDbDictionary
280
     1
281
     1
  3
ACAD_XREC_ROUNDTRIP
360
403
  0
DICTIONARY
  5
404
330
35
100
AcDbDictionary
280
     1
281
     1
  3
ACAD_XREC_ROUNDTRIP
360
405
  0
DICTIONARY
  5
40C
330
39
100
AcDbDictionary
280
     1
281
     1
  3
ACAD_XREC_ROUNDTRIP
360
40D
  0
DICTIONARY
  5
3F0
330
2B
100
AcDbDictionary
280
     1
281
     1
  3
ACAD_XREC_ROUNDTRIP
360
3F1
  0
DICTIONARY
  5
3F2
330
2C
100
AcDbDictionary
280
     1
281
     1
  3
ACAD_XREC_ROUNDTRIP
360
3F3
  0
DICTIONARY
  5
3F4
330
2D
100
AcDbDictionary
280
     1
281
     1
  3
ACAD_XREC_ROUNDTRIP
360
3F5
  0
DICTIONARY
  5
3F6
330
2E
100
AcDbDictionary
280
     1
281
     1
  3
ACAD_XREC_ROUNDTRIP
360
3F7
  0
DICTIONARY
  5
40A
330
38
100
AcDbDictionary
280
     1
281
     1
  3
ACAD_XREC_ROUNDTRIP
360
40B
  0
DICTIONARY
  5
400
330
33
100
AcDbDictionary
280
     1
281
     1
  3
ACAD_XREC_ROUNDTRIP
360
401
  0
DICTIONARY
  5
408
330
37
100
AcDbDictionary
280
     1
281
     1
  3
ACAD_XREC_ROUNDTRIP
360
409
  0
XRECORD
  5
413
102
{ACAD_REACTORS
330
412
102
}
330
412
100
AcDbXrecord
280
     1
102
MATERIAL
148
0.0
149
0.0
149
0.0
 93
        0
 94
      127
282
     0
 72
     1
 77
     1
171
     1
175
     1
179
     1
273
     0
  0
XRECORD
  5
411
102
{ACAD_REACTORS
330
410
102
}
330
410
100
AcDbXrecord
280
     1
102
MATERIAL
148
0.0
149
0.0
149
0.0
 93
        0
 94
      127
282
     0
 72
     1
 77
     1
171
     1
175
     1
179
     1
273
     0
  0
XRECORD
  5
415
102
{ACAD_REACTORS
330
414
102
}
330
414
100
AcDbXrecord
280
     1
102
MATERIAL
148
0.0
149
0.0
149
0.0
 93
        0
 94
      127
282
     0
 72
     1
 77
     1
171
     1
175
     1
179
     1
273
     0
  0
XRECORD
  5
3F9
102
{ACAD_REACTORS
330
3F8
102
}
330
3F8
100
AcDbXrecord
280
     1
102
RTVSPropertyOp0
 70
     1
102
RTVSPropertyOp1
 70
     1
102
RTVSPropertyOp2
 70
     1
102
RTVSPropertyOp3
 70
     1
102
RTVSPropertyOp4
 70
     1
102
RTVSPropertyOp5
 70
     1
102
RTVSPropertyOp6
 70
     1
102
RTVSPropertyOp7
 70
     1
102
RTVSPropertyOp8
 70
     1
102
RTVSPropertyOp9
 70
     1
102
RTVSPropertyOp10
 70
     1
102
RTVSPropertyOp11
 70
     1
102
RTVSPropertyOp12
 70
     1
102
RTVSPropertyOp13
 70
     1
102
RTVSPropertyOp14
 70
     1
102
RTVSPropertyOp15
 70
     1
102
RTVSPropertyOp16
 70
     1
102
RTVSPropertyOp17
 70
     1
102
RTVSPropertyOp18
 70
     1
102
RTVSPropertyOp19
 70
     1
102
RTVSPropertyOp20
 70
     1
102
RTVSPropertyOp21
 70
     1
102
RTVSPropertyOp22
 70
     1
102
RTVSPropertyOp23
 70
     1
102
RTVSPropertyOp24
 70
     1
102
RTVSPropertyOp25
 70
     1
102
RTVSPropertyOp26
 70
     1
102
RTVSPropertyOp27
 70
     1
102
RTVSPropertyOp28
 70
     1
102
RTVSPropertyOp29
 70
     1
102
RTVSPropertyOp30
 70
     1
102
RTVSPropertyOp31
 70
     1
102
RTVSPropertyOp32
 70
     1
  0
XRECORD
  5
3FD
102
{ACAD_REACTORS
330
3FC
102
}
330
3FC
100
AcDbXrecord
280
     1
102
RTVSPropertyOp0
 70
     1
102
RTVSPropertyOp1
 70
     1
102
RTVSPropertyOp2
 70
     1
102
RTVSPropertyOp3
 70
     1
102
RTVSPropertyOp4
 70
     1
102
RTVSPropertyOp5
 70
     1
102
RTVSPropertyOp6
 70
     1
102
RTVSPropertyOp7
 70
     1
102
RTVSPropertyOp8
 70
     1
102
RTVSPropertyOp9
 70
     1
102
RTVSPropertyOp10
 70
     1
102
RTVSPropertyOp11
 70
     1
102
RTVSPropertyOp12
 70
     1
102
RTVSPropertyOp13
 70
     1
102
RTVSPropertyOp14
 70
     1
102
RTVSPropertyOp15
 70
     1
102
RTVSPropertyOp16
 70
     1
102
RTVSPropertyOp17
 70
     1
102
RTVSPropertyOp18
 70
     1
102
RTVSPropertyOp19
 70
     1
102
RTVSPropertyOp20
 70
     1
102
RTVSPropertyOp21
 70
     1
102
RTVSPropertyOp22
 70
     1
102
RTVSPropertyOp23
 70
     1
102
RTVSPropertyOp24
 70
     1
102
RTVSPropertyOp25
 70
     1
102
RTVSPropertyOp26
 70
     1
102
RTVSPropertyOp27
 70
     1
102
RTVSPropertyOp28
 70
     1
102
RTVSPropertyOp29
 70
     1
102
RTVSPropertyOp30
 70
     1
102
RTVSPropertyOp31
 70
     1
102
RTVSPropertyOp32
 70
     1
  0
XRECORD
  5
3FB
102
{ACAD_REACTORS
330
3FA
102
}
330
3FA
100
AcDbXrecord
280
     1
102
RTVSPropertyOp0
 70
     1
102
RTVSPropertyOp1
 70
     1
102
RTVSPropertyOp2
 70
     1
102
RTVSPropertyOp3
 70
     1
102
RTVSPropertyOp4
 70
     1
102
RTVSPropertyOp5
 70
     1
102
RTVSPropertyOp6
 70
     1
102
RTVSPropertyOp7
 70
     1
102
RTVSPropertyOp8
 70
     1
102
RTVSPropertyOp9
 70
     1
102
RTVSPropertyOp10
 70
     1
102
RTVSPropertyOp11
 70
     1
102
RTVSPropertyOp12
 70
     1
102
RTVSPropertyOp13
 70
     1
102
RTVSPropertyOp14
 70
     1
102
RTVSPropertyOp15
 70
     1
102
RTVSPropertyOp16
 70
     1
102
RTVSPropertyOp17
 70
     1
102
RTVSPropertyOp18
 70
     1
102
RTVSPropertyOp19
 70
     1
102
RTVSPropertyOp20
 70
     1
102
RTVSPropertyOp21
 70
     1
102
RTVSPropertyOp22
 70
     1
102
RTVSPropertyOp23
 70
     1
102
RTVSPropertyOp24
 70
     1
102
RTVSPropertyOp25
 70
     1
102
RTVSPropertyOp26
 70
     1
102
RTVSPropertyOp27
 70
     1
102
RTVSPropertyOp28
 70
     1
102
RTVSPropertyOp29
 70
     1
102
RTVSPropertyOp30
 70
     1
102
RTVSPropertyOp31
 70
     1
102
RTVSPropertyOp32
 70
     1
  0
XRECORD
  5
3FF
102
{ACAD_REACTORS
330
3FE
102
}
330
3FE
100
AcDbXrecord
280
     1
102
RTVSPropertyOp0
 70
     1
102
RTVSPropertyOp1
 70
     1
102
RTVSPropertyOp2
 70
     1
102
RTVSPropertyOp3
 70
     1
102
RTVSPropertyOp4
 70
     1
102
RTVSPropertyOp5
 70
     1
102
RTVSPropertyOp6
 70
     1
102
RTVSPropertyOp7
 70
     1
102
RTVSPropertyOp8
 70
     1
102
RTVSPropertyOp9
 70
     1
102
RTVSPropertyOp10
 70
     1
102
RTVSPropertyOp11
 70
     1
102
RTVSPropertyOp12
 70
     1
102
RTVSPropertyOp13
 70
     1
102
RTVSPropertyOp14
 70
     1
102
RTVSPropertyOp15
 70
     1
102
RTVSPropertyOp16
 70
     1
102
RTVSPropertyOp17
 70
     1
102
RTVSPropertyOp18
 70
     1
102
RTVSPropertyOp19
 70
     1
102
RTVSPropertyOp20
 70
     1
102
RTVSPropertyOp21
 70
     1
102
RTVSPropertyOp22
 70
     1
102
RTVSPropertyOp23
 70
     1
102
RTVSPropertyOp24
 70
     1
102
RTVSPropertyOp25
 70
     1
102
RTVSPropertyOp26
 70
     1
102
RTVSPropertyOp27
 70
     1
102
RTVSPropertyOp28
 70
     1
102
RTVSPropertyOp29
 70
     1
102
RTVSPropertyOp30
 70
     1
102
RTVSPropertyOp31
 70
     1
102
RTVSPropertyOp32
 70
     1
  0
XRECORD
  5
407
102
{ACAD_REACTORS
330
406
102
}
330
406
100
AcDbXrecord
280
     1
102
RTVSPropertyOp0
 70
     1
102
RTVSPropertyOp1
 70
     1
102
RTVSPropertyOp2
 70
     1
102
RTVSPropertyOp3
 70
     1
102
RTVSPropertyOp4
 70
     1
102
RTVSPropertyOp5
 70
     1
102
RTVSPropertyOp6
 70
     1
102
RTVSPropertyOp7
 70
     1
102
RTVSPropertyOp8
 70
     1
102
RTVSPropertyOp9
 70
     1
102
RTVSPropertyOp10
 70
     1
102
RTVSPropertyOp11
 70
     1
102
RTVSPropertyOp12
 70
     1
102
RTVSPropertyOp13
 70
     1
102
RTVSPropertyOp14
 70
     1
102
RTVSPropertyOp15
 70
     1
102
RTVSPropertyOp16
 70
     1
102
RTVSPropertyOp17
 70
     1
102
RTVSPropertyOp18
 70
     1
102
RTVSPropertyOp19
 70
     1
102
RTVSPropertyOp20
 70
     1
102
RTVSPropertyOp21
 70
     1
102
RTVSPropertyOp22
 70
     1
102
RTVSPropertyOp23
 70
     1
102
RTVSPropertyOp24
 70
     1
102
RTVSPropertyOp25
 70
     1
102
RTVSPropertyOp26
 70
     1
102
RTVSPropertyOp27
 70
     1
102
RTVSPropertyOp28
 70
     1
102
RTVSPropertyOp29
 70
     1
102
RTVSPropertyOp30
 70
     1
102
RTVSPropertyOp31
 70
     1
102
RTVSPropertyOp32
 70
     1
  0
XRECORD
  5
40F
102
{ACAD_REACTORS
330
40E
102
}
330
40E
100
AcDbXrecord
280
     1
102
RTVSPropertyOp0
 70
     1
102
RTVSPropertyOp1
 70
     1
102
RTVSPropertyOp2
 70
     1
102
RTVSPropertyOp3
 70
     1
102
RTVSPropertyOp4
 70
     1
102
RTVSPropertyOp5
 70
     1
102
RTVSPropertyOp6
 70
     1
102
RTVSPropertyOp7
 70
     1
102
RTVSPropertyOp8
 70
     1
102
RTVSPropertyOp9
 70
     1
102
RTVSPropertyOp10
 70
     1
102
RTVSPropertyOp11
 70
     1
102
RTVSPropertyOp12
 70
     1
102
RTVSPropertyOp13
 70
     1
102
RTVSPropertyOp14
 70
     1
102
RTVSPropertyOp15
 70
     1
102
RTVSPropertyOp16
 70
     1
102
RTVSPropertyOp17
 70
     1
102
RTVSPropertyOp18
 70
     1
102
RTVSPropertyOp19
 70
     1
102
RTVSPropertyOp20
 70
     1
102
RTVSPropertyOp21
 70
     1
102
RTVSPropertyOp22
 70
     1
102
RTVSPropertyOp23
 70
     1
102
RTVSPropertyOp24
 70
     1
102
RTVSPropertyOp25
 70
     1
102
RTVSPropertyOp26
 70
     1
102
RTVSPropertyOp27
 70
     1
102
RTVSPropertyOp28
 70
     1
102
RTVSPropertyOp29
 70
     1
102
RTVSPropertyOp30
 70
     1
102
RTVSPropertyOp31
 70
     1
102
RTVSPropertyOp32
 70
     1
  0
XRECORD
  5
403
102
{ACAD_REACTORS
330
402
102
}
330
402
100
AcDbXrecord
280
     1
102
RTVSPropertyOp0
 70
     1
102
RTVSPropertyOp1
 70
     1
102
RTVSPropertyOp2
 70
     1
102
RTVSPropertyOp3
 70
     1
102
RTVSPropertyOp4
 70
     1
102
RTVSPropertyOp5
 70
     1
102
RTVSPropertyOp6
 70
     1
102
RTVSPropertyOp7
 70
     1
102
RTVSPropertyOp8
 70
     1
102
RTVSPropertyOp9
 70
     1
102
RTVSPropertyOp10
 70
     1
102
RTVSPropertyOp11
 70
     1
102
RTVSPropertyOp12
 70
     1
102
RTVSPropertyOp13
 70
     1
102
RTVSPropertyOp14
 70
     1
102
RTVSPropertyOp15
 70
     1
102
RTVSPropertyOp16
 70
     1
102
RTVSPropertyOp17
 70
     1
102
RTVSPropertyOp18
 70
     1
102
RTVSPropertyOp19
 70
     1
102
RTVSPropertyOp20
 70
     1
102
RTVSPropertyOp21
 70
     1
102
RTVSPropertyOp22
 70
     1
102
RTVSPropertyOp23
 70
     1
102
RTVSPropertyOp24
 70
     1
102
RTVSPropertyOp25
 70
     1
102
RTVSPropertyOp26
 70
     1
102
RTVSPropertyOp27
 70
     1
102
RTVSPropertyOp28
 70
     1
102
RTVSPropertyOp29
 70
     1
102
RTVSPropertyOp30
 70
     1
102
RTVSPropertyOp31
 70
     1
102
RTVSPropertyOp32
 70
     1
  0
XRECORD
  5
405
102
{ACAD_REACTORS
330
404
102
}
330
404
100
AcDbXrecord
280
     1
102
RTVSPropertyOp0
 70
     1
102
RTVSPropertyOp1
 70
     1
102
RTVSPropertyOp2
 70
     1
102
RTVSPropertyOp3
 70
     1
102
RTVSPropertyOp4
 70
     1
102
RTVSPropertyOp5
 70
     1
102
RTVSPropertyOp6
 70
     1
102
RTVSPropertyOp7
 70
     1
102
RTVSPropertyOp8
 70
     1
102
RTVSPropertyOp9
 70
     1
102
RTVSPropertyOp10
 70
     1
102
RTVSPropertyOp11
 70
     1
102
RTVSPropertyOp12
 70
     1
102
RTVSPropertyOp13
 70
     1
102
RTVSPropertyOp14
 70
     1
102
RTVSPropertyOp15
 70
     1
102
RTVSPropertyOp16
 70
     1
102
RTVSPropertyOp17
 70
     1
102
RTVSPropertyOp18
 70
     1
102
RTVSPropertyOp19
 70
     1
102
RTVSPropertyOp20
 70
     1
102
RTVSPropertyOp21
 70
     1
102
RTVSPropertyOp22
 70
     1
102
RTVSPropertyOp23
 70
     1
102
RTVSPropertyOp24
 70
     1
102
RTVSPropertyOp25
 70
     1
102
RTVSPropertyOp26
 70
     1
102
RTVSPropertyOp27
 70
     1
102
RTVSPropertyOp28
 70
     1
102
RTVSPropertyOp29
 70
     1
102
RTVSPropertyOp30
 70
     1
102
RTVSPropertyOp31
 70
     1
102
RTVSPropertyOp32
 70
     1
  0
XRECORD
  5
40D
102
{ACAD_REACTORS
330
40C
102
}
330
40C
100
AcDbXrecord
280
     1
102
RTVSPropertyOp0
 70
     1
102
RTVSPropertyOp1
 70
     1
102
RTVSPropertyOp2
 70
     1
102
RTVSPropertyOp3
 70
     1
102
RTVSPropertyOp4
 70
     1
102
RTVSPropertyOp5
 70
     1
102
RTVSPropertyOp6
 70
     1
102
RTVSPropertyOp7
 70
     1
102
RTVSPropertyOp8
 70
     1
102
RTVSPropertyOp9
 70
     1
102
RTVSPropertyOp10
 70
     1
102
RTVSPropertyOp11
 70
     1
102
RTVSPropertyOp12
 70
     1
102
RTVSPropertyOp13
 70
     1
102
RTVSPropertyOp14
 70
     1
102
RTVSPropertyOp15
 70
     1
102
RTVSPropertyOp16
 70
     1
102
RTVSPropertyOp17
 70
     1
102
RTVSPropertyOp18
 70
     1
102
RTVSPropertyOp19
 70
     1
102
RTVSPropertyOp20
 70
     1
102
RTVSPropertyOp21
 70
     1
102
RTVSPropertyOp22
 70
     1
102
RTVSPropertyOp23
 70
     1
102
RTVSPropertyOp24
 70
     1
102
RTVSPropertyOp25
 70
     1
102
RTVSPropertyOp26
 70
     1
102
RTVSPropertyOp27
 70
     1
102
RTVSPropertyOp28
 70
     1
102
RTVSPropertyOp29
 70
     1
102
RTVSPropertyOp30
 70
     1
102
RTVSPropertyOp31
 70
     1
102
RTVSPropertyOp32
 70
     1
  0
XRECORD
  5
3F1
102
{ACAD_REACTORS
330
3F0
102
}
330
3F0
100
AcDbXrecord
280
     1
102
RTVSPropertyOp0
 70
     1
102
RTVSPropertyOp1
 70
     1
102
RTVSPropertyOp2
 70
     1
102
RTVSPropertyOp3
 70
     1
102
RTVSPropertyOp4
 70
     1
102
RTVSPropertyOp5
 70
     1
102
RTVSPropertyOp6
 70
     1
102
RTVSPropertyOp7
 70
     1
102
RTVSPropertyOp8
 70
     1
102
RTVSPropertyOp9
 70
     1
102
RTVSPropertyOp10
 70
     1
102
RTVSPropertyOp11
 70
     1
102
RTVSPropertyOp12
 70
     1
102
RTVSPropertyOp13
 70
     1
102
RTVSPropertyOp14
 70
     1
102
RTVSPropertyOp15
 70
     1
102
RTVSPropertyOp16
 70
     1
102
RTVSPropertyOp17
 70
     1
102
RTVSPropertyOp18
 70
     1
102
RTVSPropertyOp19
 70
     1
102
RTVSPropertyOp20
 70
     1
102
RTVSPropertyOp21
 70
     1
102
RTVSPropertyOp22
 70
     1
102
RTVSPropertyOp23
 70
     1
102
RTVSPropertyOp24
 70
     1
102
RTVSPropertyOp25
 70
     1
102
RTVSPropertyOp26
 70
     1
102
RTVSPropertyOp27
 70
     1
102
RTVSPropertyOp28
 70
     1
102
RTVSPropertyOp29
 70
     1
102
RTVSPropertyOp30
 70
     1
102
RTVSPropertyOp31
 70
     1
102
RTVSPropertyOp32
 70
     1
  0
XRECORD
  5
3F3
102
{ACAD_REACTORS
330
3F2
102
}
330
3F2
100
AcDbXrecord
280
     1
102
RTVSPropertyOp0
 70
     1
102
RTVSPropertyOp1
 70
     1
102
RTVSPropertyOp2
 70
     1
102
RTVSPropertyOp3
 70
     1
102
RTVSPropertyOp4
 70
     1
102
RTVSPropertyOp5
 70
     1
102
RTVSPropertyOp6
 70
     1
102
RTVSPropertyOp7
 70
     1
102
RTVSPropertyOp8
 70
     1
102
RTVSPropertyOp9
 70
     1
102
RTVSPropertyOp10
 70
     1
102
RTVSPropertyOp11
 70
     1
102
RTVSPropertyOp12
 70
     1
102
RTVSPropertyOp13
 70
     1
102
RTVSPropertyOp14
 70
     1
102
RTVSPropertyOp15
 70
     1
102
RTVSPropertyOp16
 70
     1
102
RTVSPropertyOp17
 70
     1
102
RTVSPropertyOp18
 70
     1
102
RTVSPropertyOp19
 70
     1
102
RTVSPropertyOp20
 70
     1
102
RTVSPropertyOp21
 70
     1
102
RTVSPropertyOp22
 70
     1
102
RTVSPropertyOp23
 70
     1
102
RTVSPropertyOp24
 70
     1
102
RTVSPropertyOp25
 70
     1
102
RTVSPropertyOp26
 70
     1
102
RTVSPropertyOp27
 70
     1
102
RTVSPropertyOp28
 70
     1
102
RTVSPropertyOp29
 70
     1
102
RTVSPropertyOp30
 70
     1
102
RTVSPropertyOp31
 70
     1
102
RTVSPropertyOp32
 70
     1
  0
XRECORD
  5
3F5
102
{ACAD_REACTORS
330
3F4
102
}
330
3F4
100
AcDbXrecord
280
     1
102
RTVSPropertyOp0
 70
     1
102
RTVSPropertyOp1
 70
     1
102
RTVSPropertyOp2
 70
     1
102
RTVSPropertyOp3
 70
     1
102
RTVSPropertyOp4
 70
     1
102
RTVSPropertyOp5
 70
     1
102
RTVSPropertyOp6
 70
     1
102
RTVSPropertyOp7
 70
     1
102
RTVSPropertyOp8
 70
     1
102
RTVSPropertyOp9
 70
     1
102
RTVSPropertyOp10
 70
     1
102
RTVSPropertyOp11
 70
     1
102
RTVSPropertyOp12
 70
     1
102
RTVSPropertyOp13
 70
     1
102
RTVSPropertyOp14
 70
     1
102
RTVSPropertyOp15
 70
     1
102
RTVSPropertyOp16
 70
     1
102
RTVSPropertyOp17
 70
     1
102
RTVSPropertyOp18
 70
     1
102
RTVSPropertyOp19
 70
     1
102
RTVSPropertyOp20
 70
     1
102
RTVSPropertyOp21
 70
     1
102
RTVSPropertyOp22
 70
     1
102
RTVSPropertyOp23
 70
     1
102
RTVSPropertyOp24
 70
     1
102
RTVSPropertyOp25
 70
     1
102
RTVSPropertyOp26
 70
     1
102
RTVSPropertyOp27
 70
     1
102
RTVSPropertyOp28
 70
     1
102
RTVSPropertyOp29
 70
     1
102
RTVSPropertyOp30
 70
     1
102
RTVSPropertyOp31
 70
     1
102
RTVSPropertyOp32
 70
     1
  0
XRECORD
  5
3F7
102
{ACAD_REACTORS
330
3F6
102
}
330
3F6
100
AcDbXrecord
280
     1
102
RTVSPropertyOp0
 70
     1
102
RTVSPropertyOp1
 70
     1
102
RTVSPropertyOp2
 70
     1
102
RTVSPropertyOp3
 70
     1
102
RTVSPropertyOp4
 70
     1
102
RTVSPropertyOp5
 70
     1
102
RTVSPropertyOp6
 70
     1
102
RTVSPropertyOp7
 70
     1
102
RTVSPropertyOp8
 70
     1
102
RTVSPropertyOp9
 70
     1
102
RTVSPropertyOp10
 70
     1
102
RTVSPropertyOp11
 70
     1
102
RTVSPropertyOp12
 70
     1
102
RTVSPropertyOp13
 70
     1
102
RTVSPropertyOp14
 70
     1
102
RTVSPropertyOp15
 70
     1
102
RTVSPropertyOp16
 70
     1
102
RTVSPropertyOp17
 70
     1
102
RTVSPropertyOp18
 70
     1
102
RTVSPropertyOp19
 70
     1
102
RTVSPropertyOp20
 70
     1
102
RTVSPropertyOp21
 70
     1
102
RTVSPropertyOp22
 70
     1
102
RTVSPropertyOp23
 70
     1
102
RTVSPropertyOp24
 70
     1
102
RTVSPropertyOp25
 70
     1
102
RTVSPropertyOp26
 70
     1
102
RTVSPropertyOp27
 70
     1
102
RTVSPropertyOp28
 70
     1
102
RTVSPropertyOp29
 70
     1
102
RTVSPropertyOp30
 70
     1
102
RTVSPropertyOp31
 70
     1
102
RTVSPropertyOp32
 70
     1
  0
XRECORD
  5
40B
102
{ACAD_REACTORS
330
40A
102
}
330
40A
100
AcDbXrecord
280
     1
102
RTVSPropertyOp0
 70
     1
102
RTVSPropertyOp1
 70
     1
102
RTVSPropertyOp2
 70
     1
102
RTVSPropertyOp3
 70
     1
102
RTVSPropertyOp4
 70
     1
102
RTVSPropertyOp5
 70
     1
102
RTVSPropertyOp6
 70
     1
102
RTVSPropertyOp7
 70
     1
102
RTVSPropertyOp8
 70
     1
102
RTVSPropertyOp9
 70
     1
102
RTVSPropertyOp10
 70
     1
102
RTVSPropertyOp11
 70
     1
102
RTVSPropertyOp12
 70
     1
102
RTVSPropertyOp13
 70
     1
102
RTVSPropertyOp14
 70
     1
102
RTVSPropertyOp15
 70
     1
102
RTVSPropertyOp16
 70
     1
102
RTVSPropertyOp17
 70
     1
102
RTVSPropertyOp18
 70
     1
102
RTVSPropertyOp19
 70
     1
102
RTVSPropertyOp20
 70
     1
102
RTVSPropertyOp21
 70
     1
102
RTVSPropertyOp22
 70
     1
102
RTVSPropertyOp23
 70
     1
102
RTVSPropertyOp24
 70
     1
102
RTVSPropertyOp25
 70
     1
102
RTVSPropertyOp26
 70
     1
102
RTVSPropertyOp27
 70
     1
102
RTVSPropertyOp28
 70
     1
102
RTVSPropertyOp29
 70
     1
102
RTVSPropertyOp30
 70
     1
102
RTVSPropertyOp31
 70
     1
102
RTVSPropertyOp32
 70
     1
  0
XRECORD
  5
401
102
{ACAD_REACTORS
330
400
102
}
330
400
100
AcDbXrecord
280
     1
102
RTVSPropertyOp0
 70
     1
102
RTVSPropertyOp1
 70
     1
102
RTVSPropertyOp2
 70
     1
102
RTVSPropertyOp3
 70
     1
102
RTVSPropertyOp4
 70
     1
102
RTVSPropertyOp5
 70
     1
102
RTVSPropertyOp6
 70
     1
102
RTVSPropertyOp7
 70
     1
102
RTVSPropertyOp8
 70
     1
102
RTVSPropertyOp9
 70
     1
102
RTVSPropertyOp10
 70
     1
102
RTVSPropertyOp11
 70
     1
102
RTVSPropertyOp12
 70
     1
102
RTVSPropertyOp13
 70
     1
102
RTVSPropertyOp14
 70
     1
102
RTVSPropertyOp15
 70
     1
102
RTVSPropertyOp16
 70
     1
102
RTVSPropertyOp17
 70
     1
102
RTVSPropertyOp18
 70
     1
102
RTVSPropertyOp19
 70
     1
102
RTVSPropertyOp20
 70
     1
102
RTVSPropertyOp21
 70
     1
102
RTVSPropertyOp22
 70
     1
102
RTVSPropertyOp23
 70
     1
102
RTVSPropertyOp24
 70
     1
102
RTVSPropertyOp25
 70
     1
102
RTVSPropertyOp26
 70
     1
102
RTVSPropertyOp27
 70
     1
102
RTVSPropertyOp28
 70
     1
102
RTVSPropertyOp29
 70
     1
102
RTVSPropertyOp30
 70
     1
102
RTVSPropertyOp31
 70
     1
102
RTVSPropertyOp32
 70
     1
  0
XRECORD
  5
409
102
{ACAD_REACTORS
330
408
102
}
330
408
100
AcDbXrecord
280
     1
102
RTVSPropertyOp0
 70
     1
102
RTVSPropertyOp1
 70
     1
102
RTVSPropertyOp2
 70
     1
102
RTVSPropertyOp3
 70
     1
102
RTVSPropertyOp4
 70
     1
102
RTVSPropertyOp5
 70
     1
102
RTVSPropertyOp6
 70
     1
102
RTVSPropertyOp7
 70
     1
102
RTVSPropertyOp8
 70
     1
102
RTVSPropertyOp9
 70
     1
102
RTVSPropertyOp10
 70
     1
102
RTVSPropertyOp11
 70
     1
102
RTVSPropertyOp12
 70
     1
102
RTVSPropertyOp13
 70
     1
102
RTVSPropertyOp14
 70
     1
102
RTVSPropertyOp15
 70
     1
102
RTVSPropertyOp16
 70
     1
102
RTVSPropertyOp17
 70
     1
102
RTVSPropertyOp18
 70
     1
102
RTVSPropertyOp19
 70
     1
102
RTVSPropertyOp20
 70
     1
102
RTVSPropertyOp21
 70
     1
102
RTVSPropertyOp22
 70
     1
102
RTVSPropertyOp23
 70
     1
102
RTVSPropertyOp24
 70
     1
102
RTVSPropertyOp25
 70
     1
102
RTVSPropertyOp26
 70
     1
102
RTVSPropertyOp27
 70
     1
102
RTVSPropertyOp28
 70
     1
102
RTVSPropertyOp29
 70
     1
102
RTVSPropertyOp30
 70
     1
102
RTVSPropertyOp31
 70
     1
102
RTVSPropertyOp32
 70
     1
  0
ENDSEC
  0
EOF
