  0
SECTION
  2
HEADER
  9
$ACADVER
  1
AC1024
  9
$ACADMAINTVER
 70
   155
  9
$DWGCODEPAGE
  3
ANSI_1252
  9
$LASTSAVEDBY
  1
Jason
  9
$INSBASE
 10
0.0
 20
0.0
 30
0.0
  9
$EXTMIN
 10
6917.310212939554
 20
3701.541611827172
 30
0.0
  9
$EXTMAX
 10
7290.787711534631
 20
4241.591227465967
 30
0.0
  9
$LIMMIN
 10
0.0
 20
0.0
  9
$LIMMAX
 10
12.0
 20
9.0
  9
$ORTHOMODE
 70
     0
  9
$REGENMODE
 70
     1
  9
$FILLMODE
 70
     1
  9
$QTEXTMODE
 70
     0
  9
$MIRRTEXT
 70
     1
  9
$LTSCALE
 40
5.0
  9
$ATTMODE
 70
     1
  9
$TEXTSIZE
 40
0.2
  9
$TRACEWID
 40
0.05
  9
$TEXTSTYLE
  7
Standard
  9
$CLAYER
  8
0
  9
$CELTYPE
  6
PLASTER
  9
$CECOLOR
 62
   256
  9
$CELTSCALE
 40
3.0
  9
$DISPSILH
 70
     0
  9
$DIMSCALE
 40
1.0
  9
$DIMASZ
 40
0.18
  9
$DIMEXO
 40
0.0625
  9
$DIMDLI
 40
0.38
  9
$DIMRND
 40
0.0
  9
$DIMDLE
 40
0.0
  9
$DIMEXE
 40
0.18
  9
$DIMTP
 40
0.0
  9
$DIMTM
 40
0.0
  9
$DIMTXT
 40
0.18
  9
$DIMCEN
 40
0.09
  9
$DIMTSZ
 40
0.0
  9
$DIMTOL
 70
     0
  9
$DIMLIM
 70
     0
  9
$DIMTIH
 70
     1
  9
$DIMTOH
 70
     1
  9
$DIMSE1
 70
     0
  9
$DIMSE2
 70
     0
  9
$DIMTAD
 70
     0
  9
$DIMZIN
 70
     0
  9
$DIMBLK
  1

  9
$DIMASO
 70
     1
  9
$DIMSHO
 70
     1
  9
$DIMPOST
  1

  9
$DIMAPOST
  1

  9
$DIMALT
 70
     0
  9
$DIMALTD
 70
     2
  9
$DIMALTF
 40
25.4
  9
$DIMLFAC
 40
1.0
  9
$DIMTOFL
 70
     0
  9
$DIMTVP
 40
0.0
  9
$DIMTIX
 70
     0
  9
$DIMSOXD
 70
     0
  9
$DIMSAH
 70
     0
  9
$DIMBLK1
  1

  9
$DIMBLK2
  1

  9
$DIMSTYLE
  2
Standard
  9
$DIMCLRD
 70
     0
  9
$DIMCLRE
 70
     0
  9
$DIMCLRT
 70
     0
  9
$DIMTFAC
 40
1.0
  9
$DIMGAP
 40
0.09
  9
$DIMJUST
 70
     0
  9
$DIMSD1
 70
     0
  9
$DIMSD2
 70
     0
  9
$DIMTOLJ
 70
     1
  9
$DIMTZIN
 70
     0
  9
$DIMALTZ
 70
     0
  9
$DIMALTTZ
 70
     0
  9
$DIMUPT
 70
     0
  9
$DIMDEC
 70
     4
  9
$DIMTDEC
 70
     4
  9
$DIMALTU
 70
     2
  9
$DIMALTTD
 70
     2
  9
$DIMTXSTY
  7
Standard
  9
$DIMAUNIT
 70
     0
  9
$DIMADEC
 70
     0
  9
$DIMALTRND
 40
0.0
  9
$DIMAZIN
 70
     0
  9
$DIMDSEP
 70
    46
  9
$DIMATFIT
 70
     3
  9
$DIMFRAC
 70
     0
  9
$DIMLDRBLK
  1

  9
$DIMLUNIT
 70
     2
  9
$DIMLWD
 70
    -2
  9
$DIMLWE
 70
    -2
  9
$DIMTMOVE
 70
     0
  9
$DIMFXL
 40
1.0
  9
$DIMFXLON
 70
     0
  9
$DIMJOGANG
 40
0.7853981633974483
  9
$DIMTFILL
 70
     0
  9
$DIMTFILLCLR
 70
     0
  9
$DIMARCSYM
 70
     0
  9
$DIMLTYPE
  6

  9
$DIMLTEX1
  6

  9
$DIMLTEX2
  6

  9
$DIMTXTDIRECTION
 70
     0
  9
$LUNITS
 70
     2
  9
$LUPREC
 70
     4
  9
$SKETCHINC
 40
0.1
  9
$FILLETRAD
 40
0.5
  9
$AUNITS
 70
     0
  9
$AUPREC
 70
     0
  9
$MENU
  1
.
  9
$ELEVATION
 40
0.0
  9
$PELEVATION
 40
0.0
  9
$THICKNESS
 40
0.0
  9
$LIMCHECK
 70
     0
  9
$CHAMFERA
 40
0.5
  9
$CHAMFERB
 40
0.5
  9
$CHAMFERC
 40
1.0
  9
$CHAMFERD
 40
0.0
  9
$SKPOLY
 70
     0
  9
$TDCREATE
 40
2456216.552447511
  9
$TDUCREATE
 40
2456216.010780845
  9
$TDUPDATE
 40
2456636.578791759
  9
$TDUUPDATE
 40
2456636.037125093
  9
$TDINDWG
 40
0.0247077662
  9
$TDUSRTIMER
 40
0.0247077662
  9
$USRTIMER
 70
     1
  9
$ANGBASE
 50
0.0
  9
$ANGDIR
 70
     0
  9
$PDMODE
 70
     0
  9
$PDSIZE
 40
0.0
  9
$PLINEWID
 40
0.0
  9
$SPLFRAME
 70
     0
  9
$SPLINETYPE
 70
     6
  9
$SPLINESEGS
 70
     8
  9
$HANDSEED
  5
84B
  9
$SURFTAB1
 70
     6
  9
$SURFTAB2
 70
     6
  9
$SURFTYPE
 70
     6
  9
$SURFU
 70
     6
  9
$SURFV
 70
     6
  9
$UCSBASE
  2

  9
$UCSNAME
  2

  9
$UCSORG
 10
0.0
 20
0.0
 30
0.0
  9
$UCSXDIR
 10
1.0
 20
0.0
 30
0.0
  9
$UCSYDIR
 10
0.0
 20
1.0
 30
0.0
  9
$UCSORTHOREF
  2

  9
$UCSORTHOVIEW
 70
     0
  9
$UCSORGTOP
 10
0.0
 20
0.0
 30
0.0
  9
$UCSORGBOTTOM
 10
0.0
 20
0.0
 30
0.0
  9
$UCSORGLEFT
 10
0.0
 20
0.0
 30
0.0
  9
$UCSORGRIGHT
 10
0.0
 20
0.0
 30
0.0
  9
$UCSORGFRONT
 10
0.0
 20
0.0
 30
0.0
  9
$UCSORGBACK
 10
0.0
 20
0.0
 30
0.0
  9
$PUCSBASE
  2

  9
$PUCSNAME
  2

  9
$PUCSORG
 10
0.0
 20
0.0
 30
0.0
  9
$PUCSXDIR
 10
1.0
 20
0.0
 30
0.0
  9
$PUCSYDIR
 10
0.0
 20
1.0
 30
0.0
  9
$PUCSORTHOREF
  2

  9
$PUCSORTHOVIEW
 70
     0
  9
$PUCSORGTOP
 10
0.0
 20
0.0
 30
0.0
  9
$PUCSORGBOTTOM
 10
0.0
 20
0.0
 30
0.0
  9
$PUCSORGLEFT
 10
0.0
 20
0.0
 30
0.0
  9
$PUCSORGRIGHT
 10
0.0
 20
0.0
 30
0.0
  9
$PUCSORGFRONT
 10
0.0
 20
0.0
 30
0.0
  9
$PUCSORGBACK
 10
0.0
 20
0.0
 30
0.0
  9
$USERI1
 70
     0
  9
$USERI2
 70
     0
  9
$USERI3
 70
     0
  9
$USERI4
 70
     0
  9
$USERI5
 70
     0
  9
$USERR1
 40
0.0
  9
$USERR2
 40
0.0
  9
$USERR3
 40
0.0
  9
$USERR4
 40
0.0
  9
$USERR5
 40
0.0
  9
$WORLDVIEW
 70
     1
  9
$SHADEDGE
 70
     3
  9
$SHADEDIF
 70
    70
  9
$TILEMODE
 70
     1
  9
$MAXACTVP
 70
    64
  9
$PINSBASE
 10
0.0
 20
0.0
 30
0.0
  9
$PLIMCHECK
 70
     0
  9
$PEXTMIN
 10
1.000000000000000E+20
 20
1.000000000000000E+20
 30
1.000000000000000E+20
  9
$PEXTMAX
 10
-1.000000000000000E+20
 20
-1.000000000000000E+20
 30
-1.000000000000000E+20
  9
$PLIMMIN
 10
0.0
 20
0.0
  9
$PLIMMAX
 10
12.0
 20
9.0
  9
$UNITMODE
 70
     0
  9
$VISRETAIN
 70
     1
  9
$PLINEGEN
 70
     0
  9
$PSLTSCALE
 70
     1
  9
$TREEDEPTH
 70
  3020
  9
$CMLSTYLE
  2
Standard
  9
$CMLJUST
 70
     0
  9
$CMLSCALE
 40
1.0
  9
$PROXYGRAPHICS
 70
     1
  9
$MEASUREMENT
 70
     0
  9
$CELWEIGHT
370
    -1
  9
$ENDCAPS
280
     0
  9
$JOINSTYLE
280
     0
  9
$LWDISPLAY
290
     1
  9
$INSUNITS
 70
     0
  9
$HYPERLINKBASE
  1

  9
$STYLESHEET
  1

  9
$XEDIT
290
     1
  9
$CEPSNTYPE
380
     0
  9
$PSTYLEMODE
290
     1
  9
$FINGERPRINTGUID
  2
{CCA288BB-A362-4ABF-80B9-A94680A757E5}
  9
$VERSIONGUID
  2
{D8B72600-DC20-4423-BA13-4FCE9DBCF31C}
  9
$EXTNAMES
290
     1
  9
$PSVPSCALE
 40
0.0
  9
$OLESTARTUP
290
     0
  9
$SORTENTS
280
   127
  9
$INDEXCTL
280
     0
  9
$HIDETEXT
280
     1
  9
$XCLIPFRAME
280
     0
  9
$HALOGAP
280
     0
  9
$OBSCOLOR
 70
   257
  9
$OBSLTYPE
280
     0
  9
$INTERSECTIONDISPLAY
280
     0
  9
$INTERSECTIONCOLOR
 70
   257
  9
$DIMASSOC
280
     2
  9
$PROJECTNAME
  1

  9
$CAMERADISPLAY
290
     0
  9
$LENSLENGTH
 40
50.0
  9
$CAMERAHEIGHT
 40
0.0
  9
$STEPSPERSEC
 40
2.0
  9
$STEPSIZE
 40
6.0
  9
$3DDWFPREC
 40
2.0
  9
$PSOLWIDTH
 40
0.25
  9
$PSOLHEIGHT
 40
4.0
  9
$LOFTANG1
 40
1.570796326794896
  9
$LOFTANG2
 40
1.570796326794896
  9
$LOFTMAG1
 40
0.0
  9
$LOFTMAG2
 40
0.0
  9
$LOFTPARAM
 70
     7
  9
$LOFTNORMALS
280
     1
  9
$LATITUDE
 40
37.795
  9
$LONGITUDE
 40
-122.394
  9
$NORTHDIRECTION
 40
0.0
  9
$TIMEZONE
 70
 -8000
  9
$LIGHTGLYPHDISPLAY
280
     1
  9
$TILEMODELIGHTSYNCH
280
     1
  9
$CMATERIAL
347
3C
  9
$SOLIDHIST
280
     1
  9
$SHOWHIST
280
     1
  9
$DWFFRAME
280
     2
  9
$DGNFRAME
280
     2
  9
$REALWORLDSCALE
290
     1
  9
$INTERFERECOLOR
 62
   256
  9
$INTERFEREOBJVS
345
33
  9
$INTERFEREVPVS
346
3A7
  9
$CSHADOW
280
     0
  9
$SHADOWPLANELOCATION
 40
0.0
  0
ENDSEC
  0
SECTION
  2
CLASSES
  0
CLASS
  1
ACDBDICTIONARYWDFLT
  2
AcDbDictionaryWithDefault
  3
ObjectDBX Classes
 90
        0
 91
        1
280
     0
281
     0
  0
CLASS
  1
VISUALSTYLE
  2
AcDbVisualStyle
  3
ObjectDBX Classes
 90
     4095
 91
       26
280
     0
281
     0
  0
CLASS
  1
MATERIAL
  2
AcDbMaterial
  3
ObjectDBX Classes
 90
     1153
 91
        3
280
     0
281
     0
  0
CLASS
  1
SCALE
  2
AcDbScale
  3
ObjectDBX Classes
 90
     1153
 91
       33
280
     0
281
     0
  0
CLASS
  1
WIPEOUT
  2
AcDbWipeout
  3
WipeOut|Product Desc: Object Enabler for WipeOut entity | Company: Autodesk, Inc. | WEB Address: www.autodesk.com
 90
     2175
 91
        0
280
     0
281
     1
  0
CLASS
  1
DICTIONARYVAR
  2
AcDbDictionaryVar
  3
ObjectDBX Classes
 90
        0
 91
       17
280
     0
281
     0
  0
CLASS
  1
TABLESTYLE
  2
AcDbTableStyle
  3
ObjectDBX Classes
 90
     4095
 91
        1
280
     0
281
     0
  0
CLASS
  1
MLEADERSTYLE
  2
AcDbMLeaderStyle
  3
ACDB_MLEADERSTYLE_CLASS
 90
     4095
 91
        1
280
     0
281
     0
  0
CLASS
  1
ACDBSECTIONVIEWSTYLE
  2
AcDbSectionViewStyle
  3
ObjectDBX Classes
 90
     1025
 91
        1
280
     0
281
     0
  0
CLASS
  1
ACDBDETAILVIEWSTYLE
  2
AcDbDetailViewStyle
  3
ObjectDBX Classes
 90
     1025
 91
        1
280
     0
281
     0
  0
CLASS
  1
WIPEOUTVARIABLES
  2
AcDbWipeoutVariables
  3
"WipeOut|Product Desc:     WipeOut Dbx Application|Company:          Autodesk, Inc.|WEB Address:      www.autodesk.com"
 90
        0
 91
        1
280
     0
281
     0
  0
CLASS
  1
EXACXREFPANELOBJECT
  2
ExAcXREFPanelObject
  3
EXAC_ESW
 90
     1025
 91
        1
280
     0
281
     0
  0
CLASS
  1
NPOCOLLECTION
  2
AcDbImpNonPersistentObjectsCollection
  3
ObjectDBX Classes
 90
     1153
 91
        1
280
     0
281
     0
  0
CLASS
  1
IMAGE
  2
AcDbRasterImage
  3
ISM
 90
     2175
 91
        2
280
     0
281
     1
  0
CLASS
  1
IMAGEDEF_REACTOR
  2
AcDbRasterImageDefReactor
  3
ISM
 90
        1
 91
        2
280
     0
281
     0
  0
CLASS
  1
SORTENTSTABLE
  2
AcDbSortentsTable
  3
ObjectDBX Classes
 90
        0
 91
        2
280
     0
281
     0
  0
CLASS
  1
IMAGEDEF
  2
AcDbRasterImageDef
  3
ISM
 90
        0
 91
        2
280
     0
281
     0
  0
CLASS
  1
RASTERVARIABLES
  2
AcDbRasterVariables
  3
ISM
 90
        0
 91
        1
280
     0
281
     0
  0
CLASS
  1
ACDBASSOCNETWORK
  2
AcDbAssocNetwork
  3
ObjectDBX Classes
 90
     1025
 91
        0
280
     0
281
     0
  0
CLASS
  1
ACDBASSOC2DCONSTRAINTGROUP
  2
AcDbAssoc2dConstraintGroup
  3
ObjectDBX Classes
 90
     1025
 91
        0
280
     0
281
     0
  0
CLASS
  1
ACDBASSOCGEOMDEPENDENCY
  2
AcDbAssocGeomDependency
  3
ObjectDBX Classes
 90
     1025
 91
        0
280
     0
281
     0
  0
CLASS
  1
ACAD_EVALUATION_GRAPH
  2
AcDbEvalGraph
  3
ObjectDBX Classes
 90
     1153
 91
        1
280
     0
281
     0
  0
CLASS
  1
ACAECUSTOBJ
  2
AcAeEditorObj
  3
AcAeEditorObj
 90
     1024
 91
        0
280
     0
281
     0
  0
CLASS
  1
ACDB_DYNAMICBLOCKPURGEPREVENTER_VERSION
  2
AcDbDynamicBlockPurgePreventer
  3
ObjectDBX Classes
 90
     1153
 91
        1
280
     0
281
     0
  0
CLASS
  1
CELLSTYLEMAP
  2
AcDbCellStyleMap
  3
ObjectDBX Classes
 90
     1152
 91
        2
280
     0
281
     0
  0
ENDSEC
  0
SECTION
  2
TABLES
  0
TABLE
  2
VPORT
  5
8
330
0
100
AcDbSymbolTable
 70
     1
  0
VPORT
  5
29
330
8
100
AcDbSymbolTableRecord
100
AcDbViewportTableRecord
  2
*Active
 70
     0
 10
0.0
 20
0.0
 11
1.0
 21
1.0
 12
7346.706290304303
 22
3802.217883572224
 13
0.0
 23
0.0
 14
0.5
 24
0.5
 15
0.5
 25
0.5
 16
0.0
 26
0.0
 36
1.0
 17
0.0
 27
0.0
 37
0.0
 40
1007.222650616173
 41
1.816348195329086
 42
50.0
 43
0.0
 44
0.0
 50
0.0
 51
0.0
 71
     0
 72
   100
 73
     1
 74
     3
 75
     0
 76
     0
 77
     0
 78
     0
281
     0
 65
     1
110
0.0
120
0.0
130
0.0
111
1.0
121
0.0
131
0.0
112
0.0
122
1.0
132
0.0
 79
     0
146
0.0
348
2F
 60
     3
 61
     5
292
     1
282
     1
141
0.0
142
0.0
 63
   250
1001
ACAD_NAV_VCDISPLAY
1070
     3
  0
ENDTAB
  0
TABLE
  2
LTYPE
  5
5
330
0
100
AcDbSymbolTable
 70
     8
  0
LTYPE
  5
14
330
5
100
AcDbSymbolTableRecord
100
AcDbLinetypeTableRecord
  2
ByBlock
 70
     0
  3

 72
    65
 73
     0
 40
0.0
  0
LTYPE
  5
15
330
5
100
AcDbSymbolTableRecord
100
AcDbLinetypeTableRecord
  2
ByLayer
 70
     0
  3

 72
    65
 73
     0
 40
0.0
  0
LTYPE
  5
16
330
5
100
AcDbSymbolTableRecord
100
AcDbLinetypeTableRecord
  2
Continuous
 70
     0
  3
Solid line
 72
    65
 73
     0
 40
0.0
  0
LTYPE
  5
2FF
330
5
100
AcDbSymbolTableRecord
100
AcDbLinetypeTableRecord
  2
Hidden
 70
     0
  3
- - - - - 
 72
    65
 73
     2
 40
4.938889980316162
 49
2.822222709655761
 74
     0
 49
-2.1166672706604
 74
     0
  0
LTYPE
  5
315
330
5
100
AcDbSymbolTableRecord
100
AcDbLinetypeTableRecord
  2
Sketch
 70
     0
  3
??????????
 72
    65
 73
     3
 40
40.0
 49
0.0
 74
     4
 75
     1
340
316
 46
0.3174603174603174
 50
0.0
 44
0.0
 45
0.0
 49
-40.0
 74
     0
 49
0.0
 74
     0
  0
LTYPE
  5
329
330
5
100
AcDbSymbolTableRecord
100
AcDbLinetypeTableRecord
  2
Above
 70
     0
  3
- - - - - 
 72
    65
 73
     2
 40
9.599999999999999
 49
6.0
 74
     0
 49
-3.6
 74
     0
  0
LTYPE
  5
356
330
5
100
AcDbSymbolTableRecord
100
AcDbLinetypeTableRecord
  2
Wipeout_Contour
 70
     0
  3
- - - - - 
 72
    65
 73
     2
 40
1000.0
 49
0.0
 74
     0
 49
-1000.0
 74
     0
  0
LTYPE
  5
40B
330
5
100
AcDbSymbolTableRecord
100
AcDbLinetypeTableRecord
  2
ZIGZAG
 70
     0
  3
Zig zag /\/\/\/\/\/\/\/\/\/\/\/\/\/\/\/\/\/\/\/
 72
    65
 73
     4
 40
0.8001000000000001
 49
0.0001
 74
     0
 49
-0.2
 74
     4
 75
   131
340
40A
 46
0.2
 50
0.0
 44
-0.2
 45
0.0
 49
-0.4
 74
     4
 75
   131
340
40A
 46
0.2
 50
180.0
 44
0.2
 45
0.0
 49
-0.2
 74
     0
  0
LTYPE
  5
44C
330
5
100
AcDbSymbolTableRecord
100
AcDbLinetypeTableRecord
  2
DASHEDX2
 70
     0
  3
Dashed (2x) ____  ____  ____  ____  ____  ___
 72
    65
 73
     2
 40
1.5
 49
1.0
 74
     0
 49
-0.5
 74
     0
  0
LTYPE
  5
48A
330
5
100
AcDbSymbolTableRecord
100
AcDbLinetypeTableRecord
  2
PLASTER
 70
     0
  3
PLASTER
 72
    65
 73
     2
 40
2.379214999999999
 49
0.000024
 74
     4
 75
     1
340
48B
 46
0.2
 50
0.0
 44
0.0
 45
0.0
 49
-2.379191
 74
     0
  0
ENDTAB
  0
TABLE
  2
LAYER
  5
2
102
{ACAD_XDICTIONARY
360
3CB
102
}
330
0
100
AcDbSymbolTable
 70
     6
  0
LAYER
  5
10
102
{ACAD_XDICTIONARY
360
426
102
}
330
2
100
AcDbSymbolTableRecord
100
AcDbLayerTableRecord
  2
0
 70
     0
 62
     7
  6
Continuous
370
    -3
390
F
347
3E
  0
LAYER
  5
40
102
{ACAD_XDICTIONARY
360
428
102
}
330
2
100
AcDbSymbolTableRecord
100
AcDbLayerTableRecord
  2
Specialized_Fills
 70
     0
 62
     7
  6
Continuous
370
    -3
390
F
347
3E
  0
LAYER
  5
2D7
102
{ACAD_XDICTIONARY
360
42A
102
}
330
2
100
AcDbSymbolTableRecord
100
AcDbLayerTableRecord
  2
Specialized_Lines
 70
     0
 62
     7
  6
Continuous
370
    -3
390
F
347
3E
  0
LAYER
  5
33B
102
{ACAD_XDICTIONARY
360
42C
102
}
330
2
100
AcDbSymbolTableRecord
100
AcDbLayerTableRecord
  2
Specialized_Text
 70
     0
 62
     7
  6
Continuous
370
    -3
390
F
347
3E
  0
LAYER
  5
3C2
102
{ACAD_XDICTIONARY
360
3C3
102
}
330
2
100
AcDbSymbolTableRecord
100
AcDbLayerTableRecord
  2
Viewport
 70
     0
 62
     7
  6
Continuous
370
    -3
390
F
347
3E
1001
AcAecLayerStandard
1000

1000

1001
AcCmTransparency
1071
        0
  0
LAYER
  5
626
330
2
100
AcDbSymbolTableRecord
100
AcDbLayerTableRecord
  2
Defpoints
 70
     0
 62
     7
  6
Continuous
290
     0
370
    -3
390
F
347
3E
  0
ENDTAB
  0
TABLE
  2
STYLE
  5
3
330
0
100
AcDbSymbolTable
 70
     6
  0
STYLE
  5
11
330
3
100
AcDbSymbolTableRecord
100
AcDbTextStyleTableRecord
  2
Standard
 70
     0
 40
0.0
 41
1.0
 50
0.0
 71
     0
 42
0.2
  3
txt
  4
BIGFONT.SHX
  0
STYLE
  5
316
330
3
100
AcDbSymbolTableRecord
100
AcDbTextStyleTableRecord
  2

 70
     1
 40
0.2
 41
1.0
 50
0.0
 71
     0
 42
0.2
  3
06B Wall _ Floor_ REBATED CONCRETE SLAB (Open at Base)1.Shx
  4

  0
STYLE
  5
342
330
3
100
AcDbSymbolTableRecord
100
AcDbTextStyleTableRecord
  2
GENERATED_STYLE_1
 70
     0
 40
0.0
 41
1.0
 50
0.0
 71
     0
 42
0.2
  3
ARIALUNI.TTF
  4

1001
ACAD
1000
Arial Unicode MS
1071
       34
  0
STYLE
  5
3C4
330
3
100
AcDbSymbolTableRecord
100
AcDbTextStyleTableRecord
  2
GENERATED_STYLE_2
 70
     0
 40
0.0
 41
1.0
 50
0.0
 71
     0
 42
0.2
  3
ARIALUNI.TTF
  4

1001
ACAD
1000
Arial Unicode MS
1071
       34
  0
STYLE
  5
40A
330
3
100
AcDbSymbolTableRecord
100
AcDbTextStyleTableRecord
  2

 70
     1
 40
0.0
 41
1.0
 50
0.0
 71
     0
 42
0.2
  3
ltypeshp.shx
  4

  0
STYLE
  5
48B
330
3
100
AcDbSymbolTableRecord
100
AcDbTextStyleTableRecord
  2

 70
     1
 40
0.0
 41
1.0
 50
0.0
 71
     0
 42
0.2
  3
P:\VERT-X CONSULTING LTD\2013\10 OCT\1310-015- SPECIALIZED CONSTRUCTION PRODUCTS - CONTRACT DRAUGHTING\DRAWINGS\PLASTER.SHX
  4

  0
ENDTAB
  0
TABLE
  2
VIEW
  5
6
330
0
100
AcDbSymbolTable
 70
     0
  0
ENDTAB
  0
TABLE
  2
UCS
  5
7
330
0
100
AcDbSymbolTable
 70
     0
  0
ENDTAB
  0
TABLE
  2
APPID
  5
9
330
0
100
AcDbSymbolTable
 70
    11
  0
APPID
  5
12
330
9
100
AcDbSymbolTableRecord
100
AcDbRegAppTableRecord
  2
ACAD
 70
     0
  0
APPID
  5
3C5
330
9
100
AcDbSymbolTableRecord
100
AcDbRegAppTableRecord
  2
ACAD_PSEXT
 70
     0
  0
APPID
  5
3C6
330
9
100
AcDbSymbolTableRecord
100
AcDbRegAppTableRecord
  2
ACAD_NAV_VCDISPLAY
 70
     0
  0
APPID
  5
3C7
330
9
100
AcDbSymbolTableRecord
100
AcDbRegAppTableRecord
  2
AcAecLayerStandard
 70
     0
  0
APPID
  5
3C8
330
9
100
AcDbSymbolTableRecord
100
AcDbRegAppTableRecord
  2
AcCmTransparency
 70
     0
  0
APPID
  5
3C9
330
9
100
AcDbSymbolTableRecord
100
AcDbRegAppTableRecord
  2
GradientColor1ACI
 70
     0
  0
APPID
  5
3CA
330
9
100
AcDbSymbolTableRecord
100
AcDbRegAppTableRecord
  2
GradientColor2ACI
 70
     0
  0
APPID
  5
3F1
330
9
100
AcDbSymbolTableRecord
100
AcDbRegAppTableRecord
  2
ACAD_EXEMPT_FROM_CAD_STANDARDS
 70
     0
  0
APPID
  5
414
330
9
100
AcDbSymbolTableRecord
100
AcDbRegAppTableRecord
  2
ACAUTHENVIRON
 70
     0
  0
APPID
  5
423
330
9
100
AcDbSymbolTableRecord
100
AcDbRegAppTableRecord
  2
AcDbDynamicBlockTrueName
 70
     0
  0
APPID
  5
424
330
9
100
AcDbSymbolTableRecord
100
AcDbRegAppTableRecord
  2
AcDbDynamicBlockGUID
 70
     0
  0
ENDTAB
  0
TABLE
  2
DIMSTYLE
  5
A
330
0
100
AcDbSymbolTable
 70
     4
100
AcDbDimStyleTable
 71
     1
340
27
  0
DIMSTYLE
105
27
330
A
100
AcDbSymbolTableRecord
100
AcDbDimStyleTableRecord
  2
Standard
 70
     0
340
11
  0
DIMSTYLE
105
345
102
{ACAD_REACTORS
330
344
102
}
330
A
100
AcDbSymbolTableRecord
100
AcDbDimStyleTableRecord
  2
GENERATED_STYLE__1
 70
     0
 41
3.799999999999999
 42
-20.92233615509187
 73
     0
 74
     0
 77
     1
140
5.0
172
     1
176
     7
177
     7
178
     7
179
     2
271
     0
279
     2
340
342
342
346
343
346
344
346
  0
DIMSTYLE
105
359
102
{ACAD_REACTORS
330
358
102
}
330
A
100
AcDbSymbolTableRecord
100
AcDbDimStyleTableRecord
  2
GENERATED_STYLE__2
 70
     0
 41
3.799999999999999
 42
-0.0725852103382607
 73
     0
 74
     0
 77
     1
140
5.0
172
     1
176
     7
177
     7
178
     7
179
     2
271
     0
279
     2
340
342
342
346
343
346
344
346
  0
DIMSTYLE
105
35C
330
A
100
AcDbSymbolTableRecord
100
AcDbDimStyleTableRecord
  2
GENERATED_STYLE__3
 70
     0
 41
7.295999999999999
172
     1
341
35D
  0
ENDTAB
  0
TABLE
  2
BLOCK_RECORD
  5
1
330
0
100
AcDbSymbolTable
 70
    10
  0
BLOCK_RECORD
  5
1F
102
{ACAD_XDICTIONARY
360
3F6
102
}
330
1
100
AcDbSymbolTableRecord
100
AcDbBlockTableRecord
  2
*Model_Space
340
22
 70
     0
280
     1
281
     0
  0
BLOCK_RECORD
  5
1B
330
1
100
AcDbSymbolTableRecord
100
AcDbBlockTableRecord
  2
*Paper_Space
340
1E
 70
     0
280
     1
281
     0
  0
BLOCK_RECORD
  5
23
330
1
100
AcDbSymbolTableRecord
100
AcDbBlockTableRecord
  2
*Paper_Space0
340
26
 70
     0
280
     1
281
     0
  0
BLOCK_RECORD
  5
4C
330
1
100
AcDbSymbolTableRecord
100
AcDbBlockTableRecord
  2
Fill_1
340
0
 70
     0
280
     1
281
     0
  0
BLOCK_RECORD
  5
4F
330
1
100
AcDbSymbolTableRecord
100
AcDbBlockTableRecord
  2
*X2
340
0
102
{BLKREFS
331
166
102
}
 70
     0
280
     1
281
     0
  0
BLOCK_RECORD
  5
18A
102
{ACAD_XDICTIONARY
360
415
102
}
330
1
100
AcDbSymbolTableRecord
100
AcDbBlockTableRecord
  2
Fill_2
340
0
 70
     0
280
     1
281
     0
1001
AcDbDynamicBlockGUID
1000
{6673DBD2-6589-4454-A0AE-63D5E5E63B39}
  0
BLOCK_RECORD
  5
319
102
{ACAD_XDICTIONARY
360
747
102
}
330
1
100
AcDbSymbolTableRecord
100
AcDbBlockTableRecord
  2
Line_1
340
0
102
{BLKREFS
331
321
102
}
 70
     0
280
     1
281
     0
1001
ACAUTHENVIRON
1005
73F
1001
AcDbDynamicBlockTrueName
1000
Line_1
1001
AcDbDynamicBlockGUID
1000
{CA969CBA-E9D8-4ADA-9628-7A9767E5EF1B}
  0
BLOCK_RECORD
  5
337
330
1
100
AcDbSymbolTableRecord
100
AcDbBlockTableRecord
  2
*D5
340
0
 70
     0
280
     1
281
     0
  0
BLOCK_RECORD
  5
346
330
1
100
AcDbSymbolTableRecord
100
AcDbBlockTableRecord
  2
ARROWHEAD_6
340
0
102
{BLKREFS
331
77A
331
77B
331
782
331
783
102
}
 70
     0
280
     1
281
     0
  0
BLOCK_RECORD
  5
34B
330
1
100
AcDbSymbolTableRecord
100
AcDbBlockTableRecord
  2
*D7
340
0
 70
     0
280
     1
281
     0
  0
BLOCK_RECORD
  5
35D
330
1
100
AcDbSymbolTableRecord
100
AcDbBlockTableRecord
  2
ARROWHEAD_5
340
0
 70
     0
280
     1
281
     0
  0
BLOCK_RECORD
  5
37C
330
1
100
AcDbSymbolTableRecord
100
AcDbBlockTableRecord
  2
06B Wall _ Floor_ REBATED CONCR_STORY_MARKER
340
0
 70
     0
280
     1
281
     0
  0
ENDTAB
  0
ENDSEC
  0
SECTION
  2
BLOCKS
  0
BLOCK
  5
20
330
1F
100
AcDbEntity
  8
0
100
AcDbBlockBegin
  2
*Model_Space
 70
     0
 10
0.0
 20
0.0
 30
0.0
  3
*Model_Space
  1

  0
ENDBLK
  5
21
330
1F
100
AcDbEntity
  8
0
100
AcDbBlockEnd
  0
BLOCK
  5
1C
330
1B
100
AcDbEntity
 67
     1
  8
0
100
AcDbBlockBegin
  2
*Paper_Space
 70
     0
 10
0.0
 20
0.0
 30
0.0
  3
*Paper_Space
  1

  0
ENDBLK
  5
1D
330
1B
100
AcDbEntity
 67
     1
  8
0
100
AcDbBlockEnd
  0
BLOCK
  5
24
330
23
100
AcDbEntity
 67
     1
  8
0
100
AcDbBlockBegin
  2
*Paper_Space0
 70
     0
 10
0.0
 20
0.0
 30
0.0
  3
*Paper_Space0
  1

  0
ENDBLK
  5
25
330
23
100
AcDbEntity
 67
     1
  8
0
100
AcDbBlockEnd
  0
BLOCK
  5
4D
330
4C
100
AcDbEntity
  8
0
100
AcDbBlockBegin
  2
Fill_1
 70
     0
 10
0.0
 20
0.0
 30
0.0
  3
Fill_1
  1

  0
INSERT
  5
166
330
4C
100
AcDbEntity
  8
Specialized_Fills
  6
Continuous
100
AcDbBlockReference
  2
*X2
 10
0.0
 20
0.0
 30
0.0
  0
ENDBLK
  5
4E
330
4C
100
AcDbEntity
  8
0
100
AcDbBlockEnd
  0
BLOCK
  5
50
330
4F
100
AcDbEntity
  8
0
100
AcDbBlockBegin
  2
*X2
 70
     1
 10
0.0
 20
0.0
 30
0.0
  3
*X2
  1

  0
LINE
  5
52
330
4F
100
AcDbEntity
  8
Specialized_Fills
  6
Continuous
100
AcDbLine
 10
7219.72969151751
 20
3850.831555457146
 30
0.0
 11
7223.403222706868
 21
3855.20949944957
 31
0.0
  0
LINE
  5
53
330
4F
100
AcDbEntity
  8
Specialized_Fills
  6
Continuous
100
AcDbLine
 10
7219.72969151751
 20
3977.664113766876
 30
0.0
 11
7223.403222706868
 21
3982.042057759301
 31
0.0
  0
LINE
  5
54
330
4F
100
AcDbEntity
  8
Specialized_Fills
  6
Continuous
100
AcDbLine
 10
7152.83072295394
 20
3776.534325056515
 30
0.0
 11
7156.504254143297
 21
3780.91226904894
 31
0.0
  0
LINE
  5
55
330
4F
100
AcDbEntity
  8
Specialized_Fills
  6
Continuous
100
AcDbLine
 10
7152.83072295394
 20
3903.366883366246
 30
0.0
 11
7156.504254143297
 21
3907.744827358671
 31
0.0
  0
LINE
  5
56
330
4F
100
AcDbEntity
  8
Specialized_Fills
  6
Continuous
100
AcDbLine
 10
7163.403749380437
 20
3846.049829795475
 30
0.0
 11
7167.077280569795
 21
3850.4277737879
 31
0.0
  0
LINE
  5
57
330
4F
100
AcDbEntity
  8
Specialized_Fills
  6
Continuous
100
AcDbLine
 10
7163.403749380437
 20
3972.882388105205
 30
0.0
 11
7167.077280569795
 21
3977.26033209763
 31
0.0
  0
LINE
  5
58
330
4F
100
AcDbEntity
  8
Specialized_Fills
  6
Continuous
100
AcDbLine
 10
7274.38509221631
 20
3972.882388105205
 30
0.0
 11
7278.058623405669
 21
3977.26033209763
 31
0.0
  0
LINE
  5
59
330
4F
100
AcDbEntity
  8
Specialized_Fills
  6
Continuous
100
AcDbLine
 10
7207.486123652738
 20
3771.752599394844
 30
0.0
 11
7211.159654842099
 21
3776.13054338727
 31
0.0
  0
LINE
  5
5A
330
4F
100
AcDbEntity
  8
Specialized_Fills
  6
Continuous
100
AcDbLine
 10
7207.486123652738
 20
3898.585157704575
 30
0.0
 11
7211.159654842099
 21
3902.963101696999
 31
0.0
  0
LINE
  5
5B
330
4F
100
AcDbEntity
  8
Specialized_Fills
  6
Continuous
100
AcDbLine
 10
7207.486123652738
 20
4025.417716014304
 30
0.0
 11
7211.159654842099
 21
4029.795660006729
 31
0.0
  0
LINE
  5
5C
330
4F
100
AcDbEntity
  8
Specialized_Fills
  6
Continuous
100
AcDbLine
 10
7152.830726805041
 20
3776.534277341962
 30
0.0
 11
7157.385328964716
 21
3776.13580128612
 31
0.0
  0
LINE
  5
5D
330
4F
100
AcDbEntity
  8
Specialized_Fills
  6
Continuous
100
AcDbLine
 10
7152.830726805041
 20
3903.366835651692
 30
0.0
 11
7157.385328964716
 21
3902.96835959585
 31
0.0
  0
LINE
  5
5E
330
4F
100
AcDbEntity
  8
Specialized_Fills
  6
Continuous
100
AcDbLine
 10
7157.232804346609
 20
4029.814262080573
 30
0.0
 11
7157.385328964716
 21
4029.800917905579
 31
0.0
  0
LINE
  5
5F
330
4F
100
AcDbEntity
  8
Specialized_Fills
  6
Continuous
100
AcDbLine
 10
7265.225678834778
 20
4030.075719182303
 30
0.0
 11
7268.366671800589
 21
4029.800917905579
 31
0.0
  0
LINE
  5
60
330
4F
100
AcDbEntity
  8
Specialized_Fills
  6
Continuous
100
AcDbLine
 10
7207.485952721146
 20
3771.752564671855
 30
0.0
 11
7212.040554880821
 21
3771.354088616013
 31
0.0
  0
LINE
  5
61
330
4F
100
AcDbEntity
  8
Specialized_Fills
  6
Continuous
100
AcDbLine
 10
7207.485952721146
 20
3898.585122981585
 30
0.0
 11
7212.040554880821
 21
3898.186646925742
 31
0.0
  0
LINE
  5
62
330
4F
100
AcDbEntity
  8
Specialized_Fills
  6
Continuous
100
AcDbLine
 10
7207.485952721146
 20
4025.417681291314
 30
0.0
 11
7212.040554880821
 21
4025.019205235471
 31
0.0
  0
LINE
  5
63
330
4F
100
AcDbEntity
  8
Specialized_Fills
  6
Continuous
100
AcDbLine
 10
7219.72969151751
 20
3850.831555457146
 30
0.0
 11
7224.284293677185
 21
3850.433079401304
 31
0.0
  0
LINE
  5
64
330
4F
100
AcDbEntity
  8
Specialized_Fills
  6
Continuous
100
AcDbLine
 10
7219.72969151751
 20
3977.664113766876
 30
0.0
 11
7224.284293677185
 21
3977.265637711034
 31
0.0
  0
LINE
  5
65
330
4F
100
AcDbEntity
  8
Specialized_Fills
  6
Continuous
100
AcDbLine
 10
7163.403574597741
 20
3846.049842787039
 30
0.0
 11
7167.958176757416
 21
3845.651366731196
 31
0.0
  0
LINE
  5
66
330
4F
100
AcDbEntity
  8
Specialized_Fills
  6
Continuous
100
AcDbLine
 10
7163.403574597741
 20
3972.882401096768
 30
0.0
 11
7167.958176757416
 21
3972.483925040926
 31
0.0
  0
LINE
  5
67
330
4F
100
AcDbEntity
  8
Specialized_Fills
  6
Continuous
100
AcDbLine
 10
7274.384917433614
 20
3972.882401096768
 30
0.0
 11
7278.93951959329
 21
3972.483925040926
 31
0.0
  0
LINE
  5
68
330
4F
100
AcDbEntity
  8
Specialized_Fills
  6
Continuous
100
AcDbLine
 10
7224.28429151751
 20
3850.433080457145
 30
0.0
 11
7223.403258099705
 21
3855.209504759562
 31
0.0
  0
LINE
  5
69
330
4F
100
AcDbEntity
  8
Specialized_Fills
  6
Continuous
100
AcDbLine
 10
7224.28429151751
 20
3977.265638766875
 30
0.0
 11
7223.403258099705
 21
3982.042063069292
 31
0.0
  0
LINE
  5
6A
330
4F
100
AcDbEntity
  8
Specialized_Fills
  6
Continuous
100
AcDbLine
 10
7167.958100195074
 20
3845.650995174239
 30
0.0
 11
7167.07706677727
 21
3850.427419476655
 31
0.0
  0
LINE
  5
6B
330
4F
100
AcDbEntity
  8
Specialized_Fills
  6
Continuous
100
AcDbLine
 10
7167.958100195074
 20
3972.483553483968
 30
0.0
 11
7167.07706677727
 21
3977.259977786385
 31
0.0
  0
LINE
  5
6C
330
4F
100
AcDbEntity
  8
Specialized_Fills
  6
Continuous
100
AcDbLine
 10
7278.939443030949
 20
3972.483553483968
 30
0.0
 11
7278.058409613144
 21
3977.259977786385
 31
0.0
  0
LINE
  5
6D
330
4F
100
AcDbEntity
  8
Specialized_Fills
  6
Continuous
100
AcDbLine
 10
7157.385699181422
 20
3776.135528493503
 30
0.0
 11
7156.504665763619
 21
3780.91195279592
 31
0.0
  0
LINE
  5
6E
330
4F
100
AcDbEntity
  8
Specialized_Fills
  6
Continuous
100
AcDbLine
 10
7157.385699181422
 20
3902.968086803233
 30
0.0
 11
7156.504665763619
 21
3907.74451110565
 31
0.0
  0
LINE
  5
6F
330
4F
100
AcDbEntity
  8
Specialized_Fills
  6
Continuous
100
AcDbLine
 10
7157.385699181422
 20
4029.800645112962
 30
0.0
 11
7157.334960504933
 21
4030.075719182303
 31
0.0
  0
LINE
  5
70
330
4F
100
AcDbEntity
  8
Specialized_Fills
  6
Continuous
100
AcDbLine
 10
7268.367042017297
 20
4029.800645112962
 30
0.0
 11
7268.316303340807
 21
4030.075719182303
 31
0.0
  0
LINE
  5
71
330
4F
100
AcDbEntity
  8
Specialized_Fills
  6
Continuous
100
AcDbLine
 10
7212.040850694862
 20
3771.353443210597
 30
0.0
 11
7211.159817277058
 21
3776.129867513013
 31
0.0
  0
LINE
  5
72
330
4F
100
AcDbEntity
  8
Specialized_Fills
  6
Continuous
100
AcDbLine
 10
7212.040850694862
 20
3898.186001520327
 30
0.0
 11
7211.159817277058
 21
3902.962425822742
 31
0.0
  0
LINE
  5
73
330
4F
100
AcDbEntity
  8
Specialized_Fills
  6
Continuous
100
AcDbLine
 10
7212.040850694862
 20
4025.018559830056
 30
0.0
 11
7211.159817277058
 21
4029.794984132472
 31
0.0
  0
LINE
  5
74
330
4F
100
AcDbEntity
  8
Specialized_Fills
  6
Continuous
100
AcDbLine
 10
7222.88016461253
 20
3742.522467132185
 30
0.0
 11
7225.664794869368
 21
3745.424650261903
 31
0.0
  0
LINE
  5
75
330
4F
100
AcDbEntity
  8
Specialized_Fills
  6
Continuous
100
AcDbLine
 10
7219.72969151751
 20
3866.071555457145
 30
0.0
 11
7225.664794869368
 21
3872.257208571633
 31
0.0
  0
LINE
  5
76
330
4F
100
AcDbEntity
  8
Specialized_Fills
  6
Continuous
100
AcDbLine
 10
7219.72969151751
 20
3992.904113766876
 30
0.0
 11
7225.664794869368
 21
3999.089766881363
 31
0.0
  0
LINE
  5
77
330
4F
100
AcDbEntity
  8
Specialized_Fills
  6
Continuous
100
AcDbLine
 10
7190.072060949273
 20
3853.458857077328
 30
0.0
 11
7196.007164301133
 21
3859.644510191814
 31
0.0
  0
LINE
  5
78
330
4F
100
AcDbEntity
  8
Specialized_Fills
  6
Continuous
100
AcDbLine
 10
7190.072060949273
 20
3980.291415387057
 30
0.0
 11
7196.007164301133
 21
3986.477068501545
 31
0.0
  0
LINE
  5
79
330
4F
100
AcDbEntity
  8
Specialized_Fills
  6
Continuous
100
AcDbLine
 10
7226.002410993913
 20
3742.522467132185
 30
0.0
 11
7225.664790317098
 21
3745.424642742224
 31
0.0
  0
LINE
  5
7A
330
4F
100
AcDbEntity
  8
Specialized_Fills
  6
Continuous
100
AcDbLine
 10
7226.506661517508
 20
3865.020505457146
 30
0.0
 11
7225.664790317098
 21
3872.257201051954
 31
0.0
  0
LINE
  5
7B
330
4F
100
AcDbEntity
  8
Specialized_Fills
  6
Continuous
100
AcDbLine
 10
7226.506661517508
 20
3991.853063766875
 30
0.0
 11
7225.664790317098
 21
3999.089759361684
 31
0.0
  0
LINE
  5
7C
330
4F
100
AcDbEntity
  8
Specialized_Fills
  6
Continuous
100
AcDbLine
 10
7196.849043426428
 20
3852.407825086459
 30
0.0
 11
7196.007172226018
 21
3859.644520681268
 31
0.0
  0
LINE
  5
7D
330
4F
100
AcDbEntity
  8
Specialized_Fills
  6
Continuous
100
AcDbLine
 10
7196.849043426428
 20
3979.240383396189
 30
0.0
 11
7196.007172226018
 21
3986.477078990997
 31
0.0
  0
LINE
  5
7E
330
4F
100
AcDbEntity
  8
Specialized_Fills
  6
Continuous
100
AcDbLine
 10
7219.72969151751
 20
3866.071555457145
 30
0.0
 11
7226.50666850777
 21
3865.020486061963
 31
0.0
  0
LINE
  5
7F
330
4F
100
AcDbEntity
  8
Specialized_Fills
  6
Continuous
100
AcDbLine
 10
7219.72969151751
 20
3992.904113766876
 30
0.0
 11
7226.50666850777
 21
3991.853044371693
 31
0.0
  0
LINE
  5
80
330
4F
100
AcDbEntity
  8
Specialized_Fills
  6
Continuous
100
AcDbLine
 10
7190.072072564753
 20
3853.458722714954
 30
0.0
 11
7196.849049555012
 21
3852.407653319772
 31
0.0
  0
LINE
  5
81
330
4F
100
AcDbEntity
  8
Specialized_Fills
  6
Continuous
100
AcDbLine
 10
7190.072072564753
 20
3980.291281024685
 30
0.0
 11
7196.849049555012
 21
3979.240211629502
 31
0.0
  0
LINE
  5
82
330
4F
100
AcDbEntity
  8
Specialized_Fills
  6
Continuous
100
AcDbLine
 10
7134.908830380197
 20
3790.685526682261
 30
0.0
 11
7140.24424251763
 21
3792.733599513912
 31
0.0
  0
LINE
  5
83
330
4F
100
AcDbEntity
  8
Specialized_Fills
  6
Continuous
100
AcDbLine
 10
7134.908830380197
 20
3917.518084991991
 30
0.0
 11
7140.24424251763
 21
3919.566157823643
 31
0.0
  0
LINE
  5
84
330
4F
100
AcDbEntity
  8
Specialized_Fills
  6
Continuous
100
AcDbLine
 10
7180.393294330814
 20
3760.005871127233
 30
0.0
 11
7185.728706468245
 21
3762.053943958884
 31
0.0
  0
LINE
  5
85
330
4F
100
AcDbEntity
  8
Specialized_Fills
  6
Continuous
100
AcDbLine
 10
7180.393294330814
 20
3886.838429436963
 30
0.0
 11
7185.728706468245
 21
3888.886502268614
 31
0.0
  0
LINE
  5
86
330
4F
100
AcDbEntity
  8
Specialized_Fills
  6
Continuous
100
AcDbLine
 10
7180.393294330814
 20
4013.670987746691
 30
0.0
 11
7185.728706468245
 21
4015.719060578343
 31
0.0
  0
LINE
  5
87
330
4F
100
AcDbEntity
  8
Specialized_Fills
  6
Continuous
100
AcDbLine
 10
7213.787284331819
 20
3808.915929691519
 30
0.0
 11
7214.144621956378
 21
3809.053098753952
 31
0.0
  0
LINE
  5
88
330
4F
100
AcDbEntity
  8
Specialized_Fills
  6
Continuous
100
AcDbLine
 10
7213.787284331819
 20
3935.748488001248
 30
0.0
 11
7214.144621956378
 21
3935.885657063682
 31
0.0
  0
LINE
  5
89
330
4F
100
AcDbEntity
  8
Specialized_Fills
  6
Continuous
100
AcDbLine
 10
7161.85281263225
 20
3831.581899902117
 30
0.0
 11
7167.188224769681
 21
3833.629972733768
 31
0.0
  0
LINE
  5
8A
330
4F
100
AcDbEntity
  8
Specialized_Fills
  6
Continuous
100
AcDbLine
 10
7161.85281263225
 20
3958.414458211847
 30
0.0
 11
7167.188224769681
 21
3960.462531043499
 31
0.0
  0
LINE
  5
8B
330
4F
100
AcDbEntity
  8
Specialized_Fills
  6
Continuous
100
AcDbLine
 10
7272.834155468124
 20
3958.414458211847
 30
0.0
 11
7278.169567605555
 21
3960.462531043499
 31
0.0
  0
LINE
  5
8C
330
4F
100
AcDbEntity
  8
Specialized_Fills
  6
Continuous
100
AcDbLine
 10
7134.908957185928
 20
3790.685386984112
 30
0.0
 11
7138.699316967652
 21
3788.128757029443
 31
0.0
  0
LINE
  5
8D
330
4F
100
AcDbEntity
  8
Specialized_Fills
  6
Continuous
100
AcDbLine
 10
7134.908957185928
 20
3917.517945293841
 30
0.0
 11
7138.699316967652
 21
3914.961315339173
 31
0.0
  0
LINE
  5
8E
330
4F
100
AcDbEntity
  8
Specialized_Fills
  6
Continuous
100
AcDbLine
 10
7180.393274566589
 20
3760.005827528092
 30
0.0
 11
7184.183634348311
 21
3757.449197573424
 31
0.0
  0
LINE
  5
8F
330
4F
100
AcDbEntity
  8
Specialized_Fills
  6
Continuous
100
AcDbLine
 10
7180.393274566589
 20
3886.838385837823
 30
0.0
 11
7184.183634348311
 21
3884.281755883154
 31
0.0
  0
LINE
  5
90
330
4F
100
AcDbEntity
  8
Specialized_Fills
  6
Continuous
100
AcDbLine
 10
7180.393274566589
 20
4013.670944147552
 30
0.0
 11
7184.183634348311
 21
4011.114314192884
 31
0.0
  0
LINE
  5
91
330
4F
100
AcDbEntity
  8
Specialized_Fills
  6
Continuous
100
AcDbLine
 10
7161.852666062294
 20
3831.581996001126
 30
0.0
 11
7165.643025844016
 21
3829.025366046458
 31
0.0
  0
LINE
  5
92
330
4F
100
AcDbEntity
  8
Specialized_Fills
  6
Continuous
100
AcDbLine
 10
7161.852666062294
 20
3958.414554310856
 30
0.0
 11
7165.643025844016
 21
3955.857924356188
 31
0.0
  0
LINE
  5
93
330
4F
100
AcDbEntity
  8
Specialized_Fills
  6
Continuous
100
AcDbLine
 10
7272.834008898168
 20
3958.414554310856
 30
0.0
 11
7276.624368679891
 21
3955.857924356188
 31
0.0
  0
LINE
  5
94
330
4F
100
AcDbEntity
  8
Specialized_Fills
  6
Continuous
100
AcDbLine
 10
7213.787284331819
 20
3807.988825245815
 30
0.0
 11
7214.144435246971
 21
3809.053235490306
 31
0.0
  0
LINE
  5
95
330
4F
100
AcDbEntity
  8
Specialized_Fills
  6
Continuous
100
AcDbLine
 10
7213.787284331819
 20
3934.821383555544
 30
0.0
 11
7214.144435246971
 21
3935.885793800036
 31
0.0
  0
LINE
  5
96
330
4F
100
AcDbEntity
  8
Specialized_Fills
  6
Continuous
100
AcDbLine
 10
7138.699360067675
 20
3788.128756202151
 30
0.0
 11
7140.244415183179
 21
3792.733455290045
 31
0.0
  0
LINE
  5
97
330
4F
100
AcDbEntity
  8
Specialized_Fills
  6
Continuous
100
AcDbLine
 10
7138.699360067675
 20
3914.961314511881
 30
0.0
 11
7140.244415183179
 21
3919.566013599775
 31
0.0
  0
LINE
  5
98
330
4F
100
AcDbEntity
  8
Specialized_Fills
  6
Continuous
100
AcDbLine
 10
7165.642984526631
 20
3829.025393717228
 30
0.0
 11
7167.188039642136
 21
3833.630092805123
 31
0.0
  0
LINE
  5
99
330
4F
100
AcDbEntity
  8
Specialized_Fills
  6
Continuous
100
AcDbLine
 10
7165.642984526631
 20
3955.857952026958
 30
0.0
 11
7167.188039642136
 21
3960.462651114852
 31
0.0
  0
LINE
  5
9A
330
4F
100
AcDbEntity
  8
Specialized_Fills
  6
Continuous
100
AcDbLine
 10
7276.624327362506
 20
3955.857952026958
 30
0.0
 11
7278.169382478009
 21
3960.462651114852
 31
0.0
  0
LINE
  5
9B
330
4F
100
AcDbEntity
  8
Specialized_Fills
  6
Continuous
100
AcDbLine
 10
7184.183645912672
 20
3757.449224462233
 30
0.0
 11
7185.728701028176
 21
3762.053923550128
 31
0.0
  0
LINE
  5
9C
330
4F
100
AcDbEntity
  8
Specialized_Fills
  6
Continuous
100
AcDbLine
 10
7184.183645912672
 20
3884.281782771963
 30
0.0
 11
7185.728701028176
 21
3888.886481859857
 31
0.0
  0
LINE
  5
9D
330
4F
100
AcDbEntity
  8
Specialized_Fills
  6
Continuous
100
AcDbLine
 10
7184.183645912672
 20
4011.114341081692
 30
0.0
 11
7185.728701028176
 21
4015.719040169588
 31
0.0
  0
POINT
  5
9E
330
4F
100
AcDbEntity
  8
Specialized_Fills
  6
Continuous
100
AcDbPoint
 10
7222.509434443042
 20
3800.098532133254
 30
0.0
  0
POINT
  5
9F
330
4F
100
AcDbEntity
  8
Specialized_Fills
  6
Continuous
100
AcDbPoint
 10
7222.509434443042
 20
3926.931090442984
 30
0.0
  0
POINT
  5
A0
330
4F
100
AcDbEntity
  8
Specialized_Fills
  6
Continuous
100
AcDbPoint
 10
7221.582853467864
 20
3774.732020471308
 30
0.0
  0
POINT
  5
A1
330
4F
100
AcDbEntity
  8
Specialized_Fills
  6
Continuous
100
AcDbPoint
 10
7221.582853467864
 20
3901.564578781037
 30
0.0
  0
POINT
  5
A2
330
4F
100
AcDbEntity
  8
Specialized_Fills
  6
Continuous
100
AcDbPoint
 10
7221.582853467864
 20
4028.397137090767
 30
0.0
  0
POINT
  5
A3
330
4F
100
AcDbEntity
  8
Specialized_Fills
  6
Continuous
100
AcDbPoint
 10
7150.017208625676
 20
3804.976749291891
 30
0.0
  0
POINT
  5
A4
330
4F
100
AcDbEntity
  8
Specialized_Fills
  6
Continuous
100
AcDbPoint
 10
7150.017208625676
 20
3931.809307601621
 30
0.0
  0
POINT
  5
A5
330
4F
100
AcDbEntity
  8
Specialized_Fills
  6
Continuous
100
AcDbPoint
 10
7260.99855146155
 20
3931.809307601621
 30
0.0
  0
POINT
  5
A6
330
4F
100
AcDbEntity
  8
Specialized_Fills
  6
Continuous
100
AcDbPoint
 10
7220.656272492687
 20
3749.365508809362
 30
0.0
  0
POINT
  5
A7
330
4F
100
AcDbEntity
  8
Specialized_Fills
  6
Continuous
100
AcDbPoint
 10
7220.656272492687
 20
3876.198067119092
 30
0.0
  0
POINT
  5
A8
330
4F
100
AcDbEntity
  8
Specialized_Fills
  6
Continuous
100
AcDbPoint
 10
7220.656272492687
 20
4003.030625428822
 30
0.0
  0
POINT
  5
A9
330
4F
100
AcDbEntity
  8
Specialized_Fills
  6
Continuous
100
AcDbPoint
 10
7149.090627650498
 20
3779.610237629944
 30
0.0
  0
POINT
  5
AA
330
4F
100
AcDbEntity
  8
Specialized_Fills
  6
Continuous
100
AcDbPoint
 10
7149.090627650498
 20
3906.442795939675
 30
0.0
  0
POINT
  5
AB
330
4F
100
AcDbEntity
  8
Specialized_Fills
  6
Continuous
100
AcDbPoint
 10
7219.72969151751
 20
3850.831555457146
 30
0.0
  0
POINT
  5
AC
330
4F
100
AcDbEntity
  8
Specialized_Fills
  6
Continuous
100
AcDbPoint
 10
7219.72969151751
 20
3977.664113766876
 30
0.0
  0
POINT
  5
AD
330
4F
100
AcDbEntity
  8
Specialized_Fills
  6
Continuous
100
AcDbPoint
 10
7148.16404667532
 20
3754.243725967999
 30
0.0
  0
POINT
  5
AE
330
4F
100
AcDbEntity
  8
Specialized_Fills
  6
Continuous
100
AcDbPoint
 10
7148.16404667532
 20
3881.076284277729
 30
0.0
  0
POINT
  5
AF
330
4F
100
AcDbEntity
  8
Specialized_Fills
  6
Continuous
100
AcDbPoint
 10
7259.145389511194
 20
4007.908842587458
 30
0.0
  0
POINT
  5
B0
330
4F
100
AcDbEntity
  8
Specialized_Fills
  6
Continuous
100
AcDbPoint
 10
7188.66790811055
 20
3785.32343196461
 30
0.0
  0
POINT
  5
B1
330
4F
100
AcDbEntity
  8
Specialized_Fills
  6
Continuous
100
AcDbPoint
 10
7188.66790811055
 20
3912.15599027434
 30
0.0
  0
POINT
  5
B2
330
4F
100
AcDbEntity
  8
Specialized_Fills
  6
Continuous
100
AcDbPoint
 10
7218.803110542332
 20
3825.4650437952
 30
0.0
  0
POINT
  5
B3
330
4F
100
AcDbEntity
  8
Specialized_Fills
  6
Continuous
100
AcDbPoint
 10
7218.803110542332
 20
3952.29760210493
 30
0.0
  0
POINT
  5
B4
330
4F
100
AcDbEntity
  8
Specialized_Fills
  6
Continuous
100
AcDbPoint
 10
7147.237465700142
 20
3855.709772615783
 30
0.0
  0
POINT
  5
B5
330
4F
100
AcDbEntity
  8
Specialized_Fills
  6
Continuous
100
AcDbPoint
 10
7258.218808536017
 20
3982.542330925513
 30
0.0
  0
POINT
  5
B6
330
4F
100
AcDbEntity
  8
Specialized_Fills
  6
Continuous
100
AcDbPoint
 10
7187.74132713537
 20
3759.956920302664
 30
0.0
  0
POINT
  5
B7
330
4F
100
AcDbEntity
  8
Specialized_Fills
  6
Continuous
100
AcDbPoint
 10
7187.74132713537
 20
3886.789478612394
 30
0.0
  0
POINT
  5
B8
330
4F
100
AcDbEntity
  8
Specialized_Fills
  6
Continuous
100
AcDbPoint
 10
7187.74132713537
 20
4013.622036922123
 30
0.0
  0
POINT
  5
B9
330
4F
100
AcDbEntity
  8
Specialized_Fills
  6
Continuous
100
AcDbPoint
 10
7146.310884724965
 20
3830.343260953837
 30
0.0
  0
POINT
  5
BA
330
4F
100
AcDbEntity
  8
Specialized_Fills
  6
Continuous
100
AcDbPoint
 10
7146.310884724965
 20
3957.175819263567
 30
0.0
  0
POINT
  5
BB
330
4F
100
AcDbEntity
  8
Specialized_Fills
  6
Continuous
100
AcDbPoint
 10
7257.292227560839
 20
3957.175819263567
 30
0.0
  0
POINT
  5
BC
330
4F
100
AcDbEntity
  8
Specialized_Fills
  6
Continuous
100
AcDbPoint
 10
7186.814746160194
 20
3861.422966950448
 30
0.0
  0
POINT
  5
BD
330
4F
100
AcDbEntity
  8
Specialized_Fills
  6
Continuous
100
AcDbPoint
 10
7186.814746160194
 20
3988.255525260178
 30
0.0
  0
POINT
  5
BE
330
4F
100
AcDbEntity
  8
Specialized_Fills
  6
Continuous
100
AcDbPoint
 10
7145.384303749789
 20
3804.976749291891
 30
0.0
  0
POINT
  5
BF
330
4F
100
AcDbEntity
  8
Specialized_Fills
  6
Continuous
100
AcDbPoint
 10
7145.384303749789
 20
3931.809307601621
 30
0.0
  0
POINT
  5
C0
330
4F
100
AcDbEntity
  8
Specialized_Fills
  6
Continuous
100
AcDbPoint
 10
7256.365646585662
 20
3931.809307601621
 30
0.0
  0
POINT
  5
C1
330
4F
100
AcDbEntity
  8
Specialized_Fills
  6
Continuous
100
AcDbPoint
 10
7185.888165185017
 20
3836.056455288502
 30
0.0
  0
POINT
  5
C2
330
4F
100
AcDbEntity
  8
Specialized_Fills
  6
Continuous
100
AcDbPoint
 10
7185.888165185017
 20
3962.889013598232
 30
0.0
  0
POINT
  5
C3
330
4F
100
AcDbEntity
  8
Specialized_Fills
  6
Continuous
100
AcDbPoint
 10
7184.961584209839
 20
3810.689943626556
 30
0.0
  0
POINT
  5
C4
330
4F
100
AcDbEntity
  8
Specialized_Fills
  6
Continuous
100
AcDbPoint
 10
7184.961584209839
 20
3937.522501936286
 30
0.0
  0
POINT
  5
C5
330
4F
100
AcDbEntity
  8
Specialized_Fills
  6
Continuous
100
AcDbPoint
 10
7129.764251332556
 20
3781.595952836878
 30
0.0
  0
POINT
  5
C6
330
4F
100
AcDbEntity
  8
Specialized_Fills
  6
Continuous
100
AcDbPoint
 10
7240.745594168429
 20
3781.595952836878
 30
0.0
  0
POINT
  5
C7
330
4F
100
AcDbEntity
  8
Specialized_Fills
  6
Continuous
100
AcDbPoint
 10
7129.764251332556
 20
3908.428511146608
 30
0.0
  0
POINT
  5
C8
330
4F
100
AcDbEntity
  8
Specialized_Fills
  6
Continuous
100
AcDbPoint
 10
7240.745594168429
 20
3908.428511146608
 30
0.0
  0
POINT
  5
C9
330
4F
100
AcDbEntity
  8
Specialized_Fills
  6
Continuous
100
AcDbPoint
 10
7148.840146187819
 20
3784.107342038288
 30
0.0
  0
POINT
  5
CA
330
4F
100
AcDbEntity
  8
Specialized_Fills
  6
Continuous
100
AcDbPoint
 10
7148.840146187819
 20
3910.939900348018
 30
0.0
  0
POINT
  5
CB
330
4F
100
AcDbEntity
  8
Specialized_Fills
  6
Continuous
100
AcDbPoint
 10
7177.699519790633
 20
3787.906750651906
 30
0.0
  0
POINT
  5
CC
330
4F
100
AcDbEntity
  8
Specialized_Fills
  6
Continuous
100
AcDbPoint
 10
7177.699519790633
 20
3914.739308961635
 30
0.0
  0
POINT
  5
CD
330
4F
100
AcDbEntity
  8
Specialized_Fills
  6
Continuous
100
AcDbPoint
 10
7220.699695415338
 20
3751.541780391442
 30
0.0
  0
POINT
  5
CE
330
4F
100
AcDbEntity
  8
Specialized_Fills
  6
Continuous
100
AcDbPoint
 10
7220.699695415338
 20
3878.374338701172
 30
0.0
  0
POINT
  5
CF
330
4F
100
AcDbEntity
  8
Specialized_Fills
  6
Continuous
100
AcDbPoint
 10
7220.699695415338
 20
4005.206897010901
 30
0.0
  0
POINT
  5
D0
330
4F
100
AcDbEntity
  8
Specialized_Fills
  6
Continuous
100
AcDbPoint
 10
7128.794247434727
 20
3754.053169592852
 30
0.0
  0
POINT
  5
D1
330
4F
100
AcDbEntity
  8
Specialized_Fills
  6
Continuous
100
AcDbPoint
 10
7239.775590270601
 20
3754.053169592852
 30
0.0
  0
POINT
  5
D2
330
4F
100
AcDbEntity
  8
Specialized_Fills
  6
Continuous
100
AcDbPoint
 10
7128.794247434727
 20
3880.885727902582
 30
0.0
  0
POINT
  5
D3
330
4F
100
AcDbEntity
  8
Specialized_Fills
  6
Continuous
100
AcDbPoint
 10
7239.775590270601
 20
3880.885727902582
 30
0.0
  0
POINT
  5
D4
330
4F
100
AcDbEntity
  8
Specialized_Fills
  6
Continuous
100
AcDbPoint
 10
7239.775590270601
 20
4007.718286212312
 30
0.0
  0
POINT
  5
D5
330
4F
100
AcDbEntity
  8
Specialized_Fills
  6
Continuous
100
AcDbPoint
 10
7157.653621037541
 20
3757.85257820647
 30
0.0
  0
POINT
  5
D6
330
4F
100
AcDbEntity
  8
Specialized_Fills
  6
Continuous
100
AcDbPoint
 10
7157.653621037541
 20
3884.6851365162
 30
0.0
  0
POINT
  5
D7
330
4F
100
AcDbEntity
  8
Specialized_Fills
  6
Continuous
100
AcDbPoint
 10
7157.653621037541
 20
4011.517694825929
 30
0.0
  0
POINT
  5
D8
330
4F
100
AcDbEntity
  8
Specialized_Fills
  6
Continuous
100
AcDbPoint
 10
7268.634963873414
 20
4011.517694825929
 30
0.0
  0
POINT
  5
D9
330
4F
100
AcDbEntity
  8
Specialized_Fills
  6
Continuous
100
AcDbPoint
 10
7205.777759741708
 20
3764.188241261116
 30
0.0
  0
POINT
  5
DA
330
4F
100
AcDbEntity
  8
Specialized_Fills
  6
Continuous
100
AcDbPoint
 10
7205.777759741708
 20
3891.020799570846
 30
0.0
  0
POINT
  5
DB
330
4F
100
AcDbEntity
  8
Specialized_Fills
  6
Continuous
100
AcDbPoint
 10
7205.777759741708
 20
4017.853357880575
 30
0.0
  0
POINT
  5
DC
330
4F
100
AcDbEntity
  8
Specialized_Fills
  6
Continuous
100
AcDbPoint
 10
7219.72969151751
 20
3850.831555457146
 30
0.0
  0
POINT
  5
DD
330
4F
100
AcDbEntity
  8
Specialized_Fills
  6
Continuous
100
AcDbPoint
 10
7219.72969151751
 20
3977.664113766876
 30
0.0
  0
POINT
  5
DE
330
4F
100
AcDbEntity
  8
Specialized_Fills
  6
Continuous
100
AcDbPoint
 10
7137.607722284449
 20
3854.630964070764
 30
0.0
  0
POINT
  5
DF
330
4F
100
AcDbEntity
  8
Specialized_Fills
  6
Continuous
100
AcDbPoint
 10
7248.589065120324
 20
3981.463522380494
 30
0.0
  0
POINT
  5
E0
330
4F
100
AcDbEntity
  8
Specialized_Fills
  6
Continuous
100
AcDbPoint
 10
7185.731860988616
 20
3860.96662712541
 30
0.0
  0
POINT
  5
E1
330
4F
100
AcDbEntity
  8
Specialized_Fills
  6
Continuous
100
AcDbPoint
 10
7185.731860988616
 20
3987.79918543514
 30
0.0
  0
POINT
  5
E2
330
4F
100
AcDbEntity
  8
Specialized_Fills
  6
Continuous
100
AcDbPoint
 10
7204.80775584388
 20
3863.478016326819
 30
0.0
  0
POINT
  5
E3
330
4F
100
AcDbEntity
  8
Specialized_Fills
  6
Continuous
100
AcDbPoint
 10
7204.80775584388
 20
3990.31057463655
 30
0.0
  0
POINT
  5
E4
330
4F
100
AcDbEntity
  8
Specialized_Fills
  6
Continuous
100
AcDbPoint
 10
7228.543166367231
 20
3824.576791625328
 30
0.0
  0
POINT
  5
E5
330
4F
100
AcDbEntity
  8
Specialized_Fills
  6
Continuous
100
AcDbPoint
 10
7228.543166367231
 20
3951.409349935058
 30
0.0
  0
POINT
  5
E6
330
4F
100
AcDbEntity
  8
Specialized_Fills
  6
Continuous
100
AcDbPoint
 10
7165.685962235525
 20
3830.912454679975
 30
0.0
  0
POINT
  5
E7
330
4F
100
AcDbEntity
  8
Specialized_Fills
  6
Continuous
100
AcDbPoint
 10
7165.685962235525
 20
3957.745012989704
 30
0.0
  0
POINT
  5
E8
330
4F
100
AcDbEntity
  8
Specialized_Fills
  6
Continuous
100
AcDbPoint
 10
7276.667305071399
 20
3957.745012989704
 30
0.0
  0
POINT
  5
E9
330
4F
100
AcDbEntity
  8
Specialized_Fills
  6
Continuous
100
AcDbPoint
 10
7184.761857090788
 20
3833.423843881384
 30
0.0
  0
POINT
  5
EA
330
4F
100
AcDbEntity
  8
Specialized_Fills
  6
Continuous
100
AcDbPoint
 10
7184.761857090788
 20
3960.256402191113
 30
0.0
  0
POINT
  5
EB
330
4F
100
AcDbEntity
  8
Specialized_Fills
  6
Continuous
100
AcDbPoint
 10
7213.621230693601
 20
3837.223252495002
 30
0.0
  0
POINT
  5
EC
330
4F
100
AcDbEntity
  8
Specialized_Fills
  6
Continuous
100
AcDbPoint
 10
7102.639887857726
 20
3964.055810804732
 30
0.0
  0
POINT
  5
ED
330
4F
100
AcDbEntity
  8
Specialized_Fills
  6
Continuous
100
AcDbPoint
 10
7213.621230693601
 20
3964.055810804732
 30
0.0
  0
POINT
  5
EE
330
4F
100
AcDbEntity
  8
Specialized_Fills
  6
Continuous
100
AcDbPoint
 10
7193.575331940508
 20
3807.169080049567
 30
0.0
  0
POINT
  5
EF
330
4F
100
AcDbEntity
  8
Specialized_Fills
  6
Continuous
100
AcDbPoint
 10
7193.575331940508
 20
3934.001638359296
 30
0.0
  0
POINT
  5
F0
330
4F
100
AcDbEntity
  8
Specialized_Fills
  6
Continuous
100
AcDbPoint
 10
7203.108645809009
 20
3798.232963232802
 30
0.0
  0
POINT
  5
F1
330
4F
100
AcDbEntity
  8
Specialized_Fills
  6
Continuous
100
AcDbPoint
 10
7203.108645809009
 20
3925.065521542531
 30
0.0
  0
POINT
  5
F2
330
4F
100
AcDbEntity
  8
Specialized_Fills
  6
Continuous
100
AcDbPoint
 10
7162.431467258947
 20
3799.951586430604
 30
0.0
  0
POINT
  5
F3
330
4F
100
AcDbEntity
  8
Specialized_Fills
  6
Continuous
100
AcDbPoint
 10
7162.431467258947
 20
3926.784144740333
 30
0.0
  0
POINT
  5
F4
330
4F
100
AcDbEntity
  8
Specialized_Fills
  6
Continuous
100
AcDbPoint
 10
7178.498074301682
 20
3789.716028891597
 30
0.0
  0
POINT
  5
F5
330
4F
100
AcDbEntity
  8
Specialized_Fills
  6
Continuous
100
AcDbPoint
 10
7178.498074301682
 20
3916.548587201326
 30
0.0
  0
POINT
  5
F6
330
4F
100
AcDbEntity
  8
Specialized_Fills
  6
Continuous
100
AcDbPoint
 10
7121.754288708885
 20
3801.670209628406
 30
0.0
  0
POINT
  5
F7
330
4F
100
AcDbEntity
  8
Specialized_Fills
  6
Continuous
100
AcDbPoint
 10
7232.73563154476
 20
3801.670209628406
 30
0.0
  0
POINT
  5
F8
330
4F
100
AcDbEntity
  8
Specialized_Fills
  6
Continuous
100
AcDbPoint
 10
7121.754288708885
 20
3928.502767938135
 30
0.0
  0
POINT
  5
F9
330
4F
100
AcDbEntity
  8
Specialized_Fills
  6
Continuous
100
AcDbPoint
 10
7232.73563154476
 20
3928.502767938135
 30
0.0
  0
POINT
  5
FA
330
4F
100
AcDbEntity
  8
Specialized_Fills
  6
Continuous
100
AcDbPoint
 10
7137.82089575162
 20
3791.434652089399
 30
0.0
  0
POINT
  5
FB
330
4F
100
AcDbEntity
  8
Specialized_Fills
  6
Continuous
100
AcDbPoint
 10
7137.82089575162
 20
3918.267210399129
 30
0.0
  0
POINT
  5
FC
330
4F
100
AcDbEntity
  8
Specialized_Fills
  6
Continuous
100
AcDbPoint
 10
7187.948709724956
 20
3759.499712567697
 30
0.0
  0
POINT
  5
FD
330
4F
100
AcDbEntity
  8
Specialized_Fills
  6
Continuous
100
AcDbPoint
 10
7187.948709724956
 20
3886.332270877427
 30
0.0
  0
POINT
  5
FE
330
4F
100
AcDbEntity
  8
Specialized_Fills
  6
Continuous
100
AcDbPoint
 10
7187.948709724956
 20
4013.164829187156
 30
0.0
  0
POINT
  5
FF
330
4F
100
AcDbEntity
  8
Specialized_Fills
  6
Continuous
100
AcDbPoint
 10
7147.271531174894
 20
3761.218335765498
 30
0.0
  0
POINT
  5
100
330
4F
100
AcDbEntity
  8
Specialized_Fills
  6
Continuous
100
AcDbPoint
 10
7147.271531174894
 20
3888.050894075229
 30
0.0
  0
POINT
  5
101
330
4F
100
AcDbEntity
  8
Specialized_Fills
  6
Continuous
100
AcDbPoint
 10
7258.252874010769
 20
4014.883452384958
 30
0.0
  0
POINT
  5
102
330
4F
100
AcDbEntity
  8
Specialized_Fills
  6
Continuous
100
AcDbPoint
 10
7213.787284331819
 20
3845.67568586374
 30
0.0
  0
POINT
  5
103
330
4F
100
AcDbEntity
  8
Specialized_Fills
  6
Continuous
100
AcDbPoint
 10
7213.787284331819
 20
3972.508244173469
 30
0.0
  0
POINT
  5
104
330
4F
100
AcDbEntity
  8
Specialized_Fills
  6
Continuous
100
AcDbPoint
 10
7217.575695460706
 20
3762.936958963301
 30
0.0
  0
POINT
  5
105
330
4F
100
AcDbEntity
  8
Specialized_Fills
  6
Continuous
100
AcDbPoint
 10
7217.575695460706
 20
3889.769517273031
 30
0.0
  0
POINT
  5
106
330
4F
100
AcDbEntity
  8
Specialized_Fills
  6
Continuous
100
AcDbPoint
 10
7217.575695460706
 20
4016.60207558276
 30
0.0
  0
POINT
  5
107
330
4F
100
AcDbEntity
  8
Specialized_Fills
  6
Continuous
100
AcDbPoint
 10
7173.110105781758
 20
3847.394309061542
 30
0.0
  0
POINT
  5
108
330
4F
100
AcDbEntity
  8
Specialized_Fills
  6
Continuous
100
AcDbPoint
 10
7173.110105781758
 20
3974.226867371271
 30
0.0
  0
POINT
  5
109
330
4F
100
AcDbEntity
  8
Specialized_Fills
  6
Continuous
100
AcDbPoint
 10
7284.091448617632
 20
3974.226867371271
 30
0.0
  0
POINT
  5
10A
330
4F
100
AcDbEntity
  8
Specialized_Fills
  6
Continuous
100
AcDbPoint
 10
7189.176712824494
 20
3837.158751522535
 30
0.0
  0
POINT
  5
10B
330
4F
100
AcDbEntity
  8
Specialized_Fills
  6
Continuous
100
AcDbPoint
 10
7189.176712824494
 20
3963.991309832265
 30
0.0
  0
POINT
  5
10C
330
4F
100
AcDbEntity
  8
Specialized_Fills
  6
Continuous
100
AcDbPoint
 10
7132.432927231696
 20
3849.112932259344
 30
0.0
  0
POINT
  5
10D
330
4F
100
AcDbEntity
  8
Specialized_Fills
  6
Continuous
100
AcDbPoint
 10
7243.414270067571
 20
3975.945490569073
 30
0.0
  0
POINT
  5
10E
330
4F
100
AcDbEntity
  8
Specialized_Fills
  6
Continuous
100
AcDbPoint
 10
7148.499534274432
 20
3838.877374720336
 30
0.0
  0
POINT
  5
10F
330
4F
100
AcDbEntity
  8
Specialized_Fills
  6
Continuous
100
AcDbPoint
 10
7148.499534274432
 20
3965.709933030067
 30
0.0
  0
POINT
  5
110
330
4F
100
AcDbEntity
  8
Specialized_Fills
  6
Continuous
100
AcDbPoint
 10
7259.480877110306
 20
3965.709933030067
 30
0.0
  0
POINT
  5
111
330
4F
100
AcDbEntity
  8
Specialized_Fills
  6
Continuous
100
AcDbPoint
 10
7198.627348247767
 20
3806.942435198635
 30
0.0
  0
POINT
  5
112
330
4F
100
AcDbEntity
  8
Specialized_Fills
  6
Continuous
100
AcDbPoint
 10
7198.627348247767
 20
3933.774993508365
 30
0.0
  0
POINT
  5
113
330
4F
100
AcDbEntity
  8
Specialized_Fills
  6
Continuous
100
AcDbPoint
 10
7218.803698560245
 20
3840.595997918139
 30
0.0
  0
POINT
  5
114
330
4F
100
AcDbEntity
  8
Specialized_Fills
  6
Continuous
100
AcDbPoint
 10
7107.822355724372
 20
3967.428556227869
 30
0.0
  0
POINT
  5
115
330
4F
100
AcDbEntity
  8
Specialized_Fills
  6
Continuous
100
AcDbPoint
 10
7218.803698560245
 20
3967.428556227869
 30
0.0
  0
POINT
  5
116
330
4F
100
AcDbEntity
  8
Specialized_Fills
  6
Continuous
100
AcDbPoint
 10
7157.950169697705
 20
3808.661058396437
 30
0.0
  0
POINT
  5
117
330
4F
100
AcDbEntity
  8
Specialized_Fills
  6
Continuous
100
AcDbPoint
 10
7157.950169697705
 20
3935.493616706168
 30
0.0
  0
POINT
  5
118
330
4F
100
AcDbEntity
  8
Specialized_Fills
  6
Continuous
100
AcDbPoint
 10
7268.93151253358
 20
3935.493616706168
 30
0.0
  0
POINT
  5
119
330
4F
100
AcDbEntity
  8
Specialized_Fills
  6
Continuous
100
AcDbPoint
 10
7228.254333983518
 20
3810.37968159424
 30
0.0
  0
POINT
  5
11A
330
4F
100
AcDbEntity
  8
Specialized_Fills
  6
Continuous
100
AcDbPoint
 10
7228.254333983518
 20
3937.212239903969
 30
0.0
  0
POINT
  5
11B
330
4F
100
AcDbEntity
  8
Specialized_Fills
  6
Continuous
100
AcDbPoint
 10
7176.159320126327
 20
3784.720619835346
 30
0.0
  0
POINT
  5
11C
330
4F
100
AcDbEntity
  8
Specialized_Fills
  6
Continuous
100
AcDbPoint
 10
7176.159320126327
 20
3911.553178145076
 30
0.0
  0
POINT
  5
11D
330
4F
100
AcDbEntity
  8
Specialized_Fills
  6
Continuous
100
AcDbPoint
 10
7131.720565710522
 20
3777.092672525346
 30
0.0
  0
POINT
  5
11E
330
4F
100
AcDbEntity
  8
Specialized_Fills
  6
Continuous
100
AcDbPoint
 10
7131.720565710522
 20
3903.925230835076
 30
0.0
  0
POINT
  5
11F
330
4F
100
AcDbEntity
  8
Specialized_Fills
  6
Continuous
100
AcDbPoint
 10
7173.013257513247
 20
3866.087450077145
 30
0.0
  0
POINT
  5
120
330
4F
100
AcDbEntity
  8
Specialized_Fills
  6
Continuous
100
AcDbPoint
 10
7173.013257513247
 20
3992.920008386876
 30
0.0
  0
POINT
  5
121
330
4F
100
AcDbEntity
  8
Specialized_Fills
  6
Continuous
100
AcDbPoint
 10
7283.994600349121
 20
3992.920008386876
 30
0.0
  0
POINT
  5
122
330
4F
100
AcDbEntity
  8
Specialized_Fills
  6
Continuous
100
AcDbPoint
 10
7191.271930759348
 20
3849.356458585543
 30
0.0
  0
POINT
  5
123
330
4F
100
AcDbEntity
  8
Specialized_Fills
  6
Continuous
100
AcDbPoint
 10
7191.271930759348
 20
3976.189016895273
 30
0.0
  0
POINT
  5
124
330
4F
100
AcDbEntity
  8
Specialized_Fills
  6
Continuous
100
AcDbPoint
 10
7128.574503097441
 20
3858.459502767146
 30
0.0
  0
POINT
  5
125
330
4F
100
AcDbEntity
  8
Specialized_Fills
  6
Continuous
100
AcDbPoint
 10
7239.555845933316
 20
3858.459502767146
 30
0.0
  0
POINT
  5
126
330
4F
100
AcDbEntity
  8
Specialized_Fills
  6
Continuous
100
AcDbPoint
 10
7239.555845933316
 20
3985.292061076876
 30
0.0
  0
POINT
  5
127
330
4F
100
AcDbEntity
  8
Specialized_Fills
  6
Continuous
100
AcDbPoint
 10
7146.833176343545
 20
3841.728511275544
 30
0.0
  0
POINT
  5
128
330
4F
100
AcDbEntity
  8
Specialized_Fills
  6
Continuous
100
AcDbPoint
 10
7146.833176343545
 20
3968.561069585274
 30
0.0
  0
POINT
  5
129
330
4F
100
AcDbEntity
  8
Specialized_Fills
  6
Continuous
100
AcDbPoint
 10
7257.814519179418
 20
3968.561069585274
 30
0.0
  0
POINT
  5
12A
330
4F
100
AcDbEntity
  8
Specialized_Fills
  6
Continuous
100
AcDbPoint
 10
7175.934692471177
 20
3815.061884836622
 30
0.0
  0
POINT
  5
12B
330
4F
100
AcDbEntity
  8
Specialized_Fills
  6
Continuous
100
AcDbPoint
 10
7175.934692471177
 20
3941.894443146351
 30
0.0
  0
POINT
  5
12C
330
4F
100
AcDbEntity
  8
Specialized_Fills
  6
Continuous
100
AcDbPoint
 10
7131.495938055372
 20
3807.433937526621
 30
0.0
  0
POINT
  5
12D
330
4F
100
AcDbEntity
  8
Specialized_Fills
  6
Continuous
100
AcDbPoint
 10
7131.495938055372
 20
3934.266495836352
 30
0.0
  0
POINT
  5
12E
330
4F
100
AcDbEntity
  8
Specialized_Fills
  6
Continuous
100
AcDbPoint
 10
7242.477280891247
 20
3934.266495836352
 30
0.0
  0
LINE
  5
12F
330
4F
100
AcDbEntity
  8
Specialized_Fills
  6
Continuous
100
AcDbLine
 10
7128.221833817093
 20
3833.907802466863
 30
0.0
 11
7133.900858477959
 21
3833.267565088
 31
0.0
  0
LINE
  5
130
330
4F
100
AcDbEntity
  8
Specialized_Fills
  6
Continuous
100
AcDbLine
 10
7239.203176652968
 20
3833.907802466863
 30
0.0
 11
7241.052249771617
 21
3833.69934312789
 31
0.0
  0
LINE
  5
131
330
4F
100
AcDbEntity
  8
Specialized_Fills
  6
Continuous
100
AcDbLine
 10
7128.221833817093
 20
3960.740360776592
 30
0.0
 11
7133.900858477959
 21
3960.100123397729
 31
0.0
  0
LINE
  5
132
330
4F
100
AcDbEntity
  8
Specialized_Fills
  6
Continuous
100
AcDbLine
 10
7239.203176652968
 20
3960.740360776592
 30
0.0
 11
7244.882201313832
 21
3960.100123397729
 31
0.0
  0
LINE
  5
133
330
4F
100
AcDbEntity
  8
Specialized_Fills
  6
Continuous
100
AcDbLine
 10
7128.221833817093
 20
3833.907802466863
 30
0.0
 11
7130.408156192458
 21
3829.892434679101
 31
0.0
  0
LINE
  5
134
330
4F
100
AcDbEntity
  8
Specialized_Fills
  6
Continuous
100
AcDbLine
 10
7239.203176652968
 20
3833.907802466863
 30
0.0
 11
7241.052249771617
 21
3830.511821745306
 31
0.0
  0
LINE
  5
135
330
4F
100
AcDbEntity
  8
Specialized_Fills
  6
Continuous
100
AcDbLine
 10
7128.221833817093
 20
3960.740360776592
 30
0.0
 11
7130.408156192458
 21
3956.724992988831
 31
0.0
  0
LINE
  5
136
330
4F
100
AcDbEntity
  8
Specialized_Fills
  6
Continuous
100
AcDbLine
 10
7239.203176652968
 20
3960.740360776592
 30
0.0
 11
7241.389499028331
 21
3956.724992988831
 31
0.0
  0
LINE
  5
137
330
4F
100
AcDbEntity
  8
Specialized_Fills
  6
Continuous
100
AcDbLine
 10
7130.408155878082
 20
3829.892437062412
 30
0.0
 11
7133.900882471936
 21
3833.267538533567
 31
0.0
  0
LINE
  5
138
330
4F
100
AcDbEntity
  8
Specialized_Fills
  6
Continuous
100
AcDbLine
 10
7130.408155878082
 20
3956.724995372141
 30
0.0
 11
7133.900882471936
 21
3960.100096843297
 31
0.0
  0
LINE
  5
139
330
4F
100
AcDbEntity
  8
Specialized_Fills
  6
Continuous
100
AcDbLine
 10
7241.389498713957
 20
3956.724995372141
 30
0.0
 11
7244.882225307811
 21
3960.100096843297
 31
0.0
  0
LINE
  5
13A
330
4F
100
AcDbEntity
  8
Specialized_Fills
  6
Continuous
100
AcDbLine
 10
7150.150835597074
 20
3742.522467132185
 30
0.0
 11
7151.820175262455
 21
3747.084227726475
 31
0.0
  0
LINE
  5
13B
330
4F
100
AcDbEntity
  8
Specialized_Fills
  6
Continuous
100
AcDbLine
 10
7149.856188798705
 20
3868.549851886225
 30
0.0
 11
7151.820175262455
 21
3873.916786036204
 31
0.0
  0
LINE
  5
13C
330
4F
100
AcDbEntity
  8
Specialized_Fills
  6
Continuous
100
AcDbLine
 10
7260.83753163458
 20
3995.382410195955
 30
0.0
 11
7262.801518098328
 21
4000.749344345933
 31
0.0
  0
LINE
  5
13D
330
4F
100
AcDbEntity
  8
Specialized_Fills
  6
Continuous
100
AcDbLine
 10
7152.882380839378
 20
3742.522467132185
 30
0.0
 11
7154.274305043189
 21
3742.892837494178
 31
0.0
  0
LINE
  5
13E
330
4F
100
AcDbEntity
  8
Specialized_Fills
  6
Continuous
100
AcDbLine
 10
7149.85603989324
 20
3868.549761054196
 30
0.0
 11
7154.274305043189
 21
3869.725395803908
 31
0.0
  0
LINE
  5
13F
330
4F
100
AcDbEntity
  8
Specialized_Fills
  6
Continuous
100
AcDbLine
 10
7260.837382729113
 20
3995.382319363925
 30
0.0
 11
7265.255647879064
 21
3996.557954113637
 31
0.0
  0
LINE
  5
140
330
4F
100
AcDbEntity
  8
Specialized_Fills
  6
Continuous
100
AcDbLine
 10
7154.274802879131
 20
3742.892331318839
 30
0.0
 11
7151.820558054996
 21
3747.083647501521
 31
0.0
  0
LINE
  5
141
330
4F
100
AcDbEntity
  8
Specialized_Fills
  6
Continuous
100
AcDbLine
 10
7154.274802879131
 20
3869.724889628569
 30
0.0
 11
7151.820558054996
 21
3873.916205811251
 31
0.0
  0
LINE
  5
142
330
4F
100
AcDbEntity
  8
Specialized_Fills
  6
Continuous
100
AcDbLine
 10
7265.256145715006
 20
3996.557447938299
 30
0.0
 11
7262.801900890869
 21
4000.74876412098
 31
0.0
  0
LINE
  5
143
330
4F
100
AcDbEntity
  8
Specialized_Fills
  6
Continuous
100
AcDbLine
 10
7188.408490121974
 20
3794.002699538389
 30
0.0
 11
7193.743902259405
 21
3796.050772370041
 31
0.0
  0
LINE
  5
144
330
4F
100
AcDbEntity
  8
Specialized_Fills
  6
Continuous
100
AcDbLine
 10
7188.408490121974
 20
3920.835257848119
 30
0.0
 11
7193.743902259405
 21
3922.88333067977
 31
0.0
  0
LINE
  5
145
330
4F
100
AcDbEntity
  8
Specialized_Fills
  6
Continuous
100
AcDbLine
 10
7188.408470357749
 20
3794.002655939249
 30
0.0
 11
7192.198830139472
 21
3791.446025984581
 31
0.0
  0
LINE
  5
146
330
4F
100
AcDbEntity
  8
Specialized_Fills
  6
Continuous
100
AcDbLine
 10
7188.408470357749
 20
3920.835214248979
 30
0.0
 11
7192.198830139472
 21
3918.278584294311
 31
0.0
  0
LINE
  5
147
330
4F
100
AcDbEntity
  8
Specialized_Fills
  6
Continuous
100
AcDbLine
 10
7192.198841703834
 20
3791.44605287339
 30
0.0
 11
7193.743896819336
 21
3796.050751961285
 31
0.0
  0
LINE
  5
148
330
4F
100
AcDbEntity
  8
Specialized_Fills
  6
Continuous
100
AcDbLine
 10
7192.198841703834
 20
3918.27861118312
 30
0.0
 11
7193.743896819336
 21
3922.883310271014
 31
0.0
  0
LINE
  5
149
330
4F
100
AcDbEntity
  8
Specialized_Fills
  6
Continuous
100
AcDbLine
 10
7189.107854964703
 20
3821.754728754708
 30
0.0
 11
7194.443267102134
 21
3823.802801586359
 31
0.0
  0
LINE
  5
14A
330
4F
100
AcDbEntity
  8
Specialized_Fills
  6
Continuous
100
AcDbLine
 10
7189.107854964703
 20
3948.587287064438
 30
0.0
 11
7194.443267102134
 21
3950.635359896089
 31
0.0
  0
LINE
  5
14B
330
4F
100
AcDbEntity
  8
Specialized_Fills
  6
Continuous
100
AcDbLine
 10
7189.107835200478
 20
3821.754685155568
 30
0.0
 11
7192.898194982202
 21
3819.198055200899
 31
0.0
  0
LINE
  5
14C
330
4F
100
AcDbEntity
  8
Specialized_Fills
  6
Continuous
100
AcDbLine
 10
7189.107835200478
 20
3948.587243465297
 30
0.0
 11
7192.898194982202
 21
3946.030613510629
 31
0.0
  0
LINE
  5
14D
330
4F
100
AcDbEntity
  8
Specialized_Fills
  6
Continuous
100
AcDbLine
 10
7192.898206546563
 20
3819.198082089709
 30
0.0
 11
7194.443261662065
 21
3823.802781177603
 31
0.0
  0
LINE
  5
14E
330
4F
100
AcDbEntity
  8
Specialized_Fills
  6
Continuous
100
AcDbLine
 10
7192.898206546563
 20
3946.030640399438
 30
0.0
 11
7194.443261662065
 21
3950.635339487333
 31
0.0
  0
LINE
  5
14F
330
4F
100
AcDbEntity
  8
Specialized_Fills
  6
Continuous
100
AcDbLine
 10
7121.84834788265
 20
3765.784722878482
 30
0.0
 11
7127.183760020081
 21
3767.832795710134
 31
0.0
  0
LINE
  5
150
330
4F
100
AcDbEntity
  8
Specialized_Fills
  6
Continuous
100
AcDbLine
 10
7232.829690718523
 20
3765.784722878482
 30
0.0
 11
7238.165102855955
 21
3767.832795710134
 31
0.0
  0
LINE
  5
151
330
4F
100
AcDbEntity
  8
Specialized_Fills
  6
Continuous
100
AcDbLine
 10
7121.84834788265
 20
3892.617281188212
 30
0.0
 11
7127.183760020081
 21
3894.665354019864
 31
0.0
  0
LINE
  5
152
330
4F
100
AcDbEntity
  8
Specialized_Fills
  6
Continuous
100
AcDbLine
 10
7232.829690718523
 20
3892.617281188212
 30
0.0
 11
7238.165102855955
 21
3894.665354019864
 31
0.0
  0
LINE
  5
153
330
4F
100
AcDbEntity
  8
Specialized_Fills
  6
Continuous
100
AcDbLine
 10
7232.829690718523
 20
4019.449839497942
 30
0.0
 11
7238.165102855955
 21
4021.497912329593
 31
0.0
  0
LINE
  5
154
330
4F
100
AcDbEntity
  8
Specialized_Fills
  6
Continuous
100
AcDbLine
 10
7121.848328118424
 20
3765.784679279342
 30
0.0
 11
7125.638687900146
 21
3763.228049324674
 31
0.0
  0
LINE
  5
155
330
4F
100
AcDbEntity
  8
Specialized_Fills
  6
Continuous
100
AcDbLine
 10
7232.829670954299
 20
3765.784679279342
 30
0.0
 11
7236.62003073602
 21
3763.228049324674
 31
0.0
  0
LINE
  5
156
330
4F
100
AcDbEntity
  8
Specialized_Fills
  6
Continuous
100
AcDbLine
 10
7121.848328118424
 20
3892.617237589072
 30
0.0
 11
7125.638687900146
 21
3890.060607634404
 31
0.0
  0
LINE
  5
157
330
4F
100
AcDbEntity
  8
Specialized_Fills
  6
Continuous
100
AcDbLine
 10
7232.829670954299
 20
3892.617237589072
 30
0.0
 11
7236.62003073602
 21
3890.060607634404
 31
0.0
  0
LINE
  5
158
330
4F
100
AcDbEntity
  8
Specialized_Fills
  6
Continuous
100
AcDbLine
 10
7232.829670954299
 20
4019.449795898801
 30
0.0
 11
7236.62003073602
 21
4016.893165944133
 31
0.0
  0
LINE
  5
159
330
4F
100
AcDbEntity
  8
Specialized_Fills
  6
Continuous
100
AcDbLine
 10
7125.638699464508
 20
3763.228076213483
 30
0.0
 11
7127.183754580013
 21
3767.832775301378
 31
0.0
  0
LINE
  5
15A
330
4F
100
AcDbEntity
  8
Specialized_Fills
  6
Continuous
100
AcDbLine
 10
7236.620042300382
 20
3763.228076213483
 30
0.0
 11
7238.165097415886
 21
3767.832775301378
 31
0.0
  0
LINE
  5
15B
330
4F
100
AcDbEntity
  8
Specialized_Fills
  6
Continuous
100
AcDbLine
 10
7125.638699464508
 20
3890.060634523213
 30
0.0
 11
7127.183754580013
 21
3894.665333611107
 31
0.0
  0
LINE
  5
15C
330
4F
100
AcDbEntity
  8
Specialized_Fills
  6
Continuous
100
AcDbLine
 10
7236.620042300382
 20
3890.060634523213
 30
0.0
 11
7238.165097415886
 21
3894.665333611107
 31
0.0
  0
LINE
  5
15D
330
4F
100
AcDbEntity
  8
Specialized_Fills
  6
Continuous
100
AcDbLine
 10
7236.620042300382
 20
4016.893192832942
 30
0.0
 11
7238.165097415886
 21
4021.497891920836
 31
0.0
  0
LINE
  5
15E
330
4F
100
AcDbEntity
  8
Specialized_Fills
  6
Continuous
100
AcDbLine
 10
7129.815937044845
 20
3862.862744152106
 30
0.0
 11
7135.151349182276
 21
3864.910816983758
 31
0.0
  0
LINE
  5
15F
330
4F
100
AcDbEntity
  8
Specialized_Fills
  6
Continuous
100
AcDbLine
 10
7240.79727988072
 20
3862.862744152106
 30
0.0
 11
7241.052249771617
 21
3862.960617923239
 31
0.0
  0
LINE
  5
160
330
4F
100
AcDbEntity
  8
Specialized_Fills
  6
Continuous
100
AcDbLine
 10
7240.79727988072
 20
3989.695302461836
 30
0.0
 11
7246.13269201815
 21
3991.743375293488
 31
0.0
  0
LINE
  5
161
330
4F
100
AcDbEntity
  8
Specialized_Fills
  6
Continuous
100
AcDbLine
 10
7129.815937044845
 20
3862.862744152106
 30
0.0
 11
7133.606296826565
 21
3860.306114197438
 31
0.0
  0
LINE
  5
162
330
4F
100
AcDbEntity
  8
Specialized_Fills
  6
Continuous
100
AcDbLine
 10
7240.79727988072
 20
3862.862744152106
 30
0.0
 11
7241.052249771617
 21
3862.690764789157
 31
0.0
  0
LINE
  5
163
330
4F
100
AcDbEntity
  8
Specialized_Fills
  6
Continuous
100
AcDbLine
 10
7240.79727988072
 20
3989.695302461836
 30
0.0
 11
7244.58763966244
 21
3987.138672507168
 31
0.0
  0
LINE
  5
164
330
4F
100
AcDbEntity
  8
Specialized_Fills
  6
Continuous
100
AcDbLine
 10
7133.606287044845
 20
3860.306114152107
 30
0.0
 11
7135.151342160348
 21
3864.910813240001
 31
0.0
  0
LINE
  5
165
330
4F
100
AcDbEntity
  8
Specialized_Fills
  6
Continuous
100
AcDbLine
 10
7244.587629880718
 20
3987.138672461837
 30
0.0
 11
7246.132684996222
 21
3991.743371549731
 31
0.0
  0
ENDBLK
  5
51
330
4F
100
AcDbEntity
  8
0
100
AcDbBlockEnd
  0
BLOCK
  5
18B
330
18A
100
AcDbEntity
  8
0
100
AcDbBlockBegin
  2
Fill_2
 70
     0
 10
0.0
 20
0.0
 30
0.0
  3
Fill_2
  1

  0
LINE
  5
410
102
{ACAD_REACTORS
330
422
102
}
330
18A
100
AcDbEntity
  8
Specialized_Fills
  6
Continuous
100
AcDbLine
 10
7085.905238421609
 20
4194.375841916128
 30
0.0
 11
7085.905238421609
 21
3982.449681957384
 31
0.0
  0
LINE
  5
411
102
{ACAD_REACTORS
330
422
102
}
330
18A
100
AcDbEntity
  8
Specialized_Fills
  6
Continuous
100
AcDbLine
 10
7085.905238421609
 20
3982.449681957384
 30
0.0
 11
7135.905238421603
 21
3982.449681957377
 31
0.0
  0
LINE
  5
412
102
{ACAD_REACTORS
330
422
102
}
330
18A
100
AcDbEntity
  8
Specialized_Fills
  6
Continuous
100
AcDbLine
 10
7135.905238421603
 20
3982.449681957377
 30
0.0
 11
7135.905238421601
 21
4194.375841916128
 31
0.0
  0
LINE
  5
413
102
{ACAD_REACTORS
330
422
102
}
330
18A
100
AcDbEntity
  8
Specialized_Fills
  6
Continuous
100
AcDbLine
 10
7135.905238421601
 20
4194.375841916128
 30
0.0
 11
7085.905238421609
 21
4194.375841916128
 31
0.0
  0
HATCH
  5
422
330
18A
100
AcDbEntity
  8
0
 62
   251
420
  6250335
100
AcDbHatch
 10
0.0
 20
0.0
 30
0.0
210
0.0
220
0.0
230
1.0
  2
HPCRC1E0
 70
     0
 71
     1
 91
        1
 92
        7
 72
     0
 73
     1
 93
        4
 10
7135.905238421601
 20
4194.375841916128
 10
7085.905238421609
 20
4194.375841916128
 10
7085.905238421609
 20
3982.449681957384
 10
7135.905238421603
 20
3982.449681957377
 97
        4
330
413
330
410
330
411
330
412
 75
     1
 76
     2
 52
0.0
 41
0.12
 77
     0
 78
    78
 53
82.8749847
 43
0.0
 44
4.2
 45
-0.0000004961129005
 46
8.399999852931037
 79
     2
 49
0.9674709324
 49
-66.75549316799998
 53
75.96376039999999
 43
0.12
 44
5.16
 45
-0.000000348785556
 46
8.399999709154096
 79
     2
 49
0.4947726600000001
 49
-34.139315184
 53
63.43495179999999
 43
0.24
 44
5.639999999999999
 45
-0.0000000286036308
 46
8.400000041591663
 79
     2
 49
1.073312639999999
 49
-17.70965881199999
 53
45.0
 43
0.72
 44
6.599999999999999
 45
0.0000000000000009
 46
8.400000002875099
 79
     2
 49
1.527350688
 49
-10.352043456
 53
33.6900673
 43
1.799999999999999
 44
7.679999999999999
 45
0.0000001596020127
 46
8.399999824188462
 79
     2
 49
0.4326661440000001
 49
-29.85396423600001
 53
33.6900673
 43
10.2
 44
7.679999999999999
 45
0.0000001596020127
 46
8.399999824188462
 79
     2
 49
0.4326661440000001
 49
-29.85396423600001
 53
33.6900673
 43
18.6
 44
7.679999999999999
 45
0.0000001596020127
 46
8.399999824188462
 79
     2
 49
0.4326661440000001
 49
-29.85396423600001
 53
26.5650501
 43
2.16
 44
7.919999999999999
 45
-0.0000000460215162
 46
8.400000143556356
 79
     2
 49
0.26832816
 49
-18.514643556
 53
26.5650501
 43
10.56
 44
7.919999999999999
 45
-0.0000000460215162
 46
8.400000143556356
 79
     2
 49
0.26832816
 49
-18.514643556
 53
18.434948
 43
2.399999999999999
 44
8.039999999999999
 45
0.0000002686412607
 46
8.399999851558131
 79
     2
 49
0.3794733239999999
 49
-26.183659056
 53
18.434948
 43
10.8
 44
8.039999999999999
 45
0.0000002686412607
 46
8.399999851558131
 79
     2
 49
0.3794733239999999
 49
-26.183659056
 53
18.434948
 43
19.2
 44
8.039999999999999
 45
0.0000002686412607
 46
8.399999851558131
 79
     2
 49
0.3794733239999999
 49
-26.183659056
 53
26.5650501
 43
2.759999999999999
 44
8.16
 45
-0.0000000460215162
 46
8.400000143556356
 79
     2
 49
0.26832816
 49
-18.514643556
 53
26.5650501
 43
11.16
 44
8.16
 45
-0.0000000460215162
 46
8.400000143556356
 79
     2
 49
0.26832816
 49
-18.514643556
 53
11.3099327
 43
3.0
 44
8.279999999999999
 45
-0.0000000543109101
 46
8.400000069389928
 79
     2
 49
0.6118823435999998
 49
-42.21988036799999
 53
11.3099327
 43
11.4
 44
8.279999999999999
 45
-0.0000000543109101
 46
8.400000069389928
 79
     2
 49
0.6118823435999998
 49
-42.21988036799999
 53
11.3099327
 43
19.8
 44
8.279999999999999
 45
-0.0000000543109101
 46
8.400000069389928
 79
     2
 49
0.6118823435999998
 49
-42.21988036799999
 53
11.3099327
 43
28.2
 44
8.279999999999999
 45
-0.0000000543109101
 46
8.400000069389928
 79
     2
 49
0.6118823435999998
 49
-42.21988036799999
 53
11.3099327
 43
36.6
 44
8.279999999999999
 45
-0.0000000543109101
 46
8.400000069389928
 79
     2
 49
0.6118823435999998
 49
-42.21988036799999
 53
0.0
 43
3.599999999999999
 44
8.4
 45
0.0
 46
8.4
 79
     2
 49
1.199999999999999
 49
-7.199999999999999
 53
348.6900673
 43
4.799999999999999
 44
8.4
 45
0.0000000543109101
 46
8.400000069389928
 79
     2
 49
0.6118823435999998
 49
-42.21988036799999
 53
348.6900673
 43
13.2
 44
8.4
 45
0.0000000543109101
 46
8.400000069389928
 79
     2
 49
0.6118823435999998
 49
-42.21988036799999
 53
348.6900673
 43
21.6
 44
8.4
 45
0.0000000543109101
 46
8.400000069389928
 79
     2
 49
0.6118823435999998
 49
-42.21988036799999
 53
348.6900673
 43
30.0
 44
8.4
 45
0.0000000543109101
 46
8.400000069389928
 79
     2
 49
0.6118823435999998
 49
-42.21988036799999
 53
348.6900673
 43
38.4
 44
8.4
 45
0.0000000543109101
 46
8.400000069389928
 79
     2
 49
0.6118823435999998
 49
-42.21988036799999
 53
333.4349499
 43
5.399999999999999
 44
8.279999999999999
 45
0.0000000460215162
 46
8.400000143556356
 79
     2
 49
0.2683281599999999
 49
-18.514643556
 53
333.4349499
 43
13.8
 44
8.279999999999999
 45
0.0000000460215162
 46
8.400000143556356
 79
     2
 49
0.2683281599999999
 49
-18.514643556
 53
341.565052
 43
5.639999999999999
 44
8.16
 45
-0.0000002686412607
 46
8.399999851558131
 79
     2
 49
0.379473324
 49
-26.183659056
 53
341.565052
 43
14.04
 44
8.16
 45
-0.0000002686412607
 46
8.399999851558131
 79
     2
 49
0.379473324
 49
-26.183659056
 53
341.565052
 43
22.44
 44
8.16
 45
-0.0000002686412607
 46
8.399999851558131
 79
     2
 49
0.379473324
 49
-26.183659056
 53
333.4349499
 43
6.0
 44
8.039999999999999
 45
0.0000000460215162
 46
8.400000143556356
 79
     2
 49
0.2683281599999999
 49
-18.514643556
 53
333.4349499
 43
14.4
 44
8.039999999999999
 45
0.0000000460215162
 46
8.400000143556356
 79
     2
 49
0.2683281599999999
 49
-18.514643556
 53
326.3099327
 43
6.24
 44
7.919999999999999
 45
-0.0000001596020127
 46
8.399999824188462
 79
     2
 49
0.4326661440000001
 49
-29.85396423600001
 53
326.3099327
 43
14.64
 44
7.919999999999999
 45
-0.0000001596020127
 46
8.399999824188462
 79
     2
 49
0.4326661440000001
 49
-29.85396423600001
 53
326.3099327
 43
23.04
 44
7.919999999999999
 45
-0.0000001596020127
 46
8.399999824188462
 79
     2
 49
0.4326661440000001
 49
-29.85396423600001
 53
315.0
 43
6.599999999999999
 44
7.679999999999999
 45
-0.0000000000000009
 46
8.400000002875099
 79
     2
 49
1.527350688
 49
-10.352043456
 53
296.5650482
 43
7.679999999999999
 44
6.599999999999999
 45
0.0000000286036308
 46
8.400000041591663
 79
     2
 49
1.073312639999999
 49
-17.70965881199999
 53
284.0362396
 43
8.16
 44
5.639999999999999
 45
0.000000348785556
 46
8.399999709154096
 79
     2
 49
0.4947726600000001
 49
-34.139315184
 53
277.1250153
 43
8.279999999999999
 44
5.16
 45
0.0000004961129005
 46
8.399999852931037
 79
     2
 49
0.9674709324
 49
-66.75549316799998
 53
277.1250153
 43
0.0
 44
4.2
 45
0.0000004961129005
 46
8.399999852931037
 79
     2
 49
0.9674709324
 49
-66.75549316799998
 53
284.0362396
 43
0.12
 44
3.239999999999999
 45
0.000000348785556
 46
8.399999709154096
 79
     2
 49
0.4947726600000001
 49
-34.139315184
 53
296.5650482
 43
0.24
 44
2.759999999999999
 45
0.0000000286036308
 46
8.400000041591663
 79
     2
 49
1.073312639999999
 49
-17.70965881199999
 53
315.0
 43
0.72
 44
1.799999999999999
 45
-0.0000000000000009
 46
8.400000002875099
 79
     2
 49
1.527350688
 49
-10.352043456
 53
326.3099327
 43
1.799999999999999
 44
0.72
 45
-0.0000001596020127
 46
8.399999824188462
 79
     2
 49
0.4326661440000001
 49
-29.85396423600001
 53
326.3099327
 43
10.2
 44
0.72
 45
-0.0000001596020127
 46
8.399999824188462
 79
     2
 49
0.4326661440000001
 49
-29.85396423600001
 53
326.3099327
 43
18.6
 44
0.72
 45
-0.0000001596020127
 46
8.399999824188462
 79
     2
 49
0.4326661440000001
 49
-29.85396423600001
 53
333.4349499
 43
2.16
 44
0.48
 45
0.0000000460215162
 46
8.400000143556356
 79
     2
 49
0.2683281599999999
 49
-18.514643556
 53
333.4349499
 43
10.56
 44
0.48
 45
0.0000000460215162
 46
8.400000143556356
 79
     2
 49
0.2683281599999999
 49
-18.514643556
 53
341.565052
 43
2.399999999999999
 44
0.36
 45
-0.0000002686412607
 46
8.399999851558131
 79
     2
 49
0.379473324
 49
-26.183659056
 53
341.565052
 43
10.8
 44
0.36
 45
-0.0000002686412607
 46
8.399999851558131
 79
     2
 49
0.379473324
 49
-26.183659056
 53
341.565052
 43
19.2
 44
0.36
 45
-0.0000002686412607
 46
8.399999851558131
 79
     2
 49
0.379473324
 49
-26.183659056
 53
333.4349499
 43
2.759999999999999
 44
0.24
 45
0.0000000460215162
 46
8.400000143556356
 79
     2
 49
0.2683281599999999
 49
-18.514643556
 53
333.4349499
 43
11.16
 44
0.24
 45
0.0000000460215162
 46
8.400000143556356
 79
     2
 49
0.2683281599999999
 49
-18.514643556
 53
348.6900673
 43
3.0
 44
0.12
 45
0.0000000543109101
 46
8.400000069389928
 79
     2
 49
0.6118823435999998
 49
-42.21988036799999
 53
348.6900673
 43
11.4
 44
0.12
 45
0.0000000543109101
 46
8.400000069389928
 79
     2
 49
0.6118823435999998
 49
-42.21988036799999
 53
348.6900673
 43
19.8
 44
0.12
 45
0.0000000543109101
 46
8.400000069389928
 79
     2
 49
0.6118823435999998
 49
-42.21988036799999
 53
348.6900673
 43
28.2
 44
0.12
 45
0.0000000543109101
 46
8.400000069389928
 79
     2
 49
0.6118823435999998
 49
-42.21988036799999
 53
348.6900673
 43
36.6
 44
0.12
 45
0.0000000543109101
 46
8.400000069389928
 79
     2
 49
0.6118823435999998
 49
-42.21988036799999
 53
0.0
 43
3.599999999999999
 44
0.0
 45
0.0
 46
8.4
 79
     2
 49
1.199999999999999
 49
-7.199999999999999
 53
11.3099327
 43
4.799999999999999
 44
0.0
 45
-0.0000000543109101
 46
8.400000069389928
 79
     2
 49
0.6118823435999998
 49
-42.21988036799999
 53
11.3099327
 43
13.2
 44
0.0
 45
-0.0000000543109101
 46
8.400000069389928
 79
     2
 49
0.6118823435999998
 49
-42.21988036799999
 53
11.3099327
 43
21.6
 44
0.0
 45
-0.0000000543109101
 46
8.400000069389928
 79
     2
 49
0.6118823435999998
 49
-42.21988036799999
 53
11.3099327
 43
30.0
 44
0.0
 45
-0.0000000543109101
 46
8.400000069389928
 79
     2
 49
0.6118823435999998
 49
-42.21988036799999
 53
11.3099327
 43
38.4
 44
0.0
 45
-0.0000000543109101
 46
8.400000069389928
 79
     2
 49
0.6118823435999998
 49
-42.21988036799999
 53
26.5650501
 43
5.399999999999999
 44
0.12
 45
-0.0000000460215162
 46
8.400000143556356
 79
     2
 49
0.26832816
 49
-18.514643556
 53
26.5650501
 43
13.8
 44
0.12
 45
-0.0000000460215162
 46
8.400000143556356
 79
     2
 49
0.26832816
 49
-18.514643556
 53
18.434948
 43
5.639999999999999
 44
0.24
 45
0.0000002686412607
 46
8.399999851558131
 79
     2
 49
0.3794733239999999
 49
-26.183659056
 53
18.434948
 43
14.04
 44
0.24
 45
0.0000002686412607
 46
8.399999851558131
 79
     2
 49
0.3794733239999999
 49
-26.183659056
 53
18.434948
 43
22.44
 44
0.24
 45
0.0000002686412607
 46
8.399999851558131
 79
     2
 49
0.3794733239999999
 49
-26.183659056
 53
26.5650501
 43
6.0
 44
0.36
 45
-0.0000000460215162
 46
8.400000143556356
 79
     2
 49
0.26832816
 49
-18.514643556
 53
26.5650501
 43
14.4
 44
0.36
 45
-0.0000000460215162
 46
8.400000143556356
 79
     2
 49
0.26832816
 49
-18.514643556
 53
33.6900673
 43
6.24
 44
0.48
 45
0.0000001596020127
 46
8.399999824188462
 79
     2
 49
0.4326661440000001
 49
-29.85396423600001
 53
33.6900673
 43
14.64
 44
0.48
 45
0.0000001596020127
 46
8.399999824188462
 79
     2
 49
0.4326661440000001
 49
-29.85396423600001
 53
33.6900673
 43
23.04
 44
0.48
 45
0.0000001596020127
 46
8.399999824188462
 79
     2
 49
0.4326661440000001
 49
-29.85396423600001
 53
45.0
 43
6.599999999999999
 44
0.72
 45
0.0000000000000009
 46
8.400000002875099
 79
     2
 49
1.527350688
 49
-10.352043456
 53
63.43495179999999
 43
7.679999999999999
 44
1.799999999999999
 45
-0.0000000286036308
 46
8.400000041591663
 79
     2
 49
1.073312639999999
 49
-17.70965881199999
 53
75.96376039999999
 43
8.16
 44
2.759999999999999
 45
-0.000000348785556
 46
8.399999709154096
 79
     2
 49
0.4947726600000001
 49
-34.139315184
 53
82.8749847
 43
8.279999999999999
 44
3.239999999999999
 45
-0.0000004961129005
 46
8.399999852931037
 79
     2
 49
0.9674709324
 49
-66.75549316799998
 47
0.3165547044330956
 98
        1
 10
7112.427786514833
 20
4162.064651373091
1001
GradientColor1ACI
1070
     5
1001
GradientColor2ACI
1070
     2
1001
ACAD
1010
0.0
1020
0.0
1030
0.0
  0
ENDBLK
  5
18C
330
18A
100
AcDbEntity
  8
0
100
AcDbBlockEnd
  0
BLOCK
  5
31A
330
319
100
AcDbEntity
  8
0
100
AcDbBlockBegin
  2
Line_1
 70
     0
 10
7062.875707196171
 20
3968.794636160739
 30
0.0
  3
Line_1
  1

  0
LINE
  5
742
330
319
100
AcDbEntity
  8
Specialized_Lines
  6
Continuous
 62
   251
420
  6250335
100
AcDbLine
 10
7062.875707196171
 20
3968.794636160739
 30
0.0
 11
7062.875707196171
 21
3867.821553675879
 31
0.0
  0
LINE
  5
743
330
319
100
AcDbEntity
  8
Specialized_Lines
  6
Continuous
 62
   251
420
  6250335
370
    20
100
AcDbLine
 10
7062.875707196171
 20
3860.357453675879
 30
0.0
 11
7060.875707196171
 21
3867.821553675879
 31
0.0
  0
LINE
  5
744
330
319
100
AcDbEntity
  8
Specialized_Lines
  6
Continuous
 62
   251
420
  6250335
370
    20
100
AcDbLine
 10
7062.875707196171
 20
3860.357453675879
 30
0.0
 11
7064.875707196171
 21
3867.821553675879
 31
0.0
  0
LINE
  5
745
330
319
100
AcDbEntity
  8
Specialized_Lines
  6
Continuous
 62
   251
420
  6250335
370
    20
100
AcDbLine
 10
7060.875707196171
 20
3867.821553675879
 30
0.0
 11
7064.875707196171
 21
3867.821553675879
 31
0.0
  0
HATCH
  5
746
330
319
100
AcDbEntity
  8
Specialized_Lines
  6
Continuous
 62
   251
420
  6250335
370
    20
100
AcDbHatch
 10
0.0
 20
0.0
 30
0.0
210
0.0
220
0.0
230
1.0
  2
SOLID
 70
     1
 71
     0
 91
        1
 92
        2
 72
     0
 73
     1
 93
        3
 10
7062.875707196171
 20
3860.357453675879
 10
7060.875707196171
 20
3867.821553675879
 10
7064.875707196171
 20
3867.821553675879
 97
        0
 75
     0
 76
     1
 98
        0
450
        0
451
        0
460
0.0
461
0.0
452
        1
462
0.0
453
        0
470

  0
ENDBLK
  5
31B
330
319
100
AcDbEntity
  8
0
100
AcDbBlockEnd
  0
BLOCK
  5
338
330
337
100
AcDbEntity
  8
0
100
AcDbBlockBegin
  2
*D5
 70
     1
 10
0.0
 20
0.0
 30
0.0
  3
*D5
  1

  0
LINE
  5
774
330
337
100
AcDbEntity
  8
Specialized_Text
  6
Continuous
 62
     7
440
 16777216
370
    -2
100
AcDbLine
 10
7080.535630199425
 20
3958.385590775293
 30
0.0
 11
7062.695707196171
 21
3958.385590775293
 31
0.0
  0
LINE
  5
775
330
337
100
AcDbEntity
  8
Specialized_Text
  6
Continuous
 62
     7
440
 16777216
370
    -2
100
AcDbLine
 10
7080.705238421602
 20
3964.156592998799
 30
0.0
 11
7062.695707196171
 21
3964.156592998799
 31
0.0
  0
LINE
  5
776
330
337
100
AcDbEntity
  8
Specialized_Text
  6
Continuous
 62
     7
440
 16777216
370
    -2
100
AcDbLine
 10
7062.875707196171
 20
3954.585590775293
 30
0.0
 11
7062.875707196171
 21
3950.785590775293
 31
0.0
  0
LINE
  5
777
330
337
100
AcDbEntity
  8
Specialized_Text
  6
Continuous
 62
     7
440
 16777216
370
    -2
100
AcDbLine
 10
7062.875707196171
 20
3967.956592998799
 30
0.0
 11
7062.875707196171
 21
3971.756592998799
 31
0.0
  0
MTEXT
  5
778
330
337
100
AcDbEntity
  8
Specialized_Text
  6
Continuous
 62
     7
440
 16777216
100
AcDbMText
 10
7036.790466064805
 20
3961.987559027684
 30
0.0
 40
5.0
 41
0.0
 46
0.0
 71
     5
 72
     1
  1
\A1;6mm minimum
  7
GENERATED_STYLE_1
 11
0.9999999998476912
 21
0.0000174532925191
 31
0.0
 73
     1
 44
1.0
  0
LINE
  5
779
330
337
100
AcDbEntity
  8
Specialized_Text
  6
Continuous
 62
     7
440
 16777216
370
    -2
100
AcDbLine
 10
7062.875707196171
 20
3958.385590775293
 30
0.0
 11
7062.875707196171
 21
3964.156592998799
 31
0.0
  0
INSERT
  5
77A
330
337
100
AcDbEntity
  8
Specialized_Text
  6
Continuous
 62
     7
440
 16777216
370
    -2
100
AcDbBlockReference
  2
ARROWHEAD_6
 10
7062.875707196171
 20
3958.385590775293
 30
0.0
 41
3.799999999999999
 42
3.799999999999999
 43
3.799999999999999
 50
90.0
  0
INSERT
  5
77B
330
337
100
AcDbEntity
  8
Specialized_Text
  6
Continuous
 62
     7
440
 16777216
370
    -2
100
AcDbBlockReference
  2
ARROWHEAD_6
 10
7062.875707196171
 20
3964.156592998799
 30
0.0
 41
3.799999999999999
 42
3.799999999999999
 43
3.799999999999999
 50
270.0
  0
POINT
  5
77C
330
337
100
AcDbEntity
  8
Defpoints
  6
Continuous
 62
     0
440
 16777216
100
AcDbPoint
 10
7084.535630199424
 20
3958.385590775293
 30
0.0
  0
POINT
  5
77D
330
337
100
AcDbEntity
  8
Defpoints
  6
Continuous
 62
     0
440
 16777216
100
AcDbPoint
 10
7084.705238421602
 20
3964.156592998799
 30
0.0
  0
POINT
  5
77E
330
337
100
AcDbEntity
  8
Defpoints
  6
Continuous
 62
     0
440
 16777216
100
AcDbPoint
 10
7062.875707196171
 20
3964.156592998799
 30
0.0
  0
ENDBLK
  5
339
330
337
100
AcDbEntity
  8
0
100
AcDbBlockEnd
  0
BLOCK
  5
347
330
346
100
AcDbEntity
  8
0
100
AcDbBlockBegin
  2
ARROWHEAD_6
 70
     0
 10
0.0
 20
0.0
 30
0.0
  3
ARROWHEAD_6
  1

  0
LINE
  5
349
330
346
100
AcDbEntity
  8
0
  6
Continuous
 62
     0
370
     0
100
AcDbLine
 10
-0.5
 20
-0.5
 30
0.0
 11
0.5
 21
0.5
 31
0.0
  0
LINE
  5
34A
330
346
100
AcDbEntity
  8
0
  6
Continuous
 62
     0
370
     0
100
AcDbLine
 10
0.0
 20
0.0
 30
0.0
 11
-1.0
 21
0.0
 31
0.0
  0
ENDBLK
  5
348
330
346
100
AcDbEntity
  8
0
100
AcDbBlockEnd
  0
BLOCK
  5
34C
330
34B
100
AcDbEntity
  8
0
100
AcDbBlockBegin
  2
*D7
 70
     1
 10
0.0
 20
0.0
 30
0.0
  3
*D7
  1

  0
LINE
  5
77F
330
34B
100
AcDbEntity
  8
Specialized_Text
  6
Continuous
 62
     7
440
 16777216
370
    -2
100
AcDbLine
 10
7141.105238421603
 20
3970.156592998796
 30
0.0
 11
7169.456690080642
 21
3970.156592998795
 31
0.0
  0
LINE
  5
780
330
34B
100
AcDbEntity
  8
Specialized_Text
  6
Continuous
 62
     7
440
 16777216
370
    -2
100
AcDbLine
 10
7157.290486679896
 20
4019.952853887872
 30
0.0
 11
7169.456690080642
 21
4019.952853887871
 31
0.0
  0
LINE
  5
781
330
34B
100
AcDbEntity
  8
Specialized_Text
  6
Continuous
 62
     7
440
 16777216
370
    -2
100
AcDbLine
 10
7169.276690080642
 20
3973.956592998796
 30
0.0
 11
7169.276690080642
 21
4016.152853887871
 31
0.0
  0
INSERT
  5
782
330
34B
100
AcDbEntity
  8
Specialized_Text
  6
Continuous
 62
     7
440
 16777216
370
    -2
100
AcDbBlockReference
  2
ARROWHEAD_6
 10
7169.276690080642
 20
3970.156592998795
 30
0.0
 41
3.799999999999999
 42
3.799999999999999
 43
3.799999999999999
 50
270.0
  0
INSERT
  5
783
330
34B
100
AcDbEntity
  8
Specialized_Text
  6
Continuous
 62
     7
440
 16777216
370
    -2
100
AcDbBlockReference
  2
ARROWHEAD_6
 10
7169.276690080642
 20
4019.952853887871
 30
0.0
 41
3.799999999999999
 42
3.799999999999999
 43
3.799999999999999
 50
90.0
  0
MTEXT
  5
784
330
34B
100
AcDbEntity
  8
Specialized_Text
  6
Continuous
 62
     7
440
 16777216
100
AcDbMText
 10
7164.722119821433
 20
3995.054723443335
 30
0.0
 40
5.0
 41
0.0
 46
0.0
 71
     5
 72
     1
  1
\A1;50mm min
  7
GENERATED_STYLE_1
 11
0.0000000000000001
 21
1.0
 31
0.0
 73
     1
 44
1.0
  0
POINT
  5
785
330
34B
100
AcDbEntity
  8
Defpoints
  6
Continuous
 62
     0
440
 16777216
100
AcDbPoint
 10
7137.105238421603
 20
3970.156592998796
 30
0.0
  0
POINT
  5
786
330
34B
100
AcDbEntity
  8
Defpoints
  6
Continuous
 62
     0
440
 16777216
100
AcDbPoint
 10
7153.290486679896
 20
4019.952853887872
 30
0.0
  0
POINT
  5
787
330
34B
100
AcDbEntity
  8
Defpoints
  6
Continuous
 62
     0
440
 16777216
100
AcDbPoint
 10
7169.276690080642
 20
4019.952853887871
 30
0.0
  0
ENDBLK
  5
34D
330
34B
100
AcDbEntity
  8
0
100
AcDbBlockEnd
  0
BLOCK
  5
35E
330
35D
100
AcDbEntity
  8
0
100
AcDbBlockBegin
  2
ARROWHEAD_5
 70
     0
 10
0.0
 20
0.0
 30
0.0
  3
ARROWHEAD_5
  1

  0
SOLID
  5
360
330
35D
100
AcDbEntity
  8
0
  6
Continuous
 62
     0
370
     0
100
AcDbTrace
 10
-1.0
 20
0.2679
 30
0.0
 11
0.0
 21
0.0
 31
0.0
 12
-1.0
 22
-0.2679
 32
0.0
 13
-1.0
 23
0.2679
 33
0.0
  0
LINE
  5
361
330
35D
100
AcDbEntity
  8
0
  6
Continuous
 62
     0
370
     0
100
AcDbLine
 10
0.0
 20
0.0
 30
0.0
 11
-1.0
 21
0.0
 31
0.0
  0
ENDBLK
  5
35F
330
35D
100
AcDbEntity
  8
0
100
AcDbBlockEnd
  0
BLOCK
  5
37D
330
37C
100
AcDbEntity
  8
0
100
AcDbBlockBegin
  2
06B Wall _ Floor_ REBATED CONCR_STORY_MARKER
 70
     0
 10
0.0
 20
0.0
 30
0.0
  3
06B Wall _ Floor_ REBATED CONCR_STORY_MARKER
  1

  0
ENDBLK
  5
37E
330
37C
100
AcDbEntity
  8
0
100
AcDbBlockEnd
  0
ENDSEC
  0
SECTION
  2
ENTITIES
  0
HATCH
  5
3F
330
1F
100
AcDbEntity
  8
Specialized_Fills
  6
Continuous
 62
   254
420
 14671839
370
    13
100
AcDbHatch
 10
0.0
 20
0.0
 30
0.0
210
0.0
220
0.0
230
1.0
  2
SOLID
 70
     1
 71
     1
 91
        1
 92
        1
 93
        4
 72
     1
 10
7247.232803418869
 20
4065.82408619257
 11
7157.232803418866
 21
4065.824086292571
 72
     1
 10
7157.232803418866
 20
4065.824086292571
 11
7157.232803418866
 21
4020.824086292576
 72
     1
 10
7157.232803418866
 20
4020.824086292576
 11
7247.232803418869
 21
4020.824086192575
 72
     1
 10
7247.232803418869
 20
4020.824086192575
 11
7247.232803418869
 21
4065.82408619257
 97
        1
330
41
 75
     0
 76
     1
 98
        0
450
        0
451
        0
460
0.0
461
0.0
452
        1
462
0.0
453
        0
470

  0
LWPOLYLINE
  5
41
102
{ACAD_REACTORS
330
3F
102
}
330
1F
100
AcDbEntity
  8
Specialized_Fills
  6
Continuous
100
AcDbPolyline
 90
        4
 70
   129
 43
0.0
 10
7247.232803418869
 20
4065.82408619257
 10
7157.232803418866
 20
4065.824086292571
 10
7157.232803418866
 20
4020.824086292576
 10
7247.232803418869
 20
4020.824086192575
  0
HATCH
  5
42
330
1F
100
AcDbEntity
  8
Specialized_Fills
  6
Continuous
100
AcDbHatch
 10
0.0
 20
0.0
 30
0.0
210
0.0
220
0.0
230
1.0
  2
LINES___ANGLED
 70
     0
 71
     1
 91
        1
 92
        1
 93
        4
 72
     1
 10
7155.77030369903
 20
4021.500310019439
 11
7136.770303699025
 21
4021.500310019439
 72
     1
 10
7136.770303699025
 20
4021.500310019439
 11
7136.770303699025
 21
4071.500310019438
 72
     1
 10
7136.770303699025
 20
4071.500310019438
 11
7155.77030369903
 21
4071.500310019438
 72
     1
 10
7155.77030369903
 20
4071.500310019438
 11
7155.77030369903
 21
4021.500310019439
 97
        1
330
43
 75
     0
 76
     2
 52
0.0
 41
1.0
 77
     0
 78
     1
 53
45.0
 43
0.0
 44
-11.09308895857839
 45
-1.838477563650065
 46
1.838477563650065
 79
     0
 98
        0
  0
LWPOLYLINE
  5
43
102
{ACAD_REACTORS
330
42
102
}
330
1F
100
AcDbEntity
  8
Specialized_Fills
  6
Continuous
100
AcDbPolyline
 90
        4
 70
   129
 43
0.0
 10
7155.77030369903
 20
4021.500310019439
 10
7136.770303699025
 20
4021.500310019439
 10
7136.770303699025
 20
4071.500310019438
 10
7155.77030369903
 20
4071.500310019438
  0
HATCH
  5
44
330
1F
100
AcDbEntity
  8
Specialized_Fills
  6
Continuous
 62
     9
370
    20
100
AcDbHatch
 10
0.0
 20
0.0
 30
0.0
210
0.0
220
0.0
230
1.0
  2
CONCRETE_BLOCK
 70
     0
 71
     0
 91
        1
 92
        5
 93
        4
 72
     1
 10
7241.052250911969
 20
3789.46784946926
 11
7276.052250911968
 21
3789.467849469259
 72
     1
 10
7276.052250911968
 20
3789.467849469259
 11
7276.052250911968
 21
3918.982630223725
 72
     1
 10
7276.052250911968
 20
3918.982630223725
 11
7241.052250911969
 21
3918.982630223725
 72
     1
 10
7241.052250911969
 20
3918.982630223725
 11
7241.052250911969
 21
3789.46784946926
 97
        0
 75
     0
 76
     2
 52
0.0
 41
1.0
 77
     0
 78
     2
 53
45.0
 43
0.0
 44
-11.09308895857839
 45
-1.838477563650065
 46
1.838477563650065
 79
     0
 53
135.0
 43
0.0
 44
-11.09308895857839
 45
1.838477563650065
 46
1.838477563650066
 79
     0
 47
0.0
 98
        1
 10
7258.552250911968
 20
3854.225239846492
  0
LWPOLYLINE
  5
45
330
1F
100
AcDbEntity
  8
Specialized_Fills
  6
Continuous
100
AcDbPolyline
 90
        4
 70
   128
 43
0.0
 10
7241.052250911967
 20
3789.46784946926
 10
7241.052250911969
 20
3918.982630223725
 10
7276.052250911968
 20
3918.982630223725
 10
7276.052250911968
 20
3789.46784946926
  0
HATCH
  5
46
330
1F
100
AcDbEntity
  8
Specialized_Fills
  6
Continuous
 62
     9
370
    20
100
AcDbHatch
 10
0.0
 20
0.0
 30
0.0
210
0.0
220
0.0
230
1.0
  2
CONCRETE_BLOCK
 70
     0
 71
     0
 91
        1
 92
        5
 93
        4
 72
     1
 10
7086.052250911966
 20
3789.46784946926
 11
7121.052250911967
 21
3789.46784946926
 72
     1
 10
7121.052250911967
 20
3789.46784946926
 11
7121.052250911967
 21
3949.513855673208
 72
     1
 10
7121.052250911967
 20
3949.513855673208
 11
7086.052250911968
 21
3949.513855673207
 72
     1
 10
7086.052250911968
 20
3949.513855673207
 11
7086.052250911966
 21
3789.46784946926
 97
        0
 75
     0
 76
     2
 52
0.0
 41
1.0
 77
     0
 78
     2
 53
45.0
 43
0.0
 44
-11.09308895857839
 45
-1.838477563650065
 46
1.838477563650065
 79
     0
 53
135.0
 43
0.0
 44
-11.09308895857839
 45
1.838477563650065
 46
1.838477563650066
 79
     0
 47
0.0
 98
        1
 10
7103.552250911969
 20
3869.490852571234
  0
LWPOLYLINE
  5
47
330
1F
100
AcDbEntity
  8
Specialized_Fills
  6
Continuous
100
AcDbPolyline
 90
        4
 70
   128
 43
0.0
 10
7086.052250911968
 20
3789.46784946926
 10
7086.052250911968
 20
3949.513855673207
 10
7121.052250911967
 20
3949.513855673208
 10
7121.052250911969
 20
3789.46784946926
  0
HATCH
  5
2D5
330
1F
100
AcDbEntity
  8
Specialized_Fills
  6
ZIGZAG
100
AcDbHatch
 10
0.0
 20
0.0
 30
0.0
210
0.0
220
0.0
230
1.0
  2
RENDER
 70
     0
 71
     0
 91
        1
 92
        1
 93
        6
 72
     1
 10
7080.792105431203
 20
3789.46784946926
 11
7080.792105431203
 21
3955.46637478011
 72
     1
 10
7080.792105431203
 20
3955.46637478011
 11
7079.522043744294
 21
3957.56118518557
 72
     1
 10
7079.522043744294
 20
3957.56118518557
 11
7084.535630199424
 21
3958.385590775293
 72
     1
 10
7084.535630199424
 20
3958.385590775293
 11
7084.535630199424
 21
3896.265384596702
 72
     1
 10
7084.535630199424
 20
3896.265384596702
 11
7086.052250911968
 21
3789.46784946926
 72
     1
 10
7086.052250911968
 20
3789.46784946926
 11
7080.792105431203
 21
3789.46784946926
 97
        0
 75
     0
 76
     2
 52
0.0
 41
1.0
 77
     0
 78
     2
 53
45.0
 43
0.0
 44
-1.093088958578391
 45
-3.181980515339463
 46
3.181980515339464
 79
     4
 49
0.0
 49
-3.0
 49
0.0
 49
-4.5
 53
110.0
 43
10.0
 44
-1.093088958578391
 45
4.228616793536587
 46
1.539090644965511
 79
     4
 49
0.0
 49
-2.199999999999999
 49
0.0
 49
-3.799999999999999
 98
        0
  0
LINE
  5
2D6
330
1F
100
AcDbEntity
  8
Specialized_Lines
  6
Continuous
100
AcDbLine
 10
7210.107803418864
 20
4076.824086192566
 30
0.0
 11
7210.107709604905
 21
4067.824086192567
 31
0.0
  0
LINE
  5
2D8
330
1F
100
AcDbEntity
  8
Specialized_Lines
  6
Continuous
100
AcDbLine
 10
7210.107709604905
 20
4067.824086192567
 30
0.0
 11
7194.357504910157
 21
4067.824086192567
 31
0.0
  0
LINE
  5
2D9
330
1F
100
AcDbEntity
  8
Specialized_Lines
  6
Continuous
100
AcDbLine
 10
7194.357504910157
 20
4067.824086192567
 30
0.0
 11
7194.357803418867
 21
4076.824086192566
 31
0.0
  0
LINE
  5
2DA
330
1F
100
AcDbEntity
  8
Specialized_Lines
  6
Continuous
100
AcDbLine
 10
7194.357803418867
 20
4076.824086192566
 30
0.0
 11
7210.107803418864
 21
4076.824086192566
 31
0.0
  0
LINE
  5
2DB
330
1F
100
AcDbEntity
  8
Specialized_Lines
  6
Continuous
100
AcDbLine
 10
7207.482803418862
 20
4069.024086192566
 30
0.0
 11
7207.482803418862
 21
4075.624086192567
 31
0.0
  0
LINE
  5
2DC
330
1F
100
AcDbEntity
  8
Specialized_Lines
  6
Continuous
100
AcDbLine
 10
7196.982803418869
 20
4075.624086192567
 30
0.0
 11
7196.982803418869
 21
4069.024086192566
 31
0.0
  0
LINE
  5
2DD
330
1F
100
AcDbEntity
  8
Specialized_Lines
  6
Continuous
100
AcDbLine
 10
7196.982803418869
 20
4075.624086192567
 30
0.0
 11
7196.982803418869
 21
4069.024086192566
 31
0.0
  0
LINE
  5
2DE
330
1F
100
AcDbEntity
  8
Specialized_Lines
  6
Continuous
100
AcDbLine
 10
7191.732803418865
 20
4069.024086192566
 30
0.0
 11
7191.732803418865
 21
4075.624086192567
 31
0.0
  0
LINE
  5
2DF
330
1F
100
AcDbEntity
  8
Specialized_Lines
  6
Continuous
100
AcDbLine
 10
7207.482803418862
 20
4075.624086192567
 30
0.0
 11
7207.482803418862
 21
4069.024086192566
 31
0.0
  0
LINE
  5
2E0
330
1F
100
AcDbEntity
  8
Specialized_Lines
  6
Continuous
100
AcDbLine
 10
7212.732803418866
 20
4069.024086192566
 30
0.0
 11
7212.732803418866
 21
4075.624086192567
 31
0.0
  0
LINE
  5
2E1
330
1F
100
AcDbEntity
  8
Specialized_Lines
  6
Continuous
100
AcDbLine
 10
7190.232803418865
 20
4065.824086192566
 30
0.0
 11
7214.232803418866
 21
4065.824086192566
 31
0.0
  0
LINE
  5
2E2
330
1F
100
AcDbEntity
  8
Specialized_Lines
  6
Continuous
100
AcDbLine
 10
7214.232803418866
 20
4065.824086192566
 30
0.0
 11
7214.232803418866
 21
4067.824086192567
 31
0.0
  0
LINE
  5
2E3
330
1F
100
AcDbEntity
  8
Specialized_Lines
  6
Continuous
100
AcDbLine
 10
7214.232803418866
 20
4067.824086192567
 30
0.0
 11
7190.232803418865
 21
4067.824086192567
 31
0.0
  0
LINE
  5
2E4
330
1F
100
AcDbEntity
  8
Specialized_Lines
  6
Continuous
100
AcDbLine
 10
7190.232803418865
 20
4067.824086192567
 30
0.0
 11
7190.232803418865
 21
4065.824086192566
 31
0.0
  0
LINE
  5
2E5
330
1F
100
AcDbEntity
  8
Specialized_Lines
  6
Continuous
100
AcDbLine
 10
7196.232803418864
 20
3975.824086192568
 30
0.0
 11
7196.232803418864
 21
3967.824086192567
 31
0.0
  0
LINE
  5
2E6
330
1F
100
AcDbEntity
  8
Specialized_Lines
  6
Continuous
100
AcDbLine
 10
7196.232803418864
 20
3967.824086192567
 30
0.0
 11
7198.232803418868
 21
3965.824086192568
 31
0.0
  0
LINE
  5
2E7
330
1F
100
AcDbEntity
  8
Specialized_Lines
  6
Continuous
100
AcDbLine
 10
7198.232803418868
 20
3965.824086192568
 30
0.0
 11
7206.232803418863
 21
3965.824086192568
 31
0.0
  0
LINE
  5
2E8
330
1F
100
AcDbEntity
  8
Specialized_Lines
  6
Continuous
100
AcDbLine
 10
7206.232803418863
 20
3965.824086192568
 30
0.0
 11
7208.232803418866
 21
3967.824086192567
 31
0.0
  0
LINE
  5
2E9
330
1F
100
AcDbEntity
  8
Specialized_Lines
  6
Continuous
100
AcDbLine
 10
7208.232803418866
 20
3967.824086192567
 30
0.0
 11
7208.232803418866
 21
3975.824086192568
 31
0.0
  0
LINE
  5
2EA
330
1F
100
AcDbEntity
  8
Specialized_Lines
  6
Continuous
100
AcDbLine
 10
7208.232803418866
 20
3975.824086192568
 30
0.0
 11
7196.232803418864
 21
3975.824086192568
 31
0.0
  0
LINE
  5
2EB
330
1F
100
AcDbEntity
  8
Specialized_Lines
  6
Continuous
100
AcDbLine
 10
7198.232803418868
 20
3975.824086192568
 30
0.0
 11
7198.232803418868
 21
3965.824086192568
 31
0.0
  0
LINE
  5
2EC
330
1F
100
AcDbEntity
  8
Specialized_Lines
  6
Continuous
100
AcDbLine
 10
7206.232803418863
 20
3975.824086192568
 30
0.0
 11
7206.232803418863
 21
3965.824086192568
 31
0.0
  0
LINE
  5
2ED
330
1F
100
AcDbEntity
  8
Specialized_Lines
  6
Continuous
100
AcDbLine
 10
7196.232803418864
 20
3967.824086192567
 30
0.0
 11
7208.232803418866
 21
3967.824086192567
 31
0.0
  0
LINE
  5
2EE
330
1F
100
AcDbEntity
  8
Specialized_Lines
  6
Continuous
100
AcDbLine
 10
7196.232803418864
 20
4065.824086192566
 30
0.0
 11
7196.232803418864
 21
3975.824086192568
 31
0.0
  0
LINE
  5
2EF
330
1F
100
AcDbEntity
  8
Specialized_Lines
  6
Continuous
100
AcDbLine
 10
7196.232803418864
 20
3975.824086192568
 30
0.0
 11
7208.232803418866
 21
3975.824086192568
 31
0.0
  0
LINE
  5
2F0
330
1F
100
AcDbEntity
  8
Specialized_Lines
  6
Continuous
100
AcDbLine
 10
7208.232803418866
 20
3975.824086192568
 30
0.0
 11
7208.232803418866
 21
4065.824086192566
 31
0.0
  0
LINE
  5
2F1
330
1F
100
AcDbEntity
  8
Specialized_Lines
  6
Continuous
100
AcDbLine
 10
7208.232803418866
 20
4065.824086192566
 30
0.0
 11
7196.232803418864
 21
4065.824086192566
 31
0.0
  0
LINE
  5
2F2
330
1F
100
AcDbEntity
  8
Specialized_Lines
  6
Continuous
100
AcDbLine
 10
7198.232803418868
 20
4008.824086192566
 30
0.0
 11
7206.232803418863
 21
4008.824086192566
 31
0.0
  0
LINE
  5
2F3
330
1F
100
AcDbEntity
  8
Specialized_Lines
  6
Continuous
100
AcDbLine
 10
7206.232803418863
 20
4008.824086192566
 30
0.0
 11
7208.232803418866
 21
4010.824086192567
 31
0.0
  0
LINE
  5
2F4
330
1F
100
AcDbEntity
  8
Specialized_Lines
  6
Continuous
100
AcDbLine
 10
7208.232803418866
 20
4010.824086192567
 30
0.0
 11
7196.232803418864
 21
4010.824086192567
 31
0.0
  0
LINE
  5
2F5
330
1F
100
AcDbEntity
  8
Specialized_Lines
  6
Continuous
100
AcDbLine
 10
7196.232803418864
 20
4010.824086192567
 30
0.0
 11
7198.232803418868
 21
4008.824086192566
 31
0.0
  0
LINE
  5
2F6
330
1F
100
AcDbEntity
  8
Specialized_Lines
  6
Continuous
100
AcDbLine
 10
7198.232803418868
 20
4008.824086192566
 30
0.0
 11
7198.232803418868
 21
3975.824086192568
 31
0.0
  0
LINE
  5
2F7
330
1F
100
AcDbEntity
  8
Specialized_Lines
  6
Continuous
100
AcDbLine
 10
7206.232803418863
 20
4008.824086192566
 30
0.0
 11
7206.232803418863
 21
3975.824086192568
 31
0.0
  0
LINE
  5
2F8
330
1F
100
AcDbEntity
  8
Specialized_Lines
  6
Continuous
100
AcDbLine
 10
7202.232803418865
 20
4083.824086192567
 30
0.0
 11
7202.232803418865
 21
3947.824086192567
 31
0.0
  0
ARC
  5
2F9
330
1F
100
AcDbEntity
  8
Specialized_Lines
  6
Continuous
100
AcDbCircle
 10
7202.232803418865
 20
4064.739711192574
 30
0.0
 40
12.08437499999348
100
AcDbArc
 50
64.24999688077804
 51
115.7500031192219
  0
ARC
  5
2FA
330
1F
100
AcDbEntity
  8
Specialized_Lines
  6
Continuous
100
AcDbCircle
 10
7202.232803418865
 20
4079.908461176525
 30
0.0
 40
12.08437498554815
100
AcDbArc
 50
244.2499968477426
 51
295.7500031522573
  0
ARC
  5
2FB
330
1F
100
AcDbEntity
  8
Specialized_Lines
  6
Continuous
100
AcDbCircle
 10
7194.357803418867
 20
4071.295179905439
 30
0.0
 40
3.471093725707419
100
AcDbArc
 50
220.865656895311
 51
319.1343431046889
  0
ARC
  5
2FC
330
1F
100
AcDbEntity
  8
Specialized_Lines
  6
Continuous
100
AcDbCircle
 10
7194.357803418867
 20
4073.352992442565
 30
0.0
 40
3.471093750000875
100
AcDbArc
 50
40.86565735878819
 51
139.1343426412118
  0
ARC
  5
2FD
330
1F
100
AcDbEntity
  8
Specialized_Lines
  6
Continuous
100
AcDbCircle
 10
7210.107803418864
 20
4071.2951799389
 30
0.0
 40
3.47109374759924
100
AcDbArc
 50
220.8656573129857
 51
319.1343426870143
  0
ARC
  5
2FE
330
1F
100
AcDbEntity
  8
Specialized_Lines
  6
Continuous
100
AcDbCircle
 10
7210.107803418864
 20
4073.352992442565
 30
0.0
 40
3.471093750000875
100
AcDbArc
 50
40.86565735878819
 51
139.1343426412118
  0
LINE
  5
300
330
1F
100
AcDbEntity
  8
Specialized_Lines
  6
DASHEDX2
100
AcDbLine
 10
7156.017268378858
 20
3962.746451400029
 30
0.0
 11
7085.153666995116
 21
3957.701547202161
 31
0.0
  0
LINE
  5
301
330
1F
100
AcDbEntity
  8
Specialized_Lines
  6
DASHEDX2
100
AcDbLine
 10
7156.732803418863
 20
4179.00634483346
 30
0.0
 11
7156.732803418863
 21
3962.797391595793
 31
0.0
  0
LINE
  5
302
330
1F
100
AcDbEntity
  8
Specialized_Lines
  6
DASHEDX2
100
AcDbLine
 10
7157.303854224823
 20
4019.952853887872
 30
0.0
 11
7247.232803418869
 21
4019.952853887872
 31
0.0
  0
LINE
  5
303
330
1F
100
AcDbEntity
  8
Specialized_Lines
  6
DASHEDX2
100
AcDbLine
 10
7083.396176689713
 20
3971.226161836066
 30
0.0
 11
7083.396176689713
 21
4178.962030846228
 31
0.0
  0
LINE
  5
304
330
1F
100
AcDbEntity
  8
Specialized_Lines
  6
Continuous
100
AcDbLine
 10
7080.22606025306
 20
3980.862736777105
 30
0.0
 11
7080.176060253059
 21
3980.862736777105
 31
0.0
  0
LINE
  5
305
330
1F
100
AcDbEntity
  8
Specialized_Lines
  6
Continuous
100
AcDbLine
 10
7088.557516856432
 20
3980.088768235361
 30
0.0
 11
7088.507516856431
 21
3980.088768235361
 31
0.0
  0
LINE
  5
306
330
1F
100
AcDbEntity
  8
Specialized_Lines
  6
Continuous
100
AcDbLine
 10
7276.052250911968
 20
3918.982630223725
 30
0.0
 11
7276.052250911968
 21
3789.46784946926
 31
0.0
  0
LINE
  5
308
330
1F
100
AcDbEntity
  8
Specialized_Lines
  6
Continuous
100
AcDbLine
 10
7121.052250911969
 20
3949.513855673207
 30
0.0
 11
7121.052250911969
 21
3789.46784946926
 31
0.0
  0
LINE
  5
30A
330
1F
100
AcDbEntity
  8
Specialized_Lines
  6
Continuous
100
AcDbLine
 10
7247.232803418869
 20
4179.00634483346
 30
0.0
 11
7247.232803418869
 21
4020.824086192567
 31
0.0
  0
LINE
  5
30B
330
1F
100
AcDbEntity
  8
Specialized_Lines
  6
Continuous
100
AcDbLine
 10
7157.232803418866
 20
4179.00634483346
 30
0.0
 11
7157.232803418866
 21
4020.824086192567
 31
0.0
  0
LINE
  5
30C
330
1F
100
AcDbEntity
  8
Specialized_Lines
  6
Continuous
100
AcDbLine
 10
7172.743724963497
 20
4018.982630223725
 30
0.0
 11
7199.876655525232
 21
4018.982630223725
 31
0.0
  0
LINE
  5
30D
330
1F
100
AcDbEntity
  8
Specialized_Lines
  6
Continuous
100
AcDbLine
 10
7247.232803418869
 20
4065.82408619257
 30
0.0
 11
7157.232803418866
 21
4020.824086192567
 31
0.0
  0
LINE
  5
30E
330
1F
100
AcDbEntity
  8
Specialized_Lines
  6
Continuous
100
AcDbLine
 10
7157.232803418866
 20
4065.824086292571
 30
0.0
 11
7247.232803418869
 21
4020.82408629257
 31
0.0
  0
LINE
  5
30F
330
1F
100
AcDbEntity
  8
Specialized_Lines
  6
ZIGZAG
100
AcDbLine
 10
7125.583516831754
 20
3976.381434925336
 30
0.0
 11
7125.533516831753
 21
3976.381434925336
 31
0.0
  0
LINE
  5
310
330
1F
100
AcDbEntity
  8
Specialized_Lines
  6
Continuous
100
AcDbLine
 10
7155.397336462645
 20
4018.950205347138
 30
0.0
 11
7155.397336462645
 21
3963.81094016107
 31
0.0
  0
LINE
  5
311
330
1F
100
AcDbEntity
  8
Specialized_Lines
  6
Continuous
100
AcDbLine
 10
7241.052250911969
 20
3918.982630223725
 30
0.0
 11
7284.471842182104
 21
3918.982630223725
 31
0.0
  0
LINE
  5
312
330
1F
100
AcDbEntity
  8
Specialized_Lines
  6
Continuous
100
AcDbLine
 10
7155.397336462645
 20
3963.81094016107
 30
0.0
 11
7084.535630199424
 21
3958.385590775293
 31
0.0
  0
LINE
  5
313
330
1F
100
AcDbEntity
  8
Specialized_Lines
  6
Continuous
100
AcDbLine
 10
7084.535630199424
 20
3958.385590775293
 30
0.0
 11
7084.535630199424
 21
3896.265384596702
 31
0.0
  0
LINE
  5
318
330
1F
100
AcDbEntity
  8
Specialized_Lines
  6
Continuous
100
AcDbLine
 10
7084.535630199424
 20
3958.385590775293
 30
0.0
 11
7081.392267952896
 21
3957.868714198065
 31
0.0
  0
INSERT
  5
321
330
1F
100
AcDbEntity
  8
Specialized_Lines
  6
Continuous
100
AcDbBlockReference
  2
Line_1
 10
7062.875707196171
 20
3958.385590775293
 30
0.0
  0
LINE
  5
326
330
1F
100
AcDbEntity
  8
Specialized_Lines
  6
Continuous
100
AcDbLine
 10
7241.052250911969
 20
3918.982630223725
 30
0.0
 11
7241.052250911969
 21
3789.46784946926
 31
0.0
  0
LWPOLYLINE
  5
327
330
1F
100
AcDbEntity
  8
Specialized_Lines
  6
Continuous
100
AcDbPolyline
 90
        4
 70
   129
 43
0.0
 10
7247.232803418869
 20
4065.82408619257
 10
7157.232803418866
 20
4065.82408619257
 10
7157.232803418866
 20
4020.824086192567
 10
7247.232803418869
 20
4020.824086192567
  0
LWPOLYLINE
  5
328
330
1F
100
AcDbEntity
  8
Specialized_Lines
  6
Continuous
100
AcDbPolyline
 90
        4
 70
   129
 43
0.0
 10
7155.77030369903
 20
4021.500310019439
 10
7136.770303699025
 20
4021.500310019439
 10
7136.770303699025
 20
4071.500310019438
 10
7155.77030369903
 20
4071.500310019438
  0
LWPOLYLINE
  5
32A
330
1F
100
AcDbEntity
  8
Specialized_Fills
  6
DASHEDX2
 62
   253
420
 10461087
370
    20
100
AcDbPolyline
 90
        4
 70
   128
 43
0.0
 10
7157.232803418866
 20
4110.824086292566
 42
0.6180339902741404
 10
7193.232803820963
 20
4092.824086190936
 10
7211.232803761359
 20
4106.324086270332
 42
-2.000000011029643
 10
7211.232803761359
 20
4070.32408627033
  0
LWPOLYLINE
  5
32B
330
1F
100
AcDbEntity
  8
Specialized_Lines
  6
Continuous
100
AcDbPolyline
 90
        5
 70
   128
 43
0.0
 10
7284.471842182104
 20
4018.982630223725
 10
7157.232803418866
 20
4018.982630223725
 10
7157.232803418866
 20
3961.823800128948
 10
7086.052250911968
 20
3956.471195356342
 10
7086.052250911968
 20
3789.46784946926
  0
LWPOLYLINE
  5
32C
330
1F
100
AcDbEntity
  8
Specialized_Fills
  6
DASHEDX2
 62
   253
420
 10461087
370
    20
100
AcDbPolyline
 90
        6
 70
   128
 43
0.0
 10
7157.232803418866
 20
4110.824086292566
 42
-0.6180339902741404
 10
7193.232803820963
 20
4128.824086394197
 10
7211.232803761359
 20
4115.324086314802
 42
2.000000011029643
 10
7211.232803761359
 20
4151.324086314802
 10
7193.23280378278
 20
4137.824086286164
 42
-1.156387574659788
 10
7171.934887474688
 20
4176.929595120554
  0
LWPOLYLINE
  5
32D
330
1F
100
AcDbEntity
  8
Specialized_Fills
  6
DASHEDX2
 62
   253
420
 10461087
370
    20
100
AcDbPolyline
 90
        4
 70
   128
 43
0.0
 10
7177.819847764211
 20
4178.242618812864
 42
-0.184197833751878
 10
7193.23280378278
 20
4173.824086286163
 10
7211.232803723174
 20
4160.324086206768
 42
0.6285613298364
 10
7247.222457613304
 20
4179.00634483346
 42
0.6285613298364
  0
LWPOLYLINE
  5
32F
330
1F
100
AcDbEntity
  8
Specialized_Fills
  6
DASHEDX2
 62
   253
420
 10461087
370
    20
100
AcDbPolyline
 90
        3
 70
   128
 43
0.0
 10
7202.232803418865
 20
4076.824086192566
 10
7193.23280378278
 20
4083.824086298969
 42
0.6180339892997294
 10
7157.232803711164
 20
4065.824086298969
  0
LWPOLYLINE
  5
331
330
1F
100
AcDbEntity
  8
0
  6
Continuous
100
AcDbPolyline
 90
        6
 70
   128
 43
0.0
 10
7256.868164195083
 20
4179.00634483346
 10
7213.543286766287
 20
4179.00634483346
 10
7211.543286766292
 20
4184.501299672368
 10
7207.543286766285
 20
4173.511389994551
 10
7205.543286766292
 20
4179.00634483346
 10
7071.390968013385
 20
4179.00634483346
  0
LWPOLYLINE
  5
332
330
1F
100
AcDbEntity
  8
0
  6
Continuous
100
AcDbPolyline
 90
        6
 70
   128
 43
0.0
 10
7284.471842182104
 20
4024.649600725053
 10
7284.471842182104
 20
3981.324723296257
 10
7278.976887343195
 20
3979.324723296262
 10
7289.966797021012
 20
3975.324723296257
 10
7284.471842182104
 20
3973.324723296263
 10
7284.471842182104
 20
3904.062385714796
  0
LWPOLYLINE
  5
333
330
1F
100
AcDbEntity
  8
0
  6
Continuous
100
AcDbPolyline
 90
        6
 70
   128
 43
0.0
 10
7290.167850197889
 20
3789.46784946926
 10
7213.308552593591
 20
3789.46784946926
 10
7211.308552593596
 20
3794.962804308169
 10
7207.308552593591
 20
3783.972894630351
 10
7205.308552593596
 20
3789.46784946926
 10
7071.156233840689
 20
3789.46784946926
  0
ARC
  5
334
330
1F
100
AcDbEntity
  8
Specialized_Lines
  6
Continuous
100
AcDbCircle
 10
7148.743700895841
 20
3973.117172041364
 30
0.0
 40
6.873274524013092
100
AcDbArc
 50
13.53949427240119
 51
77.84874425146558
  0
DIMENSION
  5
344
330
1F
100
AcDbEntity
  8
Specialized_Text
  6
Continuous
100
AcDbDimension
280
     0
  2
*D5
 10
7062.875707196171
 20
3964.156592998799
 30
0.0
 11
7036.790466064805
 21
3961.987559027684
 31
0.0
 70
   160
  1
6mm minimum
 71
     5
 42
5.771002223506911
 73
     0
 74
     0
 75
     0
 53
0.001
  3
GENERATED_STYLE__1
100
AcDbAlignedDimension
 13
7084.535630199424
 23
3958.385590775293
 33
0.0
 14
7084.705238421602
 24
3964.156592998799
 34
0.0
 50
90.0
100
AcDbRotatedDimension
1001
ACAD
1000
DSTYLE
1002
{
1070
    42
1040
4.0
1070
    77
1070
     0
1002
}
  0
DIMENSION
  5
358
330
1F
100
AcDbEntity
  8
Specialized_Text
  6
Continuous
100
AcDbDimension
280
     0
  2
*D7
 10
7169.276690080642
 20
4019.952853887871
 30
0.0
 11
7164.722119821433
 21
3995.054723443335
 31
0.0
 70
    32
  1
50mm min
 71
     5
 42
49.79626088907662
 73
     0
 74
     0
 75
     0
  3
GENERATED_STYLE__2
100
AcDbAlignedDimension
 13
7137.105238421603
 23
3970.156592998796
 33
0.0
 14
7153.290486679896
 24
4019.952853887872
 34
0.0
 50
90.0
100
AcDbRotatedDimension
1001
ACAD
1000
DSTYLE
1002
{
1070
   147
1040
2.0
1070
    42
1040
4.0
1002
}
  0
MTEXT
  5
35A
102
{ACAD_REACTORS
330
35B
102
}
330
1F
100
AcDbEntity
  8
Specialized_Text
  6
Continuous
100
AcDbMText
 10
7038.004067987021
 20
3936.157542015971
 30
0.0
 40
5.5
 41
122.8838222335154
 46
20.26523239739487
 71
     6
 72
     1
  1
{rebate in slab must be completely waterproofed with a proprietary tanking membrane as specified by the designer}
  7
GENERATED_STYLE_1
 73
     1
 44
1.12256121350079
  0
LEADER
  5
35B
330
1F
100
AcDbEntity
  8
Specialized_Text
  6
Continuous
 62
   251
420
  6250335
370
    13
100
AcDbLeader
  3
GENERATED_STYLE__3
 73
     0
 40
38.19424260299939
 41
116.4041609822646
 76
     3
 10
7110.930722960048
 20
3959.53666107313
 30
0.0
 10
7110.930722960048
 20
3937.031069268112
 30
0.0
 10
7038.094067987021
 20
3936.157542015971
 30
0.0
340
35A
  0
MTEXT
  5
362
102
{ACAD_REACTORS
330
363
102
}
330
1F
100
AcDbEntity
  8
Specialized_Text
  6
Continuous
100
AcDbMText
 10
7038.5370027123
 20
3832.233301435844
 30
0.0
 40
5.5
 41
129.9212296766047
 46
11.70243508629873
 71
     6
 72
     1
  1
{Specialized Masonry Leveling Compound with selected finish}
  7
GENERATED_STYLE_1
 73
     1
 44
1.125350851486466
  0
LEADER
  5
363
330
1F
100
AcDbEntity
  8
Specialized_Text
  6
Continuous
 62
   251
420
  6250335
370
    13
100
AcDbLeader
  3
GENERATED_STYLE__3
 73
     0
 40
17.54575416187246
 41
103.3144611186903
 76
     2
 10
7079.64868095728
 20
3832.380439811794
 30
0.0
 10
7038.6270027123
 20
3832.233301435844
 30
0.0
340
362
  0
MTEXT
  5
364
102
{ACAD_REACTORS
330
365
102
}
330
1F
100
AcDbEntity
  8
Specialized_Text
  6
Continuous
100
AcDbMText
 10
7038.517904017242
 20
3801.898092370922
 30
0.0
 40
5.5
 41
119.1848667595361
 46
12.85230237572068
 71
     6
 72
     1
  1
concrete block wall (NZS 4229: 1999)
  7
GENERATED_STYLE_1
 73
     1
 44
1.127312891095029
  0
LEADER
  5
365
330
1F
100
AcDbEntity
  8
Specialized_Text
  6
Continuous
 62
   251
420
  6250335
370
    13
100
AcDbLeader
  3
GENERATED_STYLE__3
 73
     0
 40
17.64646106686512
 41
105.3591405184175
 76
     2
 10
7141.715037680909
 20
3802.483494960107
 30
0.0
 10
7038.607904017242
 20
3801.898092370922
 30
0.0
340
364
  0
MTEXT
  5
366
102
{ACAD_REACTORS
330
367
102
}
330
1F
100
AcDbEntity
  8
Specialized_Text
  6
Continuous
100
AcDbMText
 10
7038.650507599699
 20
3982.245167103242
 30
0.0
 40
5.5
 41
120.778016389304
 46
12.49981695395905
 71
     6
 72
     1
  1
{proprietary CAVITECLAD base bead}
  7
GENERATED_STYLE_1
 73
     1
 44
1.136917277563246
  0
LEADER
  5
367
330
1F
100
AcDbEntity
  8
Specialized_Text
  6
Continuous
 62
   251
420
  6250335
370
    13
100
AcDbLeader
  3
GENERATED_STYLE__3
 73
     0
 40
16.12216880899434
 41
105.081514324693
 76
     2
 10
7084.705238421602
 20
3981.995311410666
 30
0.0
 10
7038.740507599699
 20
3982.245167103242
 30
0.0
340
366
  0
MTEXT
  5
368
102
{ACAD_REACTORS
330
369
102
}
330
1F
100
AcDbEntity
  8
Specialized_Text
  6
Continuous
100
AcDbMText
 10
7038.710400815887
 20
4077.088496082699
 30
0.0
 40
5.5
 41
120.3318573733486
 46
12.75264490587781
 71
     6
 72
     1
  1
{reinforcing mesh and selected plaster finish }
  7
GENERATED_STYLE_1
 73
     1
 44
1.127211339394292
  0
LEADER
  5
369
330
1F
100
AcDbEntity
  8
Specialized_Text
  6
Continuous
 62
   251
420
  6250335
370
    13
100
AcDbLeader
  3
GENERATED_STYLE__3
 73
     0
 40
17.56298313442043
 41
101.4723738062756
 76
     2
 10
7081.988582885663
 20
4077.620349544656
 30
0.0
 10
7038.800400815887
 20
4077.088496082699
 30
0.0
340
368
  0
MTEXT
  5
36A
102
{ACAD_REACTORS
330
36B
102
}
330
1F
100
AcDbEntity
  8
Specialized_Text
  6
Continuous
100
AcDbMText
 10
7038.751130086433
 20
4141.818020063994
 30
0.0
 40
5.5
 41
120.4003217454404
 46
12.77018589059826
 71
     6
 72
     1
  1
{approved breather type building wrap as installed by builder}
  7
GENERATED_STYLE_1
 73
     1
 44
1.138766967802711
  0
LEADER
  5
36B
330
1F
100
AcDbEntity
  8
Specialized_Text
  6
Continuous
 62
   251
420
  6250335
370
    13
100
AcDbLeader
  3
GENERATED_STYLE__3
 73
     0
 40
17.55193049271631
 41
107.2800136425648
 76
     2
 10
7156.361571114162
 20
4142.54037543388
 30
0.0
 10
7038.841130086433
 20
4141.818020063994
 30
0.0
340
36A
  0
MTEXT
  5
36C
102
{ACAD_REACTORS
330
36D
102
}
330
1F
100
AcDbEntity
  8
Specialized_Text
  6
Continuous
100
AcDbMText
 10
7038.734959017806
 20
4116.120947883484
 30
0.0
 40
5.5
 41
48.54263817276247
 46
16.33642594180937
 71
     6
 72
     1
  1
{20mm cavity}
  7
GENERATED_STYLE_1
 73
     1
 44
1.0
  0
LEADER
  5
36D
330
1F
100
AcDbEntity
  8
Specialized_Text
  6
Continuous
 62
   251
420
  6250335
370
    13
100
AcDbLeader
  3
GENERATED_STYLE__3
 73
     0
 40
7.139495225102319
 41
42.82571623465211
 76
     2
 10
7145.487629976301
 20
4116.620365097332
 30
0.0
 10
7038.824959017806
 20
4116.120947883484
 30
0.0
340
36C
  0
MTEXT
  5
36E
102
{ACAD_REACTORS
330
36F
102
}
330
1F
100
AcDbEntity
  8
Specialized_Text
  6
Continuous
100
AcDbMText
 10
7038.68710669516
 20
4040.051907657855
 30
0.0
 40
5.5
 41
120.978414024311
 46
20.36019099266436
 71
     6
 72
     1
  1
{discontinuous horizontal 45mm x 20mm ventilated EPS battens on 15° slope and no longer than 100mm as required for fixing}
  7
GENERATED_STYLE_1
 73
     1
 44
1.122502932643008
  0
LEADER
  5
36F
330
1F
100
AcDbEntity
  8
Specialized_Text
  6
Continuous
 62
   251
420
  6250335
370
    13
100
AcDbLeader
  3
GENERATED_STYLE__3
 73
     0
 40
38.21061817574904
 41
111.5644611186903
 76
     2
 10
7136.770303699025
 20
4040.807834864326
 30
0.0
 10
7038.77710669516
 20
4040.051907657855
 30
0.0
340
36E
  0
MTEXT
  5
370
102
{ACAD_REACTORS
330
371
102
}
330
1F
100
AcDbEntity
  8
Specialized_Text
  6
Continuous
100
AcDbMText
 10
7038.664621392619
 20
4004.427367511959
 30
0.0
 40
5.5
 41
116.4358690233314
 46
4.34357192312143
 71
     6
 72
     1
  1
{formed rebate in slab with 5° fall}
  7
GENERATED_STYLE_1
 73
     1
 44
1.0
  0
LEADER
  5
371
330
1F
100
AcDbEntity
  8
Specialized_Text
  6
Continuous
 62
   251
420
  6250335
370
    13
100
AcDbLeader
  3
GENERATED_STYLE__3
 73
     0
 40
5.687585266030014
 41
108.8369713506139
 76
     3
 10
7092.657038182129
 20
3958.235725370647
 30
0.0
 10
7092.657038182129
 20
4004.495320383388
 30
0.0
 10
7038.754621392619
 20
4004.427367511959
 30
0.0
340
370
  0
MTEXT
  5
372
102
{ACAD_REACTORS
330
373
102
}
330
1F
100
AcDbEntity
  8
Specialized_Text
  6
Continuous
100
AcDbMText
 10
7038.67505690647
 20
4163.966078016363
 30
0.0
 40
5.5
 41
120.4071167915975
 46
5.33845158843896
 71
     6
 72
     1
  1
{cavity insulation minimum R=0.9}
  7
GENERATED_STYLE_1
 73
     1
 44
1.0
  0
LEADER
  5
373
330
1F
100
AcDbEntity
  8
Specialized_Text
  6
Continuous
 62
   251
420
  6250335
370
    13
100
AcDbLeader
  3
GENERATED_STYLE__3
 73
     0
 40
7.139495225102319
 41
109.756139154161
 76
     2
 10
7204.871554120767
 20
4164.690351703646
 30
0.0
 10
7038.76505690647
 20
4163.966078016363
 30
0.0
340
372
  0
MTEXT
  5
374
102
{ACAD_REACTORS
330
375
102
}
330
1F
100
AcDbEntity
  8
Specialized_Text
  6
Continuous
100
AcDbMText
 10
7266.352872231731
 20
4043.873639784188
 30
0.0
 40
5.5
 41
11.89648
 46
0.0
 71
     4
 72
     1
  1
{DPC}
  7
GENERATED_STYLE_1
 73
     1
 44
1.0
  0
LEADER
  5
375
330
1F
100
AcDbEntity
  8
Specialized_Text
  6
Continuous
 62
   251
420
  6250335
370
    13
100
AcDbLeader
  3
GENERATED_STYLE__3
 73
     0
 40
5.687585266030014
 41
15.30695770804911
 76
     3
 10
7236.685075047081
 20
4020.824086204295
 30
0.0
 10
7236.685075047081
 20
4043.873639784188
 30
0.0
 10
7266.262872231731
 20
4043.873639784188
 30
0.0
340
374
  0
MTEXT
  5
376
330
1F
100
AcDbEntity
  8
Specialized_Text
  6
Continuous
100
AcDbMText
 10
7063.586022754829
 20
3857.412508290432
 30
0.0
 40
5.0
 41
0.0
 46
0.0
 71
     4
 72
     1
  1
{>100 to paved ground\P>175 to unpaved ground}
  7
GENERATED_STYLE_1
 11
0.0000000000000001
 21
1.0
 31
0.0
 73
     1
 44
1.135210107484258
  0
MTEXT
  5
377
330
1F
100
AcDbEntity
  8
Specialized_Text
  6
Continuous
 62
    30
420
 16742400
370
    20
100
AcDbMText
 10
6943.838404851189
 20
3873.246975989656
 30
0.0
 40
5.0
 41
99.64468076193799
 46
0.0
 71
     7
 72
     1
  1
{note:  punchings in base bead provide ventilation openings of 1000mm\A1{\H0.7x;\S2^  ;} per lineal metre}
  7
GENERATED_STYLE_1
 73
     1
 44
1.126545681585175
  0
HATCH
  5
378
330
1F
100
AcDbEntity
  8
Specialized_Fills
  6
Continuous
 62
    30
420
 16742400
370
    20
100
AcDbHatch
 10
0.0
 20
0.0
 30
0.0
210
0.0
220
0.0
230
1.0
  2
SOLID
 70
     1
 71
     1
 91
        1
 92
        1
 93
       18
 72
     1
 10
7090.7052384216
 20
3970.156592998799
 11
7084.705238421602
 21
3964.156592998799
 72
     1
 10
7084.705238421602
 20
3964.156592998799
 11
7084.705238421602
 21
3967.550705548493
 72
     1
 10
7084.705238421602
 20
3967.550705548493
 11
7085.553766559026
 21
3966.702177411072
 72
     1
 10
7085.553766559026
 20
3966.702177411072
 11
7089.008182146753
 21
3970.156592998799
 72
     1
 10
7089.008182146753
 20
3970.156592998799
 11
7085.553766559025
 21
3970.156592998799
 72
     1
 10
7085.553766559025
 20
3970.156592998799
 11
7084.705238421602
 21
3969.308064861376
 72
     1
 10
7084.705238421602
 20
3969.308064861376
 11
7084.705238421602
 21
3989.356592998799
 72
     1
 10
7084.705238421602
 20
3989.356592998799
 11
7085.553766559025
 21
3988.508064861375
 72
     1
 10
7085.553766559025
 20
3988.508064861375
 11
7085.553766559025
 21
3971.356592998798
 72
     1
 10
7085.553766559025
 20
3971.356592998798
 11
7135.905238421603
 21
3971.356592998798
 72
     1
 10
7135.905238421603
 20
3971.356592998798
 11
7135.905238421601
 21
3988.156592998798
 72
     1
 10
7135.905238421601
 20
3988.156592998798
 11
7137.105238421601
 21
3989.356592998799
 72
     1
 10
7137.105238421601
 20
3989.356592998799
 11
7137.105238421603
 21
3980.356592998799
 72
     1
 10
7137.105238421603
 20
3980.356592998799
 11
7150.190478347116
 21
3980.356592998799
 72
     1
 10
7150.190478347116
 20
3980.356592998799
 11
7150.190478347116
 21
3979.156592998799
 72
     1
 10
7150.190478347116
 20
3979.156592998799
 11
7137.105238421601
 21
3979.156592998799
 72
     1
 10
7137.105238421601
 20
3979.156592998799
 11
7137.105238421603
 21
3970.156592998799
 72
     1
 10
7137.105238421603
 20
3970.156592998799
 11
7090.7052384216
 21
3970.156592998799
 97
        1
330
379
 75
     0
 76
     1
 98
        0
450
        0
451
        0
460
0.0
461
0.0
452
        1
462
0.0
453
        0
470

  0
LWPOLYLINE
  5
379
102
{ACAD_REACTORS
330
378
102
}
330
1F
100
AcDbEntity
  8
Specialized_Fills
  6
Continuous
100
AcDbPolyline
 90
       18
 70
   129
 43
0.0
 10
7090.7052384216
 20
3970.156592998799
 10
7084.705238421602
 20
3964.156592998799
 10
7084.705238421602
 20
3967.550705548493
 10
7085.553766559026
 20
3966.702177411072
 10
7089.008182146753
 20
3970.156592998799
 10
7085.553766559025
 20
3970.156592998799
 10
7084.705238421602
 20
3969.308064861376
 10
7084.705238421602
 20
3989.356592998799
 10
7085.553766559025
 20
3988.508064861375
 10
7085.553766559025
 20
3971.356592998798
 10
7135.905238421603
 20
3971.356592998798
 10
7135.905238421601
 20
3988.156592998798
 10
7137.105238421601
 20
3989.356592998799
 10
7137.105238421603
 20
3980.356592998799
 10
7150.190478347116
 20
3980.356592998799
 10
7150.190478347116
 20
3979.156592998799
 10
7137.105238421601
 20
3979.156592998799
 10
7137.105238421603
 20
3970.156592998799
  0
MTEXT
  5
37A
102
{ACAD_REACTORS
330
37B
102
}
330
1F
100
AcDbEntity
  8
Specialized_Text
  6
Continuous
100
AcDbMText
 10
7038.72290052482
 20
4096.959068109512
 30
0.0
 40
5.5
 41
120.8538920740674
 46
12.7895017374349
 71
     6
 72
     1
  1
50mm EPS or {\C30;\c30975;75mm Neopor® EPS}
  7
GENERATED_STYLE_1
 73
     1
 44
1.127211339394292
  0
LEADER
  5
37B
330
1F
100
AcDbEntity
  8
Specialized_Text
  6
Continuous
 62
   251
420
  6250335
370
    13
100
AcDbLeader
  3
GENERATED_STYLE__3
 73
     0
 40
7.124488403819918
 41
121.0900409276944
 76
     2
 10
7108.656479643014
 20
4097.495357470539
 30
0.0
 10
7038.812900524821
 20
4096.959068109512
 30
0.0
340
37A
  0
LINE
  5
3E4
330
1F
100
AcDbEntity
  8
Viewport
 62
     7
420
 16777215
100
AcDbLine
 10
7290.787711534631
 20
4241.591227465967
 30
0.0
 11
7290.787711534631
 21
3701.541611827172
 31
0.0
  0
LINE
  5
3E5
330
1F
100
AcDbEntity
  8
Viewport
 62
     7
420
 16777215
100
AcDbLine
 10
7290.787711534631
 20
3701.541611827172
 30
0.0
 11
6917.645984448647
 21
3701.541611827172
 31
0.0
  0
MTEXT
  5
3E8
330
1F
100
AcDbEntity
  8
Specialized_Lines
 62
    30
420
 16742400
100
AcDbMText
 10
6995.942349239126
 20
3740.756151330629
 30
0.0
 40
7.0
 41
63.23088711380842
 46
0.0
 71
     1
 72
     5
  1
CAVITECLAD
  7
GENERATED_STYLE_2
 73
     1
 44
1.0
1001
ACAD
1000
ACAD_MTEXT_COLUMN_INFO_BEGIN
1070
    75
1070
     2
1070
    79
1070
     0
1070
    76
1070
     1
1070
    78
1070
     0
1070
    48
1040
63.23088711380842
1070
    49
1040
12.5
1070
    50
1070
     1
1040
0.0
1000
ACAD_MTEXT_COLUMN_INFO_END
  0
LINE
  5
3E9
330
1F
100
AcDbEntity
  8
Viewport
 62
     7
420
 16777215
100
AcDbLine
 10
6917.645984448647
 20
3701.541611827172
 30
0.0
 11
6917.645984448647
 21
4241.591227465967
 31
0.0
  0
LINE
  5
3EA
330
1F
100
AcDbEntity
  8
Viewport
 62
     7
420
 16777215
100
AcDbLine
 10
7290.787711534631
 20
4241.591227465967
 30
0.0
 11
6917.645984448647
 21
4241.591227465967
 31
0.0
  0
MTEXT
  5
3EB
330
1F
100
AcDbEntity
  8
Specialized_Lines
100
AcDbMText
 10
6994.475384253576
 20
3756.351438309799
 30
0.0
 40
7.799999999999999
 41
389.6790899786447
 46
0.0
 71
     1
 72
     5
  1
{\fArial|b1|i0|c0|p34;Wall / Floor: REBATED CONCRETE SLAB (Open at Base)}
 73
     1
 44
1.0
1001
ACAD
1000
ACAD_MTEXT_COLUMN_INFO_BEGIN
1070
    75
1070
     2
1070
    79
1070
     0
1070
    76
1070
     1
1070
    78
1070
     0
1070
    48
1040
389.6790899786447
1070
    49
1040
12.5
1070
    50
1070
     1
1040
0.0
1000
ACAD_MTEXT_COLUMN_INFO_END
  0
MTEXT
  5
3EC
330
1F
100
AcDbEntity
  8
Specialized_Lines
 62
    30
420
 16742400
100
AcDbMText
 10
6965.690528772208
 20
3736.808466790144
 30
0.0
 40
4.0
 41
34.37092666967328
 46
0.0
 71
     5
 72
     5
  1
SCALE: 1:2
  7
GENERATED_STYLE_2
 73
     1
 44
1.0
1001
ACAD
1000
ACAD_MTEXT_COLUMN_INFO_BEGIN
1070
    75
1070
     2
1070
    79
1070
     0
1070
    76
1070
     1
1070
    78
1070
     0
1070
    48
1040
34.37092666967328
1070
    49
1040
12.5
1070
    50
1070
     1
1040
0.0
1000
ACAD_MTEXT_COLUMN_INFO_END
  0
HATCH
  5
3ED
330
1F
100
AcDbEntity
  8
0
 62
    30
420
 16742400
370
     5
100
AcDbHatch
 10
0.0
 20
0.0
 30
0.0
210
0.0
220
0.0
230
1.0
  2
SOLID
 70
     1
 71
     0
 91
        1
 92
        1
 93
        4
 72
     1
 10
6988.844514153725
 20
3741.831426290536
 11
6988.844514153725
 21
3761.831426290535
 72
     1
 10
6988.844514153725
 20
3761.831426290535
 11
6943.844514153724
 21
3761.831426290535
 72
     1
 10
6943.844514153724
 20
3761.831426290535
 11
6943.844514153724
 21
3741.831426290536
 72
     1
 10
6943.844514153724
 20
3741.831426290536
 11
6988.844514153725
 21
3741.831426290536
 97
        0
 75
     1
 76
     1
 98
        1
 10
6974.259687343253
 20
3747.965106793659
450
        0
451
        0
460
0.0
461
0.0
452
        0
462
1.0
453
        2
463
0.0
 63
     5
421
      255
463
1.0
 63
     2
421
 16776960
470
LINEAR
1001
GradientColor1ACI
1070
     5
1001
GradientColor2ACI
1070
     2
1001
ACAD
1010
0.0
1020
0.0
1030
0.0
  0
LWPOLYLINE
  5
3EE
330
1F
100
AcDbEntity
  8
0
370
     5
100
AcDbPolyline
 90
        5
 70
     0
 43
0.0
 10
6943.844514153724
 20
3761.831426290535
 10
6943.844514153724
 20
3741.831426290536
 10
6988.844514153725
 20
3741.831426290536
 10
6988.844514153725
 20
3761.831426290535
 10
6943.844514153724
 20
3761.831426290535
  0
MTEXT
  5
3EF
330
1F
100
AcDbEntity
  8
Specialized_Lines
100
AcDbMText
 10
6966.549329242612
 20
3751.636581644147
 30
0.0
 40
10.0
 41
90.34063603881987
 46
0.0
 71
     5
 72
     5
  1
{\fArial|b1|i0|c0|p34;06B}
 73
     1
 44
1.0
1001
ACAD
1000
ACAD_MTEXT_COLUMN_INFO_BEGIN
1070
    75
1070
     2
1070
    79
1070
     0
1070
    76
1070
     1
1070
    78
1070
     0
1070
    48
1040
90.34063603881987
1070
    49
1040
12.5
1070
    50
1070
     1
1040
0.0
1000
ACAD_MTEXT_COLUMN_INFO_END
  0
LWPOLYLINE
  5
3F0
330
1F
100
AcDbEntity
  8
0
370
     5
100
AcDbPolyline
 90
        4
 70
     0
 43
0.0
 10
6943.844514153724
 20
3741.831426290536
 10
6943.844514153724
 20
3731.831426290535
 10
6988.844514153725
 20
3731.831426290535
 10
6988.844514153725
 20
3741.831426290536
  0
HATCH
  5
4B9
330
1F
100
AcDbEntity
  8
0
 62
    30
420
 16742400
100
AcDbHatch
 10
0.0
 20
0.0
 30
0.0
210
0.0
220
0.0
230
1.0
  2
SOLID
 70
     1
 71
     1
 91
        1
 92
        7
 72
     0
 73
     1
 93
        4
 10
6943.765591113567
 20
3720.128152319539
 10
6943.765591113567
 20
3715.128152319538
 10
6948.76559111357
 20
3715.128152319539
 10
6948.765591113563
 20
3720.128152319539
 97
        1
330
4BA
 75
     1
 76
     1
 47
0.0321901215665183
 98
        1
 10
6945.555039242268
 20
3718.705171729295
450
        0
451
        0
460
0.0
461
0.0
452
        0
462
1.0
453
        2
463
0.0
 63
     5
421
      255
463
1.0
 63
     2
421
 16776960
470
LINEAR
1001
GradientColor1ACI
1070
     5
1001
GradientColor2ACI
1070
     2
1001
ACAD
1010
0.0
1020
0.0
1030
0.0
  0
LWPOLYLINE
  5
4BA
102
{ACAD_REACTORS
330
4B9
102
}
330
1F
100
AcDbEntity
  8
0
 62
    30
420
 16742400
100
AcDbPolyline
 90
        4
 70
     1
 43
0.0
 10
6943.765591113567
 20
3720.128152319539
 10
6948.765591113563
 20
3720.128152319539
 10
6948.76559111357
 20
3715.128152319539
 10
6943.765591113567
 20
3715.128152319538
  0
LINE
  5
4BB
330
1F
100
AcDbEntity
  8
0
 62
    30
420
 16742400
100
AcDbLine
 10
6943.765591113567
 20
3720.128152319539
 30
0.0
 11
6948.765591113567
 21
3720.128152319539
 31
0.0
  0
LWPOLYLINE
  5
4BC
330
1F
100
AcDbEntity
  8
0
370
     5
100
AcDbPolyline
 90
        2
 70
     0
 43
0.0
 10
6948.765591113567
 20
3717.628152319538
 10
7269.919649037247
 20
3717.628152319538
  0
MTEXT
  5
4BD
330
1F
100
AcDbEntity
  8
Specialized_Text
  6
Continuous
100
AcDbMText
 10
6952.329270428702
 20
3720.15461935313
 30
0.0
 40
3.0
 41
163.0041735515597
 46
0.0
 71
     4
 72
     1
  1
© copyright 2013 Specialized Building Products Ltd
  7
GENERATED_STYLE_2
 73
     1
 44
1.0
  0
MTEXT
  5
4BE
330
1F
100
AcDbEntity
  8
Specialized_Text
  6
Continuous
100
AcDbMText
 10
7130.230271102383
 20
3720.15461935313
 30
0.0
 40
3.0
 41
163.0041735515597
 46
0.0
 71
     4
 72
     1
  1
All Dimensions to be site checked before construction & installation
  7
GENERATED_STYLE_2
 73
     1
 44
1.0
  0
MTEXT
  5
4C2
330
1F
100
AcDbEntity
  8
Specialized_Text
  6
Continuous
 62
    30
420
 16742400
370
    20
100
AcDbMText
 10
7168.785644891592
 20
3707.030715533016
 30
0.0
 40
5.5
 41
111.9228601720179
 46
0.0
 71
     7
 72
     1
  1
{\fArial Unicode MS|b1|i0|c0|p34;web \fArial Unicode MS|b0|i0|c0|p34;\C256;www.specialized.co.nz}
  7
GENERATED_STYLE_2
 73
     1
 44
1.12662050634974
  0
HATCH
  5
4C6
330
1F
100
AcDbEntity
  8
0
 62
   251
420
  6250335
100
AcDbHatch
 10
0.0
 20
0.0
 30
0.0
210
0.0
220
0.0
230
1.0
  2
HPCRC1E0
 70
     0
 71
     0
 91
        1
 92
        1
 93
        4
 72
     1
 10
7135.905238421603
 20
4179.00634483346
 11
7085.905238421609
 21
4179.00634483346
 72
     1
 10
7085.905238421609
 20
4179.00634483346
 11
7085.905238421609
 21
3971.356592998806
 72
     1
 10
7085.905238421609
 20
3971.356592998806
 11
7135.905238421603
 21
3971.356592998798
 72
     1
 10
7135.905238421603
 20
3971.356592998798
 11
7135.905238421603
 21
4179.00634483346
 97
        0
 75
     1
 76
     2
 52
0.0
 41
0.12
 77
     0
 78
    78
 53
82.8749847
 43
0.0
 44
-6.893088958578391
 45
-0.0000004961129005
 46
8.399999852931037
 79
     2
 49
0.9674709324
 49
-66.75549316799998
 53
75.96376039999999
 43
0.12
 44
-5.933088958578391
 45
-0.000000348785556
 46
8.399999709154096
 79
     2
 49
0.4947726600000001
 49
-34.139315184
 53
63.43495179999999
 43
0.24
 44
-5.453088958578391
 45
-0.0000000286036308
 46
8.400000041591663
 79
     2
 49
1.073312639999999
 49
-17.70965881199999
 53
45.0
 43
0.72
 44
-4.493088958578391
 45
0.0000000000000009
 46
8.400000002875099
 79
     2
 49
1.527350688
 49
-10.352043456
 53
33.6900673
 43
1.799999999999999
 44
-3.413088958578391
 45
0.0000001596020127
 46
8.399999824188462
 79
     2
 49
0.4326661440000001
 49
-29.85396423600001
 53
33.6900673
 43
10.2
 44
-3.413088958578391
 45
0.0000001596020127
 46
8.399999824188462
 79
     2
 49
0.4326661440000001
 49
-29.85396423600001
 53
33.6900673
 43
18.6
 44
-3.413088958578391
 45
0.0000001596020127
 46
8.399999824188462
 79
     2
 49
0.4326661440000001
 49
-29.85396423600001
 53
26.5650501
 43
2.16
 44
-3.173088958578391
 45
-0.0000000460215162
 46
8.400000143556356
 79
     2
 49
0.26832816
 49
-18.514643556
 53
26.5650501
 43
10.56
 44
-3.173088958578391
 45
-0.0000000460215162
 46
8.400000143556356
 79
     2
 49
0.26832816
 49
-18.514643556
 53
18.434948
 43
2.399999999999999
 44
-3.053088958578392
 45
0.0000002686412607
 46
8.399999851558131
 79
     2
 49
0.3794733239999999
 49
-26.18365905599999
 53
18.434948
 43
10.8
 44
-3.053088958578392
 45
0.0000002686412607
 46
8.399999851558131
 79
     2
 49
0.3794733239999999
 49
-26.18365905599999
 53
18.434948
 43
19.2
 44
-3.053088958578392
 45
0.0000002686412607
 46
8.399999851558131
 79
     2
 49
0.3794733239999999
 49
-26.18365905599999
 53
26.5650501
 43
2.759999999999999
 44
-2.933088958578391
 45
-0.0000000460215162
 46
8.400000143556356
 79
     2
 49
0.26832816
 49
-18.514643556
 53
26.5650501
 43
11.16
 44
-2.933088958578391
 45
-0.0000000460215162
 46
8.400000143556356
 79
     2
 49
0.26832816
 49
-18.514643556
 53
11.3099327
 43
3.0
 44
-2.813088958578392
 45
-0.0000000543109101
 46
8.400000069389928
 79
     2
 49
0.6118823435999997
 49
-42.21988036799998
 53
11.3099327
 43
11.4
 44
-2.813088958578392
 45
-0.0000000543109101
 46
8.400000069389928
 79
     2
 49
0.6118823435999997
 49
-42.21988036799998
 53
11.3099327
 43
19.8
 44
-2.813088958578392
 45
-0.0000000543109101
 46
8.400000069389928
 79
     2
 49
0.6118823435999997
 49
-42.21988036799998
 53
11.3099327
 43
28.2
 44
-2.813088958578392
 45
-0.0000000543109101
 46
8.400000069389928
 79
     2
 49
0.6118823435999997
 49
-42.21988036799998
 53
11.3099327
 43
36.6
 44
-2.813088958578392
 45
-0.0000000543109101
 46
8.400000069389928
 79
     2
 49
0.6118823435999997
 49
-42.21988036799998
 53
0.0
 43
3.599999999999999
 44
-2.693088958578391
 45
0.0
 46
8.4
 79
     2
 49
1.199999999999999
 49
-7.199999999999999
 53
348.6900673
 43
4.799999999999999
 44
-2.693088958578391
 45
0.0000000543109101
 46
8.400000069389928
 79
     2
 49
0.6118823435999997
 49
-42.21988036799998
 53
348.6900673
 43
13.2
 44
-2.693088958578391
 45
0.0000000543109101
 46
8.400000069389928
 79
     2
 49
0.6118823435999997
 49
-42.21988036799998
 53
348.6900673
 43
21.6
 44
-2.693088958578391
 45
0.0000000543109101
 46
8.400000069389928
 79
     2
 49
0.6118823435999997
 49
-42.21988036799998
 53
348.6900673
 43
30.0
 44
-2.693088958578391
 45
0.0000000543109101
 46
8.400000069389928
 79
     2
 49
0.6118823435999997
 49
-42.21988036799998
 53
348.6900673
 43
38.4
 44
-2.693088958578391
 45
0.0000000543109101
 46
8.400000069389928
 79
     2
 49
0.6118823435999997
 49
-42.21988036799998
 53
333.4349499
 43
5.399999999999999
 44
-2.813088958578392
 45
0.0000000460215162
 46
8.400000143556356
 79
     2
 49
0.2683281599999999
 49
-18.514643556
 53
333.4349499
 43
13.8
 44
-2.813088958578392
 45
0.0000000460215162
 46
8.400000143556356
 79
     2
 49
0.2683281599999999
 49
-18.514643556
 53
341.565052
 43
5.639999999999999
 44
-2.933088958578391
 45
-0.0000002686412607
 46
8.399999851558131
 79
     2
 49
0.379473324
 49
-26.183659056
 53
341.565052
 43
14.04
 44
-2.933088958578391
 45
-0.0000002686412607
 46
8.399999851558131
 79
     2
 49
0.379473324
 49
-26.183659056
 53
341.565052
 43
22.44
 44
-2.933088958578391
 45
-0.0000002686412607
 46
8.399999851558131
 79
     2
 49
0.379473324
 49
-26.183659056
 53
333.4349499
 43
6.0
 44
-3.053088958578392
 45
0.0000000460215162
 46
8.400000143556356
 79
     2
 49
0.2683281599999999
 49
-18.514643556
 53
333.4349499
 43
14.4
 44
-3.053088958578392
 45
0.0000000460215162
 46
8.400000143556356
 79
     2
 49
0.2683281599999999
 49
-18.514643556
 53
326.3099327
 43
6.24
 44
-3.173088958578391
 45
-0.0000001596020127
 46
8.399999824188462
 79
     2
 49
0.4326661440000001
 49
-29.85396423600001
 53
326.3099327
 43
14.64
 44
-3.173088958578391
 45
-0.0000001596020127
 46
8.399999824188462
 79
     2
 49
0.4326661440000001
 49
-29.85396423600001
 53
326.3099327
 43
23.04
 44
-3.173088958578391
 45
-0.0000001596020127
 46
8.399999824188462
 79
     2
 49
0.4326661440000001
 49
-29.85396423600001
 53
315.0
 43
6.599999999999999
 44
-3.413088958578391
 45
-0.0000000000000009
 46
8.400000002875099
 79
     2
 49
1.527350688
 49
-10.352043456
 53
296.5650482
 43
7.679999999999999
 44
-4.493088958578391
 45
0.0000000286036308
 46
8.400000041591663
 79
     2
 49
1.073312639999999
 49
-17.70965881199999
 53
284.0362396
 43
8.16
 44
-5.453088958578391
 45
0.000000348785556
 46
8.399999709154096
 79
     2
 49
0.4947726600000001
 49
-34.139315184
 53
277.1250153
 43
8.279999999999999
 44
-5.933088958578391
 45
0.0000004961129005
 46
8.399999852931037
 79
     2
 49
0.9674709324
 49
-66.75549316799998
 53
277.1250153
 43
0.0
 44
-6.893088958578391
 45
0.0000004961129005
 46
8.399999852931037
 79
     2
 49
0.9674709324
 49
-66.75549316799998
 53
284.0362396
 43
0.12
 44
-7.853088958578391
 45
0.000000348785556
 46
8.399999709154096
 79
     2
 49
0.4947726600000001
 49
-34.139315184
 53
296.5650482
 43
0.24
 44
-8.333088958578391
 45
0.0000000286036308
 46
8.400000041591663
 79
     2
 49
1.073312639999999
 49
-17.70965881199999
 53
315.0
 43
0.72
 44
-9.29308895857839
 45
-0.0000000000000009
 46
8.400000002875099
 79
     2
 49
1.527350688
 49
-10.352043456
 53
326.3099327
 43
1.799999999999999
 44
-10.37308895857839
 45
-0.0000001596020127
 46
8.399999824188462
 79
     2
 49
0.4326661440000001
 49
-29.85396423600001
 53
326.3099327
 43
10.2
 44
-10.37308895857839
 45
-0.0000001596020127
 46
8.399999824188462
 79
     2
 49
0.4326661440000001
 49
-29.85396423600001
 53
326.3099327
 43
18.6
 44
-10.37308895857839
 45
-0.0000001596020127
 46
8.399999824188462
 79
     2
 49
0.4326661440000001
 49
-29.85396423600001
 53
333.4349499
 43
2.16
 44
-10.61308895857839
 45
0.0000000460215162
 46
8.400000143556356
 79
     2
 49
0.2683281599999999
 49
-18.514643556
 53
333.4349499
 43
10.56
 44
-10.61308895857839
 45
0.0000000460215162
 46
8.400000143556356
 79
     2
 49
0.2683281599999999
 49
-18.514643556
 53
341.565052
 43
2.399999999999999
 44
-10.73308895857839
 45
-0.0000002686412607
 46
8.399999851558131
 79
     2
 49
0.379473324
 49
-26.183659056
 53
341.565052
 43
10.8
 44
-10.73308895857839
 45
-0.0000002686412607
 46
8.399999851558131
 79
     2
 49
0.379473324
 49
-26.183659056
 53
341.565052
 43
19.2
 44
-10.73308895857839
 45
-0.0000002686412607
 46
8.399999851558131
 79
     2
 49
0.379473324
 49
-26.183659056
 53
333.4349499
 43
2.759999999999999
 44
-10.85308895857839
 45
0.0000000460215162
 46
8.400000143556356
 79
     2
 49
0.2683281599999999
 49
-18.514643556
 53
333.4349499
 43
11.16
 44
-10.85308895857839
 45
0.0000000460215162
 46
8.400000143556356
 79
     2
 49
0.2683281599999999
 49
-18.514643556
 53
348.6900673
 43
3.0
 44
-10.97308895857839
 45
0.0000000543109101
 46
8.400000069389928
 79
     2
 49
0.6118823435999997
 49
-42.21988036799998
 53
348.6900673
 43
11.4
 44
-10.97308895857839
 45
0.0000000543109101
 46
8.400000069389928
 79
     2
 49
0.6118823435999997
 49
-42.21988036799998
 53
348.6900673
 43
19.8
 44
-10.97308895857839
 45
0.0000000543109101
 46
8.400000069389928
 79
     2
 49
0.6118823435999997
 49
-42.21988036799998
 53
348.6900673
 43
28.2
 44
-10.97308895857839
 45
0.0000000543109101
 46
8.400000069389928
 79
     2
 49
0.6118823435999997
 49
-42.21988036799998
 53
348.6900673
 43
36.6
 44
-10.97308895857839
 45
0.0000000543109101
 46
8.400000069389928
 79
     2
 49
0.6118823435999997
 49
-42.21988036799998
 53
0.0
 43
3.599999999999999
 44
-11.09308895857839
 45
0.0
 46
8.4
 79
     2
 49
1.199999999999999
 49
-7.199999999999999
 53
11.3099327
 43
4.799999999999999
 44
-11.09308895857839
 45
-0.0000000543109101
 46
8.400000069389928
 79
     2
 49
0.6118823435999997
 49
-42.21988036799998
 53
11.3099327
 43
13.2
 44
-11.09308895857839
 45
-0.0000000543109101
 46
8.400000069389928
 79
     2
 49
0.6118823435999997
 49
-42.21988036799998
 53
11.3099327
 43
21.6
 44
-11.09308895857839
 45
-0.0000000543109101
 46
8.400000069389928
 79
     2
 49
0.6118823435999997
 49
-42.21988036799998
 53
11.3099327
 43
30.0
 44
-11.09308895857839
 45
-0.0000000543109101
 46
8.400000069389928
 79
     2
 49
0.6118823435999997
 49
-42.21988036799998
 53
11.3099327
 43
38.4
 44
-11.09308895857839
 45
-0.0000000543109101
 46
8.400000069389928
 79
     2
 49
0.6118823435999997
 49
-42.21988036799998
 53
26.5650501
 43
5.399999999999999
 44
-10.97308895857839
 45
-0.0000000460215162
 46
8.400000143556356
 79
     2
 49
0.26832816
 49
-18.514643556
 53
26.5650501
 43
13.8
 44
-10.97308895857839
 45
-0.0000000460215162
 46
8.400000143556356
 79
     2
 49
0.26832816
 49
-18.514643556
 53
18.434948
 43
5.639999999999999
 44
-10.85308895857839
 45
0.0000002686412607
 46
8.399999851558131
 79
     2
 49
0.3794733239999999
 49
-26.18365905599999
 53
18.434948
 43
14.04
 44
-10.85308895857839
 45
0.0000002686412607
 46
8.399999851558131
 79
     2
 49
0.3794733239999999
 49
-26.18365905599999
 53
18.434948
 43
22.44
 44
-10.85308895857839
 45
0.0000002686412607
 46
8.399999851558131
 79
     2
 49
0.3794733239999999
 49
-26.18365905599999
 53
26.5650501
 43
6.0
 44
-10.73308895857839
 45
-0.0000000460215162
 46
8.400000143556356
 79
     2
 49
0.26832816
 49
-18.514643556
 53
26.5650501
 43
14.4
 44
-10.73308895857839
 45
-0.0000000460215162
 46
8.400000143556356
 79
     2
 49
0.26832816
 49
-18.514643556
 53
33.6900673
 43
6.24
 44
-10.61308895857839
 45
0.0000001596020127
 46
8.399999824188462
 79
     2
 49
0.4326661440000001
 49
-29.85396423600001
 53
33.6900673
 43
14.64
 44
-10.61308895857839
 45
0.0000001596020127
 46
8.399999824188462
 79
     2
 49
0.4326661440000001
 49
-29.85396423600001
 53
33.6900673
 43
23.04
 44
-10.61308895857839
 45
0.0000001596020127
 46
8.399999824188462
 79
     2
 49
0.4326661440000001
 49
-29.85396423600001
 53
45.0
 43
6.599999999999999
 44
-10.37308895857839
 45
0.0000000000000009
 46
8.400000002875099
 79
     2
 49
1.527350688
 49
-10.352043456
 53
63.43495179999999
 43
7.679999999999999
 44
-9.29308895857839
 45
-0.0000000286036308
 46
8.400000041591663
 79
     2
 49
1.073312639999999
 49
-17.70965881199999
 53
75.96376039999999
 43
8.16
 44
-8.333088958578391
 45
-0.000000348785556
 46
8.399999709154096
 79
     2
 49
0.4947726600000001
 49
-34.139315184
 53
82.8749847
 43
8.279999999999999
 44
-7.853088958578391
 45
-0.0000004961129005
 46
8.399999852931037
 79
     2
 49
0.9674709324
 49
-66.75549316799998
 98
        1
 10
7112.427786514833
 20
4150.971562414512
1001
GradientColor1ACI
1070
     5
1001
GradientColor2ACI
1070
     2
1001
ACAD
1010
0.0
1020
0.0
1030
0.0
  0
LINE
  5
4C7
330
1F
100
AcDbEntity
  8
Specialized_Fills
  6
Continuous
100
AcDbLine
 10
7085.905238421609
 20
4179.00634483346
 30
0.0
 11
7085.905238421609
 21
3971.356592998806
 31
0.0
  0
LINE
  5
4C8
330
1F
100
AcDbEntity
  8
Specialized_Fills
  6
Continuous
100
AcDbLine
 10
7085.905238421609
 20
3971.356592998806
 30
0.0
 11
7135.905238421603
 21
3971.356592998798
 31
0.0
  0
LINE
  5
4C9
330
1F
100
AcDbEntity
  8
Specialized_Fills
  6
Continuous
100
AcDbLine
 10
7135.905238421603
 20
3971.356592998798
 30
0.0
 11
7135.905238421601
 21
4179.00634483346
 31
0.0
  0
MTEXT
  5
4D2
330
1F
100
AcDbEntity
  8
Specialized_Text
  6
Continuous
100
AcDbMText
 10
6946.675652756212
 20
4190.515903062826
 30
0.0
 40
3.0
 41
48.87340123734884
 46
0.0
 71
     4
 72
     1
  1
Appraisal No.510 [2013]
  7
GENERATED_STYLE_2
 73
     1
 44
1.0
  0
IMAGE
  5
4D3
330
1F
100
AcDbEntity
  8
0
 62
     7
420
 16777215
160
               140
310
8C00000001000000840000000600000005000000405F1432D81FBB40F712B4D5D061B0400000000000000000405F1432D81FBB40C8CAAC5A9791B04000000000000000005B2816BD7E52BB40C8CAAC5A9791B04000000000000000005B2816BD7E52BB40F712B4D5D061B0400000000000000000405F1432D81FBB40F712B4
310
D5D061B0400000000000000000
100
AcDbRasterImage
 90
        0
 10
6943.844514153723
 20
4193.815760855321
 30
0.0
 11
0.0611721721957824
 21
0.0
 31
0.0
 12
0.0
 22
0.0611721721957824
 32
0.0
 13
828.0
 23
781.0
340
4A9
 70
     7
280
     0
281
    50
282
    50
283
     0
290
     0
360
4D4
 71
     1
 91
        2
 14
-0.5
 24
-0.5
 14
827.5
 24
780.5
  0
IMAGE
  5
4D5
330
1F
100
AcDbEntity
  8
0
 62
     7
420
 16777215
160
               140
310
8C00000001000000840000000600000005000000636EB6012A0DBC407D556848C867B0400000000000000000636EB6012A0DBC4000ED9A2BF68EB0400000000000000000EC8F76A7C97ABC4000ED9A2BF68EB0400000000000000000EC8F76A7C97ABC407D556848C867B0400000000000000000636EB6012A0DBC407D5568
310
48C867B0400000000000000000
100
AcDbRasterImage
 90
        0
 10
7181.164088632536
 20
4199.7823548516
 30
0.0
 11
0.0434841820317712
 21
0.0
 31
0.0
 12
0.0
 22
0.0434841820317712
 32
0.0
 13
2521.0
 23
901.0
340
4AA
 70
     7
280
     0
281
    50
282
    50
283
     0
290
     0
360
4D6
 71
     1
 91
        2
 14
-0.5
 24
-0.5
 14
2520.5
 24
900.5
  0
LINE
  5
4F9
330
1F
100
AcDbEntity
  8
Specialized_Fills
  6
Continuous
100
AcDbLine
 10
7219.72969151751
 20
3839.738466498567
 30
0.0
 11
7223.403222706868
 21
3844.116410490992
 31
0.0
  0
LINE
  5
4FA
330
1F
100
AcDbEntity
  8
Specialized_Fills
  6
Continuous
100
AcDbLine
 10
7219.72969151751
 20
3966.571024808297
 30
0.0
 11
7223.403222706868
 21
3970.948968800723
 31
0.0
  0
LINE
  5
4FC
330
1F
100
AcDbEntity
  8
Specialized_Fills
  6
Continuous
100
AcDbLine
 10
7152.83072295394
 20
3892.273794407667
 30
0.0
 11
7156.504254143297
 21
3896.651738400091
 31
0.0
  0
LINE
  5
4FD
330
1F
100
AcDbEntity
  8
Specialized_Fills
  6
Continuous
100
AcDbLine
 10
7163.403749380437
 20
3834.956740836897
 30
0.0
 11
7167.077280569795
 21
3839.334684829321
 31
0.0
  0
LINE
  5
4FE
330
1F
100
AcDbEntity
  8
Specialized_Fills
  6
Continuous
100
AcDbLine
 10
7163.403749380437
 20
3961.789299146627
 30
0.0
 11
7167.077280569795
 21
3966.167243139052
 31
0.0
  0
LINE
  5
4FF
330
1F
100
AcDbEntity
  8
Specialized_Fills
  6
Continuous
100
AcDbLine
 10
7274.38509221631
 20
3961.789299146627
 30
0.0
 11
7278.058623405669
 21
3966.167243139052
 31
0.0
  0
LINE
  5
501
330
1F
100
AcDbEntity
  8
Specialized_Fills
  6
Continuous
100
AcDbLine
 10
7207.486123652738
 20
3887.492068745995
 30
0.0
 11
7211.159654842099
 21
3891.870012738421
 31
0.0
  0
LINE
  5
502
330
1F
100
AcDbEntity
  8
Specialized_Fills
  6
Continuous
100
AcDbLine
 10
7208.232803418866
 20
4015.214485349523
 30
0.0
 11
7211.159654842099
 21
4018.702571048151
 31
0.0
  0
LINE
  5
504
330
1F
100
AcDbEntity
  8
Specialized_Fills
  6
Continuous
100
AcDbLine
 10
7152.830726805041
 20
3892.273746693114
 30
0.0
 11
7157.385328964716
 21
3891.875270637271
 31
0.0
  0
LINE
  5
505
330
1F
100
AcDbEntity
  8
Specialized_Fills
  6
Continuous
100
AcDbLine
 10
7157.232804346609
 20
4018.721173121995
 30
0.0
 11
7157.385328964716
 21
4018.707828947001
 31
0.0
  0
LINE
  5
506
330
1F
100
AcDbEntity
  8
Specialized_Fills
  6
Continuous
100
AcDbLine
 10
7265.225678834778
 20
4018.982630223725
 30
0.0
 11
7268.366671800589
 21
4018.707828947001
 31
0.0
  0
LINE
  5
508
330
1F
100
AcDbEntity
  8
Specialized_Fills
  6
Continuous
100
AcDbLine
 10
7207.485952721146
 20
3887.492034023006
 30
0.0
 11
7212.040554880821
 21
3887.093557967164
 31
0.0
  0
LINE
  5
509
330
1F
100
AcDbEntity
  8
Specialized_Fills
  6
Continuous
100
AcDbLine
 10
7208.232803418866
 20
4014.259251363339
 30
0.0
 11
7212.040554880821
 21
4013.926116276893
 31
0.0
  0
LINE
  5
50A
330
1F
100
AcDbEntity
  8
Specialized_Fills
  6
Continuous
100
AcDbLine
 10
7219.72969151751
 20
3839.738466498567
 30
0.0
 11
7224.284293677185
 21
3839.339990442726
 31
0.0
  0
LINE
  5
50B
330
1F
100
AcDbEntity
  8
Specialized_Fills
  6
Continuous
100
AcDbLine
 10
7219.72969151751
 20
3966.571024808297
 30
0.0
 11
7224.284293677185
 21
3966.172548752455
 31
0.0
  0
LINE
  5
50C
330
1F
100
AcDbEntity
  8
Specialized_Fills
  6
Continuous
100
AcDbLine
 10
7163.403574597741
 20
3834.956753828461
 30
0.0
 11
7167.958176757416
 21
3834.558277772617
 31
0.0
  0
LINE
  5
50D
330
1F
100
AcDbEntity
  8
Specialized_Fills
  6
Continuous
100
AcDbLine
 10
7163.403574597741
 20
3961.78931213819
 30
0.0
 11
7167.958176757416
 21
3961.390836082347
 31
0.0
  0
LINE
  5
50E
330
1F
100
AcDbEntity
  8
Specialized_Fills
  6
Continuous
100
AcDbLine
 10
7274.384917433614
 20
3961.78931213819
 30
0.0
 11
7278.93951959329
 21
3961.390836082347
 31
0.0
  0
LINE
  5
50F
330
1F
100
AcDbEntity
  8
Specialized_Fills
  6
Continuous
100
AcDbLine
 10
7224.28429151751
 20
3839.339991498567
 30
0.0
 11
7223.403258099705
 21
3844.116415800984
 31
0.0
  0
LINE
  5
510
330
1F
100
AcDbEntity
  8
Specialized_Fills
  6
Continuous
100
AcDbLine
 10
7224.28429151751
 20
3966.172549808297
 30
0.0
 11
7223.403258099705
 21
3970.948974110714
 31
0.0
  0
LINE
  5
511
330
1F
100
AcDbEntity
  8
Specialized_Fills
  6
Continuous
100
AcDbLine
 10
7167.958100195074
 20
3834.55790621566
 30
0.0
 11
7167.07706677727
 21
3839.334330518076
 31
0.0
  0
LINE
  5
512
330
1F
100
AcDbEntity
  8
Specialized_Fills
  6
Continuous
100
AcDbLine
 10
7167.958100195074
 20
3961.39046452539
 30
0.0
 11
7167.07706677727
 21
3966.166888827807
 31
0.0
  0
LINE
  5
513
330
1F
100
AcDbEntity
  8
Specialized_Fills
  6
Continuous
100
AcDbLine
 10
7278.939443030949
 20
3961.39046452539
 30
0.0
 11
7278.058409613144
 21
3966.166888827807
 31
0.0
  0
LINE
  5
515
330
1F
100
AcDbEntity
  8
Specialized_Fills
  6
Continuous
100
AcDbLine
 10
7157.385699181422
 20
3891.874997844655
 30
0.0
 11
7156.504665763619
 21
3896.651422147071
 31
0.0
  0
LINE
  5
516
330
1F
100
AcDbEntity
  8
Specialized_Fills
  6
Continuous
100
AcDbLine
 10
7157.385699181422
 20
4018.707556154384
 30
0.0
 11
7157.334960504933
 21
4018.982630223725
 31
0.0
  0
LINE
  5
517
330
1F
100
AcDbEntity
  8
Specialized_Fills
  6
Continuous
100
AcDbLine
 10
7268.367042017297
 20
4018.707556154384
 30
0.0
 11
7268.316303340807
 21
4018.982630223725
 31
0.0
  0
LINE
  5
519
330
1F
100
AcDbEntity
  8
Specialized_Fills
  6
Continuous
100
AcDbLine
 10
7212.040850694862
 20
3887.092912561748
 30
0.0
 11
7211.159817277058
 21
3891.869336864164
 31
0.0
  0
LINE
  5
51A
330
1F
100
AcDbEntity
  8
Specialized_Fills
  6
Continuous
100
AcDbLine
 10
7212.040850694862
 20
4013.925470871478
 30
0.0
 11
7211.159817277058
 21
4018.701895173893
 31
0.0
  0
LINE
  5
51C
330
1F
100
AcDbEntity
  8
Specialized_Fills
  6
Continuous
100
AcDbLine
 10
7219.72969151751
 20
3854.978466498567
 30
0.0
 11
7225.664794869368
 21
3861.164119613055
 31
0.0
  0
LINE
  5
51D
330
1F
100
AcDbEntity
  8
Specialized_Fills
  6
Continuous
100
AcDbLine
 10
7219.72969151751
 20
3981.811024808297
 30
0.0
 11
7225.664794869368
 21
3987.996677922784
 31
0.0
  0
LINE
  5
51E
330
1F
100
AcDbEntity
  8
Specialized_Fills
  6
Continuous
100
AcDbLine
 10
7190.072060949273
 20
3842.365768118749
 30
0.0
 11
7196.007164301133
 21
3848.551421233236
 31
0.0
  0
LINE
  5
51F
330
1F
100
AcDbEntity
  8
Specialized_Fills
  6
Continuous
100
AcDbLine
 10
7190.072060949273
 20
3969.198326428479
 30
0.0
 11
7196.007164301133
 21
3975.383979542966
 31
0.0
  0
LINE
  5
521
330
1F
100
AcDbEntity
  8
Specialized_Fills
  6
Continuous
100
AcDbLine
 10
7226.506661517508
 20
3853.927416498567
 30
0.0
 11
7225.664790317098
 21
3861.164112093375
 31
0.0
  0
LINE
  5
522
330
1F
100
AcDbEntity
  8
Specialized_Fills
  6
Continuous
100
AcDbLine
 10
7226.506661517508
 20
3980.759974808297
 30
0.0
 11
7225.664790317098
 21
3987.996670403106
 31
0.0
  0
LINE
  5
523
330
1F
100
AcDbEntity
  8
Specialized_Fills
  6
Continuous
100
AcDbLine
 10
7196.849043426428
 20
3841.314736127881
 30
0.0
 11
7196.007172226018
 21
3848.551431722689
 31
0.0
  0
LINE
  5
524
330
1F
100
AcDbEntity
  8
Specialized_Fills
  6
Continuous
100
AcDbLine
 10
7196.232803418865
 20
3973.44447213641
 30
0.0
 11
7196.007172226018
 21
3975.383990032419
 31
0.0
  0
LINE
  5
525
330
1F
100
AcDbEntity
  8
Specialized_Fills
  6
Continuous
100
AcDbLine
 10
7219.72969151751
 20
3854.978466498567
 30
0.0
 11
7226.50666850777
 21
3853.927397103385
 31
0.0
  0
LINE
  5
526
330
1F
100
AcDbEntity
  8
Specialized_Fills
  6
Continuous
100
AcDbLine
 10
7219.72969151751
 20
3981.811024808297
 30
0.0
 11
7226.50666850777
 21
3980.759955413115
 31
0.0
  0
LINE
  5
527
330
1F
100
AcDbEntity
  8
Specialized_Fills
  6
Continuous
100
AcDbLine
 10
7190.072072564753
 20
3842.365633756376
 30
0.0
 11
7196.849049555012
 21
3841.314564361194
 31
0.0
  0
LINE
  5
528
330
1F
100
AcDbEntity
  8
Specialized_Fills
  6
Continuous
100
AcDbLine
 10
7190.072072564753
 20
3969.198192066107
 30
0.0
 11
7196.232803418865
 21
3968.242698833354
 31
0.0
  0
LINE
  5
52A
330
1F
100
AcDbEntity
  8
Specialized_Fills
  6
Continuous
100
AcDbLine
 10
7134.908830380197
 20
3906.424996033413
 30
0.0
 11
7140.24424251763
 21
3908.473068865064
 31
0.0
  0
LINE
  5
52C
330
1F
100
AcDbEntity
  8
Specialized_Fills
  6
Continuous
100
AcDbLine
 10
7180.393294330814
 20
3875.745340478385
 30
0.0
 11
7185.728706468245
 21
3877.793413310035
 31
0.0
  0
LINE
  5
52D
330
1F
100
AcDbEntity
  8
Specialized_Fills
  6
Continuous
100
AcDbLine
 10
7180.393294330814
 20
4002.577898788113
 30
0.0
 11
7185.728706468245
 21
4004.625971619765
 31
0.0
  0
LINE
  5
52E
330
1F
100
AcDbEntity
  8
Specialized_Fills
  6
Continuous
100
AcDbLine
 10
7213.787284331819
 20
3797.822840732941
 30
0.0
 11
7214.144621956378
 21
3797.960009795374
 31
0.0
  0
LINE
  5
52F
330
1F
100
AcDbEntity
  8
Specialized_Fills
  6
Continuous
100
AcDbLine
 10
7213.787284331819
 20
3924.65539904267
 30
0.0
 11
7214.144621956378
 21
3924.792568105104
 31
0.0
  0
LINE
  5
530
330
1F
100
AcDbEntity
  8
Specialized_Fills
  6
Continuous
100
AcDbLine
 10
7161.85281263225
 20
3820.488810943538
 30
0.0
 11
7167.188224769681
 21
3822.53688377519
 31
0.0
  0
LINE
  5
531
330
1F
100
AcDbEntity
  8
Specialized_Fills
  6
Continuous
100
AcDbLine
 10
7161.85281263225
 20
3947.321369253268
 30
0.0
 11
7167.188224769681
 21
3949.36944208492
 31
0.0
  0
LINE
  5
532
330
1F
100
AcDbEntity
  8
Specialized_Fills
  6
Continuous
100
AcDbLine
 10
7272.834155468124
 20
3947.321369253268
 30
0.0
 11
7278.169567605555
 21
3949.36944208492
 31
0.0
  0
LINE
  5
534
330
1F
100
AcDbEntity
  8
Specialized_Fills
  6
Continuous
100
AcDbLine
 10
7134.908957185928
 20
3906.424856335263
 30
0.0
 11
7138.699316967652
 21
3903.868226380595
 31
0.0
  0
LINE
  5
536
330
1F
100
AcDbEntity
  8
Specialized_Fills
  6
Continuous
100
AcDbLine
 10
7180.393274566589
 20
3875.745296879244
 30
0.0
 11
7184.183634348311
 21
3873.188666924575
 31
0.0
  0
LINE
  5
537
330
1F
100
AcDbEntity
  8
Specialized_Fills
  6
Continuous
100
AcDbLine
 10
7180.393274566589
 20
4002.577855188973
 30
0.0
 11
7184.183634348311
 21
4000.021225234306
 31
0.0
  0
LINE
  5
538
330
1F
100
AcDbEntity
  8
Specialized_Fills
  6
Continuous
100
AcDbLine
 10
7161.852666062294
 20
3820.488907042548
 30
0.0
 11
7165.643025844016
 21
3817.93227708788
 31
0.0
  0
LINE
  5
539
330
1F
100
AcDbEntity
  8
Specialized_Fills
  6
Continuous
100
AcDbLine
 10
7161.852666062294
 20
3947.321465352278
 30
0.0
 11
7165.643025844016
 21
3944.76483539761
 31
0.0
  0
LINE
  5
53A
330
1F
100
AcDbEntity
  8
Specialized_Fills
  6
Continuous
100
AcDbLine
 10
7272.834008898168
 20
3947.321465352278
 30
0.0
 11
7276.624368679891
 21
3944.76483539761
 31
0.0
  0
LINE
  5
53B
330
1F
100
AcDbEntity
  8
Specialized_Fills
  6
Continuous
100
AcDbLine
 10
7213.787284331819
 20
3796.895736287236
 30
0.0
 11
7214.144435246971
 21
3797.960146531727
 31
0.0
  0
LINE
  5
53C
330
1F
100
AcDbEntity
  8
Specialized_Fills
  6
Continuous
100
AcDbLine
 10
7213.787284331819
 20
3923.728294596966
 30
0.0
 11
7214.144435246971
 21
3924.792704841457
 31
0.0
  0
LINE
  5
53E
330
1F
100
AcDbEntity
  8
Specialized_Fills
  6
Continuous
100
AcDbLine
 10
7138.699360067675
 20
3903.868225553303
 30
0.0
 11
7140.244415183179
 21
3908.472924641196
 31
0.0
  0
LINE
  5
53F
330
1F
100
AcDbEntity
  8
Specialized_Fills
  6
Continuous
100
AcDbLine
 10
7165.642984526631
 20
3817.93230475865
 30
0.0
 11
7167.188039642136
 21
3822.537003846544
 31
0.0
  0
LINE
  5
540
330
1F
100
AcDbEntity
  8
Specialized_Fills
  6
Continuous
100
AcDbLine
 10
7165.642984526631
 20
3944.76486306838
 30
0.0
 11
7167.188039642136
 21
3949.369562156274
 31
0.0
  0
LINE
  5
541
330
1F
100
AcDbEntity
  8
Specialized_Fills
  6
Continuous
100
AcDbLine
 10
7276.624327362506
 20
3944.76486306838
 30
0.0
 11
7278.169382478009
 21
3949.369562156274
 31
0.0
  0
LINE
  5
543
330
1F
100
AcDbEntity
  8
Specialized_Fills
  6
Continuous
100
AcDbLine
 10
7184.183645912672
 20
3873.188693813385
 30
0.0
 11
7185.728701028176
 21
3877.793392901279
 31
0.0
  0
LINE
  5
544
330
1F
100
AcDbEntity
  8
Specialized_Fills
  6
Continuous
100
AcDbLine
 10
7184.183645912672
 20
4000.021252123114
 30
0.0
 11
7185.728701028176
 21
4004.625951211009
 31
0.0
  0
POINT
  5
546
330
1F
100
AcDbEntity
  8
Specialized_Fills
  6
Continuous
100
AcDbPoint
 10
7222.509434443042
 20
3915.838001484405
 30
0.0
  0
POINT
  5
548
330
1F
100
AcDbEntity
  8
Specialized_Fills
  6
Continuous
100
AcDbPoint
 10
7221.582853467864
 20
3890.471489822459
 30
0.0
  0
POINT
  5
549
330
1F
100
AcDbEntity
  8
Specialized_Fills
  6
Continuous
100
AcDbPoint
 10
7221.582853467864
 20
4017.304048132188
 30
0.0
  0
POINT
  5
54A
330
1F
100
AcDbEntity
  8
Specialized_Fills
  6
Continuous
100
AcDbPoint
 10
7150.017208625676
 20
3793.883660333313
 30
0.0
  0
POINT
  5
54B
330
1F
100
AcDbEntity
  8
Specialized_Fills
  6
Continuous
100
AcDbPoint
 10
7150.017208625676
 20
3920.716218643042
 30
0.0
  0
POINT
  5
54C
330
1F
100
AcDbEntity
  8
Specialized_Fills
  6
Continuous
100
AcDbPoint
 10
7260.99855146155
 20
3920.716218643042
 30
0.0
  0
POINT
  5
54E
330
1F
100
AcDbEntity
  8
Specialized_Fills
  6
Continuous
100
AcDbPoint
 10
7220.656272492687
 20
3865.104978160513
 30
0.0
  0
POINT
  5
54F
330
1F
100
AcDbEntity
  8
Specialized_Fills
  6
Continuous
100
AcDbPoint
 10
7220.656272492687
 20
3991.937536470243
 30
0.0
  0
POINT
  5
551
330
1F
100
AcDbEntity
  8
Specialized_Fills
  6
Continuous
100
AcDbPoint
 10
7149.090627650498
 20
3895.349706981096
 30
0.0
  0
POINT
  5
552
330
1F
100
AcDbEntity
  8
Specialized_Fills
  6
Continuous
100
AcDbPoint
 10
7219.72969151751
 20
3839.738466498567
 30
0.0
  0
POINT
  5
553
330
1F
100
AcDbEntity
  8
Specialized_Fills
  6
Continuous
100
AcDbPoint
 10
7219.72969151751
 20
3966.571024808297
 30
0.0
  0
POINT
  5
555
330
1F
100
AcDbEntity
  8
Specialized_Fills
  6
Continuous
100
AcDbPoint
 10
7148.16404667532
 20
3869.98319531915
 30
0.0
  0
POINT
  5
556
330
1F
100
AcDbEntity
  8
Specialized_Fills
  6
Continuous
100
AcDbPoint
 10
7259.145389511194
 20
3996.815753628879
 30
0.0
  0
POINT
  5
558
330
1F
100
AcDbEntity
  8
Specialized_Fills
  6
Continuous
100
AcDbPoint
 10
7188.66790811055
 20
3901.062901315761
 30
0.0
  0
POINT
  5
559
330
1F
100
AcDbEntity
  8
Specialized_Fills
  6
Continuous
100
AcDbPoint
 10
7218.803110542332
 20
3814.371954836622
 30
0.0
  0
POINT
  5
55A
330
1F
100
AcDbEntity
  8
Specialized_Fills
  6
Continuous
100
AcDbPoint
 10
7218.803110542332
 20
3941.204513146352
 30
0.0
  0
POINT
  5
55B
330
1F
100
AcDbEntity
  8
Specialized_Fills
  6
Continuous
100
AcDbPoint
 10
7147.237465700142
 20
3844.616683657204
 30
0.0
  0
POINT
  5
55C
330
1F
100
AcDbEntity
  8
Specialized_Fills
  6
Continuous
100
AcDbPoint
 10
7258.218808536017
 20
3971.449241966934
 30
0.0
  0
POINT
  5
55E
330
1F
100
AcDbEntity
  8
Specialized_Fills
  6
Continuous
100
AcDbPoint
 10
7187.74132713537
 20
3875.696389653815
 30
0.0
  0
POINT
  5
55F
330
1F
100
AcDbEntity
  8
Specialized_Fills
  6
Continuous
100
AcDbPoint
 10
7187.74132713537
 20
4002.528947963545
 30
0.0
  0
POINT
  5
560
330
1F
100
AcDbEntity
  8
Specialized_Fills
  6
Continuous
100
AcDbPoint
 10
7146.310884724965
 20
3819.250171995258
 30
0.0
  0
POINT
  5
561
330
1F
100
AcDbEntity
  8
Specialized_Fills
  6
Continuous
100
AcDbPoint
 10
7146.310884724965
 20
3946.082730304988
 30
0.0
  0
POINT
  5
562
330
1F
100
AcDbEntity
  8
Specialized_Fills
  6
Continuous
100
AcDbPoint
 10
7257.292227560839
 20
3946.082730304988
 30
0.0
  0
POINT
  5
563
330
1F
100
AcDbEntity
  8
Specialized_Fills
  6
Continuous
100
AcDbPoint
 10
7186.814746160194
 20
3850.32987799187
 30
0.0
  0
POINT
  5
564
330
1F
100
AcDbEntity
  8
Specialized_Fills
  6
Continuous
100
AcDbPoint
 10
7186.814746160194
 20
3977.1624363016
 30
0.0
  0
POINT
  5
565
330
1F
100
AcDbEntity
  8
Specialized_Fills
  6
Continuous
100
AcDbPoint
 10
7145.384303749789
 20
3793.883660333313
 30
0.0
  0
POINT
  5
566
330
1F
100
AcDbEntity
  8
Specialized_Fills
  6
Continuous
100
AcDbPoint
 10
7145.384303749789
 20
3920.716218643042
 30
0.0
  0
POINT
  5
567
330
1F
100
AcDbEntity
  8
Specialized_Fills
  6
Continuous
100
AcDbPoint
 10
7256.365646585662
 20
3920.716218643042
 30
0.0
  0
POINT
  5
568
330
1F
100
AcDbEntity
  8
Specialized_Fills
  6
Continuous
100
AcDbPoint
 10
7185.888165185017
 20
3824.963366329924
 30
0.0
  0
POINT
  5
569
330
1F
100
AcDbEntity
  8
Specialized_Fills
  6
Continuous
100
AcDbPoint
 10
7185.888165185017
 20
3951.795924639653
 30
0.0
  0
POINT
  5
56A
330
1F
100
AcDbEntity
  8
Specialized_Fills
  6
Continuous
100
AcDbPoint
 10
7184.961584209839
 20
3799.596854667978
 30
0.0
  0
POINT
  5
56B
330
1F
100
AcDbEntity
  8
Specialized_Fills
  6
Continuous
100
AcDbPoint
 10
7184.961584209839
 20
3926.429412977708
 30
0.0
  0
POINT
  5
56E
330
1F
100
AcDbEntity
  8
Specialized_Fills
  6
Continuous
100
AcDbPoint
 10
7129.764251332556
 20
3897.335422188029
 30
0.0
  0
POINT
  5
56F
330
1F
100
AcDbEntity
  8
Specialized_Fills
  6
Continuous
100
AcDbPoint
 10
7240.745594168429
 20
3897.335422188029
 30
0.0
  0
POINT
  5
571
330
1F
100
AcDbEntity
  8
Specialized_Fills
  6
Continuous
100
AcDbPoint
 10
7148.840146187819
 20
3899.846811389439
 30
0.0
  0
POINT
  5
573
330
1F
100
AcDbEntity
  8
Specialized_Fills
  6
Continuous
100
AcDbPoint
 10
7177.699519790633
 20
3903.646220003057
 30
0.0
  0
POINT
  5
575
330
1F
100
AcDbEntity
  8
Specialized_Fills
  6
Continuous
100
AcDbPoint
 10
7220.699695415338
 20
3867.281249742593
 30
0.0
  0
POINT
  5
576
330
1F
100
AcDbEntity
  8
Specialized_Fills
  6
Continuous
100
AcDbPoint
 10
7220.699695415338
 20
3994.113808052323
 30
0.0
  0
POINT
  5
579
330
1F
100
AcDbEntity
  8
Specialized_Fills
  6
Continuous
100
AcDbPoint
 10
7128.794247434727
 20
3869.792638944004
 30
0.0
  0
POINT
  5
57A
330
1F
100
AcDbEntity
  8
Specialized_Fills
  6
Continuous
100
AcDbPoint
 10
7239.775590270601
 20
3869.792638944004
 30
0.0
  0
POINT
  5
57B
330
1F
100
AcDbEntity
  8
Specialized_Fills
  6
Continuous
100
AcDbPoint
 10
7239.775590270601
 20
3996.625197253733
 30
0.0
  0
POINT
  5
57D
330
1F
100
AcDbEntity
  8
Specialized_Fills
  6
Continuous
100
AcDbPoint
 10
7157.653621037541
 20
3873.592047557621
 30
0.0
  0
POINT
  5
57E
330
1F
100
AcDbEntity
  8
Specialized_Fills
  6
Continuous
100
AcDbPoint
 10
7157.653621037541
 20
4000.42460586735
 30
0.0
  0
POINT
  5
57F
330
1F
100
AcDbEntity
  8
Specialized_Fills
  6
Continuous
100
AcDbPoint
 10
7268.634963873414
 20
4000.42460586735
 30
0.0
  0
POINT
  5
581
330
1F
100
AcDbEntity
  8
Specialized_Fills
  6
Continuous
100
AcDbPoint
 10
7205.777759741708
 20
3879.927710612268
 30
0.0
  0
POINT
  5
583
330
1F
100
AcDbEntity
  8
Specialized_Fills
  6
Continuous
100
AcDbPoint
 10
7219.72969151751
 20
3839.738466498567
 30
0.0
  0
POINT
  5
584
330
1F
100
AcDbEntity
  8
Specialized_Fills
  6
Continuous
100
AcDbPoint
 10
7219.72969151751
 20
3966.571024808297
 30
0.0
  0
POINT
  5
585
330
1F
100
AcDbEntity
  8
Specialized_Fills
  6
Continuous
100
AcDbPoint
 10
7137.607722284449
 20
3843.537875112186
 30
0.0
  0
POINT
  5
586
330
1F
100
AcDbEntity
  8
Specialized_Fills
  6
Continuous
100
AcDbPoint
 10
7248.589065120324
 20
3970.370433421916
 30
0.0
  0
POINT
  5
587
330
1F
100
AcDbEntity
  8
Specialized_Fills
  6
Continuous
100
AcDbPoint
 10
7185.731860988616
 20
3849.873538166831
 30
0.0
  0
POINT
  5
588
330
1F
100
AcDbEntity
  8
Specialized_Fills
  6
Continuous
100
AcDbPoint
 10
7185.731860988616
 20
3976.706096476561
 30
0.0
  0
POINT
  5
589
330
1F
100
AcDbEntity
  8
Specialized_Fills
  6
Continuous
100
AcDbPoint
 10
7204.80775584388
 20
3852.384927368241
 30
0.0
  0
POINT
  5
58B
330
1F
100
AcDbEntity
  8
Specialized_Fills
  6
Continuous
100
AcDbPoint
 10
7228.543166367231
 20
3813.48370266675
 30
0.0
  0
POINT
  5
58C
330
1F
100
AcDbEntity
  8
Specialized_Fills
  6
Continuous
100
AcDbPoint
 10
7228.543166367231
 20
3940.31626097648
 30
0.0
  0
POINT
  5
58D
330
1F
100
AcDbEntity
  8
Specialized_Fills
  6
Continuous
100
AcDbPoint
 10
7165.685962235525
 20
3819.819365721396
 30
0.0
  0
POINT
  5
58E
330
1F
100
AcDbEntity
  8
Specialized_Fills
  6
Continuous
100
AcDbPoint
 10
7165.685962235525
 20
3946.651924031126
 30
0.0
  0
POINT
  5
58F
330
1F
100
AcDbEntity
  8
Specialized_Fills
  6
Continuous
100
AcDbPoint
 10
7276.667305071399
 20
3946.651924031126
 30
0.0
  0
POINT
  5
590
330
1F
100
AcDbEntity
  8
Specialized_Fills
  6
Continuous
100
AcDbPoint
 10
7184.761857090788
 20
3822.330754922806
 30
0.0
  0
POINT
  5
591
330
1F
100
AcDbEntity
  8
Specialized_Fills
  6
Continuous
100
AcDbPoint
 10
7184.761857090788
 20
3949.163313232535
 30
0.0
  0
POINT
  5
592
330
1F
100
AcDbEntity
  8
Specialized_Fills
  6
Continuous
100
AcDbPoint
 10
7213.621230693601
 20
3826.130163536424
 30
0.0
  0
POINT
  5
593
330
1F
100
AcDbEntity
  8
Specialized_Fills
  6
Continuous
100
AcDbPoint
 10
7102.639887857726
 20
3952.962721846154
 30
0.0
  0
POINT
  5
594
330
1F
100
AcDbEntity
  8
Specialized_Fills
  6
Continuous
100
AcDbPoint
 10
7213.621230693601
 20
3952.962721846154
 30
0.0
  0
POINT
  5
595
330
1F
100
AcDbEntity
  8
Specialized_Fills
  6
Continuous
100
AcDbPoint
 10
7193.575331940508
 20
3796.075991090988
 30
0.0
  0
POINT
  5
596
330
1F
100
AcDbEntity
  8
Specialized_Fills
  6
Continuous
100
AcDbPoint
 10
7193.575331940508
 20
3922.908549400718
 30
0.0
  0
POINT
  5
598
330
1F
100
AcDbEntity
  8
Specialized_Fills
  6
Continuous
100
AcDbPoint
 10
7203.108645809009
 20
3913.972432583953
 30
0.0
  0
POINT
  5
59A
330
1F
100
AcDbEntity
  8
Specialized_Fills
  6
Continuous
100
AcDbPoint
 10
7162.431467258947
 20
3915.691055781755
 30
0.0
  0
POINT
  5
59C
330
1F
100
AcDbEntity
  8
Specialized_Fills
  6
Continuous
100
AcDbPoint
 10
7178.498074301682
 20
3905.455498242748
 30
0.0
  0
POINT
  5
59D
330
1F
100
AcDbEntity
  8
Specialized_Fills
  6
Continuous
100
AcDbPoint
 10
7121.754288708885
 20
3790.577120669827
 30
0.0
  0
POINT
  5
59E
330
1F
100
AcDbEntity
  8
Specialized_Fills
  6
Continuous
100
AcDbPoint
 10
7232.73563154476
 20
3790.577120669827
 30
0.0
  0
POINT
  5
59F
330
1F
100
AcDbEntity
  8
Specialized_Fills
  6
Continuous
100
AcDbPoint
 10
7121.754288708885
 20
3917.409678979557
 30
0.0
  0
POINT
  5
5A0
330
1F
100
AcDbEntity
  8
Specialized_Fills
  6
Continuous
100
AcDbPoint
 10
7232.73563154476
 20
3917.409678979557
 30
0.0
  0
POINT
  5
5A2
330
1F
100
AcDbEntity
  8
Specialized_Fills
  6
Continuous
100
AcDbPoint
 10
7137.82089575162
 20
3907.17412144055
 30
0.0
  0
POINT
  5
5A4
330
1F
100
AcDbEntity
  8
Specialized_Fills
  6
Continuous
100
AcDbPoint
 10
7187.948709724956
 20
3875.239181918848
 30
0.0
  0
POINT
  5
5A5
330
1F
100
AcDbEntity
  8
Specialized_Fills
  6
Continuous
100
AcDbPoint
 10
7187.948709724956
 20
4002.071740228577
 30
0.0
  0
POINT
  5
5A7
330
1F
100
AcDbEntity
  8
Specialized_Fills
  6
Continuous
100
AcDbPoint
 10
7147.271531174894
 20
3876.95780511665
 30
0.0
  0
POINT
  5
5A8
330
1F
100
AcDbEntity
  8
Specialized_Fills
  6
Continuous
100
AcDbPoint
 10
7258.252874010769
 20
4003.79036342638
 30
0.0
  0
POINT
  5
5A9
330
1F
100
AcDbEntity
  8
Specialized_Fills
  6
Continuous
100
AcDbPoint
 10
7213.787284331819
 20
3834.582596905161
 30
0.0
  0
POINT
  5
5AA
330
1F
100
AcDbEntity
  8
Specialized_Fills
  6
Continuous
100
AcDbPoint
 10
7213.787284331819
 20
3961.415155214891
 30
0.0
  0
POINT
  5
5AC
330
1F
100
AcDbEntity
  8
Specialized_Fills
  6
Continuous
100
AcDbPoint
 10
7217.575695460706
 20
3878.676428314452
 30
0.0
  0
POINT
  5
5AD
330
1F
100
AcDbEntity
  8
Specialized_Fills
  6
Continuous
100
AcDbPoint
 10
7217.575695460706
 20
4005.508986624182
 30
0.0
  0
POINT
  5
5AE
330
1F
100
AcDbEntity
  8
Specialized_Fills
  6
Continuous
100
AcDbPoint
 10
7173.110105781758
 20
3836.301220102964
 30
0.0
  0
POINT
  5
5AF
330
1F
100
AcDbEntity
  8
Specialized_Fills
  6
Continuous
100
AcDbPoint
 10
7173.110105781758
 20
3963.133778412693
 30
0.0
  0
POINT
  5
5B0
330
1F
100
AcDbEntity
  8
Specialized_Fills
  6
Continuous
100
AcDbPoint
 10
7284.091448617632
 20
3963.133778412693
 30
0.0
  0
POINT
  5
5B1
330
1F
100
AcDbEntity
  8
Specialized_Fills
  6
Continuous
100
AcDbPoint
 10
7189.176712824494
 20
3826.065662563956
 30
0.0
  0
POINT
  5
5B2
330
1F
100
AcDbEntity
  8
Specialized_Fills
  6
Continuous
100
AcDbPoint
 10
7189.176712824494
 20
3952.898220873687
 30
0.0
  0
POINT
  5
5B3
330
1F
100
AcDbEntity
  8
Specialized_Fills
  6
Continuous
100
AcDbPoint
 10
7132.432927231696
 20
3838.019843300765
 30
0.0
  0
POINT
  5
5B4
330
1F
100
AcDbEntity
  8
Specialized_Fills
  6
Continuous
100
AcDbPoint
 10
7243.414270067571
 20
3964.852401610495
 30
0.0
  0
POINT
  5
5B5
330
1F
100
AcDbEntity
  8
Specialized_Fills
  6
Continuous
100
AcDbPoint
 10
7148.499534274432
 20
3827.784285761758
 30
0.0
  0
POINT
  5
5B6
330
1F
100
AcDbEntity
  8
Specialized_Fills
  6
Continuous
100
AcDbPoint
 10
7148.499534274432
 20
3954.616844071489
 30
0.0
  0
POINT
  5
5B7
330
1F
100
AcDbEntity
  8
Specialized_Fills
  6
Continuous
100
AcDbPoint
 10
7259.480877110306
 20
3954.616844071489
 30
0.0
  0
POINT
  5
5B8
330
1F
100
AcDbEntity
  8
Specialized_Fills
  6
Continuous
100
AcDbPoint
 10
7198.627348247767
 20
3795.849346240057
 30
0.0
  0
POINT
  5
5B9
330
1F
100
AcDbEntity
  8
Specialized_Fills
  6
Continuous
100
AcDbPoint
 10
7198.627348247767
 20
3922.681904549786
 30
0.0
  0
POINT
  5
5BA
330
1F
100
AcDbEntity
  8
Specialized_Fills
  6
Continuous
100
AcDbPoint
 10
7218.803698560245
 20
3829.502908959561
 30
0.0
  0
POINT
  5
5BB
330
1F
100
AcDbEntity
  8
Specialized_Fills
  6
Continuous
100
AcDbPoint
 10
7107.822355724372
 20
3956.33546726929
 30
0.0
  0
POINT
  5
5BC
330
1F
100
AcDbEntity
  8
Specialized_Fills
  6
Continuous
100
AcDbPoint
 10
7218.803698560245
 20
3956.33546726929
 30
0.0
  0
POINT
  5
5BD
330
1F
100
AcDbEntity
  8
Specialized_Fills
  6
Continuous
100
AcDbPoint
 10
7157.950169697705
 20
3797.567969437859
 30
0.0
  0
POINT
  5
5BE
330
1F
100
AcDbEntity
  8
Specialized_Fills
  6
Continuous
100
AcDbPoint
 10
7157.950169697705
 20
3924.400527747589
 30
0.0
  0
POINT
  5
5BF
330
1F
100
AcDbEntity
  8
Specialized_Fills
  6
Continuous
100
AcDbPoint
 10
7268.93151253358
 20
3924.400527747589
 30
0.0
  0
POINT
  5
5C0
330
1F
100
AcDbEntity
  8
Specialized_Fills
  6
Continuous
100
AcDbPoint
 10
7228.254333983518
 20
3799.286592635661
 30
0.0
  0
POINT
  5
5C1
330
1F
100
AcDbEntity
  8
Specialized_Fills
  6
Continuous
100
AcDbPoint
 10
7228.254333983518
 20
3926.119150945391
 30
0.0
  0
POINT
  5
5C3
330
1F
100
AcDbEntity
  8
Specialized_Fills
  6
Continuous
100
AcDbPoint
 10
7176.159320126327
 20
3900.460089186498
 30
0.0
  0
POINT
  5
5C5
330
1F
100
AcDbEntity
  8
Specialized_Fills
  6
Continuous
100
AcDbPoint
 10
7131.720565710522
 20
3892.832141876498
 30
0.0
  0
POINT
  5
5C6
330
1F
100
AcDbEntity
  8
Specialized_Fills
  6
Continuous
100
AcDbPoint
 10
7173.013257513247
 20
3854.994361118567
 30
0.0
  0
POINT
  5
5C7
330
1F
100
AcDbEntity
  8
Specialized_Fills
  6
Continuous
100
AcDbPoint
 10
7173.013257513247
 20
3981.826919428297
 30
0.0
  0
POINT
  5
5C8
330
1F
100
AcDbEntity
  8
Specialized_Fills
  6
Continuous
100
AcDbPoint
 10
7283.994600349121
 20
3981.826919428297
 30
0.0
  0
POINT
  5
5C9
330
1F
100
AcDbEntity
  8
Specialized_Fills
  6
Continuous
100
AcDbPoint
 10
7191.271930759348
 20
3838.263369626965
 30
0.0
  0
POINT
  5
5CA
330
1F
100
AcDbEntity
  8
Specialized_Fills
  6
Continuous
100
AcDbPoint
 10
7191.271930759348
 20
3965.095927936695
 30
0.0
  0
POINT
  5
5CB
330
1F
100
AcDbEntity
  8
Specialized_Fills
  6
Continuous
100
AcDbPoint
 10
7128.574503097441
 20
3847.366413808567
 30
0.0
  0
POINT
  5
5CC
330
1F
100
AcDbEntity
  8
Specialized_Fills
  6
Continuous
100
AcDbPoint
 10
7239.555845933316
 20
3847.366413808567
 30
0.0
  0
POINT
  5
5CD
330
1F
100
AcDbEntity
  8
Specialized_Fills
  6
Continuous
100
AcDbPoint
 10
7239.555845933316
 20
3974.198972118298
 30
0.0
  0
POINT
  5
5CE
330
1F
100
AcDbEntity
  8
Specialized_Fills
  6
Continuous
100
AcDbPoint
 10
7146.833176343545
 20
3830.635422316965
 30
0.0
  0
POINT
  5
5CF
330
1F
100
AcDbEntity
  8
Specialized_Fills
  6
Continuous
100
AcDbPoint
 10
7146.833176343545
 20
3957.467980626695
 30
0.0
  0
POINT
  5
5D0
330
1F
100
AcDbEntity
  8
Specialized_Fills
  6
Continuous
100
AcDbPoint
 10
7257.814519179418
 20
3957.467980626695
 30
0.0
  0
POINT
  5
5D1
330
1F
100
AcDbEntity
  8
Specialized_Fills
  6
Continuous
100
AcDbPoint
 10
7175.934692471177
 20
3803.968795878043
 30
0.0
  0
POINT
  5
5D2
330
1F
100
AcDbEntity
  8
Specialized_Fills
  6
Continuous
100
AcDbPoint
 10
7175.934692471177
 20
3930.801354187773
 30
0.0
  0
POINT
  5
5D3
330
1F
100
AcDbEntity
  8
Specialized_Fills
  6
Continuous
100
AcDbPoint
 10
7131.495938055372
 20
3796.340848568043
 30
0.0
  0
POINT
  5
5D4
330
1F
100
AcDbEntity
  8
Specialized_Fills
  6
Continuous
100
AcDbPoint
 10
7131.495938055372
 20
3923.173406877772
 30
0.0
  0
POINT
  5
5D5
330
1F
100
AcDbEntity
  8
Specialized_Fills
  6
Continuous
100
AcDbPoint
 10
7242.477280891247
 20
3923.173406877772
 30
0.0
  0
LINE
  5
5D6
330
1F
100
AcDbEntity
  8
Specialized_Fills
  6
Continuous
100
AcDbLine
 10
7128.221833817093
 20
3822.814713508284
 30
0.0
 11
7133.900858477959
 21
3822.174476129421
 31
0.0
  0
LINE
  5
5D7
330
1F
100
AcDbEntity
  8
Specialized_Fills
  6
Continuous
100
AcDbLine
 10
7239.203176652968
 20
3822.814713508284
 30
0.0
 11
7241.052249771617
 21
3822.606254169312
 31
0.0
  0
LINE
  5
5D8
330
1F
100
AcDbEntity
  8
Specialized_Fills
  6
Continuous
100
AcDbLine
 10
7128.221833817093
 20
3949.647271818014
 30
0.0
 11
7133.900858477959
 21
3949.007034439151
 31
0.0
  0
LINE
  5
5D9
330
1F
100
AcDbEntity
  8
Specialized_Fills
  6
Continuous
100
AcDbLine
 10
7239.203176652968
 20
3949.647271818014
 30
0.0
 11
7244.882201313832
 21
3949.007034439151
 31
0.0
  0
LINE
  5
5DA
330
1F
100
AcDbEntity
  8
Specialized_Fills
  6
Continuous
100
AcDbLine
 10
7128.221833817093
 20
3822.814713508284
 30
0.0
 11
7130.408156192458
 21
3818.799345720523
 31
0.0
  0
LINE
  5
5DB
330
1F
100
AcDbEntity
  8
Specialized_Fills
  6
Continuous
100
AcDbLine
 10
7239.203176652968
 20
3822.814713508284
 30
0.0
 11
7241.052249771617
 21
3819.418732786728
 31
0.0
  0
LINE
  5
5DC
330
1F
100
AcDbEntity
  8
Specialized_Fills
  6
Continuous
100
AcDbLine
 10
7128.221833817093
 20
3949.647271818014
 30
0.0
 11
7130.408156192458
 21
3945.631904030252
 31
0.0
  0
LINE
  5
5DD
330
1F
100
AcDbEntity
  8
Specialized_Fills
  6
Continuous
100
AcDbLine
 10
7239.203176652968
 20
3949.647271818014
 30
0.0
 11
7241.389499028331
 21
3945.631904030252
 31
0.0
  0
LINE
  5
5DE
330
1F
100
AcDbEntity
  8
Specialized_Fills
  6
Continuous
100
AcDbLine
 10
7130.408155878082
 20
3818.799348103834
 30
0.0
 11
7133.900882471936
 21
3822.174449574988
 31
0.0
  0
LINE
  5
5DF
330
1F
100
AcDbEntity
  8
Specialized_Fills
  6
Continuous
100
AcDbLine
 10
7130.408155878082
 20
3945.631906413563
 30
0.0
 11
7133.900882471936
 21
3949.007007884718
 31
0.0
  0
LINE
  5
5E0
330
1F
100
AcDbEntity
  8
Specialized_Fills
  6
Continuous
100
AcDbLine
 10
7241.389498713957
 20
3945.631906413563
 30
0.0
 11
7244.882225307811
 21
3949.007007884718
 31
0.0
  0
LINE
  5
5E2
330
1F
100
AcDbEntity
  8
Specialized_Fills
  6
Continuous
100
AcDbLine
 10
7149.856188798705
 20
3857.456762927647
 30
0.0
 11
7151.820175262455
 21
3862.823697077626
 31
0.0
  0
LINE
  5
5E3
330
1F
100
AcDbEntity
  8
Specialized_Fills
  6
Continuous
100
AcDbLine
 10
7260.83753163458
 20
3984.289321237377
 30
0.0
 11
7262.801518098328
 21
3989.656255387356
 31
0.0
  0
LINE
  5
5E5
330
1F
100
AcDbEntity
  8
Specialized_Fills
  6
Continuous
100
AcDbLine
 10
7149.85603989324
 20
3857.456672095617
 30
0.0
 11
7154.274305043189
 21
3858.632306845329
 31
0.0
  0
LINE
  5
5E6
330
1F
100
AcDbEntity
  8
Specialized_Fills
  6
Continuous
100
AcDbLine
 10
7260.837382729113
 20
3984.289230405347
 30
0.0
 11
7265.255647879064
 21
3985.464865155059
 31
0.0
  0
LINE
  5
5E8
330
1F
100
AcDbEntity
  8
Specialized_Fills
  6
Continuous
100
AcDbLine
 10
7154.274802879131
 20
3858.631800669991
 30
0.0
 11
7151.820558054996
 21
3862.823116852672
 31
0.0
  0
LINE
  5
5E9
330
1F
100
AcDbEntity
  8
Specialized_Fills
  6
Continuous
100
AcDbLine
 10
7265.256145715006
 20
3985.464358979721
 30
0.0
 11
7262.801900890869
 21
3989.655675162402
 31
0.0
  0
LINE
  5
5EB
330
1F
100
AcDbEntity
  8
Specialized_Fills
  6
Continuous
100
AcDbLine
 10
7188.408490121974
 20
3909.74216888954
 30
0.0
 11
7193.743902259405
 21
3911.790241721192
 31
0.0
  0
LINE
  5
5ED
330
1F
100
AcDbEntity
  8
Specialized_Fills
  6
Continuous
100
AcDbLine
 10
7188.408470357749
 20
3909.742125290401
 30
0.0
 11
7192.198830139472
 21
3907.185495335733
 31
0.0
  0
LINE
  5
5EF
330
1F
100
AcDbEntity
  8
Specialized_Fills
  6
Continuous
100
AcDbLine
 10
7192.198841703834
 20
3907.185522224541
 30
0.0
 11
7193.743896819336
 21
3911.790221312435
 31
0.0
  0
LINE
  5
5F0
330
1F
100
AcDbEntity
  8
Specialized_Fills
  6
Continuous
100
AcDbLine
 10
7189.107854964703
 20
3810.66163979613
 30
0.0
 11
7194.443267102134
 21
3812.709712627781
 31
0.0
  0
LINE
  5
5F1
330
1F
100
AcDbEntity
  8
Specialized_Fills
  6
Continuous
100
AcDbLine
 10
7189.107854964703
 20
3937.494198105859
 30
0.0
 11
7194.443267102134
 21
3939.54227093751
 31
0.0
  0
LINE
  5
5F2
330
1F
100
AcDbEntity
  8
Specialized_Fills
  6
Continuous
100
AcDbLine
 10
7189.107835200478
 20
3810.66159619699
 30
0.0
 11
7192.898194982202
 21
3808.104966242321
 31
0.0
  0
LINE
  5
5F3
330
1F
100
AcDbEntity
  8
Specialized_Fills
  6
Continuous
100
AcDbLine
 10
7189.107835200478
 20
3937.494154506719
 30
0.0
 11
7192.898194982202
 21
3934.937524552051
 31
0.0
  0
LINE
  5
5F4
330
1F
100
AcDbEntity
  8
Specialized_Fills
  6
Continuous
100
AcDbLine
 10
7192.898206546563
 20
3808.10499313113
 30
0.0
 11
7194.443261662065
 21
3812.709692219025
 31
0.0
  0
LINE
  5
5F5
330
1F
100
AcDbEntity
  8
Specialized_Fills
  6
Continuous
100
AcDbLine
 10
7192.898206546563
 20
3934.93755144086
 30
0.0
 11
7194.443261662065
 21
3939.542250528754
 31
0.0
  0
LINE
  5
5F8
330
1F
100
AcDbEntity
  8
Specialized_Fills
  6
Continuous
100
AcDbLine
 10
7121.84834788265
 20
3881.524192229634
 30
0.0
 11
7127.183760020081
 21
3883.572265061285
 31
0.0
  0
LINE
  5
5F9
330
1F
100
AcDbEntity
  8
Specialized_Fills
  6
Continuous
100
AcDbLine
 10
7232.829690718523
 20
3881.524192229634
 30
0.0
 11
7238.165102855955
 21
3883.572265061285
 31
0.0
  0
LINE
  5
5FA
330
1F
100
AcDbEntity
  8
Specialized_Fills
  6
Continuous
100
AcDbLine
 10
7232.829690718523
 20
4008.356750539364
 30
0.0
 11
7238.165102855955
 21
4010.404823371015
 31
0.0
  0
LINE
  5
5FD
330
1F
100
AcDbEntity
  8
Specialized_Fills
  6
Continuous
100
AcDbLine
 10
7121.848328118424
 20
3881.524148630493
 30
0.0
 11
7125.638687900146
 21
3878.967518675825
 31
0.0
  0
LINE
  5
5FE
330
1F
100
AcDbEntity
  8
Specialized_Fills
  6
Continuous
100
AcDbLine
 10
7232.829670954299
 20
3881.524148630493
 30
0.0
 11
7236.62003073602
 21
3878.967518675825
 31
0.0
  0
LINE
  5
5FF
330
1F
100
AcDbEntity
  8
Specialized_Fills
  6
Continuous
100
AcDbLine
 10
7232.829670954299
 20
4008.356706940223
 30
0.0
 11
7236.62003073602
 21
4005.800076985555
 31
0.0
  0
LINE
  5
602
330
1F
100
AcDbEntity
  8
Specialized_Fills
  6
Continuous
100
AcDbLine
 10
7125.638699464508
 20
3878.967545564634
 30
0.0
 11
7127.183754580013
 21
3883.572244652529
 31
0.0
  0
LINE
  5
603
330
1F
100
AcDbEntity
  8
Specialized_Fills
  6
Continuous
100
AcDbLine
 10
7236.620042300382
 20
3878.967545564634
 30
0.0
 11
7238.165097415886
 21
3883.572244652529
 31
0.0
  0
LINE
  5
604
330
1F
100
AcDbEntity
  8
Specialized_Fills
  6
Continuous
100
AcDbLine
 10
7236.620042300382
 20
4005.800103874364
 30
0.0
 11
7238.165097415886
 21
4010.404802962258
 31
0.0
  0
LINE
  5
605
330
1F
100
AcDbEntity
  8
Specialized_Fills
  6
Continuous
100
AcDbLine
 10
7129.815937044845
 20
3851.769655193528
 30
0.0
 11
7135.151349182276
 21
3853.81772802518
 31
0.0
  0
LINE
  5
606
330
1F
100
AcDbEntity
  8
Specialized_Fills
  6
Continuous
100
AcDbLine
 10
7240.79727988072
 20
3851.769655193528
 30
0.0
 11
7241.052249771617
 21
3851.867528964661
 31
0.0
  0
LINE
  5
607
330
1F
100
AcDbEntity
  8
Specialized_Fills
  6
Continuous
100
AcDbLine
 10
7240.79727988072
 20
3978.602213503258
 30
0.0
 11
7246.13269201815
 21
3980.65028633491
 31
0.0
  0
LINE
  5
608
330
1F
100
AcDbEntity
  8
Specialized_Fills
  6
Continuous
100
AcDbLine
 10
7129.815937044845
 20
3851.769655193528
 30
0.0
 11
7133.606296826565
 21
3849.21302523886
 31
0.0
  0
LINE
  5
609
330
1F
100
AcDbEntity
  8
Specialized_Fills
  6
Continuous
100
AcDbLine
 10
7240.79727988072
 20
3851.769655193528
 30
0.0
 11
7241.052249771617
 21
3851.597675830579
 31
0.0
  0
LINE
  5
60A
330
1F
100
AcDbEntity
  8
Specialized_Fills
  6
Continuous
100
AcDbLine
 10
7240.79727988072
 20
3978.602213503258
 30
0.0
 11
7244.58763966244
 21
3976.04558354859
 31
0.0
  0
LINE
  5
60B
330
1F
100
AcDbEntity
  8
Specialized_Fills
  6
Continuous
100
AcDbLine
 10
7133.606287044845
 20
3849.213025193529
 30
0.0
 11
7135.151342160348
 21
3853.817724281423
 31
0.0
  0
LINE
  5
60C
330
1F
100
AcDbEntity
  8
Specialized_Fills
  6
Continuous
100
AcDbLine
 10
7244.587629880718
 20
3976.045583503258
 30
0.0
 11
7246.132684996222
 21
3980.650282591153
 31
0.0
  0
LWPOLYLINE
  5
60D
330
1F
100
AcDbEntity
  8
0
  6
PLASTER
 48
3.0
100
AcDbPolyline
 90
        4
 70
     0
 43
0.0
 10
7080.792105431203
 20
3789.46784946926
 10
7080.792105431203
 20
3955.607197094823
 10
7081.392267952896
 20
3957.868714198065
 10
7084.535630199424
 20
3958.385590775293
  0
LWPOLYLINE
  5
60E
330
1F
100
AcDbEntity
  8
0
  6
PLASTER
 48
3.0
100
AcDbPolyline
 90
        4
 70
     0
 43
0.0
 10
7084.705238421602
 20
3964.156592998799
 10
7081.464942917141
 20
3964.812062207022
 10
7080.834828520231
 20
3966.659522271958
 10
7080.782427171034
 20
4178.983362563283
  0
ENDSEC
  0
SECTION
  2
OBJECTS
  0
DICTIONARY
  5
C
330
0
100
AcDbDictionary
281
     1
  3
ACAD_CIP_PREVIOUS_PRODUCT_INFO
350
3BD
  3
ACAD_COLOR
350
3B1
  3
ACAD_DETAILVIEWSTYLE
350
3B6
  3
ACAD_GROUP
350
D
  3
ACAD_IMAGE_DICT
350
3DF
  3
ACAD_IMAGE_VARS
350
3E3
  3
ACAD_LAYOUT
350
1A
  3
ACAD_MATERIAL
350
3B
  3
ACAD_MLEADERSTYLE
350
3A4
  3
ACAD_MLINESTYLE
350
17
  3
ACAD_PLOTSETTINGS
350
19
  3
ACAD_PLOTSTYLENAME
350
E
  3
ACAD_SCALELIST
350
167
  3
ACAD_SECTIONVIEWSTYLE
350
3B4
  3
ACAD_TABLESTYLE
350
3A3
  3
ACAD_VISUALSTYLE
350
2A
  3
ACAD_WIPEOUT_VARS
350
3BF
  3
ACDB_RECOMPOSE_DATA
350
80A
  3
AcDbVariableDictionary
350
381
  3
AcDsDecomposeData
350
810
  3
WATERMARKS
350
37F
  0
DICTIONARY
  5
3CB
330
2
100
AcDbDictionary
280
     1
281
     1
  3
ACAD_LAYERSTATES
360
3CC
  0
DICTIONARY
  5
426
330
10
100
AcDbDictionary
280
     1
281
     1
  3
ADSK_XREC_LAYER_RECONCILED
360
427
  0
DICTIONARY
  5
428
330
40
100
AcDbDictionary
280
     1
281
     1
  3
ADSK_XREC_LAYER_RECONCILED
360
429
  0
DICTIONARY
  5
42A
330
2D7
100
AcDbDictionary
280
     1
281
     1
  3
ADSK_XREC_LAYER_RECONCILED
360
42B
  0
DICTIONARY
  5
42C
330
33B
100
AcDbDictionary
280
     1
281
     1
  3
ADSK_XREC_LAYER_RECONCILED
360
42D
  0
DICTIONARY
  5
3C3
330
3C2
100
AcDbDictionary
280
     1
281
     1
  3
ADSK_XREC_LAYER_RECONCILED
360
42E
  0
DICTIONARY
  5
3F6
330
1F
100
AcDbDictionary
280
     1
281
     1
  3
ACAD_SORTENTS
360
4CB
  0
DICTIONARY
  5
415
330
18A
100
AcDbDictionary
280
     1
281
     1
  3
ACAD_SORTENTS
360
420
  0
DICTIONARY
  5
747
330
319
100
AcDbDictionary
280
     1
281
     1
  3
ACAD_ENHANCEDBLOCK
360
748
  3
AcDbDynamicBlockRoundTripPurgePreventer
360
74A
  0
IMAGEDEF_REACTOR
  5
4D4
330
4D3
100
AcDbRasterImageDefReactor
 90
        2
330
4D3
  0
IMAGEDEF_REACTOR
  5
4D6
330
4D5
100
AcDbRasterImageDefReactor
 90
        2
330
4D5
  0
XRECORD
  5
3BD
102
{ACAD_REACTORS
330
C
102
}
330
C
100
AcDbXrecord
280
     1
300
ACD
300
2014
300
BDSPRM_F_S
  0
DICTIONARY
  5
3B1
102
{ACAD_REACTORS
330
C
102
}
330
C
100
AcDbDictionary
281
     1
  0
DICTIONARY
  5
3B6
102
{ACAD_REACTORS
330
C
102
}
330
C
100
AcDbDictionary
281
     1
  3
Imperial24
350
3B7
  0
DICTIONARY
  5
D
102
{ACAD_REACTORS
330
C
102
}
330
C
100
AcDbDictionary
281
     1
  0
DICTIONARY
  5
3DF
102
{ACAD_REACTORS
330
C
102
}
330
C
100
AcDbDictionary
281
     1
  3
BRANZ logo. Do not place on drawing without number 510-
350
4A9
  3
logo sharp
350
4AA
  0
RASTERVARIABLES
  5
3E3
102
{ACAD_REACTORS
330
C
102
}
330
C
100
AcDbRasterVariables
 90
        0
 70
     1
 71
     1
 72
     0
  0
DICTIONARY
  5
1A
102
{ACAD_REACTORS
330
C
102
}
330
C
100
AcDbDictionary
281
     1
  3
Layout1
350
1E
  3
Layout2
350
26
  3
Model
350
22
  0
DICTIONARY
  5
3B
102
{ACAD_REACTORS
330
C
102
}
330
C
100
AcDbDictionary
281
     1
  3
ByBlock
350
3D
  3
ByLayer
350
3C
  3
Global
350
3E
  0
DICTIONARY
  5
3A4
102
{ACAD_REACTORS
330
C
102
}
330
C
100
AcDbDictionary
281
     1
  3
Standard
350
3B3
  0
DICTIONARY
  5
17
102
{ACAD_REACTORS
330
C
102
}
330
C
100
AcDbDictionary
281
     1
  3
Standard
350
18
  0
DICTIONARY
  5
19
102
{ACAD_REACTORS
330
C
102
}
330
C
100
AcDbDictionary
281
     1
  0
ACDBDICTIONARYWDFLT
  5
E
102
{ACAD_REACTORS
330
C
102
}
330
C
100
AcDbDictionary
281
     1
  3
Normal
350
F
100
AcDbDictionaryWithDefault
340
F
  0
DICTIONARY
  5
167
102
{ACAD_REACTORS
330
C
102
}
330
C
100
AcDbDictionary
281
     1
  3
A0
350
168
  3
A1
350
169
  3
A2
350
16A
  3
A3
350
16B
  3
A4
350
16C
  3
A5
350
16D
  3
A6
350
16E
  3
A7
350
16F
  3
A8
350
170
  3
A9
350
171
  3
B0
350
172
  3
B1
350
173
  3
B2
350
174
  3
B3
350
175
  3
B4
350
176
  3
B5
350
177
  3
B6
350
178
  3
B7
350
179
  3
B8
350
17A
  3
B9
350
17B
  3
C0
350
17C
  3
C1
350
17D
  3
C2
350
17E
  3
C3
350
17F
  3
C4
350
180
  3
C5
350
181
  3
C6
350
182
  3
C7
350
183
  3
C8
350
184
  3
C9
350
185
  3
D0
350
186
  3
D1
350
187
  3
D2
350
188
  0
DICTIONARY
  5
3B4
102
{ACAD_REACTORS
330
C
102
}
330
C
100
AcDbDictionary
281
     1
  3
Imperial24
350
3B5
  0
DICTIONARY
  5
3A3
102
{ACAD_REACTORS
330
C
102
}
330
C
100
AcDbDictionary
281
     1
  3
Standard
350
3B2
  0
DICTIONARY
  5
2A
102
{ACAD_REACTORS
330
C
102
}
330
C
100
AcDbDictionary
281
     1
  3
2dWireframe
350
2F
  3
3D Hidden
350
31
  3
3dWireframe
350
30
  3
Basic
350
32
  3
Brighten
350
36
  3
ColorChange
350
3A
  3
Conceptual
350
34
  3
Dim
350
35
  3
EdgeColorOff
350
3B0
  3
Facepattern
350
39
  3
Flat
350
2B
  3
FlatWithEdges
350
2C
  3
Gouraud
350
2D
  3
GouraudWithEdges
350
2E
  3
Hidden
350
3A8
  3
JitterOff
350
3AE
  3
Linepattern
350
38
  3
OverhangOff
350
3AF
  3
Realistic
350
33
  3
Shaded
350
3AD
  3
Shaded with edges
350
3AC
  3
Shades of Gray
350
3A9
  3
Sketchy
350
3AA
  3
Thicken
350
37
  3
Wireframe
350
3A7
  3
X-Ray
350
3AB
  0
WIPEOUTVARIABLES
  5
3BF
102
{ACAD_REACTORS
330
C
102
}
330
C
100
AcDbWipeoutVariables
 70
     1
  0
XRECORD
  5
80A
102
{ACAD_REACTORS
330
C
102
}
330
C
100
AcDbXrecord
280
     1
 90
        1
330
3B2
330
3E8
330
3EB
330
3EC
330
3EF
  0
DICTIONARY
  5
381
102
{ACAD_REACTORS
330
C
102
}
330
C
100
AcDbDictionary
281
     1
  3
CANNOSCALE
350
382
  3
CMLEADERSTYLE
350
43C
  3
CTABLESTYLE
350
43B
  3
CVIEWDETAILSTYLE
350
43D
  3
CVIEWSECTIONSTYLE
350
43E
  3
HPCOLOR
350
41B
  3
LAYEREVAL
350
43F
  3
LAYERNOTIFY
350
440
  0
DICTIONARY
  5
810
102
{ACAD_REACTORS
330
C
102
}
330
C
100
AcDbDictionary
281
     1
  3
AcDsRecords
350
812
  3
AcDsSchemas
350
811
1001
ACAD
1070
     2
  0
DICTIONARY
  5
37F
102
{ACAD_REACTORS
330
C
102
}
330
C
100
AcDbDictionary
281
     1
  3
AC_WATERMARK
350
380
  0
DICTIONARY
  5
3CC
102
{ACAD_REACTORS
330
3CB
102
}
330
3CB
100
AcDbDictionary
281
     1
  0
XRECORD
  5
427
102
{ACAD_REACTORS
330
426
102
}
330
426
100
AcDbXrecord
280
     1
290
     1
  0
XRECORD
  5
429
102
{ACAD_REACTORS
330
428
102
}
330
428
100
AcDbXrecord
280
     1
290
     1
  0
XRECORD
  5
42B
102
{ACAD_REACTORS
330
42A
102
}
330
42A
100
AcDbXrecord
280
     1
290
     1
  0
XRECORD
  5
42D
102
{ACAD_REACTORS
330
42C
102
}
330
42C
100
AcDbXrecord
280
     1
290
     1
  0
XRECORD
  5
42E
102
{ACAD_REACTORS
330
3C3
102
}
330
3C3
100
AcDbXrecord
280
     1
290
     1
  0
SORTENTSTABLE
  5
4CB
102
{ACAD_REACTORS
330
3F6
102
}
330
3F6
100
AcDbSortentsTable
330
1F
331
311
  5
5B1
331
2DA
  5
57B
331
2E2
  5
583
331
358
  5
5CC
331
5E8
  5
54E
331
5A9
  5
50F
331
4FC
  5
2DB
331
5B1
  5
517
331
53B
  5
325
331
504
  5
2E3
331
57A
  5
4B4
331
5F0
  5
556
331
5B9
  5
51F
331
543
  5
32E
331
50C
  5
2EB
331
5F8
  5
55E
331
54B
  5
344
331
5C1
  5
527
331
321
  5
5B7
331
2EA
  5
58B
331
368
  5
5D5
331
2F2
  5
593
331
331
  5
5C5
331
2FA
  5
59B
331
370
  5
5DD
331
302
  5
5A2
331
378
  5
5E5
331
608
  5
56E
331
5C9
  5
52F
331
553
  5
366
331
4BD
  5
603
331
51C
  5
2FB
331
592
  5
4F8
331
5D1
  5
537
331
55B
  5
36E
331
524
  5
304
331
59A
  5
500
331
5D9
  5
53F
331
563
  5
376
331
3EF
  5
5F2
331
52C
  5
30C
331
5A2
  5
508
331
4D5
  5
60C
331
56B
  5
3E8
331
30A
  5
5AA
331
312
  5
5B2
331
2DB
  5
57C
331
2E3
  5
584
331
5AA
  5
510
331
573
  5
3F0
331
534
  5
314
331
4FD
  5
2DC
331
5E9
  5
54F
331
5F1
  5
557
331
5B2
  5
518
331
53C
  5
326
331
505
  5
2E4
331
57B
  5
4B5
331
5F9
  5
55F
331
5BA
  5
520
331
544
  5
32F
331
50D
  5
2EC
331
583
  5
4BD
331
58B
  5
4C7
331
515
  5
2F4
331
54C
  5
358
331
41
  5
41
331
2EB
  5
58C
331
369
  5
5D6
331
2F3
  5
594
331
32A
  5
5BF
331
371
  5
5DE
331
332
  5
5C6
331
2FB
  5
59C
331
379
  5
5E6
331
303
  5
5A3
331
609
  5
56F
331
593
  5
4F9
331
4BE
  5
604
331
51D
  5
2FC
331
5CA
  5
530
331
55C
  5
36F
331
3E8
  5
5EB
331
4C6
  5
573
331
525
  5
305
331
5D2
  5
538
331
564
  5
377
331
3F0
  5
5F3
331
52D
  5
30D
331
5DA
  5
540
331
5E2
  5
548
331
30B
  5
5AB
331
313
  5
5B3
331
2DC
  5
57D
331
2E4
  5
585
331
35A
  5
5CD
331
4FE
  5
2DD
331
506
  5
2E5
331
5B3
  5
519
331
5F2
  5
558
331
5BB
  5
521
331
584
  5
4BE
331
50E
  5
2ED
331
5FA
  5
560
331
602
  5
568
331
5C3
  5
529
331
516
  5
2F5
331
58C
  5
4C8
331
42
  5
42
331
362
  5
5CF
331
2EC
  5
58D
331
32B
  5
5C0
331
2F4
  5
595
331
36A
  5
5D7
331
333
  5
5C7
331
2FC
  5
59D
331
372
  5
5DF
331
304
  5
5A4
331
37A
  5
5E7
331
60A
  5
570
331
5CB
  5
531
331
555
  5
368
331
51E
  5
2FD
331
594
  5
4FA
331
5D3
  5
539
331
3E9
  5
5EC
331
4C7
  5
574
331
526
  5
306
331
59C
  5
502
331
5DB
  5
541
331
565
  5
378
331
52E
  5
30E
331
5A4
  5
50A
331
5E3
  5
549
331
30C
  5
5AC
331
2D5
  5
577
331
2DD
  5
57E
331
2E5
  5
586
331
35B
  5
5CE
331
5AC
  5
512
331
575
  5
4AF
331
536
  5
318
331
4FF
  5
2DE
331
5EB
  5
551
331
5F3
  5
559
331
5B4
  5
51A
331
53E
  5
328
331
57D
  5
4B7
331
5BC
  5
522
331
546
  5
331
331
50F
  5
2EE
331
585
  5
4BF
331
58D
  5
4C9
331
517
  5
2F6
331
54E
  5
35B
331
603
  5
569
331
43
  5
43
331
2ED
  5
58E
331
363
  5
5D0
331
36B
  5
5D8
331
2F5
  5
596
331
32C
  5
5C1
331
373
  5
5E0
331
334
  5
5C8
331
2FD
  5
59E
331
305
  5
5A5
331
37B
  5
5E8
331
60B
  5
571
331
595
  5
4FB
331
556
  5
369
331
51F
  5
2FE
331
5CC
  5
532
331
5D4
  5
53A
331
55E
  5
371
331
3EA
  5
5ED
331
4C8
  5
575
331
527
  5
307
331
59D
  5
503
331
5DC
  5
542
331
566
  5
379
331
52F
  5
30F
331
5A5
  5
50B
331
56E
  5
3EB
331
344
  5
5CB
331
30D
  5
5AD
331
2D6
  5
578
331
2DE
  5
57F
331
2E6
  5
587
331
5AD
  5
513
331
537
  5
321
331
576
  5
4B0
331
5B5
  5
51B
331
57E
  5
4B8
331
53F
  5
32A
331
508
  5
2E7
331
5F4
  5
55A
331
5BD
  5
523
331
586
  5
4C0
331
510
  5
2EF
331
604
  5
56A
331
5C5
  5
52B
331
54F
  5
362
331
58E
  5
4CA
331
44
  5
44
331
364
  5
5D1
331
2EE
  5
58F
331
32D
  5
5C2
331
2F6
  5
597
331
36C
  5
5D9
331
2FE
  5
59F
331
374
  5
5E1
331
306
  5
5A6
331
4B9
  5
5FF
331
60C
  5
572
331
5CD
  5
533
331
596
  5
4FC
331
5D5
  5
53B
331
55F
  5
372
331
3EB
  5
5EE
331
4C9
  5
576
331
528
  5
308
331
59E
  5
504
331
567
  5
37A
331
5DD
  5
543
331
56F
  5
3EC
331
5E5
  5
54B
331
30E
  5
5AE
331
2DF
  5
580
331
2E7
  5
588
331
4F9
  5
2D6
331
530
  5
310
331
5ED
  5
553
331
538
  5
322
331
501
  5
2E0
331
5AE
  5
514
331
5F5
  5
55B
331
5B6
  5
51C
331
57F
  5
4B9
331
540
  5
32B
331
509
  5
2E8
331
5BE
  5
524
331
587
  5
4C2
331
511
  5
2F0
331
548
  5
334
331
5FD
  5
563
331
5C6
  5
52C
331
58F
  5
4D2
331
605
  5
56B
331
45
  5
45
331
365
  5
5D2
331
2EF
  5
590
331
326
  5
5BC
331
2F7
  5
598
331
36D
  5
5DA
331
375
  5
5E2
331
519
  5
2F8
331
4BA
  5
600
331
558
  5
36B
331
3E4
  5
5E9
331
4C2
  5
607
331
521
  5
301
331
5CE
  5
534
331
5D6
  5
53C
331
3EC
  5
5EF
331
560
  5
373
331
59F
  5
505
331
5DE
  5
544
331
568
  5
37B
331
4D2
  5
60A
331
5A7
  5
50D
331
5E6
  5
54C
331
30F
  5
5AF
331
2D8
  5
579
331
2E0
  5
581
331
531
  5
311
331
4FA
  5
2D8
331
539
  5
323
331
502
  5
2E1
331
5AF
  5
515
331
5B7
  5
51D
331
50A
  5
2E9
331
541
  5
32C
331
5FE
  5
564
331
588
  5
4C3
331
549
  5
335
331
512
  5
2F1
331
5BF
  5
525
331
606
  5
56C
331
5C7
  5
52D
331
46
  5
46
331
2E8
  5
589
331
366
  5
5D3
331
327
  5
5BD
331
2F0
  5
591
331
32F
  5
5C3
331
2F8
  5
599
331
36E
  5
5DB
331
300
  5
5A0
331
376
  5
5E3
331
551
  5
364
331
4BB
  5
601
331
51A
  5
2F9
331
590
  5
4D3
331
5CF
  5
535
331
559
  5
36C
331
3E5
  5
5EA
331
522
  5
302
331
598
  5
4FE
331
5D7
  5
53D
331
561
  5
374
331
3ED
  5
5F0
331
52A
  5
30A
331
5A0
  5
506
331
4D3
  5
60B
331
569
  5
3E4
331
5DF
  5
545
331
308
  5
5A8
331
310
  5
5B0
331
318
  5
5B6
331
2D9
  5
57A
331
3F
  5
3F
331
2E1
  5
582
331
5A8
  5
50E
331
571
  5
3EE
331
532
  5
312
331
5EF
  5
555
331
579
  5
4B3
331
53A
  5
324
331
5B0
  5
516
331
5B8
  5
51E
331
50B
  5
2EA
331
581
  5
4BB
331
5C0
  5
526
331
589
  5
4C4
331
513
  5
2F2
331
54A
  5
336
331
5FF
  5
565
331
607
  5
56D
331
47
  5
47
331
2E9
  5
58A
331
367
  5
5D4
331
2F1
  5
592
331
328
  5
5BE
331
2F9
  5
59A
331
36F
  5
5DC
331
377
  5
5E4
331
301
  5
5A1
331
5C8
  5
52E
331
591
  5
4D5
331
4BC
  5
602
331
552
  5
365
331
55A
  5
36D
331
523
  5
303
331
5D0
  5
536
331
3EE
  5
5F1
331
562
  5
375
331
5D8
  5
53E
331
5E0
  5
546
331
56A
  5
3E5
  0
SORTENTSTABLE
  5
420
102
{ACAD_REACTORS
330
415
102
}
330
415
100
AcDbSortentsTable
330
18A
331
412
  5
419
331
410
  5
412
331
413
  5
41C
331
422
  5
411
331
411
  5
413
  0
ACAD_EVALUATION_GRAPH
  5
748
102
{ACAD_REACTORS
330
747
102
}
330
747
100
AcDbEvalGraph
 96
        0
 97
        0
  0
ACDB_DYNAMICBLOCKPURGEPREVENTER_VERSION
  5
74A
102
{ACAD_REACTORS
330
747
102
}
330
747
100
AcDbDynamicBlockPurgePreventer
 70
     1
  0
ACDBDETAILVIEWSTYLE
  5
3B7
102
{ACAD_XDICTIONARY
360
438
102
}
102
{ACAD_REACTORS
330
3B6
102
}
330
3B6
100
AcDbModelDocViewStyle
 70
     0
  3
Imperial24
290
     0
100
AcDbDetailViewStyle
 70
     0
 71
     0
 90
        3
 71
     1
340
11
 62
   256
 40
0.24
340
0
 62
   256
 40
0.24
300

 40
0.36
280
     3
 71
     2
340
16
 90
       25
 62
   256
 71
     3
340
11
 62
   256
 40
0.24
 90
        1
 40
0.75
 90
        1
300
%<\AcVar ViewType \f "%tc1">% %<\AcVar ViewDetailId>%\PSCALE %<\AcVar ViewScale \f "%sn">%
 71
     4
340
16
 90
       25
 62
   256
340
16
 90
       25
 62
   256
280
     0
  0
IMAGEDEF
  5
4A9
102
{ACAD_REACTORS
330
3DF
330
4D4
102
}
330
3DF
100
AcDbRasterImageDef
 90
        0
  1
P:\VERT-X CONSULTING LTD\2013\10 Oct\1310-015- Specialized Construction Products - Contract draughting\Drawings\BRANZ logo. Do not place on drawing without number 510-.jpg
 10
828.0
 20
781.0
 11
0.0846666666666667
 21
0.0846666666666667
280
     1
281
     5
  0
IMAGEDEF
  5
4AA
102
{ACAD_REACTORS
330
3DF
330
4D6
102
}
330
3DF
100
AcDbRasterImageDef
 90
        0
  1
P:\VERT-X CONSULTING LTD\2013\10 Oct\1310-015- Specialized Construction Products - Contract draughting\Drawings\logo sharp.JPG
 10
2521.0
 20
901.0
 11
0.2645833333333333
 21
0.2645833333333333
280
     1
281
     5
  0
LAYOUT
  5
1E
102
{ACAD_REACTORS
330
1A
102
}
330
1A
100
AcDbPlotSettings
  1

  2
none_device
  4

  6

 40
0.0
 41
0.0
 42
0.0
 43
0.0
 44
0.0
 45
0.0
 46
0.0
 47
0.0
 48
0.0
 49
0.0
140
0.0
141
0.0
142
1.0
143
1.0
 70
   688
 72
     0
 73
     0
 74
     5
  7

 75
    16
147
1.0
 76
     0
 77
     2
 78
   300
148
0.0
149
0.0
100
AcDbLayout
  1
Layout1
 70
     1
 71
     1
 10
0.0
 20
0.0
 11
12.0
 21
9.0
 12
0.0
 22
0.0
 32
0.0
 14
1.000000000000000E+20
 24
1.000000000000000E+20
 34
1.000000000000000E+20
 15
-1.000000000000000E+20
 25
-1.000000000000000E+20
 35
-1.000000000000000E+20
146
0.0
 13
0.0
 23
0.0
 33
0.0
 16
1.0
 26
0.0
 36
0.0
 17
0.0
 27
1.0
 37
0.0
 76
     0
330
1B
  0
LAYOUT
  5
26
102
{ACAD_REACTORS
330
1A
102
}
330
1A
100
AcDbPlotSettings
  1

  2
none_device
  4

  6

 40
0.0
 41
0.0
 42
0.0
 43
0.0
 44
0.0
 45
0.0
 46
0.0
 47
0.0
 48
0.0
 49
0.0
140
0.0
141
0.0
142
1.0
143
1.0
 70
   688
 72
     0
 73
     0
 74
     5
  7

 75
    16
147
1.0
 76
     0
 77
     2
 78
   300
148
0.0
149
0.0
100
AcDbLayout
  1
Layout2
 70
     1
 71
     2
 10
0.0
 20
0.0
 11
0.0
 21
0.0
 12
0.0
 22
0.0
 32
0.0
 14
0.0
 24
0.0
 34
0.0
 15
0.0
 25
0.0
 35
0.0
146
0.0
 13
0.0
 23
0.0
 33
0.0
 16
1.0
 26
0.0
 36
0.0
 17
0.0
 27
1.0
 37
0.0
 76
     0
330
23
  0
LAYOUT
  5
22
102
{ACAD_REACTORS
330
1A
102
}
330
1A
100
AcDbPlotSettings
  1

  2
none_device
  4

  6

 40
0.0
 41
0.0
 42
0.0
 43
0.0
 44
0.0
 45
0.0
 46
0.0
 47
0.0
 48
0.0
 49
0.0
140
0.0
141
0.0
142
1.0
143
1.0
 70
  1712
 72
     0
 73
     0
 74
     0
  7

 75
     0
147
1.0
 76
     0
 77
     2
 78
   300
148
0.0
149
0.0
100
AcDbLayout
  1
Model
 70
     1
 71
     0
 10
0.0
 20
0.0
 11
12.0
 21
9.0
 12
0.0
 22
0.0
 32
0.0
 14
1.000000000000000E+20
 24
1.000000000000000E+20
 34
1.000000000000000E+20
 15
-1.000000000000000E+20
 25
-1.000000000000000E+20
 35
-1.000000000000000E+20
146
0.0
 13
0.0
 23
0.0
 33
0.0
 16
1.0
 26
0.0
 36
0.0
 17
0.0
 27
1.0
 37
0.0
 76
     0
330
1F
331
29
  0
MATERIAL
  5
3D
102
{ACAD_REACTORS
330
3B
102
}
330
3B
100
AcDbMaterial
  1
ByBlock
 73
     1
 78
     1
172
     1
176
     1
270
     1
274
     1
  0
MATERIAL
  5
3C
102
{ACAD_REACTORS
330
3B
102
}
330
3B
100
AcDbMaterial
  1
ByLayer
 73
     1
 78
     1
172
     1
176
     1
270
     1
274
     1
  0
MATERIAL
  5
3E
102
{ACAD_REACTORS
330
3B
102
}
330
3B
100
AcDbMaterial
  1
Global
 73
     1
 78
     1
172
     1
176
     1
270
     1
274
     1
  0
MLEADERSTYLE
  5
3B3
102
{ACAD_XDICTIONARY
360
847
102
}
102
{ACAD_REACTORS
330
3A4
102
}
330
3A4
100
AcDbMLeaderStyle
179
     2
170
     2
171
     1
172
     0
 90
        2
 40
0.0
 41
0.0
173
     1
 91
-1056964608
340
14
 92
       -2
290
     1
 42
0.09
291
     1
 43
0.36
  3
Standard
 44
0.18
300

342
11
174
     1
178
     6
175
     1
176
     0
 93
-1056964608
 45
0.18
292
     0
297
     0
 46
0.18
 94
-1056964608
 47
1.0
 49
1.0
140
1.0
293
     1
141
0.0
294
     1
177
     0
142
1.0
295
     0
296
     0
143
0.125
271
     0
272
     9
273
     9
  0
MLINESTYLE
  5
18
102
{ACAD_REACTORS
330
17
102
}
330
17
100
AcDbMlineStyle
  2
STANDARD
 70
     0
  3

 62
   256
 51
90.0
 52
90.0
 71
     2
 49
0.5
 62
   256
  6
BYLAYER
 49
-0.5
 62
   256
  6
BYLAYER
  0
ACDBPLACEHOLDER
  5
F
102
{ACAD_REACTORS
330
E
102
}
330
E
  0
SCALE
  5
168
102
{ACAD_REACTORS
330
167
102
}
330
167
100
AcDbScale
 70
     0
300
1:1
140
1.0
141
1.0
290
     1
  0
SCALE
  5
169
102
{ACAD_REACTORS
330
167
102
}
330
167
100
AcDbScale
 70
     0
300
1:2
140
1.0
141
2.0
290
     0
  0
SCALE
  5
16A
102
{ACAD_REACTORS
330
167
102
}
330
167
100
AcDbScale
 70
     0
300
1:4
140
1.0
141
4.0
290
     0
  0
SCALE
  5
16B
102
{ACAD_REACTORS
330
167
102
}
330
167
100
AcDbScale
 70
     0
300
1:5
140
1.0
141
5.0
290
     0
  0
SCALE
  5
16C
102
{ACAD_REACTORS
330
167
102
}
330
167
100
AcDbScale
 70
     0
300
1:8
140
1.0
141
8.0
290
     0
  0
SCALE
  5
16D
102
{ACAD_REACTORS
330
167
102
}
330
167
100
AcDbScale
 70
     0
300
1:10
140
1.0
141
10.0
290
     0
  0
SCALE
  5
16E
102
{ACAD_REACTORS
330
167
102
}
330
167
100
AcDbScale
 70
     0
300
1:16
140
1.0
141
16.0
290
     0
  0
SCALE
  5
16F
102
{ACAD_REACTORS
330
167
102
}
330
167
100
AcDbScale
 70
     0
300
1:20
140
1.0
141
20.0
290
     0
  0
SCALE
  5
170
102
{ACAD_REACTORS
330
167
102
}
330
167
100
AcDbScale
 70
     0
300
1:30
140
1.0
141
30.0
290
     0
  0
SCALE
  5
171
102
{ACAD_REACTORS
330
167
102
}
330
167
100
AcDbScale
 70
     0
300
1:40
140
1.0
141
40.0
290
     0
  0
SCALE
  5
172
102
{ACAD_REACTORS
330
167
102
}
330
167
100
AcDbScale
 70
     0
300
1:50
140
1.0
141
50.0
290
     0
  0
SCALE
  5
173
102
{ACAD_REACTORS
330
167
102
}
330
167
100
AcDbScale
 70
     0
300
1:100
140
1.0
141
100.0
290
     0
  0
SCALE
  5
174
102
{ACAD_REACTORS
330
167
102
}
330
167
100
AcDbScale
 70
     0
300
2:1
140
2.0
141
1.0
290
     0
  0
SCALE
  5
175
102
{ACAD_REACTORS
330
167
102
}
330
167
100
AcDbScale
 70
     0
300
4:1
140
4.0
141
1.0
290
     0
  0
SCALE
  5
176
102
{ACAD_REACTORS
330
167
102
}
330
167
100
AcDbScale
 70
     0
300
8:1
140
8.0
141
1.0
290
     0
  0
SCALE
  5
177
102
{ACAD_REACTORS
330
167
102
}
330
167
100
AcDbScale
 70
     0
300
10:1
140
10.0
141
1.0
290
     0
  0
SCALE
  5
178
102
{ACAD_REACTORS
330
167
102
}
330
167
100
AcDbScale
 70
     0
300
100:1
140
100.0
141
1.0
290
     0
  0
SCALE
  5
179
102
{ACAD_REACTORS
330
167
102
}
330
167
100
AcDbScale
 70
     0
300
1/128" = 1'-0"
140
0.0078125
141
12.0
290
     0
  0
SCALE
  5
17A
102
{ACAD_REACTORS
330
167
102
}
330
167
100
AcDbScale
 70
     0
300
1/64" = 1'-0"
140
0.015625
141
12.0
290
     0
  0
SCALE
  5
17B
102
{ACAD_REACTORS
330
167
102
}
330
167
100
AcDbScale
 70
     0
300
1/32" = 1'-0"
140
0.03125
141
12.0
290
     0
  0
SCALE
  5
17C
102
{ACAD_REACTORS
330
167
102
}
330
167
100
AcDbScale
 70
     0
300
1/16" = 1'-0"
140
0.0625
141
12.0
290
     0
  0
SCALE
  5
17D
102
{ACAD_REACTORS
330
167
102
}
330
167
100
AcDbScale
 70
     0
300
3/32" = 1'-0"
140
0.09375
141
12.0
290
     0
  0
SCALE
  5
17E
102
{ACAD_REACTORS
330
167
102
}
330
167
100
AcDbScale
 70
     0
300
1/8" = 1'-0"
140
0.125
141
12.0
290
     0
  0
SCALE
  5
17F
102
{ACAD_REACTORS
330
167
102
}
330
167
100
AcDbScale
 70
     0
300
3/16" = 1'-0"
140
0.1875
141
12.0
290
     0
  0
SCALE
  5
180
102
{ACAD_REACTORS
330
167
102
}
330
167
100
AcDbScale
 70
     0
300
1/4" = 1'-0"
140
0.25
141
12.0
290
     0
  0
SCALE
  5
181
102
{ACAD_REACTORS
330
167
102
}
330
167
100
AcDbScale
 70
     0
300
3/8" = 1'-0"
140
0.375
141
12.0
290
     0
  0
SCALE
  5
182
102
{ACAD_REACTORS
330
167
102
}
330
167
100
AcDbScale
 70
     0
300
1/2" = 1'-0"
140
0.5
141
12.0
290
     0
  0
SCALE
  5
183
102
{ACAD_REACTORS
330
167
102
}
330
167
100
AcDbScale
 70
     0
300
3/4" = 1'-0"
140
0.75
141
12.0
290
     0
  0
SCALE
  5
184
102
{ACAD_REACTORS
330
167
102
}
330
167
100
AcDbScale
 70
     0
300
1" = 1'-0"
140
1.0
141
12.0
290
     0
  0
SCALE
  5
185
102
{ACAD_REACTORS
330
167
102
}
330
167
100
AcDbScale
 70
     0
300
1-1/2" = 1'-0"
140
1.5
141
12.0
290
     0
  0
SCALE
  5
186
102
{ACAD_REACTORS
330
167
102
}
330
167
100
AcDbScale
 70
     0
300
3" = 1'-0"
140
3.0
141
12.0
290
     0
  0
SCALE
  5
187
102
{ACAD_REACTORS
330
167
102
}
330
167
100
AcDbScale
 70
     0
300
6" = 1'-0"
140
6.0
141
12.0
290
     0
  0
SCALE
  5
188
102
{ACAD_REACTORS
330
167
102
}
330
167
100
AcDbScale
 70
     0
300
1'-0" = 1'-0"
140
12.0
141
12.0
290
     0
  0
ACDBSECTIONVIEWSTYLE
  5
3B5
102
{ACAD_XDICTIONARY
360
436
102
}
102
{ACAD_REACTORS
330
3B4
102
}
330
3B4
100
AcDbModelDocViewStyle
 70
     0
  3
Imperial24
290
     0
100
AcDbSectionViewStyle
 70
     0
 71
     0
 90
       78
 71
     1
340
11
 62
   256
 40
0.24
340
0
340
0
 62
   256
 40
0.24
300
I, O, Q, S, X, Z
 40
0.48
 90
        3
 40
0.18
 90
        1
 71
     2
340
16
 90
       25
 62
   256
340
16
 90
       50
 62
   256
 40
0.24
 40
0.0
 40
0.24
 71
     3
340
11
 62
   256
 40
0.24
 90
        1
 40
0.75
 90
        1
300
%<\AcVar ViewType \f "%tc1">% %<\AcVar ViewSectionStartId>%-%<\AcVar ViewSectionEndId>%\PSCALE %<\AcVar ViewScale \f "%sn">%
 71
     4
 62
   256
 62
   257
300
ANSI31
 40
1.0
 90
        0
290
     0
290
     0
 90
        6
 40
0.0
 40
1.570796326794896
 40
0.2617993877991494
 40
1.308996938995747
 40
-0.2617993877991494
 40
1.832595714594046
  0
TABLESTYLE
  5
3B2
102
{ACAD_XDICTIONARY
360
808
102
}
102
{ACAD_REACTORS
330
3A3
102
}
330
3A3
100
AcDbTableStyle
280
     0
  3
Standard
 70
     0
 71
     0
 40
0.06
 41
0.06
280
     0
281
     0
  7
Standard
140
0.18
170
     2
 62
     0
 63
     7
283
     0
 90
      512
 91
        0
  1

274
    -2
284
     1
 64
     0
275
    -2
285
     1
 65
     0
276
    -2
286
     1
 66
     0
277
    -2
287
     1
 67
     0
278
    -2
288
     1
 68
     0
279
    -2
289
     1
 69
     0
  7
Standard
140
0.25
170
     5
 62
     0
 63
     7
283
     0
 90
      512
 91
        0
  1

274
    -2
284
     1
 64
     0
275
    -2
285
     1
 65
     0
276
    -2
286
     1
 66
     0
277
    -2
287
     1
 67
     0
278
    -2
288
     1
 68
     0
279
    -2
289
     1
 69
     0
  7
Standard
140
0.18
170
     5
 62
     0
 63
     7
283
     0
 90
      512
 91
        0
  1

274
    -2
284
     1
 64
     0
275
    -2
285
     1
 65
     0
276
    -2
286
     1
 66
     0
277
    -2
287
     1
 67
     0
278
    -2
288
     1
 68
     0
279
    -2
289
     1
 69
     0
  0
VISUALSTYLE
  5
2F
102
{ACAD_XDICTIONARY
360
81B
102
}
102
{ACAD_REACTORS
330
2A
102
}
330
2A
100
AcDbVisualStyle
  2
2dWireframe
 70
     4
177
     2
291
     0
 71
     0
176
     1
 72
     2
176
     1
 73
     0
176
     1
 90
        0
176
     1
 40
0.6
176
     1
 41
30.0
176
     1
 63
     7
421
 16777215
176
     1
 74
     1
176
     1
 91
        4
176
     1
 64
     7
176
     1
 65
   257
176
     1
 75
     1
176
     1
175
     1
176
     1
 42
1.0
176
     1
 92
        0
176
     1
 66
   257
176
     1
 43
1.0
176
     1
 76
     1
176
     1
 77
     6
176
     1
 78
     2
176
     1
 67
     7
176
     1
 79
     5
176
     1
170
     0
176
     1
171
     0
176
     1
290
     0
176
     1
 93
        1
176
     1
 44
0.0
176
     1
173
     0
176
     1
1001
ACAD
1000
AcDbSavedByObjectVersion
1070
     0
  0
VISUALSTYLE
  5
31
102
{ACAD_XDICTIONARY
360
81F
102
}
102
{ACAD_REACTORS
330
2A
102
}
330
2A
100
AcDbVisualStyle
  2
3D Hidden
 70
     6
177
     2
291
     0
 71
     1
176
     1
 72
     2
176
     1
 73
     2
176
     1
 90
        0
176
     1
 40
0.6
176
     1
 41
30.0
176
     1
 63
     7
421
 16777215
176
     1
 74
     2
176
     1
 91
        2
176
     1
 64
     7
176
     1
 65
   257
176
     1
 75
     2
176
     1
175
     1
176
     1
 42
40.0
176
     1
 92
        0
176
     1
 66
   257
176
     1
 43
1.0
176
     1
 76
     1
176
     1
 77
     6
176
     1
 78
     2
176
     1
 67
     7
176
     1
 79
     3
176
     1
170
     0
176
     1
171
     0
176
     1
290
     0
176
     1
 93
        1
176
     1
 44
0.0
176
     1
173
     0
176
     1
1001
ACAD
1000
AcDbSavedByObjectVersion
1070
     0
  0
VISUALSTYLE
  5
30
102
{ACAD_XDICTIONARY
360
81D
102
}
102
{ACAD_REACTORS
330
2A
102
}
330
2A
100
AcDbVisualStyle
  2
3dWireframe
 70
     5
177
     2
291
     0
 71
     0
176
     1
 72
     2
176
     1
 73
     0
176
     1
 90
        0
176
     1
 40
0.6
176
     1
 41
30.0
176
     1
 63
     7
421
 16777215
176
     1
 74
     1
176
     1
 91
        4
176
     1
 64
     7
176
     1
 65
   257
176
     1
 75
     1
176
     1
175
     1
176
     1
 42
1.0
176
     1
 92
        0
176
     1
 66
   257
176
     1
 43
1.0
176
     1
 76
     1
176
     1
 77
     6
176
     1
 78
     2
176
     1
 67
     7
176
     1
 79
     5
176
     1
170
     0
176
     1
171
     0
176
     1
290
     0
176
     1
 93
        1
176
     1
 44
0.0
176
     1
173
     0
176
     1
1001
ACAD
1000
AcDbSavedByObjectVersion
1070
     0
  0
VISUALSTYLE
  5
32
102
{ACAD_XDICTIONARY
360
821
102
}
102
{ACAD_REACTORS
330
2A
102
}
330
2A
100
AcDbVisualStyle
  2
Basic
 70
     7
177
     2
291
     1
 71
     1
176
     1
 72
     0
176
     1
 73
     1
176
     1
 90
        0
176
     1
 40
0.6
176
     1
 41
30.0
176
     1
 63
     7
421
 16777215
176
     1
 74
     0
176
     1
 91
        4
176
     1
 64
     7
176
     1
 65
   257
176
     1
 75
     1
176
     1
175
     1
176
     1
 42
1.0
176
     1
 92
        8
176
     1
 66
     7
176
     1
 43
1.0
176
     1
 76
     1
176
     1
 77
     6
176
     1
 78
     2
176
     1
 67
     7
176
     1
 79
     5
176
     1
170
     0
176
     1
171
     0
176
     1
290
     0
176
     1
 93
        1
176
     1
 44
0.0
176
     1
173
     0
176
     1
1001
ACAD
1000
AcDbSavedByObjectVersion
1070
     0
  0
VISUALSTYLE
  5
36
102
{ACAD_XDICTIONARY
360
829
102
}
102
{ACAD_REACTORS
330
2A
102
}
330
2A
100
AcDbVisualStyle
  2
Brighten
 70
    12
177
     2
291
     1
 71
     2
176
     1
 72
     2
176
     1
 73
     0
176
     1
 90
        0
176
     1
 40
0.6
176
     1
 41
30.0
176
     1
 63
     7
421
 16777215
176
     1
 74
     1
176
     1
 91
        4
176
     1
 64
     7
176
     1
 65
   257
176
     1
 75
     1
176
     1
175
     1
176
     1
 42
1.0
176
     1
 92
        8
176
     1
 66
     7
176
     1
 43
1.0
176
     1
 76
     1
176
     1
 77
     6
176
     1
 78
     2
176
     1
 67
     7
176
     1
 79
     5
176
     1
170
     0
176
     1
171
     0
176
     1
290
     0
176
     1
 93
        1
176
     1
 44
50.0
176
     1
173
     0
176
     1
1001
ACAD
1000
AcDbSavedByObjectVersion
1070
     0
  0
VISUALSTYLE
  5
3A
102
{ACAD_XDICTIONARY
360
831
102
}
102
{ACAD_REACTORS
330
2A
102
}
330
2A
100
AcDbVisualStyle
  2
ColorChange
 70
    16
177
     2
291
     1
 71
     2
176
     1
 72
     2
176
     1
 73
     3
176
     1
 90
        0
176
     1
 40
0.6
176
     1
 41
30.0
176
     1
 63
     8
421
  8421504
176
     1
 74
     1
176
     1
 91
        4
176
     1
 64
     7
176
     1
 65
   257
176
     1
 75
     1
176
     1
175
     1
176
     1
 42
1.0
176
     1
 92
        8
176
     1
 66
     8
424
  8421504
176
     1
 43
1.0
176
     1
 76
     1
176
     1
 77
     6
176
     1
 78
     2
176
     1
 67
     7
176
     1
 79
     5
176
     1
170
     0
176
     1
171
     0
176
     1
290
     0
176
     1
 93
        1
176
     1
 44
0.0
176
     1
173
     0
176
     1
1001
ACAD
1000
AcDbSavedByObjectVersion
1070
     0
  0
VISUALSTYLE
  5
34
102
{ACAD_XDICTIONARY
360
825
102
}
102
{ACAD_REACTORS
330
2A
102
}
330
2A
100
AcDbVisualStyle
  2
Conceptual
 70
     9
177
     2
291
     0
 71
     3
176
     1
 72
     2
176
     1
 73
     0
176
     1
 90
        0
176
     1
 40
0.6
176
     1
 41
30.0
176
     1
 63
     7
421
 16777215
176
     1
 74
     2
176
     1
 91
        2
176
     1
 64
     7
176
     1
 65
   257
176
     1
 75
     1
176
     1
175
     1
176
     1
 42
40.0
176
     1
 92
        8
176
     1
 66
     7
176
     1
 43
1.0
176
     1
 76
     1
176
     1
 77
     6
176
     1
 78
     2
176
     1
 67
     7
176
     1
 79
     3
176
     1
170
     0
176
     1
171
     0
176
     1
290
     0
176
     1
 93
        1
176
     1
 44
0.0
176
     1
173
     0
176
     1
1001
ACAD
1000
AcDbSavedByObjectVersion
1070
     0
  0
VISUALSTYLE
  5
35
102
{ACAD_XDICTIONARY
360
827
102
}
102
{ACAD_REACTORS
330
2A
102
}
330
2A
100
AcDbVisualStyle
  2
Dim
 70
    11
177
     2
291
     1
 71
     2
176
     1
 72
     2
176
     1
 73
     0
176
     1
 90
        0
176
     1
 40
0.6
176
     1
 41
30.0
176
     1
 63
     7
421
 16777215
176
     1
 74
     1
176
     1
 91
        4
176
     1
 64
     7
176
     1
 65
   257
176
     1
 75
     1
176
     1
175
     1
176
     1
 42
1.0
176
     1
 92
        8
176
     1
 66
     7
176
     1
 43
1.0
176
     1
 76
     1
176
     1
 77
     6
176
     1
 78
     2
176
     1
 67
     7
176
     1
 79
     5
176
     1
170
     0
176
     1
171
     0
176
     1
290
     0
176
     1
 93
        1
176
     1
 44
-50.0
176
     1
173
     0
176
     1
1001
ACAD
1000
AcDbSavedByObjectVersion
1070
     0
  0
VISUALSTYLE
  5
3B0
102
{ACAD_XDICTIONARY
360
845
102
}
102
{ACAD_REACTORS
330
2A
102
}
330
2A
100
AcDbVisualStyle
  2
EdgeColorOff
 70
    22
177
     2
291
     1
 71
     2
176
     0
 72
     2
176
     0
 73
     0
176
     0
 90
        0
176
     0
 40
0.6
176
     0
 41
30.0
176
     0
 63
     7
421
 16777215
176
     0
 74
     1
176
     0
 91
        4
176
     0
 64
     7
176
     0
 65
   257
176
     0
 75
     1
176
     0
175
     1
176
     0
 42
1.0
176
     0
 92
        8
176
     2
 66
     7
176
     0
 43
1.0
176
     0
 76
     1
176
     0
 77
     6
176
     0
 78
     2
176
     0
 67
     7
176
     0
 79
     5
176
     0
170
     0
176
     0
171
     0
176
     0
290
     0
176
     0
 93
        1
176
     0
 44
0.0
176
     0
173
     0
176
     0
1001
ACAD
1000
AcDbSavedByObjectVersion
1070
     0
  0
VISUALSTYLE
  5
39
102
{ACAD_XDICTIONARY
360
82F
102
}
102
{ACAD_REACTORS
330
2A
102
}
330
2A
100
AcDbVisualStyle
  2
Facepattern
 70
    15
177
     2
291
     1
 71
     2
176
     1
 72
     2
176
     1
 73
     0
176
     1
 90
        0
176
     1
 40
0.6
176
     1
 41
30.0
176
     1
 63
     7
421
 16777215
176
     1
 74
     1
176
     1
 91
        4
176
     1
 64
     7
176
     1
 65
   257
176
     1
 75
     1
176
     1
175
     1
176
     1
 42
1.0
176
     1
 92
        8
176
     1
 66
     7
176
     1
 43
1.0
176
     1
 76
     1
176
     1
 77
     6
176
     1
 78
     2
176
     1
 67
     7
176
     1
 79
     5
176
     1
170
     0
176
     1
171
     0
176
     1
290
     0
176
     1
 93
        1
176
     1
 44
0.0
176
     1
173
     0
176
     1
1001
ACAD
1000
AcDbSavedByObjectVersion
1070
     0
  0
VISUALSTYLE
  5
2B
102
{ACAD_XDICTIONARY
360
813
102
}
102
{ACAD_REACTORS
330
2A
102
}
330
2A
100
AcDbVisualStyle
  2
Flat
 70
     0
177
     2
291
     1
 71
     2
176
     1
 72
     1
176
     1
 73
     1
176
     1
 90
        2
176
     1
 40
0.6
176
     1
 41
30.0
176
     1
 63
     7
421
 16777215
176
     1
 74
     0
176
     1
 91
        4
176
     1
 64
     7
176
     1
 65
   257
176
     1
 75
     1
176
     1
175
     1
176
     1
 42
1.0
176
     1
 92
        8
176
     1
 66
     7
176
     1
 43
1.0
176
     1
 76
     1
176
     1
 77
     6
176
     1
 78
     2
176
     1
 67
     7
176
     1
 79
     5
176
     1
170
     0
176
     1
171
     0
176
     1
290
     0
176
     1
 93
       13
176
     1
 44
0.0
176
     1
173
     0
176
     1
1001
ACAD
1000
AcDbSavedByObjectVersion
1070
     0
  0
VISUALSTYLE
  5
2C
102
{ACAD_XDICTIONARY
360
815
102
}
102
{ACAD_REACTORS
330
2A
102
}
330
2A
100
AcDbVisualStyle
  2
FlatWithEdges
 70
     1
177
     2
291
     1
 71
     2
176
     1
 72
     1
176
     1
 73
     1
176
     1
 90
        2
176
     1
 40
0.6
176
     1
 41
30.0
176
     1
 63
     7
421
 16777215
176
     1
 74
     1
176
     1
 91
        4
176
     1
 64
     7
176
     1
 65
   257
176
     1
 75
     1
176
     1
175
     1
176
     1
 42
1.0
176
     1
 92
        0
176
     1
 66
   257
176
     1
 43
1.0
176
     1
 76
     1
176
     1
 77
     6
176
     1
 78
     2
176
     1
 67
     7
176
     1
 79
     5
176
     1
170
     0
176
     1
171
     0
176
     1
290
     0
176
     1
 93
       13
176
     1
 44
0.0
176
     1
173
     0
176
     1
1001
ACAD
1000
AcDbSavedByObjectVersion
1070
     0
  0
VISUALSTYLE
  5
2D
102
{ACAD_XDICTIONARY
360
817
102
}
102
{ACAD_REACTORS
330
2A
102
}
330
2A
100
AcDbVisualStyle
  2
Gouraud
 70
     2
177
     2
291
     1
 71
     2
176
     1
 72
     2
176
     1
 73
     1
176
     1
 90
        2
176
     1
 40
0.6
176
     1
 41
30.0
176
     1
 63
     7
421
 16777215
176
     1
 74
     0
176
     1
 91
        4
176
     1
 64
     7
176
     1
 65
   257
176
     1
 75
     1
176
     1
175
     1
176
     1
 42
1.0
176
     1
 92
        0
176
     1
 66
     7
176
     1
 43
1.0
176
     1
 76
     1
176
     1
 77
     6
176
     1
 78
     2
176
     1
 67
     7
176
     1
 79
     5
176
     1
170
     0
176
     1
171
     0
176
     1
290
     0
176
     1
 93
       13
176
     1
 44
0.0
176
     1
173
     0
176
     1
1001
ACAD
1000
AcDbSavedByObjectVersion
1070
     0
  0
VISUALSTYLE
  5
2E
102
{ACAD_XDICTIONARY
360
819
102
}
102
{ACAD_REACTORS
330
2A
102
}
330
2A
100
AcDbVisualStyle
  2
GouraudWithEdges
 70
     3
177
     2
291
     1
 71
     2
176
     1
 72
     2
176
     1
 73
     1
176
     1
 90
        2
176
     1
 40
0.6
176
     1
 41
30.0
176
     1
 63
     7
421
 16777215
176
     1
 74
     1
176
     1
 91
        4
176
     1
 64
     7
176
     1
 65
   257
176
     1
 75
     1
176
     1
175
     1
176
     1
 42
1.0
176
     1
 92
        0
176
     1
 66
   257
176
     1
 43
1.0
176
     1
 76
     1
176
     1
 77
     6
176
     1
 78
     2
176
     1
 67
     7
176
     1
 79
     5
176
     1
170
     0
176
     1
171
     0
176
     1
290
     0
176
     1
 93
       13
176
     1
 44
0.0
176
     1
173
     0
176
     1
1001
ACAD
1000
AcDbSavedByObjectVersion
1070
     0
  0
VISUALSTYLE
  5
3A8
102
{ACAD_XDICTIONARY
360
835
102
}
102
{ACAD_REACTORS
330
2A
102
}
330
2A
100
AcDbVisualStyle
  2
Hidden
 70
     6
177
     2
291
     0
 71
     1
176
     1
 72
     2
176
     1
 73
     2
176
     1
 90
        0
176
     1
 40
0.6
176
     1
 41
30.0
176
     1
 63
     7
421
 16777215
176
     1
 74
     2
176
     1
 91
        2
176
     1
 64
     7
176
     1
 65
   257
176
     1
 75
     2
176
     1
175
     1
176
     1
 42
40.0
176
     1
 92
        0
176
     1
 66
   257
176
     1
 43
1.0
176
     1
 76
     1
176
     1
 77
     6
176
     1
 78
     2
176
     1
 67
     7
176
     1
 79
     3
176
     1
170
     0
176
     1
171
     0
176
     1
290
     0
176
     1
 93
        1
176
     1
 44
0.0
176
     1
173
     0
176
     1
1001
ACAD
1000
AcDbSavedByObjectVersion
1070
     0
  0
VISUALSTYLE
  5
3AE
102
{ACAD_XDICTIONARY
360
841
102
}
102
{ACAD_REACTORS
330
2A
102
}
330
2A
100
AcDbVisualStyle
  2
JitterOff
 70
    20
177
     2
291
     1
 71
     2
176
     0
 72
     2
176
     0
 73
     0
176
     0
 90
        0
176
     0
 40
0.6
176
     0
 41
30.0
176
     0
 63
     7
421
 16777215
176
     0
 74
     1
176
     0
 91
        4
176
     0
 64
     7
176
     0
 65
   257
176
     0
 75
     1
176
     0
175
     1
176
     0
 42
1.0
176
     0
 92
       10
176
     2
 66
     7
176
     0
 43
1.0
176
     0
 76
     1
176
     0
 77
     6
176
     0
 78
     2
176
     0
 67
     7
176
     0
 79
     5
176
     0
170
     0
176
     0
171
     0
176
     0
290
     0
176
     0
 93
        1
176
     0
 44
0.0
176
     0
173
     0
176
     0
1001
ACAD
1000
AcDbSavedByObjectVersion
1070
     0
  0
VISUALSTYLE
  5
38
102
{ACAD_XDICTIONARY
360
82D
102
}
102
{ACAD_REACTORS
330
2A
102
}
330
2A
100
AcDbVisualStyle
  2
Linepattern
 70
    14
177
     2
291
     1
 71
     2
176
     1
 72
     2
176
     1
 73
     0
176
     1
 90
        0
176
     1
 40
0.6
176
     1
 41
30.0
176
     1
 63
     7
421
 16777215
176
     1
 74
     1
176
     1
 91
        4
176
     1
 64
     7
176
     1
 65
   257
176
     1
 75
     7
176
     1
175
     7
176
     1
 42
1.0
176
     1
 92
        8
176
     1
 66
     7
176
     1
 43
1.0
176
     1
 76
     1
176
     1
 77
     6
176
     1
 78
     2
176
     1
 67
     7
176
     1
 79
     5
176
     1
170
     0
176
     1
171
     0
176
     1
290
     0
176
     1
 93
        1
176
     1
 44
0.0
176
     1
173
     0
176
     1
1001
ACAD
1000
AcDbSavedByObjectVersion
1070
     0
  0
VISUALSTYLE
  5
3AF
102
{ACAD_XDICTIONARY
360
843
102
}
102
{ACAD_REACTORS
330
2A
102
}
330
2A
100
AcDbVisualStyle
  2
OverhangOff
 70
    21
177
     2
291
     1
 71
     2
176
     0
 72
     2
176
     0
 73
     0
176
     0
 90
        0
176
     0
 40
0.6
176
     0
 41
30.0
176
     0
 63
     7
421
 16777215
176
     0
 74
     1
176
     0
 91
        4
176
     0
 64
     7
176
     0
 65
   257
176
     0
 75
     1
176
     0
175
     1
176
     0
 42
1.0
176
     0
 92
        9
176
     2
 66
     7
176
     0
 43
1.0
176
     0
 76
     1
176
     0
 77
     6
176
     0
 78
     2
176
     0
 67
     7
176
     0
 79
     5
176
     0
170
     0
176
     0
171
     0
176
     0
290
     0
176
     0
 93
        1
176
     0
 44
0.0
176
     0
173
     0
176
     0
1001
ACAD
1000
AcDbSavedByObjectVersion
1070
     0
  0
VISUALSTYLE
  5
33
102
{ACAD_XDICTIONARY
360
823
102
}
102
{ACAD_REACTORS
330
2A
102
}
330
2A
100
AcDbVisualStyle
  2
Realistic
 70
     8
177
     2
291
     0
 71
     2
176
     1
 72
     2
176
     1
 73
     0
176
     1
 90
        0
176
     1
 40
0.6
176
     1
 41
30.0
176
     1
 63
     7
421
 16777215
176
     1
 74
     1
176
     1
 91
        0
176
     1
 64
     7
176
     1
 65
   257
176
     1
 75
     1
176
     1
175
     1
176
     1
 42
1.0
176
     1
 92
        8
176
     1
 66
     8
424
  7895160
176
     1
 43
1.0
176
     1
 76
     1
176
     1
 77
     6
176
     1
 78
     2
176
     1
 67
     7
176
     1
 79
     5
176
     1
170
     0
176
     1
171
     0
176
     1
290
     0
176
     1
 93
       13
176
     1
 44
0.0
176
     1
173
     0
176
     1
1001
ACAD
1000
AcDbSavedByObjectVersion
1070
     0
  0
VISUALSTYLE
  5
3AD
102
{ACAD_XDICTIONARY
360
83F
102
}
102
{ACAD_REACTORS
330
2A
102
}
330
2A
100
AcDbVisualStyle
  2
Shaded
 70
    27
177
     2
291
     0
 71
     2
176
     1
 72
     2
176
     1
 73
     1
176
     1
 90
        2
176
     1
 40
0.6
176
     1
 41
30.0
176
     1
 63
     7
421
 16777215
176
     1
 74
     0
176
     1
 91
        4
176
     1
 64
     7
176
     1
 65
   257
176
     1
 75
     1
176
     1
175
     1
176
     1
 42
1.0
176
     1
 92
        8
176
     1
 66
   257
176
     1
 43
1.0
176
     1
 76
     1
176
     1
 77
     6
176
     1
 78
     2
176
     1
 67
     8
425
  7895160
176
     1
 79
     3
176
     1
170
     0
176
     1
171
     0
176
     1
290
     0
176
     1
 93
        5
176
     1
 44
0.0
176
     1
173
     0
176
     1
1001
ACAD
1000
AcDbSavedByObjectVersion
1070
     0
  0
VISUALSTYLE
  5
3AC
102
{ACAD_XDICTIONARY
360
83D
102
}
102
{ACAD_REACTORS
330
2A
102
}
330
2A
100
AcDbVisualStyle
  2
Shaded with edges
 70
    26
177
     2
291
     0
 71
     2
176
     1
 72
     2
176
     1
 73
     1
176
     1
 90
        2
176
     1
 40
0.6
176
     1
 41
30.0
176
     1
 63
     7
421
 16777215
176
     1
 74
     1
176
     1
 91
       10
176
     1
 64
     7
176
     1
 65
   257
176
     1
 75
     2
176
     1
175
     1
176
     1
 42
1.0
176
     1
 92
        8
176
     1
 66
   257
176
     1
 43
1.0
176
     1
 76
     1
176
     1
 77
     6
176
     1
 78
     2
176
     1
 67
     7
176
     1
 79
     3
176
     1
170
     0
176
     1
171
     0
176
     1
290
     0
176
     1
 93
        5
176
     1
 44
0.0
176
     1
173
     0
176
     1
1001
ACAD
1000
AcDbSavedByObjectVersion
1070
     0
  0
VISUALSTYLE
  5
3A9
102
{ACAD_XDICTIONARY
360
837
102
}
102
{ACAD_REACTORS
330
2A
102
}
330
2A
100
AcDbVisualStyle
  2
Shades of Gray
 70
    23
177
     2
291
     0
 71
     2
176
     1
 72
     2
176
     1
 73
     3
176
     1
 90
        0
176
     1
 40
0.6
176
     1
 41
30.0
176
     1
 63
     7
421
 16777215
176
     1
 74
     2
176
     1
 91
        2
176
     1
 64
     7
176
     1
 65
     7
176
     1
 75
     1
176
     1
175
     1
176
     1
 42
40.0
176
     1
 92
        8
176
     1
 66
     7
176
     1
 43
1.0
176
     1
 76
     1
176
     1
 77
     6
176
     1
 78
     2
176
     1
 67
     7
176
     1
 79
     3
176
     1
170
     0
176
     1
171
     0
176
     1
290
     0
176
     1
 93
        1
176
     1
 44
0.0
176
     1
173
     0
176
     1
1001
ACAD
1000
AcDbSavedByObjectVersion
1070
     0
  0
VISUALSTYLE
  5
3AA
102
{ACAD_XDICTIONARY
360
839
102
}
102
{ACAD_REACTORS
330
2A
102
}
330
2A
100
AcDbVisualStyle
  2
Sketchy
 70
    24
177
     2
291
     0
 71
     1
176
     1
 72
     2
176
     1
 73
     2
176
     1
 90
        0
176
     1
 40
0.6
176
     1
 41
30.0
176
     1
 63
     7
421
 16777215
176
     1
 74
     2
176
     1
 91
        2
176
     1
 64
     7
176
     1
 65
     7
176
     1
 75
     1
176
     1
175
     1
176
     1
 42
40.0
176
     1
 92
       11
176
     1
 66
     7
176
     1
 43
1.0
176
     1
 76
     1
176
     1
 77
     6
176
     1
 78
     2
176
     1
 67
     7
176
     1
 79
     6
176
     1
170
     0
176
     1
171
     0
176
     1
290
     0
176
     1
 93
        1
176
     1
 44
0.0
176
     1
173
     0
176
     1
1001
ACAD
1000
AcDbSavedByObjectVersion
1070
     0
  0
VISUALSTYLE
  5
37
102
{ACAD_XDICTIONARY
360
82B
102
}
102
{ACAD_REACTORS
330
2A
102
}
330
2A
100
AcDbVisualStyle
  2
Thicken
 70
    13
177
     2
291
     1
 71
     2
176
     1
 72
     2
176
     1
 73
     0
176
     1
 90
        0
176
     1
 40
0.6
176
     1
 41
30.0
176
     1
 63
     7
421
 16777215
176
     1
 74
     1
176
     1
 91
        4
176
     1
 64
     7
176
     1
 65
   257
176
     1
 75
     1
176
     1
175
     1
176
     1
 42
1.0
176
     1
 92
       12
176
     1
 66
     7
176
     1
 43
1.0
176
     1
 76
     1
176
     1
 77
     6
176
     1
 78
     2
176
     1
 67
     7
176
     1
 79
     5
176
     1
170
     0
176
     1
171
     0
176
     1
290
     0
176
     1
 93
        1
176
     1
 44
0.0
176
     1
173
     0
176
     1
1001
ACAD
1000
AcDbSavedByObjectVersion
1070
     0
  0
VISUALSTYLE
  5
3A7
102
{ACAD_XDICTIONARY
360
833
102
}
102
{ACAD_REACTORS
330
2A
102
}
330
2A
100
AcDbVisualStyle
  2
Wireframe
 70
     5
177
     2
291
     0
 71
     0
176
     1
 72
     2
176
     1
 73
     0
176
     1
 90
        0
176
     1
 40
0.6
176
     1
 41
30.0
176
     1
 63
     7
421
 16777215
176
     1
 74
     1
176
     1
 91
        4
176
     1
 64
     7
176
     1
 65
   257
176
     1
 75
     1
176
     1
175
     1
176
     1
 42
1.0
176
     1
 92
        0
176
     1
 66
   257
176
     1
 43
1.0
176
     1
 76
     1
176
     1
 77
     6
176
     1
 78
     2
176
     1
 67
     7
176
     1
 79
     3
176
     1
170
     0
176
     1
171
     0
176
     1
290
     0
176
     1
 93
        1
176
     1
 44
0.0
176
     1
173
     0
176
     1
1001
ACAD
1000
AcDbSavedByObjectVersion
1070
     0
  0
VISUALSTYLE
  5
3AB
102
{ACAD_XDICTIONARY
360
83B
102
}
102
{ACAD_REACTORS
330
2A
102
}
330
2A
100
AcDbVisualStyle
  2
X-Ray
 70
    25
177
     2
291
     0
 71
     2
176
     1
 72
     2
176
     1
 73
     1
176
     1
 90
        1
176
     1
 40
0.5
176
     1
 41
30.0
176
     1
 63
     7
421
 16777215
176
     1
 74
     1
176
     1
 91
        0
176
     1
 64
     7
176
     1
 65
   257
176
     1
 75
     1
176
     1
175
     1
176
     1
 42
1.0
176
     1
 92
        8
176
     1
 66
     7
176
     1
 43
1.0
176
     1
 76
     1
176
     1
 77
     6
176
     1
 78
     2
176
     1
 67
     7
176
     1
 79
     3
176
     1
170
     0
176
     1
171
     0
176
     1
290
     0
176
     1
 93
       13
176
     1
 44
0.0
176
     1
173
     0
176
     1
1001
ACAD
1000
AcDbSavedByObjectVersion
1070
     0
  0
DICTIONARYVAR
  5
382
102
{ACAD_REACTORS
330
381
102
}
330
381
100
DictionaryVariables
280
     0
  1
1:1
  0
DICTIONARYVAR
  5
43C
102
{ACAD_REACTORS
330
381
102
}
330
381
100
DictionaryVariables
280
     0
  1
STANDARD
  0
DICTIONARYVAR
  5
43B
102
{ACAD_REACTORS
330
381
102
}
330
381
100
DictionaryVariables
280
     0
  1
STANDARD
  0
DICTIONARYVAR
  5
43D
102
{ACAD_REACTORS
330
381
102
}
330
381
100
DictionaryVariables
280
     0
  1
Imperial24
  0
DICTIONARYVAR
  5
43E
102
{ACAD_REACTORS
330
381
102
}
330
381
100
DictionaryVariables
280
     0
  1
Imperial24
  0
DICTIONARYVAR
  5
41B
102
{ACAD_REACTORS
330
381
102
}
330
381
100
DictionaryVariables
280
     0
  1
RGB:95,95,95
  0
DICTIONARYVAR
  5
43F
102
{ACAD_REACTORS
330
381
102
}
330
381
100
DictionaryVariables
280
     0
  1
1
  0
DICTIONARYVAR
  5
440
102
{ACAD_REACTORS
330
381
102
}
330
381
100
DictionaryVariables
280
     0
  1
15
  0
DICTIONARY
  5
812
102
{ACAD_REACTORS
330
810
102
}
330
810
100
AcDbDictionary
281
     1
  0
DICTIONARY
  5
811
102
{ACAD_REACTORS
330
810
102
}
330
810
100
AcDbDictionary
281
     1
  3
2128622936
350
80B
  3
2128622944
350
80C
  3
2128622952
350
80D
  3
2128622960
350
80E
  3
2128622968
350
80F
  0
XRECORD
  5
380
102
{ACAD_REACTORS
330
37F
102
}
330
37F
100
AcDbXrecord
280
     1
1000
This DWG file was created in ArchiCAD(TM)®
  0
DICTIONARY
  5
438
330
3B7
100
AcDbDictionary
280
     1
281
     1
  3
ACAD_XREC_ROUNDTRIP
360
84A
  0
DICTIONARY
  5
847
330
3B3
100
AcDbDictionary
280
     1
281
     1
  3
ACAD_XREC_ROUNDTRIP
360
848
  0
DICTIONARY
  5
436
330
3B5
100
AcDbDictionary
280
     1
281
     1
  3
ACAD_XREC_ROUNDTRIP
360
849
  0
DICTIONARY
  5
808
330
3B2
100
AcDbDictionary
280
     1
281
     1
  3
ACAD_ROUNDTRIP_2008_TABLESTYLE_CELLSTYLEMAP
360
809
  0
DICTIONARY
  5
81B
330
2F
100
AcDbDictionary
280
     1
281
     1
  3
ACAD_XREC_ROUNDTRIP
360
81C
  0
DICTIONARY
  5
81F
330
31
100
AcDbDictionary
280
     1
281
     1
  3
ACAD_XREC_ROUNDTRIP
360
820
  0
DICTIONARY
  5
81D
330
30
100
AcDbDictionary
280
     1
281
     1
  3
ACAD_XREC_ROUNDTRIP
360
81E
  0
DICTIONARY
  5
821
330
32
100
AcDbDictionary
280
     1
281
     1
  3
ACAD_XREC_ROUNDTRIP
360
822
  0
DICTIONARY
  5
829
330
36
100
AcDbDictionary
280
     1
281
     1
  3
ACAD_XREC_ROUNDTRIP
360
82A
  0
DICTIONARY
  5
831
330
3A
100
AcDbDictionary
280
     1
281
     1
  3
ACAD_XREC_ROUNDTRIP
360
832
  0
DICTIONARY
  5
825
330
34
100
AcDbDictionary
280
     1
281
     1
  3
ACAD_XREC_ROUNDTRIP
360
826
  0
DICTIONARY
  5
827
330
35
100
AcDbDictionary
280
     1
281
     1
  3
ACAD_XREC_ROUNDTRIP
360
828
  0
DICTIONARY
  5
845
330
3B0
100
AcDbDictionary
280
     1
281
     1
  3
ACAD_XREC_ROUNDTRIP
360
846
  0
DICTIONARY
  5
82F
330
39
100
AcDbDictionary
280
     1
281
     1
  3
ACAD_XREC_ROUNDTRIP
360
830
  0
DICTIONARY
  5
813
330
2B
100
AcDbDictionary
280
     1
281
     1
  3
ACAD_XREC_ROUNDTRIP
360
814
  0
DICTIONARY
  5
815
330
2C
100
AcDbDictionary
280
     1
281
     1
  3
ACAD_XREC_ROUNDTRIP
360
816
  0
DICTIONARY
  5
817
330
2D
100
AcDbDictionary
280
     1
281
     1
  3
ACAD_XREC_ROUNDTRIP
360
818
  0
DICTIONARY
  5
819
330
2E
100
AcDbDictionary
280
     1
281
     1
  3
ACAD_XREC_ROUNDTRIP
360
81A
  0
DICTIONARY
  5
835
330
3A8
100
AcDbDictionary
280
     1
281
     1
  3
ACAD_XREC_ROUNDTRIP
360
836
  0
DICTIONARY
  5
841
330
3AE
100
AcDbDictionary
280
     1
281
     1
  3
ACAD_XREC_ROUNDTRIP
360
842
  0
DICTIONARY
  5
82D
330
38
100
AcDbDictionary
280
     1
281
     1
  3
ACAD_XREC_ROUNDTRIP
360
82E
  0
DICTIONARY
  5
843
330
3AF
100
AcDbDictionary
280
     1
281
     1
  3
ACAD_XREC_ROUNDTRIP
360
844
  0
DICTIONARY
  5
823
330
33
100
AcDbDictionary
280
     1
281
     1
  3
ACAD_XREC_ROUNDTRIP
360
824
  0
DICTIONARY
  5
83F
330
3AD
100
AcDbDictionary
280
     1
281
     1
  3
ACAD_XREC_ROUNDTRIP
360
840
  0
DICTIONARY
  5
83D
330
3AC
100
AcDbDictionary
280
     1
281
     1
  3
ACAD_XREC_ROUNDTRIP
360
83E
  0
DICTIONARY
  5
837
330
3A9
100
AcDbDictionary
280
     1
281
     1
  3
ACAD_XREC_ROUNDTRIP
360
838
  0
DICTIONARY
  5
839
330
3AA
100
AcDbDictionary
280
     1
281
     1
  3
ACAD_XREC_ROUNDTRIP
360
83A
  0
DICTIONARY
  5
82B
330
37
100
AcDbDictionary
280
     1
281
     1
  3
ACAD_XREC_ROUNDTRIP
360
82C
  0
DICTIONARY
  5
833
330
3A7
100
AcDbDictionary
280
     1
281
     1
  3
ACAD_XREC_ROUNDTRIP
360
834
  0
DICTIONARY
  5
83B
330
3AB
100
AcDbDictionary
280
     1
281
     1
  3
ACAD_XREC_ROUNDTRIP
360
83C
  0
XRECORD
  5
80B
102
{ACAD_REACTORS
330
811
102
}
330
811
100
AcDbXrecord
280
     1
  1
AcDb_Thumbnail_Schema
102
{ATTRRECORD
341
80C
  2
AcDbDs::TreatedAsObjectData
280
     1
291
     1
102
ATTRRECORD}
102
{ATTRRECORD
341
80D
  2
AcDbDs::Legacy
280
     1
291
     1
102
ATTRRECORD}
  2
AcDbDs::ID
280
    10
 91
        8
102
{ATTRRECORD
341
80E
  2
AcDs:Indexable
280
     1
291
     1
102
ATTRRECORD}
102
{ATTRRECORD
341
80F
  2
AcDbDs::HandleAttribute
280
     7
282
     1
102
ATTRRECORD}
  2
Thumbnail_Data
280
    15
 91
        0
  0
XRECORD
  5
80C
102
{ACAD_REACTORS
330
811
102
}
330
811
100
AcDbXrecord
280
     1
  1
AcDbDs::TreatedAsObjectDataSchema
  2
AcDbDs::TreatedAsObjectData
280
     1
 91
        0
  0
XRECORD
  5
80D
102
{ACAD_REACTORS
330
811
102
}
330
811
100
AcDbXrecord
280
     1
  1
AcDbDs::LegacySchema
  2
AcDbDs::Legacy
280
     1
 91
        0
  0
XRECORD
  5
80E
102
{ACAD_REACTORS
330
811
102
}
330
811
100
AcDbXrecord
280
     1
  1
AcDbDs::IndexedPropertySchema
  2
AcDs:Indexable
280
     1
 91
        0
  0
XRECORD
  5
80F
102
{ACAD_REACTORS
330
811
102
}
330
811
100
AcDbXrecord
280
     1
  1
AcDbDs::HandleAttributeSchema
  2
AcDbDs::HandleAttribute
280
     7
 91
        1
284
     1
  0
XRECORD
  5
84A
102
{ACAD_REACTORS
330
438
102
}
330
438
100
AcDbXrecord
280
     1
102
DISPLAYNAME
  1
Imperial24
102
FLAGS
 90
        0
  0
XRECORD
  5
848
102
{ACAD_REACTORS
330
847
102
}
330
847
100
AcDbXrecord
280
     1
102
ACAD_ROUNDTRIP_2012_MLEADER_STYLE
298
     1
  0
XRECORD
  5
849
102
{ACAD_REACTORS
330
436
102
}
330
436
100
AcDbXrecord
280
     1
102
DISPLAYNAME
  1
Imperial24
102
FLAGS
 90
        0
  0
CELLSTYLEMAP
  5
809
102
{ACAD_REACTORS
330
808
102
}
330
808
100
AcDbCellStyleMap
 90
        3
300
CELLSTYLE
  1
TABLEFORMAT_BEGIN
 90
        5
170
     1
 91
        0
 92
    32768
 62
   257
 93
        1
300
CONTENTFORMAT
  1
CONTENTFORMAT_BEGIN
 90
        0
 91
        0
 92
      512
 93
        0
300

 40
0.0
140
1.0
 94
        5
 62
     0
340
11
144
0.25
309
CONTENTFORMAT_END
171
     0
 94
        0
309
TABLEFORMAT_END
  1
CELLSTYLE_BEGIN
 90
        1
 91
        1
300
_TITLE
309
CELLSTYLE_END
300
CELLSTYLE
  1
TABLEFORMAT_BEGIN
 90
        5
170
     1
 91
        0
 92
        0
 62
   257
 93
        1
300
CONTENTFORMAT
  1
CONTENTFORMAT_BEGIN
 90
        0
 91
        0
 92
      512
 93
        0
300

 40
0.0
140
1.0
 94
        5
 62
     0
340
11
144
0.18
309
CONTENTFORMAT_END
171
     0
 94
        0
309
TABLEFORMAT_END
  1
CELLSTYLE_BEGIN
 90
        2
 91
        1
300
_HEADER
309
CELLSTYLE_END
300
CELLSTYLE
  1
TABLEFORMAT_BEGIN
 90
        5
170
     1
 91
        0
 92
        0
 62
   257
 93
        1
300
CONTENTFORMAT
  1
CONTENTFORMAT_BEGIN
 90
        0
 91
        0
 92
      512
 93
        0
300

 40
0.0
140
1.0
 94
        2
 62
     0
340
11
144
0.18
309
CONTENTFORMAT_END
171
     0
 94
        0
309
TABLEFORMAT_END
  1
CELLSTYLE_BEGIN
 90
        3
 91
        2
300
_DATA
309
CELLSTYLE_END
  0
XRECORD
  5
81C
102
{ACAD_REACTORS
330
81B
102
}
330
81B
100
AcDbXrecord
280
     1
102
RTVSPost2010Prop28
280
     1
102
RTVSPost2010PropOp28
 70
     1
102
RTVSPost2010Prop29
280
     1
102
RTVSPost2010PropOp29
 70
     1
102
RTVSPost2010Prop30
280
     0
102
RTVSPost2010PropOp30
 70
     1
102
RTVSPost2010Prop31
280
     0
102
RTVSPost2010PropOp31
 70
     1
102
RTVSPost2010Prop32
280
     0
102
RTVSPost2010PropOp32
 70
     1
102
RTVSPost2010Prop33
280
     0
102
RTVSPost2010PropOp33
 70
     1
102
RTVSPost2010Prop34
280
     0
102
RTVSPost2010PropOp34
 70
     1
102
RTVSPost2010Prop35
280
     0
102
RTVSPost2010PropOp35
 70
     1
102
RTVSPost2010Prop36
280
     0
102
RTVSPost2010PropOp36
 70
     1
102
RTVSPost2010Prop37
 90
       50
102
RTVSPost2010PropOp37
 70
     1
102
RTVSPost2010Prop38
140
0.0
102
RTVSPost2010PropOp38
 70
     1
102
RTVSPost2010Prop39
140
1.0
102
RTVSPost2010PropOp39
 70
     1
102
RTVSPost2010Prop40
 90
        0
102
RTVSPost2010PropOp40
 70
     1
102
RTVSPost2010Prop41ColorIndex
 90
       18
102
RTVSPost2010Prop41ColorRGB
 90
        0
102
RTVSPost2010PropOp41
 70
     1
102
RTVSPost2010Prop42
 90
       50
102
RTVSPost2010PropOp42
 70
     1
102
RTVSPost2010Prop43
 90
        3
102
RTVSPost2010PropOp43
 70
     1
102
RTVSPost2010Prop44ColorIndex
 90
        5
102
RTVSPost2010Prop44ColorRGB
 90
      255
102
RTVSPost2010PropOp44
 70
     1
102
RTVSPost2010Prop45
280
     0
102
RTVSPost2010PropOp45
 70
     1
102
RTVSPost2010Prop46
 90
       50
102
RTVSPost2010PropOp46
 70
     1
102
RTVSPost2010Prop47
 90
       50
102
RTVSPost2010PropOp47
 70
     1
102
RTVSPost2010Prop48
 90
       50
102
RTVSPost2010PropOp48
 70
     1
102
RTVSPost2010Prop49
280
     0
102
RTVSPost2010PropOp49
 70
     1
102
RTVSPost2010Prop50
 90
       50
102
RTVSPost2010PropOp50
 70
     1
102
RTVSPost2010Prop51ColorIndex
 90
      256
102
RTVSPost2010Prop51ColorRGB
 90
-16777216
102
RTVSPost2010PropOp51
 70
     0
102
RTVSPost2010Prop52
140
1.0
102
RTVSPost2010PropOp52
 70
     0
102
RTVSPost2010Prop53
 90
        2
102
RTVSPost2010PropOp53
 70
     1
102
RTVSPost2010Prop54
  1
strokes_ogs.tif
102
RTVSPost2010PropOp54
 70
     1
102
RTVSPost2010Prop55
280
     0
102
RTVSPost2010PropOp55
 70
     1
102
RTVSPost2010Prop56
140
1.0
102
RTVSPost2010PropOp56
 70
     1
102
RTVSPost2010Prop57
140
1.0
102
RTVSPost2010PropOp57
 70
     1
  0
XRECORD
  5
820
102
{ACAD_REACTORS
330
81F
102
}
330
81F
100
AcDbXrecord
280
     1
102
RTVSPost2010Prop28
280
     0
102
RTVSPost2010PropOp28
 70
     1
102
RTVSPost2010Prop29
280
     1
102
RTVSPost2010PropOp29
 70
     1
102
RTVSPost2010Prop30
280
     1
102
RTVSPost2010PropOp30
 70
     1
102
RTVSPost2010Prop31
280
     0
102
RTVSPost2010PropOp31
 70
     1
102
RTVSPost2010Prop32
280
     0
102
RTVSPost2010PropOp32
 70
     1
102
RTVSPost2010Prop33
280
     0
102
RTVSPost2010PropOp33
 70
     1
102
RTVSPost2010Prop34
280
     0
102
RTVSPost2010PropOp34
 70
     1
102
RTVSPost2010Prop35
280
     0
102
RTVSPost2010PropOp35
 70
     1
102
RTVSPost2010Prop36
280
     0
102
RTVSPost2010PropOp36
 70
     1
102
RTVSPost2010Prop37
 90
       50
102
RTVSPost2010PropOp37
 70
     1
102
RTVSPost2010Prop38
140
0.0
102
RTVSPost2010PropOp38
 70
     1
102
RTVSPost2010Prop39
140
1.0
102
RTVSPost2010PropOp39
 70
     1
102
RTVSPost2010Prop40
 90
        0
102
RTVSPost2010PropOp40
 70
     1
102
RTVSPost2010Prop41ColorIndex
 90
       18
102
RTVSPost2010Prop41ColorRGB
 90
        0
102
RTVSPost2010PropOp41
 70
     1
102
RTVSPost2010Prop42
 90
       50
102
RTVSPost2010PropOp42
 70
     1
102
RTVSPost2010Prop43
 90
        3
102
RTVSPost2010PropOp43
 70
     1
102
RTVSPost2010Prop44ColorIndex
 90
        5
102
RTVSPost2010Prop44ColorRGB
 90
      255
102
RTVSPost2010PropOp44
 70
     1
102
RTVSPost2010Prop45
280
     0
102
RTVSPost2010PropOp45
 70
     1
102
RTVSPost2010Prop46
 90
       50
102
RTVSPost2010PropOp46
 70
     1
102
RTVSPost2010Prop47
 90
       50
102
RTVSPost2010PropOp47
 70
     1
102
RTVSPost2010Prop48
 90
       50
102
RTVSPost2010PropOp48
 70
     1
102
RTVSPost2010Prop49
280
     0
102
RTVSPost2010PropOp49
 70
     1
102
RTVSPost2010Prop50
 90
       50
102
RTVSPost2010PropOp50
 70
     1
102
RTVSPost2010Prop51ColorIndex
 90
      256
102
RTVSPost2010Prop51ColorRGB
 90
-16777216
102
RTVSPost2010PropOp51
 70
     0
102
RTVSPost2010Prop52
140
1.0
102
RTVSPost2010PropOp52
 70
     0
102
RTVSPost2010Prop53
 90
        2
102
RTVSPost2010PropOp53
 70
     1
102
RTVSPost2010Prop54
  1
strokes_ogs.tif
102
RTVSPost2010PropOp54
 70
     1
102
RTVSPost2010Prop55
280
     0
102
RTVSPost2010PropOp55
 70
     1
102
RTVSPost2010Prop56
140
1.0
102
RTVSPost2010PropOp56
 70
     1
102
RTVSPost2010Prop57
140
1.0
102
RTVSPost2010PropOp57
 70
     1
  0
XRECORD
  5
81E
102
{ACAD_REACTORS
330
81D
102
}
330
81D
100
AcDbXrecord
280
     1
102
RTVSPost2010Prop28
280
     0
102
RTVSPost2010PropOp28
 70
     1
102
RTVSPost2010Prop29
280
     1
102
RTVSPost2010PropOp29
 70
     1
102
RTVSPost2010Prop30
280
     1
102
RTVSPost2010PropOp30
 70
     1
102
RTVSPost2010Prop31
280
     0
102
RTVSPost2010PropOp31
 70
     1
102
RTVSPost2010Prop32
280
     0
102
RTVSPost2010PropOp32
 70
     1
102
RTVSPost2010Prop33
280
     0
102
RTVSPost2010PropOp33
 70
     1
102
RTVSPost2010Prop34
280
     0
102
RTVSPost2010PropOp34
 70
     1
102
RTVSPost2010Prop35
280
     0
102
RTVSPost2010PropOp35
 70
     1
102
RTVSPost2010Prop36
280
     0
102
RTVSPost2010PropOp36
 70
     1
102
RTVSPost2010Prop37
 90
       50
102
RTVSPost2010PropOp37
 70
     1
102
RTVSPost2010Prop38
140
0.0
102
RTVSPost2010PropOp38
 70
     1
102
RTVSPost2010Prop39
140
1.0
102
RTVSPost2010PropOp39
 70
     1
102
RTVSPost2010Prop40
 90
        0
102
RTVSPost2010PropOp40
 70
     1
102
RTVSPost2010Prop41ColorIndex
 90
       18
102
RTVSPost2010Prop41ColorRGB
 90
        0
102
RTVSPost2010PropOp41
 70
     1
102
RTVSPost2010Prop42
 90
       50
102
RTVSPost2010PropOp42
 70
     1
102
RTVSPost2010Prop43
 90
        3
102
RTVSPost2010PropOp43
 70
     1
102
RTVSPost2010Prop44ColorIndex
 90
        5
102
RTVSPost2010Prop44ColorRGB
 90
      255
102
RTVSPost2010PropOp44
 70
     1
102
RTVSPost2010Prop45
280
     0
102
RTVSPost2010PropOp45
 70
     1
102
RTVSPost2010Prop46
 90
       50
102
RTVSPost2010PropOp46
 70
     1
102
RTVSPost2010Prop47
 90
       50
102
RTVSPost2010PropOp47
 70
     1
102
RTVSPost2010Prop48
 90
       50
102
RTVSPost2010PropOp48
 70
     1
102
RTVSPost2010Prop49
280
     0
102
RTVSPost2010PropOp49
 70
     1
102
RTVSPost2010Prop50
 90
       50
102
RTVSPost2010PropOp50
 70
     1
102
RTVSPost2010Prop51ColorIndex
 90
      256
102
RTVSPost2010Prop51ColorRGB
 90
-16777216
102
RTVSPost2010PropOp51
 70
     0
102
RTVSPost2010Prop52
140
1.0
102
RTVSPost2010PropOp52
 70
     0
102
RTVSPost2010Prop53
 90
        2
102
RTVSPost2010PropOp53
 70
     1
102
RTVSPost2010Prop54
  1
strokes_ogs.tif
102
RTVSPost2010PropOp54
 70
     1
102
RTVSPost2010Prop55
280
     0
102
RTVSPost2010PropOp55
 70
     1
102
RTVSPost2010Prop56
140
1.0
102
RTVSPost2010PropOp56
 70
     1
102
RTVSPost2010Prop57
140
1.0
102
RTVSPost2010PropOp57
 70
     1
  0
XRECORD
  5
822
102
{ACAD_REACTORS
330
821
102
}
330
821
100
AcDbXrecord
280
     1
102
RTVSPost2010Prop28
280
     0
102
RTVSPost2010PropOp28
 70
     1
102
RTVSPost2010Prop29
280
     1
102
RTVSPost2010PropOp29
 70
     1
102
RTVSPost2010Prop30
280
     1
102
RTVSPost2010PropOp30
 70
     1
102
RTVSPost2010Prop31
280
     0
102
RTVSPost2010PropOp31
 70
     1
102
RTVSPost2010Prop32
280
     0
102
RTVSPost2010PropOp32
 70
     1
102
RTVSPost2010Prop33
280
     0
102
RTVSPost2010PropOp33
 70
     1
102
RTVSPost2010Prop34
280
     0
102
RTVSPost2010PropOp34
 70
     1
102
RTVSPost2010Prop35
280
     0
102
RTVSPost2010PropOp35
 70
     1
102
RTVSPost2010Prop36
280
     0
102
RTVSPost2010PropOp36
 70
     1
102
RTVSPost2010Prop37
 90
       50
102
RTVSPost2010PropOp37
 70
     1
102
RTVSPost2010Prop38
140
0.0
102
RTVSPost2010PropOp38
 70
     1
102
RTVSPost2010Prop39
140
1.0
102
RTVSPost2010PropOp39
 70
     1
102
RTVSPost2010Prop40
 90
        0
102
RTVSPost2010PropOp40
 70
     1
102
RTVSPost2010Prop41ColorIndex
 90
       18
102
RTVSPost2010Prop41ColorRGB
 90
        0
102
RTVSPost2010PropOp41
 70
     1
102
RTVSPost2010Prop42
 90
       50
102
RTVSPost2010PropOp42
 70
     1
102
RTVSPost2010Prop43
 90
        3
102
RTVSPost2010PropOp43
 70
     1
102
RTVSPost2010Prop44ColorIndex
 90
        5
102
RTVSPost2010Prop44ColorRGB
 90
      255
102
RTVSPost2010PropOp44
 70
     1
102
RTVSPost2010Prop45
280
     0
102
RTVSPost2010PropOp45
 70
     1
102
RTVSPost2010Prop46
 90
       50
102
RTVSPost2010PropOp46
 70
     1
102
RTVSPost2010Prop47
 90
       50
102
RTVSPost2010PropOp47
 70
     1
102
RTVSPost2010Prop48
 90
       50
102
RTVSPost2010PropOp48
 70
     1
102
RTVSPost2010Prop49
280
     0
102
RTVSPost2010PropOp49
 70
     1
102
RTVSPost2010Prop50
 90
       50
102
RTVSPost2010PropOp50
 70
     1
102
RTVSPost2010Prop51ColorIndex
 90
      256
102
RTVSPost2010Prop51ColorRGB
 90
-16777216
102
RTVSPost2010PropOp51
 70
     0
102
RTVSPost2010Prop52
140
1.0
102
RTVSPost2010PropOp52
 70
     0
102
RTVSPost2010Prop53
 90
        2
102
RTVSPost2010PropOp53
 70
     1
102
RTVSPost2010Prop54
  1
strokes_ogs.tif
102
RTVSPost2010PropOp54
 70
     1
102
RTVSPost2010Prop55
280
     0
102
RTVSPost2010PropOp55
 70
     1
102
RTVSPost2010Prop56
140
1.0
102
RTVSPost2010PropOp56
 70
     1
102
RTVSPost2010Prop57
140
1.0
102
RTVSPost2010PropOp57
 70
     1
  0
XRECORD
  5
82A
102
{ACAD_REACTORS
330
829
102
}
330
829
100
AcDbXrecord
280
     1
102
RTVSPost2010Prop28
280
     0
102
RTVSPost2010PropOp28
 70
     1
102
RTVSPost2010Prop29
280
     1
102
RTVSPost2010PropOp29
 70
     1
102
RTVSPost2010Prop30
280
     1
102
RTVSPost2010PropOp30
 70
     1
102
RTVSPost2010Prop31
280
     0
102
RTVSPost2010PropOp31
 70
     1
102
RTVSPost2010Prop32
280
     0
102
RTVSPost2010PropOp32
 70
     1
102
RTVSPost2010Prop33
280
     0
102
RTVSPost2010PropOp33
 70
     1
102
RTVSPost2010Prop34
280
     0
102
RTVSPost2010PropOp34
 70
     1
102
RTVSPost2010Prop35
280
     0
102
RTVSPost2010PropOp35
 70
     1
102
RTVSPost2010Prop36
280
     0
102
RTVSPost2010PropOp36
 70
     1
102
RTVSPost2010Prop37
 90
       50
102
RTVSPost2010PropOp37
 70
     1
102
RTVSPost2010Prop38
140
0.0
102
RTVSPost2010PropOp38
 70
     1
102
RTVSPost2010Prop39
140
1.0
102
RTVSPost2010PropOp39
 70
     1
102
RTVSPost2010Prop40
 90
        0
102
RTVSPost2010PropOp40
 70
     1
102
RTVSPost2010Prop41ColorIndex
 90
       18
102
RTVSPost2010Prop41ColorRGB
 90
        0
102
RTVSPost2010PropOp41
 70
     1
102
RTVSPost2010Prop42
 90
       50
102
RTVSPost2010PropOp42
 70
     1
102
RTVSPost2010Prop43
 90
        3
102
RTVSPost2010PropOp43
 70
     1
102
RTVSPost2010Prop44ColorIndex
 90
        5
102
RTVSPost2010Prop44ColorRGB
 90
      255
102
RTVSPost2010PropOp44
 70
     1
102
RTVSPost2010Prop45
280
     0
102
RTVSPost2010PropOp45
 70
     1
102
RTVSPost2010Prop46
 90
       50
102
RTVSPost2010PropOp46
 70
     1
102
RTVSPost2010Prop47
 90
       50
102
RTVSPost2010PropOp47
 70
     1
102
RTVSPost2010Prop48
 90
       50
102
RTVSPost2010PropOp48
 70
     1
102
RTVSPost2010Prop49
280
     0
102
RTVSPost2010PropOp49
 70
     1
102
RTVSPost2010Prop50
 90
       50
102
RTVSPost2010PropOp50
 70
     1
102
RTVSPost2010Prop51ColorIndex
 90
      256
102
RTVSPost2010Prop51ColorRGB
 90
-16777216
102
RTVSPost2010PropOp51
 70
     0
102
RTVSPost2010Prop52
140
1.0
102
RTVSPost2010PropOp52
 70
     0
102
RTVSPost2010Prop53
 90
        2
102
RTVSPost2010PropOp53
 70
     1
102
RTVSPost2010Prop54
  1
strokes_ogs.tif
102
RTVSPost2010PropOp54
 70
     1
102
RTVSPost2010Prop55
280
     0
102
RTVSPost2010PropOp55
 70
     1
102
RTVSPost2010Prop56
140
1.0
102
RTVSPost2010PropOp56
 70
     1
102
RTVSPost2010Prop57
140
1.0
102
RTVSPost2010PropOp57
 70
     1
  0
XRECORD
  5
832
102
{ACAD_REACTORS
330
831
102
}
330
831
100
AcDbXrecord
280
     1
102
RTVSPost2010Prop28
280
     0
102
RTVSPost2010PropOp28
 70
     1
102
RTVSPost2010Prop29
280
     1
102
RTVSPost2010PropOp29
 70
     1
102
RTVSPost2010Prop30
280
     1
102
RTVSPost2010PropOp30
 70
     1
102
RTVSPost2010Prop31
280
     0
102
RTVSPost2010PropOp31
 70
     1
102
RTVSPost2010Prop32
280
     0
102
RTVSPost2010PropOp32
 70
     1
102
RTVSPost2010Prop33
280
     0
102
RTVSPost2010PropOp33
 70
     1
102
RTVSPost2010Prop34
280
     0
102
RTVSPost2010PropOp34
 70
     1
102
RTVSPost2010Prop35
280
     0
102
RTVSPost2010PropOp35
 70
     1
102
RTVSPost2010Prop36
280
     0
102
RTVSPost2010PropOp36
 70
     1
102
RTVSPost2010Prop37
 90
       50
102
RTVSPost2010PropOp37
 70
     1
102
RTVSPost2010Prop38
140
0.0
102
RTVSPost2010PropOp38
 70
     1
102
RTVSPost2010Prop39
140
1.0
102
RTVSPost2010PropOp39
 70
     1
102
RTVSPost2010Prop40
 90
        0
102
RTVSPost2010PropOp40
 70
     1
102
RTVSPost2010Prop41ColorIndex
 90
       18
102
RTVSPost2010Prop41ColorRGB
 90
        0
102
RTVSPost2010PropOp41
 70
     1
102
RTVSPost2010Prop42
 90
       50
102
RTVSPost2010PropOp42
 70
     1
102
RTVSPost2010Prop43
 90
        3
102
RTVSPost2010PropOp43
 70
     1
102
RTVSPost2010Prop44ColorIndex
 90
        5
102
RTVSPost2010Prop44ColorRGB
 90
      255
102
RTVSPost2010PropOp44
 70
     1
102
RTVSPost2010Prop45
280
     0
102
RTVSPost2010PropOp45
 70
     1
102
RTVSPost2010Prop46
 90
       50
102
RTVSPost2010PropOp46
 70
     1
102
RTVSPost2010Prop47
 90
       50
102
RTVSPost2010PropOp47
 70
     1
102
RTVSPost2010Prop48
 90
       50
102
RTVSPost2010PropOp48
 70
     1
102
RTVSPost2010Prop49
280
     0
102
RTVSPost2010PropOp49
 70
     1
102
RTVSPost2010Prop50
 90
       50
102
RTVSPost2010PropOp50
 70
     1
102
RTVSPost2010Prop51ColorIndex
 90
      256
102
RTVSPost2010Prop51ColorRGB
 90
-16777216
102
RTVSPost2010PropOp51
 70
     0
102
RTVSPost2010Prop52
140
1.0
102
RTVSPost2010PropOp52
 70
     0
102
RTVSPost2010Prop53
 90
        2
102
RTVSPost2010PropOp53
 70
     1
102
RTVSPost2010Prop54
  1
strokes_ogs.tif
102
RTVSPost2010PropOp54
 70
     1
102
RTVSPost2010Prop55
280
     0
102
RTVSPost2010PropOp55
 70
     1
102
RTVSPost2010Prop56
140
1.0
102
RTVSPost2010PropOp56
 70
     1
102
RTVSPost2010Prop57
140
1.0
102
RTVSPost2010PropOp57
 70
     1
  0
XRECORD
  5
826
102
{ACAD_REACTORS
330
825
102
}
330
825
100
AcDbXrecord
280
     1
102
RTVSPost2010Prop28
280
     0
102
RTVSPost2010PropOp28
 70
     1
102
RTVSPost2010Prop29
280
     1
102
RTVSPost2010PropOp29
 70
     1
102
RTVSPost2010Prop30
280
     1
102
RTVSPost2010PropOp30
 70
     1
102
RTVSPost2010Prop31
280
     0
102
RTVSPost2010PropOp31
 70
     1
102
RTVSPost2010Prop32
280
     0
102
RTVSPost2010PropOp32
 70
     1
102
RTVSPost2010Prop33
280
     0
102
RTVSPost2010PropOp33
 70
     1
102
RTVSPost2010Prop34
280
     0
102
RTVSPost2010PropOp34
 70
     1
102
RTVSPost2010Prop35
280
     0
102
RTVSPost2010PropOp35
 70
     1
102
RTVSPost2010Prop36
280
     0
102
RTVSPost2010PropOp36
 70
     1
102
RTVSPost2010Prop37
 90
       50
102
RTVSPost2010PropOp37
 70
     1
102
RTVSPost2010Prop38
140
0.0
102
RTVSPost2010PropOp38
 70
     1
102
RTVSPost2010Prop39
140
1.0
102
RTVSPost2010PropOp39
 70
     1
102
RTVSPost2010Prop40
 90
        0
102
RTVSPost2010PropOp40
 70
     1
102
RTVSPost2010Prop41ColorIndex
 90
       18
102
RTVSPost2010Prop41ColorRGB
 90
        0
102
RTVSPost2010PropOp41
 70
     1
102
RTVSPost2010Prop42
 90
       50
102
RTVSPost2010PropOp42
 70
     1
102
RTVSPost2010Prop43
 90
        3
102
RTVSPost2010PropOp43
 70
     1
102
RTVSPost2010Prop44ColorIndex
 90
        5
102
RTVSPost2010Prop44ColorRGB
 90
      255
102
RTVSPost2010PropOp44
 70
     1
102
RTVSPost2010Prop45
280
     0
102
RTVSPost2010PropOp45
 70
     1
102
RTVSPost2010Prop46
 90
       50
102
RTVSPost2010PropOp46
 70
     1
102
RTVSPost2010Prop47
 90
       50
102
RTVSPost2010PropOp47
 70
     1
102
RTVSPost2010Prop48
 90
       50
102
RTVSPost2010PropOp48
 70
     1
102
RTVSPost2010Prop49
280
     0
102
RTVSPost2010PropOp49
 70
     1
102
RTVSPost2010Prop50
 90
       50
102
RTVSPost2010PropOp50
 70
     1
102
RTVSPost2010Prop51ColorIndex
 90
      256
102
RTVSPost2010Prop51ColorRGB
 90
-16777216
102
RTVSPost2010PropOp51
 70
     0
102
RTVSPost2010Prop52
140
1.0
102
RTVSPost2010PropOp52
 70
     0
102
RTVSPost2010Prop53
 90
        2
102
RTVSPost2010PropOp53
 70
     1
102
RTVSPost2010Prop54
  1
strokes_ogs.tif
102
RTVSPost2010PropOp54
 70
     1
102
RTVSPost2010Prop55
280
     0
102
RTVSPost2010PropOp55
 70
     1
102
RTVSPost2010Prop56
140
1.0
102
RTVSPost2010PropOp56
 70
     1
102
RTVSPost2010Prop57
140
1.0
102
RTVSPost2010PropOp57
 70
     1
  0
XRECORD
  5
828
102
{ACAD_REACTORS
330
827
102
}
330
827
100
AcDbXrecord
280
     1
102
RTVSPost2010Prop28
280
     0
102
RTVSPost2010PropOp28
 70
     1
102
RTVSPost2010Prop29
280
     1
102
RTVSPost2010PropOp29
 70
     1
102
RTVSPost2010Prop30
280
     1
102
RTVSPost2010PropOp30
 70
     1
102
RTVSPost2010Prop31
280
     0
102
RTVSPost2010PropOp31
 70
     1
102
RTVSPost2010Prop32
280
     0
102
RTVSPost2010PropOp32
 70
     1
102
RTVSPost2010Prop33
280
     0
102
RTVSPost2010PropOp33
 70
     1
102
RTVSPost2010Prop34
280
     0
102
RTVSPost2010PropOp34
 70
     1
102
RTVSPost2010Prop35
280
     0
102
RTVSPost2010PropOp35
 70
     1
102
RTVSPost2010Prop36
280
     0
102
RTVSPost2010PropOp36
 70
     1
102
RTVSPost2010Prop37
 90
       50
102
RTVSPost2010PropOp37
 70
     1
102
RTVSPost2010Prop38
140
0.0
102
RTVSPost2010PropOp38
 70
     1
102
RTVSPost2010Prop39
140
1.0
102
RTVSPost2010PropOp39
 70
     1
102
RTVSPost2010Prop40
 90
        0
102
RTVSPost2010PropOp40
 70
     1
102
RTVSPost2010Prop41ColorIndex
 90
       18
102
RTVSPost2010Prop41ColorRGB
 90
        0
102
RTVSPost2010PropOp41
 70
     1
102
RTVSPost2010Prop42
 90
       50
102
RTVSPost2010PropOp42
 70
     1
102
RTVSPost2010Prop43
 90
        3
102
RTVSPost2010PropOp43
 70
     1
102
RTVSPost2010Prop44ColorIndex
 90
        5
102
RTVSPost2010Prop44ColorRGB
 90
      255
102
RTVSPost2010PropOp44
 70
     1
102
RTVSPost2010Prop45
280
     0
102
RTVSPost2010PropOp45
 70
     1
102
RTVSPost2010Prop46
 90
       50
102
RTVSPost2010PropOp46
 70
     1
102
RTVSPost2010Prop47
 90
       50
102
RTVSPost2010PropOp47
 70
     1
102
RTVSPost2010Prop48
 90
       50
102
RTVSPost2010PropOp48
 70
     1
102
RTVSPost2010Prop49
280
     0
102
RTVSPost2010PropOp49
 70
     1
102
RTVSPost2010Prop50
 90
       50
102
RTVSPost2010PropOp50
 70
     1
102
RTVSPost2010Prop51ColorIndex
 90
      256
102
RTVSPost2010Prop51ColorRGB
 90
-16777216
102
RTVSPost2010PropOp51
 70
     0
102
RTVSPost2010Prop52
140
1.0
102
RTVSPost2010PropOp52
 70
     0
102
RTVSPost2010Prop53
 90
        2
102
RTVSPost2010PropOp53
 70
     1
102
RTVSPost2010Prop54
  1
strokes_ogs.tif
102
RTVSPost2010PropOp54
 70
     1
102
RTVSPost2010Prop55
280
     0
102
RTVSPost2010PropOp55
 70
     1
102
RTVSPost2010Prop56
140
1.0
102
RTVSPost2010PropOp56
 70
     1
102
RTVSPost2010Prop57
140
1.0
102
RTVSPost2010PropOp57
 70
     1
  0
XRECORD
  5
846
102
{ACAD_REACTORS
330
845
102
}
330
845
100
AcDbXrecord
280
     1
102
RTVSPost2010Prop28
280
     0
102
RTVSPost2010PropOp28
 70
     0
102
RTVSPost2010Prop29
280
     1
102
RTVSPost2010PropOp29
 70
     0
102
RTVSPost2010Prop30
280
     1
102
RTVSPost2010PropOp30
 70
     0
102
RTVSPost2010Prop31
280
     0
102
RTVSPost2010PropOp31
 70
     0
102
RTVSPost2010Prop32
280
     0
102
RTVSPost2010PropOp32
 70
     0
102
RTVSPost2010Prop33
280
     0
102
RTVSPost2010PropOp33
 70
     0
102
RTVSPost2010Prop34
280
     0
102
RTVSPost2010PropOp34
 70
     0
102
RTVSPost2010Prop35
280
     0
102
RTVSPost2010PropOp35
 70
     0
102
RTVSPost2010Prop36
280
     0
102
RTVSPost2010PropOp36
 70
     0
102
RTVSPost2010Prop37
 90
       50
102
RTVSPost2010PropOp37
 70
     0
102
RTVSPost2010Prop38
140
0.0
102
RTVSPost2010PropOp38
 70
     0
102
RTVSPost2010Prop39
140
1.0
102
RTVSPost2010PropOp39
 70
     0
102
RTVSPost2010Prop40
 90
        0
102
RTVSPost2010PropOp40
 70
     0
102
RTVSPost2010Prop41ColorIndex
 90
       18
102
RTVSPost2010Prop41ColorRGB
 90
        0
102
RTVSPost2010PropOp41
 70
     0
102
RTVSPost2010Prop42
 90
       50
102
RTVSPost2010PropOp42
 70
     0
102
RTVSPost2010Prop43
 90
        3
102
RTVSPost2010PropOp43
 70
     0
102
RTVSPost2010Prop44ColorIndex
 90
        5
102
RTVSPost2010Prop44ColorRGB
 90
      255
102
RTVSPost2010PropOp44
 70
     0
102
RTVSPost2010Prop45
280
     0
102
RTVSPost2010PropOp45
 70
     0
102
RTVSPost2010Prop46
 90
       50
102
RTVSPost2010PropOp46
 70
     0
102
RTVSPost2010Prop47
 90
       50
102
RTVSPost2010PropOp47
 70
     0
102
RTVSPost2010Prop48
 90
       50
102
RTVSPost2010PropOp48
 70
     0
102
RTVSPost2010Prop49
280
     0
102
RTVSPost2010PropOp49
 70
     0
102
RTVSPost2010Prop50
 90
       50
102
RTVSPost2010PropOp50
 70
     0
102
RTVSPost2010Prop51ColorIndex
 90
      256
102
RTVSPost2010Prop51ColorRGB
 90
-16777216
102
RTVSPost2010PropOp51
 70
     0
102
RTVSPost2010Prop52
140
1.0
102
RTVSPost2010PropOp52
 70
     0
102
RTVSPost2010Prop53
 90
        2
102
RTVSPost2010PropOp53
 70
     0
102
RTVSPost2010Prop54
  1
strokes_ogs.tif
102
RTVSPost2010PropOp54
 70
     0
102
RTVSPost2010Prop55
280
     0
102
RTVSPost2010PropOp55
 70
     0
102
RTVSPost2010Prop56
140
1.0
102
RTVSPost2010PropOp56
 70
     0
102
RTVSPost2010Prop57
140
1.0
102
RTVSPost2010PropOp57
 70
     0
  0
XRECORD
  5
830
102
{ACAD_REACTORS
330
82F
102
}
330
82F
100
AcDbXrecord
280
     1
102
RTVSPost2010Prop28
280
     0
102
RTVSPost2010PropOp28
 70
     1
102
RTVSPost2010Prop29
280
     1
102
RTVSPost2010PropOp29
 70
     1
102
RTVSPost2010Prop30
280
     1
102
RTVSPost2010PropOp30
 70
     1
102
RTVSPost2010Prop31
280
     0
102
RTVSPost2010PropOp31
 70
     1
102
RTVSPost2010Prop32
280
     0
102
RTVSPost2010PropOp32
 70
     1
102
RTVSPost2010Prop33
280
     0
102
RTVSPost2010PropOp33
 70
     1
102
RTVSPost2010Prop34
280
     0
102
RTVSPost2010PropOp34
 70
     1
102
RTVSPost2010Prop35
280
     0
102
RTVSPost2010PropOp35
 70
     1
102
RTVSPost2010Prop36
280
     0
102
RTVSPost2010PropOp36
 70
     1
102
RTVSPost2010Prop37
 90
       50
102
RTVSPost2010PropOp37
 70
     1
102
RTVSPost2010Prop38
140
0.0
102
RTVSPost2010PropOp38
 70
     1
102
RTVSPost2010Prop39
140
1.0
102
RTVSPost2010PropOp39
 70
     1
102
RTVSPost2010Prop40
 90
        0
102
RTVSPost2010PropOp40
 70
     1
102
RTVSPost2010Prop41ColorIndex
 90
       18
102
RTVSPost2010Prop41ColorRGB
 90
        0
102
RTVSPost2010PropOp41
 70
     1
102
RTVSPost2010Prop42
 90
       50
102
RTVSPost2010PropOp42
 70
     1
102
RTVSPost2010Prop43
 90
        3
102
RTVSPost2010PropOp43
 70
     1
102
RTVSPost2010Prop44ColorIndex
 90
        5
102
RTVSPost2010Prop44ColorRGB
 90
      255
102
RTVSPost2010PropOp44
 70
     1
102
RTVSPost2010Prop45
280
     0
102
RTVSPost2010PropOp45
 70
     1
102
RTVSPost2010Prop46
 90
       50
102
RTVSPost2010PropOp46
 70
     1
102
RTVSPost2010Prop47
 90
       50
102
RTVSPost2010PropOp47
 70
     1
102
RTVSPost2010Prop48
 90
       50
102
RTVSPost2010PropOp48
 70
     1
102
RTVSPost2010Prop49
280
     0
102
RTVSPost2010PropOp49
 70
     1
102
RTVSPost2010Prop50
 90
       50
102
RTVSPost2010PropOp50
 70
     1
102
RTVSPost2010Prop51ColorIndex
 90
      256
102
RTVSPost2010Prop51ColorRGB
 90
-16777216
102
RTVSPost2010PropOp51
 70
     0
102
RTVSPost2010Prop52
140
1.0
102
RTVSPost2010PropOp52
 70
     0
102
RTVSPost2010Prop53
 90
        2
102
RTVSPost2010PropOp53
 70
     1
102
RTVSPost2010Prop54
  1
strokes_ogs.tif
102
RTVSPost2010PropOp54
 70
     1
102
RTVSPost2010Prop55
280
     0
102
RTVSPost2010PropOp55
 70
     1
102
RTVSPost2010Prop56
140
1.0
102
RTVSPost2010PropOp56
 70
     1
102
RTVSPost2010Prop57
140
1.0
102
RTVSPost2010PropOp57
 70
     1
  0
XRECORD
  5
814
102
{ACAD_REACTORS
330
813
102
}
330
813
100
AcDbXrecord
280
     1
102
RTVSPost2010Prop28
280
     0
102
RTVSPost2010PropOp28
 70
     1
102
RTVSPost2010Prop29
280
     1
102
RTVSPost2010PropOp29
 70
     1
102
RTVSPost2010Prop30
280
     1
102
RTVSPost2010PropOp30
 70
     1
102
RTVSPost2010Prop31
280
     0
102
RTVSPost2010PropOp31
 70
     1
102
RTVSPost2010Prop32
280
     0
102
RTVSPost2010PropOp32
 70
     1
102
RTVSPost2010Prop33
280
     0
102
RTVSPost2010PropOp33
 70
     1
102
RTVSPost2010Prop34
280
     0
102
RTVSPost2010PropOp34
 70
     1
102
RTVSPost2010Prop35
280
     0
102
RTVSPost2010PropOp35
 70
     1
102
RTVSPost2010Prop36
280
     0
102
RTVSPost2010PropOp36
 70
     1
102
RTVSPost2010Prop37
 90
       50
102
RTVSPost2010PropOp37
 70
     1
102
RTVSPost2010Prop38
140
0.0
102
RTVSPost2010PropOp38
 70
     1
102
RTVSPost2010Prop39
140
1.0
102
RTVSPost2010PropOp39
 70
     1
102
RTVSPost2010Prop40
 90
        0
102
RTVSPost2010PropOp40
 70
     1
102
RTVSPost2010Prop41ColorIndex
 90
       18
102
RTVSPost2010Prop41ColorRGB
 90
        0
102
RTVSPost2010PropOp41
 70
     1
102
RTVSPost2010Prop42
 90
       50
102
RTVSPost2010PropOp42
 70
     1
102
RTVSPost2010Prop43
 90
        3
102
RTVSPost2010PropOp43
 70
     1
102
RTVSPost2010Prop44ColorIndex
 90
        5
102
RTVSPost2010Prop44ColorRGB
 90
      255
102
RTVSPost2010PropOp44
 70
     1
102
RTVSPost2010Prop45
280
     0
102
RTVSPost2010PropOp45
 70
     1
102
RTVSPost2010Prop46
 90
       50
102
RTVSPost2010PropOp46
 70
     1
102
RTVSPost2010Prop47
 90
       50
102
RTVSPost2010PropOp47
 70
     1
102
RTVSPost2010Prop48
 90
       50
102
RTVSPost2010PropOp48
 70
     1
102
RTVSPost2010Prop49
280
     0
102
RTVSPost2010PropOp49
 70
     1
102
RTVSPost2010Prop50
 90
       50
102
RTVSPost2010PropOp50
 70
     1
102
RTVSPost2010Prop51ColorIndex
 90
      256
102
RTVSPost2010Prop51ColorRGB
 90
-16777216
102
RTVSPost2010PropOp51
 70
     0
102
RTVSPost2010Prop52
140
1.0
102
RTVSPost2010PropOp52
 70
     0
102
RTVSPost2010Prop53
 90
        2
102
RTVSPost2010PropOp53
 70
     1
102
RTVSPost2010Prop54
  1
strokes_ogs.tif
102
RTVSPost2010PropOp54
 70
     1
102
RTVSPost2010Prop55
280
     0
102
RTVSPost2010PropOp55
 70
     1
102
RTVSPost2010Prop56
140
1.0
102
RTVSPost2010PropOp56
 70
     1
102
RTVSPost2010Prop57
140
1.0
102
RTVSPost2010PropOp57
 70
     1
  0
XRECORD
  5
816
102
{ACAD_REACTORS
330
815
102
}
330
815
100
AcDbXrecord
280
     1
102
RTVSPost2010Prop28
280
     0
102
RTVSPost2010PropOp28
 70
     1
102
RTVSPost2010Prop29
280
     1
102
RTVSPost2010PropOp29
 70
     1
102
RTVSPost2010Prop30
280
     1
102
RTVSPost2010PropOp30
 70
     1
102
RTVSPost2010Prop31
280
     0
102
RTVSPost2010PropOp31
 70
     1
102
RTVSPost2010Prop32
280
     0
102
RTVSPost2010PropOp32
 70
     1
102
RTVSPost2010Prop33
280
     0
102
RTVSPost2010PropOp33
 70
     1
102
RTVSPost2010Prop34
280
     0
102
RTVSPost2010PropOp34
 70
     1
102
RTVSPost2010Prop35
280
     0
102
RTVSPost2010PropOp35
 70
     1
102
RTVSPost2010Prop36
280
     0
102
RTVSPost2010PropOp36
 70
     1
102
RTVSPost2010Prop37
 90
       50
102
RTVSPost2010PropOp37
 70
     1
102
RTVSPost2010Prop38
140
0.0
102
RTVSPost2010PropOp38
 70
     1
102
RTVSPost2010Prop39
140
1.0
102
RTVSPost2010PropOp39
 70
     1
102
RTVSPost2010Prop40
 90
        0
102
RTVSPost2010PropOp40
 70
     1
102
RTVSPost2010Prop41ColorIndex
 90
       18
102
RTVSPost2010Prop41ColorRGB
 90
        0
102
RTVSPost2010PropOp41
 70
     1
102
RTVSPost2010Prop42
 90
       50
102
RTVSPost2010PropOp42
 70
     1
102
RTVSPost2010Prop43
 90
        3
102
RTVSPost2010PropOp43
 70
     1
102
RTVSPost2010Prop44ColorIndex
 90
        5
102
RTVSPost2010Prop44ColorRGB
 90
      255
102
RTVSPost2010PropOp44
 70
     1
102
RTVSPost2010Prop45
280
     0
102
RTVSPost2010PropOp45
 70
     1
102
RTVSPost2010Prop46
 90
       50
102
RTVSPost2010PropOp46
 70
     1
102
RTVSPost2010Prop47
 90
       50
102
RTVSPost2010PropOp47
 70
     1
102
RTVSPost2010Prop48
 90
       50
102
RTVSPost2010PropOp48
 70
     1
102
RTVSPost2010Prop49
280
     0
102
RTVSPost2010PropOp49
 70
     1
102
RTVSPost2010Prop50
 90
       50
102
RTVSPost2010PropOp50
 70
     1
102
RTVSPost2010Prop51ColorIndex
 90
      256
102
RTVSPost2010Prop51ColorRGB
 90
-16777216
102
RTVSPost2010PropOp51
 70
     0
102
RTVSPost2010Prop52
140
1.0
102
RTVSPost2010PropOp52
 70
     0
102
RTVSPost2010Prop53
 90
        2
102
RTVSPost2010PropOp53
 70
     1
102
RTVSPost2010Prop54
  1
strokes_ogs.tif
102
RTVSPost2010PropOp54
 70
     1
102
RTVSPost2010Prop55
280
     0
102
RTVSPost2010PropOp55
 70
     1
102
RTVSPost2010Prop56
140
1.0
102
RTVSPost2010PropOp56
 70
     1
102
RTVSPost2010Prop57
140
1.0
102
RTVSPost2010PropOp57
 70
     1
  0
XRECORD
  5
818
102
{ACAD_REACTORS
330
817
102
}
330
817
100
AcDbXrecord
280
     1
102
RTVSPost2010Prop28
280
     0
102
RTVSPost2010PropOp28
 70
     1
102
RTVSPost2010Prop29
280
     1
102
RTVSPost2010PropOp29
 70
     1
102
RTVSPost2010Prop30
280
     1
102
RTVSPost2010PropOp30
 70
     1
102
RTVSPost2010Prop31
280
     0
102
RTVSPost2010PropOp31
 70
     1
102
RTVSPost2010Prop32
280
     0
102
RTVSPost2010PropOp32
 70
     1
102
RTVSPost2010Prop33
280
     0
102
RTVSPost2010PropOp33
 70
     1
102
RTVSPost2010Prop34
280
     0
102
RTVSPost2010PropOp34
 70
     1
102
RTVSPost2010Prop35
280
     0
102
RTVSPost2010PropOp35
 70
     1
102
RTVSPost2010Prop36
280
     0
102
RTVSPost2010PropOp36
 70
     1
102
RTVSPost2010Prop37
 90
       50
102
RTVSPost2010PropOp37
 70
     1
102
RTVSPost2010Prop38
140
0.0
102
RTVSPost2010PropOp38
 70
     1
102
RTVSPost2010Prop39
140
1.0
102
RTVSPost2010PropOp39
 70
     1
102
RTVSPost2010Prop40
 90
        0
102
RTVSPost2010PropOp40
 70
     1
102
RTVSPost2010Prop41ColorIndex
 90
       18
102
RTVSPost2010Prop41ColorRGB
 90
        0
102
RTVSPost2010PropOp41
 70
     1
102
RTVSPost2010Prop42
 90
       50
102
RTVSPost2010PropOp42
 70
     1
102
RTVSPost2010Prop43
 90
        3
102
RTVSPost2010PropOp43
 70
     1
102
RTVSPost2010Prop44ColorIndex
 90
        5
102
RTVSPost2010Prop44ColorRGB
 90
      255
102
RTVSPost2010PropOp44
 70
     1
102
RTVSPost2010Prop45
280
     0
102
RTVSPost2010PropOp45
 70
     1
102
RTVSPost2010Prop46
 90
       50
102
RTVSPost2010PropOp46
 70
     1
102
RTVSPost2010Prop47
 90
       50
102
RTVSPost2010PropOp47
 70
     1
102
RTVSPost2010Prop48
 90
       50
102
RTVSPost2010PropOp48
 70
     1
102
RTVSPost2010Prop49
280
     0
102
RTVSPost2010PropOp49
 70
     1
102
RTVSPost2010Prop50
 90
       50
102
RTVSPost2010PropOp50
 70
     1
102
RTVSPost2010Prop51ColorIndex
 90
      256
102
RTVSPost2010Prop51ColorRGB
 90
-16777216
102
RTVSPost2010PropOp51
 70
     0
102
RTVSPost2010Prop52
140
1.0
102
RTVSPost2010PropOp52
 70
     0
102
RTVSPost2010Prop53
 90
        2
102
RTVSPost2010PropOp53
 70
     1
102
RTVSPost2010Prop54
  1
strokes_ogs.tif
102
RTVSPost2010PropOp54
 70
     1
102
RTVSPost2010Prop55
280
     0
102
RTVSPost2010PropOp55
 70
     1
102
RTVSPost2010Prop56
140
1.0
102
RTVSPost2010PropOp56
 70
     1
102
RTVSPost2010Prop57
140
1.0
102
RTVSPost2010PropOp57
 70
     1
  0
XRECORD
  5
81A
102
{ACAD_REACTORS
330
819
102
}
330
819
100
AcDbXrecord
280
     1
102
RTVSPost2010Prop28
280
     0
102
RTVSPost2010PropOp28
 70
     1
102
RTVSPost2010Prop29
280
     1
102
RTVSPost2010PropOp29
 70
     1
102
RTVSPost2010Prop30
280
     1
102
RTVSPost2010PropOp30
 70
     1
102
RTVSPost2010Prop31
280
     0
102
RTVSPost2010PropOp31
 70
     1
102
RTVSPost2010Prop32
280
     0
102
RTVSPost2010PropOp32
 70
     1
102
RTVSPost2010Prop33
280
     0
102
RTVSPost2010PropOp33
 70
     1
102
RTVSPost2010Prop34
280
     0
102
RTVSPost2010PropOp34
 70
     1
102
RTVSPost2010Prop35
280
     0
102
RTVSPost2010PropOp35
 70
     1
102
RTVSPost2010Prop36
280
     0
102
RTVSPost2010PropOp36
 70
     1
102
RTVSPost2010Prop37
 90
       50
102
RTVSPost2010PropOp37
 70
     1
102
RTVSPost2010Prop38
140
0.0
102
RTVSPost2010PropOp38
 70
     1
102
RTVSPost2010Prop39
140
1.0
102
RTVSPost2010PropOp39
 70
     1
102
RTVSPost2010Prop40
 90
        0
102
RTVSPost2010PropOp40
 70
     1
102
RTVSPost2010Prop41ColorIndex
 90
       18
102
RTVSPost2010Prop41ColorRGB
 90
        0
102
RTVSPost2010PropOp41
 70
     1
102
RTVSPost2010Prop42
 90
       50
102
RTVSPost2010PropOp42
 70
     1
102
RTVSPost2010Prop43
 90
        3
102
RTVSPost2010PropOp43
 70
     1
102
RTVSPost2010Prop44ColorIndex
 90
        5
102
RTVSPost2010Prop44ColorRGB
 90
      255
102
RTVSPost2010PropOp44
 70
     1
102
RTVSPost2010Prop45
280
     0
102
RTVSPost2010PropOp45
 70
     1
102
RTVSPost2010Prop46
 90
       50
102
RTVSPost2010PropOp46
 70
     1
102
RTVSPost2010Prop47
 90
       50
102
RTVSPost2010PropOp47
 70
     1
102
RTVSPost2010Prop48
 90
       50
102
RTVSPost2010PropOp48
 70
     1
102
RTVSPost2010Prop49
280
     0
102
RTVSPost2010PropOp49
 70
     1
102
RTVSPost2010Prop50
 90
       50
102
RTVSPost2010PropOp50
 70
     1
102
RTVSPost2010Prop51ColorIndex
 90
      256
102
RTVSPost2010Prop51ColorRGB
 90
-16777216
102
RTVSPost2010PropOp51
 70
     0
102
RTVSPost2010Prop52
140
1.0
102
RTVSPost2010PropOp52
 70
     0
102
RTVSPost2010Prop53
 90
        2
102
RTVSPost2010PropOp53
 70
     1
102
RTVSPost2010Prop54
  1
strokes_ogs.tif
102
RTVSPost2010PropOp54
 70
     1
102
RTVSPost2010Prop55
280
     0
102
RTVSPost2010PropOp55
 70
     1
102
RTVSPost2010Prop56
140
1.0
102
RTVSPost2010PropOp56
 70
     1
102
RTVSPost2010Prop57
140
1.0
102
RTVSPost2010PropOp57
 70
     1
  0
XRECORD
  5
836
102
{ACAD_REACTORS
330
835
102
}
330
835
100
AcDbXrecord
280
     1
102
RTVSPost2010Prop28
280
     0
102
RTVSPost2010PropOp28
 70
     1
102
RTVSPost2010Prop29
280
     1
102
RTVSPost2010PropOp29
 70
     1
102
RTVSPost2010Prop30
280
     1
102
RTVSPost2010PropOp30
 70
     1
102
RTVSPost2010Prop31
280
     0
102
RTVSPost2010PropOp31
 70
     1
102
RTVSPost2010Prop32
280
     0
102
RTVSPost2010PropOp32
 70
     1
102
RTVSPost2010Prop33
280
     0
102
RTVSPost2010PropOp33
 70
     1
102
RTVSPost2010Prop34
280
     0
102
RTVSPost2010PropOp34
 70
     1
102
RTVSPost2010Prop35
280
     0
102
RTVSPost2010PropOp35
 70
     1
102
RTVSPost2010Prop36
280
     0
102
RTVSPost2010PropOp36
 70
     1
102
RTVSPost2010Prop37
 90
       50
102
RTVSPost2010PropOp37
 70
     1
102
RTVSPost2010Prop38
140
0.0
102
RTVSPost2010PropOp38
 70
     1
102
RTVSPost2010Prop39
140
1.0
102
RTVSPost2010PropOp39
 70
     1
102
RTVSPost2010Prop40
 90
        0
102
RTVSPost2010PropOp40
 70
     1
102
RTVSPost2010Prop41ColorIndex
 90
       18
102
RTVSPost2010Prop41ColorRGB
 90
        0
102
RTVSPost2010PropOp41
 70
     1
102
RTVSPost2010Prop42
 90
       50
102
RTVSPost2010PropOp42
 70
     1
102
RTVSPost2010Prop43
 90
        3
102
RTVSPost2010PropOp43
 70
     1
102
RTVSPost2010Prop44ColorIndex
 90
        5
102
RTVSPost2010Prop44ColorRGB
 90
      255
102
RTVSPost2010PropOp44
 70
     1
102
RTVSPost2010Prop45
280
     0
102
RTVSPost2010PropOp45
 70
     1
102
RTVSPost2010Prop46
 90
       50
102
RTVSPost2010PropOp46
 70
     1
102
RTVSPost2010Prop47
 90
       50
102
RTVSPost2010PropOp47
 70
     1
102
RTVSPost2010Prop48
 90
       50
102
RTVSPost2010PropOp48
 70
     1
102
RTVSPost2010Prop49
280
     0
102
RTVSPost2010PropOp49
 70
     1
102
RTVSPost2010Prop50
 90
       50
102
RTVSPost2010PropOp50
 70
     1
102
RTVSPost2010Prop51ColorIndex
 90
      256
102
RTVSPost2010Prop51ColorRGB
 90
-16777216
102
RTVSPost2010PropOp51
 70
     0
102
RTVSPost2010Prop52
140
1.0
102
RTVSPost2010PropOp52
 70
     0
102
RTVSPost2010Prop53
 90
        2
102
RTVSPost2010PropOp53
 70
     1
102
RTVSPost2010Prop54
  1
strokes_ogs.tif
102
RTVSPost2010PropOp54
 70
     1
102
RTVSPost2010Prop55
280
     0
102
RTVSPost2010PropOp55
 70
     1
102
RTVSPost2010Prop56
140
1.0
102
RTVSPost2010PropOp56
 70
     1
102
RTVSPost2010Prop57
140
1.0
102
RTVSPost2010PropOp57
 70
     1
  0
XRECORD
  5
842
102
{ACAD_REACTORS
330
841
102
}
330
841
100
AcDbXrecord
280
     1
102
RTVSPost2010Prop28
280
     0
102
RTVSPost2010PropOp28
 70
     0
102
RTVSPost2010Prop29
280
     1
102
RTVSPost2010PropOp29
 70
     0
102
RTVSPost2010Prop30
280
     1
102
RTVSPost2010PropOp30
 70
     0
102
RTVSPost2010Prop31
280
     0
102
RTVSPost2010PropOp31
 70
     0
102
RTVSPost2010Prop32
280
     0
102
RTVSPost2010PropOp32
 70
     0
102
RTVSPost2010Prop33
280
     0
102
RTVSPost2010PropOp33
 70
     0
102
RTVSPost2010Prop34
280
     0
102
RTVSPost2010PropOp34
 70
     0
102
RTVSPost2010Prop35
280
     0
102
RTVSPost2010PropOp35
 70
     0
102
RTVSPost2010Prop36
280
     0
102
RTVSPost2010PropOp36
 70
     0
102
RTVSPost2010Prop37
 90
       50
102
RTVSPost2010PropOp37
 70
     0
102
RTVSPost2010Prop38
140
0.0
102
RTVSPost2010PropOp38
 70
     0
102
RTVSPost2010Prop39
140
1.0
102
RTVSPost2010PropOp39
 70
     0
102
RTVSPost2010Prop40
 90
        0
102
RTVSPost2010PropOp40
 70
     0
102
RTVSPost2010Prop41ColorIndex
 90
       18
102
RTVSPost2010Prop41ColorRGB
 90
        0
102
RTVSPost2010PropOp41
 70
     0
102
RTVSPost2010Prop42
 90
       50
102
RTVSPost2010PropOp42
 70
     0
102
RTVSPost2010Prop43
 90
        3
102
RTVSPost2010PropOp43
 70
     0
102
RTVSPost2010Prop44ColorIndex
 90
        5
102
RTVSPost2010Prop44ColorRGB
 90
      255
102
RTVSPost2010PropOp44
 70
     0
102
RTVSPost2010Prop45
280
     0
102
RTVSPost2010PropOp45
 70
     0
102
RTVSPost2010Prop46
 90
       50
102
RTVSPost2010PropOp46
 70
     0
102
RTVSPost2010Prop47
 90
       50
102
RTVSPost2010PropOp47
 70
     0
102
RTVSPost2010Prop48
 90
       50
102
RTVSPost2010PropOp48
 70
     0
102
RTVSPost2010Prop49
280
     0
102
RTVSPost2010PropOp49
 70
     0
102
RTVSPost2010Prop50
 90
       50
102
RTVSPost2010PropOp50
 70
     0
102
RTVSPost2010Prop51ColorIndex
 90
      256
102
RTVSPost2010Prop51ColorRGB
 90
-16777216
102
RTVSPost2010PropOp51
 70
     0
102
RTVSPost2010Prop52
140
1.0
102
RTVSPost2010PropOp52
 70
     0
102
RTVSPost2010Prop53
 90
        2
102
RTVSPost2010PropOp53
 70
     0
102
RTVSPost2010Prop54
  1
strokes_ogs.tif
102
RTVSPost2010PropOp54
 70
     0
102
RTVSPost2010Prop55
280
     0
102
RTVSPost2010PropOp55
 70
     0
102
RTVSPost2010Prop56
140
1.0
102
RTVSPost2010PropOp56
 70
     0
102
RTVSPost2010Prop57
140
1.0
102
RTVSPost2010PropOp57
 70
     0
  0
XRECORD
  5
82E
102
{ACAD_REACTORS
330
82D
102
}
330
82D
100
AcDbXrecord
280
     1
102
RTVSPost2010Prop28
280
     0
102
RTVSPost2010PropOp28
 70
     1
102
RTVSPost2010Prop29
280
     1
102
RTVSPost2010PropOp29
 70
     1
102
RTVSPost2010Prop30
280
     1
102
RTVSPost2010PropOp30
 70
     1
102
RTVSPost2010Prop31
280
     0
102
RTVSPost2010PropOp31
 70
     1
102
RTVSPost2010Prop32
280
     0
102
RTVSPost2010PropOp32
 70
     1
102
RTVSPost2010Prop33
280
     0
102
RTVSPost2010PropOp33
 70
     1
102
RTVSPost2010Prop34
280
     0
102
RTVSPost2010PropOp34
 70
     1
102
RTVSPost2010Prop35
280
     0
102
RTVSPost2010PropOp35
 70
     1
102
RTVSPost2010Prop36
280
     0
102
RTVSPost2010PropOp36
 70
     1
102
RTVSPost2010Prop37
 90
       50
102
RTVSPost2010PropOp37
 70
     1
102
RTVSPost2010Prop38
140
0.0
102
RTVSPost2010PropOp38
 70
     1
102
RTVSPost2010Prop39
140
1.0
102
RTVSPost2010PropOp39
 70
     1
102
RTVSPost2010Prop40
 90
        0
102
RTVSPost2010PropOp40
 70
     1
102
RTVSPost2010Prop41ColorIndex
 90
       18
102
RTVSPost2010Prop41ColorRGB
 90
        0
102
RTVSPost2010PropOp41
 70
     1
102
RTVSPost2010Prop42
 90
       50
102
RTVSPost2010PropOp42
 70
     1
102
RTVSPost2010Prop43
 90
        3
102
RTVSPost2010PropOp43
 70
     1
102
RTVSPost2010Prop44ColorIndex
 90
        5
102
RTVSPost2010Prop44ColorRGB
 90
      255
102
RTVSPost2010PropOp44
 70
     1
102
RTVSPost2010Prop45
280
     0
102
RTVSPost2010PropOp45
 70
     1
102
RTVSPost2010Prop46
 90
       50
102
RTVSPost2010PropOp46
 70
     1
102
RTVSPost2010Prop47
 90
       50
102
RTVSPost2010PropOp47
 70
     1
102
RTVSPost2010Prop48
 90
       50
102
RTVSPost2010PropOp48
 70
     1
102
RTVSPost2010Prop49
280
     0
102
RTVSPost2010PropOp49
 70
     1
102
RTVSPost2010Prop50
 90
       50
102
RTVSPost2010PropOp50
 70
     1
102
RTVSPost2010Prop51ColorIndex
 90
      256
102
RTVSPost2010Prop51ColorRGB
 90
-16777216
102
RTVSPost2010PropOp51
 70
     0
102
RTVSPost2010Prop52
140
1.0
102
RTVSPost2010PropOp52
 70
     0
102
RTVSPost2010Prop53
 90
        2
102
RTVSPost2010PropOp53
 70
     1
102
RTVSPost2010Prop54
  1
strokes_ogs.tif
102
RTVSPost2010PropOp54
 70
     1
102
RTVSPost2010Prop55
280
     0
102
RTVSPost2010PropOp55
 70
     1
102
RTVSPost2010Prop56
140
1.0
102
RTVSPost2010PropOp56
 70
     1
102
RTVSPost2010Prop57
140
1.0
102
RTVSPost2010PropOp57
 70
     1
  0
XRECORD
  5
844
102
{ACAD_REACTORS
330
843
102
}
330
843
100
AcDbXrecord
280
     1
102
RTVSPost2010Prop28
280
     0
102
RTVSPost2010PropOp28
 70
     0
102
RTVSPost2010Prop29
280
     1
102
RTVSPost2010PropOp29
 70
     0
102
RTVSPost2010Prop30
280
     1
102
RTVSPost2010PropOp30
 70
     0
102
RTVSPost2010Prop31
280
     0
102
RTVSPost2010PropOp31
 70
     0
102
RTVSPost2010Prop32
280
     0
102
RTVSPost2010PropOp32
 70
     0
102
RTVSPost2010Prop33
280
     0
102
RTVSPost2010PropOp33
 70
     0
102
RTVSPost2010Prop34
280
     0
102
RTVSPost2010PropOp34
 70
     0
102
RTVSPost2010Prop35
280
     0
102
RTVSPost2010PropOp35
 70
     0
102
RTVSPost2010Prop36
280
     0
102
RTVSPost2010PropOp36
 70
     0
102
RTVSPost2010Prop37
 90
       50
102
RTVSPost2010PropOp37
 70
     0
102
RTVSPost2010Prop38
140
0.0
102
RTVSPost2010PropOp38
 70
     0
102
RTVSPost2010Prop39
140
1.0
102
RTVSPost2010PropOp39
 70
     0
102
RTVSPost2010Prop40
 90
        0
102
RTVSPost2010PropOp40
 70
     0
102
RTVSPost2010Prop41ColorIndex
 90
       18
102
RTVSPost2010Prop41ColorRGB
 90
        0
102
RTVSPost2010PropOp41
 70
     0
102
RTVSPost2010Prop42
 90
       50
102
RTVSPost2010PropOp42
 70
     0
102
RTVSPost2010Prop43
 90
        3
102
RTVSPost2010PropOp43
 70
     0
102
RTVSPost2010Prop44ColorIndex
 90
        5
102
RTVSPost2010Prop44ColorRGB
 90
      255
102
RTVSPost2010PropOp44
 70
     0
102
RTVSPost2010Prop45
280
     0
102
RTVSPost2010PropOp45
 70
     0
102
RTVSPost2010Prop46
 90
       50
102
RTVSPost2010PropOp46
 70
     0
102
RTVSPost2010Prop47
 90
       50
102
RTVSPost2010PropOp47
 70
     0
102
RTVSPost2010Prop48
 90
       50
102
RTVSPost2010PropOp48
 70
     0
102
RTVSPost2010Prop49
280
     0
102
RTVSPost2010PropOp49
 70
     0
102
RTVSPost2010Prop50
 90
       50
102
RTVSPost2010PropOp50
 70
     0
102
RTVSPost2010Prop51ColorIndex
 90
      256
102
RTVSPost2010Prop51ColorRGB
 90
-16777216
102
RTVSPost2010PropOp51
 70
     0
102
RTVSPost2010Prop52
140
1.0
102
RTVSPost2010PropOp52
 70
     0
102
RTVSPost2010Prop53
 90
        2
102
RTVSPost2010PropOp53
 70
     0
102
RTVSPost2010Prop54
  1
strokes_ogs.tif
102
RTVSPost2010PropOp54
 70
     0
102
RTVSPost2010Prop55
280
     0
102
RTVSPost2010PropOp55
 70
     0
102
RTVSPost2010Prop56
140
1.0
102
RTVSPost2010PropOp56
 70
     0
102
RTVSPost2010Prop57
140
1.0
102
RTVSPost2010PropOp57
 70
     0
  0
XRECORD
  5
824
102
{ACAD_REACTORS
330
823
102
}
330
823
100
AcDbXrecord
280
     1
102
RTVSPost2010Prop28
280
     0
102
RTVSPost2010PropOp28
 70
     1
102
RTVSPost2010Prop29
280
     1
102
RTVSPost2010PropOp29
 70
     1
102
RTVSPost2010Prop30
280
     1
102
RTVSPost2010PropOp30
 70
     1
102
RTVSPost2010Prop31
280
     0
102
RTVSPost2010PropOp31
 70
     1
102
RTVSPost2010Prop32
280
     0
102
RTVSPost2010PropOp32
 70
     1
102
RTVSPost2010Prop33
280
     0
102
RTVSPost2010PropOp33
 70
     1
102
RTVSPost2010Prop34
280
     0
102
RTVSPost2010PropOp34
 70
     1
102
RTVSPost2010Prop35
280
     0
102
RTVSPost2010PropOp35
 70
     1
102
RTVSPost2010Prop36
280
     0
102
RTVSPost2010PropOp36
 70
     1
102
RTVSPost2010Prop37
 90
       50
102
RTVSPost2010PropOp37
 70
     1
102
RTVSPost2010Prop38
140
0.0
102
RTVSPost2010PropOp38
 70
     1
102
RTVSPost2010Prop39
140
1.0
102
RTVSPost2010PropOp39
 70
     1
102
RTVSPost2010Prop40
 90
        0
102
RTVSPost2010PropOp40
 70
     1
102
RTVSPost2010Prop41ColorIndex
 90
       18
102
RTVSPost2010Prop41ColorRGB
 90
        0
102
RTVSPost2010PropOp41
 70
     1
102
RTVSPost2010Prop42
 90
       50
102
RTVSPost2010PropOp42
 70
     1
102
RTVSPost2010Prop43
 90
        3
102
RTVSPost2010PropOp43
 70
     1
102
RTVSPost2010Prop44ColorIndex
 90
        5
102
RTVSPost2010Prop44ColorRGB
 90
      255
102
RTVSPost2010PropOp44
 70
     1
102
RTVSPost2010Prop45
280
     0
102
RTVSPost2010PropOp45
 70
     1
102
RTVSPost2010Prop46
 90
       50
102
RTVSPost2010PropOp46
 70
     1
102
RTVSPost2010Prop47
 90
       50
102
RTVSPost2010PropOp47
 70
     1
102
RTVSPost2010Prop48
 90
       50
102
RTVSPost2010PropOp48
 70
     1
102
RTVSPost2010Prop49
280
     0
102
RTVSPost2010PropOp49
 70
     1
102
RTVSPost2010Prop50
 90
       50
102
RTVSPost2010PropOp50
 70
     1
102
RTVSPost2010Prop51ColorIndex
 90
      256
102
RTVSPost2010Prop51ColorRGB
 90
-16777216
102
RTVSPost2010PropOp51
 70
     0
102
RTVSPost2010Prop52
140
1.0
102
RTVSPost2010PropOp52
 70
     0
102
RTVSPost2010Prop53
 90
        2
102
RTVSPost2010PropOp53
 70
     1
102
RTVSPost2010Prop54
  1
strokes_ogs.tif
102
RTVSPost2010PropOp54
 70
     1
102
RTVSPost2010Prop55
280
     0
102
RTVSPost2010PropOp55
 70
     1
102
RTVSPost2010Prop56
140
1.0
102
RTVSPost2010PropOp56
 70
     1
102
RTVSPost2010Prop57
140
1.0
102
RTVSPost2010PropOp57
 70
     1
  0
XRECORD
  5
840
102
{ACAD_REACTORS
330
83F
102
}
330
83F
100
AcDbXrecord
280
     1
102
RTVSPost2010Prop28
280
     0
102
RTVSPost2010PropOp28
 70
     1
102
RTVSPost2010Prop29
280
     1
102
RTVSPost2010PropOp29
 70
     1
102
RTVSPost2010Prop30
280
     1
102
RTVSPost2010PropOp30
 70
     1
102
RTVSPost2010Prop31
280
     0
102
RTVSPost2010PropOp31
 70
     1
102
RTVSPost2010Prop32
280
     0
102
RTVSPost2010PropOp32
 70
     1
102
RTVSPost2010Prop33
280
     0
102
RTVSPost2010PropOp33
 70
     1
102
RTVSPost2010Prop34
280
     0
102
RTVSPost2010PropOp34
 70
     1
102
RTVSPost2010Prop35
280
     0
102
RTVSPost2010PropOp35
 70
     1
102
RTVSPost2010Prop36
280
     0
102
RTVSPost2010PropOp36
 70
     1
102
RTVSPost2010Prop37
 90
       50
102
RTVSPost2010PropOp37
 70
     1
102
RTVSPost2010Prop38
140
0.0
102
RTVSPost2010PropOp38
 70
     1
102
RTVSPost2010Prop39
140
1.0
102
RTVSPost2010PropOp39
 70
     1
102
RTVSPost2010Prop40
 90
        0
102
RTVSPost2010PropOp40
 70
     1
102
RTVSPost2010Prop41ColorIndex
 90
       18
102
RTVSPost2010Prop41ColorRGB
 90
        0
102
RTVSPost2010PropOp41
 70
     1
102
RTVSPost2010Prop42
 90
       50
102
RTVSPost2010PropOp42
 70
     1
102
RTVSPost2010Prop43
 90
        3
102
RTVSPost2010PropOp43
 70
     1
102
RTVSPost2010Prop44ColorIndex
 90
        5
102
RTVSPost2010Prop44ColorRGB
 90
      255
102
RTVSPost2010PropOp44
 70
     1
102
RTVSPost2010Prop45
280
     0
102
RTVSPost2010PropOp45
 70
     1
102
RTVSPost2010Prop46
 90
       50
102
RTVSPost2010PropOp46
 70
     1
102
RTVSPost2010Prop47
 90
       50
102
RTVSPost2010PropOp47
 70
     1
102
RTVSPost2010Prop48
 90
       50
102
RTVSPost2010PropOp48
 70
     1
102
RTVSPost2010Prop49
280
     0
102
RTVSPost2010PropOp49
 70
     1
102
RTVSPost2010Prop50
 90
       50
102
RTVSPost2010PropOp50
 70
     1
102
RTVSPost2010Prop51ColorIndex
 90
      256
102
RTVSPost2010Prop51ColorRGB
 90
-16777216
102
RTVSPost2010PropOp51
 70
     0
102
RTVSPost2010Prop52
140
1.0
102
RTVSPost2010PropOp52
 70
     0
102
RTVSPost2010Prop53
 90
        2
102
RTVSPost2010PropOp53
 70
     1
102
RTVSPost2010Prop54
  1
strokes_ogs.tif
102
RTVSPost2010PropOp54
 70
     1
102
RTVSPost2010Prop55
280
     0
102
RTVSPost2010PropOp55
 70
     1
102
RTVSPost2010Prop56
140
1.0
102
RTVSPost2010PropOp56
 70
     1
102
RTVSPost2010Prop57
140
1.0
102
RTVSPost2010PropOp57
 70
     1
  0
XRECORD
  5
83E
102
{ACAD_REACTORS
330
83D
102
}
330
83D
100
AcDbXrecord
280
     1
102
RTVSPost2010Prop28
280
     0
102
RTVSPost2010PropOp28
 70
     1
102
RTVSPost2010Prop29
280
     1
102
RTVSPost2010PropOp29
 70
     1
102
RTVSPost2010Prop30
280
     1
102
RTVSPost2010PropOp30
 70
     1
102
RTVSPost2010Prop31
280
     0
102
RTVSPost2010PropOp31
 70
     1
102
RTVSPost2010Prop32
280
     0
102
RTVSPost2010PropOp32
 70
     1
102
RTVSPost2010Prop33
280
     0
102
RTVSPost2010PropOp33
 70
     1
102
RTVSPost2010Prop34
280
     0
102
RTVSPost2010PropOp34
 70
     1
102
RTVSPost2010Prop35
280
     0
102
RTVSPost2010PropOp35
 70
     1
102
RTVSPost2010Prop36
280
     0
102
RTVSPost2010PropOp36
 70
     1
102
RTVSPost2010Prop37
 90
       50
102
RTVSPost2010PropOp37
 70
     1
102
RTVSPost2010Prop38
140
0.0
102
RTVSPost2010PropOp38
 70
     1
102
RTVSPost2010Prop39
140
1.0
102
RTVSPost2010PropOp39
 70
     1
102
RTVSPost2010Prop40
 90
        0
102
RTVSPost2010PropOp40
 70
     1
102
RTVSPost2010Prop41ColorIndex
 90
       18
102
RTVSPost2010Prop41ColorRGB
 90
        0
102
RTVSPost2010PropOp41
 70
     1
102
RTVSPost2010Prop42
 90
       50
102
RTVSPost2010PropOp42
 70
     1
102
RTVSPost2010Prop43
 90
        3
102
RTVSPost2010PropOp43
 70
     1
102
RTVSPost2010Prop44ColorIndex
 90
        5
102
RTVSPost2010Prop44ColorRGB
 90
      255
102
RTVSPost2010PropOp44
 70
     1
102
RTVSPost2010Prop45
280
     0
102
RTVSPost2010PropOp45
 70
     1
102
RTVSPost2010Prop46
 90
       50
102
RTVSPost2010PropOp46
 70
     1
102
RTVSPost2010Prop47
 90
       50
102
RTVSPost2010PropOp47
 70
     1
102
RTVSPost2010Prop48
 90
       50
102
RTVSPost2010PropOp48
 70
     1
102
RTVSPost2010Prop49
280
     0
102
RTVSPost2010PropOp49
 70
     1
102
RTVSPost2010Prop50
 90
       50
102
RTVSPost2010PropOp50
 70
     1
102
RTVSPost2010Prop51ColorIndex
 90
      256
102
RTVSPost2010Prop51ColorRGB
 90
-16777216
102
RTVSPost2010PropOp51
 70
     0
102
RTVSPost2010Prop52
140
1.0
102
RTVSPost2010PropOp52
 70
     0
102
RTVSPost2010Prop53
 90
        2
102
RTVSPost2010PropOp53
 70
     1
102
RTVSPost2010Prop54
  1
strokes_ogs.tif
102
RTVSPost2010PropOp54
 70
     1
102
RTVSPost2010Prop55
280
     0
102
RTVSPost2010PropOp55
 70
     1
102
RTVSPost2010Prop56
140
1.0
102
RTVSPost2010PropOp56
 70
     1
102
RTVSPost2010Prop57
140
1.0
102
RTVSPost2010PropOp57
 70
     1
  0
XRECORD
  5
838
102
{ACAD_REACTORS
330
837
102
}
330
837
100
AcDbXrecord
280
     1
102
RTVSPost2010Prop28
280
     0
102
RTVSPost2010PropOp28
 70
     1
102
RTVSPost2010Prop29
280
     1
102
RTVSPost2010PropOp29
 70
     1
102
RTVSPost2010Prop30
280
     1
102
RTVSPost2010PropOp30
 70
     1
102
RTVSPost2010Prop31
280
     0
102
RTVSPost2010PropOp31
 70
     1
102
RTVSPost2010Prop32
280
     0
102
RTVSPost2010PropOp32
 70
     1
102
RTVSPost2010Prop33
280
     0
102
RTVSPost2010PropOp33
 70
     1
102
RTVSPost2010Prop34
280
     0
102
RTVSPost2010PropOp34
 70
     1
102
RTVSPost2010Prop35
280
     0
102
RTVSPost2010PropOp35
 70
     1
102
RTVSPost2010Prop36
280
     0
102
RTVSPost2010PropOp36
 70
     1
102
RTVSPost2010Prop37
 90
       50
102
RTVSPost2010PropOp37
 70
     1
102
RTVSPost2010Prop38
140
0.0
102
RTVSPost2010PropOp38
 70
     1
102
RTVSPost2010Prop39
140
1.0
102
RTVSPost2010PropOp39
 70
     1
102
RTVSPost2010Prop40
 90
        0
102
RTVSPost2010PropOp40
 70
     1
102
RTVSPost2010Prop41ColorIndex
 90
       18
102
RTVSPost2010Prop41ColorRGB
 90
        0
102
RTVSPost2010PropOp41
 70
     1
102
RTVSPost2010Prop42
 90
       50
102
RTVSPost2010PropOp42
 70
     1
102
RTVSPost2010Prop43
 90
        3
102
RTVSPost2010PropOp43
 70
     1
102
RTVSPost2010Prop44ColorIndex
 90
        5
102
RTVSPost2010Prop44ColorRGB
 90
      255
102
RTVSPost2010PropOp44
 70
     1
102
RTVSPost2010Prop45
280
     0
102
RTVSPost2010PropOp45
 70
     1
102
RTVSPost2010Prop46
 90
       50
102
RTVSPost2010PropOp46
 70
     1
102
RTVSPost2010Prop47
 90
       50
102
RTVSPost2010PropOp47
 70
     1
102
RTVSPost2010Prop48
 90
       50
102
RTVSPost2010PropOp48
 70
     1
102
RTVSPost2010Prop49
280
     0
102
RTVSPost2010PropOp49
 70
     1
102
RTVSPost2010Prop50
 90
       50
102
RTVSPost2010PropOp50
 70
     1
102
RTVSPost2010Prop51ColorIndex
 90
      256
102
RTVSPost2010Prop51ColorRGB
 90
-16777216
102
RTVSPost2010PropOp51
 70
     0
102
RTVSPost2010Prop52
140
1.0
102
RTVSPost2010PropOp52
 70
     0
102
RTVSPost2010Prop53
 90
        2
102
RTVSPost2010PropOp53
 70
     1
102
RTVSPost2010Prop54
  1
strokes_ogs.tif
102
RTVSPost2010PropOp54
 70
     1
102
RTVSPost2010Prop55
280
     0
102
RTVSPost2010PropOp55
 70
     1
102
RTVSPost2010Prop56
140
1.0
102
RTVSPost2010PropOp56
 70
     1
102
RTVSPost2010Prop57
140
1.0
102
RTVSPost2010PropOp57
 70
     1
  0
XRECORD
  5
83A
102
{ACAD_REACTORS
330
839
102
}
330
839
100
AcDbXrecord
280
     1
102
RTVSPost2010Prop28
280
     0
102
RTVSPost2010PropOp28
 70
     1
102
RTVSPost2010Prop29
280
     1
102
RTVSPost2010PropOp29
 70
     1
102
RTVSPost2010Prop30
280
     1
102
RTVSPost2010PropOp30
 70
     1
102
RTVSPost2010Prop31
280
     0
102
RTVSPost2010PropOp31
 70
     1
102
RTVSPost2010Prop32
280
     0
102
RTVSPost2010PropOp32
 70
     1
102
RTVSPost2010Prop33
280
     0
102
RTVSPost2010PropOp33
 70
     1
102
RTVSPost2010Prop34
280
     0
102
RTVSPost2010PropOp34
 70
     1
102
RTVSPost2010Prop35
280
     0
102
RTVSPost2010PropOp35
 70
     1
102
RTVSPost2010Prop36
280
     0
102
RTVSPost2010PropOp36
 70
     1
102
RTVSPost2010Prop37
 90
       50
102
RTVSPost2010PropOp37
 70
     1
102
RTVSPost2010Prop38
140
0.0
102
RTVSPost2010PropOp38
 70
     1
102
RTVSPost2010Prop39
140
1.0
102
RTVSPost2010PropOp39
 70
     1
102
RTVSPost2010Prop40
 90
        0
102
RTVSPost2010PropOp40
 70
     1
102
RTVSPost2010Prop41ColorIndex
 90
       18
102
RTVSPost2010Prop41ColorRGB
 90
        0
102
RTVSPost2010PropOp41
 70
     1
102
RTVSPost2010Prop42
 90
       50
102
RTVSPost2010PropOp42
 70
     1
102
RTVSPost2010Prop43
 90
        3
102
RTVSPost2010PropOp43
 70
     1
102
RTVSPost2010Prop44ColorIndex
 90
        5
102
RTVSPost2010Prop44ColorRGB
 90
      255
102
RTVSPost2010PropOp44
 70
     1
102
RTVSPost2010Prop45
280
     0
102
RTVSPost2010PropOp45
 70
     1
102
RTVSPost2010Prop46
 90
       50
102
RTVSPost2010PropOp46
 70
     1
102
RTVSPost2010Prop47
 90
       50
102
RTVSPost2010PropOp47
 70
     1
102
RTVSPost2010Prop48
 90
       50
102
RTVSPost2010PropOp48
 70
     1
102
RTVSPost2010Prop49
280
     0
102
RTVSPost2010PropOp49
 70
     1
102
RTVSPost2010Prop50
 90
       50
102
RTVSPost2010PropOp50
 70
     1
102
RTVSPost2010Prop51ColorIndex
 90
      256
102
RTVSPost2010Prop51ColorRGB
 90
-16777216
102
RTVSPost2010PropOp51
 70
     0
102
RTVSPost2010Prop52
140
1.0
102
RTVSPost2010PropOp52
 70
     0
102
RTVSPost2010Prop53
 90
        2
102
RTVSPost2010PropOp53
 70
     1
102
RTVSPost2010Prop54
  1
strokes_ogs.tif
102
RTVSPost2010PropOp54
 70
     1
102
RTVSPost2010Prop55
280
     0
102
RTVSPost2010PropOp55
 70
     1
102
RTVSPost2010Prop56
140
1.0
102
RTVSPost2010PropOp56
 70
     1
102
RTVSPost2010Prop57
140
1.0
102
RTVSPost2010PropOp57
 70
     1
  0
XRECORD
  5
82C
102
{ACAD_REACTORS
330
82B
102
}
330
82B
100
AcDbXrecord
280
     1
102
RTVSPost2010Prop28
280
     0
102
RTVSPost2010PropOp28
 70
     1
102
RTVSPost2010Prop29
280
     1
102
RTVSPost2010PropOp29
 70
     1
102
RTVSPost2010Prop30
280
     1
102
RTVSPost2010PropOp30
 70
     1
102
RTVSPost2010Prop31
280
     0
102
RTVSPost2010PropOp31
 70
     1
102
RTVSPost2010Prop32
280
     0
102
RTVSPost2010PropOp32
 70
     1
102
RTVSPost2010Prop33
280
     0
102
RTVSPost2010PropOp33
 70
     1
102
RTVSPost2010Prop34
280
     0
102
RTVSPost2010PropOp34
 70
     1
102
RTVSPost2010Prop35
280
     0
102
RTVSPost2010PropOp35
 70
     1
102
RTVSPost2010Prop36
280
     0
102
RTVSPost2010PropOp36
 70
     1
102
RTVSPost2010Prop37
 90
       50
102
RTVSPost2010PropOp37
 70
     1
102
RTVSPost2010Prop38
140
0.0
102
RTVSPost2010PropOp38
 70
     1
102
RTVSPost2010Prop39
140
1.0
102
RTVSPost2010PropOp39
 70
     1
102
RTVSPost2010Prop40
 90
        0
102
RTVSPost2010PropOp40
 70
     1
102
RTVSPost2010Prop41ColorIndex
 90
       18
102
RTVSPost2010Prop41ColorRGB
 90
        0
102
RTVSPost2010PropOp41
 70
     1
102
RTVSPost2010Prop42
 90
       50
102
RTVSPost2010PropOp42
 70
     1
102
RTVSPost2010Prop43
 90
        3
102
RTVSPost2010PropOp43
 70
     1
102
RTVSPost2010Prop44ColorIndex
 90
        5
102
RTVSPost2010Prop44ColorRGB
 90
      255
102
RTVSPost2010PropOp44
 70
     1
102
RTVSPost2010Prop45
280
     0
102
RTVSPost2010PropOp45
 70
     1
102
RTVSPost2010Prop46
 90
       50
102
RTVSPost2010PropOp46
 70
     1
102
RTVSPost2010Prop47
 90
       50
102
RTVSPost2010PropOp47
 70
     1
102
RTVSPost2010Prop48
 90
       50
102
RTVSPost2010PropOp48
 70
     1
102
RTVSPost2010Prop49
280
     0
102
RTVSPost2010PropOp49
 70
     1
102
RTVSPost2010Prop50
 90
       50
102
RTVSPost2010PropOp50
 70
     1
102
RTVSPost2010Prop51ColorIndex
 90
      256
102
RTVSPost2010Prop51ColorRGB
 90
-16777216
102
RTVSPost2010PropOp51
 70
     0
102
RTVSPost2010Prop52
140
1.0
102
RTVSPost2010PropOp52
 70
     0
102
RTVSPost2010Prop53
 90
        2
102
RTVSPost2010PropOp53
 70
     1
102
RTVSPost2010Prop54
  1
strokes_ogs.tif
102
RTVSPost2010PropOp54
 70
     1
102
RTVSPost2010Prop55
280
     0
102
RTVSPost2010PropOp55
 70
     1
102
RTVSPost2010Prop56
140
1.0
102
RTVSPost2010PropOp56
 70
     1
102
RTVSPost2010Prop57
140
1.0
102
RTVSPost2010PropOp57
 70
     1
  0
XRECORD
  5
834
102
{ACAD_REACTORS
330
833
102
}
330
833
100
AcDbXrecord
280
     1
102
RTVSPost2010Prop28
280
     0
102
RTVSPost2010PropOp28
 70
     1
102
RTVSPost2010Prop29
280
     1
102
RTVSPost2010PropOp29
 70
     1
102
RTVSPost2010Prop30
280
     1
102
RTVSPost2010PropOp30
 70
     1
102
RTVSPost2010Prop31
280
     0
102
RTVSPost2010PropOp31
 70
     1
102
RTVSPost2010Prop32
280
     0
102
RTVSPost2010PropOp32
 70
     1
102
RTVSPost2010Prop33
280
     0
102
RTVSPost2010PropOp33
 70
     1
102
RTVSPost2010Prop34
280
     0
102
RTVSPost2010PropOp34
 70
     1
102
RTVSPost2010Prop35
280
     0
102
RTVSPost2010PropOp35
 70
     1
102
RTVSPost2010Prop36
280
     0
102
RTVSPost2010PropOp36
 70
     1
102
RTVSPost2010Prop37
 90
       50
102
RTVSPost2010PropOp37
 70
     1
102
RTVSPost2010Prop38
140
0.0
102
RTVSPost2010PropOp38
 70
     1
102
RTVSPost2010Prop39
140
1.0
102
RTVSPost2010PropOp39
 70
     1
102
RTVSPost2010Prop40
 90
        0
102
RTVSPost2010PropOp40
 70
     1
102
RTVSPost2010Prop41ColorIndex
 90
       18
102
RTVSPost2010Prop41ColorRGB
 90
        0
102
RTVSPost2010PropOp41
 70
     1
102
RTVSPost2010Prop42
 90
       50
102
RTVSPost2010PropOp42
 70
     1
102
RTVSPost2010Prop43
 90
        3
102
RTVSPost2010PropOp43
 70
     1
102
RTVSPost2010Prop44ColorIndex
 90
        5
102
RTVSPost2010Prop44ColorRGB
 90
      255
102
RTVSPost2010PropOp44
 70
     1
102
RTVSPost2010Prop45
280
     0
102
RTVSPost2010PropOp45
 70
     1
102
RTVSPost2010Prop46
 90
       50
102
RTVSPost2010PropOp46
 70
     1
102
RTVSPost2010Prop47
 90
       50
102
RTVSPost2010PropOp47
 70
     1
102
RTVSPost2010Prop48
 90
       50
102
RTVSPost2010PropOp48
 70
     1
102
RTVSPost2010Prop49
280
     0
102
RTVSPost2010PropOp49
 70
     1
102
RTVSPost2010Prop50
 90
       50
102
RTVSPost2010PropOp50
 70
     1
102
RTVSPost2010Prop51ColorIndex
 90
      256
102
RTVSPost2010Prop51ColorRGB
 90
-16777216
102
RTVSPost2010PropOp51
 70
     0
102
RTVSPost2010Prop52
140
1.0
102
RTVSPost2010PropOp52
 70
     0
102
RTVSPost2010Prop53
 90
        2
102
RTVSPost2010PropOp53
 70
     1
102
RTVSPost2010Prop54
  1
strokes_ogs.tif
102
RTVSPost2010PropOp54
 70
     1
102
RTVSPost2010Prop55
280
     0
102
RTVSPost2010PropOp55
 70
     1
102
RTVSPost2010Prop56
140
1.0
102
RTVSPost2010PropOp56
 70
     1
102
RTVSPost2010Prop57
140
1.0
102
RTVSPost2010PropOp57
 70
     1
  0
XRECORD
  5
83C
102
{ACAD_REACTORS
330
83B
102
}
330
83B
100
AcDbXrecord
280
     1
102
RTVSPost2010Prop28
280
     0
102
RTVSPost2010PropOp28
 70
     1
102
RTVSPost2010Prop29
280
     1
102
RTVSPost2010PropOp29
 70
     1
102
RTVSPost2010Prop30
280
     1
102
RTVSPost2010PropOp30
 70
     1
102
RTVSPost2010Prop31
280
     0
102
RTVSPost2010PropOp31
 70
     1
102
RTVSPost2010Prop32
280
     0
102
RTVSPost2010PropOp32
 70
     1
102
RTVSPost2010Prop33
280
     0
102
RTVSPost2010PropOp33
 70
     1
102
RTVSPost2010Prop34
280
     0
102
RTVSPost2010PropOp34
 70
     1
102
RTVSPost2010Prop35
280
     0
102
RTVSPost2010PropOp35
 70
     1
102
RTVSPost2010Prop36
280
     0
102
RTVSPost2010PropOp36
 70
     1
102
RTVSPost2010Prop37
 90
       50
102
RTVSPost2010PropOp37
 70
     1
102
RTVSPost2010Prop38
140
0.0
102
RTVSPost2010PropOp38
 70
     1
102
RTVSPost2010Prop39
140
1.0
102
RTVSPost2010PropOp39
 70
     1
102
RTVSPost2010Prop40
 90
        0
102
RTVSPost2010PropOp40
 70
     1
102
RTVSPost2010Prop41ColorIndex
 90
       18
102
RTVSPost2010Prop41ColorRGB
 90
        0
102
RTVSPost2010PropOp41
 70
     1
102
RTVSPost2010Prop42
 90
       50
102
RTVSPost2010PropOp42
 70
     1
102
RTVSPost2010Prop43
 90
        3
102
RTVSPost2010PropOp43
 70
     1
102
RTVSPost2010Prop44ColorIndex
 90
        5
102
RTVSPost2010Prop44ColorRGB
 90
      255
102
RTVSPost2010PropOp44
 70
     1
102
RTVSPost2010Prop45
280
     0
102
RTVSPost2010PropOp45
 70
     1
102
RTVSPost2010Prop46
 90
       50
102
RTVSPost2010PropOp46
 70
     1
102
RTVSPost2010Prop47
 90
       50
102
RTVSPost2010PropOp47
 70
     1
102
RTVSPost2010Prop48
 90
       50
102
RTVSPost2010PropOp48
 70
     1
102
RTVSPost2010Prop49
280
     0
102
RTVSPost2010PropOp49
 70
     1
102
RTVSPost2010Prop50
 90
       50
102
RTVSPost2010PropOp50
 70
     1
102
RTVSPost2010Prop51ColorIndex
 90
      256
102
RTVSPost2010Prop51ColorRGB
 90
-16777216
102
RTVSPost2010PropOp51
 70
     0
102
RTVSPost2010Prop52
140
1.0
102
RTVSPost2010PropOp52
 70
     0
102
RTVSPost2010Prop53
 90
        2
102
RTVSPost2010PropOp53
 70
     1
102
RTVSPost2010Prop54
  1
strokes_ogs.tif
102
RTVSPost2010PropOp54
 70
     1
102
RTVSPost2010Prop55
280
     0
102
RTVSPost2010PropOp55
 70
     1
102
RTVSPost2010Prop56
140
1.0
102
RTVSPost2010PropOp56
 70
     1
102
RTVSPost2010Prop57
140
1.0
102
RTVSPost2010PropOp57
 70
     1
  0
ENDSEC
  0
EOF
