999
DXF file: 106-100-88_double.dxf
999
Pro/ENGINEER 2006320 by Parametric Technology Corporation
  0
SECTION
  2
HEADER
  9
$EXTMAX
 10
420.0
 20
297.0
 30
0.0
  9
$EXTMIN
 10
0.0
 20
0.0
 30
0.0
  9
$LIMMIN
 10
0.0
 20
0.0
  9
$LIMMAX
 10
420.0
 20
297.0
  9
$VIEWCTR
 10
210.0
 20
148.5
  9
$VIEWSIZE
 40
297.0
  9
$CLAYER
  8
0
  9
$LTSCALE
 40
23.1
  9
$CELTYPE
  6
BYLAYER
  9
$DIMSCALE
 40
1.0
  9
$DIMASZ
 40
3.0
  9
$DIMEXO
 40
2.625
  9
$DIMDLI
 40
15.96
  9
$DIMEXE
 40
7.56
  9
$DIMCEN
 40
3.78
  9
$DIMLFAC
 40
1.0
  9
$DIMBLK
  1
_FILLED
  9
$DIMTXT
 40
3.0
  9
$PDMODE
 70
3
  9
$PDSIZE
 40
0.3125
  0
ENDSEC
  0
SECTION
  2
TABLES
  0
TABLE
  2
LTYPE
 70
6
  0
LTYPE
  2
BYBLOCK
 70
0
  3

 72
65
 73
0
 40
0.0
  0
LTYPE
  2
BYLAYER
 70
0
  3

 72
65
 73
0
 40
0.0
  0
LTYPE
  2
CONTINUOUS
 70
64
  3
Solid line
 72
65
 73
0
 40
0.0
  0
LTYPE
  2
CENTER
 70
64
  3
____ _ ____ _ ____ _ ____ _ ____ _ ____ _ ____
 72
65
 73
4
 40
0.6
 49
0.375
 49
-0.075
 49
0.075
 49
-0.075
  0
LTYPE
  2
HIDDEN
 70
64
  3
- - - - - - - - - - - - - - - - - - - -
 72
65
 73
2
 40
0.2
 49
0.1
 49
-0.1
  0
LTYPE
  2
PHANTOM
 70
64
  3
_____ _ _ _____ _ _ _____ _ _ _____
 72
65
 73
6
 40
0.8
 49
0.45
 49
-0.05
 49
0.1
 49
-0.05
 49
0.1
 49
-0.05
  0
LTYPE
  2
DOT
 70
64
  3
. . . . . . . . . . . . . . . . . . . .
 72
65
 73
2
 40
0.2
 49
0.1
 49
-0.1
  0
LTYPE
  2
DASHED
 70
64
  3
- - - - - - - - - - - - - - - - - - - -
 72
65
 73
2
 40
0.2
 49
0.1
 49
-0.1
  0
ENDTAB
  0
TABLE
  2
LAYER
 70
36
  0
LAYER
  2
0
 70
0
 62
7
  6
CONTINUOUS
  0
LAYER
  2
DEFAULT_1
 70
0
 62
7
  6
CENTER
  0
LAYER
  2
DEFAULT_2
 70
0
 62
8
  6
HIDDEN
  0
LAYER
  2
DEFAULT_3
 70
0
 62
7
  6
PHANTOM
  0
LAYER
  2
01___PRT_ALL_DTM_PLN
 70
0
 62
7
  6
CONTINUOUS
  0
LAYER
  2
01___PRT_DEF_DTM_PLN
 70
0
 62
7
  6
CONTINUOUS
  0
LAYER
  2
02___PRT_ALL_AXES
 70
0
 62
7
  6
CONTINUOUS
  0
LAYER
  2
03___PRT_ALL_CURVES
 70
0
 62
7
  6
CONTINUOUS
  0
LAYER
  2
04___PRT_ALL_DTM_PNT
 70
0
 62
7
  6
CONTINUOUS
  0
LAYER
  2
05___PRT_ALL_DTM_CSYS
 70
0
 62
7
  6
CONTINUOUS
  0
LAYER
  2
05___PRT_DEF_DTM_CSYS
 70
0
 62
7
  6
CONTINUOUS
  0
LAYER
  2
06___PRT_ALL_SURFS
 70
0
 62
7
  6
CONTINUOUS
  0
LAYER
  2
CURVES
 70
0
 62
7
  6
CONTINUOUS
  0
ENDTAB
  0
TABLE
  2
STYLE
 70
1
  0
STYLE
  2
STANDARD
 70
0
 40
0.0
 41
0.6
 50
0.0
 71
0
 42
0.2
  3
txt
  4

  0
ENDTAB
  0
ENDSEC
  0
SECTION
  2
BLOCKS
  0
BLOCK
  8
0
 62
7
  6
CONTINUOUS
  2
*D0
 70
65
 10
0.0
 20
0.0
  0
TEXT
  8
0
 62
7
  6
CONTINUOUS
 10
39.1233654721
 20
96.8783522765
  7
STANDARD
 40
3.0
  1
149
 41
0.6
 72
0
  0
LINE
  8
0
 62
7
  6
CONTINUOUS
 10
142.4086354557
 20
23.9263097015
 11
38.8233654721
 21
23.9263097015
  0
LINE
  8
0
 62
7
  6
CONTINUOUS
 10
57.6136319035
 20
172.8303948514
 11
38.8233654721
 21
172.8303948514
  0
LINE
  8
0
 62
7
  6
CONTINUOUS
 10
41.8233654721
 20
23.9263097015
 11
41.8233654721
 21
95.3783522765
  0
LINE
  8
0
 62
7
  6
CONTINUOUS
 10
41.8233654721
 20
172.8303948514
 11
41.8233654721
 21
101.3783522765
  0
INSERT
  8
0
 62
7
  6
CONTINUOUS
  2
_FILLED
 10
41.8233654721
 20
23.9263097015
 41
3.0
 42
3.0
 43
3.0
 50
270.0
  0
INSERT
  8
0
 62
7
  6
CONTINUOUS
  2
_FILLED
 10
41.8233654721
 20
172.8303948514
 41
3.0
 42
3.0
 43
3.0
 50
90.0
  0
ENDBLK
  8
0
  6
BYBLOCK
 62
0
  0
BLOCK
  8
0
 62
7
  6
CONTINUOUS
  2
*D1
 70
65
 10
0.0
 20
0.0
  0
TEXT
  8
0
 62
7
  6
CONTINUOUS
 10
200.2086354557
 20
9.860393441
  7
STANDARD
 40
3.0
  1
292
 41
0.6
 72
0
  0
LINE
  8
0
 62
7
  6
CONTINUOUS
 10
56.9965769382
 20
110.7058726518
 11
56.9965769382
 21
8.360393441
  0
LINE
  8
0
 62
7
  6
CONTINUOUS
 10
348.8206939733
 20
110.7058726518
 11
348.8206939733
 21
8.360393441
  0
LINE
  8
0
 62
7
  6
CONTINUOUS
 10
56.9965769382
 20
11.360393441
 11
198.7086354557
 21
11.360393441
  0
LINE
  8
0
 62
7
  6
CONTINUOUS
 10
348.8206939733
 20
11.360393441
 11
207.1086354557
 21
11.360393441
  0
INSERT
  8
0
 62
7
  6
CONTINUOUS
  2
_FILLED
 10
56.9965769382
 20
11.360393441
 41
3.0
 42
3.0
 43
3.0
 50
180.0
  0
INSERT
  8
0
 62
7
  6
CONTINUOUS
  2
_FILLED
 10
348.8206939733
 20
11.360393441
 41
3.0
 42
3.0
 43
3.0
  0
ENDBLK
  8
0
  6
BYBLOCK
 62
0
  0
BLOCK
  8
0
 62
7
  6
CONTINUOUS
  2
*D2
 70
65
 10
0.0
 20
0.0
  0
TEXT
  8
0
 62
7
  6
CONTINUOUS
 10
22.8141186731
 20
152.4263097015
  7
STANDARD
 40
3.0
  1
260
 41
0.6
 72
0
  0
LINE
  8
0
 62
7
  6
CONTINUOUS
 10
140.7471599243
 20
283.9263097015
 11
22.5141186731
 21
283.9263097015
  0
LINE
  8
0
 62
7
  6
CONTINUOUS
 10
142.4086354557
 20
23.9263097015
 11
22.5141186731
 21
23.9263097015
  0
LINE
  8
0
 62
7
  6
CONTINUOUS
 10
25.5141186731
 20
283.9263097015
 11
25.5141186731
 21
156.9263097015
  0
LINE
  8
0
 62
7
  6
CONTINUOUS
 10
25.5141186731
 20
23.9263097015
 11
25.5141186731
 21
150.9263097015
  0
INSERT
  8
0
 62
7
  6
CONTINUOUS
  2
_FILLED
 10
25.5141186731
 20
283.9263097015
 41
3.0
 42
3.0
 43
3.0
 50
90.0
  0
INSERT
  8
0
 62
7
  6
CONTINUOUS
  2
_FILLED
 10
25.5141186731
 20
23.9263097015
 41
3.0
 42
3.0
 43
3.0
 50
270.0
  0
ENDBLK
  8
0
  6
BYBLOCK
 62
0
  0
BLOCK
  8
0
 62
7
  6
CONTINUOUS
  2
*D3
 70
65
 10
0.0
 20
0.0
  0
TEXT
  8
0
 62
7
  6
CONTINUOUS
 10
225.0230715332
 20
215.9077959535
  7
STANDARD
 40
3.0
  1
88%%d
 41
0.6222222222
 72
0
  0
LINE
  8
0
 62
7
  6
CONTINUOUS
 10
255.3813660028
 20
169.6413508064
 11
285.7476825392
 21
170.7017659464
  0
LINE
  8
0
 62
7
  6
CONTINUOUS
 10
202.9086354557
 20
220.3136776791
 11
202.9086354557
 21
259.0838227783
  0
ARC
  8
0
 62
7
  6
CONTINUOUS
 10
202.9086354557
 20
167.8089626783
 40
55.5047150008
 50
2.0
 51
58.2414022815
  0
ARC
  8
0
 62
7
  6
CONTINUOUS
 10
202.9086354557
 20
167.8089626783
 40
55.5047150008
 50
68.1980319144
 51
90.0
  0
SOLID
  8
0
 62
7
  6
CONTINUOUS
 10
257.4453011292
 20
172.6938791025
 11
258.3795384838
 21
169.7460492965
 12
258.9424254326
 22
172.7867167039
 13
258.9424254326
 23
172.7867167039
  0
SOLID
  8
0
 62
7
  6
CONTINUOUS
 10
205.9278060996
 20
223.9823394945
 11
202.9086354557
 21
223.3136776791
 12
205.887273937
 22
222.4828872133
 13
205.887273937
 23
222.4828872133
  0
ENDBLK
  8
0
  6
BYBLOCK
 62
0
  0
BLOCK
  8
0
 62
7
  6
CONTINUOUS
  2
*D4
 70
65
 10
0.0
 20
0.0
  0
TEXT
  8
0
 62
7
  6
CONTINUOUS
 10
200.2086354557
 20
16.5972395301
  7
STANDARD
 40
3.0
  1
118
 41
0.6
 72
0
  0
LINE
  8
0
 62
7
  6
CONTINUOUS
 10
261.9086354557
 20
22.4263097015
 11
261.9086354557
 21
15.0972395301
  0
LINE
  8
0
 62
7
  6
CONTINUOUS
 10
143.9086354557
 20
22.4263097015
 11
143.9086354557
 21
15.0972395301
  0
LINE
  8
0
 62
7
  6
CONTINUOUS
 10
261.9086354557
 20
18.0972395301
 11
207.1086354557
 21
18.0972395301
  0
LINE
  8
0
 62
7
  6
CONTINUOUS
 10
143.9086354557
 20
18.0972395301
 11
198.7086354557
 21
18.0972395301
  0
INSERT
  8
0
 62
7
  6
CONTINUOUS
  2
_FILLED
 10
261.9086354557
 20
18.0972395301
 41
3.0
 42
3.0
 43
3.0
  0
INSERT
  8
0
 62
7
  6
CONTINUOUS
  2
_FILLED
 10
143.9086354557
 20
18.0972395301
 41
3.0
 42
3.0
 43
3.0
 50
180.0
  0
ENDBLK
  8
0
  6
BYBLOCK
 62
0
  0
BLOCK
  8
0
 62
7
  6
CONTINUOUS
  2
*D5
 70
65
 10
0.0
 20
0.0
  0
TEXT
  8
0
 62
7
  6
CONTINUOUS
 10
161.5518205805
 20
206.2357132848
  7
STANDARD
 40
3.0
  1
88%%d
 41
0.6222222222
 72
0
  0
LINE
  8
0
 62
7
  6
CONTINUOUS
 10
202.9086354557
 20
169.3089626783
 11
202.9086354557
 21
226.3136776791
  0
LINE
  8
0
 62
7
  6
CONTINUOUS
 10
196.0930676904
 20
168.0469675492
 11
144.4395599466
 21
169.8507477866
  0
ARC
  8
0
 62
7
  6
CONTINUOUS
 10
202.9086354557
 20
167.8089626783
 40
55.5047150008
 50
90.0
 51
129.3407750558
  0
ARC
  8
0
 62
7
  6
CONTINUOUS
 10
202.9086354557
 20
167.8089626783
 40
55.5047150008
 50
138.2953968083
 51
178.0
  0
SOLID
  8
0
 62
7
  6
CONTINUOUS
 10
199.9299969745
 20
222.4828872133
 11
202.9086354557
 21
223.3136776791
 12
199.8894648119
 22
223.9823394945
 13
199.8894648119
 23
223.9823394945
  0
SOLID
  8
0
 62
7
  6
CONTINUOUS
 10
146.8748454789
 20
172.7867167039
 11
147.4377324276
 21
169.7460492965
 12
148.3719697822
 22
172.6938791025
 13
148.3719697822
 23
172.6938791025
  0
ENDBLK
  8
0
  6
BYBLOCK
 62
0
  0
BLOCK
  8
0
  2
_FILLED
 70
64
 10
0.0
 20
0.0
  0
SOLID
  8
0
  6
BYBLOCK
 62
0
 10
0.0
 20
0.0
 11
-1.0
 21
0.25
 12
-1.0
 22
-0.25
 13
-1.0
 23
-0.25
  0
ENDBLK
  8
0
  6
BYBLOCK
 62
0
  0
ENDSEC
  0
SECTION
  2
ENTITIES
  0
DIMENSION
  8
0
 62
7
  6
CONTINUOUS
  2
*D0
 10
41.8233654721
 20
172.8303948514
 11
41.8233654721
 21
98.3783522765
 70
128
 13
142.4086354557
 23
23.9263097015
 14
57.6136319035
 24
172.8303948514
 50
90.0
  0
DIMENSION
  8
0
 62
7
  6
CONTINUOUS
  2
*D1
 10
348.8206939733
 20
11.360393441
 11
202.9086354557
 21
11.360393441
 70
128
 13
56.9965769382
 23
110.7058726518
 14
348.8206939733
 24
110.7058726518
  0
DIMENSION
  8
0
 62
7
  6
CONTINUOUS
  2
*D2
 10
25.5141186731
 20
23.9263097015
 11
25.5141186731
 21
153.9263097015
 70
128
 13
140.7471599243
 23
283.9263097015
 14
142.4086354557
 24
23.9263097015
 50
270.0
  0
DIMENSION
  8
0
 62
7
  6
CONTINUOUS
  2
*D3
 10
202.9086354557
 20
220.3136776791
 11
227.8230715332
 21
217.4077959535
 70
130
 13
255.3813660028
 23
169.6413508064
 14
285.7476825392
 24
170.7017659464
 15
202.9086354557
 25
259.0838227783
 16
241.465450331
 26
207.7357132848
  0
DIMENSION
  8
0
 62
7
  6
CONTINUOUS
  2
*D4
 10
143.9086354557
 20
18.0972395301
 11
202.9086354557
 21
18.0972395301
 70
128
 13
261.9086354557
 23
22.4263097015
 14
143.9086354557
 24
22.4263097015
 50
180.0
  0
DIMENSION
  8
0
 62
7
  6
CONTINUOUS
  2
*D5
 10
196.0930676904
 20
168.0469675492
 11
164.3518205805
 21
207.7357132848
 70
130
 13
202.9086354557
 23
169.3089626783
 14
202.9086354557
 24
226.3136776791
 15
144.4395599466
 25
169.8507477866
 16
164.3518205805
 26
207.7357132848
  0
LINE
  8
0
 62
7
  6
CONTINUOUS
 10
0.0
 20
0.0
 11
0.0
 21
297.0
  0
LINE
  8
0
 62
7
  6
CONTINUOUS
 10
0.0
 20
0.0
 11
420.0
 21
0.0
  0
LINE
  8
0
 62
7
  6
CONTINUOUS
 10
0.0
 20
297.0
 11
420.0
 21
297.0
  0
LINE
  8
0
 62
7
  6
CONTINUOUS
 10
420.0
 20
0.0
 11
420.0
 21
297.0
  0
LINE
  8
0
 62
7
  6
CONTINUOUS
 10
56.9965769382
 20
112.2058726518
 11
61.2306868688
 21
233.454917051
  0
LINE
  8
02___PRT_ALL_AXES
 62
7
  6
CONTINUOUS
 10
261.9086354557
 20
23.9263097015
 11
143.9086354557
 21
23.9263097015
  0
LINE
  8
0
 62
7
  6
CONTINUOUS
 10
72.9575660886
 20
110.8094670425
 11
77.250204183
 21
233.7345387659
  0
LINE
  8
0
 62
7
  6
CONTINUOUS
 10
74.4873112379
 20
113.2575710255
 11
78.6054518488
 21
231.1856886138
  0
LINE
  8
02___PRT_ALL_AXES
 62
7
  6
CONTINUOUS
 10
143.9086354557
 20
243.7147700637
 11
141.4086354557
 21
242.2147700637
  0
LINE
  8
02___PRT_ALL_AXES
 62
7
  6
CONTINUOUS
 10
107.024102949
 20
112.1213612222
 11
111.1422435599
 21
230.0494788104
  0
LINE
  8
02___PRT_ALL_AXES
 62
7
  6
CONTINUOUS
 10
109.4716951878
 20
116.038327595
 11
113.3106398251
 21
225.9713185671
  0
LINE
  8
0
 62
9
  6
CONTINUOUS
 10
112.1606550709
 20
115.9444270468
 11
115.9995997082
 21
225.8774180189
  0
LINE
  8
0
 62
7
  6
CONTINUOUS
 10
74.4873112379
 20
113.2575710255
 11
72.9575660886
 21
110.8094670425
  0
LINE
  8
02___PRT_ALL_AXES
 62
7
  6
CONTINUOUS
 10
261.9086354557
 20
73.9263097015
 11
143.9086354557
 21
73.9263097015
  0
LINE
  8
0
 62
7
  6
CONTINUOUS
 10
257.9086354557
 20
76.2357107782
 11
147.9086354557
 21
76.2357107782
  0
LINE
  8
02___PRT_ALL_AXES
 62
7
  6
CONTINUOUS
 10
142.2471599243
 20
283.9263097015
 11
141.4086354557
 21
267.9263097015
  0
LINE
  8
02___PRT_ALL_AXES
 62
7
  6
CONTINUOUS
 10
264.4086354557
 20
267.9263097015
 11
261.9086354557
 21
266.4829340285
  0
LINE
  8
0
 62
9
  6
CONTINUOUS
 10
147.9086354557
 20
78.9263097015
 11
257.9086354557
 21
78.9263097015
  0
LINE
  8
0
 62
7
  6
CONTINUOUS
 10
78.6054518488
 20
231.1856886138
 11
77.250204183
 21
233.7345387659
  0
LINE
  8
02___PRT_ALL_AXES
 62
7
  6
CONTINUOUS
 10
141.4086354557
 20
242.2147700637
 11
141.4086354557
 21
239.2147700637
  0
LINE
  8
0
 62
7
  6
CONTINUOUS
 10
143.9086354557
 20
266.4829340285
 11
143.9086354557
 21
243.7147700637
  0
LINE
  8
0
 62
7
  6
CONTINUOUS
 10
143.9086354557
 20
237.7147700637
 11
143.9086354557
 21
228.9263097015
  0
LINE
  8
02___PRT_ALL_AXES
 62
7
  6
CONTINUOUS
 10
143.9086354557
 20
73.9263097015
 11
143.9086354557
 21
23.9263097015
  0
LINE
  8
0
 62
7
  6
CONTINUOUS
 10
147.9086354557
 20
226.6169086247
 11
147.9086354557
 21
221.2251148127
  0
LINE
  8
0
 62
7
  6
CONTINUOUS
 10
147.9086354557
 20
78.9263097015
 11
147.9086354557
 21
76.2357107782
  0
LINE
  8
02___PRT_ALL_AXES
 62
7
  6
CONTINUOUS
 10
109.4716951878
 20
116.038327595
 11
107.024102949
 21
112.1213612222
  0
LINE
  8
0
 62
7
  6
CONTINUOUS
 10
332.8597048229
 20
110.8094670425
 11
348.8206939733
 21
112.2058726518
  0
LINE
  8
0
 62
7
  6
CONTINUOUS
 10
72.9575660886
 20
110.8094670425
 11
56.9965769382
 21
112.2058726518
  0
LINE
  8
02___PRT_ALL_AXES
 62
7
  6
CONTINUOUS
 10
264.4086354557
 20
239.2147700637
 11
261.9086354557
 21
237.7147700637
  0
LINE
  8
02___PRT_ALL_AXES
 62
7
  6
CONTINUOUS
 10
331.3299596736
 20
113.2575710255
 11
298.7931679625
 21
112.1213612222
  0
LINE
  8
0
 62
7
  6
CONTINUOUS
 10
296.3455757236
 20
116.038327595
 11
293.6566158406
 21
115.9444270468
  0
LINE
  8
02___PRT_ALL_AXES
 62
7
  6
CONTINUOUS
 10
107.024102949
 20
112.1213612222
 11
74.4873112379
 21
113.2575710255
  0
LINE
  8
0
 62
7
  6
CONTINUOUS
 10
112.1606550709
 20
115.9444270468
 11
109.4716951878
 21
116.038327595
  0
LINE
  8
02___PRT_ALL_AXES
 62
7
  6
CONTINUOUS
 10
257.9086354557
 20
76.2357107782
 11
261.9086354557
 21
73.9263097015
  0
LINE
  8
02___PRT_ALL_AXES
 62
7
  6
CONTINUOUS
 10
113.3106398251
 20
225.9713185671
 11
111.1422435599
 21
230.0494788104
  0
LINE
  8
0
 62
7
  6
CONTINUOUS
 10
261.9086354557
 20
228.9263097015
 11
257.9086354557
 21
226.6169086247
  0
POLYLINE
  8
02___PRT_ALL_AXES
 62
7
  6
CONTINUOUS
 66
1
 70
0
  0
VERTEX
  8
02___PRT_ALL_AXES
 62
7
  6
CONTINUOUS
 10
175.711338806
 20
178.9914504969
  0
VERTEX
  8
02___PRT_ALL_AXES
 62
7
  6
CONTINUOUS
 10
174.4676325384
 20
181.2538165433
  0
VERTEX
  8
02___PRT_ALL_AXES
 62
7
  6
CONTINUOUS
 10
173.2198622271
 20
183.4743897642
  0
VERTEX
  8
02___PRT_ALL_AXES
 62
7
  6
CONTINUOUS
 10
171.9707101478
 20
185.6511526955
  0
VERTEX
  8
02___PRT_ALL_AXES
 62
7
  6
CONTINUOUS
 10
170.7229338126
 20
187.7820704581
  0
VERTEX
  8
02___PRT_ALL_AXES
 62
7
  6
CONTINUOUS
 10
169.4793586569
 20
189.8650966226
  0
VERTEX
  8
02___PRT_ALL_AXES
 62
7
  6
CONTINUOUS
 10
168.2428701972
 20
191.8981785854
  0
VERTEX
  8
02___PRT_ALL_AXES
 62
7
  6
CONTINUOUS
 10
167.0164054627
 20
193.879263113
  0
VERTEX
  8
02___PRT_ALL_AXES
 62
7
  6
CONTINUOUS
 10
165.802943731
 20
195.8063020324
  0
VERTEX
  8
02___PRT_ALL_AXES
 62
7
  6
CONTINUOUS
 10
164.6054966059
 20
197.6772580449
  0
VERTEX
  8
02___PRT_ALL_AXES
 62
7
  6
CONTINUOUS
 10
163.4270974828
 20
199.490110637
  0
VERTEX
  8
02___PRT_ALL_AXES
 62
7
  6
CONTINUOUS
 10
162.2707904537
 20
201.2428620648
  0
VERTEX
  8
02___PRT_ALL_AXES
 62
7
  6
CONTINUOUS
 10
161.1396187113
 20
202.9335433834
  0
VERTEX
  8
02___PRT_ALL_AXES
 62
7
  6
CONTINUOUS
 10
160.0366125173
 20
204.5602204958
  0
VERTEX
  8
02___PRT_ALL_AXES
 62
7
  6
CONTINUOUS
 10
158.9647768075
 20
206.1210001928
  0
VERTEX
  8
02___PRT_ALL_AXES
 62
7
  6
CONTINUOUS
 10
157.9270785106
 20
207.6140361567
  0
VERTEX
  8
02___PRT_ALL_AXES
 62
7
  6
CONTINUOUS
 10
156.9264336629
 20
209.0375348995
  0
VERTEX
  8
02___PRT_ALL_AXES
 62
7
  6
CONTINUOUS
 10
155.965694407
 20
210.389761608
  0
VERTEX
  8
02___PRT_ALL_AXES
 62
7
  6
CONTINUOUS
 10
155.047635963
 20
211.6690458672
  0
VERTEX
  8
02___PRT_ALL_AXES
 62
7
  6
CONTINUOUS
 10
154.1749436665
 20
212.8737872348
  0
VERTEX
  8
02___PRT_ALL_AXES
 62
7
  6
CONTINUOUS
 10
153.3502001686
 20
214.0024606373
  0
VERTEX
  8
02___PRT_ALL_AXES
 62
7
  6
CONTINUOUS
 10
152.5758728927
 20
215.0536215634
  0
VERTEX
  8
02___PRT_ALL_AXES
 62
7
  6
CONTINUOUS
 10
151.854301846
 20
216.0259110259
  0
VERTEX
  8
02___PRT_ALL_AXES
 62
7
  6
CONTINUOUS
 10
151.187687879
 20
216.918060269
  0
VERTEX
  8
02___PRT_ALL_AXES
 62
7
  6
CONTINUOUS
 10
150.5780814869
 20
217.7288951947
  0
VERTEX
  8
02___PRT_ALL_AXES
 62
7
  6
CONTINUOUS
 10
150.0273722436
 20
218.4573404877
  0
VERTEX
  8
02___PRT_ALL_AXES
 62
7
  6
CONTINUOUS
 10
149.537278953
 20
219.102423415
  0
VERTEX
  8
02___PRT_ALL_AXES
 62
7
  6
CONTINUOUS
 10
148.744908178
 20
220.1391445296
  0
SEQEND
  0
LINE
  8
02___PRT_ALL_AXES
 62
7
  6
CONTINUOUS
 10
178.8802345399
 20
172.9814000878
 11
177.6951365038
 21
175.2729203263
  0
POLYLINE
  8
02___PRT_ALL_AXES
 62
7
  6
CONTINUOUS
 66
1
 70
0
  0
VERTEX
  8
02___PRT_ALL_AXES
 62
7
  6
CONTINUOUS
 10
190.6992683203
 20
145.9713243163
  0
VERTEX
  8
02___PRT_ALL_AXES
 62
7
  6
CONTINUOUS
 10
189.747532451
 20
148.5354163617
  0
VERTEX
  8
02___PRT_ALL_AXES
 62
7
  6
CONTINUOUS
 10
188.7669440789
 20
151.0820014626
  0
VERTEX
  8
02___PRT_ALL_AXES
 62
7
  6
CONTINUOUS
 10
187.7587586543
 20
153.6097757516
  0
VERTEX
  8
02___PRT_ALL_AXES
 62
7
  6
CONTINUOUS
 10
186.7243201516
 20
156.1173821477
  0
VERTEX
  8
02___PRT_ALL_AXES
 62
7
  6
CONTINUOUS
 10
185.6650627387
 20
158.6034114541
  0
VERTEX
  8
02___PRT_ALL_AXES
 62
7
  6
CONTINUOUS
 10
184.5825120983
 20
161.0664037703
  0
VERTEX
  8
02___PRT_ALL_AXES
 62
7
  6
CONTINUOUS
 10
183.4782863044
 20
163.5048501787
  0
VERTEX
  8
02___PRT_ALL_AXES
 62
7
  6
CONTINUOUS
 10
182.3540962207
 20
165.9171947055
  0
VERTEX
  8
02___PRT_ALL_AXES
 62
7
  6
CONTINUOUS
 10
181.2117453882
 20
168.3018365499
  0
VERTEX
  8
02___PRT_ALL_AXES
 62
7
  6
CONTINUOUS
 10
180.0531293717
 20
170.65713258
  0
VERTEX
  8
02___PRT_ALL_AXES
 62
7
  6
CONTINUOUS
 10
178.8802345399
 20
172.9814000878
  0
SEQEND
  0
POLYLINE
  8
02___PRT_ALL_AXES
 62
7
  6
CONTINUOUS
 66
1
 70
0
  0
VERTEX
  8
02___PRT_ALL_AXES
 62
7
  6
CONTINUOUS
 10
202.9086354557
 20
79.1535143278
  0
VERTEX
  8
02___PRT_ALL_AXES
 62
7
  6
CONTINUOUS
 10
202.884143263
 20
81.9292344125
  0
VERTEX
  8
02___PRT_ALL_AXES
 62
7
  6
CONTINUOUS
 10
202.818074682
 20
84.7004756184
  0
VERTEX
  8
02___PRT_ALL_AXES
 62
7
  6
CONTINUOUS
 10
202.7103180715
 20
87.471063202
  0
VERTEX
  8
02___PRT_ALL_AXES
 62
7
  6
CONTINUOUS
 10
202.5609254448
 20
90.2406139808
  0
VERTEX
  8
02___PRT_ALL_AXES
 62
7
  6
CONTINUOUS
 10
202.3699723763
 20
93.0087509959
  0
VERTEX
  8
02___PRT_ALL_AXES
 62
7
  6
CONTINUOUS
 10
202.1375570922
 20
95.7750985386
  0
VERTEX
  8
02___PRT_ALL_AXES
 62
7
  6
CONTINUOUS
 10
201.8638025005
 20
98.5392605189
  0
VERTEX
  8
02___PRT_ALL_AXES
 62
7
  6
CONTINUOUS
 10
201.5488580643
 20
101.3008174568
  0
VERTEX
  8
02___PRT_ALL_AXES
 62
7
  6
CONTINUOUS
 10
201.1929019914
 20
104.0593229028
  0
VERTEX
  8
02___PRT_ALL_AXES
 62
7
  6
CONTINUOUS
 10
200.7961437133
 20
106.8142999746
  0
VERTEX
  8
02___PRT_ALL_AXES
 62
7
  6
CONTINUOUS
 10
200.3588266344
 20
109.5652380263
  0
VERTEX
  8
02___PRT_ALL_AXES
 62
7
  6
CONTINUOUS
 10
199.8812311316
 20
112.3115894651
  0
VERTEX
  8
02___PRT_ALL_AXES
 62
7
  6
CONTINUOUS
 10
199.3636777796
 20
115.0527667312
  0
VERTEX
  8
02___PRT_ALL_AXES
 62
7
  6
CONTINUOUS
 10
198.8065307783
 20
117.7881394536
  0
VERTEX
  8
02___PRT_ALL_AXES
 62
7
  6
CONTINUOUS
 10
198.2102015528
 20
120.5170317972
  0
VERTEX
  8
02___PRT_ALL_AXES
 62
7
  6
CONTINUOUS
 10
197.5751524961
 20
123.2387200144
  0
VERTEX
  8
02___PRT_ALL_AXES
 62
7
  6
CONTINUOUS
 10
196.9019008235
 20
125.9524302127
  0
VERTEX
  8
02___PRT_ALL_AXES
 62
7
  6
CONTINUOUS
 10
196.1910225025
 20
128.6573363526
  0
VERTEX
  8
02___PRT_ALL_AXES
 62
7
  6
CONTINUOUS
 10
195.4431562234
 20
131.3525584855
  0
VERTEX
  8
02___PRT_ALL_AXES
 62
7
  6
CONTINUOUS
 10
194.6590073709
 20
134.0371612425
  0
VERTEX
  8
02___PRT_ALL_AXES
 62
7
  6
CONTINUOUS
 10
193.839351959
 20
136.710152586
  0
VERTEX
  8
02___PRT_ALL_AXES
 62
7
  6
CONTINUOUS
 10
192.9850404855
 20
139.37048283
  0
VERTEX
  8
02___PRT_ALL_AXES
 62
7
  6
CONTINUOUS
 10
192.0970018603
 20
142.0170440377
  0
SEQEND
  0
LINE
  8
02___PRT_ALL_AXES
 62
7
  6
CENTER
 10
202.9086354557
 20
21.4263097015
 11
202.9086354557
 21
283.6982252298
  0
LINE
  8
0
 62
9
  6
CONTINUOUS
 10
202.9086354557
 20
78.9263097015
 11
202.9086891912
 21
79.1535143278
  0
LINE
  8
02___PRT_ALL_AXES
 62
7
  6
CONTINUOUS
 10
148.744908178
 20
220.1391445296
 11
147.9086354557
 21
221.2251148127
  0
POLYLINE
  8
02___PRT_ALL_AXES
 62
7
  6
CONTINUOUS
 66
1
 70
0
  0
VERTEX
  8
02___PRT_ALL_AXES
 62
7
  6
CONTINUOUS
 10
213.7202690511
 20
142.0170440377
  0
VERTEX
  8
02___PRT_ALL_AXES
 62
7
  6
CONTINUOUS
 10
212.832230426
 20
139.37048283
  0
VERTEX
  8
02___PRT_ALL_AXES
 62
7
  6
CONTINUOUS
 10
211.9779189525
 20
136.710152586
  0
VERTEX
  8
02___PRT_ALL_AXES
 62
7
  6
CONTINUOUS
 10
211.1582635406
 20
134.0371612426
  0
VERTEX
  8
02___PRT_ALL_AXES
 62
7
  6
CONTINUOUS
 10
210.3741146881
 20
131.3525584855
  0
VERTEX
  8
02___PRT_ALL_AXES
 62
7
  6
CONTINUOUS
 10
209.6262484089
 20
128.6573363527
  0
VERTEX
  8
02___PRT_ALL_AXES
 62
7
  6
CONTINUOUS
 10
208.915370088
 20
125.9524302127
  0
VERTEX
  8
02___PRT_ALL_AXES
 62
7
  6
CONTINUOUS
 10
208.2421184154
 20
123.2387200144
  0
VERTEX
  8
02___PRT_ALL_AXES
 62
7
  6
CONTINUOUS
 10
207.6070693587
 20
120.5170317973
  0
VERTEX
  8
02___PRT_ALL_AXES
 62
7
  6
CONTINUOUS
 10
207.0107401332
 20
117.7881394536
  0
VERTEX
  8
02___PRT_ALL_AXES
 62
7
  6
CONTINUOUS
 10
206.4535931319
 20
115.0527667313
  0
VERTEX
  8
02___PRT_ALL_AXES
 62
7
  6
CONTINUOUS
 10
205.9360397799
 20
112.3115894652
  0
VERTEX
  8
02___PRT_ALL_AXES
 62
7
  6
CONTINUOUS
 10
205.4584442771
 20
109.5652380264
  0
VERTEX
  8
02___PRT_ALL_AXES
 62
7
  6
CONTINUOUS
 10
205.0211271982
 20
106.8142999748
  0
VERTEX
  8
02___PRT_ALL_AXES
 62
7
  6
CONTINUOUS
 10
204.6243689201
 20
104.059322903
  0
VERTEX
  8
02___PRT_ALL_AXES
 62
7
  6
CONTINUOUS
 10
204.2684128472
 20
101.3008174569
  0
VERTEX
  8
02___PRT_ALL_AXES
 62
7
  6
CONTINUOUS
 10
203.953468411
 20
98.539260519
  0
VERTEX
  8
02___PRT_ALL_AXES
 62
7
  6
CONTINUOUS
 10
203.6797138193
 20
95.7750985388
  0
VERTEX
  8
02___PRT_ALL_AXES
 62
7
  6
CONTINUOUS
 10
203.4472985352
 20
93.008750996
  0
VERTEX
  8
02___PRT_ALL_AXES
 62
7
  6
CONTINUOUS
 10
203.2563454667
 20
90.2406139809
  0
VERTEX
  8
02___PRT_ALL_AXES
 62
7
  6
CONTINUOUS
 10
203.10695284
 20
87.4710632022
  0
VERTEX
  8
02___PRT_ALL_AXES
 62
7
  6
CONTINUOUS
 10
202.9991962295
 20
84.7004756186
  0
VERTEX
  8
02___PRT_ALL_AXES
 62
7
  6
CONTINUOUS
 10
202.9331276485
 20
81.9292344127
  0
VERTEX
  8
02___PRT_ALL_AXES
 62
7
  6
CONTINUOUS
 10
202.9086354557
 20
79.1535143278
  0
SEQEND
  0
LINE
  8
02___PRT_ALL_AXES
 62
7
  6
CONTINUOUS
 10
216.0697384604
 20
148.5354163617
 11
215.1180025912
 21
145.9713243163
  0
POLYLINE
  8
02___PRT_ALL_AXES
 62
7
  6
CONTINUOUS
 66
1
 70
0
  0
VERTEX
  8
02___PRT_ALL_AXES
 62
7
  6
CONTINUOUS
 10
228.1221344076
 20
175.2729203263
  0
VERTEX
  8
02___PRT_ALL_AXES
 62
7
  6
CONTINUOUS
 10
226.9370363716
 20
172.9814000878
  0
VERTEX
  8
02___PRT_ALL_AXES
 62
7
  6
CONTINUOUS
 10
225.7641415398
 20
170.65713258
  0
VERTEX
  8
02___PRT_ALL_AXES
 62
7
  6
CONTINUOUS
 10
224.6055255233
 20
168.3018365499
  0
VERTEX
  8
02___PRT_ALL_AXES
 62
7
  6
CONTINUOUS
 10
223.4631746908
 20
165.9171947055
  0
VERTEX
  8
02___PRT_ALL_AXES
 62
7
  6
CONTINUOUS
 10
222.3389846071
 20
163.5048501787
  0
VERTEX
  8
02___PRT_ALL_AXES
 62
7
  6
CONTINUOUS
 10
221.2347588132
 20
161.0664037703
  0
VERTEX
  8
02___PRT_ALL_AXES
 62
7
  6
CONTINUOUS
 10
220.1522081728
 20
158.6034114541
  0
VERTEX
  8
02___PRT_ALL_AXES
 62
7
  6
CONTINUOUS
 10
219.0929507599
 20
156.1173821477
  0
VERTEX
  8
02___PRT_ALL_AXES
 62
7
  6
CONTINUOUS
 10
218.0585122572
 20
153.6097757516
  0
VERTEX
  8
02___PRT_ALL_AXES
 62
7
  6
CONTINUOUS
 10
217.0503268326
 20
151.0820014626
  0
VERTEX
  8
02___PRT_ALL_AXES
 62
7
  6
CONTINUOUS
 10
216.0697384604
 20
148.5354163617
  0
SEQEND
  0
POLYLINE
  8
02___PRT_ALL_AXES
 62
7
  6
CONTINUOUS
 66
1
 70
0
  0
VERTEX
  8
02___PRT_ALL_AXES
 62
7
  6
CONTINUOUS
 10
255.7898986679
 20
218.4573404877
  0
VERTEX
  8
02___PRT_ALL_AXES
 62
7
  6
CONTINUOUS
 10
255.2391894245
 20
217.7288951947
  0
VERTEX
  8
02___PRT_ALL_AXES
 62
7
  6
CONTINUOUS
 10
254.6295830325
 20
216.918060269
  0
VERTEX
  8
02___PRT_ALL_AXES
 62
7
  6
CONTINUOUS
 10
253.9629690655
 20
216.0259110259
  0
VERTEX
  8
02___PRT_ALL_AXES
 62
7
  6
CONTINUOUS
 10
253.2413980188
 20
215.0536215634
  0
VERTEX
  8
02___PRT_ALL_AXES
 62
7
  6
CONTINUOUS
 10
252.4670707429
 20
214.0024606373
  0
VERTEX
  8
02___PRT_ALL_AXES
 62
7
  6
CONTINUOUS
 10
251.642327245
 20
212.8737872348
  0
VERTEX
  8
02___PRT_ALL_AXES
 62
7
  6
CONTINUOUS
 10
250.7696349485
 20
211.6690458672
  0
VERTEX
  8
02___PRT_ALL_AXES
 62
7
  6
CONTINUOUS
 10
249.8515765045
 20
210.389761608
  0
VERTEX
  8
02___PRT_ALL_AXES
 62
7
  6
CONTINUOUS
 10
248.8908372486
 20
209.0375348995
  0
VERTEX
  8
02___PRT_ALL_AXES
 62
7
  6
CONTINUOUS
 10
247.8901924009
 20
207.6140361567
  0
VERTEX
  8
02___PRT_ALL_AXES
 62
7
  6
CONTINUOUS
 10
246.8524941039
 20
206.1210001928
  0
VERTEX
  8
02___PRT_ALL_AXES
 62
7
  6
CONTINUOUS
 10
245.7806583942
 20
204.5602204958
  0
VERTEX
  8
02___PRT_ALL_AXES
 62
7
  6
CONTINUOUS
 10
244.6776522002
 20
202.9335433834
  0
VERTEX
  8
02___PRT_ALL_AXES
 62
7
  6
CONTINUOUS
 10
243.5464804578
 20
201.2428620648
  0
VERTEX
  8
02___PRT_ALL_AXES
 62
7
  6
CONTINUOUS
 10
242.3901734287
 20
199.490110637
  0
VERTEX
  8
02___PRT_ALL_AXES
 62
7
  6
CONTINUOUS
 10
241.2117743056
 20
197.6772580449
  0
VERTEX
  8
02___PRT_ALL_AXES
 62
7
  6
CONTINUOUS
 10
240.0143271804
 20
195.8063020324
  0
VERTEX
  8
02___PRT_ALL_AXES
 62
7
  6
CONTINUOUS
 10
238.8008654488
 20
193.879263113
  0
VERTEX
  8
02___PRT_ALL_AXES
 62
7
  6
CONTINUOUS
 10
237.5744007143
 20
191.8981785854
  0
VERTEX
  8
02___PRT_ALL_AXES
 62
7
  6
CONTINUOUS
 10
236.3379122546
 20
189.8650966226
  0
VERTEX
  8
02___PRT_ALL_AXES
 62
7
  6
CONTINUOUS
 10
235.0943370989
 20
187.7820704581
  0
VERTEX
  8
02___PRT_ALL_AXES
 62
7
  6
CONTINUOUS
 10
233.8465607637
 20
185.6511526955
  0
VERTEX
  8
02___PRT_ALL_AXES
 62
7
  6
CONTINUOUS
 10
232.5974086844
 20
183.4743897642
  0
VERTEX
  8
02___PRT_ALL_AXES
 62
7
  6
CONTINUOUS
 10
231.349638373
 20
181.2538165433
  0
VERTEX
  8
02___PRT_ALL_AXES
 62
7
  6
CONTINUOUS
 10
230.1059321055
 20
178.9914504969
  0
SEQEND
  0
LINE
  8
02___PRT_ALL_AXES
 62
7
  6
CONTINUOUS
 10
256.7079303112
 20
219.6632772827
 11
255.7898986679
 21
218.4573404877
  0
POLYLINE
  8
02___PRT_ALL_AXES
 62
7
  6
CONTINUOUS
 66
1
 70
0
  0
VERTEX
  8
02___PRT_ALL_AXES
 62
7
  6
CONTINUOUS
 10
257.9086354557
 20
221.2251148127
  0
VERTEX
  8
02___PRT_ALL_AXES
 62
7
  6
CONTINUOUS
 10
257.8749693654
 20
221.181556684
  0
VERTEX
  8
02___PRT_ALL_AXES
 62
7
  6
CONTINUOUS
 10
256.7079303112
 20
219.6632772827
  0
SEQEND
  0
LINE
  8
02___PRT_ALL_AXES
 62
7
  6
CENTER
 10
349.2021160755
 20
172.9176435932
 11
196.3347564155
 21
167.5793977637
  0
LINE
  8
02___PRT_ALL_AXES
 62
7
  6
CENTER
 10
56.615154836
 20
172.9176435932
 11
197.592153931
 21
167.9946183042
  0
LINE
  8
02___PRT_ALL_AXES
 62
7
  6
CONTINUOUS
 10
147.9086354557
 20
76.2357107782
 11
143.9086354557
 21
73.9263097015
  0
LINE
  8
0
 62
7
  6
CONTINUOUS
 10
143.9086354557
 20
228.9263097015
 11
147.9086354557
 21
226.6169086247
  0
LINE
  8
02___PRT_ALL_AXES
 62
7
  6
CONTINUOUS
 10
294.6750273516
 20
230.0494788104
 11
292.5066310864
 21
225.9713185671
  0
LINE
  8
02___PRT_ALL_AXES
 62
7
  6
CONTINUOUS
 10
141.4086354557
 20
239.2147700637
 11
143.9086354557
 21
237.7147700637
  0
LINE
  8
0
 62
7
  6
CONTINUOUS
 10
257.9086354557
 20
226.6169086247
 11
257.9086354557
 21
221.2251148127
  0
LINE
  8
0
 62
7
  6
CONTINUOUS
 10
257.9086354557
 20
78.9263097015
 11
257.9086354557
 21
76.2357107782
  0
LINE
  8
0
 62
7
  6
CONTINUOUS
 10
261.9086354557
 20
266.4829340285
 11
261.9086354557
 21
243.7147700637
  0
LINE
  8
0
 62
7
  6
CONTINUOUS
 10
261.9086354557
 20
237.7147700637
 11
261.9086354557
 21
228.9263097015
  0
LINE
  8
02___PRT_ALL_AXES
 62
7
  6
CONTINUOUS
 10
261.9086354557
 20
73.9263097015
 11
261.9086354557
 21
23.9263097015
  0
LINE
  8
02___PRT_ALL_AXES
 62
7
  6
CONTINUOUS
 10
264.4086354557
 20
242.2147700637
 11
264.4086354557
 21
239.2147700637
  0
LINE
  8
02___PRT_ALL_AXES
 62
7
  6
CONTINUOUS
 10
298.7931679625
 20
112.1213612222
 11
296.3455757236
 21
116.038327595
  0
LINE
  8
02___PRT_ALL_AXES
 62
7
  6
CONTINUOUS
 10
263.5701109872
 20
283.9263097015
 11
264.4086354557
 21
267.9263097015
  0
LINE
  8
0
 62
7
  6
CONTINUOUS
 10
327.2118190627
 20
231.1856886138
 11
328.5670667285
 21
233.7345387659
  0
LINE
  8
0
 62
7
  6
CONTINUOUS
 10
292.5066310864
 20
225.9713185671
 11
289.8176712033
 21
225.8774180189
  0
LINE
  8
02___PRT_ALL_AXES
 62
7
  6
CONTINUOUS
 10
327.2118190627
 20
231.1856886138
 11
294.6750273516
 21
230.0494788104
  0
LINE
  8
0
 62
7
  6
CONTINUOUS
 10
257.9086354557
 20
226.6169086247
 11
147.9086354557
 21
226.6169086247
  0
LINE
  8
0
 62
7
  6
CONTINUOUS
 10
261.9086354557
 20
228.9263097015
 11
143.9086354557
 21
228.9263097015
  0
LINE
  8
0
 62
7
  6
CONTINUOUS
 10
115.9995997082
 20
225.8774180189
 11
113.3106398251
 21
225.9713185671
  0
LINE
  8
02___PRT_ALL_AXES
 62
7
  6
CONTINUOUS
 10
111.1422435599
 20
230.0494788104
 11
78.6054518488
 21
231.1856886138
  0
LINE
  8
02___PRT_ALL_AXES
 62
7
  6
CONTINUOUS
 10
141.4086354557
 20
267.9263097015
 11
143.9086354557
 21
266.4829340285
  0
LINE
  8
0
 62
9
  6
CONTINUOUS
 10
293.6566158406
 20
115.9444270468
 11
289.8176712033
 21
225.8774180189
  0
LINE
  8
0
 62
7
  6
CONTINUOUS
 10
296.3455757236
 20
116.038327595
 11
292.5066310864
 21
225.9713185671
  0
LINE
  8
0
 62
7
  6
CONTINUOUS
 10
77.250204183
 20
233.7345387659
 11
61.2306868688
 21
233.454917051
  0
LINE
  8
02___PRT_ALL_AXES
 62
7
  6
CONTINUOUS
 10
261.9086354557
 20
237.7147700637
 11
143.9086354557
 21
237.7147700637
  0
LINE
  8
02___PRT_ALL_AXES
 62
7
  6
CONTINUOUS
 10
264.4086354557
 20
239.2147700637
 11
141.4086354557
 21
239.2147700637
  0
LINE
  8
02___PRT_ALL_AXES
 62
7
  6
CONTINUOUS
 10
264.4086354557
 20
242.2147700637
 11
141.4086354557
 21
242.2147700637
  0
LINE
  8
02___PRT_ALL_AXES
 62
7
  6
CONTINUOUS
 10
261.9086354557
 20
243.7147700637
 11
143.9086354557
 21
243.7147700637
  0
LINE
  8
0
 62
7
  6
CONTINUOUS
 10
328.5670667285
 20
233.7345387659
 11
344.5865840427
 21
233.454917051
  0
LINE
  8
0
 62
7
  6
CONTINUOUS
 10
331.3299596736
 20
113.2575710255
 11
332.8597048229
 21
110.8094670425
  0
LINE
  8
02___PRT_ALL_AXES
 62
7
  6
CONTINUOUS
 10
298.7931679625
 20
112.1213612222
 11
294.6750273516
 21
230.0494788104
  0
LINE
  8
02___PRT_ALL_AXES
 62
7
  6
CONTINUOUS
 10
261.9086354557
 20
266.4829340285
 11
143.9086354557
 21
266.4829340285
  0
LINE
  8
02___PRT_ALL_AXES
 62
7
  6
CONTINUOUS
 10
264.4086354557
 20
267.9263097015
 11
141.4086354557
 21
267.9263097015
  0
LINE
  8
02___PRT_ALL_AXES
 62
7
  6
CONTINUOUS
 10
261.9086354557
 20
243.7147700637
 11
264.4086354557
 21
242.2147700637
  0
LINE
  8
0
 62
7
  6
CONTINUOUS
 10
331.3299596736
 20
113.2575710255
 11
327.2118190627
 21
231.1856886138
  0
LINE
  8
0
 62
7
  6
CONTINUOUS
 10
332.8597048229
 20
110.8094670425
 11
328.5670667285
 21
233.7345387659
  0
LINE
  8
02___PRT_ALL_AXES
 62
7
  6
CONTINUOUS
 10
263.5701109872
 20
283.9263097015
 11
142.2471599243
 21
283.9263097015
  0
LINE
  8
0
 62
7
  6
CONTINUOUS
 10
348.8206939733
 20
112.2058726518
 11
344.5865840427
 21
233.454917051
  0
ARC
  8
0
 62
7
  6
CONTINUOUS
 10
110.8679539281
 20
78.9263097015
 40
147.0406815277
 50
75.4095705361
 51
88.0
  0
ARC
  8
0
 62
7
  6
CONTINUOUS
 10
294.9493169834
 20
78.9263097015
 40
147.0406815277
 50
92.0
 51
104.5904294639
  0
ARC
  8
0
 62
7
  6
CONTINUOUS
 10
110.8679539281
 20
78.9263097015
 40
37.0406815277
 50
0.0
 51
88.0
  0
ARC
  8
0
 62
7
  6
CONTINUOUS
 10
294.9493169834
 20
78.9263097015
 40
37.0406815277
 50
92.0
 51
180.0
  0
CIRCLE
  8
02___PRT_ALL_AXES
 62
7
  6
CONTINUOUS
 10
202.9086354557
 20
168.9263097015
 40
29.0
  0
CIRCLE
  8
02___PRT_ALL_AXES
 62
7
  6
CONTINUOUS
 10
202.9086354557
 20
168.9263097015
 40
26.0
  0
ENDSEC
  0
EOF
