999
DXF file: 171-80-88_bendmf.dxf
999
Pro/ENGINEER 2006320 by Parametric Technology Corporation
  0
SECTION
  2
HEADER
  9
$EXTMAX
 10
420.0
 20
297.0
 30
0.0
  9
$EXTMIN
 10
0.0
 20
0.0
 30
0.0
  9
$LIMMIN
 10
0.0
 20
0.0
  9
$LIMMAX
 10
420.0
 20
297.0
  9
$VIEWCTR
 10
210.0
 20
148.5
  9
$VIEWSIZE
 40
297.0
  9
$CLAYER
  8
0
  9
$LTSCALE
 40
23.1
  9
$CELTYPE
  6
BYLAYER
  9
$DIMSCALE
 40
1.0
  9
$DIMASZ
 40
3.0
  9
$DIMEXO
 40
2.625
  9
$DIMDLI
 40
15.96
  9
$DIMEXE
 40
7.56
  9
$DIMCEN
 40
3.78
  9
$DIMLFAC
 40
1.0
  9
$DIMBLK
  1
_FILLED
  9
$DIMTXT
 40
3.0
  9
$PDMODE
 70
3
  9
$PDSIZE
 40
0.3125
  0
ENDSEC
  0
SECTION
  2
TABLES
  0
TABLE
  2
LTYPE
 70
6
  0
LTYPE
  2
BYBLOCK
 70
0
  3

 72
65
 73
0
 40
0.0
  0
LTYPE
  2
BYLAYER
 70
0
  3

 72
65
 73
0
 40
0.0
  0
LTYPE
  2
CONTINUOUS
 70
64
  3
Solid line
 72
65
 73
0
 40
0.0
  0
LTYPE
  2
CENTER
 70
64
  3
____ _ ____ _ ____ _ ____ _ ____ _ ____ _ ____
 72
65
 73
4
 40
0.6
 49
0.375
 49
-0.075
 49
0.075
 49
-0.075
  0
LTYPE
  2
HIDDEN
 70
64
  3
- - - - - - - - - - - - - - - - - - - -
 72
65
 73
2
 40
0.2
 49
0.1
 49
-0.1
  0
LTYPE
  2
PHANTOM
 70
64
  3
_____ _ _ _____ _ _ _____ _ _ _____
 72
65
 73
6
 40
0.8
 49
0.45
 49
-0.05
 49
0.1
 49
-0.05
 49
0.1
 49
-0.05
  0
LTYPE
  2
DOT
 70
64
  3
. . . . . . . . . . . . . . . . . . . .
 72
65
 73
2
 40
0.2
 49
0.1
 49
-0.1
  0
LTYPE
  2
DASHED
 70
64
  3
- - - - - - - - - - - - - - - - - - - -
 72
65
 73
2
 40
0.2
 49
0.1
 49
-0.1
  0
ENDTAB
  0
TABLE
  2
LAYER
 70
36
  0
LAYER
  2
0
 70
0
 62
7
  6
CONTINUOUS
  0
LAYER
  2
DEFAULT_1
 70
0
 62
7
  6
CENTER
  0
LAYER
  2
DEFAULT_2
 70
0
 62
8
  6
HIDDEN
  0
LAYER
  2
DEFAULT_3
 70
0
 62
7
  6
PHANTOM
  0
LAYER
  2
_2D_DELETED_OBJS
 70
0
 62
7
  6
CONTINUOUS
  0
LAYER
  2
01___PRT_ALL_DTM_PLN
 70
0
 62
7
  6
CONTINUOUS
  0
LAYER
  2
01___PRT_DEF_DTM_PLN
 70
0
 62
7
  6
CONTINUOUS
  0
LAYER
  2
02___PRT_ALL_AXES
 70
0
 62
7
  6
CONTINUOUS
  0
LAYER
  2
03___PRT_ALL_CURVES
 70
0
 62
7
  6
CONTINUOUS
  0
LAYER
  2
04___PRT_ALL_DTM_PNT
 70
0
 62
7
  6
CONTINUOUS
  0
LAYER
  2
05___PRT_ALL_DTM_CSYS
 70
0
 62
7
  6
CONTINUOUS
  0
LAYER
  2
05___PRT_DEF_DTM_CSYS
 70
0
 62
7
  6
CONTINUOUS
  0
LAYER
  2
06___PRT_ALL_SURFS
 70
0
 62
7
  6
CONTINUOUS
  0
LAYER
  2
CURVES
 70
0
 62
7
  6
CONTINUOUS
  0
ENDTAB
  0
TABLE
  2
STYLE
 70
1
  0
STYLE
  2
STANDARD
 70
0
 40
0.0
 41
0.6
 50
0.0
 71
0
 42
0.2
  3
txt
  4

  0
ENDTAB
  0
ENDSEC
  0
SECTION
  2
BLOCKS
  0
BLOCK
  8
0
 62
7
  6
CONTINUOUS
  2
*D0
 70
65
 10
0.0
 20
0.0
  0
TEXT
  8
0
 62
7
  6
CONTINUOUS
 10
187.6962765957
 20
35.3355030426
  7
STANDARD
 40
3.0
  1
147
 41
0.6
 72
0
  0
LINE
  8
0
 62
7
  6
CONTINUOUS
 10
116.8468741864
 20
72.6153038039
 11
116.8468741864
 21
33.8355030426
  0
LINE
  8
0
 62
7
  6
CONTINUOUS
 10
263.9456790051
 20
133.4027334869
 11
263.9456790051
 21
33.8355030426
  0
LINE
  8
0
 62
7
  6
CONTINUOUS
 10
116.8468741864
 20
36.8355030426
 11
186.1962765957
 21
36.8355030426
  0
LINE
  8
0
 62
7
  6
CONTINUOUS
 10
263.9456790051
 20
36.8355030426
 11
194.5962765957
 21
36.8355030426
  0
INSERT
  8
0
 62
7
  6
CONTINUOUS
  2
_FILLED
 10
116.8468741864
 20
36.8355030426
 41
3.0
 42
3.0
 43
3.0
 50
180.0
  0
INSERT
  8
0
 62
7
  6
CONTINUOUS
  2
_FILLED
 10
263.9456790051
 20
36.8355030426
 41
3.0
 42
3.0
 43
3.0
  0
ENDBLK
  8
0
  6
BYBLOCK
 62
0
  0
BLOCK
  8
0
 62
7
  6
CONTINUOUS
  2
*D1
 70
65
 10
0.0
 20
0.0
  0
TEXT
  8
0
 62
7
  6
CONTINUOUS
 10
159.5468741864
 20
51.7244482759
  7
STANDARD
 40
3.0
  1
89
 41
0.6
 72
0
  0
LINE
  8
0
 62
7
  6
CONTINUOUS
 10
205.8468741864
 20
72.6153038039
 11
205.8468741864
 21
50.2244482759
  0
LINE
  8
0
 62
7
  6
CONTINUOUS
 10
116.8468741864
 20
72.6153038039
 11
116.8468741864
 21
50.2244482759
  0
LINE
  8
0
 62
7
  6
CONTINUOUS
 10
205.8468741864
 20
53.2244482759
 11
164.6468741864
 21
53.2244482759
  0
LINE
  8
0
 62
7
  6
CONTINUOUS
 10
116.8468741864
 20
53.2244482759
 11
158.0468741864
 21
53.2244482759
  0
INSERT
  8
0
 62
7
  6
CONTINUOUS
  2
_FILLED
 10
205.8468741864
 20
53.2244482759
 41
3.0
 42
3.0
 43
3.0
  0
INSERT
  8
0
 62
7
  6
CONTINUOUS
  2
_FILLED
 10
116.8468741864
 20
53.2244482759
 41
3.0
 42
3.0
 43
3.0
 50
180.0
  0
ENDBLK
  8
0
  6
BYBLOCK
 62
0
  0
BLOCK
  8
0
 62
7
  6
CONTINUOUS
  2
*D2
 70
65
 10
0.0
 20
0.0
  0
TEXT
  8
0
 62
7
  6
CONTINUOUS
 10
92.7488889452
 20
143.9840425532
  7
STANDARD
 40
3.0
  1
143
 41
0.6
 72
0
  0
LINE
  8
0
 62
7
  6
CONTINUOUS
 10
115.3468741864
 20
74.1153038039
 11
92.4488889452
 21
74.1153038039
  0
LINE
  8
0
 62
7
  6
CONTINUOUS
 10
259.5839202755
 20
216.8527813025
 11
92.4488889452
 21
216.8527813025
  0
LINE
  8
0
 62
7
  6
CONTINUOUS
 10
95.4488889452
 20
74.1153038039
 11
95.4488889452
 21
142.4840425532
  0
LINE
  8
0
 62
7
  6
CONTINUOUS
 10
95.4488889452
 20
216.8527813025
 11
95.4488889452
 21
148.4840425532
  0
INSERT
  8
0
 62
7
  6
CONTINUOUS
  2
_FILLED
 10
95.4488889452
 20
74.1153038039
 41
3.0
 42
3.0
 43
3.0
 50
270.0
  0
INSERT
  8
0
 62
7
  6
CONTINUOUS
  2
_FILLED
 10
95.4488889452
 20
216.8527813025
 41
3.0
 42
3.0
 43
3.0
 50
90.0
  0
ENDBLK
  8
0
  6
BYBLOCK
 62
0
  0
BLOCK
  8
0
 62
7
  6
CONTINUOUS
  2
*D3
 70
65
 10
0.0
 20
0.0
  0
TEXT
  8
0
 62
7
  6
CONTINUOUS
 10
174.8516035909
 20
187.7289371465
  7
STANDARD
 40
3.0
  1
88%%d
 41
0.6222222222
 72
0
  0
LINE
  8
0
 62
7
  6
CONTINUOUS
 10
162.8459604269
 20
172.397244835
 11
187.8023282562
 21
173.2687404034
  0
LINE
  8
0
 62
7
  6
CONTINUOUS
 10
161.3468741864
 20
173.84489559
 11
161.3468741864
 21
198.816475431
  0
ARC
  8
0
 62
7
  6
CONTINUOUS
 10
161.3468741864
 20
172.34489559
 40
23.471579841
 50
2.0
 51
36.2653479631
  0
ARC
  8
0
 62
7
  6
CONTINUOUS
 10
161.3468741864
 20
172.34489559
 40
23.471579841
 50
57.9034534293
 51
90.0
  0
SOLID
  8
0
 62
7
  6
CONTINUOUS
 10
183.7618555503
 20
176.075417918
 11
184.8041557752
 21
173.1640419133
 12
185.2545384026
 22
176.2233973174
 13
185.2545384026
 23
176.2233973174
  0
SOLID
  8
0
 62
7
  6
CONTINUOUS
 10
164.3886477869
 20
196.3733536613
 11
161.3468741864
 21
195.816475431
 12
164.2928524128
 22
194.8764157046
 13
164.2928524128
 23
194.8764157046
  0
ENDBLK
  8
0
  6
BYBLOCK
 62
0
  0
BLOCK
  8
0
 62
7
  6
CONTINUOUS
  2
*D4
 70
65
 10
0.0
 20
0.0
  0
TEXT
  8
0
 62
7
  6
CONTINUOUS
 10
276.7021123235
 20
174.9360466557
  7
STANDARD
 40
3.0
  1
82
 41
0.6
 72
0
  0
LINE
  8
0
 62
7
  6
CONTINUOUS
 10
265.4447652456
 20
134.955082732
 11
282.9311641694
 21
135.565721238
  0
LINE
  8
0
 62
7
  6
CONTINUOUS
 10
262.583006516
 20
216.9051305476
 11
280.0694054398
 21
217.5157690536
  0
LINE
  8
0
 62
7
  6
CONTINUOUS
 10
279.9329916883
 20
135.4610227479
 11
278.606874632
 21
173.4360466557
  0
LINE
  8
0
 62
7
  6
CONTINUOUS
 10
277.0712329587
 20
217.4110705635
 11
278.397350015
 21
179.4360466557
  0
INSERT
  8
0
 62
7
  6
CONTINUOUS
  2
_FILLED
 10
279.9329916883
 20
135.4610227479
 41
3.0
 42
3.0
 43
3.0
 50
272.0
  0
INSERT
  8
0
 62
7
  6
CONTINUOUS
  2
_FILLED
 10
277.0712329587
 20
217.4110705635
 41
3.0
 42
3.0
 43
3.0
 50
92.0
  0
ENDBLK
  8
0
  6
BYBLOCK
 62
0
  0
BLOCK
  8
0
  2
_FILLED
 70
64
 10
0.0
 20
0.0
  0
SOLID
  8
0
  6
BYBLOCK
 62
0
 10
0.0
 20
0.0
 11
-1.0
 21
0.25
 12
-1.0
 22
-0.25
 13
-1.0
 23
-0.25
  0
ENDBLK
  8
0
  6
BYBLOCK
 62
0
  0
ENDSEC
  0
SECTION
  2
ENTITIES
  0
DIMENSION
  8
0
 62
7
  6
CONTINUOUS
  2
*D0
 10
263.9456790051
 20
36.8355030426
 11
190.3962765957
 21
36.8355030426
 70
128
 13
116.8468741864
 23
72.6153038039
 14
263.9456790051
 24
133.4027334869
  0
DIMENSION
  8
0
 62
7
  6
CONTINUOUS
  2
*D1
 10
116.8468741864
 20
53.2244482759
 11
161.3468741864
 21
53.2244482759
 70
128
 13
205.8468741864
 23
72.6153038039
 14
116.8468741864
 24
72.6153038039
 50
180.0
  0
DIMENSION
  8
0
 62
7
  6
CONTINUOUS
  2
*D2
 10
95.4488889452
 20
216.8527813025
 11
95.4488889452
 21
145.4840425532
 70
128
 13
115.3468741864
 23
74.1153038039
 14
259.5839202755
 24
216.8527813025
 50
90.0
  0
DIMENSION
  8
0
 62
7
  6
CONTINUOUS
  2
*D3
 10
161.3468741864
 20
173.84489559
 11
177.6516035909
 21
189.2289371465
 70
130
 13
162.8459604269
 23
172.397244835
 14
187.8023282562
 24
173.2687404034
 15
161.3468741864
 25
198.816475431
 16
177.6516035909
 26
189.2289371465
  0
DIMENSION
  8
0
 62
7
  6
CONTINUOUS
  2
*D4
 10
277.0712329587
 20
217.4110705635
 11
278.5021123235
 21
176.4360466557
 70
128
 13
265.4447652456
 23
134.955082732
 14
262.583006516
 24
216.9051305476
 50
92.0
  0
LINE
  8
0
 62
7
  6
CONTINUOUS
 10
0.0
 20
0.0
 11
0.0
 21
297.0
  0
LINE
  8
0
 62
7
  6
CONTINUOUS
 10
0.0
 20
0.0
 11
420.0
 21
0.0
  0
LINE
  8
0
 62
7
  6
CONTINUOUS
 10
0.0
 20
297.0
 11
420.0
 21
297.0
  0
LINE
  8
0
 62
7
  6
CONTINUOUS
 10
420.0
 20
0.0
 11
420.0
 21
297.0
  0
LINE
  8
02___PRT_ALL_AXES
 62
7
  6
CONTINUOUS
 10
116.8468741864
 20
118.1153038039
 11
116.8468741864
 21
74.1153038039
  0
LINE
  8
0
 62
7
  6
CONTINUOUS
 10
120.3468741864
 20
121.1153038039
 11
120.3468741864
 21
120.136029746
  0
LINE
  8
02___PRT_ALL_AXES
 62
7
  6
CONTINUOUS
 10
205.8468741864
 20
74.1153038039
 11
116.8468741864
 21
74.1153038039
  0
LINE
  8
02___PRT_ALL_AXES
 62
7
  6
CENTER
 10
161.3468741864
 20
71.6153038039
 11
161.3468741864
 21
218.563651379
  0
LINE
  8
02___PRT_ALL_AXES
 62
7
  6
CONTINUOUS
 10
205.8468741864
 20
118.1153038039
 11
116.8468741864
 21
118.1153038039
  0
LINE
  8
0
 62
7
  6
CONTINUOUS
 10
202.3468741864
 20
120.136029746
 11
120.3468741864
 21
120.136029746
  0
LINE
  8
0
 62
9
  6
CONTINUOUS
 10
202.3468741864
 20
121.1153038039
 11
120.3468741864
 21
121.1153038039
  0
LINE
  8
02___PRT_ALL_AXES
 62
7
  6
CONTINUOUS
 10
120.3468741864
 20
120.136029746
 11
116.8468741864
 21
118.1153038039
  0
LINE
  8
0
 62
7
  6
CONTINUOUS
 10
263.9456790051
 20
134.9027334869
 11
213.9761376542
 21
133.1577586518
  0
LINE
  8
02___PRT_ALL_AXES
 62
7
  6
CONTINUOUS
 10
202.3468741864
 20
120.136029746
 11
205.8468741864
 21
118.1153038039
  0
LINE
  8
0
 62
7
  6
CONTINUOUS
 10
202.3468741864
 20
121.1153038039
 11
202.3468741864
 21
120.136029746
  0
LINE
  8
02___PRT_ALL_AXES
 62
7
  6
CONTINUOUS
 10
205.8468741864
 20
118.1153038039
 11
205.8468741864
 21
74.1153038039
  0
LINE
  8
0
 62
9
  6
CONTINUOUS
 10
213.9761376542
 20
133.1577586518
 11
211.1143789245
 21
215.1078064674
  0
LINE
  8
02___PRT_ALL_AXES
 62
7
  6
CENTER
 10
117.0896300447
 20
170.799398569
 11
264.4483390553
 21
175.9452780789
  0
LINE
  8
0
 62
7
  6
CONTINUOUS
 10
261.0839202755
 20
216.8527813025
 11
211.1143789245
 21
215.1078064674
  0
LINE
  8
0
 62
7
  6
CONTINUOUS
 10
261.0839202755
 20
216.8527813025
 11
263.9456790051
 21
134.9027334869
  0
ARC
  8
0
 62
7
  6
CONTINUOUS
 10
214.396669444
 20
121.1153038039
 40
94.0497952576
 50
92.0
 51
180.0
  0
ARC
  8
0
 62
7
  6
CONTINUOUS
 10
214.396669444
 20
121.1153038039
 40
12.0497952576
 50
92.0
 51
180.0
  0
ENDSEC
  0
EOF
