999
DXF file: 104-100-65-45_reducing_junction.dxf
999
Pro/ENGINEER 2006320 by Parametric Technology Corporation
  0
SECTION
  2
HEADER
  9
$EXTMAX
 10
420.0
 20
297.0
 30
0.0
  9
$EXTMIN
 10
0.0
 20
0.0
 30
0.0
  9
$LIMMIN
 10
0.0
 20
0.0
  9
$LIMMAX
 10
420.0
 20
297.0
  9
$VIEWCTR
 10
210.0
 20
148.5
  9
$VIEWSIZE
 40
297.0
  9
$CLAYER
  8
0
  9
$LTSCALE
 40
23.1
  9
$CELTYPE
  6
BYLAYER
  9
$DIMSCALE
 40
1.0
  9
$DIMASZ
 40
3.0
  9
$DIMEXO
 40
2.625
  9
$DIMDLI
 40
15.96
  9
$DIMEXE
 40
7.56
  9
$DIMCEN
 40
3.78
  9
$DIMLFAC
 40
1.0
  9
$DIMBLK
  1
_FILLED
  9
$DIMTXT
 40
3.0
  9
$PDMODE
 70
3
  9
$PDSIZE
 40
0.3125
  0
ENDSEC
  0
SECTION
  2
TABLES
  0
TABLE
  2
LTYPE
 70
6
  0
LTYPE
  2
BYBLOCK
 70
0
  3

 72
65
 73
0
 40
0.0
  0
LTYPE
  2
BYLAYER
 70
0
  3

 72
65
 73
0
 40
0.0
  0
LTYPE
  2
CONTINUOUS
 70
64
  3
Solid line
 72
65
 73
0
 40
0.0
  0
LTYPE
  2
CENTER
 70
64
  3
____ _ ____ _ ____ _ ____ _ ____ _ ____ _ ____
 72
65
 73
4
 40
0.6
 49
0.375
 49
-0.075
 49
0.075
 49
-0.075
  0
LTYPE
  2
HIDDEN
 70
64
  3
- - - - - - - - - - - - - - - - - - - -
 72
65
 73
2
 40
0.2
 49
0.1
 49
-0.1
  0
LTYPE
  2
PHANTOM
 70
64
  3
_____ _ _ _____ _ _ _____ _ _ _____
 72
65
 73
6
 40
0.8
 49
0.45
 49
-0.05
 49
0.1
 49
-0.05
 49
0.1
 49
-0.05
  0
LTYPE
  2
DOT
 70
64
  3
. . . . . . . . . . . . . . . . . . . .
 72
65
 73
2
 40
0.2
 49
0.1
 49
-0.1
  0
LTYPE
  2
DASHED
 70
64
  3
- - - - - - - - - - - - - - - - - - - -
 72
65
 73
2
 40
0.2
 49
0.1
 49
-0.1
  0
ENDTAB
  0
TABLE
  2
LAYER
 70
36
  0
LAYER
  2
0
 70
0
 62
7
  6
CONTINUOUS
  0
LAYER
  2
DEFAULT_1
 70
0
 62
7
  6
CENTER
  0
LAYER
  2
DEFAULT_2
 70
0
 62
8
  6
HIDDEN
  0
LAYER
  2
DEFAULT_3
 70
0
 62
7
  6
PHANTOM
  0
LAYER
  2
01___PRT_ALL_DTM_PLN
 70
0
 62
7
  6
CONTINUOUS
  0
LAYER
  2
01___PRT_DEF_DTM_PLN
 70
0
 62
7
  6
CONTINUOUS
  0
LAYER
  2
02___PRT_ALL_AXES
 70
0
 62
7
  6
CONTINUOUS
  0
LAYER
  2
03___PRT_ALL_CURVES
 70
0
 62
7
  6
CONTINUOUS
  0
LAYER
  2
04___PRT_ALL_DTM_PNT
 70
0
 62
7
  6
CONTINUOUS
  0
LAYER
  2
05___PRT_ALL_DTM_CSYS
 70
0
 62
7
  6
CONTINUOUS
  0
LAYER
  2
05___PRT_DEF_DTM_CSYS
 70
0
 62
7
  6
CONTINUOUS
  0
LAYER
  2
06___PRT_ALL_SURFS
 70
0
 62
7
  6
CONTINUOUS
  0
LAYER
  2
CURVES
 70
0
 62
7
  6
CONTINUOUS
  0
ENDTAB
  0
TABLE
  2
STYLE
 70
1
  0
STYLE
  2
STANDARD
 70
0
 40
0.0
 41
0.6
 50
0.0
 71
0
 42
0.2
  3
txt
  4

  0
ENDTAB
  0
ENDSEC
  0
SECTION
  2
BLOCKS
  0
BLOCK
  8
0
 62
7
  6
CONTINUOUS
  2
*D0
 70
65
 10
0.0
 20
0.0
  0
TEXT
  8
0
 62
7
  6
CONTINUOUS
 10
67.4959357719
 20
155.8148112983
  7
STANDARD
 40
3.0
  1
266
 41
0.6
 72
0
  0
LINE
  8
0
 62
7
  6
CONTINUOUS
 10
173.3909803152
 20
24.3148112983
 11
67.1959357719
 21
24.3148112983
  0
LINE
  8
0
 62
7
  6
CONTINUOUS
 10
173.3909803152
 20
290.3148112983
 11
67.1959357719
 21
290.3148112983
  0
LINE
  8
0
 62
7
  6
CONTINUOUS
 10
70.1959357719
 20
24.3148112983
 11
70.1959357719
 21
154.3148112983
  0
LINE
  8
0
 62
7
  6
CONTINUOUS
 10
70.1959357719
 20
290.3148112983
 11
70.1959357719
 21
160.3148112983
  0
INSERT
  8
0
 62
7
  6
CONTINUOUS
  2
_FILLED
 10
70.1959357719
 20
24.3148112983
 41
3.0
 42
3.0
 43
3.0
 50
270.0
  0
INSERT
  8
0
 62
7
  6
CONTINUOUS
  2
_FILLED
 10
70.1959357719
 20
290.3148112983
 41
3.0
 42
3.0
 43
3.0
 50
90.0
  0
ENDBLK
  8
0
  6
BYBLOCK
 62
0
  0
BLOCK
  8
0
 62
7
  6
CONTINUOUS
  2
*D1
 70
65
 10
0.0
 20
0.0
  0
TEXT
  8
0
 62
7
  6
CONTINUOUS
 10
209.7339081602
 20
7.3396632885
  7
STANDARD
 40
3.0
  1
193
 41
0.6
 72
0
  0
LINE
  8
0
 62
7
  6
CONTINUOUS
 10
115.8909803152
 20
22.8148112983
 11
115.8909803152
 21
5.8396632885
  0
LINE
  8
0
 62
7
  6
CONTINUOUS
 10
308.9768360053
 20
181.2165456615
 11
308.9768360053
 21
5.8396632885
  0
LINE
  8
0
 62
7
  6
CONTINUOUS
 10
115.8909803152
 20
8.8396632885
 11
208.2339081602
 21
8.8396632885
  0
LINE
  8
0
 62
7
  6
CONTINUOUS
 10
308.9768360053
 20
8.8396632885
 11
216.6339081602
 21
8.8396632885
  0
INSERT
  8
0
 62
7
  6
CONTINUOUS
  2
_FILLED
 10
115.8909803152
 20
8.8396632885
 41
3.0
 42
3.0
 43
3.0
 50
180.0
  0
INSERT
  8
0
 62
7
  6
CONTINUOUS
  2
_FILLED
 10
308.9768360053
 20
8.8396632885
 41
3.0
 42
3.0
 43
3.0
 50
0.0
  0
ENDBLK
  8
0
  6
BYBLOCK
 62
0
  0
BLOCK
  8
0
 62
7
  6
CONTINUOUS
  2
*D2
 70
65
 10
0.0
 20
0.0
  0
TEXT
  8
0
 62
7
  6
CONTINUOUS
 10
256.438696776
 20
65.1910739568
  7
STANDARD
 40
3.0
  1
85
 41
0.6
 72
0
  0
LINE
  8
0
 62
7
  6
CONTINUOUS
 10
235.3909803152
 20
24.3148112983
 11
261.238696776
 21
24.3148112983
  0
LINE
  8
0
 62
7
  6
CONTINUOUS
 10
231.3909803152
 20
109.0673366153
 11
261.238696776
 21
109.0673366153
  0
LINE
  8
0
 62
7
  6
CONTINUOUS
 10
258.238696776
 20
24.3148112983
 11
258.238696776
 21
63.6910739568
  0
LINE
  8
0
 62
7
  6
CONTINUOUS
 10
258.238696776
 20
109.0673366153
 11
258.238696776
 21
69.6910739568
  0
INSERT
  8
0
 62
7
  6
CONTINUOUS
  2
_FILLED
 10
258.238696776
 20
24.3148112983
 41
3.0
 42
3.0
 43
3.0
 50
270.0
  0
INSERT
  8
0
 62
7
  6
CONTINUOUS
  2
_FILLED
 10
258.238696776
 20
109.0673366153
 41
3.0
 42
3.0
 43
3.0
 50
90.0
  0
ENDBLK
  8
0
  6
BYBLOCK
 62
0
  0
BLOCK
  8
0
 62
7
  6
CONTINUOUS
  2
*D3
 70
65
 10
0.0
 20
0.0
  0
TEXT
  8
0
 62
7
  6
CONTINUOUS
 10
172.1909803152
 20
14.9060852911
  7
STANDARD
 40
3.0
  1
118
 41
0.6
 72
0
  0
LINE
  8
0
 62
7
  6
CONTINUOUS
 10
115.8909803152
 20
22.8148112983
 11
115.8909803152
 21
13.4060852911
  0
LINE
  8
0
 62
7
  6
CONTINUOUS
 10
233.8909803152
 20
22.8148112983
 11
233.8909803152
 21
13.4060852911
  0
LINE
  8
0
 62
7
  6
CONTINUOUS
 10
115.8909803152
 20
16.4060852911
 11
170.6909803152
 21
16.4060852911
  0
LINE
  8
0
 62
7
  6
CONTINUOUS
 10
233.8909803152
 20
16.4060852911
 11
179.0909803152
 21
16.4060852911
  0
INSERT
  8
0
 62
7
  6
CONTINUOUS
  2
_FILLED
 10
115.8909803152
 20
16.4060852911
 41
3.0
 42
3.0
 43
3.0
 50
180.0
  0
INSERT
  8
0
 62
7
  6
CONTINUOUS
  2
_FILLED
 10
233.8909803152
 20
16.4060852911
 41
3.0
 42
3.0
 43
3.0
  0
ENDBLK
  8
0
  6
BYBLOCK
 62
0
  0
BLOCK
  8
0
 62
7
  6
CONTINUOUS
  2
*D4
 70
65
 10
0.0
 20
0.0
  0
TEXT
  8
0
 62
7
  6
CONTINUOUS
 10
286.7806666535
 20
215.7544976366
  7
STANDARD
 40
3.0
  1
78
 41
0.6
 72
0
  0
LINE
  8
0
 62
7
  6
CONTINUOUS
 10
310.037496177
 20
183.7772058332
 11
318.1690476605
 21
191.9087573167
  0
LINE
  8
0
 62
7
  6
CONTINUOUS
 10
255.1033748501
 20
238.7113271602
 11
263.2349263336
 21
246.8428786436
  0
LINE
  8
0
 62
7
  6
CONTINUOUS
 10
316.0477273169
 20
189.7874369732
 11
291.5806666535
 21
214.2544976366
  0
LINE
  8
0
 62
7
  6
CONTINUOUS
 10
261.11360599
 20
244.7215583001
 11
285.5806666535
 21
220.2544976366
  0
INSERT
  8
0
 62
7
  6
CONTINUOUS
  2
_FILLED
 10
316.0477273169
 20
189.7874369732
 41
3.0
 42
3.0
 43
3.0
 50
315.0
  0
INSERT
  8
0
 62
7
  6
CONTINUOUS
  2
_FILLED
 10
261.11360599
 20
244.7215583001
 41
3.0
 42
3.0
 43
3.0
 50
135.0
  0
ENDBLK
  8
0
  6
BYBLOCK
 62
0
  0
BLOCK
  8
0
 62
7
  6
CONTINUOUS
  2
*D5
 70
65
 10
0.0
 20
0.0
  0
TEXT
  8
0
 62
7
  6
CONTINUOUS
 10
204.9364583881
 20
181.3608099245
  7
STANDARD
 40
3.0
  1
45%%d
 41
0.6222222222
 72
0
  0
LINE
  8
0
 62
7
  6
CONTINUOUS
 10
219.7997673481
 20
148.4735983312
 11
237.7028305129
 21
166.3766614961
  0
LINE
  8
0
 62
7
  6
CONTINUOUS
 10
174.8909803152
 20
176.1912027579
 11
174.8909803152
 21
192.3941817257
  0
ARC
  8
0
 62
7
  6
CONTINUOUS
 10
174.8909803152
 20
103.5648112983
 40
85.8293704274
 50
45.0
 51
64.3557042205
  0
ARC
  8
0
 62
7
  6
CONTINUOUS
 10
174.8909803152
 20
103.5648112983
 40
85.8293704274
 50
70.5743090347
 51
90.0
  0
SOLID
  8
0
 62
7
  6
CONTINUOUS
 10
232.9024610938
 20
165.7997491462
 11
235.5815101693
 21
164.2553411525
 12
233.9444235703
 22
166.8787830648
 13
233.9444235703
 23
166.8787830648
  0
SOLID
  8
0
 62
7
  6
CONTINUOUS
 10
177.903628917
 20
190.0916402564
 11
174.8909803152
 21
189.3941817257
 12
177.8774154489
 22
188.5918693225
 13
177.8774154489
 23
188.5918693225
  0
ENDBLK
  8
0
  6
BYBLOCK
 62
0
  0
BLOCK
  8
0
  2
_FILLED
 70
64
 10
0.0
 20
0.0
  0
SOLID
  8
0
  6
BYBLOCK
 62
0
 10
0.0
 20
0.0
 11
-1.0
 21
0.25
 12
-1.0
 22
-0.25
 13
-1.0
 23
-0.25
  0
ENDBLK
  8
0
  6
BYBLOCK
 62
0
  0
ENDSEC
  0
SECTION
  2
ENTITIES
  0
DIMENSION
  8
0
 62
7
  6
CONTINUOUS
  2
*D0
 10
70.1959357719
 20
290.3148112983
 11
70.1959357719
 21
157.3148112983
 70
128
 13
173.3909803152
 23
24.3148112983
 14
173.3909803152
 24
290.3148112983
 50
90.0
  0
DIMENSION
  8
0
 62
7
  6
CONTINUOUS
  2
*D1
 10
308.9768360053
 20
8.8396632885
 11
212.4339081602
 21
8.8396632885
 70
128
 13
115.8909803152
 23
22.8148112983
 14
308.9768360053
 24
181.2165456615
  0
DIMENSION
  8
0
 62
7
  6
CONTINUOUS
  2
*D2
 10
258.238696776
 20
109.0673366153
 11
258.238696776
 21
66.6910739568
 70
128
 13
235.3909803152
 23
24.3148112983
 14
231.3909803152
 24
109.0673366153
 50
90.0
  0
DIMENSION
  8
0
 62
7
  6
CONTINUOUS
  2
*D3
 10
233.8909803152
 20
16.4060852911
 11
174.8909803152
 21
16.4060852911
 70
128
 13
115.8909803152
 23
22.8148112983
 14
233.8909803152
 24
22.8148112983
  0
DIMENSION
  8
0
 62
7
  6
CONTINUOUS
  2
*D4
 10
261.11360599
 20
244.7215583001
 11
288.5806666535
 21
217.2544976366
 70
128
 13
310.037496177
 23
183.7772058332
 14
255.1033748501
 24
238.7113271602
 50
135.0
  0
DIMENSION
  8
0
 62
7
  6
CONTINUOUS
  2
*D5
 10
174.8909803152
 20
176.1912027579
 11
207.7364583881
 21
182.8608099245
 70
130
 13
219.7997673481
 23
148.4735983312
 14
237.7028305129
 24
166.3766614961
 15
174.8909803152
 25
192.3941817257
 16
207.7364583881
 26
182.8608099245
  0
LINE
  8
0
 62
7
  6
CONTINUOUS
 10
0.0
 20
0.0
 11
0.0
 21
297.0
  0
LINE
  8
0
 62
7
  6
CONTINUOUS
 10
0.0
 20
0.0
 11
420.0
 21
0.0
  0
LINE
  8
0
 62
7
  6
CONTINUOUS
 10
0.0
 20
297.0
 11
420.0
 21
297.0
  0
LINE
  8
0
 62
7
  6
CONTINUOUS
 10
420.0
 20
0.0
 11
420.0
 21
297.0
  0
LINE
  8
02___PRT_ALL_AXES
 62
7
  6
CONTINUOUS
 10
233.8909803152
 20
24.3148112983
 11
115.8909803152
 21
24.3148112983
  0
LINE
  8
02___PRT_ALL_AXES
 62
7
  6
CONTINUOUS
 10
114.781912563
 20
290.3148112983
 11
113.8909803152
 21
273.3148112983
  0
LINE
  8
0
 62
7
  6
CONTINUOUS
 10
115.8909803152
 20
272.1601107599
 11
115.8909803152
 21
240.3148112983
  0
LINE
  8
02___PRT_ALL_AXES
 62
7
  6
CONTINUOUS
 10
115.8909803152
 20
76.8148112983
 11
115.8909803152
 21
24.3148112983
  0
LINE
  8
0
 62
7
  6
CONTINUOUS
 10
119.8909803152
 20
238.0054102216
 11
119.8909803152
 21
79.1242123751
  0
LINE
  8
0
 62
7
  6
CONTINUOUS
 10
122.0634306843
 20
245.3148112983
 11
122.0634306843
 21
248.3148112983
  0
LINE
  8
02___PRT_ALL_AXES
 62
7
  6
CONTINUOUS
 10
235.8909803152
 20
273.3148112983
 11
233.8909803152
 21
272.1601107599
  0
LINE
  8
02___PRT_ALL_AXES
 62
7
  6
CONTINUOUS
 10
233.8909803152
 20
76.8148112983
 11
115.8909803152
 21
76.8148112983
  0
LINE
  8
0
 62
7
  6
CONTINUOUS
 10
229.8909803152
 20
79.1242123751
 11
119.8909803152
 21
79.1242123751
  0
LINE
  8
0
 62
7
  6
CONTINUOUS
 10
144.3909803152
 20
245.3148112983
 11
144.3909803152
 21
248.3148112983
  0
LINE
  8
0
 62
7
  6
CONTINUOUS
 10
145.3909803152
 20
248.3148112983
 11
145.3909803152
 21
245.3148112983
  0
LINE
  8
0
 62
7
  6
CONTINUOUS
 10
233.8909803152
 20
240.3148112983
 11
229.8909803152
 21
238.0054102216
  0
LINE
  8
02___PRT_ALL_AXES
 62
7
  6
CONTINUOUS
 10
229.8909803152
 20
79.1242123751
 11
233.8909803152
 21
76.8148112983
  0
LINE
  8
02___PRT_ALL_AXES
 62
7
  6
CENTER
 10
174.8909803152
 20
21.8148112983
 11
174.8909803152
 21
298.9012385087
  0
LINE
  8
02___PRT_ALL_AXES
 62
7
  6
CONTINUOUS
 10
229.8909803152
 20
212.3049266685
 11
248.4670204865
 21
230.8809668399
  0
LINE
  8
0
 62
7
  6
CONTINUOUS
 10
254.0427146783
 20
237.6506669884
 11
248.0893972599
 21
232.2902759079
  0
LINE
  8
02___PRT_ALL_AXES
 62
7
  6
CONTINUOUS
 10
204.3909803152
 20
248.3148112983
 11
204.3909803152
 21
245.3148112983
  0
LINE
  8
02___PRT_ALL_AXES
 62
7
  6
CONTINUOUS
 10
205.3909803152
 20
245.3148112983
 11
205.3909803152
 21
248.3148112983
  0
POLYLINE
  8
02___PRT_ALL_AXES
 62
7
  6
CONTINUOUS
 66
1
 70
0
  0
VERTEX
  8
02___PRT_ALL_AXES
 62
7
  6
CONTINUOUS
 10
229.8909803152
 20
212.3049266685
  0
VERTEX
  8
02___PRT_ALL_AXES
 62
7
  6
CONTINUOUS
 10
229.871625826
 20
212.2459480692
  0
VERTEX
  8
02___PRT_ALL_AXES
 62
7
  6
CONTINUOUS
 10
228.6756794691
 20
208.5704800463
  0
SEQEND
  0
POLYLINE
  8
02___PRT_ALL_AXES
 62
7
  6
CONTINUOUS
 66
1
 70
0
  0
VERTEX
  8
02___PRT_ALL_AXES
 62
7
  6
CONTINUOUS
 10
229.1474076907
 20
205.6492620819
  0
VERTEX
  8
02___PRT_ALL_AXES
 62
7
  6
CONTINUOUS
 10
228.8605381262
 20
204.7087937548
  0
VERTEX
  8
02___PRT_ALL_AXES
 62
7
  6
CONTINUOUS
 10
228.5126153917
 20
203.5605716664
  0
VERTEX
  8
02___PRT_ALL_AXES
 62
7
  6
CONTINUOUS
 10
228.096590362
 20
202.1760804739
  0
VERTEX
  8
02___PRT_ALL_AXES
 62
7
  6
CONTINUOUS
 10
227.6070724101
 20
200.5298890487
  0
VERTEX
  8
02___PRT_ALL_AXES
 62
7
  6
CONTINUOUS
 10
227.0359265892
 20
198.58388548
  0
VERTEX
  8
02___PRT_ALL_AXES
 62
7
  6
CONTINUOUS
 10
226.3668253145
 20
196.2659548021
  0
VERTEX
  8
02___PRT_ALL_AXES
 62
7
  6
CONTINUOUS
 10
225.5867505238
 20
193.5049726233
  0
VERTEX
  8
02___PRT_ALL_AXES
 62
7
  6
CONTINUOUS
 10
224.7037758806
 20
190.291414634
  0
VERTEX
  8
02___PRT_ALL_AXES
 62
7
  6
CONTINUOUS
 10
223.76202471
 20
186.7397616004
  0
VERTEX
  8
02___PRT_ALL_AXES
 62
7
  6
CONTINUOUS
 10
222.8048302047
 20
182.9663416753
  0
VERTEX
  8
02___PRT_ALL_AXES
 62
7
  6
CONTINUOUS
 10
221.8608881123
 20
179.0363765374
  0
VERTEX
  8
02___PRT_ALL_AXES
 62
7
  6
CONTINUOUS
 10
220.9356808148
 20
174.9122564753
  0
VERTEX
  8
02___PRT_ALL_AXES
 62
7
  6
CONTINUOUS
 10
220.0188314987
 20
170.4422809817
  0
VERTEX
  8
02___PRT_ALL_AXES
 62
7
  6
CONTINUOUS
 10
219.1714257919
 20
165.7761157404
  0
VERTEX
  8
02___PRT_ALL_AXES
 62
7
  6
CONTINUOUS
 10
218.4546294129
 20
161.1135612332
  0
VERTEX
  8
02___PRT_ALL_AXES
 62
7
  6
CONTINUOUS
 10
217.9081257775
 20
156.6293249462
  0
VERTEX
  8
02___PRT_ALL_AXES
 62
7
  6
CONTINUOUS
 10
217.5464442881
 20
152.4634486223
  0
VERTEX
  8
02___PRT_ALL_AXES
 62
7
  6
CONTINUOUS
 10
217.3583108237
 20
148.6681086195
  0
VERTEX
  8
02___PRT_ALL_AXES
 62
7
  6
CONTINUOUS
 10
217.3210911265
 20
145.2020747549
  0
VERTEX
  8
02___PRT_ALL_AXES
 62
7
  6
CONTINUOUS
 10
217.4150047112
 20
142.0163301183
  0
VERTEX
  8
02___PRT_ALL_AXES
 62
7
  6
CONTINUOUS
 10
217.6227291066
 20
139.0851309982
  0
VERTEX
  8
02___PRT_ALL_AXES
 62
7
  6
CONTINUOUS
 10
217.9289750616
 20
136.3784242255
  0
VERTEX
  8
02___PRT_ALL_AXES
 62
7
  6
CONTINUOUS
 10
218.3219391818
 20
133.8619825867
  0
VERTEX
  8
02___PRT_ALL_AXES
 62
7
  6
CONTINUOUS
 10
218.7923791015
 20
131.5079636024
  0
VERTEX
  8
02___PRT_ALL_AXES
 62
7
  6
CONTINUOUS
 10
219.3355765817
 20
129.2839095851
  0
VERTEX
  8
02___PRT_ALL_AXES
 62
7
  6
CONTINUOUS
 10
219.9428348558
 20
127.1844658795
  0
VERTEX
  8
02___PRT_ALL_AXES
 62
7
  6
CONTINUOUS
 10
220.6027827146
 20
125.2113325399
  0
VERTEX
  8
02___PRT_ALL_AXES
 62
7
  6
CONTINUOUS
 10
221.303986013
 20
123.3632684218
  0
VERTEX
  8
02___PRT_ALL_AXES
 62
7
  6
CONTINUOUS
 10
222.0399087638
 20
121.6269230132
  0
VERTEX
  8
02___PRT_ALL_AXES
 62
7
  6
CONTINUOUS
 10
222.8081276597
 20
119.9842441341
  0
VERTEX
  8
02___PRT_ALL_AXES
 62
7
  6
CONTINUOUS
 10
223.5985602548
 20
118.4366603141
  0
VERTEX
  8
02___PRT_ALL_AXES
 62
7
  6
CONTINUOUS
 10
224.3966619908
 20
116.9924520578
  0
VERTEX
  8
02___PRT_ALL_AXES
 62
7
  6
CONTINUOUS
 10
225.1902987441
 20
115.6536224181
  0
VERTEX
  8
02___PRT_ALL_AXES
 62
7
  6
CONTINUOUS
 10
225.96370327
 20
114.4275098806
  0
VERTEX
  8
02___PRT_ALL_AXES
 62
7
  6
CONTINUOUS
 10
226.7028550505
 20
113.3179089808
  0
VERTEX
  8
02___PRT_ALL_AXES
 62
7
  6
CONTINUOUS
 10
227.3930967331
 20
112.3297072201
  0
VERTEX
  8
02___PRT_ALL_AXES
 62
7
  6
CONTINUOUS
 10
228.0193508085
 20
111.4687691084
  0
VERTEX
  8
02___PRT_ALL_AXES
 62
7
  6
CONTINUOUS
 10
228.5703646915
 20
110.7366412986
  0
VERTEX
  8
02___PRT_ALL_AXES
 62
7
  6
CONTINUOUS
 10
229.0347639165
 20
110.1365589401
  0
VERTEX
  8
02___PRT_ALL_AXES
 62
7
  6
CONTINUOUS
 10
229.4047633069
 20
109.6688321327
  0
VERTEX
  8
02___PRT_ALL_AXES
 62
7
  6
CONTINUOUS
 10
229.6733634017
 20
109.3347572563
  0
VERTEX
  8
02___PRT_ALL_AXES
 62
7
  6
CONTINUOUS
 10
229.8909803152
 20
109.0673366153
  0
SEQEND
  0
LINE
  8
02___PRT_ALL_AXES
 62
7
  6
CENTER
 10
283.2775422948
 20
211.9513732779
 11
160.7975967658
 21
89.471427749
  0
LINE
  8
02___PRT_ALL_AXES
 62
7
  6
CONTINUOUS
 10
227.718529946
 20
245.3148112983
 11
227.718529946
 21
248.3148112983
  0
LINE
  8
0
 62
7
  6
CONTINUOUS
 10
229.8909803152
 20
238.0054102216
 11
229.8909803152
 21
212.3049266685
  0
LINE
  8
0
 62
7
  6
CONTINUOUS
 10
229.8909803152
 20
109.0673366153
 11
229.8909803152
 21
79.1242123751
  0
LINE
  8
0
 62
7
  6
CONTINUOUS
 10
233.8909803152
 20
272.1601107599
 11
233.8909803152
 21
240.3148112983
  0
LINE
  8
02___PRT_ALL_AXES
 62
7
  6
CONTINUOUS
 10
233.8909803152
 20
76.8148112983
 11
233.8909803152
 21
24.3148112983
  0
LINE
  8
02___PRT_ALL_AXES
 62
7
  6
CONTINUOUS
 10
119.8909803152
 20
79.1242123751
 11
115.8909803152
 21
76.8148112983
  0
LINE
  8
02___PRT_ALL_AXES
 62
7
  6
CONTINUOUS
 10
277.8101567362
 20
156.9865130363
 11
281.1562219512
 21
156.0899375642
  0
LINE
  8
02___PRT_ALL_AXES
 62
7
  6
CONTINUOUS
 10
235.0000480674
 20
290.3148112983
 11
235.8909803152
 21
273.3148112983
  0
LINE
  8
0
 62
7
  6
CONTINUOUS
 10
115.8909803152
 20
240.3148112983
 11
119.8909803152
 21
238.0054102216
  0
POLYLINE
  8
02___PRT_ALL_AXES
 62
7
  6
CONTINUOUS
 66
1
 70
0
  0
VERTEX
  8
02___PRT_ALL_AXES
 62
7
  6
CONTINUOUS
 10
228.6756794691
 20
208.5704800463
  0
VERTEX
  8
02___PRT_ALL_AXES
 62
7
  6
CONTINUOUS
 10
228.8558359304
 20
207.4751153503
  0
VERTEX
  8
02___PRT_ALL_AXES
 62
7
  6
CONTINUOUS
 10
229.0125885844
 20
206.5022594508
  0
VERTEX
  8
02___PRT_ALL_AXES
 62
7
  6
CONTINUOUS
 10
229.1474076907
 20
205.6492620819
  0
SEQEND
  0
LINE
  8
0
 62
7
  6
CONTINUOUS
 10
303.6164449247
 20
176.763228243
 11
302.2071358567
 21
177.1408514697
  0
LINE
  8
0
 62
7
  6
CONTINUOUS
 10
308.9768360053
 20
182.7165456615
 11
303.6164449247
 21
176.763228243
  0
LINE
  8
02___PRT_ALL_AXES
 62
7
  6
CONTINUOUS
 10
229.8909803152
 20
109.0673366153
 11
277.8101567362
 21
156.9865130363
  0
LINE
  8
02___PRT_ALL_AXES
 62
7
  6
CONTINUOUS
 10
281.1562219512
 20
156.0899375642
 11
302.2071358567
 21
177.1408514697
  0
LINE
  8
02___PRT_ALL_AXES
 62
7
  6
CONTINUOUS
 10
113.8909803152
 20
273.3148112983
 11
115.8909803152
 21
272.1601107599
  0
LINE
  8
02___PRT_ALL_AXES
 62
7
  6
CONTINUOUS
 10
277.8101567362
 20
156.9865130363
 11
229.1474076907
 21
205.6492620819
  0
LINE
  8
02___PRT_ALL_AXES
 62
7
  6
CONTINUOUS
 10
281.1562219512
 20
156.0899375642
 11
228.6756794691
 21
208.5704800463
  0
LINE
  8
0
 62
7
  6
CONTINUOUS
 10
248.0893972599
 20
232.2902759079
 11
248.4670204865
 21
230.8809668399
  0
LINE
  8
0
 62
7
  6
CONTINUOUS
 10
248.4670204865
 20
230.8809668399
 11
302.2071358567
 21
177.1408514697
  0
LINE
  8
0
 62
7
  6
CONTINUOUS
 10
229.8909803152
 20
238.0054102216
 11
119.8909803152
 21
238.0054102216
  0
LINE
  8
0
 62
7
  6
CONTINUOUS
 10
233.8909803152
 20
240.3148112983
 11
115.8909803152
 21
240.3148112983
  0
LINE
  8
0
 62
7
  6
CONTINUOUS
 10
145.3909803152
 20
245.3148112983
 11
122.0634306843
 21
245.3148112983
  0
LINE
  8
02___PRT_ALL_AXES
 62
7
  6
CONTINUOUS
 10
204.3909803152
 20
245.3148112983
 11
227.718529946
 21
245.3148112983
  0
LINE
  8
0
 62
7
  6
CONTINUOUS
 10
303.6164449247
 20
176.763228243
 11
248.0893972599
 21
232.2902759079
  0
LINE
  8
0
 62
7
  6
CONTINUOUS
 10
308.9768360053
 20
182.7165456615
 11
254.0427146783
 21
237.6506669884
  0
LINE
  8
02___PRT_ALL_AXES
 62
7
  6
CONTINUOUS
 10
227.718529946
 20
248.3148112983
 11
204.3909803152
 21
248.3148112983
  0
LINE
  8
0
 62
7
  6
CONTINUOUS
 10
122.0634306843
 20
248.3148112983
 11
145.3909803152
 21
248.3148112983
  0
LINE
  8
02___PRT_ALL_AXES
 62
7
  6
CONTINUOUS
 10
233.8909803152
 20
272.1601107599
 11
115.8909803152
 21
272.1601107599
  0
LINE
  8
02___PRT_ALL_AXES
 62
7
  6
CONTINUOUS
 10
235.8909803152
 20
273.3148112983
 11
113.8909803152
 21
273.3148112983
  0
LINE
  8
02___PRT_ALL_AXES
 62
7
  6
CONTINUOUS
 10
235.0000480674
 20
290.3148112983
 11
114.781912563
 21
290.3148112983
  0
ENDSEC
  0
EOF
