  0
SECTION
  2
HEADER
  9
$ACADVER
  1
AC1024
  9
$ACADMAINTVER
 70
   155
  9
$DWGCODEPAGE
  3
ANSI_1252
  9
$LASTSAVEDBY
  1
Jason
  9
$INSBASE
 10
0.0
 20
0.0
 30
0.0
  9
$EXTMIN
 10
7064.106680161065
 20
3651.426570232162
 30
0.0
  9
$EXTMAX
 10
7437.248407247048
 20
4191.476185870958
 30
0.0
  9
$LIMMIN
 10
0.0
 20
0.0
  9
$LIMMAX
 10
12.0
 20
9.0
  9
$ORTHOMODE
 70
     0
  9
$REGENMODE
 70
     1
  9
$FILLMODE
 70
     1
  9
$QTEXTMODE
 70
     0
  9
$MIRRTEXT
 70
     1
  9
$LTSCALE
 40
5.0
  9
$ATTMODE
 70
     1
  9
$TEXTSIZE
 40
0.2
  9
$TRACEWID
 40
0.05
  9
$TEXTSTYLE
  7
Standard
  9
$CLAYER
  8
Specialized_Lines
  9
$CELTYPE
  6
ByLayer
  9
$CECOLOR
 62
   256
  9
$CELTSCALE
 40
1.0
  9
$DISPSILH
 70
     0
  9
$DIMSCALE
 40
1.0
  9
$DIMASZ
 40
0.18
  9
$DIMEXO
 40
0.0625
  9
$DIMDLI
 40
0.38
  9
$DIMRND
 40
0.0
  9
$DIMDLE
 40
0.0
  9
$DIMEXE
 40
0.18
  9
$DIMTP
 40
0.0
  9
$DIMTM
 40
0.0
  9
$DIMTXT
 40
0.18
  9
$DIMCEN
 40
0.09
  9
$DIMTSZ
 40
0.0
  9
$DIMTOL
 70
     0
  9
$DIMLIM
 70
     0
  9
$DIMTIH
 70
     1
  9
$DIMTOH
 70
     1
  9
$DIMSE1
 70
     0
  9
$DIMSE2
 70
     0
  9
$DIMTAD
 70
     0
  9
$DIMZIN
 70
     0
  9
$DIMBLK
  1

  9
$DIMASO
 70
     1
  9
$DIMSHO
 70
     1
  9
$DIMPOST
  1

  9
$DIMAPOST
  1

  9
$DIMALT
 70
     0
  9
$DIMALTD
 70
     2
  9
$DIMALTF
 40
25.4
  9
$DIMLFAC
 40
1.0
  9
$DIMTOFL
 70
     0
  9
$DIMTVP
 40
0.0
  9
$DIMTIX
 70
     0
  9
$DIMSOXD
 70
     0
  9
$DIMSAH
 70
     0
  9
$DIMBLK1
  1

  9
$DIMBLK2
  1

  9
$DIMSTYLE
  2
Standard
  9
$DIMCLRD
 70
     0
  9
$DIMCLRE
 70
     0
  9
$DIMCLRT
 70
     0
  9
$DIMTFAC
 40
1.0
  9
$DIMGAP
 40
0.09
  9
$DIMJUST
 70
     0
  9
$DIMSD1
 70
     0
  9
$DIMSD2
 70
     0
  9
$DIMTOLJ
 70
     1
  9
$DIMTZIN
 70
     0
  9
$DIMALTZ
 70
     0
  9
$DIMALTTZ
 70
     0
  9
$DIMUPT
 70
     0
  9
$DIMDEC
 70
     4
  9
$DIMTDEC
 70
     4
  9
$DIMALTU
 70
     2
  9
$DIMALTTD
 70
     2
  9
$DIMTXSTY
  7
Standard
  9
$DIMAUNIT
 70
     0
  9
$DIMADEC
 70
     0
  9
$DIMALTRND
 40
0.0
  9
$DIMAZIN
 70
     0
  9
$DIMDSEP
 70
    46
  9
$DIMATFIT
 70
     3
  9
$DIMFRAC
 70
     0
  9
$DIMLDRBLK
  1

  9
$DIMLUNIT
 70
     2
  9
$DIMLWD
 70
    -2
  9
$DIMLWE
 70
    -2
  9
$DIMTMOVE
 70
     0
  9
$DIMFXL
 40
1.0
  9
$DIMFXLON
 70
     0
  9
$DIMJOGANG
 40
0.7853981633974483
  9
$DIMTFILL
 70
     0
  9
$DIMTFILLCLR
 70
     0
  9
$DIMARCSYM
 70
     0
  9
$DIMLTYPE
  6

  9
$DIMLTEX1
  6

  9
$DIMLTEX2
  6

  9
$DIMTXTDIRECTION
 70
     0
  9
$LUNITS
 70
     2
  9
$LUPREC
 70
     4
  9
$SKETCHINC
 40
0.1
  9
$FILLETRAD
 40
0.5
  9
$AUNITS
 70
     0
  9
$AUPREC
 70
     0
  9
$MENU
  1
.
  9
$ELEVATION
 40
0.0
  9
$PELEVATION
 40
0.0
  9
$THICKNESS
 40
0.0
  9
$LIMCHECK
 70
     0
  9
$CHAMFERA
 40
0.5
  9
$CHAMFERB
 40
0.5
  9
$CHAMFERC
 40
1.0
  9
$CHAMFERD
 40
0.0
  9
$SKPOLY
 70
     0
  9
$TDCREATE
 40
2456216.552050197
  9
$TDUCREATE
 40
2456216.010383530
  9
$TDUPDATE
 40
2456636.568015047
  9
$TDUUPDATE
 40
2456636.026348379
  9
$TDINDWG
 40
0.0852493519
  9
$TDUSRTIMER
 40
0.0852493519
  9
$USRTIMER
 70
     1
  9
$ANGBASE
 50
0.0
  9
$ANGDIR
 70
     0
  9
$PDMODE
 70
     0
  9
$PDSIZE
 40
0.0
  9
$PLINEWID
 40
0.0
  9
$SPLFRAME
 70
     0
  9
$SPLINETYPE
 70
     6
  9
$SPLINESEGS
 70
     8
  9
$HANDSEED
  5
508
  9
$SURFTAB1
 70
     6
  9
$SURFTAB2
 70
     6
  9
$SURFTYPE
 70
     6
  9
$SURFU
 70
     6
  9
$SURFV
 70
     6
  9
$UCSBASE
  2

  9
$UCSNAME
  2

  9
$UCSORG
 10
0.0
 20
0.0
 30
0.0
  9
$UCSXDIR
 10
1.0
 20
0.0
 30
0.0
  9
$UCSYDIR
 10
0.0
 20
1.0
 30
0.0
  9
$UCSORTHOREF
  2

  9
$UCSORTHOVIEW
 70
     0
  9
$UCSORGTOP
 10
0.0
 20
0.0
 30
0.0
  9
$UCSORGBOTTOM
 10
0.0
 20
0.0
 30
0.0
  9
$UCSORGLEFT
 10
0.0
 20
0.0
 30
0.0
  9
$UCSORGRIGHT
 10
0.0
 20
0.0
 30
0.0
  9
$UCSORGFRONT
 10
0.0
 20
0.0
 30
0.0
  9
$UCSORGBACK
 10
0.0
 20
0.0
 30
0.0
  9
$PUCSBASE
  2

  9
$PUCSNAME
  2

  9
$PUCSORG
 10
0.0
 20
0.0
 30
0.0
  9
$PUCSXDIR
 10
1.0
 20
0.0
 30
0.0
  9
$PUCSYDIR
 10
0.0
 20
1.0
 30
0.0
  9
$PUCSORTHOREF
  2

  9
$PUCSORTHOVIEW
 70
     0
  9
$PUCSORGTOP
 10
0.0
 20
0.0
 30
0.0
  9
$PUCSORGBOTTOM
 10
0.0
 20
0.0
 30
0.0
  9
$PUCSORGLEFT
 10
0.0
 20
0.0
 30
0.0
  9
$PUCSORGRIGHT
 10
0.0
 20
0.0
 30
0.0
  9
$PUCSORGFRONT
 10
0.0
 20
0.0
 30
0.0
  9
$PUCSORGBACK
 10
0.0
 20
0.0
 30
0.0
  9
$USERI1
 70
     0
  9
$USERI2
 70
     0
  9
$USERI3
 70
     0
  9
$USERI4
 70
     0
  9
$USERI5
 70
     0
  9
$USERR1
 40
0.0
  9
$USERR2
 40
0.0
  9
$USERR3
 40
0.0
  9
$USERR4
 40
0.0
  9
$USERR5
 40
0.0
  9
$WORLDVIEW
 70
     1
  9
$SHADEDGE
 70
     3
  9
$SHADEDIF
 70
    70
  9
$TILEMODE
 70
     1
  9
$MAXACTVP
 70
    64
  9
$PINSBASE
 10
0.0
 20
0.0
 30
0.0
  9
$PLIMCHECK
 70
     0
  9
$PEXTMIN
 10
1.000000000000000E+20
 20
1.000000000000000E+20
 30
1.000000000000000E+20
  9
$PEXTMAX
 10
-1.000000000000000E+20
 20
-1.000000000000000E+20
 30
-1.000000000000000E+20
  9
$PLIMMIN
 10
0.0
 20
0.0
  9
$PLIMMAX
 10
12.0
 20
9.0
  9
$UNITMODE
 70
     0
  9
$VISRETAIN
 70
     1
  9
$PLINEGEN
 70
     0
  9
$PSLTSCALE
 70
     1
  9
$TREEDEPTH
 70
  3020
  9
$CMLSTYLE
  2
Standard
  9
$CMLJUST
 70
     0
  9
$CMLSCALE
 40
1.0
  9
$PROXYGRAPHICS
 70
     1
  9
$MEASUREMENT
 70
     0
  9
$CELWEIGHT
370
    -1
  9
$ENDCAPS
280
     0
  9
$JOINSTYLE
280
     0
  9
$LWDISPLAY
290
     1
  9
$INSUNITS
 70
     0
  9
$HYPERLINKBASE
  1

  9
$STYLESHEET
  1

  9
$XEDIT
290
     1
  9
$CEPSNTYPE
380
     0
  9
$PSTYLEMODE
290
     1
  9
$FINGERPRINTGUID
  2
{17F4B9E2-1097-4136-BBD2-D4220BFEDFC6}
  9
$VERSIONGUID
  2
{43783CE2-00C0-4157-89D0-9DEAAA7A8FDB}
  9
$EXTNAMES
290
     1
  9
$PSVPSCALE
 40
0.0
  9
$OLESTARTUP
290
     0
  9
$SORTENTS
280
   127
  9
$INDEXCTL
280
     0
  9
$HIDETEXT
280
     1
  9
$XCLIPFRAME
280
     0
  9
$HALOGAP
280
     0
  9
$OBSCOLOR
 70
   257
  9
$OBSLTYPE
280
     0
  9
$INTERSECTIONDISPLAY
280
     0
  9
$INTERSECTIONCOLOR
 70
   257
  9
$DIMASSOC
280
     2
  9
$PROJECTNAME
  1

  9
$CAMERADISPLAY
290
     0
  9
$LENSLENGTH
 40
50.0
  9
$CAMERAHEIGHT
 40
0.0
  9
$STEPSPERSEC
 40
2.0
  9
$STEPSIZE
 40
6.0
  9
$3DDWFPREC
 40
2.0
  9
$PSOLWIDTH
 40
0.25
  9
$PSOLHEIGHT
 40
4.0
  9
$LOFTANG1
 40
1.570796326794896
  9
$LOFTANG2
 40
1.570796326794896
  9
$LOFTMAG1
 40
0.0
  9
$LOFTMAG2
 40
0.0
  9
$LOFTPARAM
 70
     7
  9
$LOFTNORMALS
280
     1
  9
$LATITUDE
 40
37.795
  9
$LONGITUDE
 40
-122.394
  9
$NORTHDIRECTION
 40
0.0
  9
$TIMEZONE
 70
 -8000
  9
$LIGHTGLYPHDISPLAY
280
     1
  9
$TILEMODELIGHTSYNCH
280
     1
  9
$CMATERIAL
347
3C
  9
$SOLIDHIST
280
     1
  9
$SHOWHIST
280
     1
  9
$DWFFRAME
280
     2
  9
$DGNFRAME
280
     2
  9
$REALWORLDSCALE
290
     1
  9
$INTERFERECOLOR
 62
   256
  9
$INTERFEREOBJVS
345
33
  9
$INTERFEREVPVS
346
1AD
  9
$CSHADOW
280
     0
  9
$SHADOWPLANELOCATION
 40
0.0
  0
ENDSEC
  0
SECTION
  2
CLASSES
  0
CLASS
  1
ACDBDICTIONARYWDFLT
  2
AcDbDictionaryWithDefault
  3
ObjectDBX Classes
 90
        0
 91
        1
280
     0
281
     0
  0
CLASS
  1
VISUALSTYLE
  2
AcDbVisualStyle
  3
ObjectDBX Classes
 90
     4095
 91
       26
280
     0
281
     0
  0
CLASS
  1
MATERIAL
  2
AcDbMaterial
  3
ObjectDBX Classes
 90
     1153
 91
        3
280
     0
281
     0
  0
CLASS
  1
SCALE
  2
AcDbScale
  3
ObjectDBX Classes
 90
     1153
 91
       33
280
     0
281
     0
  0
CLASS
  1
DICTIONARYVAR
  2
AcDbDictionaryVar
  3
ObjectDBX Classes
 90
        0
 91
       16
280
     0
281
     0
  0
CLASS
  1
TABLESTYLE
  2
AcDbTableStyle
  3
ObjectDBX Classes
 90
     4095
 91
        1
280
     0
281
     0
  0
CLASS
  1
MLEADERSTYLE
  2
AcDbMLeaderStyle
  3
ACDB_MLEADERSTYLE_CLASS
 90
     4095
 91
        1
280
     0
281
     0
  0
CLASS
  1
ACDBSECTIONVIEWSTYLE
  2
AcDbSectionViewStyle
  3
ObjectDBX Classes
 90
     1025
 91
        1
280
     0
281
     0
  0
CLASS
  1
ACDBDETAILVIEWSTYLE
  2
AcDbDetailViewStyle
  3
ObjectDBX Classes
 90
     1025
 91
        1
280
     0
281
     0
  0
CLASS
  1
EXACXREFPANELOBJECT
  2
ExAcXREFPanelObject
  3
EXAC_ESW
 90
     1025
 91
        1
280
     0
281
     0
  0
CLASS
  1
NPOCOLLECTION
  2
AcDbImpNonPersistentObjectsCollection
  3
ObjectDBX Classes
 90
     1153
 91
        1
280
     0
281
     0
  0
CLASS
  1
IMAGE
  2
AcDbRasterImage
  3
ISM
 90
     2175
 91
        2
280
     0
281
     1
  0
CLASS
  1
IMAGEDEF_REACTOR
  2
AcDbRasterImageDefReactor
  3
ISM
 90
        1
 91
        2
280
     0
281
     0
  0
CLASS
  1
SORTENTSTABLE
  2
AcDbSortentsTable
  3
ObjectDBX Classes
 90
        0
 91
        1
280
     0
281
     0
  0
CLASS
  1
IMAGEDEF
  2
AcDbRasterImageDef
  3
ISM
 90
        0
 91
        2
280
     0
281
     0
  0
CLASS
  1
RASTERVARIABLES
  2
AcDbRasterVariables
  3
ISM
 90
        0
 91
        1
280
     0
281
     0
  0
CLASS
  1
ACDBASSOCNETWORK
  2
AcDbAssocNetwork
  3
ObjectDBX Classes
 90
     1025
 91
        2
280
     0
281
     0
  0
CLASS
  1
ACDBASSOC2DCONSTRAINTGROUP
  2
AcDbAssoc2dConstraintGroup
  3
ObjectDBX Classes
 90
     1025
 91
        1
280
     0
281
     0
  0
CLASS
  1
ACDBASSOCGEOMDEPENDENCY
  2
AcDbAssocGeomDependency
  3
ObjectDBX Classes
 90
     1025
 91
        5
280
     0
281
     0
  0
CLASS
  1
EXACTERMXREFMAP
  2
ExAcTermXrefMap
  3
EXAC_SERVICE
 90
     1025
 91
        0
280
     0
281
     0
  0
CLASS
  1
CELLSTYLEMAP
  2
AcDbCellStyleMap
  3
ObjectDBX Classes
 90
     1152
 91
        2
280
     0
281
     0
  0
ENDSEC
  0
SECTION
  2
TABLES
  0
TABLE
  2
VPORT
  5
8
330
0
100
AcDbSymbolTable
 70
     1
  0
VPORT
  5
29
330
8
100
AcDbSymbolTableRecord
100
AcDbViewportTableRecord
  2
*Active
 70
     0
 10
0.0
 20
0.0
 11
1.0
 21
1.0
 12
7399.907094703594
 22
3894.680143321938
 13
0.0
 23
0.0
 14
0.5
 24
0.5
 15
0.5
 25
0.5
 16
0.0
 26
0.0
 36
1.0
 17
0.0
 27
0.0
 37
0.0
 40
1446.020046794336
 41
1.816348195329086
 42
50.0
 43
0.0
 44
0.0
 50
0.0
 51
0.0
 71
     0
 72
   100
 73
     1
 74
     3
 75
     0
 76
     0
 77
     0
 78
     0
281
     0
 65
     1
110
0.0
120
0.0
130
0.0
111
1.0
121
0.0
131
0.0
112
0.0
122
1.0
132
0.0
 79
     0
146
0.0
348
2F
 60
     3
 61
     5
292
     1
282
     1
141
0.0
142
0.0
 63
   250
1001
ACAD_NAV_VCDISPLAY
1070
     3
  0
ENDTAB
  0
TABLE
  2
LTYPE
  5
5
330
0
100
AcDbSymbolTable
 70
     7
  0
LTYPE
  5
14
330
5
100
AcDbSymbolTableRecord
100
AcDbLinetypeTableRecord
  2
ByBlock
 70
     0
  3

 72
    65
 73
     0
 40
0.0
  0
LTYPE
  5
15
330
5
100
AcDbSymbolTableRecord
100
AcDbLinetypeTableRecord
  2
ByLayer
 70
     0
  3

 72
    65
 73
     0
 40
0.0
  0
LTYPE
  5
16
330
5
100
AcDbSymbolTableRecord
100
AcDbLinetypeTableRecord
  2
Continuous
 70
     0
  3
Solid line
 72
    65
 73
     0
 40
0.0
  0
LTYPE
  5
13E
330
5
100
AcDbSymbolTableRecord
100
AcDbLinetypeTableRecord
  2
Hidden
 70
     0
  3
- - - - - 
 72
    65
 73
     2
 40
4.938889980316162
 49
2.822222709655761
 74
     0
 49
-2.1166672706604
 74
     0
  0
LTYPE
  5
147
330
5
100
AcDbSymbolTableRecord
100
AcDbLinetypeTableRecord
  2
Above
 70
     0
  3
- - - - - 
 72
    65
 73
     2
 40
9.599999999999999
 49
6.0
 74
     0
 49
-3.6
 74
     0
  0
LTYPE
  5
14A
330
5
100
AcDbSymbolTableRecord
100
AcDbLinetypeTableRecord
  2
Sketch
 70
     0
  3
??????????
 72
    65
 73
     3
 40
40.0
 49
0.0
 74
     4
 75
     1
340
14B
 46
0.3174603174603174
 50
0.0
 44
0.0
 45
0.0
 49
-40.0
 74
     0
 49
0.0
 74
     0
  0
LTYPE
  5
286
330
5
100
AcDbSymbolTableRecord
100
AcDbLinetypeTableRecord
  2
ZIGZAG
 70
     0
  3
Zig zag /\/\/\/\/\/\/\/\/\/\/\/\/\/\/\/\/\/\/\/
 72
    65
 73
     4
 40
0.8001000000000001
 49
0.0001
 74
     0
 49
-0.2
 74
     4
 75
   131
340
285
 46
0.2
 50
0.0
 44
-0.2
 45
0.0
 49
-0.4
 74
     4
 75
   131
340
285
 46
0.2
 50
180.0
 44
0.2
 45
0.0
 49
-0.2
 74
     0
  0
LTYPE
  5
2A0
330
5
100
AcDbSymbolTableRecord
100
AcDbLinetypeTableRecord
  2
DASHEDX2
 70
     0
  3
Dashed (2x) ____  ____  ____  ____  ____  ___
 72
    65
 73
     2
 40
1.5
 49
1.0
 74
     0
 49
-0.5
 74
     0
  0
LTYPE
  5
2E8
330
5
100
AcDbSymbolTableRecord
100
AcDbLinetypeTableRecord
  2
PLASTER
 70
     0
  3
PLASTER
 72
    65
 73
     2
 40
2.379214999999999
 49
0.000024
 74
     4
 75
     1
340
2E9
 46
0.2
 50
0.0
 44
0.0
 45
0.0
 49
-2.379191
 74
     0
  0
ENDTAB
  0
TABLE
  2
LAYER
  5
2
102
{ACAD_XDICTIONARY
360
1D3
102
}
330
0
100
AcDbSymbolTable
 70
     6
  0
LAYER
  5
10
102
{ACAD_XDICTIONARY
360
214
102
}
330
2
100
AcDbSymbolTableRecord
100
AcDbLayerTableRecord
  2
0
 70
     0
 62
     7
  6
Continuous
370
    -3
390
F
347
3E
  0
LAYER
  5
40
102
{ACAD_XDICTIONARY
360
216
102
}
330
2
100
AcDbSymbolTableRecord
100
AcDbLayerTableRecord
  2
Specialized_Fills
 70
     0
 62
     7
  6
Continuous
370
    -3
390
F
347
3E
  0
LAYER
  5
124
102
{ACAD_XDICTIONARY
360
218
102
}
330
2
100
AcDbSymbolTableRecord
100
AcDbLayerTableRecord
  2
Specialized_Lines
 70
     0
 62
     7
  6
Continuous
370
    -3
390
F
347
3E
  0
LAYER
  5
168
102
{ACAD_XDICTIONARY
360
21A
102
}
330
2
100
AcDbSymbolTableRecord
100
AcDbLayerTableRecord
  2
Specialized_Text
 70
     0
 62
     7
  6
Continuous
370
    -3
390
F
347
3E
  0
LAYER
  5
1CB
102
{ACAD_XDICTIONARY
360
1CC
102
}
330
2
100
AcDbSymbolTableRecord
100
AcDbLayerTableRecord
  2
Viewport
 70
     0
 62
     7
  6
Continuous
370
    -3
390
F
347
3E
1001
AcAecLayerStandard
1000

1000

1001
AcCmTransparency
1071
        0
  0
LAYER
  5
32A
330
2
100
AcDbSymbolTableRecord
100
AcDbLayerTableRecord
  2
Defpoints
 70
     0
 62
     7
  6
Continuous
290
     0
370
    -3
390
F
347
3E
  0
ENDTAB
  0
TABLE
  2
STYLE
  5
3
330
0
100
AcDbSymbolTable
 70
    10
  0
STYLE
  5
11
330
3
100
AcDbSymbolTableRecord
100
AcDbTextStyleTableRecord
  2
Standard
 70
     0
 40
0.0
 41
1.0
 50
0.0
 71
     0
 42
0.2
  3
txt
  4
BIGFONT.SHX
  0
STYLE
  5
14B
330
3
100
AcDbSymbolTableRecord
100
AcDbTextStyleTableRecord
  2

 70
     1
 40
0.2
 41
1.0
 50
0.0
 71
     0
 42
0.2
  3
03A Window Sill_1.Shx
  4

  0
STYLE
  5
15D
330
3
100
AcDbSymbolTableRecord
100
AcDbTextStyleTableRecord
  2
GENERATED_STYLE_1
 70
     0
 40
0.0
 41
1.0
 50
0.0
 71
     0
 42
0.2
  3
comic.ttf
  4

1001
ACAD
1000
Comic Sans MS
1071
       66
  0
STYLE
  5
166
330
3
100
AcDbSymbolTableRecord
100
AcDbTextStyleTableRecord
  2
GENERATED_STYLE_2
 70
     0
 40
0.0
 41
1.0
 50
0.0
 71
     0
 42
0.2
  3
ARIALUNI.TTF
  4

1001
ACAD
1000
Arial Unicode MS
1071
       34
  0
STYLE
  5
180
330
3
100
AcDbSymbolTableRecord
100
AcDbTextStyleTableRecord
  2
GENERATED_STYLE_3
 70
     0
 40
0.0
 41
1.0
 50
0.0
 71
     0
 42
0.2
  3

  4

1001
ACAD
1000
Arial Unicode MS
1071
 33554466
  0
STYLE
  5
285
330
3
100
AcDbSymbolTableRecord
100
AcDbTextStyleTableRecord
  2

 70
     1
 40
0.0
 41
1.0
 50
0.0
 71
     0
 42
0.2
  3
ltypeshp.shx
  4

  0
STYLE
  5
2E9
330
3
100
AcDbSymbolTableRecord
100
AcDbTextStyleTableRecord
  2

 70
     1
 40
0.0
 41
1.0
 50
0.0
 71
     0
 42
0.2
  3
P:\VERT-X CONSULTING LTD\2013\10 OCT\1310-015- SPECIALIZED CONSTRUCTION PRODUCTS - CONTRACT DRAUGHTING\DRAWINGS\PLASTER.SHX
  4

  0
STYLE
  5
3FE
330
3
100
AcDbSymbolTableRecord
100
AcDbTextStyleTableRecord
  2
500 MEDIUM
 70
     0
 40
1500.0
 41
0.8333333333333333
 50
0.0
 71
     0
 42
5.0
  3
ENGINEERING.shx
  4

  0
STYLE
  5
3FF
330
3
100
AcDbSymbolTableRecord
100
AcDbTextStyleTableRecord
  2
1 LARGE
 70
     0
 40
5.0
 41
0.8
 50
0.0
 71
     0
 42
5.0
  3
arial.ttf
  4

1001
ACAD
1000
Arial
1071
       39
  0
STYLE
  5
400
330
3
100
AcDbSymbolTableRecord
100
AcDbTextStyleTableRecord
  2
Style-Calibri
 70
     0
 40
0.0
 41
1.0
 50
0.0
 71
     0
 42
1500.0
  3
calibri_0.ttf
  4

1001
ACAD
1000
Calibri
1071
       39
  0
ENDTAB
  0
TABLE
  2
VIEW
  5
6
330
0
100
AcDbSymbolTable
 70
     0
  0
ENDTAB
  0
TABLE
  2
UCS
  5
7
330
0
100
AcDbSymbolTable
 70
     0
  0
ENDTAB
  0
TABLE
  2
APPID
  5
9
330
0
100
AcDbSymbolTable
 70
    14
  0
APPID
  5
12
330
9
100
AcDbSymbolTableRecord
100
AcDbRegAppTableRecord
  2
ACAD
 70
     0
  0
APPID
  5
1CD
330
9
100
AcDbSymbolTableRecord
100
AcDbRegAppTableRecord
  2
ACAD_PSEXT
 70
     0
  0
APPID
  5
1CE
330
9
100
AcDbSymbolTableRecord
100
AcDbRegAppTableRecord
  2
ACAD_NAV_VCDISPLAY
 70
     0
  0
APPID
  5
1CF
330
9
100
AcDbSymbolTableRecord
100
AcDbRegAppTableRecord
  2
AcAecLayerStandard
 70
     0
  0
APPID
  5
1D0
330
9
100
AcDbSymbolTableRecord
100
AcDbRegAppTableRecord
  2
AcCmTransparency
 70
     0
  0
APPID
  5
1D1
330
9
100
AcDbSymbolTableRecord
100
AcDbRegAppTableRecord
  2
GradientColor1ACI
 70
     0
  0
APPID
  5
1D2
330
9
100
AcDbSymbolTableRecord
100
AcDbRegAppTableRecord
  2
GradientColor2ACI
 70
     0
  0
APPID
  5
1F9
330
9
100
AcDbSymbolTableRecord
100
AcDbRegAppTableRecord
  2
ACAD_EXEMPT_FROM_CAD_STANDARDS
 70
     0
  0
APPID
  5
3E9
330
9
100
AcDbSymbolTableRecord
100
AcDbRegAppTableRecord
  2
MStation
 70
     0
  0
APPID
  5
3EA
330
9
100
AcDbSymbolTableRecord
100
AcDbRegAppTableRecord
  2
REVIT
 70
     0
  0
APPID
  5
3EB
330
9
100
AcDbSymbolTableRecord
100
AcDbRegAppTableRecord
  2
AcDbBlockRepETag
 70
     0
  0
APPID
  5
3EC
330
9
100
AcDbSymbolTableRecord
100
AcDbRegAppTableRecord
  2
ACAD_MLEADERVER
 70
     0
  0
APPID
  5
3F6
330
9
100
AcDbSymbolTableRecord
100
AcDbRegAppTableRecord
  2
AcDbAppSyncWithXref_AssocManager
 70
     0
  0
APPID
  5
507
330
9
100
AcDbSymbolTableRecord
100
AcDbRegAppTableRecord
  2
ACAD_OBJECT_CHANGE_GUID
 70
     0
  0
ENDTAB
  0
TABLE
  2
DIMSTYLE
  5
A
330
0
100
AcDbSymbolTable
 70
     5
100
AcDbDimStyleTable
 71
     1
340
27
  0
DIMSTYLE
105
27
330
A
100
AcDbSymbolTableRecord
100
AcDbDimStyleTableRecord
  2
Standard
 70
     0
340
11
  0
DIMSTYLE
105
160
102
{ACAD_REACTORS
330
15F
102
}
330
A
100
AcDbSymbolTableRecord
100
AcDbDimStyleTableRecord
  2
GENERATED_STYLE__1
 70
     0
 41
3.799999999999999
 42
20.0
 73
     0
 74
     0
 77
     1
140
5.0
172
     1
176
     7
177
     7
178
     7
179
     2
271
     0
279
     2
340
15D
342
161
343
161
344
161
  0
DIMSTYLE
105
16A
330
A
100
AcDbSymbolTableRecord
100
AcDbDimStyleTableRecord
  2
GENERATED_STYLE__2
 70
     0
 41
7.295999999999999
172
     1
341
16B
  0
DIMSTYLE
105
401
330
A
100
AcDbSymbolTableRecord
100
AcDbDimStyleTableRecord
  2
QB_DIMENSION
 70
     0
 41
5.0
 42
2.5
 43
0.0
 44
2.5
 73
     0
 74
     0
 77
     1
 78
    11
140
5.0
143
0.001
147
2.5
171
     4
172
     1
176
    18
177
    18
179
     4
271
     0
272
     0
274
     4
276
     2
279
     1
283
     0
284
    11
285
    15
286
    15
289
     1
340
400
342
3F8
371
    -1
372
    -1
  0
DIMSTYLE
105
402
330
A
100
AcDbSymbolTableRecord
100
AcDbDimStyleTableRecord
  2
QB_LEADER
 70
     0
 41
5.0
 42
2.5
 43
0.0
 44
2.5
 73
     0
 74
     0
 77
     1
 78
     3
140
5.0
143
0.001
147
2.5
171
     4
172
     1
176
    18
177
    18
179
     4
271
     0
272
     0
274
     4
276
     2
279
     1
283
     0
284
     3
285
    15
286
    15
289
     1
340
400
371
     0
372
     0
  0
ENDTAB
  0
TABLE
  2
BLOCK_RECORD
  5
1
330
0
100
AcDbSymbolTable
 70
     8
  0
BLOCK_RECORD
  5
1F
102
{ACAD_XDICTIONARY
360
1FC
102
}
330
1
100
AcDbSymbolTableRecord
100
AcDbBlockTableRecord
  2
*Model_Space
340
22
 70
     0
280
     1
281
     0
  0
BLOCK_RECORD
  5
1B
330
1
100
AcDbSymbolTableRecord
100
AcDbBlockTableRecord
  2
*Paper_Space
340
1E
 70
     0
280
     1
281
     0
  0
BLOCK_RECORD
  5
23
330
1
100
AcDbSymbolTableRecord
100
AcDbBlockTableRecord
  2
*Paper_Space0
340
26
 70
     0
280
     1
281
     0
  0
BLOCK_RECORD
  5
4A
330
1
100
AcDbSymbolTableRecord
100
AcDbBlockTableRecord
  2
Fill_1
340
0
 70
     0
280
     1
281
     0
  0
BLOCK_RECORD
  5
4D
330
1
100
AcDbSymbolTableRecord
100
AcDbBlockTableRecord
  2
*X2
340
0
102
{BLKREFS
331
F9
102
}
 70
     0
280
     1
281
     0
  0
BLOCK_RECORD
  5
153
330
1
100
AcDbSymbolTableRecord
100
AcDbBlockTableRecord
  2
*D3
340
0
 70
     0
280
     1
281
     0
  0
BLOCK_RECORD
  5
161
330
1
100
AcDbSymbolTableRecord
100
AcDbBlockTableRecord
  2
ARROWHEAD_6
340
0
102
{BLKREFS
331
32F
331
330
102
}
 70
     0
280
     1
281
     0
  0
BLOCK_RECORD
  5
16B
330
1
100
AcDbSymbolTableRecord
100
AcDbBlockTableRecord
  2
ARROWHEAD_5
340
0
 70
     0
280
     1
281
     0
  0
BLOCK_RECORD
  5
182
330
1
100
AcDbSymbolTableRecord
100
AcDbBlockTableRecord
  2
03A Window Sill__STORY_MARKER
340
0
 70
     0
280
     1
281
     0
  0
BLOCK_RECORD
  5
3F8
330
1
100
AcDbSymbolTableRecord
100
AcDbBlockTableRecord
  2
_Oblique
340
0
 70
     0
280
     1
281
     0
  0
ENDTAB
  0
ENDSEC
  0
SECTION
  2
BLOCKS
  0
BLOCK
  5
20
330
1F
100
AcDbEntity
  8
0
100
AcDbBlockBegin
  2
*Model_Space
 70
     0
 10
0.0
 20
0.0
 30
0.0
  3
*Model_Space
  1

  0
ENDBLK
  5
21
330
1F
100
AcDbEntity
  8
0
100
AcDbBlockEnd
  0
BLOCK
  5
1C
330
1B
100
AcDbEntity
 67
     1
  8
0
100
AcDbBlockBegin
  2
*Paper_Space
 70
     0
 10
0.0
 20
0.0
 30
0.0
  3
*Paper_Space
  1

  0
ENDBLK
  5
1D
330
1B
100
AcDbEntity
 67
     1
  8
0
100
AcDbBlockEnd
  0
BLOCK
  5
24
330
23
100
AcDbEntity
 67
     1
  8
0
100
AcDbBlockBegin
  2
*Paper_Space0
 70
     0
 10
0.0
 20
0.0
 30
0.0
  3
*Paper_Space0
  1

  0
ENDBLK
  5
25
330
23
100
AcDbEntity
 67
     1
  8
0
100
AcDbBlockEnd
  0
BLOCK
  5
4B
330
4A
100
AcDbEntity
  8
0
100
AcDbBlockBegin
  2
Fill_1
 70
     0
 10
0.0
 20
0.0
 30
0.0
  3
Fill_1
  1

  0
INSERT
  5
F9
330
4A
100
AcDbEntity
  8
Specialized_Fills
  6
Continuous
 62
    30
420
 16742400
370
    20
100
AcDbBlockReference
  2
*X2
 10
0.0
 20
0.0
 30
0.0
  0
LINE
  5
11C
330
4A
100
AcDbEntity
  8
Specialized_Fills
  6
Continuous
100
AcDbLine
 10
7222.725326568599
 20
3790.498899306298
 30
0.0
 11
7272.720210486564
 21
3790.498899306298
 31
0.0
  0
LINE
  5
11D
330
4A
100
AcDbEntity
  8
Specialized_Fills
  6
Continuous
100
AcDbLine
 10
7272.720210486564
 20
3790.498899306298
 30
0.0
 11
7272.720210486564
 21
3900.995001902737
 31
0.0
  0
LINE
  5
11E
330
4A
100
AcDbEntity
  8
Specialized_Fills
  6
Continuous
100
AcDbLine
 10
7272.720210486564
 20
3900.995001902737
 30
0.0
 11
7222.725326568599
 21
3900.995001902737
 31
0.0
  0
LINE
  5
11F
330
4A
100
AcDbEntity
  8
Specialized_Fills
  6
Continuous
100
AcDbLine
 10
7222.725326568599
 20
3900.995001902737
 30
0.0
 11
7222.725326568599
 21
3790.498899306298
 31
0.0
  0
ENDBLK
  5
4C
330
4A
100
AcDbEntity
  8
0
100
AcDbBlockEnd
  0
BLOCK
  5
4E
330
4D
100
AcDbEntity
  8
0
100
AcDbBlockBegin
  2
*X2
 70
     1
 10
0.0
 20
0.0
 30
0.0
  3
*X2
  1

  0
ARC
  5
50
330
4D
100
AcDbEntity
  8
Specialized_Fills
  6
Continuous
 62
    30
420
 16742400
370
    20
100
AcDbCircle
 10
7221.250668120707
 20
3797.17681036919
 30
0.0
 40
2.467047418139856
100
AcDbArc
 50
306.7083679949574
 51
53.29163200504259
  0
CIRCLE
  5
51
330
4D
100
AcDbEntity
  8
Specialized_Fills
  6
Continuous
 62
    30
420
 16742400
370
    20
100
AcDbCircle
 10
7252.63209108828
 20
3808.598714238305
 30
0.0
 40
2.467047418139856
  0
CIRCLE
  5
52
330
4D
100
AcDbEntity
  8
Specialized_Fills
  6
Continuous
 62
    30
420
 16742400
370
    20
100
AcDbCircle
 10
7241.208187870324
 20
3839.985630371672
 30
0.0
 40
2.467047418139856
  0
ARC
  5
53
330
4D
100
AcDbEntity
  8
Specialized_Fills
  6
Continuous
 62
    30
420
 16742400
370
    20
100
AcDbCircle
 10
7272.589610837896
 20
3851.407534240786
 30
0.0
 40
2.467047418139856
100
AcDbArc
 50
86.96547865438292
 51
273.0345213456171
  0
CIRCLE
  5
54
330
4D
100
AcDbEntity
  8
Specialized_Fills
  6
Continuous
 62
    30
420
 16742400
370
    20
100
AcDbCircle
 10
7229.784284652369
 20
3871.372546505039
 30
0.0
 40
2.467047418139856
  0
CIRCLE
  5
55
330
4D
100
AcDbEntity
  8
Specialized_Fills
  6
Continuous
 62
    30
420
 16742400
370
    20
100
AcDbCircle
 10
7261.165707619941
 20
3882.794450374153
 30
0.0
 40
2.467047418139856
  0
ARC
  5
56
330
4D
100
AcDbEntity
  8
Specialized_Fills
  6
Continuous
 62
    30
420
 16742400
370
    20
100
AcDbCircle
 10
7223.86820620284
 20
3792.821105199001
 30
0.0
 40
1.884663110930518
100
AcDbArc
 50
232.6695860074459
 51
127.3304139925541
  0
CIRCLE
  5
57
330
4D
100
AcDbEntity
  8
Specialized_Fills
  6
Continuous
 62
    30
420
 16742400
370
    20
100
AcDbCircle
 10
7255.249629170411
 20
3804.243009068115
 30
0.0
 40
1.884663110930518
  0
CIRCLE
  5
58
330
4D
100
AcDbEntity
  8
Specialized_Fills
  6
Continuous
 62
    30
420
 16742400
370
    20
100
AcDbCircle
 10
7243.825725952456
 20
3835.629925201482
 30
0.0
 40
1.884663110930518
  0
CIRCLE
  5
59
330
4D
100
AcDbEntity
  8
Specialized_Fills
  6
Continuous
 62
    30
420
 16742400
370
    20
100
AcDbCircle
 10
7232.401822734502
 20
3867.016841334849
 30
0.0
 40
1.884663110930518
  0
CIRCLE
  5
5A
330
4D
100
AcDbEntity
  8
Specialized_Fills
  6
Continuous
 62
    30
420
 16742400
370
    20
100
AcDbCircle
 10
7263.783245702073
 20
3878.438745203963
 30
0.0
 40
1.884663110930518
  0
ARC
  5
5B
330
4D
100
AcDbEntity
  8
Specialized_Fills
  6
Continuous
 62
    30
420
 16742400
370
    20
100
AcDbCircle
 10
7220.977919516545
 20
3898.403757468216
 30
0.0
 40
1.884663110930518
100
AcDbArc
 50
337.9982020314359
 51
22.00179796856408
  0
CIRCLE
  5
5C
330
4D
100
AcDbEntity
  8
Specialized_Fills
  6
Continuous
 62
    30
420
 16742400
370
    20
100
AcDbCircle
 10
7256.424359582304
 20
3794.938488919568
 30
0.0
 40
1.668521729680527
  0
CIRCLE
  5
5D
330
4D
100
AcDbEntity
  8
Specialized_Fills
  6
Continuous
 62
    30
420
 16742400
370
    20
100
AcDbCircle
 10
7245.000456364348
 20
3826.325405052936
 30
0.0
 40
1.668521729680527
  0
CIRCLE
  5
5E
330
4D
100
AcDbEntity
  8
Specialized_Fills
  6
Continuous
 62
    30
420
 16742400
370
    20
100
AcDbCircle
 10
7233.576553146393
 20
3857.712321186303
 30
0.0
 40
1.668521729680527
  0
CIRCLE
  5
5F
330
4D
100
AcDbEntity
  8
Specialized_Fills
  6
Continuous
 62
    30
420
 16742400
370
    20
100
AcDbCircle
 10
7264.957976113965
 20
3869.134225055417
 30
0.0
 40
1.668521729680527
  0
ARC
  5
60
330
4D
100
AcDbEntity
  8
Specialized_Fills
  6
Continuous
 62
    30
420
 16742400
370
    20
100
AcDbCircle
 10
7222.152649928438
 20
3889.099237319669
 30
0.0
 40
1.668521729680527
100
AcDbArc
 50
290.0734175018505
 51
69.92658249814946
  0
ARC
  5
61
330
4D
100
AcDbEntity
  8
Specialized_Fills
  6
Continuous
 62
    30
420
 16742400
370
    20
100
AcDbCircle
 10
7253.534072896009
 20
3900.521141188784
 30
0.0
 40
1.668521729680527
100
AcDbArc
 50
163.5008975076062
 51
16.49910249239377
  0
ARC
  5
62
330
4D
100
AcDbEntity
  8
Specialized_Fills
  6
Continuous
 62
    30
420
 16742400
370
    20
100
AcDbCircle
 10
7257.133428423228
 20
3898.734626310399
 30
0.0
 40
2.35557420874174
100
AcDbArc
 50
106.3447450531408
 51
73.65525494685916
  0
CIRCLE
  5
63
330
4D
100
AcDbEntity
  8
Specialized_Fills
  6
Continuous
 62
    30
420
 16742400
370
    20
100
AcDbCircle
 10
7252.52085260705
 20
3815.791577637308
 30
0.0
 40
0.831379126126208
  0
CIRCLE
  5
64
330
4D
100
AcDbEntity
  8
Specialized_Fills
  6
Continuous
 62
    30
420
 16742400
370
    20
100
AcDbCircle
 10
7241.096949389095
 20
3847.178493770675
 30
0.0
 40
0.831379126126208
  0
ARC
  5
65
330
4D
100
AcDbEntity
  8
Specialized_Fills
  6
Continuous
 62
    30
420
 16742400
370
    20
100
AcDbCircle
 10
7272.478372356667
 20
3858.600397639789
 30
0.0
 40
0.831379126126208
100
AcDbArc
 50
73.08887909756514
 51
286.9111209024349
  0
CIRCLE
  5
66
330
4D
100
AcDbEntity
  8
Specialized_Fills
  6
Continuous
 62
    30
420
 16742400
370
    20
100
AcDbCircle
 10
7229.673046171139
 20
3878.565409904041
 30
0.0
 40
0.831379126126208
  0
CIRCLE
  5
67
330
4D
100
AcDbEntity
  8
Specialized_Fills
  6
Continuous
 62
    30
420
 16742400
370
    20
100
AcDbCircle
 10
7261.054469138712
 20
3889.987313773156
 30
0.0
 40
0.831379126126208
  0
CIRCLE
  5
68
330
4D
100
AcDbEntity
  8
Specialized_Fills
  6
Continuous
 62
    30
420
 16742400
370
    20
100
AcDbCircle
 10
7226.407060639054
 20
3805.697111199454
 30
0.0
 40
0.5542527507506278
  0
CIRCLE
  5
69
330
4D
100
AcDbEntity
  8
Specialized_Fills
  6
Continuous
 62
    30
420
 16742400
370
    20
100
AcDbCircle
 10
7257.788483606626
 20
3817.119015068568
 30
0.0
 40
0.5542527507506278
  0
CIRCLE
  5
6A
330
4D
100
AcDbEntity
  8
Specialized_Fills
  6
Continuous
 62
    30
420
 16742400
370
    20
100
AcDbCircle
 10
7246.364580388671
 20
3848.505931201935
 30
0.0
 40
0.5542527507506278
  0
CIRCLE
  5
6B
330
4D
100
AcDbEntity
  8
Specialized_Fills
  6
Continuous
 62
    30
420
 16742400
370
    20
100
AcDbCircle
 10
7234.940677170715
 20
3879.892847335302
 30
0.0
 40
0.5542527507506278
  0
CIRCLE
  5
6C
330
4D
100
AcDbEntity
  8
Specialized_Fills
  6
Continuous
 62
    30
420
 16742400
370
    20
100
AcDbCircle
 10
7266.322100138288
 20
3891.314751204417
 30
0.0
 40
0.5542527507506278
  0
CIRCLE
  5
6D
330
4D
100
AcDbEntity
  8
Specialized_Fills
  6
Continuous
 62
    30
420
 16742400
370
    20
100
AcDbCircle
 10
7270.961086728068
 20
3797.132851751443
 30
0.0
 40
1.498790034299268
  0
CIRCLE
  5
6E
330
4D
100
AcDbEntity
  8
Specialized_Fills
  6
Continuous
 62
    30
420
 16742400
370
    20
100
AcDbCircle
 10
7228.155760542541
 20
3817.097864015695
 30
0.0
 40
1.498790034299268
  0
CIRCLE
  5
6F
330
4D
100
AcDbEntity
  8
Specialized_Fills
  6
Continuous
 62
    30
420
 16742400
370
    20
100
AcDbCircle
 10
7259.537183510115
 20
3828.519767884809
 30
0.0
 40
1.498790034299268
  0
CIRCLE
  5
70
330
4D
100
AcDbEntity
  8
Specialized_Fills
  6
Continuous
 62
    30
420
 16742400
370
    20
100
AcDbCircle
 10
7248.113280292158
 20
3859.906684018176
 30
0.0
 40
1.498790034299268
  0
CIRCLE
  5
71
330
4D
100
AcDbEntity
  8
Specialized_Fills
  6
Continuous
 62
    30
420
 16742400
370
    20
100
AcDbCircle
 10
7236.689377074204
 20
3891.293600151544
 30
0.0
 40
1.498790034299268
  0
ARC
  5
72
330
4D
100
AcDbEntity
  8
Specialized_Fills
  6
Continuous
 62
    30
420
 16742400
370
    20
100
AcDbCircle
 10
7235.103328211741
 20
3790.717208882924
 30
0.0
 40
1.23934682739506
100
AcDbArc
 50
349.8544762595931
 51
190.1455237404069
  0
CIRCLE
  5
73
330
4D
100
AcDbEntity
  8
Specialized_Fills
  6
Continuous
 62
    30
420
 16742400
370
    20
100
AcDbCircle
 10
7266.484751179312
 20
3802.139112752037
 30
0.0
 40
1.23934682739506
  0
ARC
  5
74
330
4D
100
AcDbEntity
  8
Specialized_Fills
  6
Continuous
 62
    30
420
 16742400
370
    20
100
AcDbCircle
 10
7223.679424993786
 20
3822.104125016291
 30
0.0
 40
1.23934682739506
100
AcDbArc
 50
219.6605012010874
 51
140.3394987989125
  0
CIRCLE
  5
75
330
4D
100
AcDbEntity
  8
Specialized_Fills
  6
Continuous
 62
    30
420
 16742400
370
    20
100
AcDbCircle
 10
7255.060847961357
 20
3833.526028885405
 30
0.0
 40
1.23934682739506
  0
CIRCLE
  5
76
330
4D
100
AcDbEntity
  8
Specialized_Fills
  6
Continuous
 62
    30
420
 16742400
370
    20
100
AcDbCircle
 10
7243.636944743402
 20
3864.912945018772
 30
0.0
 40
1.23934682739506
  0
CIRCLE
  5
77
330
4D
100
AcDbEntity
  8
Specialized_Fills
  6
Continuous
 62
    30
420
 16742400
370
    20
100
AcDbCircle
 10
7232.213041525447
 20
3896.299861152138
 30
0.0
 40
1.23934682739506
  0
CIRCLE
  5
78
330
4D
100
AcDbEntity
  8
Specialized_Fills
  6
Continuous
 62
    30
420
 16742400
370
    20
100
AcDbCircle
 10
7230.201426440188
 20
3793.651650208242
 30
0.0
 40
2.110531596509446
  0
CIRCLE
  5
79
330
4D
100
AcDbEntity
  8
Specialized_Fills
  6
Continuous
 62
    30
420
 16742400
370
    20
100
AcDbCircle
 10
7261.582849407758
 20
3805.073554077356
 30
0.0
 40
2.110531596509446
  0
CIRCLE
  5
7A
330
4D
100
AcDbEntity
  8
Specialized_Fills
  6
Continuous
 62
    30
420
 16742400
370
    20
100
AcDbCircle
 10
7250.158946189803
 20
3836.460470210723
 30
0.0
 40
2.110531596509446
  0
CIRCLE
  5
7B
330
4D
100
AcDbEntity
  8
Specialized_Fills
  6
Continuous
 62
    30
420
 16742400
370
    20
100
AcDbCircle
 10
7238.735042971848
 20
3867.847386344089
 30
0.0
 40
2.110531596509446
  0
CIRCLE
  5
7C
330
4D
100
AcDbEntity
  8
Specialized_Fills
  6
Continuous
 62
    30
420
 16742400
370
    20
100
AcDbCircle
 10
7270.11646593942
 20
3879.269290213204
 30
0.0
 40
2.110531596509446
  0
ARC
  5
7D
330
4D
100
AcDbEntity
  8
Specialized_Fills
  6
Continuous
 62
    30
420
 16742400
370
    20
100
AcDbCircle
 10
7227.311139753894
 20
3899.234302477456
 30
0.0
 40
2.110531596509446
100
AcDbArc
 50
123.4627454604291
 51
56.53725453957085
  0
CIRCLE
  5
7E
330
4D
100
AcDbEntity
  8
Specialized_Fills
  6
Continuous
 62
    30
420
 16742400
370
    20
100
AcDbCircle
 10
7257.938493451766
 20
3798.881073460423
 30
0.0
 40
1.884663110930518
  0
CIRCLE
  5
7F
330
4D
100
AcDbEntity
  8
Specialized_Fills
  6
Continuous
 62
    30
420
 16742400
370
    20
100
AcDbCircle
 10
7246.514590233812
 20
3830.267989593789
 30
0.0
 40
1.884663110930518
  0
CIRCLE
  5
80
330
4D
100
AcDbEntity
  8
Specialized_Fills
  6
Continuous
 62
    30
420
 16742400
370
    20
100
AcDbCircle
 10
7235.090687015857
 20
3861.654905727156
 30
0.0
 40
1.884663110930518
  0
CIRCLE
  5
81
330
4D
100
AcDbEntity
  8
Specialized_Fills
  6
Continuous
 62
    30
420
 16742400
370
    20
100
AcDbCircle
 10
7266.472109983428
 20
3873.076809596271
 30
0.0
 40
1.884663110930518
  0
ARC
  5
82
330
4D
100
AcDbEntity
  8
Specialized_Fills
  6
Continuous
 62
    30
420
 16742400
370
    20
100
AcDbCircle
 10
7223.666783797901
 20
3893.041821860523
 30
0.0
 40
1.884663110930518
100
AcDbArc
 50
240.0306877199604
 51
119.9693122800395
  0
CIRCLE
  5
83
330
4D
100
AcDbEntity
  8
Specialized_Fills
  6
Continuous
 62
    30
420
 16742400
370
    20
100
AcDbCircle
 10
7247.291550922739
 20
3808.276931091772
 30
0.0
 40
2.351495271282999
  0
CIRCLE
  5
84
330
4D
100
AcDbEntity
  8
Specialized_Fills
  6
Continuous
 62
    30
420
 16742400
370
    20
100
AcDbCircle
 10
7235.867647704783
 20
3839.663847225138
 30
0.0
 40
2.351495271282999
  0
CIRCLE
  5
85
330
4D
100
AcDbEntity
  8
Specialized_Fills
  6
Continuous
 62
    30
420
 16742400
370
    20
100
AcDbCircle
 10
7267.249070672356
 20
3851.085751094252
 30
0.0
 40
2.351495271282999
  0
ARC
  5
86
330
4D
100
AcDbEntity
  8
Specialized_Fills
  6
Continuous
 62
    30
420
 16742400
370
    20
100
AcDbCircle
 10
7224.44374448683
 20
3871.050763358505
 30
0.0
 40
2.351495271282999
100
AcDbArc
 50
223.0484541616923
 51
136.9515458383076
  0
CIRCLE
  5
87
330
4D
100
AcDbEntity
  8
Specialized_Fills
  6
Continuous
 62
    30
420
 16742400
370
    20
100
AcDbCircle
 10
7255.8251674544
 20
3882.472667227619
 30
0.0
 40
2.351495271282999
  0
CIRCLE
  5
88
330
4D
100
AcDbEntity
  8
Specialized_Fills
  6
Continuous
 62
    30
420
 16742400
370
    20
100
AcDbCircle
 10
7246.251809260908
 20
3801.41043804103
 30
0.0
 40
1.082213091730288
  0
CIRCLE
  5
89
330
4D
100
AcDbEntity
  8
Specialized_Fills
  6
Continuous
 62
    30
420
 16742400
370
    20
100
AcDbCircle
 10
7234.827906042955
 20
3832.797354174397
 30
0.0
 40
1.082213091730288
  0
CIRCLE
  5
8A
330
4D
100
AcDbEntity
  8
Specialized_Fills
  6
Continuous
 62
    30
420
 16742400
370
    20
100
AcDbCircle
 10
7266.209329010526
 20
3844.219258043511
 30
0.0
 40
1.082213091730288
  0
ARC
  5
8B
330
4D
100
AcDbEntity
  8
Specialized_Fills
  6
Continuous
 62
    30
420
 16742400
370
    20
100
AcDbCircle
 10
7223.404002824998
 20
3864.184270307764
 30
0.0
 40
1.082213091730288
100
AcDbArc
 50
231.1621232244915
 51
128.8378767755085
  0
CIRCLE
  5
8C
330
4D
100
AcDbEntity
  8
Specialized_Fills
  6
Continuous
 62
    30
420
 16742400
370
    20
100
AcDbCircle
 10
7254.785425792571
 20
3875.606174176878
 30
0.0
 40
1.082213091730288
  0
CIRCLE
  5
8D
330
4D
100
AcDbEntity
  8
Specialized_Fills
  6
Continuous
 62
    30
420
 16742400
370
    20
100
AcDbCircle
 10
7240.508829664683
 20
3806.250590039777
 30
0.0
 40
1.859020241092324
  0
ARC
  5
8E
330
4D
100
AcDbEntity
  8
Specialized_Fills
  6
Continuous
 62
    30
420
 16742400
370
    20
100
AcDbCircle
 10
7271.890252632255
 20
3817.67249390889
 30
0.0
 40
1.859020241092324
100
AcDbArc
 50
63.48391294165953
 51
296.5160870583405
  0
CIRCLE
  5
8F
330
4D
100
AcDbEntity
  8
Specialized_Fills
  6
Continuous
 62
    30
420
 16742400
370
    20
100
AcDbCircle
 10
7229.084926446728
 20
3837.637506173143
 30
0.0
 40
1.859020241092324
  0
CIRCLE
  5
90
330
4D
100
AcDbEntity
  8
Specialized_Fills
  6
Continuous
 62
    30
420
 16742400
370
    20
100
AcDbCircle
 10
7260.466349414301
 20
3849.059410042258
 30
0.0
 40
1.859020241092324
  0
CIRCLE
  5
91
330
4D
100
AcDbEntity
  8
Specialized_Fills
  6
Continuous
 62
    30
420
 16742400
370
    20
100
AcDbCircle
 10
7249.042446196345
 20
3880.446326175625
 30
0.0
 40
1.859020241092324
  0
ARC
  5
92
330
4D
100
AcDbEntity
  8
Specialized_Fills
  6
Continuous
 62
    30
420
 16742400
370
    20
100
AcDbCircle
 10
7271.796904413154
 20
3813.067386138676
 30
0.0
 40
1.108505509026478
100
AcDbArc
 50
326.4007754273841
 51
33.59922457261589
  0
CIRCLE
  5
93
330
4D
100
AcDbEntity
  8
Specialized_Fills
  6
Continuous
 62
    30
420
 16742400
370
    20
100
AcDbCircle
 10
7244.783154014725
 20
3803.825008535434
 30
0.0
 40
0.8763505458929897
  0
CIRCLE
  5
94
330
4D
100
AcDbEntity
  8
Specialized_Fills
  6
Continuous
 62
    30
420
 16742400
370
    20
100
AcDbCircle
 10
7233.359250796771
 20
3835.211924668801
 30
0.0
 40
0.8763505458929897
  0
CIRCLE
  5
95
330
4D
100
AcDbEntity
  8
Specialized_Fills
  6
Continuous
 62
    30
420
 16742400
370
    20
100
AcDbCircle
 10
7264.740673764342
 20
3846.633828537914
 30
0.0
 40
0.8763505458929897
  0
ARC
  5
96
330
4D
100
AcDbEntity
  8
Specialized_Fills
  6
Continuous
 62
    30
420
 16742400
370
    20
100
AcDbCircle
 10
7221.935347578815
 20
3866.598840802168
 30
0.0
 40
0.8763505458929897
100
AcDbArc
 50
334.3482337949976
 51
25.65176620500236
  0
CIRCLE
  5
97
330
4D
100
AcDbEntity
  8
Specialized_Fills
  6
Continuous
 62
    30
420
 16742400
370
    20
100
AcDbCircle
 10
7253.316770546387
 20
3878.020744671282
 30
0.0
 40
0.8763505458929897
  0
CIRCLE
  5
98
330
4D
100
AcDbEntity
  8
Specialized_Fills
  6
Continuous
 62
    30
420
 16742400
370
    20
100
AcDbCircle
 10
7233.856793406118
 20
3802.649799929035
 30
0.0
 40
1.364689132099527
  0
CIRCLE
  5
99
330
4D
100
AcDbEntity
  8
Specialized_Fills
  6
Continuous
 62
    30
420
 16742400
370
    20
100
AcDbCircle
 10
7265.23821637369
 20
3814.071703798149
 30
0.0
 40
1.364689132099527
  0
ARC
  5
9A
330
4D
100
AcDbEntity
  8
Specialized_Fills
  6
Continuous
 62
    30
420
 16742400
370
    20
100
AcDbCircle
 10
7222.432890188163
 20
3834.036716062401
 30
0.0
 40
1.364689132099527
100
AcDbArc
 50
282.3737538494822
 51
77.62624615051773
  0
CIRCLE
  5
9B
330
4D
100
AcDbEntity
  8
Specialized_Fills
  6
Continuous
 62
    30
420
 16742400
370
    20
100
AcDbCircle
 10
7253.814313155736
 20
3845.458619931516
 30
0.0
 40
1.364689132099527
  0
CIRCLE
  5
9C
330
4D
100
AcDbEntity
  8
Specialized_Fills
  6
Continuous
 62
    30
420
 16742400
370
    20
100
AcDbCircle
 10
7242.39040993778
 20
3876.845536064883
 30
0.0
 40
1.364689132099527
  0
ARC
  5
9D
330
4D
100
AcDbEntity
  8
Specialized_Fills
  6
Continuous
 62
    30
420
 16742400
370
    20
100
AcDbCircle
 10
7273.771832905352
 20
3888.267439933997
 30
0.0
 40
1.364689132099527
100
AcDbArc
 50
140.4073360660768
 51
219.5926639339231
  0
CIRCLE
  5
9E
330
4D
100
AcDbEntity
  8
Specialized_Fills
  6
Continuous
 62
    30
420
 16742400
370
    20
100
AcDbCircle
 10
7229.062598225161
 20
3801.642134908007
 30
0.0
 40
0.9991933561993347
  0
CIRCLE
  5
9F
330
4D
100
AcDbEntity
  8
Specialized_Fills
  6
Continuous
 62
    30
420
 16742400
370
    20
100
AcDbCircle
 10
7260.444021192732
 20
3813.064038777121
 30
0.0
 40
0.9991933561993347
  0
CIRCLE
  5
A0
330
4D
100
AcDbEntity
  8
Specialized_Fills
  6
Continuous
 62
    30
420
 16742400
370
    20
100
AcDbCircle
 10
7249.020117974779
 20
3844.450954910488
 30
0.0
 40
0.9991933561993347
  0
CIRCLE
  5
A1
330
4D
100
AcDbEntity
  8
Specialized_Fills
  6
Continuous
 62
    30
420
 16742400
370
    20
100
AcDbCircle
 10
7237.596214756823
 20
3875.837871043855
 30
0.0
 40
0.9991933561993347
  0
CIRCLE
  5
A2
330
4D
100
AcDbEntity
  8
Specialized_Fills
  6
Continuous
 62
    30
420
 16742400
370
    20
100
AcDbCircle
 10
7268.977637724394
 20
3887.259774912969
 30
0.0
 40
0.9991933561993347
  0
CIRCLE
  5
A3
330
4D
100
AcDbEntity
  8
Specialized_Fills
  6
Continuous
 62
    30
420
 16742400
370
    20
100
AcDbCircle
 10
7226.09177650847
 20
3799.676109045295
 30
0.0
 40
1.446642150311205
  0
CIRCLE
  5
A4
330
4D
100
AcDbEntity
  8
Specialized_Fills
  6
Continuous
 62
    30
420
 16742400
370
    20
100
AcDbCircle
 10
7257.473199476041
 20
3811.09801291441
 30
0.0
 40
1.446642150311205
  0
CIRCLE
  5
A5
330
4D
100
AcDbEntity
  8
Specialized_Fills
  6
Continuous
 62
    30
420
 16742400
370
    20
100
AcDbCircle
 10
7246.049296258085
 20
3842.484929047777
 30
0.0
 40
1.446642150311205
  0
CIRCLE
  5
A6
330
4D
100
AcDbEntity
  8
Specialized_Fills
  6
Continuous
 62
    30
420
 16742400
370
    20
100
AcDbCircle
 10
7234.62539304013
 20
3873.871845181144
 30
0.0
 40
1.446642150311205
  0
CIRCLE
  5
A7
330
4D
100
AcDbEntity
  8
Specialized_Fills
  6
Continuous
 62
    30
420
 16742400
370
    20
100
AcDbCircle
 10
7266.006816007703
 20
3885.293749050258
 30
0.0
 40
1.446642150311205
  0
CIRCLE
  5
A8
330
4D
100
AcDbEntity
  8
Specialized_Fills
  6
Continuous
 62
    30
420
 16742400
370
    20
100
AcDbCircle
 10
7240.93917783256
 20
3792.104005114453
 30
0.0
 40
1.254743030480298
  0
ARC
  5
A9
330
4D
100
AcDbEntity
  8
Specialized_Fills
  6
Continuous
 62
    30
420
 16742400
370
    20
100
AcDbCircle
 10
7272.320600800131
 20
3803.525908983566
 30
0.0
 40
1.254743030480298
100
AcDbArc
 50
71.42901548868202
 51
288.570984511318
  0
CIRCLE
  5
AA
330
4D
100
AcDbEntity
  8
Specialized_Fills
  6
Continuous
 62
    30
420
 16742400
370
    20
100
AcDbCircle
 10
7229.515274614605
 20
3823.490921247819
 30
0.0
 40
1.254743030480298
  0
CIRCLE
  5
AB
330
4D
100
AcDbEntity
  8
Specialized_Fills
  6
Continuous
 62
    30
420
 16742400
370
    20
100
AcDbCircle
 10
7260.896697582177
 20
3834.912825116933
 30
0.0
 40
1.254743030480298
  0
CIRCLE
  5
AC
330
4D
100
AcDbEntity
  8
Specialized_Fills
  6
Continuous
 62
    30
420
 16742400
370
    20
100
AcDbCircle
 10
7249.472794364222
 20
3866.2997412503
 30
0.0
 40
1.254743030480298
  0
CIRCLE
  5
AD
330
4D
100
AcDbEntity
  8
Specialized_Fills
  6
Continuous
 62
    30
420
 16742400
370
    20
100
AcDbCircle
 10
7238.048891146267
 20
3897.686657383667
 30
0.0
 40
1.254743030480298
  0
CIRCLE
  5
AE
330
4D
100
AcDbEntity
  8
Specialized_Fills
  6
Continuous
 62
    30
420
 16742400
370
    20
100
AcDbCircle
 10
7248.562020526271
 20
3795.468316413139
 30
0.0
 40
2.190876364732474
  0
CIRCLE
  5
AF
330
4D
100
AcDbEntity
  8
Specialized_Fills
  6
Continuous
 62
    30
420
 16742400
370
    20
100
AcDbCircle
 10
7237.138117308315
 20
3826.855232546506
 30
0.0
 40
2.190876364732474
  0
CIRCLE
  5
B0
330
4D
100
AcDbEntity
  8
Specialized_Fills
  6
Continuous
 62
    30
420
 16742400
370
    20
100
AcDbCircle
 10
7268.519540275888
 20
3838.27713641562
 30
0.0
 40
2.190876364732474
  0
CIRCLE
  5
B1
330
4D
100
AcDbEntity
  8
Specialized_Fills
  6
Continuous
 62
    30
420
 16742400
370
    20
100
AcDbCircle
 10
7225.714214090361
 20
3858.242148679873
 30
0.0
 40
2.190876364732474
  0
CIRCLE
  5
B2
330
4D
100
AcDbEntity
  8
Specialized_Fills
  6
Continuous
 62
    30
420
 16742400
370
    20
100
AcDbCircle
 10
7257.095637057933
 20
3869.664052548987
 30
0.0
 40
2.190876364732474
  0
ARC
  5
B3
330
4D
100
AcDbEntity
  8
Specialized_Fills
  6
Continuous
 62
    30
420
 16742400
370
    20
100
AcDbCircle
 10
7245.671733839976
 20
3901.050968682353
 30
0.0
 40
2.190876364732474
100
AcDbArc
 50
181.4638019648026
 51
358.5361980351974
  0
CIRCLE
  5
B4
330
4D
100
AcDbEntity
  8
Specialized_Fills
  6
Continuous
 62
    30
420
 16742400
370
    20
100
AcDbCircle
 10
7240.109111017829
 20
3796.815384891739
 30
0.0
 40
1.392542801927199
  0
ARC
  5
B5
330
4D
100
AcDbEntity
  8
Specialized_Fills
  6
Continuous
 62
    30
420
 16742400
370
    20
100
AcDbCircle
 10
7271.490533985399
 20
3808.237288760853
 30
0.0
 40
1.392542801927199
100
AcDbArc
 50
27.9882375807694
 51
332.0117624192306
  0
CIRCLE
  5
B6
330
4D
100
AcDbEntity
  8
Specialized_Fills
  6
Continuous
 62
    30
420
 16742400
370
    20
100
AcDbCircle
 10
7228.685207799873
 20
3828.202301025106
 30
0.0
 40
1.392542801927199
  0
CIRCLE
  5
B7
330
4D
100
AcDbEntity
  8
Specialized_Fills
  6
Continuous
 62
    30
420
 16742400
370
    20
100
AcDbCircle
 10
7260.066630767444
 20
3839.62420489422
 30
0.0
 40
1.392542801927199
  0
CIRCLE
  5
B8
330
4D
100
AcDbEntity
  8
Specialized_Fills
  6
Continuous
 62
    30
420
 16742400
370
    20
100
AcDbCircle
 10
7248.642727549491
 20
3871.011121027587
 30
0.0
 40
1.392542801927199
  0
ARC
  5
B9
330
4D
100
AcDbEntity
  8
Specialized_Fills
  6
Continuous
 62
    30
420
 16742400
370
    20
100
AcDbCircle
 10
7232.755890765258
 20
3902.100764965108
 30
0.0
 40
1.385631884225165
100
AcDbArc
 50
307.0584840136688
 51
232.941515986302
  0
CIRCLE
  5
BA
330
4D
100
AcDbEntity
  8
Specialized_Fills
  6
Continuous
 62
    30
420
 16742400
370
    20
100
AcDbCircle
 10
7234.265903950312
 20
3811.654069393349
 30
0.0
 40
3.246639275191398
  0
CIRCLE
  5
BB
330
4D
100
AcDbEntity
  8
Specialized_Fills
  6
Continuous
 62
    30
420
 16742400
370
    20
100
AcDbCircle
 10
7265.647326917885
 20
3823.075973262463
 30
0.0
 40
3.246639275191398
  0
ARC
  5
BC
330
4D
100
AcDbEntity
  8
Specialized_Fills
  6
Continuous
 62
    30
420
 16742400
370
    20
100
AcDbCircle
 10
7222.842000732358
 20
3843.040985526715
 30
0.0
 40
3.246639275191398
100
AcDbArc
 50
267.9405236242597
 51
92.05947637574025
  0
CIRCLE
  5
BD
330
4D
100
AcDbEntity
  8
Specialized_Fills
  6
Continuous
 62
    30
420
 16742400
370
    20
100
AcDbCircle
 10
7254.223423699929
 20
3854.46288939583
 30
0.0
 40
3.246639275191398
  0
CIRCLE
  5
BE
330
4D
100
AcDbEntity
  8
Specialized_Fills
  6
Continuous
 62
    30
420
 16742400
370
    20
100
AcDbCircle
 10
7242.799520481973
 20
3885.849805529196
 30
0.0
 40
3.246639275191398
  0
ARC
  5
BF
330
4D
100
AcDbEntity
  8
Specialized_Fills
  6
Continuous
 62
    30
420
 16742400
370
    20
100
AcDbCircle
 10
7274.180943449545
 20
3897.27170939831
 30
0.0
 40
3.246639275191398
100
AcDbArc
 50
116.7386505545247
 51
243.2613494454753
  0
ARC
  5
C0
330
4D
100
AcDbEntity
  8
Specialized_Fills
  6
Continuous
 62
    30
420
 16742400
370
    20
100
AcDbCircle
 10
7223.702709604369
 20
3854.855815361307
 30
0.0
 40
1.492371212980843
100
AcDbArc
 50
229.0864517089905
 51
130.9135482910318
  0
CIRCLE
  5
C1
330
4D
100
AcDbEntity
  8
Specialized_Fills
  6
Continuous
 62
    30
420
 16742400
370
    20
100
AcDbCircle
 10
7234.405687181712
 20
3819.372651278701
 30
0.0
 40
1.983922927269609
  0
CIRCLE
  5
C2
330
4D
100
AcDbEntity
  8
Specialized_Fills
  6
Continuous
 62
    30
420
 16742400
370
    20
100
AcDbCircle
 10
7265.787110149283
 20
3830.794555147815
 30
0.0
 40
1.983922927269609
  0
ARC
  5
C3
330
4D
100
AcDbEntity
  8
Specialized_Fills
  6
Continuous
 62
    30
420
 16742400
370
    20
100
AcDbCircle
 10
7222.981783963756
 20
3850.759567412068
 30
0.0
 40
1.983922927269609
100
AcDbArc
 50
262.5727154088859
 51
97.42728459111415
  0
CIRCLE
  5
C4
330
4D
100
AcDbEntity
  8
Specialized_Fills
  6
Continuous
 62
    30
420
 16742400
370
    20
100
AcDbCircle
 10
7254.363206931327
 20
3862.181471281182
 30
0.0
 40
1.983922927269609
  0
CIRCLE
  5
C5
330
4D
100
AcDbEntity
  8
Specialized_Fills
  6
Continuous
 62
    30
420
 16742400
370
    20
100
AcDbCircle
 10
7242.939303713372
 20
3893.568387414548
 30
0.0
 40
1.983922927269609
  0
CIRCLE
  5
C6
330
4D
100
AcDbEntity
  8
Specialized_Fills
  6
Continuous
 62
    30
420
 16742400
370
    20
100
AcDbCircle
 10
7239.591459166632
 20
3817.278809583546
 30
0.0
 40
2.217011003003044
  0
ARC
  5
C7
330
4D
100
AcDbEntity
  8
Specialized_Fills
  6
Continuous
 62
    30
420
 16742400
370
    20
100
AcDbCircle
 10
7270.972882134204
 20
3828.70071345266
 30
0.0
 40
2.217011003003044
100
AcDbArc
 50
37.98741175805974
 51
322.0125882419403
  0
CIRCLE
  5
C8
330
4D
100
AcDbEntity
  8
Specialized_Fills
  6
Continuous
 62
    30
420
 16742400
370
    20
100
AcDbCircle
 10
7228.167555948677
 20
3848.665725716913
 30
0.0
 40
2.217011003003044
  0
CIRCLE
  5
C9
330
4D
100
AcDbEntity
  8
Specialized_Fills
  6
Continuous
 62
    30
420
 16742400
370
    20
100
AcDbCircle
 10
7259.548978916249
 20
3860.087629586028
 30
0.0
 40
2.217011003003044
  0
CIRCLE
  5
CA
330
4D
100
AcDbEntity
  8
Specialized_Fills
  6
Continuous
 62
    30
420
 16742400
370
    20
100
AcDbCircle
 10
7248.125075698293
 20
3891.474545719394
 30
0.0
 40
2.217011003003044
  0
CIRCLE
  5
CB
330
4D
100
AcDbEntity
  8
Specialized_Fills
  6
Continuous
 62
    30
420
 16742400
370
    20
100
AcDbCircle
 10
7245.250666970171
 20
3815.504740298624
 30
0.0
 40
1.364689132099527
  0
CIRCLE
  5
CC
330
4D
100
AcDbEntity
  8
Specialized_Fills
  6
Continuous
 62
    30
420
 16742400
370
    20
100
AcDbCircle
 10
7233.826763752216
 20
3846.891656431991
 30
0.0
 40
1.364689132099527
  0
CIRCLE
  5
CD
330
4D
100
AcDbEntity
  8
Specialized_Fills
  6
Continuous
 62
    30
420
 16742400
370
    20
100
AcDbCircle
 10
7265.208186719789
 20
3858.313560301106
 30
0.0
 40
1.364689132099527
  0
ARC
  5
CE
330
4D
100
AcDbEntity
  8
Specialized_Fills
  6
Continuous
 62
    30
420
 16742400
370
    20
100
AcDbCircle
 10
7222.402860534261
 20
3878.278572565358
 30
0.0
 40
1.364689132099527
100
AcDbArc
 50
283.667833304685
 51
76.33216669531501
  0
CIRCLE
  5
CF
330
4D
100
AcDbEntity
  8
Specialized_Fills
  6
Continuous
 62
    30
420
 16742400
370
    20
100
AcDbCircle
 10
7253.784283501833
 20
3889.700476434472
 30
0.0
 40
1.364689132099527
  0
ARC
  5
D0
330
4D
100
AcDbEntity
  8
Specialized_Fills
  6
Continuous
 62
    30
420
 16742400
370
    20
100
AcDbCircle
 10
7264.262615457207
 20
3790.418587525563
 30
0.0
 40
0.9699423138137321
100
AcDbArc
 50
4.749561148737188
 51
175.2504388512628
  0
CIRCLE
  5
D1
330
4D
100
AcDbEntity
  8
Specialized_Fills
  6
Continuous
 62
    30
420
 16742400
370
    20
100
AcDbCircle
 10
7252.838712239253
 20
3821.80550365893
 30
0.0
 40
0.9699423138137321
  0
CIRCLE
  5
D2
330
4D
100
AcDbEntity
  8
Specialized_Fills
  6
Continuous
 62
    30
420
 16742400
370
    20
100
AcDbCircle
 10
7241.414809021296
 20
3853.192419792297
 30
0.0
 40
0.9699423138137321
  0
ARC
  5
D3
330
4D
100
AcDbEntity
  8
Specialized_Fills
  6
Continuous
 62
    30
420
 16742400
370
    20
100
AcDbCircle
 10
7272.796231988869
 20
3864.614323661412
 30
0.0
 40
0.9699423138137321
100
AcDbArc
 50
94.49530149718972
 51
265.5046985028103
  0
CIRCLE
  5
D4
330
4D
100
AcDbEntity
  8
Specialized_Fills
  6
Continuous
 62
    30
420
 16742400
370
    20
100
AcDbCircle
 10
7229.990905803342
 20
3884.579335925664
 30
0.0
 40
0.9699423138137321
  0
CIRCLE
  5
D5
330
4D
100
AcDbEntity
  8
Specialized_Fills
  6
Continuous
 62
    30
420
 16742400
370
    20
100
AcDbCircle
 10
7261.372328770914
 20
3896.001239794778
 30
0.0
 40
0.9699423138137321
  0
ARC
  5
D6
330
4D
100
AcDbEntity
  8
Specialized_Fills
  6
Continuous
 62
    30
420
 16742400
370
    20
100
AcDbCircle
 10
7269.980703866507
 20
3789.698140079459
 30
0.0
 40
1.108505509026478
100
AcDbArc
 50
46.25110589708081
 51
133.7488941029192
  0
ARC
  5
D7
330
4D
100
AcDbEntity
  8
Specialized_Fills
  6
Continuous
 62
    30
420
 16742400
370
    20
100
AcDbCircle
 10
7221.68694649077
 20
3818.132845133406
 30
0.0
 40
2.004675758922407
100
AcDbArc
 50
58.8032109829292
 51
301.1967890170622
  0
ARC
  5
D8
330
4D
100
AcDbEntity
  8
Specialized_Fills
  6
Continuous
 62
    30
420
 16742400
370
    20
100
AcDbCircle
 10
7273.025889207957
 20
3872.363569005001
 30
0.0
 40
2.004675758922407
100
AcDbArc
 50
98.77084036539795
 51
261.229159634577
  0
CIRCLE
  5
D9
330
4D
100
AcDbEntity
  8
Specialized_Fills
  6
Continuous
 62
    30
420
 16742400
370
    20
100
AcDbCircle
 10
7267.802458548596
 20
3793.996646939556
 30
0.0
 40
1.57542517109146
  0
CIRCLE
  5
DA
330
4D
100
AcDbEntity
  8
Specialized_Fills
  6
Continuous
 62
    30
420
 16742400
370
    20
100
AcDbCircle
 10
7224.997132363068
 20
3813.961659203808
 30
0.0
 40
1.57542517109146
  0
CIRCLE
  5
DB
330
4D
100
AcDbEntity
  8
Specialized_Fills
  6
Continuous
 62
    30
420
 16742400
370
    20
100
AcDbCircle
 10
7256.37855533064
 20
3825.383563072922
 30
0.0
 40
1.57542517109146
  0
CIRCLE
  5
DC
330
4D
100
AcDbEntity
  8
Specialized_Fills
  6
Continuous
 62
    30
420
 16742400
370
    20
100
AcDbCircle
 10
7244.954652112685
 20
3856.770479206289
 30
0.0
 40
1.57542517109146
  0
CIRCLE
  5
DD
330
4D
100
AcDbEntity
  8
Specialized_Fills
  6
Continuous
 62
    30
420
 16742400
370
    20
100
AcDbCircle
 10
7233.530748894729
 20
3888.157395339656
 30
0.0
 40
1.57542517109146
  0
ARC
  5
DE
330
4D
100
AcDbEntity
  8
Specialized_Fills
  6
Continuous
 62
    30
420
 16742400
370
    20
100
AcDbCircle
 10
7264.912171862301
 20
3899.57929920877
 30
0.0
 40
1.57542517109146
100
AcDbArc
 50
116.0232257295475
 51
63.97677427045253
  0
CIRCLE
  5
DF
330
4D
100
AcDbEntity
  8
Specialized_Fills
  6
Continuous
 62
    30
420
 16742400
370
    20
100
AcDbCircle
 10
7247.131411326988
 20
3819.710117190437
 30
0.0
 40
1.277489469031145
  0
CIRCLE
  5
E0
330
4D
100
AcDbEntity
  8
Specialized_Fills
  6
Continuous
 62
    30
420
 16742400
370
    20
100
AcDbCircle
 10
7235.707508109033
 20
3851.097033323803
 30
0.0
 40
1.277489469031145
  0
CIRCLE
  5
E1
330
4D
100
AcDbEntity
  8
Specialized_Fills
  6
Continuous
 62
    30
420
 16742400
370
    20
100
AcDbCircle
 10
7267.088931076604
 20
3862.518937192918
 30
0.0
 40
1.277489469031145
  0
CIRCLE
  5
E2
330
4D
100
AcDbEntity
  8
Specialized_Fills
  6
Continuous
 62
    30
420
 16742400
370
    20
100
AcDbCircle
 10
7224.283604891077
 20
3882.483949457171
 30
0.0
 40
1.277489469031145
  0
CIRCLE
  5
E3
330
4D
100
AcDbEntity
  8
Specialized_Fills
  6
Continuous
 62
    30
420
 16742400
370
    20
100
AcDbCircle
 10
7255.66502785865
 20
3893.905853326284
 30
0.0
 40
1.277489469031145
  0
ARC
  5
E4
330
4D
100
AcDbEntity
  8
Specialized_Fills
  6
Continuous
 62
    30
420
 16742400
370
    20
100
AcDbCircle
 10
7223.916727670062
 20
3807.08309668424
 30
0.0
 40
1.255125548576963
100
AcDbArc
 50
198.3358863052283
 51
161.6641136947716
  0
CIRCLE
  5
E5
330
4D
100
AcDbEntity
  8
Specialized_Fills
  6
Continuous
 62
    30
420
 16742400
370
    20
100
AcDbCircle
 10
7255.298150637634
 20
3818.505000553353
 30
0.0
 40
1.255125548576963
  0
CIRCLE
  5
E6
330
4D
100
AcDbEntity
  8
Specialized_Fills
  6
Continuous
 62
    30
420
 16742400
370
    20
100
AcDbCircle
 10
7243.874247419679
 20
3849.891916686721
 30
0.0
 40
1.255125548576963
  0
CIRCLE
  5
E7
330
4D
100
AcDbEntity
  8
Specialized_Fills
  6
Continuous
 62
    30
420
 16742400
370
    20
100
AcDbCircle
 10
7232.450344201723
 20
3881.278832820088
 30
0.0
 40
1.255125548576963
  0
CIRCLE
  5
E8
330
4D
100
AcDbEntity
  8
Specialized_Fills
  6
Continuous
 62
    30
420
 16742400
370
    20
100
AcDbCircle
 10
7263.831767169294
 20
3892.700736689202
 30
0.0
 40
1.255125548576963
  0
CIRCLE
  5
E9
330
4D
100
AcDbEntity
  8
Specialized_Fills
  6
Continuous
 62
    30
420
 16742400
370
    20
100
AcDbCircle
 10
7230.685587871777
 20
3806.304096632397
 30
0.0
 40
1.474220607961029
  0
CIRCLE
  5
EA
330
4D
100
AcDbEntity
  8
Specialized_Fills
  6
Continuous
 62
    30
420
 16742400
370
    20
100
AcDbCircle
 10
7262.067010839349
 20
3817.726000501511
 30
0.0
 40
1.474220607961029
  0
CIRCLE
  5
EB
330
4D
100
AcDbEntity
  8
Specialized_Fills
  6
Continuous
 62
    30
420
 16742400
370
    20
100
AcDbCircle
 10
7250.643107621394
 20
3849.112916634878
 30
0.0
 40
1.474220607961029
  0
CIRCLE
  5
EC
330
4D
100
AcDbEntity
  8
Specialized_Fills
  6
Continuous
 62
    30
420
 16742400
370
    20
100
AcDbCircle
 10
7239.219204403439
 20
3880.499832768245
 30
0.0
 40
1.474220607961029
  0
CIRCLE
  5
ED
330
4D
100
AcDbEntity
  8
Specialized_Fills
  6
Continuous
 62
    30
420
 16742400
370
    20
100
AcDbCircle
 10
7270.60062737101
 20
3891.921736637359
 30
0.0
 40
1.474220607961029
  0
CIRCLE
  5
EE
330
4D
100
AcDbEntity
  8
Specialized_Fills
  6
Continuous
 62
    30
420
 16742400
370
    20
100
AcDbCircle
 10
7242.453943300425
 20
3811.014093989055
 30
0.0
 40
1.37258085789611
  0
ARC
  5
EF
330
4D
100
AcDbEntity
  8
Specialized_Fills
  6
Continuous
 62
    30
420
 16742400
370
    20
100
AcDbCircle
 10
7273.835366267997
 20
3822.43599785817
 30
0.0
 40
1.37258085789611
100
AcDbArc
 50
144.3361747699188
 51
215.6638252300811
  0
CIRCLE
  5
F0
330
4D
100
AcDbEntity
  8
Specialized_Fills
  6
Continuous
 62
    30
420
 16742400
370
    20
100
AcDbCircle
 10
7231.030040082469
 20
3842.401010122422
 30
0.0
 40
1.37258085789611
  0
CIRCLE
  5
F1
330
4D
100
AcDbEntity
  8
Specialized_Fills
  6
Continuous
 62
    30
420
 16742400
370
    20
100
AcDbCircle
 10
7262.411463050042
 20
3853.822913991536
 30
0.0
 40
1.37258085789611
  0
CIRCLE
  5
F2
330
4D
100
AcDbEntity
  8
Specialized_Fills
  6
Continuous
 62
    30
420
 16742400
370
    20
100
AcDbCircle
 10
7250.987559832086
 20
3885.209830124903
 30
0.0
 40
1.37258085789611
  0
CIRCLE
  5
F3
330
4D
100
AcDbEntity
  8
Specialized_Fills
  6
Continuous
 62
    30
420
 16742400
370
    20
100
AcDbCircle
 10
7252.572502531011
 20
3792.122726239512
 30
0.0
 40
1.045510956534734
  0
CIRCLE
  5
F4
330
4D
100
AcDbEntity
  8
Specialized_Fills
  6
Continuous
 62
    30
420
 16742400
370
    20
100
AcDbCircle
 10
7241.148599313056
 20
3823.509642372879
 30
0.0
 40
1.045510956534734
  0
ARC
  5
F5
330
4D
100
AcDbEntity
  8
Specialized_Fills
  6
Continuous
 62
    30
420
 16742400
370
    20
100
AcDbCircle
 10
7272.530022280628
 20
3834.931546241994
 30
0.0
 40
1.045510956534734
100
AcDbArc
 50
79.51900686632241
 51
280.4809931336776
  0
CIRCLE
  5
F6
330
4D
100
AcDbEntity
  8
Specialized_Fills
  6
Continuous
 62
    30
420
 16742400
370
    20
100
AcDbCircle
 10
7229.724696095101
 20
3854.896558506246
 30
0.0
 40
1.045510956534734
  0
CIRCLE
  5
F7
330
4D
100
AcDbEntity
  8
Specialized_Fills
  6
Continuous
 62
    30
420
 16742400
370
    20
100
AcDbCircle
 10
7261.106119062673
 20
3866.318462375361
 30
0.0
 40
1.045510956534734
  0
CIRCLE
  5
F8
330
4D
100
AcDbEntity
  8
Specialized_Fills
  6
Continuous
 62
    30
420
 16742400
370
    20
100
AcDbCircle
 10
7249.682215844718
 20
3897.705378508727
 30
0.0
 40
1.045510956534734
  0
ENDBLK
  5
4F
330
4D
100
AcDbEntity
  8
0
100
AcDbBlockEnd
  0
BLOCK
  5
154
330
153
100
AcDbEntity
  8
0
100
AcDbBlockBegin
  2
*D3
 70
     1
 10
0.0
 20
0.0
 30
0.0
  3
*D3
  1

  0
LINE
  5
32B
330
153
100
AcDbEntity
  8
Specialized_Lines
  6
Continuous
 62
     7
440
 16777216
370
    -2
100
AcDbLine
 10
7092.309626364147
 20
3970.622456708921
 30
0.0
 11
7084.139131898665
 21
3970.622456708921
 31
0.0
  0
LINE
  5
32C
330
153
100
AcDbEntity
  8
Specialized_Lines
  6
Continuous
 62
     7
440
 16777216
370
    -2
100
AcDbLine
 10
7091.801379509127
 20
3983.01573270842
 30
0.0
 11
7084.139131898665
 21
3983.01573270842
 31
0.0
  0
LINE
  5
32D
330
153
100
AcDbEntity
  8
Specialized_Lines
  6
Continuous
 62
     7
440
 16777216
370
    -2
100
AcDbLine
 10
7084.319131898666
 20
3974.422456708921
 30
0.0
 11
7084.319131898666
 21
3979.21573270842
 31
0.0
  0
MTEXT
  5
32E
330
153
100
AcDbEntity
  8
Specialized_Lines
  6
Continuous
 62
     7
440
 16777216
100
AcDbMText
 10
7080.519131898665
 20
3976.819094708672
 30
0.0
 40
5.0
 41
0.0
 46
0.0
 71
     5
 72
     1
  1
\A1;10mm
  7
GENERATED_STYLE_1
 11
0.0000000000000001
 21
1.0
 31
0.0
 73
     1
 44
1.0
  0
INSERT
  5
32F
330
153
100
AcDbEntity
  8
Specialized_Lines
  6
Continuous
 62
     7
440
 16777216
370
    -2
100
AcDbBlockReference
  2
ARROWHEAD_6
 10
7084.319131898666
 20
3970.622456708921
 30
0.0
 41
3.799999999999999
 42
3.799999999999999
 43
3.799999999999999
 50
270.0
  0
INSERT
  5
330
330
153
100
AcDbEntity
  8
Specialized_Lines
  6
Continuous
 62
     7
440
 16777216
370
    -2
100
AcDbBlockReference
  2
ARROWHEAD_6
 10
7084.319131898666
 20
3983.01573270842
 30
0.0
 41
3.799999999999999
 42
3.799999999999999
 43
3.799999999999999
 50
90.0
  0
POINT
  5
331
330
153
100
AcDbEntity
  8
Defpoints
  6
Continuous
 62
     0
440
 16777216
100
AcDbPoint
 10
7112.309626364147
 20
3970.622456708921
 30
0.0
  0
POINT
  5
332
330
153
100
AcDbEntity
  8
Defpoints
  6
Continuous
 62
     0
440
 16777216
100
AcDbPoint
 10
7111.801379509127
 20
3983.01573270842
 30
0.0
  0
POINT
  5
333
330
153
100
AcDbEntity
  8
Defpoints
  6
Continuous
 62
     0
440
 16777216
100
AcDbPoint
 10
7084.319131898666
 20
3983.01573270842
 30
0.0
  0
ENDBLK
  5
155
330
153
100
AcDbEntity
  8
0
100
AcDbBlockEnd
  0
BLOCK
  5
162
330
161
100
AcDbEntity
  8
0
100
AcDbBlockBegin
  2
ARROWHEAD_6
 70
     0
 10
0.0
 20
0.0
 30
0.0
  3
ARROWHEAD_6
  1

  0
LINE
  5
164
330
161
100
AcDbEntity
  8
0
  6
Continuous
 62
     0
370
     0
100
AcDbLine
 10
-0.5
 20
-0.5
 30
0.0
 11
0.5
 21
0.5
 31
0.0
  0
LINE
  5
165
330
161
100
AcDbEntity
  8
0
  6
Continuous
 62
     0
370
     0
100
AcDbLine
 10
0.0
 20
0.0
 30
0.0
 11
-1.0
 21
0.0
 31
0.0
  0
ENDBLK
  5
163
330
161
100
AcDbEntity
  8
0
100
AcDbBlockEnd
  0
BLOCK
  5
16C
330
16B
100
AcDbEntity
  8
0
100
AcDbBlockBegin
  2
ARROWHEAD_5
 70
     0
 10
0.0
 20
0.0
 30
0.0
  3
ARROWHEAD_5
  1

  0
SOLID
  5
16E
330
16B
100
AcDbEntity
  8
0
  6
Continuous
 62
     0
370
     0
100
AcDbTrace
 10
-1.0
 20
0.2679
 30
0.0
 11
0.0
 21
0.0
 31
0.0
 12
-1.0
 22
-0.2679
 32
0.0
 13
-1.0
 23
0.2679
 33
0.0
  0
LINE
  5
16F
330
16B
100
AcDbEntity
  8
0
  6
Continuous
 62
     0
370
     0
100
AcDbLine
 10
0.0
 20
0.0
 30
0.0
 11
-1.0
 21
0.0
 31
0.0
  0
ENDBLK
  5
16D
330
16B
100
AcDbEntity
  8
0
100
AcDbBlockEnd
  0
BLOCK
  5
183
330
182
100
AcDbEntity
  8
0
100
AcDbBlockBegin
  2
03A Window Sill__STORY_MARKER
 70
     0
 10
0.0
 20
0.0
 30
0.0
  3
03A Window Sill__STORY_MARKER
  1

  0
ENDBLK
  5
184
330
182
100
AcDbEntity
  8
0
100
AcDbBlockEnd
  0
BLOCK
  5
3F9
330
3F8
100
AcDbEntity
  8
0
100
AcDbBlockBegin
  2
_Oblique
 70
     0
 10
0.0
 20
0.0
 30
0.0
  3
_Oblique
  1

  0
LINE
  5
3FA
330
3F8
100
AcDbEntity
  8
0
  6
ByBlock
 62
     0
370
    -2
100
AcDbLine
 10
0.5
 20
0.5
 30
0.0
 11
-0.5
 21
-0.5
 31
0.0
  0
ENDBLK
  5
3FB
330
3F8
100
AcDbEntity
  8
0
100
AcDbBlockEnd
  0
ENDSEC
  0
SECTION
  2
ENTITIES
  0
HATCH
  5
3F
330
1F
100
AcDbEntity
  8
Specialized_Fills
  6
Continuous
 62
   254
420
 14671839
370
    13
100
AcDbHatch
 10
0.0
 20
0.0
 30
0.0
210
0.0
220
0.0
230
1.0
  2
SOLID
 70
     1
 71
     1
 91
        1
 92
        1
 93
        4
 72
     1
 10
7112.309626364147
 20
3925.622456708905
 11
7112.309626364147
 21
3970.622456708921
 72
     1
 10
7112.309626364147
 20
3970.622456708921
 11
7202.309626364123
 21
3970.622456708921
 72
     1
 10
7202.309626364123
 20
3970.622456708921
 11
7202.309626364123
 21
3925.622456708905
 72
     1
 10
7202.309626364123
 20
3925.622456708905
 11
7112.309626364147
 21
3925.622456708905
 97
        1
330
41
 75
     0
 76
     1
 98
        0
450
        0
451
        0
460
0.0
461
0.0
452
        1
462
0.0
453
        0
470

  0
LWPOLYLINE
  5
41
102
{ACAD_REACTORS
330
3F
102
}
330
1F
100
AcDbEntity
  8
Specialized_Fills
  6
Continuous
100
AcDbPolyline
 90
        4
 70
   129
 43
0.0
 10
7112.309626364147
 20
3925.622456708905
 10
7112.309626364147
 20
3970.622456708921
 10
7202.309626364123
 20
3970.622456708921
 10
7202.309626364123
 20
3925.622456708905
  0
HATCH
  5
42
330
1F
100
AcDbEntity
  8
Specialized_Fills
  6
Continuous
 62
   254
420
 14671839
370
    13
100
AcDbHatch
 10
0.0
 20
0.0
 30
0.0
210
0.0
220
0.0
230
1.0
  2
SOLID
 70
     1
 71
     1
 91
        1
 92
        1
 93
        4
 72
     1
 10
7112.309626364147
 20
3880.622456708889
 11
7112.309626364147
 21
3925.622456708905
 72
     1
 10
7112.309626364147
 20
3925.622456708905
 11
7202.309626364123
 21
3925.622456708905
 72
     1
 10
7202.309626364123
 20
3925.622456708905
 11
7202.309626364123
 21
3880.622456708889
 72
     1
 10
7202.309626364123
 20
3880.622456708889
 11
7112.309626364147
 21
3880.622456708889
 97
        1
330
43
 75
     0
 76
     1
 98
        0
450
        0
451
        0
460
0.0
461
0.0
452
        1
462
0.0
453
        0
470

  0
LWPOLYLINE
  5
43
102
{ACAD_REACTORS
330
42
102
}
330
1F
100
AcDbEntity
  8
Specialized_Fills
  6
Continuous
100
AcDbPolyline
 90
        4
 70
   129
 43
0.0
 10
7112.309626364147
 20
3880.622456708889
 10
7112.309626364147
 20
3925.622456708905
 10
7202.309626364123
 20
3925.622456708905
 10
7202.309626364123
 20
3880.622456708889
  0
HATCH
  5
44
330
1F
100
AcDbEntity
  8
Specialized_Fills
  6
Continuous
100
AcDbHatch
 10
0.0
 20
0.0
 30
0.0
210
0.0
220
0.0
230
1.0
  2
WOODFACE
 70
     0
 71
     1
 91
        1
 92
        1
 93
        8
 72
     1
 10
7095.646460688097
 20
4002.015732708425
 11
7177.373886009601
 21
4002.015732708425
 72
     1
 10
7177.373886009601
 20
4002.015732708425
 11
7177.373886009601
 21
3983.01573270842
 72
     1
 10
7177.373886009601
 20
3983.01573270842
 11
7111.801379509127
 21
3983.01573270842
 72
     1
 10
7111.801379509127
 20
3983.01573270842
 11
7111.801379509127
 21
3988.752177401036
 72
     1
 10
7111.801379509127
 20
3988.752177401036
 11
7100.801379509104
 21
3988.752177401036
 72
     1
 10
7100.801379509104
 20
3988.752177401036
 11
7100.801379509104
 21
3983.01573270842
 72
     1
 10
7100.801379509104
 20
3983.01573270842
 11
7095.646460688097
 21
3983.01573270842
 72
     1
 10
7095.646460688097
 20
3983.01573270842
 11
7095.646460688097
 21
4002.015732708425
 97
        1
330
45
 75
     0
 76
     2
 52
0.0
 41
1.0
 77
     0
 78
    38
 53
0.0
 43
0.7934227057739918
 44
30.85236244009593
 45
100.0
 46
100.0
 79
     2
 49
5.0
 49
-95.00000000000001
 53
90.0
 43
40.79342270577399
 44
65.85236244009593
 45
-100.0
 46
100.0
 79
     2
 49
10.0
 49
-90.00000000000001
 53
45.0
 43
20.79342270577399
 44
55.85236244009593
 45
0.0
 46
100.0000000019025
 79
     6
 49
7.070000000000001
 49
-21.21
 49
7.070000000000001
 49
-14.14
 49
49.5
 49
-42.43135622999999
 53
45.0
 43
-4.206577294226008
 44
25.85236244009593
 45
0.0
 46
100.0000000019025
 79
     4
 49
7.071
 49
-14.142
 49
7.071
 49
-113.1373562
 53
45.0
 43
30.793422705774
 44
35.85236244009593
 45
0.0
 46
100.0000000019025
 79
     2
 49
7.071
 49
-134.3503562
 53
45.0
 43
40.79342270577399
 44
30.85236244009593
 45
0.0
 46
100.0000000019025
 79
     2
 49
7.071
 49
-134.3503562
 53
45.0
 43
25.79342270577399
 44
40.85236244009593
 45
0.0
 46
100.0000000019025
 79
     2
 49
7.071
 49
-134.3503562
 53
45.0
 43
20.79342270577399
 44
45.85236244009593
 45
0.0
 46
100.0000000019025
 79
     2
 49
14.142
 49
-127.2793562
 53
45.0
 43
45.793422705774
 44
120.8523624400959
 45
0.0
 46
100.0000000019025
 79
     2
 49
14.142
 49
-127.2793562
 53
45.0
 43
10.79342270577399
 44
50.85236244009593
 45
0.0
 46
100.0000000019025
 79
     2
 49
28.284
 49
-113.1373562
 53
45.0
 43
5.793422705773991
 44
55.85236244009593
 45
0.0
 46
100.0000000019025
 79
     2
 49
28.284
 49
-113.1373562
 53
45.0
 43
70.793422705774
 44
85.85236244009593
 45
0.0
 46
100.0000000019025
 79
     2
 49
28.284
 49
-113.1373562
 53
45.0
 43
0.7934227057739918
 44
65.85236244009593
 45
0.0
 46
100.0000000019025
 79
     2
 49
21.2132
 49
-120.2081562
 53
45.0
 43
-19.20657729422601
 44
80.85236244009594
 45
0.0
 46
100.0000000019025
 79
     2
 49
21.2132
 49
-120.2081562
 53
45.0
 43
-9.206577294226008
 44
70.85236244009593
 45
0.0
 46
100.0000000019025
 79
     2
 49
21.2132
 49
-120.2081562
 53
45.0
 43
55.79342270577399
 44
100.8523624400959
 45
0.0
 46
100.0000000019025
 79
     2
 49
35.35534
 49
-106.0660162
 53
45.0
 43
45.793422705774
 44
105.8523624400959
 45
0.0
 46
100.0000000019025
 79
     2
 49
35.35534
 49
-106.0660162
 53
45.0
 43
55.79342270577399
 44
80.85236244009594
 45
0.0
 46
100.0000000019025
 79
     2
 49
49.49747460000001
 49
-91.92388150000001
 53
26.56505119999999
 43
10.79342270577399
 44
40.85236244009593
 45
100.0000000000093
 46
0.000000040006455
 79
     2
 49
11.180339
 49
-212.426458
 53
26.56505119999999
 43
30.793422705774
 44
70.85236244009593
 45
100.0000000000093
 46
0.000000040006455
 79
     2
 49
11.180339
 49
-212.426458
 53
26.56505119999999
 43
25.79342270577399
 44
60.85236244009593
 45
100.0000000000093
 46
0.000000040006455
 79
     2
 49
11.180339
 49
-212.426458
 53
26.56505119999999
 43
5.793422705773991
 44
30.85236244009593
 45
100.0000000000093
 46
0.000000040006455
 79
     2
 49
22.36067999999999
 49
-201.2461177
 53
26.56505119999999
 43
25.79342270577399
 44
75.85236244009593
 45
100.0000000000093
 46
0.000000040006455
 79
     2
 49
33.5410196
 49
-190.0657781
 53
26.56505119999999
 43
15.79342270577399
 44
80.85236244009594
 45
100.0000000000093
 46
0.000000040006455
 79
     2
 49
44.72135950000001
 49
-178.8854382
 53
26.56505119999999
 43
5.793422705773991
 44
85.85236244009593
 45
100.0000000000093
 46
0.000000040006455
 79
     2
 49
44.72135950000001
 49
-178.8854382
 53
26.56505119999999
 43
-9.206577294226008
 44
115.8523624400959
 45
100.0000000000093
 46
0.000000040006455
 79
     2
 49
44.72135950000001
 49
-178.8854382
 53
26.56505119999999
 43
-9.206577294226008
 44
105.8523624400959
 45
100.0000000000093
 46
0.000000040006455
 79
     2
 49
55.90169999999999
 49
-167.7050977
 53
26.56505119999999
 43
-4.206577294226008
 44
95.85236244009594
 45
100.0000000000093
 46
0.000000040006455
 79
     2
 49
55.90169999999999
 49
-167.7050977
 53
63.43494882000001
 43
30.793422705774
 44
55.85236244009593
 45
0.0000000050998636
 46
100.0000000000093
 79
     2
 49
11.18033899999999
 49
-212.4264579999998
 53
63.43494882000001
 43
15.79342270577399
 44
45.85236244009593
 45
0.0000000050998636
 46
100.0000000000093
 79
     2
 49
11.18033899999999
 49
-212.4264579999998
 53
63.43494882000001
 43
0.7934227057739918
 44
30.85236244009593
 45
0.0000000050998636
 46
100.0000000000093
 79
     2
 49
22.36067999999997
 49
-201.2461176999998
 53
63.43494882000001
 43
30.793422705774
 44
45.85236244009593
 45
0.0000000050998636
 46
100.0000000000093
 79
     2
 49
22.36067999999997
 49
-201.2461176999998
 53
63.43494882000001
 43
-9.206577294226008
 44
25.85236244009593
 45
0.0000000050998636
 46
100.0000000000093
 79
     2
 49
33.54101959999996
 49
-190.0657780999998
 53
63.43494882000001
 43
-19.20657729422601
 44
25.85236244009593
 45
0.0000000050998636
 46
100.0000000000093
 79
     2
 49
44.72135949999996
 49
-178.8854381999998
 53
63.43494882000001
 43
70.793422705774
 44
30.85236244009593
 45
0.0000000050998636
 46
100.0000000000093
 79
     2
 49
44.72135949999996
 49
-178.8854381999998
 53
63.43494882000001
 43
35.793422705774
 44
40.85236244009593
 45
0.0000000050998636
 46
100.0000000000093
 79
     2
 49
44.72135949999996
 49
-178.8854381999998
 53
63.43494882000001
 43
55.79342270577399
 44
30.85236244009593
 45
0.0000000050998636
 46
100.0000000000093
 79
     2
 49
55.90169999999995
 49
-167.7050976999998
 53
63.43494882000001
 43
45.793422705774
 44
35.85236244009593
 45
0.0000000050998636
 46
100.0000000000093
 79
     2
 49
55.90169999999995
 49
-167.7050976999998
 98
        0
  0
LWPOLYLINE
  5
45
102
{ACAD_REACTORS
330
44
102
}
330
1F
100
AcDbEntity
  8
Specialized_Fills
  6
Continuous
100
AcDbPolyline
 90
        8
 70
   129
 43
0.0
 10
7095.646460688097
 20
4002.015732708425
 10
7177.373886009601
 20
4002.015732708425
 10
7177.373886009601
 20
3983.01573270842
 10
7111.801379509127
 20
3983.01573270842
 10
7111.801379509127
 20
3988.752177401036
 10
7100.801379509104
 20
3988.752177401036
 10
7100.801379509104
 20
3983.01573270842
 10
7095.646460688097
 20
3983.01573270842
  0
HATCH
  5
46
330
1F
100
AcDbEntity
  8
Specialized_Fills
  6
Continuous
 62
   254
420
 14671839
370
    13
100
AcDbHatch
 10
0.0
 20
0.0
 30
0.0
210
0.0
220
0.0
230
1.0
  2
SOLID
 70
     1
 71
     1
 91
        1
 92
        1
 93
        4
 72
     1
 10
7111.309626364171
 20
3988.002177400997
 11
7101.309626364124
 21
3988.002177400997
 72
     1
 10
7101.309626364124
 20
3988.002177400997
 11
7101.309626364124
 21
3821.351261746394
 72
     1
 10
7101.309626364124
 20
3821.351261746394
 11
7111.309626364171
 21
3821.351261746394
 72
     1
 10
7111.309626364171
 20
3821.351261746394
 11
7111.309626364171
 21
3988.002177400997
 97
        1
330
47
 75
     0
 76
     1
 98
        0
450
        0
451
        0
460
0.0
461
0.0
452
        1
462
0.0
453
        0
470

  0
LWPOLYLINE
  5
47
102
{ACAD_REACTORS
330
46
102
}
330
1F
100
AcDbEntity
  8
Specialized_Fills
  6
Continuous
100
AcDbPolyline
 90
        4
 70
   129
 43
0.0
 10
7111.309626364171
 20
3988.002177400997
 10
7101.309626364124
 20
3988.002177400997
 10
7101.309626364124
 20
3821.351261746394
 10
7111.309626364171
 20
3821.351261746394
  0
HATCH
  5
48
330
1F
100
AcDbEntity
  8
Specialized_Fills
  6
Continuous
100
AcDbHatch
 10
0.0
 20
0.0
 30
0.0
210
0.0
220
0.0
230
1.0
  2
ANSI31
 70
     0
 71
     1
 91
        1
 92
        1
 93
        4
 72
     2
 10
7227.370501623335
 20
3960.606512842903
 40
2.249118503661312
 50
79.19176905966594
 51
259.1917690597114
 73
     1
 72
     1
 10
7226.948741467191
 20
3958.397292977384
 11
7228.189516034082
 21
3958.160417832797
 72
     2
 10
7228.612743112018
 20
3960.377321574361
 40
2.256941150952054
 50
259.1917690596865
 51
439.1917690596865
 73
     1
 72
     1
 10
7229.035970189953
 20
3962.594225315926
 11
7227.79226177948
 21
3962.815732708421
 97
        1
330
49
 75
     0
 76
     2
 52
0.0
 41
1.0
 77
     0
 78
     1
 53
45.0
 43
0.7934227057739918
 44
30.85236244009593
 45
-0.4419417382415923
 46
0.4419417382415923
 79
     0
 98
        0
  0
LWPOLYLINE
  5
49
102
{ACAD_REACTORS
330
48
102
}
330
1F
100
AcDbEntity
  8
Specialized_Fills
  6
Continuous
100
AcDbPolyline
 90
        4
 70
   129
 43
0.0
 10
7227.79226177948
 20
3962.815732708421
 42
1.000000000000212
 10
7226.948741467191
 20
3958.397292977384
 10
7228.189516034082
 20
3958.160417832797
 42
0.9999999999999817
 10
7229.035970189953
 20
3962.594225315926
  0
HATCH
  5
121
330
1F
100
AcDbEntity
  8
Specialized_Fills
  6
Continuous
 62
    30
420
 16742400
370
    20
100
AcDbHatch
 10
0.0
 20
0.0
 30
0.0
210
0.0
220
0.0
230
1.0
  2
SOLID
 70
     1
 71
     1
 91
        1
 92
        1
 93
       18
 72
     1
 10
7239.723103327547
 20
3932.847364342833
 11
7224.518749274372
 21
3932.847364342833
 72
     1
 10
7224.518749274372
 20
3932.847364342833
 11
7224.518749274372
 21
3952.036312576065
 72
     1
 10
7224.518749274372
 20
3952.036312576065
 11
7273.518749274373
 21
3932.239027510142
 72
     1
 10
7273.518749274373
 20
3932.239027510142
 11
7273.518749274373
 21
3911.847364342833
 72
     1
 10
7273.518749274373
 20
3911.847364342833
 11
7274.518749274372
 21
3911.847364342833
 72
     1
 10
7274.518749274372
 20
3911.847364342833
 11
7274.518749274372
 21
3932.847364342833
 72
     1
 10
7274.518749274372
 20
3932.847364342833
 11
7224.518749274372
 21
3953.104094590843
 72
     1
 10
7224.518749274372
 20
3953.104094590843
 11
7224.518749274372
 21
3958.395461151317
 72
     1
 10
7224.518749274372
 20
3958.395461151317
 11
7231.474244338272
 21
3955.585258731833
 72
     1
 10
7231.474244338272
 20
3955.585258731833
 11
7231.821573523503
 21
3956.444928632004
 72
     1
 10
7231.821573523503
 20
3956.444928632004
 11
7224.518749274372
 21
3959.395461151316
 72
     1
 10
7224.518749274372
 20
3959.395461151316
 11
7224.518749274372
 21
3971.172422738174
 72
     1
 10
7224.518749274372
 20
3971.172422738174
 11
7228.808339082213
 21
3968.86053573224
 72
     1
 10
7228.808339082213
 20
3968.86053573224
 11
7230.163064679477
 21
3969.266391071144
 72
     1
 10
7230.163064679477
 20
3969.266391071144
 11
7223.518749274373
 21
3972.847364342834
 72
     1
 10
7223.518749274373
 20
3972.847364342834
 11
7223.518749274373
 21
3931.847364342833
 72
     1
 10
7223.518749274373
 20
3931.847364342833
 11
7239.723103327547
 21
3931.847364342833
 72
     1
 10
7239.723103327547
 20
3931.847364342833
 11
7239.723103327547
 21
3932.847364342833
 97
        1
330
122
 75
     0
 76
     1
 98
        0
450
        0
451
        0
460
0.0
461
0.0
452
        1
462
0.0
453
        0
470

  0
LWPOLYLINE
  5
122
102
{ACAD_REACTORS
330
121
330
206
102
}
330
1F
100
AcDbEntity
  8
Specialized_Fills
  6
Continuous
100
AcDbPolyline
 90
       18
 70
   129
 43
0.0
 10
7239.723103327547
 20
3932.847364342833
 10
7224.518749274372
 20
3932.847364342833
 10
7224.518749274372
 20
3952.036312576065
 10
7273.518749274373
 20
3932.239027510142
 10
7273.518749274373
 20
3911.847364342833
 10
7274.518749274372
 20
3911.847364342833
 10
7274.518749274372
 20
3932.847364342833
 10
7224.518749274372
 20
3953.104094590843
 10
7224.518749274372
 20
3958.395461151317
 10
7231.474244338272
 20
3955.585258731833
 10
7231.821573523503
 20
3956.444928632004
 10
7224.518749274372
 20
3959.395461151316
 10
7224.518749274372
 20
3971.172422738174
 10
7228.808339082213
 20
3968.86053573224
 10
7230.163064679477
 20
3969.266391071144
 10
7223.518749274373
 20
3972.847364342834
 10
7223.518749274373
 20
3931.847364342833
 91
        5
 10
7239.723103327547
 20
3931.847364342833
 91
        6
  0
LINE
  5
123
330
1F
100
AcDbEntity
  8
Specialized_Lines
  6
Continuous
 62
   251
420
  6250335
370
    13
100
AcDbLine
 10
7278.130544732867
 20
4124.067259920058
 30
0.0
 11
7278.130544732867
 21
3926.812750086332
 31
0.0
  0
LINE
  5
125
330
1F
100
AcDbEntity
  8
Specialized_Lines
  6
Continuous
100
AcDbLine
 10
7223.518749274373
 20
3821.351261746394
 30
0.0
 11
7263.518749274393
 21
3821.351261746394
 31
0.0
  0
LINE
  5
126
330
1F
100
AcDbEntity
  8
Specialized_Lines
  6
Continuous
100
AcDbLine
 10
7112.309626364147
 20
3821.351261746394
 30
0.0
 11
7112.309626364147
 21
3970.622456708921
 31
0.0
  0
LINE
  5
127
330
1F
100
AcDbEntity
  8
Specialized_Lines
  6
Continuous
100
AcDbLine
 10
7111.309626364171
 20
3821.351261746394
 30
0.0
 11
7111.309626364171
 21
3988.002177400997
 31
0.0
  0
LINE
  5
128
330
1F
100
AcDbEntity
  8
Specialized_Lines
  6
Continuous
100
AcDbLine
 10
7101.309626364124
 20
3821.351261746394
 30
0.0
 11
7101.309626364124
 21
3988.002177400997
 31
0.0
  0
LINE
  5
129
330
1F
100
AcDbEntity
  8
Specialized_Lines
  6
Continuous
100
AcDbLine
 10
7202.309626364123
 20
3821.351261746393
 30
0.0
 11
7202.309626364123
 21
3958.564742949503
 31
0.0
  0
LINE
  5
12A
330
1F
100
AcDbEntity
  8
Specialized_Lines
  6
Continuous
100
AcDbLine
 10
7101.309626364124
 20
3988.002177400997
 30
0.0
 11
7111.309626364171
 21
3988.002177400997
 31
0.0
  0
LINE
  5
12B
330
1F
100
AcDbEntity
  8
Specialized_Lines
  6
Continuous
100
AcDbLine
 10
7202.309626364123
 20
3970.622456708921
 30
0.0
 11
7112.309626364147
 21
3925.622456808893
 31
0.0
  0
LINE
  5
12C
330
1F
100
AcDbEntity
  8
Specialized_Lines
  6
Continuous
100
AcDbLine
 10
7146.914230385785
 20
3982.191964072481
 30
0.0
 11
7120.824615910063
 21
3971.553334798299
 31
0.0
  0
LINE
  5
12D
330
1F
100
AcDbEntity
  8
Specialized_Lines
  6
Continuous
100
AcDbLine
 10
7120.824615910063
 20
3982.191964072481
 30
0.0
 11
7146.914230385785
 21
3971.553334798299
 31
0.0
  0
LINE
  5
12E
330
1F
100
AcDbEntity
  8
Specialized_Lines
  6
Continuous
100
AcDbLine
 10
7112.309626364147
 20
3970.622456708921
 30
0.0
 11
7202.309626364123
 21
3925.622456708905
 31
0.0
  0
LINE
  5
12F
330
1F
100
AcDbEntity
  8
Specialized_Lines
  6
Continuous
100
AcDbLine
 10
7100.801379509104
 20
3984.578953273424
 30
0.0
 11
7095.646460688097
 21
3983.01573270842
 31
0.0
  0
LINE
  5
130
330
1F
100
AcDbEntity
  8
Specialized_Lines
  6
Continuous
100
AcDbLine
 10
7202.309626364123
 20
3925.622456708905
 30
0.0
 11
7112.309626364147
 21
3880.622456708889
 31
0.0
  0
LINE
  5
131
330
1F
100
AcDbEntity
  8
Specialized_Lines
  6
Continuous
 62
   251
420
  6250335
370
    13
100
AcDbLine
 10
7227.643901600021
 20
4124.067259920058
 30
0.0
 11
7227.643901600021
 21
4018.715732708424
 31
0.0
  0
LINE
  5
132
330
1F
100
AcDbEntity
  8
Specialized_Lines
  6
Continuous
 62
   251
420
  6250335
370
    13
100
AcDbLine
 10
7193.04390160002
 20
4124.067259920058
 30
0.0
 11
7193.04390160002
 21
4018.01573270842
 31
0.0
  0
LINE
  5
133
330
1F
100
AcDbEntity
  8
Specialized_Lines
  6
Continuous
 62
   251
420
  6250335
370
    13
100
AcDbLine
 10
7173.043901600021
 20
4124.067259920058
 30
0.0
 11
7173.043901600021
 21
4002.215732708419
 31
0.0
  0
LINE
  5
134
330
1F
100
AcDbEntity
  8
Specialized_Lines
  6
Continuous
 62
   251
420
  6250335
370
    13
100
AcDbLine
 10
7095.646460688097
 20
4124.067259920058
 30
0.0
 11
7095.646460688097
 21
4002.015732708425
 31
0.0
  0
LWPOLYLINE
  5
13D
330
1F
100
AcDbEntity
  8
Specialized_Lines
  6
Continuous
100
AcDbPolyline
 90
        5
 70
   129
 43
0.0
 10
7222.264470429339
 20
3821.351261746394
 10
7222.264470429339
 20
3903.044323722506
 10
7204.764470429354
 20
3903.044323722506
 10
7204.764470429354
 20
3821.351261746394
 10
7222.264470429339
 20
3821.351261746394
  0
LWPOLYLINE
  5
13F
330
1F
100
AcDbEntity
  8
Specialized_Lines
  6
DASHEDX2
100
AcDbPolyline
 90
        5
 70
   128
 43
0.0
 10
7203.430858668864
 20
3821.351261746394
 10
7202.829471646497
 20
3928.181313372446
 10
7202.87697947832
 20
3930.310081067799
 10
7202.775332352896
 20
3971.253958468393
 10
7157.550287644365
 20
3971.253958468393
  0
LWPOLYLINE
  5
140
330
1F
100
AcDbEntity
  8
Specialized_Lines
  6
Continuous
100
AcDbPolyline
 90
       55
 70
   129
 43
0.0
 10
7112.679711622316
 20
3982.199646805295
 10
7112.926015007641
 20
3982.337203235683
 10
7113.18587089266
 20
3982.44886257967
 10
7113.45645045122
 20
3982.533979239999
 10
7113.734986486176
 20
3982.592079352425
 10
7114.30832587251
 20
3982.630193900572
 10
7114.893184175227
 20
3982.570604066691
 10
7115.479405176809
 20
3982.420836887368
 10
7116.061701107807
 20
3982.188161154763
 10
7116.634231943291
 20
3981.879771880725
 10
7117.191732970352
 20
3981.501743191612
 10
7117.728587889526
 20
3981.06060834206
 10
7118.239052345413
 20
3980.563108251627
 10
7118.717381982603
 20
3980.015983839931
 10
7119.158018558548
 20
3979.42515141838
 10
7119.557597175114
 20
3978.790735490432
 10
7119.913833486801
 20
3978.110530428379
 10
7120.224445435153
 20
3977.382327291221
 10
7120.48507840387
 20
3976.612436636597
 10
7120.676733290108
 20
3975.869374242021
 10
7120.794762505508
 20
3975.166273938467
 10
7120.838468630662
 20
3974.500362240602
 10
7120.807154246105
 20
3973.868865663033
 10
7120.700871645279
 20
3973.277862931153
 10
7120.524301120778
 20
3972.779348563475
 10
7120.279127891305
 20
3972.414479381738
 10
7119.937130597347
 20
3972.043986560235
 10
7119.506224943446
 20
3971.694761420989
 10
7119.00726646041
 20
3971.431723923584
 10
7118.463005267583
 20
3971.274026097459
 10
7117.891740548596
 20
3971.222153798149
 10
7117.307819487844
 20
3971.269271998918
 10
7116.721212225623
 20
3971.392757294351
 10
7116.138041808423
 20
3971.491734355905
 10
7115.563972821061
 20
3971.594262456304
 10
7115.004234288446
 20
3971.854501002295
 10
7114.464415977292
 20
3972.241076375522
 10
7113.950111508526
 20
3972.720872688709
 10
7113.466996678082
 20
3973.262239998715
 10
7113.019831634116
 20
3973.852069346802
 10
7112.611827756833
 20
3974.489962270892
 10
7112.246122922326
 20
3975.175768204875
 10
7111.927283288193
 20
3975.903787825158
 10
7111.67101161612
 20
3976.622990965805
 10
7111.482068715756
 20
3977.320989611795
 10
7111.361950421549
 20
3977.997703592306
 10
7111.312140931712
 20
3978.653091447282
 10
7111.332005116421
 20
3979.295142479114
 10
7111.41670840362
 20
3979.948733870427
 10
7111.560963284088
 20
3980.640779546857
 10
7111.792028838974
 20
3981.271881121669
 10
7111.949949841457
 20
3981.522855408881
 10
7112.131821683473
 20
3981.743244925693
 10
7112.334362976977
 20
3981.940966084632
 10
7112.555360160907
 20
3982.116315838791
  0
LWPOLYLINE
  5
141
330
1F
100
AcDbEntity
  8
Specialized_Lines
  6
Continuous
100
AcDbPolyline
 90
        4
 70
   129
 43
0.0
 10
7120.824615910063
 20
3982.191964072481
 10
7146.914230385785
 20
3982.191964072481
 10
7146.914230385785
 20
3971.553334798299
 10
7120.824615910063
 20
3971.553334798299
  0
LWPOLYLINE
  5
142
330
1F
100
AcDbEntity
  8
Specialized_Lines
  6
Continuous
100
AcDbPolyline
 90
        5
 70
   128
 43
0.0
 10
7112.309626364147
 20
3970.622456708921
 10
7112.309626364147
 20
3925.622456708905
 10
7202.309626364123
 20
3925.622456708905
 10
7202.309626364123
 20
3970.622456708921
 10
7157.309626364164
 20
3970.622456708921
  0
LWPOLYLINE
  5
143
330
1F
100
AcDbEntity
  8
Specialized_Lines
  6
Continuous
100
AcDbPolyline
 90
        8
 70
   129
 43
0.0
 10
7095.646460688097
 20
4002.015732708425
 10
7177.373886009601
 20
4002.015732708425
 10
7177.373886009601
 20
3983.01573270842
 10
7111.801379509127
 20
3983.01573270842
 10
7111.801379509127
 20
3988.752177401036
 10
7100.801379509104
 20
3988.752177401036
 10
7100.801379509104
 20
3983.01573270842
 10
7095.646460688097
 20
3983.01573270842
  0
LWPOLYLINE
  5
144
330
1F
100
AcDbEntity
  8
Specialized_Lines
  6
Continuous
100
AcDbPolyline
 90
        4
 70
   129
 43
0.0
 10
7112.309626364147
 20
3925.622456608918
 10
7202.309626364123
 20
3925.622456608918
 10
7202.309626364123
 20
3880.622456608902
 10
7112.309626364147
 20
3880.622456608902
  0
LWPOLYLINE
  5
145
330
1F
100
AcDbEntity
  8
Specialized_Lines
  6
Continuous
100
AcDbPolyline
 90
        2
 70
   128
 43
0.0
 10
7112.309626364147
 20
3970.622456708921
 10
7157.309626364164
 20
3970.622456708921
  0
LWPOLYLINE
  5
146
330
1F
100
AcDbEntity
  8
Specialized_Lines
  6
DASHEDX2
100
AcDbPolyline
 90
        3
 70
   128
 43
0.0
 10
7157.550287644365
 20
3971.253958468393
 10
7111.747425923224
 20
3971.253958468393
 10
7111.747425923224
 20
3930.310081067799
  0
LWPOLYLINE
  5
148
330
1F
100
AcDbEntity
  8
Specialized_Fills
  6
DASHEDX2
 62
   253
420
 10461087
370
    20
100
AcDbPolyline
 90
        6
 70
   128
 43
0.0
 10
7202.309626364123
 20
3880.622456608902
 42
-0.6180339902741404
 10
7166.309625962023
 20
3862.622456507273
 10
7148.309626021628
 20
3876.122456586667
 42
2.000000011029643
 10
7148.309626021628
 20
3840.122456586667
 10
7166.309626000208
 20
3853.622456615305
 42
-0.8865639140183269
 10
7197.204539043372
 20
3821.351261746394
  0
LWPOLYLINE
  5
14E
330
1F
100
AcDbEntity
  8
Specialized_Lines
  6
DASHEDX2
100
AcDbPolyline
 90
        3
 70
   128
 43
0.0
 10
7276.027425399766
 20
3821.327776865713
 10
7276.195919399076
 20
3934.315387781632
 10
7225.675253594288
 20
3955.263976251007
  0
LWPOLYLINE
  5
14F
330
1F
100
AcDbEntity
  8
Specialized_Fills
  6
DASHEDX2
 62
   253
420
 10461087
370
    20
100
AcDbPolyline
 90
        3
 70
   128
 43
0.0
 10
7161.337885697434
 20
3821.351261746394
 10
7148.309626021628
 20
3831.12245659307
 42
0.4954133185151638
 10
7113.868356377793
 20
3821.351261746394
  0
LWPOLYLINE
  5
151
330
1F
100
AcDbEntity
  8
0
  6
Continuous
100
AcDbPolyline
 90
        6
 70
   128
 43
0.0
 10
7289.489507895216
 20
3821.351261746394
 10
7166.567968711301
 20
3821.351261746394
 10
7164.567968711302
 20
3826.846216585302
 10
7160.567968711301
 20
3815.856306907485
 10
7158.567968711301
 20
3821.351261746394
 10
7080.74103406594
 20
3821.351261746394
  0
LWPOLYLINE
  5
152
330
1F
100
AcDbEntity
  8
0
  6
Continuous
100
AcDbPolyline
 90
        6
 70
   128
 43
0.0
 10
7289.489507895216
 20
4124.067259920058
 10
7166.567968711301
 20
4124.067259920058
 10
7164.567968711302
 20
4129.562214758967
 10
7160.567968711301
 20
4118.57230508115
 10
7158.567968711301
 20
4124.067259920058
 10
7080.74103406594
 20
4124.067259920058
  0
DIMENSION
  5
15F
330
1F
100
AcDbEntity
  8
Specialized_Lines
  6
Continuous
100
AcDbDimension
280
     0
  2
*D3
 10
7084.319131898666
 20
3983.01573270842
 30
0.0
 11
7080.519131898665
 21
3976.819094708672
 31
0.0
 70
    32
  1
10mm
 71
     5
 42
12.39327599949956
 73
     0
 74
     0
 75
     0
  3
GENERATED_STYLE__1
100
AcDbAlignedDimension
 13
7112.309626364147
 23
3970.622456708921
 33
0.0
 14
7111.801379509127
 24
3983.01573270842
 34
0.0
 50
90.0
100
AcDbRotatedDimension
  0
MTEXT
  5
167
102
{ACAD_REACTORS
330
169
102
}
330
1F
100
AcDbEntity
  8
Specialized_Text
  6
Continuous
100
AcDbMText
 10
7308.270091333874
 20
4077.71114097984
 30
0.0
 40
5.5
 41
117.7250038991815
 46
0.0
 71
     4
 72
     1
  1
{Protecto Sill System (or similar) by builder continuous along sill.  Extend flashing tape 100mm up jamb and 50mm onto face of building wrap.}
  7
GENERATED_STYLE_2
 73
     1
 44
1.124885208671499
  0
LEADER
  5
169
330
1F
100
AcDbEntity
  8
Specialized_Text
  6
Continuous
 62
   251
420
  6250335
370
    13
100
AcDbLeader
  3
GENERATED_STYLE__2
 73
     0
 40
48.67554210916257
 41
116.7568212824011
 76
     3
 10
7163.216087855261
 20
3971.253958468393
 30
0.0
 10
7163.264530387649
 20
4078.047947705139
 30
0.0
 10
7307.914345995889
 20
4078.454673752898
 30
0.0
340
167
213
-0.2657453379833896
223
0.7435327730581776
233
0.0
  0
MTEXT
  5
170
102
{ACAD_REACTORS
330
171
102
}
330
1F
100
AcDbEntity
  8
Specialized_Text
  6
Continuous
100
AcDbMText
 10
7308.59138707458
 20
3922.057647788201
 30
0.0
 40
5.5
 41
117.7250038991815
 46
0.0
 71
     4
 72
     1
  1
{all windows must be nogged under sill trimmer for fixing}
  7
GENERATED_STYLE_2
 73
     1
 44
1.127163067532597
  0
LEADER
  5
171
330
1F
100
AcDbEntity
  8
Specialized_Text
  6
Continuous
 62
   251
420
  6250335
370
    13
100
AcDbLeader
  3
GENERATED_STYLE__2
 73
     0
 40
17.53935403992193
 41
95.69474761255115
 76
     2
 10
7157.309626364135
 20
3903.122456708897
 30
0.0
 10
7308.50138707458
 20
3922.057647788201
 30
0.0
340
170
  0
MTEXT
  5
172
102
{ACAD_REACTORS
330
173
102
}
330
1F
100
AcDbEntity
  8
Specialized_Text
  6
Continuous
100
AcDbMText
 10
7308.660960647135
 20
3958.452765560938
 30
0.0
 40
5.5
 41
117.7250038991815
 46
0.0
 71
     4
 72
     1
  1
{CAVITECLAD proprietary sill section fixed to EPS with adhesive prior to plastering }
  7
GENERATED_STYLE_2
 73
     1
 44
1.127312891095029
  0
LEADER
  5
173
330
1F
100
AcDbEntity
  8
Specialized_Text
  6
Continuous
 62
   251
420
  6250335
370
    13
100
AcDbLeader
  3
GENERATED_STYLE__2
 73
     0
 74
     0
 75
     1
 40
27.99210357984212
 41
116.9143929058663
 76
     3
 10
7274.518749274372
 20
3925.078260847739
 30
0.0
 10
7301.274960647136
 20
3958.452765560938
 30
0.0
 10
7308.570960647135
 20
3958.452765560938
 30
0.0
340
172
  0
MTEXT
  5
174
102
{ACAD_REACTORS
330
175
102
}
330
1F
100
AcDbEntity
  8
Specialized_Text
  6
Continuous
100
AcDbMText
 10
7308.774266320863
 20
4111.88154315393
 30
0.0
 40
5.5
 41
117.7250038991815
 46
0.0
 71
     4
 72
     1
  1
{air seal to be installed by builder}
  7
GENERATED_STYLE_2
 73
     1
 44
1.0
  0
LEADER
  5
175
330
1F
100
AcDbEntity
  8
Specialized_Text
  6
Continuous
 62
   251
420
  6250335
370
    13
100
AcDbLeader
  3
GENERATED_STYLE__2
 73
     0
 40
7.113233287858117
 41
109.5760572987722
 76
     3
 10
7114.30832587251
 20
3977.891903983564
 30
0.0
 10
7114.30832587251
 20
4111.88154315393
 30
0.0
 10
7308.684266320863
 20
4111.88154315393
 30
0.0
340
174
  0
MTEXT
  5
176
102
{ACAD_REACTORS
330
177
102
}
330
1F
100
AcDbEntity
  8
Specialized_Text
  6
Continuous
100
AcDbMText
 10
7308.551259441589
 20
3895.843896086955
 30
0.0
 40
5.5
 41
117.7250038991815
 46
0.0
 71
     4
 72
     1
  1
{vertical 45mm x 20mm ventilated EPS batten }
  7
GENERATED_STYLE_2
 73
     1
 44
1.0
  0
LEADER
  5
177
330
1F
100
AcDbEntity
  8
Specialized_Text
  6
Continuous
 62
   251
420
  6250335
370
    13
100
AcDbLeader
  3
GENERATED_STYLE__2
 73
     0
 40
14.88051386994088
 41
111.6620054570259
 76
     2
 10
7211.884516064954
 20
3895.86929039539
 30
0.0
 10
7308.461259441589
 20
3895.843896086955
 30
0.0
340
176
  0
MTEXT
  5
178
102
{ACAD_REACTORS
330
179
102
}
330
1F
100
AcDbEntity
  8
Specialized_Text
  6
Continuous
100
AcDbMText
 10
7308.527614913892
 20
3826.104268037799
 30
0.0
 40
5.5
 41
117.7250038991815
 46
0.0
 71
     4
 72
     1
  1
{approved proprietary breather type building wrap must be continuous around framing by builder}
  7
GENERATED_STYLE_2
 73
     1
 44
1.127302725799687
  0
LEADER
  5
179
330
1F
100
AcDbEntity
  8
Specialized_Text
  6
Continuous
 62
   251
420
  6250335
370
    13
100
AcDbLeader
  3
GENERATED_STYLE__2
 73
     0
 40
36.70035028336416
 41
101.4611186903138
 76
     2
 10
7203.871489453383
 20
3837.928265437387
 30
0.0
 10
7308.437614913891
 20
3826.104268037799
 30
0.0
340
178
  0
MTEXT
  5
17A
102
{ACAD_REACTORS
330
17B
102
}
330
1F
100
AcDbEntity
  8
Specialized_Text
  6
Continuous
100
AcDbMText
 10
7308.809351117135
 20
3792.101183375312
 30
0.0
 40
5.5
 41
109.6086589180878
 46
0.0
 71
     4
 72
     1
  1
{cavity insulation minimum R=0.9}
  7
GENERATED_STYLE_2
 73
     1
 44
1.0
  0
LEADER
  5
17B
330
1F
100
AcDbEntity
  8
Specialized_Text
  6
Continuous
 62
   251
420
  6250335
370
    13
100
AcDbLeader
  3
GENERATED_STYLE__2
 73
     0
 40
7.139495225102319
 41
109.756139154161
 76
     3
 10
7142.374432709482
 20
3836.932277228098
 30
0.0
 10
7142.331267987444
 20
3792.321964142976
 30
0.0
 10
7308.719351117135
 20
3792.101183375312
 30
0.0
340
17A
  0
MTEXT
  5
17C
102
{ACAD_REACTORS
330
17D
102
}
330
1F
100
AcDbEntity
  8
Specialized_Text
  6
Continuous
100
AcDbMText
 10
7308.59138707458
 20
3997.824528607442
 30
0.0
 40
5.5
 41
117.7250038991815
 46
0.0
 71
     4
 72
     1
  1
{5mm bead of gap filling sealant before plastering}
  7
GENERATED_STYLE_2
 73
     1
 44
1.138919892255507
  0
LEADER
  5
17D
330
1F
100
AcDbEntity
  8
Specialized_Text
  6
Continuous
 62
   251
420
  6250335
370
    13
100
AcDbLeader
  3
GENERATED_STYLE__2
 73
     0
 74
     0
 75
     1
 40
17.75394722870309
 41
105.9631650750341
 76
     3
 10
7230.809864613693
 20
3959.861142859436
 30
0.0
 10
7301.20538707458
 20
3997.824528607442
 30
0.0
 10
7308.50138707458
 20
3997.824528607442
 30
0.0
340
17C
  0
MTEXT
  5
17E
102
{ACAD_REACTORS
330
17F
102
}
330
1F
100
AcDbEntity
  8
Specialized_Text
  6
Continuous
100
AcDbMText
 10
7308.59138707458
 20
3867.766040189918
 30
0.0
 40
5.5
 41
122.6368695259981
 46
9.513842776204029
 71
     4
 72
     1
  1
50mm EPS OR {\C30;\c30975;75mm Neopor® EPS}
  7
GENERATED_STYLE_2
 73
     1
 44
1.127211339394292
  0
LEADER
  5
17F
330
1F
100
AcDbEntity
  8
Specialized_Text
  6
Continuous
 62
   251
420
  6250335
370
    13
100
AcDbLeader
  3
GENERATED_STYLE__2
 73
     0
 40
16.12607999663052
 41
108.6718963165075
 76
     2
 10
7249.917610595578
 20
3867.763489853976
 30
0.0
 10
7308.50138707458
 20
3867.766040189918
 30
0.0
340
17E
  0
MTEXT
  5
181
330
1F
100
AcDbEntity
  8
Specialized_Text
  6
Continuous
 62
    30
420
 16742400
370
    20
100
AcDbMText
 10
7306.853006421741
 20
3724.08418228645
 30
0.0
 40
5.5
 41
122.7577743502577
 46
0.0
 71
     7
 72
     1
  1
{note: a 5° sloped sill trimmer must be used if the back of the glazing pocket is positioned back past the line of wall frame}
  7
GENERATED_STYLE_3
 73
     1
 44
1.218214910826977
  0
LINE
  5
1EC
330
1F
100
AcDbEntity
  8
Viewport
 62
     7
420
 16777215
100
AcDbLine
 10
7437.248407247048
 20
4191.476185870958
 30
0.0
 11
7437.248407247048
 21
3651.426570232162
 31
0.0
  0
LINE
  5
1ED
330
1F
100
AcDbEntity
  8
Viewport
 62
     7
420
 16777215
100
AcDbLine
 10
7437.248407247048
 20
3651.426570232162
 30
0.0
 11
7064.106680161065
 21
3651.426570232162
 31
0.0
  0
MTEXT
  5
1F0
330
1F
100
AcDbEntity
  8
Specialized_Lines
 62
    30
420
 16742400
100
AcDbMText
 10
7142.403044951542
 20
3692.759436366746
 30
0.0
 40
7.0
 41
63.23088711380842
 46
0.0
 71
     1
 72
     5
  1
CAVITECLAD
  7
GENERATED_STYLE_2
 73
     1
 44
1.0
1001
ACAD
1000
ACAD_MTEXT_COLUMN_INFO_BEGIN
1070
    75
1070
     2
1070
    79
1070
     0
1070
    76
1070
     1
1070
    78
1070
     0
1070
    48
1040
63.23088711380842
1070
    49
1040
12.5
1070
    50
1070
     1
1040
0.0
1000
ACAD_MTEXT_COLUMN_INFO_END
  0
LINE
  5
1F1
330
1F
100
AcDbEntity
  8
Viewport
 62
     7
420
 16777215
100
AcDbLine
 10
7064.106680161065
 20
3651.426570232162
 30
0.0
 11
7064.106680161065
 21
4191.476185870958
 31
0.0
  0
LINE
  5
1F2
330
1F
100
AcDbEntity
  8
Viewport
 62
     7
420
 16777215
100
AcDbLine
 10
7437.248407247048
 20
4191.476185870958
 30
0.0
 11
7064.106680161065
 21
4191.476185870958
 31
0.0
  0
MTEXT
  5
1F3
330
1F
100
AcDbEntity
  8
Specialized_Lines
100
AcDbMText
 10
7140.936079965992
 20
3708.354723345916
 30
0.0
 40
10.0
 41
128.1613599394622
 46
0.0
 71
     1
 72
     5
  1
{\fArial|b1|i0|c0|p34;Window Sill:}
 73
     1
 44
1.0
1001
ACAD
1000
ACAD_MTEXT_COLUMN_INFO_BEGIN
1070
    75
1070
     2
1070
    79
1070
     0
1070
    76
1070
     1
1070
    78
1070
     0
1070
    48
1040
128.1613599394622
1070
    49
1040
12.5
1070
    50
1070
     1
1040
0.0
1000
ACAD_MTEXT_COLUMN_INFO_END
  0
MTEXT
  5
1F4
330
1F
100
AcDbEntity
  8
Specialized_Lines
 62
    30
420
 16742400
100
AcDbMText
 10
7112.151224484624
 20
3688.811751826262
 30
0.0
 40
4.0
 41
34.37092666967328
 46
0.0
 71
     5
 72
     5
  1
SCALE: 1:2
  7
GENERATED_STYLE_2
 73
     1
 44
1.0
1001
ACAD
1000
ACAD_MTEXT_COLUMN_INFO_BEGIN
1070
    75
1070
     2
1070
    79
1070
     0
1070
    76
1070
     1
1070
    78
1070
     0
1070
    48
1040
34.37092666967328
1070
    49
1040
12.5
1070
    50
1070
     1
1040
0.0
1000
ACAD_MTEXT_COLUMN_INFO_END
  0
HATCH
  5
1F5
330
1F
100
AcDbEntity
  8
0
 62
    30
420
 16742400
370
     5
100
AcDbHatch
 10
0.0
 20
0.0
 30
0.0
210
0.0
220
0.0
230
1.0
  2
SOLID
 70
     1
 71
     0
 91
        1
 92
        1
 93
        4
 72
     1
 10
7135.305209866141
 20
3693.834711326653
 11
7135.305209866141
 21
3713.834711326653
 72
     1
 10
7135.305209866141
 20
3713.834711326653
 11
7090.305209866141
 21
3713.834711326653
 72
     1
 10
7090.305209866141
 20
3713.834711326653
 11
7090.305209866141
 21
3693.834711326653
 72
     1
 10
7090.305209866141
 20
3693.834711326653
 11
7135.305209866141
 21
3693.834711326653
 97
        0
 75
     1
 76
     1
 98
        1
 10
7120.720383055669
 20
3699.968391829777
450
        0
451
        0
460
0.0
461
0.0
452
        0
462
1.0
453
        2
463
0.0
 63
     5
421
      255
463
1.0
 63
     2
421
 16776960
470
LINEAR
1001
GradientColor1ACI
1070
     5
1001
GradientColor2ACI
1070
     2
1001
ACAD
1010
0.0
1020
0.0
1030
0.0
  0
LWPOLYLINE
  5
1F6
330
1F
100
AcDbEntity
  8
0
370
     5
100
AcDbPolyline
 90
        5
 70
     0
 43
0.0
 10
7090.305209866141
 20
3713.834711326653
 10
7090.305209866141
 20
3693.834711326653
 10
7135.305209866141
 20
3693.834711326653
 10
7135.305209866141
 20
3713.834711326653
 10
7090.305209866141
 20
3713.834711326653
  0
MTEXT
  5
1F7
330
1F
100
AcDbEntity
  8
Specialized_Lines
100
AcDbMText
 10
7113.010024955028
 20
3703.639866680265
 30
0.0
 40
10.0
 41
90.34063603881987
 46
0.0
 71
     5
 72
     5
  1
{\fArial|b1|i0|c0|p34;03A}
 73
     1
 44
1.0
1001
ACAD
1000
ACAD_MTEXT_COLUMN_INFO_BEGIN
1070
    75
1070
     2
1070
    79
1070
     0
1070
    76
1070
     1
1070
    78
1070
     0
1070
    48
1040
90.34063603881987
1070
    49
1040
12.5
1070
    50
1070
     1
1040
0.0
1000
ACAD_MTEXT_COLUMN_INFO_END
  0
LWPOLYLINE
  5
1F8
330
1F
100
AcDbEntity
  8
0
370
     5
100
AcDbPolyline
 90
        4
 70
     0
 43
0.0
 10
7090.305209866141
 20
3693.834711326653
 10
7090.305209866141
 20
3683.834711326653
 10
7135.305209866141
 20
3683.834711326653
 10
7135.305209866141
 20
3693.834711326653
  0
LWPOLYLINE
  5
1FB
102
{ACAD_REACTORS
330
202
330
203
330
204
330
205
330
213
102
}
330
1F
100
AcDbEntity
  8
0
100
AcDbPolyline
 90
        4
 70
     1
 43
0.0
 10
7223.518749274373
 20
3931.847364342833
 91
        1
 10
7273.513633192338
 20
3931.847364342833
 91
        2
 10
7273.513633192338
 20
3821.351261746394
 91
        3
 10
7223.518749274373
 20
3821.351261746394
 91
        4
  0
HATCH
  5
213
330
1F
100
AcDbEntity
  8
0
 62
   251
420
  6250335
100
AcDbHatch
 10
0.0
 20
0.0
 30
0.0
210
0.0
220
0.0
230
1.0
  2
HPCRC1E0
 70
     0
 71
     1
 91
        1
 92
        7
 72
     0
 73
     1
 93
        4
 10
7273.513633192338
 20
3931.847364342833
 10
7223.518749274373
 20
3931.847364342833
 10
7223.518749274373
 20
3821.351261746394
 10
7273.513633192338
 20
3821.351261746394
 97
        1
330
1FB
 75
     1
 76
     2
 52
0.0
 41
0.12
 77
     0
 78
    78
 53
82.8749847
 43
0.7934227057739918
 44
35.05236244009593
 45
-0.0000004961129005
 46
8.399999852931037
 79
     2
 49
0.9674709324
 49
-66.75549316799998
 53
75.96376039999999
 43
0.9134227057739916
 44
36.01236244009593
 45
-0.000000348785556
 46
8.399999709154096
 79
     2
 49
0.4947726600000001
 49
-34.139315184
 53
63.43495179999999
 43
1.033422705773991
 44
36.49236244009593
 45
-0.0000000286036308
 46
8.400000041591663
 79
     2
 49
1.073312639999999
 49
-17.70965881199999
 53
45.0
 43
1.513422705773991
 44
37.45236244009593
 45
0.0000000000000009
 46
8.400000002875099
 79
     2
 49
1.527350688
 49
-10.352043456
 53
33.6900673
 43
2.593422705773991
 44
38.53236244009593
 45
0.0000001596020127
 46
8.399999824188462
 79
     2
 49
0.4326661440000001
 49
-29.85396423600001
 53
33.6900673
 43
10.99342270577399
 44
38.53236244009593
 45
0.0000001596020127
 46
8.399999824188462
 79
     2
 49
0.4326661440000001
 49
-29.85396423600001
 53
33.6900673
 43
19.39342270577399
 44
38.53236244009593
 45
0.0000001596020127
 46
8.399999824188462
 79
     2
 49
0.4326661440000001
 49
-29.85396423600001
 53
26.5650501
 43
2.953422705773991
 44
38.77236244009593
 45
-0.0000000460215162
 46
8.400000143556356
 79
     2
 49
0.26832816
 49
-18.514643556
 53
26.5650501
 43
11.35342270577399
 44
38.77236244009593
 45
-0.0000000460215162
 46
8.400000143556356
 79
     2
 49
0.26832816
 49
-18.514643556
 53
18.434948
 43
3.193422705773991
 44
38.89236244009593
 45
0.0000002686412607
 46
8.399999851558131
 79
     2
 49
0.3794733239999999
 49
-26.18365905599999
 53
18.434948
 43
11.59342270577399
 44
38.89236244009593
 45
0.0000002686412607
 46
8.399999851558131
 79
     2
 49
0.3794733239999999
 49
-26.18365905599999
 53
18.434948
 43
19.99342270577399
 44
38.89236244009593
 45
0.0000002686412607
 46
8.399999851558131
 79
     2
 49
0.3794733239999999
 49
-26.18365905599999
 53
26.5650501
 43
3.553422705773991
 44
39.01236244009593
 45
-0.0000000460215162
 46
8.400000143556356
 79
     2
 49
0.26832816
 49
-18.514643556
 53
26.5650501
 43
11.95342270577399
 44
39.01236244009593
 45
-0.0000000460215162
 46
8.400000143556356
 79
     2
 49
0.26832816
 49
-18.514643556
 53
11.3099327
 43
3.793422705773991
 44
39.13236244009593
 45
-0.0000000543109101
 46
8.400000069389928
 79
     2
 49
0.6118823435999997
 49
-42.21988036799998
 53
11.3099327
 43
12.19342270577399
 44
39.13236244009593
 45
-0.0000000543109101
 46
8.400000069389928
 79
     2
 49
0.6118823435999997
 49
-42.21988036799998
 53
11.3099327
 43
20.59342270577399
 44
39.13236244009593
 45
-0.0000000543109101
 46
8.400000069389928
 79
     2
 49
0.6118823435999997
 49
-42.21988036799998
 53
11.3099327
 43
28.99342270577399
 44
39.13236244009593
 45
-0.0000000543109101
 46
8.400000069389928
 79
     2
 49
0.6118823435999997
 49
-42.21988036799998
 53
11.3099327
 43
37.39342270577399
 44
39.13236244009593
 45
-0.0000000543109101
 46
8.400000069389928
 79
     2
 49
0.6118823435999997
 49
-42.21988036799998
 53
0.0
 43
4.393422705773991
 44
39.25236244009593
 45
0.0
 46
8.4
 79
     2
 49
1.199999999999999
 49
-7.199999999999999
 53
348.6900673
 43
5.593422705773991
 44
39.25236244009593
 45
0.0000000543109101
 46
8.400000069389928
 79
     2
 49
0.6118823435999997
 49
-42.21988036799998
 53
348.6900673
 43
13.99342270577399
 44
39.25236244009593
 45
0.0000000543109101
 46
8.400000069389928
 79
     2
 49
0.6118823435999997
 49
-42.21988036799998
 53
348.6900673
 43
22.39342270577399
 44
39.25236244009593
 45
0.0000000543109101
 46
8.400000069389928
 79
     2
 49
0.6118823435999997
 49
-42.21988036799998
 53
348.6900673
 43
30.79342270577399
 44
39.25236244009593
 45
0.0000000543109101
 46
8.400000069389928
 79
     2
 49
0.6118823435999997
 49
-42.21988036799998
 53
348.6900673
 43
39.19342270577399
 44
39.25236244009593
 45
0.0000000543109101
 46
8.400000069389928
 79
     2
 49
0.6118823435999997
 49
-42.21988036799998
 53
333.4349499
 43
6.193422705773991
 44
39.13236244009593
 45
0.0000000460215162
 46
8.400000143556356
 79
     2
 49
0.2683281599999999
 49
-18.514643556
 53
333.4349499
 43
14.59342270577399
 44
39.13236244009593
 45
0.0000000460215162
 46
8.400000143556356
 79
     2
 49
0.2683281599999999
 49
-18.514643556
 53
341.565052
 43
6.433422705773991
 44
39.01236244009593
 45
-0.0000002686412607
 46
8.399999851558131
 79
     2
 49
0.379473324
 49
-26.183659056
 53
341.565052
 43
14.83342270577399
 44
39.01236244009593
 45
-0.0000002686412607
 46
8.399999851558131
 79
     2
 49
0.379473324
 49
-26.183659056
 53
341.565052
 43
23.23342270577399
 44
39.01236244009593
 45
-0.0000002686412607
 46
8.399999851558131
 79
     2
 49
0.379473324
 49
-26.183659056
 53
333.4349499
 43
6.793422705773991
 44
38.89236244009593
 45
0.0000000460215162
 46
8.400000143556356
 79
     2
 49
0.2683281599999999
 49
-18.514643556
 53
333.4349499
 43
15.19342270577399
 44
38.89236244009593
 45
0.0000000460215162
 46
8.400000143556356
 79
     2
 49
0.2683281599999999
 49
-18.514643556
 53
326.3099327
 43
7.033422705773991
 44
38.77236244009593
 45
-0.0000001596020127
 46
8.399999824188462
 79
     2
 49
0.4326661440000001
 49
-29.85396423600001
 53
326.3099327
 43
15.43342270577399
 44
38.77236244009593
 45
-0.0000001596020127
 46
8.399999824188462
 79
     2
 49
0.4326661440000001
 49
-29.85396423600001
 53
326.3099327
 43
23.83342270577399
 44
38.77236244009593
 45
-0.0000001596020127
 46
8.399999824188462
 79
     2
 49
0.4326661440000001
 49
-29.85396423600001
 53
315.0
 43
7.393422705773991
 44
38.53236244009593
 45
-0.0000000000000009
 46
8.400000002875099
 79
     2
 49
1.527350688
 49
-10.352043456
 53
296.5650482
 43
8.473422705773991
 44
37.45236244009593
 45
0.0000000286036308
 46
8.400000041591663
 79
     2
 49
1.073312639999999
 49
-17.70965881199999
 53
284.0362396
 43
8.953422705773991
 44
36.49236244009593
 45
0.000000348785556
 46
8.399999709154096
 79
     2
 49
0.4947726600000001
 49
-34.139315184
 53
277.1250153
 43
9.073422705773991
 44
36.01236244009593
 45
0.0000004961129005
 46
8.399999852931037
 79
     2
 49
0.9674709324
 49
-66.75549316799998
 53
277.1250153
 43
0.7934227057739918
 44
35.05236244009593
 45
0.0000004961129005
 46
8.399999852931037
 79
     2
 49
0.9674709324
 49
-66.75549316799998
 53
284.0362396
 43
0.9134227057739916
 44
34.09236244009593
 45
0.000000348785556
 46
8.399999709154096
 79
     2
 49
0.4947726600000001
 49
-34.139315184
 53
296.5650482
 43
1.033422705773991
 44
33.61236244009593
 45
0.0000000286036308
 46
8.400000041591663
 79
     2
 49
1.073312639999999
 49
-17.70965881199999
 53
315.0
 43
1.513422705773991
 44
32.65236244009593
 45
-0.0000000000000009
 46
8.400000002875099
 79
     2
 49
1.527350688
 49
-10.352043456
 53
326.3099327
 43
2.593422705773991
 44
31.57236244009593
 45
-0.0000001596020127
 46
8.399999824188462
 79
     2
 49
0.4326661440000001
 49
-29.85396423600001
 53
326.3099327
 43
10.99342270577399
 44
31.57236244009593
 45
-0.0000001596020127
 46
8.399999824188462
 79
     2
 49
0.4326661440000001
 49
-29.85396423600001
 53
326.3099327
 43
19.39342270577399
 44
31.57236244009593
 45
-0.0000001596020127
 46
8.399999824188462
 79
     2
 49
0.4326661440000001
 49
-29.85396423600001
 53
333.4349499
 43
2.953422705773991
 44
31.33236244009593
 45
0.0000000460215162
 46
8.400000143556356
 79
     2
 49
0.2683281599999999
 49
-18.514643556
 53
333.4349499
 43
11.35342270577399
 44
31.33236244009593
 45
0.0000000460215162
 46
8.400000143556356
 79
     2
 49
0.2683281599999999
 49
-18.514643556
 53
341.565052
 43
3.193422705773991
 44
31.21236244009593
 45
-0.0000002686412607
 46
8.399999851558131
 79
     2
 49
0.379473324
 49
-26.183659056
 53
341.565052
 43
11.59342270577399
 44
31.21236244009593
 45
-0.0000002686412607
 46
8.399999851558131
 79
     2
 49
0.379473324
 49
-26.183659056
 53
341.565052
 43
19.99342270577399
 44
31.21236244009593
 45
-0.0000002686412607
 46
8.399999851558131
 79
     2
 49
0.379473324
 49
-26.183659056
 53
333.4349499
 43
3.553422705773991
 44
31.09236244009593
 45
0.0000000460215162
 46
8.400000143556356
 79
     2
 49
0.2683281599999999
 49
-18.514643556
 53
333.4349499
 43
11.95342270577399
 44
31.09236244009593
 45
0.0000000460215162
 46
8.400000143556356
 79
     2
 49
0.2683281599999999
 49
-18.514643556
 53
348.6900673
 43
3.793422705773991
 44
30.97236244009593
 45
0.0000000543109101
 46
8.400000069389928
 79
     2
 49
0.6118823435999997
 49
-42.21988036799998
 53
348.6900673
 43
12.19342270577399
 44
30.97236244009593
 45
0.0000000543109101
 46
8.400000069389928
 79
     2
 49
0.6118823435999997
 49
-42.21988036799998
 53
348.6900673
 43
20.59342270577399
 44
30.97236244009593
 45
0.0000000543109101
 46
8.400000069389928
 79
     2
 49
0.6118823435999997
 49
-42.21988036799998
 53
348.6900673
 43
28.99342270577399
 44
30.97236244009593
 45
0.0000000543109101
 46
8.400000069389928
 79
     2
 49
0.6118823435999997
 49
-42.21988036799998
 53
348.6900673
 43
37.39342270577399
 44
30.97236244009593
 45
0.0000000543109101
 46
8.400000069389928
 79
     2
 49
0.6118823435999997
 49
-42.21988036799998
 53
0.0
 43
4.393422705773991
 44
30.85236244009593
 45
0.0
 46
8.4
 79
     2
 49
1.199999999999999
 49
-7.199999999999999
 53
11.3099327
 43
5.593422705773991
 44
30.85236244009593
 45
-0.0000000543109101
 46
8.400000069389928
 79
     2
 49
0.6118823435999997
 49
-42.21988036799998
 53
11.3099327
 43
13.99342270577399
 44
30.85236244009593
 45
-0.0000000543109101
 46
8.400000069389928
 79
     2
 49
0.6118823435999997
 49
-42.21988036799998
 53
11.3099327
 43
22.39342270577399
 44
30.85236244009593
 45
-0.0000000543109101
 46
8.400000069389928
 79
     2
 49
0.6118823435999997
 49
-42.21988036799998
 53
11.3099327
 43
30.79342270577399
 44
30.85236244009593
 45
-0.0000000543109101
 46
8.400000069389928
 79
     2
 49
0.6118823435999997
 49
-42.21988036799998
 53
11.3099327
 43
39.19342270577399
 44
30.85236244009593
 45
-0.0000000543109101
 46
8.400000069389928
 79
     2
 49
0.6118823435999997
 49
-42.21988036799998
 53
26.5650501
 43
6.193422705773991
 44
30.97236244009593
 45
-0.0000000460215162
 46
8.400000143556356
 79
     2
 49
0.26832816
 49
-18.514643556
 53
26.5650501
 43
14.59342270577399
 44
30.97236244009593
 45
-0.0000000460215162
 46
8.400000143556356
 79
     2
 49
0.26832816
 49
-18.514643556
 53
18.434948
 43
6.433422705773991
 44
31.09236244009593
 45
0.0000002686412607
 46
8.399999851558131
 79
     2
 49
0.3794733239999999
 49
-26.18365905599999
 53
18.434948
 43
14.83342270577399
 44
31.09236244009593
 45
0.0000002686412607
 46
8.399999851558131
 79
     2
 49
0.3794733239999999
 49
-26.18365905599999
 53
18.434948
 43
23.23342270577399
 44
31.09236244009593
 45
0.0000002686412607
 46
8.399999851558131
 79
     2
 49
0.3794733239999999
 49
-26.18365905599999
 53
26.5650501
 43
6.793422705773991
 44
31.21236244009593
 45
-0.0000000460215162
 46
8.400000143556356
 79
     2
 49
0.26832816
 49
-18.514643556
 53
26.5650501
 43
15.19342270577399
 44
31.21236244009593
 45
-0.0000000460215162
 46
8.400000143556356
 79
     2
 49
0.26832816
 49
-18.514643556
 53
33.6900673
 43
7.033422705773991
 44
31.33236244009593
 45
0.0000001596020127
 46
8.399999824188462
 79
     2
 49
0.4326661440000001
 49
-29.85396423600001
 53
33.6900673
 43
15.43342270577399
 44
31.33236244009593
 45
0.0000001596020127
 46
8.399999824188462
 79
     2
 49
0.4326661440000001
 49
-29.85396423600001
 53
33.6900673
 43
23.83342270577399
 44
31.33236244009593
 45
0.0000001596020127
 46
8.399999824188462
 79
     2
 49
0.4326661440000001
 49
-29.85396423600001
 53
45.0
 43
7.393422705773991
 44
31.57236244009593
 45
0.0000000000000009
 46
8.400000002875099
 79
     2
 49
1.527350688
 49
-10.352043456
 53
63.43495179999999
 43
8.473422705773991
 44
32.65236244009593
 45
-0.0000000286036308
 46
8.400000041591663
 79
     2
 49
1.073312639999999
 49
-17.70965881199999
 53
75.96376039999999
 43
8.953422705773991
 44
33.61236244009593
 45
-0.000000348785556
 46
8.399999709154096
 79
     2
 49
0.4947726600000001
 49
-34.139315184
 53
82.8749847
 43
9.073422705773991
 44
34.09236244009593
 45
-0.0000004961129005
 46
8.399999852931037
 79
     2
 49
0.9674709324
 49
-66.75549316799998
 47
0.2628538602884431
 98
        1
 10
7251.707660017065
 20
3848.511643798886
1001
GradientColor1ACI
1070
     5
1001
GradientColor2ACI
1070
     2
1001
ACAD
1010
0.0
1020
0.0
1030
0.0
  0
LWPOLYLINE
  5
323
330
1F
100
AcDbEntity
  8
Specialized_Lines
  6
PLASTER
 48
2.0
100
AcDbPolyline
 90
        4
 70
     0
 43
0.0
 10
7278.363138463615
 20
3821.351261746394
 10
7278.363138463615
 20
3933.84260702598
 10
7276.382619143075
 20
3936.71220376802
 10
7231.660351848328
 20
3956.08150090746
  0
HATCH
  5
336
330
1F
100
AcDbEntity
  8
0
 62
    30
420
 16742400
100
AcDbHatch
 10
0.0
 20
0.0
 30
0.0
210
0.0
220
0.0
230
1.0
  2
SOLID
 70
     1
 71
     1
 91
        1
 92
        7
 72
     0
 73
     1
 93
        4
 10
7090.226286825984
 20
3670.013110724529
 10
7090.226286825984
 20
3665.013110724529
 10
7095.226286825988
 20
3665.013110724529
 10
7095.22628682598
 20
3670.013110724529
 97
        1
330
337
 75
     1
 76
     1
 47
0.0321901215665183
 98
        1
 10
7092.015734954685
 20
3668.590130134286
450
        0
451
        0
460
0.0
461
0.0
452
        0
462
1.0
453
        2
463
0.0
 63
     5
421
      255
463
1.0
 63
     2
421
 16776960
470
LINEAR
1001
GradientColor1ACI
1070
     5
1001
GradientColor2ACI
1070
     2
1001
ACAD
1010
0.0
1020
0.0
1030
0.0
  0
LWPOLYLINE
  5
337
102
{ACAD_REACTORS
330
336
102
}
330
1F
100
AcDbEntity
  8
0
 62
    30
420
 16742400
100
AcDbPolyline
 90
        4
 70
     1
 43
0.0
 10
7090.226286825984
 20
3670.013110724529
 10
7095.22628682598
 20
3670.013110724529
 10
7095.226286825988
 20
3665.013110724529
 10
7090.226286825984
 20
3665.013110724529
  0
LINE
  5
338
330
1F
100
AcDbEntity
  8
0
 62
    30
420
 16742400
100
AcDbLine
 10
7090.226286825984
 20
3670.013110724529
 30
0.0
 11
7095.226286825983
 21
3670.013110724529
 31
0.0
  0
LWPOLYLINE
  5
339
330
1F
100
AcDbEntity
  8
0
370
     5
100
AcDbPolyline
 90
        2
 70
     0
 43
0.0
 10
7095.226286825983
 20
3667.513110724529
 10
7416.380344749665
 20
3667.513110724529
  0
MTEXT
  5
33A
330
1F
100
AcDbEntity
  8
Specialized_Text
  6
Continuous
100
AcDbMText
 10
7098.789966141119
 20
3670.03957775812
 30
0.0
 40
3.0
 41
163.0041735515597
 46
0.0
 71
     4
 72
     1
  1
© copyright 2013 Specialized Building Products Ltd
  7
GENERATED_STYLE_2
 73
     1
 44
1.0
  0
MTEXT
  5
33B
330
1F
100
AcDbEntity
  8
Specialized_Text
  6
Continuous
100
AcDbMText
 10
7276.690966814799
 20
3670.03957775812
 30
0.0
 40
3.0
 41
163.0041735515597
 46
0.0
 71
     4
 72
     1
  1
All Dimensions to be site checked before construction & installation
  7
GENERATED_STYLE_2
 73
     1
 44
1.0
  0
MTEXT
  5
33C
330
1F
100
AcDbEntity
  8
Specialized_Text
  6
Continuous
 62
    30
420
 16742400
370
    20
100
AcDbMText
 10
7315.246340604009
 20
3656.915673938007
 30
0.0
 40
5.5
 41
111.9228601720179
 46
0.0
 71
     7
 72
     1
  1
{\fArial Unicode MS|b1|i0|c0|p34;web \fArial Unicode MS|b0|i0|c0|p34;\C256;www.specialized.co.nz}
  7
GENERATED_STYLE_2
 73
     1
 44
1.12662050634974
  0
MTEXT
  5
33D
330
1F
100
AcDbEntity
  8
Specialized_Text
  6
Continuous
100
AcDbMText
 10
7093.13634846863
 20
4140.400861467816
 30
0.0
 40
3.0
 41
48.87340123734884
 46
0.0
 71
     4
 72
     1
  1
Appraisal No.510 [2013]
  7
GENERATED_STYLE_2
 73
     1
 44
1.0
  0
IMAGE
  5
33E
330
1F
100
AcDbEntity
  8
0
 62
     7
420
 16777215
160
               140
310
8C000000010000008400000006000000050000007DD93B224EB2BB40B8625662B32FB04000000000000000007DD93B224EB2BB40891A4FE7795FB040000000000000000098A23DADF4E4BB40891A4FE7795FB040000000000000000098A23DADF4E4BB40B8625662B32FB04000000000000000007DD93B224EB2BB40B86256
310
62B32FB0400000000000000000
100
AcDbRasterImage
 90
        0
 10
7090.305209866141
 20
4143.700719260312
 30
0.0
 11
0.0611721721957824
 21
0.0
 31
0.0
 12
0.0
 22
0.0611721721957824
 32
0.0
 13
828.0
 23
781.0
340
307
 70
     7
280
     0
281
    50
282
    50
283
     0
290
     0
360
33F
 71
     1
 91
        2
 14
-0.5
 24
-0.5
 14
827.5
 24
780.5
  0
IMAGE
  5
340
330
1F
100
AcDbEntity
  8
0
 62
     7
420
 16777215
160
               140
310
8C00000001000000840000000600000005000000A0E8DDF19F9FBC403EA50AD5AA35B0400000000000000000A0E8DDF19F9FBC40C13C3DB8D85CB0400000000000000000290A9E973F0DBD40C13C3DB8D85CB0400000000000000000290A9E973F0DBD403EA50AD5AA35B0400000000000000000A0E8DDF19F9FBC403EA50A
310
D5AA35B0400000000000000000
100
AcDbRasterImage
 90
        0
 10
7327.624784344952
 20
4149.66731325659
 30
0.0
 11
0.0434841820317712
 21
0.0
 31
0.0
 12
0.0
 22
0.0434841820317712
 32
0.0
 13
2521.0
 23
901.0
340
308
 70
     7
280
     0
281
    50
282
    50
283
     0
290
     0
360
341
 71
     1
 91
        2
 14
-0.5
 24
-0.5
 14
2520.5
 24
900.5
  0
LINE
  5
39A
330
1F
100
AcDbEntity
  8
0
  6
Continuous
100
AcDbLine
 10
7196.042957409916
 20
4012.565917231863
 30
0.0
 11
7196.042957409916
 21
4014.465917231863
 31
0.0
  0
LINE
  5
39B
330
1F
100
AcDbEntity
  8
0
  6
Continuous
100
AcDbLine
 10
7215.642957409912
 20
4006.015732686401
 30
0.0
 11
7203.642957409917
 21
4018.015732686396
 31
0.0
  0
LINE
  5
39C
330
1F
100
AcDbEntity
  8
0
  6
Continuous
100
AcDbLine
 10
7215.642957409912
 20
4018.015732686396
 30
0.0
 11
7203.642957409917
 21
4006.015732686401
 31
0.0
  0
LWPOLYLINE
  5
39D
330
1F
100
AcDbEntity
  8
Specialized_Lines
  6
Continuous
100
AcDbPolyline
 90
      120
 70
   129
 43
0.0
 10
7235.043901600024
 20
3965.815732708421
 42
-0.4142135623731866
 10
7232.043901600023
 20
3962.81573270842
 10
7224.543901600023
 20
3962.815732708422
 10
7224.543901600023
 20
3964.315732708423
 10
7225.217242795494
 20
3964.315732708422
 42
0.5655031645004213
 10
7225.658908233377
 20
3965.050107708249
 42
-0.3217948770562723
 10
7226.082099815833
 20
3968.170815930155
 42
-0.9999999999998639
 10
7226.954011719918
 20
3967.346334498273
 42
2.321887592543225
 10
7229.133791480126
 20
3967.346334498273
 42
-1.0
 10
7230.005703384209
 20
3968.170815930155
 42
-0.1103502097709531
 10
7230.608679551025
 20
3967.159482708154
 42
0.3239071718579501
 10
7231.083638431792
 20
3966.815732708418
 10
7231.643901600022
 20
3966.815732708418
 42
-0.9999999999999998
 10
7231.643901600022
 20
3965.81573270842
 10
7231.083638431471
 20
3965.81573270842
 42
0.323907171728007
 10
7230.608679550998
 20
3965.471982708606
 42
-0.0700097239470757
 10
7230.276254268957
 20
3964.796982708751
 42
0.602220588535332
 10
7230.689652911931
 20
3964.01573270842
 10
7232.043901600023
 20
3964.01573270842
 42
0.4142135623733198
 10
7233.843901600024
 20
3965.815732708421
 10
7233.843901600024
 20
3971.441111583355
 42
-0.4999999999699297
 10
7233.843901600024
 20
3972.241111583317
 10
7233.843901600021
 20
3978.491111583335
 10
7231.893590497795
 20
3978.491111583335
 10
7232.126864513164
 20
3977.620521105887
 42
-0.9999999999999998
 10
7231.160938686876
 20
3977.361702060784
 10
7230.927664671508
 20
3978.232292538233
 42
-0.4931454260305637
 10
7231.893590497795
 20
3979.491111583335
 10
7233.843901600018
 20
3979.491111583335
 10
7233.843901600018
 20
3981.559706020848
 42
0.1763269807084013
 10
7233.188826040752
 20
3983.359511327971
 10
7228.060470495806
 20
3989.47124747276
 42
-0.0563385934597803
 10
7227.414868628227
 20
3990.444765680213
 10
7226.343901600022
 20
3991.515732708419
 10
7226.343901600022
 20
3992.015732708419
 10
7226.843901600024
 20
3992.015732708419
 10
7226.843901600024
 20
3995.115732708421
 42
0.4142135623731409
 10
7225.343901600024
 20
3996.61573270842
 10
7216.890541707131
 20
3996.615732708419
 42
0.4671804552025508
 10
7216.398388749388
 20
3996.027497414147
 42
-0.1957965268150679
 10
7215.943901600017
 20
3993.887850648754
 10
7215.943901600017
 20
3992.415732708363
 10
7211.34390160002
 20
3992.415732708363
 10
7211.34390160002
 20
3993.626288345591
 42
-0.0334583915426535
 10
7211.111536708151
 20
3993.936618705887
 10
7210.50291458951
 20
3993.936618705998
 42
-0.1989123673327494
 10
7209.512965096101
 20
3994.346669212337
 10
7207.243901599902
 20
3996.615732708537
 10
7194.34390160002
 20
3996.615732708255
 42
-0.2757233595359096
 10
7193.111707382428
 20
3997.351129510748
 42
0.4507513050372938
 10
7192.382032795023
 20
3997.521360252083
 42
-0.1556796623165252
 10
7189.543901600019
 20
3996.615732708419
 10
7184.58408812353
 20
3996.615732708419
 42
-0.5724326707062994
 10
7183.436791954671
 20
3996.240085297087
 42
2.21717847210509
 10
7183.436791954671
 20
3993.991380119751
 42
-0.5724326705872703
 10
7184.584088123476
 20
3993.615732708666
 10
7185.143901600167
 20
3993.615732708565
 42
-0.4142135623199554
 10
7185.943901600023
 20
3992.815732708565
 10
7185.943901600023
 20
3992.115732708419
 10
7178.943901600023
 20
3992.11573270842
 10
7178.581938315351
 20
3982.976159770421
 42
-0.4026668427419374
 10
7177.582721630854
 20
3982.015732708421
 10
7176.543901600021
 20
3982.015732708421
 10
7176.343901600022
 20
3982.215732708419
 10
7169.743901600023
 20
3982.215732708418
 10
7169.543901600022
 20
3982.015732708417
 10
7168.043901600023
 20
3982.015732708417
 42
-0.9999999999999998
 10
7168.043901600023
 20
3983.01573270842
 10
7177.543901600023
 20
3983.01573270842
 10
7177.543901600023
 20
3992.115732708419
 42
-0.4142135623728079
 10
7178.943901600021
 20
3993.51573270842
 10
7179.519863296492
 20
3993.51573270842
 42
0.5427832983428679
 10
7179.793991887442
 20
3993.937607708417
 42
-0.2772996015394571
 10
7180.159456199399
 20
3996.902156289646
 42
0.4682733384615019
 10
7180.062380301719
 20
3997.352685167845
 42
-0.2789442285749476
 10
7177.543901600021
 20
4001.51573270842
 10
7177.543901600023
 20
4002.215732708419
 10
7173.043901600021
 20
4002.215732708419
 10
7173.043901600021
 20
4002.415732708418
 42
-0.4348123749608391
 10
7174.113658073764
 20
4003.413296758678
 10
7177.813658073765
 20
4003.154567554488
 42
-0.3939104756170651
 10
7178.743901600021
 20
4002.157003504221
 10
7178.743901600018
 20
4001.515732708418
 42
0.4142135623730951
 10
7182.243901600017
 20
3998.015732708419
 10
7189.543901600019
 20
3998.015732708419
 42
0.4142135623730951
 10
7193.04390160002
 20
4001.515732708418
 10
7193.04390160002
 20
4018.01573270842
 10
7195.843901600021
 20
4018.01573270842
 42
-0.414213562373428
 10
7196.643901600021
 20
4017.215732708419
 10
7196.643901600021
 20
4015.16573270842
 42
-0.4142135623748682
 10
7196.193901600023
 20
4014.715732708419
 42
-0.4142135623725041
 10
7195.743901600022
 20
4015.16573270842
 10
7195.743901600022
 20
4016.715732708418
 10
7194.343901600023
 20
4016.715732708418
 10
7194.343901600023
 20
4010.315732708419
 10
7195.743901600022
 20
4010.315732708419
 10
7195.743901600022
 20
4010.965732708419
 42
-0.4142135623730951
 10
7196.193901600023
 20
4011.41573270842
 42
-0.4142135623725041
 10
7196.643901600021
 20
4010.965732708421
 10
7196.643901600021
 20
4010.115732708419
 42
-0.4142135623726539
 10
7195.743901600022
 20
4009.215732708419
 10
7194.34390160002
 20
4009.215732708419
 10
7194.343901600021
 20
3998.015732708257
 10
7207.243901600008
 20
3998.015732708415
 42
-0.1989123673830573
 10
7208.233851093687
 20
3997.605682202073
 10
7210.50291458976
 20
3995.336618705997
 10
7211.527181844859
 20
3995.336618705997
 42
-0.2983362412664925
 10
7212.168865403319
 20
3994.91633679766
 42
1.850368107317784
 10
7213.543901600104
 20
3997.015732708364
 10
7212.543901600025
 20
3997.01573270842
 42
-0.1989123673801356
 10
7212.331769565667
 20
3997.103600674064
 10
7212.131769565665
 20
3997.303600674063
 42
-0.4142135623737189
 10
7212.131769565665
 20
3997.727864742774
 10
7212.331769565667
 20
3997.927864742775
 42
-0.1989123673802284
 10
7212.54390160002
 20
3998.015732708419
 10
7228.04390160002
 20
3998.015732708419
 10
7228.04390160002
 20
3992.813743043136
 42
0.1763269807084801
 10
7228.979723827544
 20
3990.24259260439
 10
7234.108079372494
 20
3984.130856459596
 42
-0.1763269807084215
 10
7235.043901600018
 20
3981.559706020849
  0
LWPOLYLINE
  5
39E
330
1F
100
AcDbEntity
  8
Specialized_Lines
  6
Continuous
100
AcDbPolyline
 90
       36
 70
   129
 43
0.0
 10
7213.393811411901
 20
3996.255925087282
 42
0.7673269879784158
 10
7213.243811411899
 20
3996.815732708419
 10
7212.043811411901
 20
3996.815732708419
 10
7212.043811411898
 20
3998.515732707595
 10
7224.648306449795
 20
3998.515732707596
 42
0.1839743436377466
 10
7226.643901600041
 20
3999.275732708419
 10
7226.643901600041
 20
3998.31573270842
 42
0.4142135623733169
 10
7226.943901600042
 20
3998.015732708419
 10
7227.343901600021
 20
3998.015732708419
 42
0.4142135623730951
 10
7227.643901600021
 20
3998.31573270842
 10
7227.643901600021
 20
4018.715732708424
 42
0.4142135623773127
 10
7227.343901600015
 20
4019.015732708424
 10
7227.043901600012
 20
4019.01573270842
 42
0.4142135623699874
 10
7226.743901600016
 20
4018.715732708419
 10
7226.74390160002
 20
4018.01573270842
 10
7225.643901600038
 20
4018.01573270842
 42
0.4142135623735391
 10
7225.34390160004
 20
4017.71573270842
 10
7225.34390160004
 20
4017.41573270842
 42
0.414213562373761
 10
7225.643901600038
 20
4017.115732708421
 10
7226.443901600021
 20
4017.115732708421
 10
7226.443901600021
 20
4016.45212881147
 10
7225.475703548505
 20
4015.483930759955
 42
0.6681786379188248
 10
7225.793901600038
 20
4014.71573270842
 10
7226.243901600021
 20
4014.715732708419
 10
7226.143901600021
 20
4001.526713193251
 42
-0.416146736396814
 10
7224.634008039377
 20
4000.026745821119
 42
-0.4380437686141797
 10
7224.337128342084
 20
4000.352886019363
 10
7224.461298274055
 20
4001.77215483622
 42
1.000000000000079
 10
7223.465103575964
 20
4001.859310578966
 10
7223.327575031628
 20
4000.287352124092
 42
-0.3865331148211373
 10
7223.031163522861
 20
4000.013508825954
 10
7212.035655076362
 20
3999.923822786425
 42
0.4118266132869719
 10
7211.043811411896
 20
3998.923856049881
 10
7211.043811411902
 20
3996.815732708418
 42
0.414213562372799
 10
7211.9438114119
 20
3995.915732708419
 10
7212.804580927358
 20
3995.915732708418
  0
LWPOLYLINE
  5
39F
330
1F
100
AcDbEntity
  8
0
  6
Continuous
100
AcDbPolyline
 90
       23
 70
   129
 43
0.0
 10
7194.658157409917
 20
4014.401958404718
 42
-0.2556906500445654
 10
7194.542957409918
 20
4014.612502841833
 10
7194.542957409918
 20
4015.315917231863
 42
-0.9999999999999998
 10
7195.442957409918
 20
4015.315917231863
 10
7195.442957409918
 20
4014.465917231863
 10
7196.042957409916
 20
4014.465917231863
 10
7196.642957409918
 20
4014.465917231863
 10
7196.642957409918
 20
4017.065917231863
 42
-0.4142135623730951
 10
7196.892957409918
 20
4017.315917231863
 10
7197.392957409917
 20
4017.315917231863
 42
-0.4142135623730951
 10
7197.642957409917
 20
4017.065917231863
 10
7197.642957409917
 20
4013.515917231864
 10
7197.642957409917
 20
4009.965917231863
 42
-0.4142135623730951
 10
7197.392957409917
 20
4009.715917231863
 10
7196.892957409918
 20
4009.715917231863
 42
-0.4142135623730951
 10
7196.642957409918
 20
4009.965917231863
 10
7196.642957409918
 20
4012.565917231863
 10
7196.042957409916
 20
4012.565917231863
 10
7195.442957409918
 20
4012.565917231863
 10
7195.442957409918
 20
4011.715917231863
 42
-0.9999999999999998
 10
7194.542957409918
 20
4011.715917231863
 10
7194.542957409918
 20
4012.419331621894
 42
-0.2556906500445664
 10
7194.658157409918
 20
4012.629876059006
 42
0.5471529031042364
  0
LWPOLYLINE
  5
3A0
330
1F
100
AcDbEntity
  8
0
  6
Continuous
100
AcDbPolyline
 90
       25
 70
   129
 43
0.0
 10
7225.91012166741
 20
4014.666121212512
 10
7225.360121667408
 20
4014.666121212512
 10
7225.360121667408
 20
4018.21612121251
 10
7225.510114831462
 20
4018.21612121251
 42
0.414213562374094
 10
7226.010121667362
 20
4018.716128048408
 10
7226.010121667362
 20
4019.082069726616
 42
0.3222824919740567
 10
7225.669163812522
 20
4019.556100945063
 42
0.0594186347937949
 10
7221.495347237298
 20
4020.423969722759
 42
0.4660174091873958
 10
7221.27886717934
 20
4020.20728310041
 10
7221.377745321625
 20
4019.077100762491
 42
0.310508253462837
 10
7221.52185679008
 20
4018.902279571852
 10
7221.715396379043
 20
4018.846782987756
 42
-0.3345953195019857
 10
7223.164121667409
 20
4016.92425959588
 10
7223.164121667409
 20
4015.466121212511
 10
7221.437828717572
 20
4016.094440461875
 42
0.8390996311772196
 10
7221.093146004019
 20
4015.497432489508
 10
7223.164121667409
 20
4013.75967757418
 10
7223.164121667409
 20
4011.828038643369
 10
7221.437828717572
 20
4012.456357892733
 42
0.8390996311772196
 10
7221.093146004019
 20
4011.859349920366
 10
7223.164121667409
 20
4010.121595005037
 10
7224.689762626401
 20
4008.722431772921
 42
0.6526623844698686
 10
7225.360121667408
 20
4009.017229990258
 10
7225.360121667408
 20
4013.211961754633
 10
7226.113817429926
 20
4014.271179719719
 42
0.6094093647963478
  0
LWPOLYLINE
  5
3A1
330
1F
100
AcDbEntity
  8
0
  6
Continuous
100
AcDbPolyline
 90
        4
 70
   129
 43
0.0
 10
7215.642957409912
 20
4006.015732686401
 10
7203.642957409917
 20
4006.015732686401
 10
7203.642957409917
 20
4018.015732686396
 10
7215.642957409912
 20
4018.015732686396
  0
LWPOLYLINE
  5
3A2
330
1F
100
AcDbEntity
  8
0
  6
Continuous
100
AcDbPolyline
 90
        4
 70
   128
 43
0.0
 10
7203.642957409917
 20
4124.067259920058
 10
7203.642957409917
 20
4006.015732686401
 10
7197.642957409917
 20
4006.015732686401
 10
7197.642957409917
 20
4124.067259920058
  0
LWPOLYLINE
  5
3A3
330
1F
100
AcDbEntity
  8
Specialized_Lines
  6
Continuous
 62
     9
370
    20
100
AcDbPolyline
 90
        2
 70
   128
 43
0.0
 10
7202.642957409918
 20
4006.015732686401
 10
7202.642957409918
 20
4124.067259920058
  0
LWPOLYLINE
  5
3A4
330
1F
100
AcDbEntity
  8
Specialized_Lines
  6
Continuous
 62
     9
370
    20
100
AcDbPolyline
 90
        2
 70
   128
 43
0.0
 10
7201.642957409918
 20
4006.015732686401
 10
7201.642957409918
 20
4124.067259920058
  0
LWPOLYLINE
  5
3A5
330
1F
100
AcDbEntity
  8
Specialized_Lines
  6
Continuous
 62
     9
370
    20
100
AcDbPolyline
 90
        2
 70
   128
 43
0.0
 10
7200.642957409917
 20
4006.015732686401
 10
7200.642957409917
 20
4124.067259920058
  0
LWPOLYLINE
  5
3A6
330
1F
100
AcDbEntity
  8
Specialized_Lines
  6
Continuous
 62
     9
370
    20
100
AcDbPolyline
 90
        2
 70
   128
 43
0.0
 10
7199.642957409918
 20
4006.015732686401
 10
7199.642957409918
 20
4124.067259920058
  0
LWPOLYLINE
  5
3A7
330
1F
100
AcDbEntity
  8
Specialized_Lines
  6
Continuous
 62
     9
370
    20
100
AcDbPolyline
 90
        2
 70
   128
 43
0.0
 10
7198.642957409917
 20
4006.015732686401
 10
7198.642957409917
 20
4124.067259920058
  0
LWPOLYLINE
  5
3A8
330
1F
100
AcDbEntity
  8
0
  6
Continuous
100
AcDbPolyline
 90
        4
 70
   128
 43
0.0
 10
7215.642957409912
 20
4124.067259920058
 10
7215.642957409912
 20
4006.015732686401
 10
7221.642957409912
 20
4006.015732686401
 10
7221.642957409912
 20
4124.067259920058
  0
LWPOLYLINE
  5
3A9
330
1F
100
AcDbEntity
  8
Specialized_Lines
  6
Continuous
 62
     9
370
    20
100
AcDbPolyline
 90
        2
 70
   128
 43
0.0
 10
7216.642957409913
 20
4006.015732686401
 10
7216.642957409913
 20
4124.067259920058
  0
LWPOLYLINE
  5
3AA
330
1F
100
AcDbEntity
  8
Specialized_Lines
  6
Continuous
 62
     9
370
    20
100
AcDbPolyline
 90
        2
 70
   128
 43
0.0
 10
7217.642957409911
 20
4006.015732686401
 10
7217.642957409911
 20
4124.067259920058
  0
LWPOLYLINE
  5
3AB
330
1F
100
AcDbEntity
  8
Specialized_Lines
  6
Continuous
 62
     9
370
    20
100
AcDbPolyline
 90
        2
 70
   128
 43
0.0
 10
7218.642957409912
 20
4006.015732686401
 10
7218.642957409912
 20
4124.067259920058
  0
LWPOLYLINE
  5
3AC
330
1F
100
AcDbEntity
  8
Specialized_Lines
  6
Continuous
 62
     9
370
    20
100
AcDbPolyline
 90
        2
 70
   128
 43
0.0
 10
7219.642957409913
 20
4006.015732686401
 10
7219.642957409913
 20
4124.067259920058
  0
LWPOLYLINE
  5
3AD
330
1F
100
AcDbEntity
  8
Specialized_Lines
  6
Continuous
 62
     9
370
    20
100
AcDbPolyline
 90
        2
 70
   128
 43
0.0
 10
7220.642957409912
 20
4006.015732686401
 10
7220.642957409912
 20
4124.067259920058
  0
LINE
  5
3B5
330
1F
100
AcDbEntity
  8
Specialized_Lines
  6
Continuous
 62
   251
420
  6250335
370
    13
100
AcDbLine
 10
7235.043901600018
 20
4124.067259920058
 30
0.0
 11
7235.043901600018
 21
3981.559706020849
 31
0.0
  0
REGION
  5
40B
330
1F
100
AcDbEntity
  8
Specialized_Lines
100
AcDbModelerGeometry
 70
     1
  1
mnjoo mlm m mk         
  1
ni ^ *+0;:,4 ^ *+0\^ [ nf ^ LR mnfqoqoqjioo QK o  
  1
mjqlffffffffffffff fqfffffffffffffffj:rooh n:rono 
  1
>,27:>;:- {rn rn _nm mnfqoqoqjioo |
  1
=0;& {rn rn {rn {m {rn {rn |
  1
3*2/ {rn rn {rn {rn {l {n |
  1
,7:33 {rn rn {rn {rn {rn {k {rn {m |
  1
9><: {rn rn {rn {rn {j {l {rn {i 90-(>-; ;0*=3: 0*+ |
  1
300/ {rn rn {rn {rn {h {k |
  1
/3>1:r,*-9><: {rn rn {rn hmnoqghfhogkjghmgi lfkfqfnhhgjmigfgng o o o n rn o o -:):-,:@) V V V V |
  1
<0:;8: {rn rn {rn {g {f {rn {no -:):-,:; {j {rn |
  1
<0:;8: {rn rn {rn {nn {h {rn {nm -:):-,:; {j {rn |
  1
<0:;8: {rn rn {rn {h {nl {rn {nk -:):-,:; {j {rn |
  1
:;8: {rn rn {rn {nj roqhgjlfgnillffggiff {ni rmqkkhkklkjfoogniif:roog {h {nh 90-(>-; _h *1410(1 |
  1
<0:;8: {rn rn {rn {ng {g {rn {nf -:):-,:; {j {rn |
  1
:;8: {rn rn {rn {mo o {nj nqlfikkiigikkljhil {g {mn 90-(>-; _h *1410(1 |
  1
<0:;8: {rn rn {rn {f {mm {rn {ml -:):-,:; {j {rn |
  1
:;8: {rn rn {rn {ni o {mk oqjmjnmimiolmmookgm {f {mj 90-(>-; _h *1410(1 |
  1
):-+:' {rn rn {rn {no m {mi |
  1
):-+:' {rn rn {rn {no m {mh |
  1
:336/,:r<*-): {rn rn {rn hmmlqknoflljhgjjkm lfkgqlmokijfliknjj o ro ro rn rmqoooooooooooooglf o o n V V |
  1
<0:;8: {rn rn {rn {mg {nn {rn {mf -:):-,:; {j {rn |
  1
:;8: {rn rn {rn {lo rlqnknjfmihgohlhjik {mo roqhgjlfgnillffggill {nn {ln 90-(>-; _h *1410(1 |
  1
):-+:' {rn rn {rn {nf m {lm |
  1
,+->687+r<*-): {rn rn {rn hmmmqfgknjiflhhlig lfkjqfnggnjkjmkfng o roqhohnoihgnnggmhngi oqhohnoihgnngkgmlmf o V V |
  1
<0:;8: {rn rn {rn {nl {ll {rn {lk -:):-,:; {j {rn |
  1
:;8: {rn rn {rn {mk o {lj nqjooooomoohhohfhn {nl {li 90-(>-; _h *1410(1 |
  1
):-+:' {rn rn {rn {nk m {lh |
  1
,+->687+r<*-): {rn rn {rn hmmnqknoflljhgjjkm lfkgqlmokijgghkih o rmqkkhkkllffljnignn:roog oqfffffffffffffffhg o V V |
  1
/061+ {rn rn {rn hmmnqffihmooningki lfkiqfoimjmlhkolf o |
  1
/061+ {rn rn {rn hmmnqknoflljhgjjkm lfkgqlmokijgghkih o |
  1
<0:;8: {rn rn {rn {lg {ng {rn {lf -:):-,:; {j {rn |
  1
:;8: {rn rn {rn {ko jqklijlnhijfkjonmk:romk {lo mqhjoooookmgkifljl {ng {kn 90-(>-; _h *1410(1 |
  1
):-+:' {rn rn {rn {mf m {km |
  1
:336/,:r<*-): {rn rn {rn hmmlqniofllilloll lfkiqofjjfmnkhhggf o ro ro rn roqmjooooooooooooooi o o n V V |
  1
/061+ {rn rn {rn hmmmqfgknjiflhhlig lfkjqfnggnjkjmkfng o |
  1
<0:;8: {rn rn {rn {mm {kl {rn {kk -:):-,:; {j {rn |
  1
:;8: {rn rn {rn {lj rnqjhohfilmihfkgfin {kj nqjfghmnnjjkiommjk:ronk {mm {ki 90-(>-; _h *1410(1 |
  1
):-+:' {rn rn {rn {ml m {kh |
  1
,+->687+r<*-): {rn rn {rn hmmnqknoflljijhonl lfkgqgkjjfmnkhhggf o rn mqfiojfkllioiikfkn:roni o V V |
  1
/061+ {rn rn {rn hmmnqknoflljijhonl lfkgqgkjjfmnkhhggf o |
  1
<0:;8: {rn rn {rn {kg {mg {rn {kf -:):-,:; {j {rn |
  1
:;8: {rn rn {rn {jo nqjhohfilmihfkgfii {ko lqnknjfmimfnojgloh {mg {jn 90-(>-; _h *1410(1 |
  1
):-+:' {rn rn {rn {lf m {jm |
  1
,+->687+r<*-): {rn rn {rn hmmlqknoflljijhonl lfkgqgkjjfmnfihjh o mqkkglfimkljmfhgnf:roog roqfffffffffffffffji o V V |
  1
/061+ {rn rn {rn hmmlqknofllilloll lfkiqofjjfmnjlfofg o |
  1
<0:;8: {rn rn {rn {ll {jl {rn {jk -:):-,:; {j {rn |
  1
:;8: {rn rn {rn {kj o {jj jqiklmhnlmfjinnklm {ll {ji 90-(>-; _h *1410(1 |
  1
):-+:' {rn rn {rn {lk m {jh |
  1
:336/,:r<*-): {rn rn {rn hmnfqfnoflllikflol lfjmqlkjjfmnkhhggf o ro ro rn rlqkffffffffffffffi o o n V V |
  1
/061+ {rn rn {rn hmnfqfnoflllikflol lfkgqgkjjfmnkhhggf o |
  1
<0:;8: {rn rn {rn {jg {lg {rn {jf -:):-,:; {j {rn |
  1
:;8: {rn rn {rn {io o {jo nqjooooomoohhohfjj {lg {in 90-(>-; _h *1410(1 |
  1
):-+:' {rn rn {rn {kf m {im |
  1
:336/,:r<*-): {rn rn {rn hmmnqknoflljijhonl lfkgqgkjjfmnkhhggf o ro ro rn rnqfffffffffffffffg o o n V V |
  1
/061+ {rn rn {rn hmmlqknoflljijhonl lfkgqgkjjfmnfihjh o |
  1
<0:;8: {rn rn {rn {kl {il {rn {ik -:):-,:; {j {rn |
  1
:;8: {rn rn {rn {jj rlqnknjfmijljgfgn {ij rnqhkjlmfmjnffkkhli {kl {ii 90-(>-; _h *1410(1 |
  1
):-+:' {rn rn {rn {kk m {ih |
  1
,+->687+r<*-): {rn rn {rn hmniqknoflllikflol lfjmqlkjjfmnkhhggf o nqimnoghififjniok:ronk n o V V |
  1
/061+ {rn rn {rn hmniqknoflllikflol lfjmqlkjjfmnkhhggf o |
  1
<0:;8: {rn rn {rn {ig {kg {rn {if -:):-,:; {j {rn |
  1
:;8: {rn rn {rn {ho o {io nqjhohfilmihfkgfii {kg {hn 90-(>-; _h *1410(1 |
  1
):-+:' {rn rn {rn {jf m {hm |
  1
,+->687+r<*-): {rn rn {rn hmnfqfnoflllikflol lfjoqgkjjfmnkhhggf o n o o V V |
  1
/061+ {rn rn {rn hmmnqknoflljijhonl lfjoqgkjjfmnkhhggf o |
  1
<0:;8: {rn rn {rn {jl {hl {rn {hk -:):-,:; {j {rn |
  1
:;8: {rn rn {rn {ij o {hj kqoinhoimojnklfmgj {jl {hi 90-(>-; _h *1410(1 |
  1
):-+:' {rn rn {rn {jk m {hh |
  1
:336/,:r<*-): {rn rn {rn hmnlqknoflllikflol lfjhqfgggilkhhljom o o o n rlqooooooooooooofnf o o n V V |
  1
/061+ {rn rn {rn hmniqknoflllikflnm lfjhqfgggilkhhljom o |
  1
<0:;8: {rn rn {rn {hg {jg {rn {hf -:):-,:; {j {rn |
  1
:;8: {rn rn {rn {go o {ho kqmoooooooooooooom {jg {gn 90-(>-; _h *1410(1 |
  1
):-+:' {rn rn {rn {if m {gm |
  1
:336/,:r<*-): {rn rn {rn hmnfqfnoflllikflol lfjnqlkjjfmnkhhggf o o o n roqkfffffffffffffffk o o n V V |
  1
/061+ {rn rn {rn hmnfqfnoflllikflol lfjoqgkjjfmnkhhggf o |
  1
<0:;8: {rn rn {rn {il {gl {rn {gk -:):-,:; {j {rn |
  1
:;8: {rn rn {rn {hj rnqhkjlmfmjnffkkhlm {gj rjqlmfohojngmoofkoh:ronj {il {gi 90-(>-; _h *1410(1 |
  1
):-+:' {rn rn {rn {ik m {gh |
  1
,+->687+r<*-): {rn rn {rn hmnlqflnghhgfhflml lfioqfklmgihlilgih o roqfgkgohhjlonmnglnj oqnhlikgnhhiihohnii o V V |
  1
/061+ {rn rn {rn hmnlqflnghhgfhflml lfioqfklmgihlilgih o |
  1
<0:;8: {rn rn {rn {gg {ig {rn {gf -:):-,:; {j {rn |
  1
:;8: {rn rn {rn {fo o {go oqjijigjkmkfkfmlgmk {ig {fn 90-(>-; _h *1410(1 |
  1
):-+:' {rn rn {rn {hf m {fm |
  1
,+->687+r<*-): {rn rn {rn hmnfqknoflllikflol lfjjqjkjjfmnkhhggh o o rn o V V |
  1
/061+ {rn rn {rn hmnfqknoflllikflol lfjnqlkjjfmnkhhggf o |
  1
<0:;8: {rn rn {rn {hl {fl {rn {fk -:):-,:; {j {rn |
  1
:;8: {rn rn {rn {gj o {fj nhqmkgjhfonjmjghni {hl {fi 90-(>-; _h *1410(1 |
  1
):-+:' {rn rn {rn {hk m {fh |
  1
:336/,:r<*-): {rn rn {rn hmofqknoflliolikhm lfjgqifknhnljgofmh o o o n rmqffffffffffffgflk o o n V V |
  1
/061+ {rn rn {rn hmofqflnghgnliikfm lfinqikgjfkinhnmfm o |
  1
<0:;8: {rn rn {rn {fg {hg {rn {ff -:):-,:; {j {rn |
  1
:;8: {rn rn {rn {noo o {fo oqjijigjkmkfkfmlgmk {hg {non 90-(>-; _h *1410(1 |
  1
):-+:' {rn rn {rn {gf m {nom |
  1
,+->687+r<*-): {rn rn {rn hmnfqonoflllikfloh lfjjqfkjjfmnkhhggg o oqhohnoihgnngijkhmk roqhohnoihgnngijkgom o V V |
  1
/061+ {rn rn {rn hmnfqknoflllikflol lfjjqjkjjfmnkhhggh o |
  1
<0:;8: {rn rn {rn {gl {nol {rn {nok -:):-,:; {j {rn |
  1
:;8: {rn rn {rn {fj o {noj oqjijigjkmkfkfmlgki {gl {noi 90-(>-; _h *1410(1 |
  1
):-+:' {rn rn {rn {gk m {noh |
  1
,+->687+r<*-): {rn rn {rn hmoiqknoflliolikhm lfjgqifknhnljgofmh o riqnhfnknkfhlhfjlgk:ronj rn o V V |
  1
/061+ {rn rn {rn hmoiqknoflliolikhm lfjgqifknhnljgofmh o |
  1
<0:;8: {rn rn {rn {nog {gg {rn {nof -:):-,:; {j {rn |
  1
:;8: {rn rn {rn {nno o {noo hqlgigjgnjghhiilik {gg {nnn 90-(>-; _h *1410(1 |
  1
):-+:' {rn rn {rn {ff m {nnm |
  1
,+->687+r<*-): {rn rn {rn hmnfqknoflllikflol lfjiqlkjjfmnkhhggf o roqhohnoihgnngijkhmk roqhohnoihgnngijkgom o V V |
  1
/061+ {rn rn {rn hmnfqonoflllikfloh lfjjqfkjjfmnkhhggg o |
  1
<0:;8: {rn rn {rn {fl {nnl {rn {nnk -:):-,:; {j {rn |
  1
:;8: {rn rn {rn {noj o {nnj oqjijigjkmkfkfmlhf {fl {nni 90-(>-; _h *1410(1 |
  1
):-+:' {rn rn {rn {fk m {nnh |
  1
,+->687+r<*-): {rn rn {rn hmoiqknoflliolikhm lfknqkkjjfmlkmglkn o roqhohnoihgnngijkhlj roqhohnoihgnngijkhlj o V V |
  1
/061+ {rn rn {rn hmoiqknoflliolikhm lfknqkkjjfmlkmglkn o |
  1
<0:;8: {rn rn {rn {nng {fg {rn {nnf -:):-,:; {j {rn |
  1
:;8: {rn rn {rn {nmo roqjmljfghhjjfgnlgnh {nno rlqlnjgiinoomnkohng:ronk {fg {nmn 90-(>-; _h *1410(1 |
  1
):-+:' {rn rn {rn {nof m {nmm |
  1
,+->687+r<*-): {rn rn {rn hmnfqknoflllikflnm lfilqhlmkjoloijiji o rlqlmkjhogkfjghhhfj:ronk rn o V V |
  1
/061+ {rn rn {rn hmnfqknoflllikflol lfjiqlkjjfmnkhhggf o |
  1
<0:;8: {rn rn {rn {nol {nml {rn {nmk -:):-,:; {j {rn |
  1
:;8: {rn rn {rn {nnj o {nmj lnqinnlghmnmkhkgkm {nol {nmi 90-(>-; _h *1410(1 |
  1
):-+:' {rn rn {rn {nok m {nmh |
  1
,+->687+r<*-): {rn rn {rn hmoiqonoflliolikhi lfknqokjjfmlkmglk o oqhohnoihgnngijkglj roqhohnoihgnngijkiig o V V |
  1
/061+ {rn rn {rn hmoiqonoflliolikhi lfknqokjjfmlkmglk o |
  1
<0:;8: {rn rn {rn {nmg {nog {rn {nmf -:):-,:; {j {rn |
  1
:;8: {rn rn {rn {nlo rmqmmokkiokfmjmnklm:roni {nmo iqlfmlojnjmgimkloi {nog {nln 90-(>-; _h *1410(1 |
  1
):-+:' {rn rn {rn {nnf m {nlm |
  1
:336/,:r<*-): {rn rn {rn hmmmqknoflllikflol lfilqhlmkjoloijiji o o o n rmqffffffffffffhjkk o o n V V |
  1
/061+ {rn rn {rn hmnfqknoflllikflnm lfilqhlmkjoloijiji o |
  1
<0:;8: {rn rn {rn {nnl {nll {rn {nlk -:):-,:; {j {rn |
  1
:;8: {rn rn {rn {nmj rlqnknjfmijljgfhggh {nlj rnqiinglnnokglmlllg {nnl {nli 90-(>-; _h *1410(1 |
  1
):-+:' {rn rn {rn {nnk m {nlh |
  1
,+->687+r<*-): {rn rn {rn hmoiqknoflliolikhm lfkoqikjjfmlkmgllf o rlqmjfmmhlnjjkikhkl:ronj rn o V V |
  1
/061+ {rn rn {rn hmoiqknoflliolikhm lfkoqikjjfmlkmgllf o |
  1
<0:;8: {rn rn {rn {nlg {nng {rn {nlf -:):-,:; {j {rn |
  1
:;8: {rn rn {rn {nko rlqnknjfmiklimloifh {nlo rmqinhfflghhffnonhf {nng {nkn 90-(>-; _h *1410(1 |
  1
):-+:' {rn rn {rn {nmf m {nkm |
  1
,+->687+r<*-): {rn rn {rn hmmlqoofoofhloonog lfhoqhiglkgfjhigkl o roqjoooooooooooknm roqgiiomjkolhgkmooji o V V |
  1
/061+ {rn rn {rn hmnfqgnmgjhnjljhgn lfijqmlmkjoloijikh o |
  1
<0:;8: {rn rn {rn {nml {nkl {rn {nkk -:):-,:; {j {rn |
  1
:;8: {rn rn {rn {nlj rnqiinglnnokglmllhl {nkj o {nml {nki 90-(>-; _h *1410(1 |
  1
):-+:' {rn rn {rn {nmk m {nkh |
  1
:336/,:r<*-): {rn rn {rn hmolqknoflliolikhm lfofqolkmojnloljfm o ro ro rn rmqffffffffffffgfin o o n V V |
  1
/061+ {rn rn {rn hmoiqknoflliolikhm lfofqolkmojnloljfm o |
  1
<0:;8: {rn rn {rn {nkg {nmg {rn {nkf -:):-,:; {j {rn |
  1
:;8: {rn rn {rn {njo o {nko gqjmhmklknmjjihmlk {nmg {njn 90-(>-; _h *1410(1 |
  1
):-+:' {rn rn {rn {nlf m {njm |
  1
:336/,:r<*-): {rn rn {rn hmmoqknoflljngijgi lfhmqmiglkgfjhigjh o ro ro rn rlqooooooooooooogjl o o n V V |
  1
/061+ {rn rn {rn hmmlqoofoofhloonog lfhoqhiglkgfjhigkl o |
  1
<0:;8: {rn rn {rn {nll {njl {rn {njk -:):-,:; {j {rn |
  1
:;8: {rn rn {rn {nkj o {njj ikqkfikkiiofkoihlm {nll {nji 90-(>-; _h *1410(1 |
  1
):-+:' {rn rn {rn {nlk m {njh |
  1
:336/,:r<*-): {rn rn {rn hmolqiioflliolikhm lfoiqmfjjfmlkmglk o ro ro rn roqmjooooooooooofkok o o n V V |
  1
/061+ {rn rn {rn hmolqigliioghilhjn lfoiqokiimhjklfihi o |
  1
<0:;8: {rn rn {rn {njg {nlg {rn {njf -:):-,:; {j {rn |
  1
:;8: {rn rn {rn {nio nqjhohfilmihfkgfl {njo lqnknjfmiiljjijnfm {nlg {nin 90-(>-; _h *1410(1 |
  1
):-+:' {rn rn {rn {nkf m {nim |
  1
,+->687+r<*-): {rn rn {rn hmmlqknoflliolikhm lfgoqhfjjfmlkolkmk o rfqfiihmkhnnhjmfkif:roof roqfffffffffffffffji o V V |
  1
/061+ {rn rn {rn hmmlqknoflljngijgi lfhmqmiglkgfmhhgji o |
  1
<0:;8: {rn rn {rn {nkl {nil {rn {nik -:):-,:; {j {rn |
  1
:;8: {rn rn {rn {njj o {nij mqljinfkkfonfmlgkg {nkl {nii 90-(>-; _h *1410(1 |
  1
):-+:' {rn rn {rn {nkk m {nih |
  1
,+->687+r<*-): {rn rn {rn hmolqknoflliolikhm lfoiqmfjjfmlkmglk o nqjkmlkgmhmklgofog:ronj n o V V |
  1
/061+ {rn rn {rn hmolqknoflliolikhm lfoiqmfjjfmlkmglk o |
  1
<0:;8: {rn rn {rn {nig {nkg {rn {nif -:):-,:; {j {rn |
  1
:;8: {rn rn {rn {nho o {nio fqnkikkiiofkohiiln {nkg {nhn 90-(>-; _h *1410(1 |
  1
):-+:' {rn rn {rn {njf m {nhm |
  1
:336/,:r<*-): {rn rn {rn hmmlqnioflliolikhm lfgoqhfjjfmlkmglk o ro ro rn roqmkffffffffffffffh o o n V V |
  1
/061+ {rn rn {rn hmmlqknoflliolikhm lfgoqhfjjfmlkolkmk o |
  1
<0:;8: {rn rn {rn {njl {nhl {rn {nhk -:):-,:; {j {rn |
  1
:;8: {rn rn {rn {nij o {nhj nqlfikkiiofkoihjji {njl {nhi 90-(>-; _h *1410(1 |
  1
):-+:' {rn rn {rn {njk m {nhh |
  1
:336/,:r<*-): {rn rn {rn hmolqiioflliolikhm lfhoqhfmolgfjmmkoj o ro ro rn roqmkffffffffffffllh o o n V V |
  1
/061+ {rn rn {rn hmolqknoflliolikhm lfhoqhfmolgfjmmkoj o |
  1
<0:;8: {rn rn {rn {nhg {njg {rn {nhf -:):-,:; {j {rn |
  1
:;8: {rn rn {rn {ngo roqhgjlfgnillfhkogof {nho nqjhohfilmihfkgfl {njg {ngn 90-(>-; _h *1410(1 |
  1
):-+:' {rn rn {rn {nif m {ngm |
  1
,+->687+r<*-): {rn rn {rn hmnkqonkkgiffkmlfi lfgnqokjjfmlkmglk o n lqnohkokjogkjlijlf:ronj o V V |
  1
/061+ {rn rn {rn hmmlqnioflliolikhm lfgnqokjjfmlkmglk o |
  1
<0:;8: {rn rn {rn {nil {ngl {rn {ngk -:):-,:; {j {rn |
  1
:;8: {rn rn {rn {nhj mqljinfkkfonfmlhgi {ngj lqnknjfmijljgfhiij {nil {ngi 90-(>-; _h *1410(1 |
  1
):-+:' {rn rn {rn {nik m {ngh |
  1
,+->687+r<*-): {rn rn {rn hmolqglhhnomfgfkkl lfhoqfiggnjikhjlhm o oqhohnoihgnngijmkh roqhohnoihgnngijhokk o V V |
  1
/061+ {rn rn {rn hmolqglhhnomfgfkkl lfhoqfiggnjikhjlhm o |
  1
<0:;8: {rn rn {rn {ngg {nig {rn {ngf -:):-,:; {j {rn |
  1
:;8: {rn rn {rn {nfo o {ngo lqjljjllfojflmhlif {nig {nfn 90-(>-; _h *1410(1 |
  1
):-+:' {rn rn {rn {nhf m {nfm |
  1
:336/,:r<*-): {rn rn {rn hmnkqonkkgiffkmlfi lfgoqhfjjfmlkmglk o ro ro rn roqmkfffffffffffhmkf o o n V V |
  1
/061+ {rn rn {rn hmnkqonkkgiffkmlfi lfgnqokjjfmlkmglk o |
  1
<0:;8: {rn rn {rn {nhl {nfl {rn {nfk -:):-,:; {j {rn |
  1
:;8: {rn rn {rn {ngj o {nfj lqohjnmimijgkgnogf {nhl {nfi 90-(>-; _h *1410(1 |
  1
):-+:' {rn rn {rn {nhk m {nfh |
  1
:336/,:r<*-): {rn rn {rn hmolqknoflliolikhm lfigqjihnijmngoghh o ro ro rn rnqfffffffffffffngj o o n V V |
  1
/061+ {rn rn {rn hmokqgmjnkhniiomoj lfifqfgnlhghgokioj o |
  1
<0:;8: {rn rn {rn {nfg {nhg {rn {nff -:):-,:; {j {rn |
  1
:;8: {rn rn {rn {moo rnqjhohfilmihfjonhk {nfo roqhgjlfgnillfhkojij {nhg {mon 90-(>-; _h *1410(1 |
  1
):-+:' {rn rn {rn {ngf m {mom |
  1
,+->687+r<*-): {rn rn {rn hmniqllhhnomfgfklk lfhgqnnggnjikhjlhl o roqhohnoihgnngijmook oqhohnoihgnngijhkii o V V |
  1
/061+ {rn rn {rn hmnlqglhhnomfgfklk lfgoqinggnjikhjlhl o |
  1
<0:;8: {rn rn {rn {ngl {mol {rn {mok -:):-,:; {j {rn |
  1
:;8: {rn rn {rn {nfj o {moj gqnnhgjmgkooknfnkl {ngl {moi 90-(>-; _h *1410(1 |
  1
):-+:' {rn rn {rn {ngk m {moh |
  1
,+->687+r<*-): {rn rn {rn hmojqknoflliolikhm lfigqjihnijmngoghh o mqijhmojngioogokin:ronk rn o V V |
  1
/061+ {rn rn {rn hmojqknoflliolikhm lfigqjihnijmngoghh o |
  1
<0:;8: {rn rn {rn {mog {ngg {rn {mof -:):-,:; {j {rn |
  1
:;8: {rn rn {rn {mno o {moo oqgfikkiiofkohmhmmg {ngg {mnn 90-(>-; _h *1410(1 |
  1
):-+:' {rn rn {rn {nff m {mnm |
  1
:336/,:r<*-): {rn rn {rn hmniqjnkkgiffkmlfi lfhgqmfjjfmlkmglk o ro ro rn roqmjoooooooooonogl o o n V V |
  1
/061+ {rn rn {rn hmniqllhhnomfgfklk lfhgqnnggnjikhjlhl o |
  1
<0:;8: {rn rn {rn {nfl {mnl {rn {mnk -:):-,:; {j {rn |
  1
:;8: {rn rn {rn {moj nqlfimilkonjfjkikh {mnj mqinhfflghhffnkijj {nfl {mni 90-(>-; _h *1410(1 |
  1
):-+:' {rn rn {rn {nfk m {mnh |
  1
,+->687+r<*-): {rn rn {rn hmojqknoflliolikhm lfijqkfmolgfjmmlff o oqfgkgohhjlonmmogki roqnhlikgnhhiiifmglf o V V |
  1
/061+ {rn rn {rn hmojqknoflliolikhm lfijqkfmolgfjmmlff o |
  1
<0:;8: {rn rn {rn {mnl {nfg {rn {mng -:):-,:; {j {rn |
  1
:;8: {rn rn {rn {mnf rlqnknjfmijljgfhim {mno rnqjhohfilmihfkhhim {nfg {mmo 90-(>-; _h *1410(1 |
  1
):-+:' {rn rn {rn {mof m {mmn |
  1
,+->687+r<*-): {rn rn {rn hmnhqknoflliolikhm lfhgqokjjfmlkmglk o rn rnqnggflmokgkkojmlg:ronl o V V |
  1
/061+ {rn rn {rn hmniqjnkkgiffkmlfi lfhgqokjjfmlkmglk o |
  1
<0:;8: {rn rn {rn {mol {mog {rn {mmm -:):-,:; {j {rn |
  1
:;8: {rn rn {rn {mnj kqkkogfmofgjoogkh:roni {mml iqfifoimnokimhogii {mol {mmk 90-(>-; _h *1410(1 |
  1
):-+:' {rn rn {rn {mok m {mmj |
  1
:336/,:r<*-): {rn rn {rn hmnlqfmikomjjnlllf lfihqolignngjfolj o o o n rlqooooooooooooofj o o n V V |
  1
/061+ {rn rn {rn hmnlqkojkjgongllmf lfikqogmlggjffffg o |
  1
:;8: {rn rn {rn {mmi o {mnf nqfhllfjiioikoihik {mog {mmh 90-(>-; _h *1410(1 |
  1
):-+:' {rn rn {rn {mng m {mmg |
  1
:336/,:r<*-): {rn rn {rn hmnhqknoflliolikhm lfhjqokjjfmlkmglk o o o n rmqfffffffffffffffi o o n V V |
  1
/061+ {rn rn {rn hmnhqknoflliolikhm lfhgqokjjfmlkmglk o |
  1
:;8: {rn rn {rn {mml mqinhfflghhffnkiik {mmi lqnknjfmijljgfgmmk {mnl {mmf 90-(>-; _h *1410(1 |
  1
):-+:' {rn rn {rn {mnk m {mlo |
  1
,+->687+r<*-): {rn rn {rn hmniqjmkkhghimighn lfijqjlignngjfolkj o oqjoooooooooooomkgh oqgiiomjkolhgkkmklf o V V |
  1
/061+ {rn rn {rn hmniqjmkkhghimighn lfijqjlignngjfolkj o |
  1
):-+:' {rn rn {rn {mmm m {mln |
  1
,+->687+r<*-): {rn rn {rn hmmoqknoflliolikhm lfhlqohmnfiigmnflk o rlqoiojngnjgglifink:ronk n o V V |
  1
/061+ {rn rn {rn hmmoqknoflliolikhm lfhjqokjjfmlkmglk o |
  1
:336/,:r<*-): {rn rn {rn hmnhqknoflliolikhm lfhlqohmnfiigmnflk o o o n rlqoooooooooooooi o o n V V |
  1
/061+ {rn rn {rn hmmoqoofoofgnjoonl lfhnqjhmnfiigmnfl o |
  1
/061+ {rn rn {rn hmmoqknoflliolikhm lfhlqohmnfiigmnflk o |
1001
ACAD_OBJECT_CHANGE_GUID
1070
     1
1071
-773847807
1070
  1463
1070
 16997
1070
   128
1070
    94
1070
   154
1070
   175
1070
    62
1070
    36
1070
    67
1070
   182
  0
LWPOLYLINE
  5
40C
330
1F
100
AcDbEntity
  8
Specialized_Lines
100
AcDbPolyline
 90
        4
 70
     1
 43
0.0
 10
7225.878825572756
 20
3981.045592342834
 10
7200.878257773074
 20
3981.045592342834
 10
7200.878257773074
 20
3991.99597187736
 10
7225.878825572756
 20
3991.99597187736
  0
LINE
  5
40D
330
1F
100
AcDbEntity
  8
Specialized_Lines
100
AcDbLine
 10
7200.878257773074
 20
3981.045592342834
 30
0.0
 11
7225.878825572756
 21
3991.99597187736
 31
0.0
  0
MTEXT
  5
40E
102
{ACAD_REACTORS
330
40F
102
}
330
1F
100
AcDbEntity
  8
Specialized_Text
  6
Continuous
100
AcDbMText
 10
7308.59138707458
 20
4022.506930236792
 30
0.0
 40
5.5
 41
117.7250038991815
 46
0.0
 71
     4
 72
     1
  1
Window support bar in accordance with E2/AS1
  7
GENERATED_STYLE_2
 73
     1
 44
1.138919892255507
  0
LEADER
  5
40F
330
1F
100
AcDbEntity
  8
Specialized_Text
  6
Continuous
 62
   251
420
  6250335
370
    13
100
AcDbLeader
  3
GENERATED_STYLE__2
 73
     0
 74
     0
 75
     1
 40
16.21772520606657
 41
117.9085948158254
 76
     3
 10
7223.410933558124
 20
3976.22798484124
 30
0.0
 10
7301.20538707458
 20
4022.506930236792
 30
0.0
 10
7308.50138707458
 20
4022.506930236792
 30
0.0
340
40E
  0
MTEXT
  5
410
102
{ACAD_REACTORS
330
411
102
}
330
1F
100
AcDbEntity
  8
Specialized_Text
  6
Continuous
100
AcDbMText
 10
7308.59138707458
 20
4043.496498619191
 30
0.0
 40
5.5
 41
117.7250038991815
 46
0.0
 71
     4
 72
     1
  1
Joinery packer as required
  7
GENERATED_STYLE_2
 73
     1
 44
1.138919892255507
  0
LEADER
  5
411
330
1F
100
AcDbEntity
  8
Specialized_Text
  6
Continuous
 62
   251
420
  6250335
370
    13
100
AcDbLeader
  3
GENERATED_STYLE__2
 73
     0
 74
     0
 75
     1
 40
7.113233287858117
 41
89.79331514324693
 76
     3
 10
7222.070383238722
 20
3991.99597187736
 30
0.0
 10
7301.20538707458
 20
4043.496498619191
 30
0.0
 10
7308.50138707458
 20
4043.496498619191
 30
0.0
340
410
  0
ENDSEC
  0
SECTION
  2
OBJECTS
  0
DICTIONARY
  5
C
330
0
100
AcDbDictionary
281
     1
  3
ACAD_ASSOCNETWORK
350
1FF
  3
ACAD_CIP_PREVIOUS_PRODUCT_INFO
350
1C5
  3
ACAD_COLOR
350
1B7
  3
ACAD_DETAILVIEWSTYLE
350
1BC
  3
ACAD_GROUP
350
D
  3
ACAD_IMAGE_DICT
350
1E7
  3
ACAD_IMAGE_VARS
350
1EB
  3
ACAD_LAYOUT
350
1A
  3
ACAD_MATERIAL
350
3B
  3
ACAD_MLEADERSTYLE
350
1AA
  3
ACAD_MLINESTYLE
350
17
  3
ACAD_PLOTSETTINGS
350
19
  3
ACAD_PLOTSTYLENAME
350
E
  3
ACAD_SCALELIST
350
FA
  3
ACAD_SECTIONVIEWSTYLE
350
1BA
  3
ACAD_TABLESTYLE
350
1A9
  3
ACAD_VISUALSTYLE
350
2A
  3
ACDB_RECOMPOSE_DATA
350
4C5
  3
AcDbVariableDictionary
350
187
  3
AcDsDecomposeData
350
4CC
  3
WATERMARKS
350
185
  0
DICTIONARY
  5
1D3
330
2
100
AcDbDictionary
280
     1
281
     1
  3
ACAD_LAYERSTATES
360
1D4
  0
DICTIONARY
  5
214
330
10
100
AcDbDictionary
280
     1
281
     1
  3
ADSK_XREC_LAYER_RECONCILED
360
215
  0
DICTIONARY
  5
216
330
40
100
AcDbDictionary
280
     1
281
     1
  3
ADSK_XREC_LAYER_RECONCILED
360
217
  0
DICTIONARY
  5
218
330
124
100
AcDbDictionary
280
     1
281
     1
  3
ADSK_XREC_LAYER_RECONCILED
360
219
  0
DICTIONARY
  5
21A
330
168
100
AcDbDictionary
280
     1
281
     1
  3
ADSK_XREC_LAYER_RECONCILED
360
21B
  0
DICTIONARY
  5
1CC
330
1CB
100
AcDbDictionary
280
     1
281
     1
  3
ADSK_XREC_LAYER_RECONCILED
360
21C
  0
DICTIONARY
  5
1FC
330
1F
100
AcDbDictionary
280
     1
281
     1
  3
ACAD_ASSOCNETWORK
360
1FD
  3
ACAD_SORTENTS
360
211
  0
IMAGEDEF_REACTOR
  5
33F
330
33E
100
AcDbRasterImageDefReactor
 90
        2
330
33E
  0
IMAGEDEF_REACTOR
  5
341
330
340
100
AcDbRasterImageDefReactor
 90
        2
330
340
  0
DICTIONARY
  5
1FF
102
{ACAD_REACTORS
330
C
102
}
330
C
100
AcDbDictionary
281
     1
  3
ACAD_ASSOCNETWORK
350
200
  0
XRECORD
  5
1C5
102
{ACAD_REACTORS
330
C
102
}
330
C
100
AcDbXrecord
280
     1
300
ACD
300
2014
300
BDSPRM_F_S
  0
DICTIONARY
  5
1B7
102
{ACAD_REACTORS
330
C
102
}
330
C
100
AcDbDictionary
281
     1
  0
DICTIONARY
  5
1BC
102
{ACAD_REACTORS
330
C
102
}
330
C
100
AcDbDictionary
281
     1
  3
Imperial24
350
1BD
  0
DICTIONARY
  5
D
102
{ACAD_REACTORS
330
C
102
}
330
C
100
AcDbDictionary
281
     1
  0
DICTIONARY
  5
1E7
102
{ACAD_REACTORS
330
C
102
}
330
C
100
AcDbDictionary
281
     1
  3
BRANZ logo. Do not place on drawing without number 510-
350
307
  3
logo sharp
350
308
  0
RASTERVARIABLES
  5
1EB
102
{ACAD_REACTORS
330
C
102
}
330
C
100
AcDbRasterVariables
 90
        0
 70
     1
 71
     1
 72
     0
  0
DICTIONARY
  5
1A
102
{ACAD_REACTORS
330
C
102
}
330
C
100
AcDbDictionary
281
     1
  3
Layout1
350
1E
  3
Layout2
350
26
  3
Model
350
22
  0
DICTIONARY
  5
3B
102
{ACAD_REACTORS
330
C
102
}
330
C
100
AcDbDictionary
281
     1
  3
ByBlock
350
3D
  3
ByLayer
350
3C
  3
Global
350
3E
  0
DICTIONARY
  5
1AA
102
{ACAD_REACTORS
330
C
102
}
330
C
100
AcDbDictionary
281
     1
  3
Standard
350
1B9
  0
DICTIONARY
  5
17
102
{ACAD_REACTORS
330
C
102
}
330
C
100
AcDbDictionary
281
     1
  3
Standard
350
18
  0
DICTIONARY
  5
19
102
{ACAD_REACTORS
330
C
102
}
330
C
100
AcDbDictionary
281
     1
  0
ACDBDICTIONARYWDFLT
  5
E
102
{ACAD_REACTORS
330
C
102
}
330
C
100
AcDbDictionary
281
     1
  3
Normal
350
F
100
AcDbDictionaryWithDefault
340
F
  0
DICTIONARY
  5
FA
102
{ACAD_REACTORS
330
C
102
}
330
C
100
AcDbDictionary
281
     1
  3
A0
350
FB
  3
A1
350
FC
  3
A2
350
FD
  3
A3
350
FE
  3
A4
350
FF
  3
A5
350
100
  3
A6
350
101
  3
A7
350
102
  3
A8
350
103
  3
A9
350
104
  3
B0
350
105
  3
B1
350
106
  3
B2
350
107
  3
B3
350
108
  3
B4
350
109
  3
B5
350
10A
  3
B6
350
10B
  3
B7
350
10C
  3
B8
350
10D
  3
B9
350
10E
  3
C0
350
10F
  3
C1
350
110
  3
C2
350
111
  3
C3
350
112
  3
C4
350
113
  3
C5
350
114
  3
C6
350
115
  3
C7
350
116
  3
C8
350
117
  3
C9
350
118
  3
D0
350
119
  3
D1
350
11A
  3
D2
350
11B
  0
DICTIONARY
  5
1BA
102
{ACAD_REACTORS
330
C
102
}
330
C
100
AcDbDictionary
281
     1
  3
Imperial24
350
1BB
  0
DICTIONARY
  5
1A9
102
{ACAD_REACTORS
330
C
102
}
330
C
100
AcDbDictionary
281
     1
  3
Standard
350
1B8
  0
DICTIONARY
  5
2A
102
{ACAD_REACTORS
330
C
102
}
330
C
100
AcDbDictionary
281
     1
  3
2dWireframe
350
2F
  3
3D Hidden
350
31
  3
3dWireframe
350
30
  3
Basic
350
32
  3
Brighten
350
36
  3
ColorChange
350
3A
  3
Conceptual
350
34
  3
Dim
350
35
  3
EdgeColorOff
350
1B6
  3
Facepattern
350
39
  3
Flat
350
2B
  3
FlatWithEdges
350
2C
  3
Gouraud
350
2D
  3
GouraudWithEdges
350
2E
  3
Hidden
350
1AE
  3
JitterOff
350
1B4
  3
Linepattern
350
38
  3
OverhangOff
350
1B5
  3
Realistic
350
33
  3
Shaded
350
1B3
  3
Shaded with edges
350
1B2
  3
Shades of Gray
350
1AF
  3
Sketchy
350
1B0
  3
Thicken
350
37
  3
Wireframe
350
1AD
  3
X-Ray
350
1B1
  0
XRECORD
  5
4C5
102
{ACAD_REACTORS
330
C
102
}
330
C
100
AcDbXrecord
280
     1
 90
        1
330
1B8
330
1F0
330
1F3
330
1F4
330
1F7
  0
DICTIONARY
  5
187
102
{ACAD_REACTORS
330
C
102
}
330
C
100
AcDbDictionary
281
     1
  3
CANNOSCALE
350
188
  3
CMLEADERSTYLE
350
259
  3
CTABLESTYLE
350
258
  3
CVIEWDETAILSTYLE
350
25A
  3
CVIEWSECTIONSTYLE
350
25B
  3
LAYEREVAL
350
25C
  3
LAYERNOTIFY
350
25D
  0
DICTIONARY
  5
4CC
102
{ACAD_REACTORS
330
C
102
}
330
C
100
AcDbDictionary
281
     1
  3
AcDsRecords
350
4CE
  3
AcDsSchemas
350
4CD
1001
ACAD
1070
     2
  0
DICTIONARY
  5
185
102
{ACAD_REACTORS
330
C
102
}
330
C
100
AcDbDictionary
281
     1
  3
AC_WATERMARK
350
186
  0
DICTIONARY
  5
1D4
102
{ACAD_REACTORS
330
1D3
102
}
330
1D3
100
AcDbDictionary
281
     1
  0
XRECORD
  5
215
102
{ACAD_REACTORS
330
214
102
}
330
214
100
AcDbXrecord
280
     1
290
     1
  0
XRECORD
  5
217
102
{ACAD_REACTORS
330
216
102
}
330
216
100
AcDbXrecord
280
     1
290
     1
  0
XRECORD
  5
219
102
{ACAD_REACTORS
330
218
102
}
330
218
100
AcDbXrecord
280
     1
290
     1
  0
XRECORD
  5
21B
102
{ACAD_REACTORS
330
21A
102
}
330
21A
100
AcDbXrecord
280
     1
290
     1
  0
XRECORD
  5
21C
102
{ACAD_REACTORS
330
1CC
102
}
330
1CC
100
AcDbXrecord
280
     1
290
     1
  0
DICTIONARY
  5
1FD
102
{ACAD_REACTORS
330
1FC
102
}
330
1FC
100
AcDbDictionary
281
     1
  3
ACAD_ASSOCNETWORK
350
1FE
  0
SORTENTSTABLE
  5
211
102
{ACAD_REACTORS
330
1FC
102
}
330
1FC
100
AcDbSortentsTable
330
1F
331
1F7
  5
1F7
331
17B
  5
17B
331
127
  5
127
331
1F3
  5
1F3
331
177
  5
177
331
123
  5
123
331
148
  5
148
331
48
  5
48
331
173
  5
173
331
131
  5
131
331
144
  5
144
331
44
  5
44
331
152
  5
152
331
12E
  5
12E
331
140
  5
140
331
17E
  5
17E
331
14F
  5
14F
331
12A
  5
12A
331
1F6
  5
1F6
331
17A
  5
17A
331
126
  5
126
331
134
  5
134
331
1F2
  5
1F2
331
176
  5
176
331
122
  5
122
331
130
  5
130
331
47
  5
47
331
172
  5
172
331
143
  5
143
331
213
  5
20A
331
13F
  5
13F
331
43
  5
43
331
181
  5
181
331
12D
  5
12D
331
151
  5
151
331
17D
  5
17D
331
14E
  5
14E
331
129
  5
129
331
1F5
  5
1F5
331
179
  5
179
331
125
  5
125
331
133
  5
133
331
1F1
  5
1F1
331
175
  5
175
331
146
  5
146
331
121
  5
121
331
1ED
  5
1ED
331
46
  5
46
331
167
  5
167
331
142
  5
142
331
171
  5
171
331
42
  5
42
331
12C
  5
12C
331
15F
  5
15F
331
169
  5
169
331
1F8
  5
1F8
331
17C
  5
17C
331
3F
  5
3F
331
128
  5
128
331
1F4
  5
1F4
331
178
  5
178
331
132
  5
132
331
1F0
  5
1F0
331
49
  5
49
331
145
  5
145
331
174
  5
174
331
1EC
  5
1EC
331
45
  5
45
331
12F
  5
12F
331
141
  5
141
331
170
  5
170
331
13D
  5
13D
331
41
  5
41
331
17F
  5
17F
331
12B
  5
12B
331
1FB
  5
20C
  0
ACDBASSOCNETWORK
  5
200
102
{ACAD_REACTORS
330
1FF
102
}
330
1FF
100
AcDbAssocAction
 90
        1
 90
        0
330
0
360
0
 90
        0
 90
        0
 90
        0
100
AcDbAssocNetwork
 90
        0
 90
        1
 90
        1
330
1FE
 90
        0
  0
ACDBDETAILVIEWSTYLE
  5
1BD
102
{ACAD_XDICTIONARY
360
255
102
}
102
{ACAD_REACTORS
330
1BC
102
}
330
1BC
100
AcDbModelDocViewStyle
 70
     0
  3
Imperial24
290
     0
100
AcDbDetailViewStyle
 70
     0
 71
     0
 90
        3
 71
     1
340
11
 62
   256
 40
0.24
340
0
 62
   256
 40
0.24
300

 40
0.36
280
     3
 71
     2
340
16
 90
       25
 62
   256
 71
     3
340
11
 62
   256
 40
0.24
 90
        1
 40
0.75
 90
        1
300
%<\AcVar ViewType \f "%tc1">% %<\AcVar ViewDetailId>%\PSCALE %<\AcVar ViewScale \f "%sn">%
 71
     4
340
16
 90
       25
 62
   256
340
16
 90
       25
 62
   256
280
     0
  0
IMAGEDEF
  5
307
102
{ACAD_REACTORS
330
1E7
330
33F
102
}
330
1E7
100
AcDbRasterImageDef
 90
        0
  1
P:\VERT-X CONSULTING LTD\2013\10 Oct\1310-015- Specialized Construction Products - Contract draughting\Drawings\BRANZ logo. Do not place on drawing without number 510-.jpg
 10
828.0
 20
781.0
 11
0.0846666666666667
 21
0.0846666666666667
280
     1
281
     5
  0
IMAGEDEF
  5
308
102
{ACAD_REACTORS
330
1E7
330
341
102
}
330
1E7
100
AcDbRasterImageDef
 90
        0
  1
P:\VERT-X CONSULTING LTD\2013\10 Oct\1310-015- Specialized Construction Products - Contract draughting\Drawings\logo sharp.JPG
 10
2521.0
 20
901.0
 11
0.2645833333333333
 21
0.2645833333333333
280
     1
281
     5
  0
LAYOUT
  5
1E
102
{ACAD_REACTORS
330
1A
102
}
330
1A
100
AcDbPlotSettings
  1

  2
none_device
  4

  6

 40
0.0
 41
0.0
 42
0.0
 43
0.0
 44
0.0
 45
0.0
 46
0.0
 47
0.0
 48
0.0
 49
0.0
140
0.0
141
0.0
142
1.0
143
1.0
 70
   688
 72
     0
 73
     0
 74
     5
  7

 75
    16
147
1.0
 76
     0
 77
     2
 78
   300
148
0.0
149
0.0
100
AcDbLayout
  1
Layout1
 70
     1
 71
     1
 10
0.0
 20
0.0
 11
12.0
 21
9.0
 12
0.0
 22
0.0
 32
0.0
 14
1.000000000000000E+20
 24
1.000000000000000E+20
 34
1.000000000000000E+20
 15
-1.000000000000000E+20
 25
-1.000000000000000E+20
 35
-1.000000000000000E+20
146
0.0
 13
0.0
 23
0.0
 33
0.0
 16
1.0
 26
0.0
 36
0.0
 17
0.0
 27
1.0
 37
0.0
 76
     0
330
1B
  0
LAYOUT
  5
26
102
{ACAD_REACTORS
330
1A
102
}
330
1A
100
AcDbPlotSettings
  1

  2
none_device
  4

  6

 40
0.0
 41
0.0
 42
0.0
 43
0.0
 44
0.0
 45
0.0
 46
0.0
 47
0.0
 48
0.0
 49
0.0
140
0.0
141
0.0
142
1.0
143
1.0
 70
   688
 72
     0
 73
     0
 74
     5
  7

 75
    16
147
1.0
 76
     0
 77
     2
 78
   300
148
0.0
149
0.0
100
AcDbLayout
  1
Layout2
 70
     1
 71
     2
 10
0.0
 20
0.0
 11
0.0
 21
0.0
 12
0.0
 22
0.0
 32
0.0
 14
0.0
 24
0.0
 34
0.0
 15
0.0
 25
0.0
 35
0.0
146
0.0
 13
0.0
 23
0.0
 33
0.0
 16
1.0
 26
0.0
 36
0.0
 17
0.0
 27
1.0
 37
0.0
 76
     0
330
23
  0
LAYOUT
  5
22
102
{ACAD_REACTORS
330
1A
102
}
330
1A
100
AcDbPlotSettings
  1

  2
none_device
  4

  6

 40
0.0
 41
0.0
 42
0.0
 43
0.0
 44
0.0
 45
0.0
 46
0.0
 47
0.0
 48
0.0
 49
0.0
140
0.0
141
0.0
142
1.0
143
1.0
 70
  1712
 72
     0
 73
     0
 74
     0
  7

 75
     0
147
1.0
 76
     0
 77
     2
 78
   300
148
0.0
149
0.0
100
AcDbLayout
  1
Model
 70
     1
 71
     0
 10
0.0
 20
0.0
 11
12.0
 21
9.0
 12
0.0
 22
0.0
 32
0.0
 14
1.000000000000000E+20
 24
1.000000000000000E+20
 34
1.000000000000000E+20
 15
-1.000000000000000E+20
 25
-1.000000000000000E+20
 35
-1.000000000000000E+20
146
0.0
 13
0.0
 23
0.0
 33
0.0
 16
1.0
 26
0.0
 36
0.0
 17
0.0
 27
1.0
 37
0.0
 76
     0
330
1F
331
29
  0
MATERIAL
  5
3D
102
{ACAD_REACTORS
330
3B
102
}
330
3B
100
AcDbMaterial
  1
ByBlock
 73
     1
 78
     1
172
     1
176
     1
270
     1
274
     1
  0
MATERIAL
  5
3C
102
{ACAD_REACTORS
330
3B
102
}
330
3B
100
AcDbMaterial
  1
ByLayer
 73
     1
 78
     1
172
     1
176
     1
270
     1
274
     1
  0
MATERIAL
  5
3E
102
{ACAD_REACTORS
330
3B
102
}
330
3B
100
AcDbMaterial
  1
Global
 73
     1
 78
     1
172
     1
176
     1
270
     1
274
     1
  0
MLEADERSTYLE
  5
1B9
102
{ACAD_XDICTIONARY
360
503
102
}
102
{ACAD_REACTORS
330
1AA
102
}
330
1AA
100
AcDbMLeaderStyle
179
     2
170
     2
171
     1
172
     0
 90
        2
 40
0.0
 41
0.0
173
     1
 91
-1056964608
340
14
 92
       -2
290
     1
 42
0.09
291
     1
 43
0.36
  3
Standard
 44
0.18
300

342
11
174
     1
178
     6
175
     1
176
     0
 93
-1056964608
 45
0.18
292
     0
297
     0
 46
0.18
 94
-1056964608
 47
1.0
 49
1.0
140
1.0
293
     1
141
0.0
294
     1
177
     0
142
1.0
295
     0
296
     0
143
0.125
271
     0
272
     9
273
     9
  0
MLINESTYLE
  5
18
102
{ACAD_REACTORS
330
17
102
}
330
17
100
AcDbMlineStyle
  2
STANDARD
 70
     0
  3

 62
   256
 51
90.0
 52
90.0
 71
     2
 49
0.5
 62
   256
  6
BYLAYER
 49
-0.5
 62
   256
  6
BYLAYER
  0
ACDBPLACEHOLDER
  5
F
102
{ACAD_REACTORS
330
E
102
}
330
E
  0
SCALE
  5
FB
102
{ACAD_REACTORS
330
FA
102
}
330
FA
100
AcDbScale
 70
     0
300
1:1
140
1.0
141
1.0
290
     1
  0
SCALE
  5
FC
102
{ACAD_REACTORS
330
FA
102
}
330
FA
100
AcDbScale
 70
     0
300
1:2
140
1.0
141
2.0
290
     0
  0
SCALE
  5
FD
102
{ACAD_REACTORS
330
FA
102
}
330
FA
100
AcDbScale
 70
     0
300
1:4
140
1.0
141
4.0
290
     0
  0
SCALE
  5
FE
102
{ACAD_REACTORS
330
FA
102
}
330
FA
100
AcDbScale
 70
     0
300
1:5
140
1.0
141
5.0
290
     0
  0
SCALE
  5
FF
102
{ACAD_REACTORS
330
FA
102
}
330
FA
100
AcDbScale
 70
     0
300
1:8
140
1.0
141
8.0
290
     0
  0
SCALE
  5
100
102
{ACAD_REACTORS
330
FA
102
}
330
FA
100
AcDbScale
 70
     0
300
1:10
140
1.0
141
10.0
290
     0
  0
SCALE
  5
101
102
{ACAD_REACTORS
330
FA
102
}
330
FA
100
AcDbScale
 70
     0
300
1:16
140
1.0
141
16.0
290
     0
  0
SCALE
  5
102
102
{ACAD_REACTORS
330
FA
102
}
330
FA
100
AcDbScale
 70
     0
300
1:20
140
1.0
141
20.0
290
     0
  0
SCALE
  5
103
102
{ACAD_REACTORS
330
FA
102
}
330
FA
100
AcDbScale
 70
     0
300
1:30
140
1.0
141
30.0
290
     0
  0
SCALE
  5
104
102
{ACAD_REACTORS
330
FA
102
}
330
FA
100
AcDbScale
 70
     0
300
1:40
140
1.0
141
40.0
290
     0
  0
SCALE
  5
105
102
{ACAD_REACTORS
330
FA
102
}
330
FA
100
AcDbScale
 70
     0
300
1:50
140
1.0
141
50.0
290
     0
  0
SCALE
  5
106
102
{ACAD_REACTORS
330
FA
102
}
330
FA
100
AcDbScale
 70
     0
300
1:100
140
1.0
141
100.0
290
     0
  0
SCALE
  5
107
102
{ACAD_REACTORS
330
FA
102
}
330
FA
100
AcDbScale
 70
     0
300
2:1
140
2.0
141
1.0
290
     0
  0
SCALE
  5
108
102
{ACAD_REACTORS
330
FA
102
}
330
FA
100
AcDbScale
 70
     0
300
4:1
140
4.0
141
1.0
290
     0
  0
SCALE
  5
109
102
{ACAD_REACTORS
330
FA
102
}
330
FA
100
AcDbScale
 70
     0
300
8:1
140
8.0
141
1.0
290
     0
  0
SCALE
  5
10A
102
{ACAD_REACTORS
330
FA
102
}
330
FA
100
AcDbScale
 70
     0
300
10:1
140
10.0
141
1.0
290
     0
  0
SCALE
  5
10B
102
{ACAD_REACTORS
330
FA
102
}
330
FA
100
AcDbScale
 70
     0
300
100:1
140
100.0
141
1.0
290
     0
  0
SCALE
  5
10C
102
{ACAD_REACTORS
330
FA
102
}
330
FA
100
AcDbScale
 70
     0
300
1/128" = 1'-0"
140
0.0078125
141
12.0
290
     0
  0
SCALE
  5
10D
102
{ACAD_REACTORS
330
FA
102
}
330
FA
100
AcDbScale
 70
     0
300
1/64" = 1'-0"
140
0.015625
141
12.0
290
     0
  0
SCALE
  5
10E
102
{ACAD_REACTORS
330
FA
102
}
330
FA
100
AcDbScale
 70
     0
300
1/32" = 1'-0"
140
0.03125
141
12.0
290
     0
  0
SCALE
  5
10F
102
{ACAD_REACTORS
330
FA
102
}
330
FA
100
AcDbScale
 70
     0
300
1/16" = 1'-0"
140
0.0625
141
12.0
290
     0
  0
SCALE
  5
110
102
{ACAD_REACTORS
330
FA
102
}
330
FA
100
AcDbScale
 70
     0
300
3/32" = 1'-0"
140
0.09375
141
12.0
290
     0
  0
SCALE
  5
111
102
{ACAD_REACTORS
330
FA
102
}
330
FA
100
AcDbScale
 70
     0
300
1/8" = 1'-0"
140
0.125
141
12.0
290
     0
  0
SCALE
  5
112
102
{ACAD_REACTORS
330
FA
102
}
330
FA
100
AcDbScale
 70
     0
300
3/16" = 1'-0"
140
0.1875
141
12.0
290
     0
  0
SCALE
  5
113
102
{ACAD_REACTORS
330
FA
102
}
330
FA
100
AcDbScale
 70
     0
300
1/4" = 1'-0"
140
0.25
141
12.0
290
     0
  0
SCALE
  5
114
102
{ACAD_REACTORS
330
FA
102
}
330
FA
100
AcDbScale
 70
     0
300
3/8" = 1'-0"
140
0.375
141
12.0
290
     0
  0
SCALE
  5
115
102
{ACAD_REACTORS
330
FA
102
}
330
FA
100
AcDbScale
 70
     0
300
1/2" = 1'-0"
140
0.5
141
12.0
290
     0
  0
SCALE
  5
116
102
{ACAD_REACTORS
330
FA
102
}
330
FA
100
AcDbScale
 70
     0
300
3/4" = 1'-0"
140
0.75
141
12.0
290
     0
  0
SCALE
  5
117
102
{ACAD_REACTORS
330
FA
102
}
330
FA
100
AcDbScale
 70
     0
300
1" = 1'-0"
140
1.0
141
12.0
290
     0
  0
SCALE
  5
118
102
{ACAD_REACTORS
330
FA
102
}
330
FA
100
AcDbScale
 70
     0
300
1-1/2" = 1'-0"
140
1.5
141
12.0
290
     0
  0
SCALE
  5
119
102
{ACAD_REACTORS
330
FA
102
}
330
FA
100
AcDbScale
 70
     0
300
3" = 1'-0"
140
3.0
141
12.0
290
     0
  0
SCALE
  5
11A
102
{ACAD_REACTORS
330
FA
102
}
330
FA
100
AcDbScale
 70
     0
300
6" = 1'-0"
140
6.0
141
12.0
290
     0
  0
SCALE
  5
11B
102
{ACAD_REACTORS
330
FA
102
}
330
FA
100
AcDbScale
 70
     0
300
1'-0" = 1'-0"
140
12.0
141
12.0
290
     0
  0
ACDBSECTIONVIEWSTYLE
  5
1BB
102
{ACAD_XDICTIONARY
360
253
102
}
102
{ACAD_REACTORS
330
1BA
102
}
330
1BA
100
AcDbModelDocViewStyle
 70
     0
  3
Imperial24
290
     0
100
AcDbSectionViewStyle
 70
     0
 71
     0
 90
       78
 71
     1
340
11
 62
   256
 40
0.24
340
0
340
0
 62
   256
 40
0.24
300
I, O, Q, S, X, Z
 40
0.48
 90
        3
 40
0.18
 90
        1
 71
     2
340
16
 90
       25
 62
   256
340
16
 90
       50
 62
   256
 40
0.24
 40
0.0
 40
0.24
 71
     3
340
11
 62
   256
 40
0.24
 90
        1
 40
0.75
 90
        1
300
%<\AcVar ViewType \f "%tc1">% %<\AcVar ViewSectionStartId>%-%<\AcVar ViewSectionEndId>%\PSCALE %<\AcVar ViewScale \f "%sn">%
 71
     4
 62
   256
 62
   257
300
ANSI31
 40
1.0
 90
        0
290
     0
290
     0
 90
        6
 40
0.0
 40
1.570796326794896
 40
0.2617993877991494
 40
1.308996938995747
 40
-0.2617993877991494
 40
1.832595714594046
  0
TABLESTYLE
  5
1B8
102
{ACAD_XDICTIONARY
360
4C3
102
}
102
{ACAD_REACTORS
330
1A9
102
}
330
1A9
100
AcDbTableStyle
280
     0
  3
Standard
 70
     0
 71
     0
 40
0.06
 41
0.06
280
     0
281
     0
  7
Standard
140
0.18
170
     2
 62
     0
 63
     7
283
     0
 90
      512
 91
        0
  1

274
    -2
284
     1
 64
     0
275
    -2
285
     1
 65
     0
276
    -2
286
     1
 66
     0
277
    -2
287
     1
 67
     0
278
    -2
288
     1
 68
     0
279
    -2
289
     1
 69
     0
  7
Standard
140
0.25
170
     5
 62
     0
 63
     7
283
     0
 90
      512
 91
        0
  1

274
    -2
284
     1
 64
     0
275
    -2
285
     1
 65
     0
276
    -2
286
     1
 66
     0
277
    -2
287
     1
 67
     0
278
    -2
288
     1
 68
     0
279
    -2
289
     1
 69
     0
  7
Standard
140
0.18
170
     5
 62
     0
 63
     7
283
     0
 90
      512
 91
        0
  1

274
    -2
284
     1
 64
     0
275
    -2
285
     1
 65
     0
276
    -2
286
     1
 66
     0
277
    -2
287
     1
 67
     0
278
    -2
288
     1
 68
     0
279
    -2
289
     1
 69
     0
  0
VISUALSTYLE
  5
2F
102
{ACAD_XDICTIONARY
360
4D7
102
}
102
{ACAD_REACTORS
330
2A
102
}
330
2A
100
AcDbVisualStyle
  2
2dWireframe
 70
     4
177
     2
291
     0
 71
     0
176
     1
 72
     2
176
     1
 73
     0
176
     1
 90
        0
176
     1
 40
0.6
176
     1
 41
30.0
176
     1
 63
     7
421
 16777215
176
     1
 74
     1
176
     1
 91
        4
176
     1
 64
     7
176
     1
 65
   257
176
     1
 75
     1
176
     1
175
     1
176
     1
 42
1.0
176
     1
 92
        0
176
     1
 66
   257
176
     1
 43
1.0
176
     1
 76
     1
176
     1
 77
     6
176
     1
 78
     2
176
     1
 67
     7
176
     1
 79
     5
176
     1
170
     0
176
     1
171
     0
176
     1
290
     0
176
     1
 93
        1
176
     1
 44
0.0
176
     1
173
     0
176
     1
1001
ACAD
1000
AcDbSavedByObjectVersion
1070
     0
  0
VISUALSTYLE
  5
31
102
{ACAD_XDICTIONARY
360
4DB
102
}
102
{ACAD_REACTORS
330
2A
102
}
330
2A
100
AcDbVisualStyle
  2
3D Hidden
 70
     6
177
     2
291
     0
 71
     1
176
     1
 72
     2
176
     1
 73
     2
176
     1
 90
        0
176
     1
 40
0.6
176
     1
 41
30.0
176
     1
 63
     7
421
 16777215
176
     1
 74
     2
176
     1
 91
        2
176
     1
 64
     7
176
     1
 65
   257
176
     1
 75
     2
176
     1
175
     1
176
     1
 42
40.0
176
     1
 92
        0
176
     1
 66
   257
176
     1
 43
1.0
176
     1
 76
     1
176
     1
 77
     6
176
     1
 78
     2
176
     1
 67
     7
176
     1
 79
     3
176
     1
170
     0
176
     1
171
     0
176
     1
290
     0
176
     1
 93
        1
176
     1
 44
0.0
176
     1
173
     0
176
     1
1001
ACAD
1000
AcDbSavedByObjectVersion
1070
     0
  0
VISUALSTYLE
  5
30
102
{ACAD_XDICTIONARY
360
4D9
102
}
102
{ACAD_REACTORS
330
2A
102
}
330
2A
100
AcDbVisualStyle
  2
3dWireframe
 70
     5
177
     2
291
     0
 71
     0
176
     1
 72
     2
176
     1
 73
     0
176
     1
 90
        0
176
     1
 40
0.6
176
     1
 41
30.0
176
     1
 63
     7
421
 16777215
176
     1
 74
     1
176
     1
 91
        4
176
     1
 64
     7
176
     1
 65
   257
176
     1
 75
     1
176
     1
175
     1
176
     1
 42
1.0
176
     1
 92
        0
176
     1
 66
   257
176
     1
 43
1.0
176
     1
 76
     1
176
     1
 77
     6
176
     1
 78
     2
176
     1
 67
     7
176
     1
 79
     5
176
     1
170
     0
176
     1
171
     0
176
     1
290
     0
176
     1
 93
        1
176
     1
 44
0.0
176
     1
173
     0
176
     1
1001
ACAD
1000
AcDbSavedByObjectVersion
1070
     0
  0
VISUALSTYLE
  5
32
102
{ACAD_XDICTIONARY
360
4DD
102
}
102
{ACAD_REACTORS
330
2A
102
}
330
2A
100
AcDbVisualStyle
  2
Basic
 70
     7
177
     2
291
     1
 71
     1
176
     1
 72
     0
176
     1
 73
     1
176
     1
 90
        0
176
     1
 40
0.6
176
     1
 41
30.0
176
     1
 63
     7
421
 16777215
176
     1
 74
     0
176
     1
 91
        4
176
     1
 64
     7
176
     1
 65
   257
176
     1
 75
     1
176
     1
175
     1
176
     1
 42
1.0
176
     1
 92
        8
176
     1
 66
     7
176
     1
 43
1.0
176
     1
 76
     1
176
     1
 77
     6
176
     1
 78
     2
176
     1
 67
     7
176
     1
 79
     5
176
     1
170
     0
176
     1
171
     0
176
     1
290
     0
176
     1
 93
        1
176
     1
 44
0.0
176
     1
173
     0
176
     1
1001
ACAD
1000
AcDbSavedByObjectVersion
1070
     0
  0
VISUALSTYLE
  5
36
102
{ACAD_XDICTIONARY
360
4E5
102
}
102
{ACAD_REACTORS
330
2A
102
}
330
2A
100
AcDbVisualStyle
  2
Brighten
 70
    12
177
     2
291
     1
 71
     2
176
     1
 72
     2
176
     1
 73
     0
176
     1
 90
        0
176
     1
 40
0.6
176
     1
 41
30.0
176
     1
 63
     7
421
 16777215
176
     1
 74
     1
176
     1
 91
        4
176
     1
 64
     7
176
     1
 65
   257
176
     1
 75
     1
176
     1
175
     1
176
     1
 42
1.0
176
     1
 92
        8
176
     1
 66
     7
176
     1
 43
1.0
176
     1
 76
     1
176
     1
 77
     6
176
     1
 78
     2
176
     1
 67
     7
176
     1
 79
     5
176
     1
170
     0
176
     1
171
     0
176
     1
290
     0
176
     1
 93
        1
176
     1
 44
50.0
176
     1
173
     0
176
     1
1001
ACAD
1000
AcDbSavedByObjectVersion
1070
     0
  0
VISUALSTYLE
  5
3A
102
{ACAD_XDICTIONARY
360
4ED
102
}
102
{ACAD_REACTORS
330
2A
102
}
330
2A
100
AcDbVisualStyle
  2
ColorChange
 70
    16
177
     2
291
     1
 71
     2
176
     1
 72
     2
176
     1
 73
     3
176
     1
 90
        0
176
     1
 40
0.6
176
     1
 41
30.0
176
     1
 63
     8
421
  8421504
176
     1
 74
     1
176
     1
 91
        4
176
     1
 64
     7
176
     1
 65
   257
176
     1
 75
     1
176
     1
175
     1
176
     1
 42
1.0
176
     1
 92
        8
176
     1
 66
     8
424
  8421504
176
     1
 43
1.0
176
     1
 76
     1
176
     1
 77
     6
176
     1
 78
     2
176
     1
 67
     7
176
     1
 79
     5
176
     1
170
     0
176
     1
171
     0
176
     1
290
     0
176
     1
 93
        1
176
     1
 44
0.0
176
     1
173
     0
176
     1
1001
ACAD
1000
AcDbSavedByObjectVersion
1070
     0
  0
VISUALSTYLE
  5
34
102
{ACAD_XDICTIONARY
360
4E1
102
}
102
{ACAD_REACTORS
330
2A
102
}
330
2A
100
AcDbVisualStyle
  2
Conceptual
 70
     9
177
     2
291
     0
 71
     3
176
     1
 72
     2
176
     1
 73
     0
176
     1
 90
        0
176
     1
 40
0.6
176
     1
 41
30.0
176
     1
 63
     7
421
 16777215
176
     1
 74
     2
176
     1
 91
        2
176
     1
 64
     7
176
     1
 65
   257
176
     1
 75
     1
176
     1
175
     1
176
     1
 42
40.0
176
     1
 92
        8
176
     1
 66
     7
176
     1
 43
1.0
176
     1
 76
     1
176
     1
 77
     6
176
     1
 78
     2
176
     1
 67
     7
176
     1
 79
     3
176
     1
170
     0
176
     1
171
     0
176
     1
290
     0
176
     1
 93
        1
176
     1
 44
0.0
176
     1
173
     0
176
     1
1001
ACAD
1000
AcDbSavedByObjectVersion
1070
     0
  0
VISUALSTYLE
  5
35
102
{ACAD_XDICTIONARY
360
4E3
102
}
102
{ACAD_REACTORS
330
2A
102
}
330
2A
100
AcDbVisualStyle
  2
Dim
 70
    11
177
     2
291
     1
 71
     2
176
     1
 72
     2
176
     1
 73
     0
176
     1
 90
        0
176
     1
 40
0.6
176
     1
 41
30.0
176
     1
 63
     7
421
 16777215
176
     1
 74
     1
176
     1
 91
        4
176
     1
 64
     7
176
     1
 65
   257
176
     1
 75
     1
176
     1
175
     1
176
     1
 42
1.0
176
     1
 92
        8
176
     1
 66
     7
176
     1
 43
1.0
176
     1
 76
     1
176
     1
 77
     6
176
     1
 78
     2
176
     1
 67
     7
176
     1
 79
     5
176
     1
170
     0
176
     1
171
     0
176
     1
290
     0
176
     1
 93
        1
176
     1
 44
-50.0
176
     1
173
     0
176
     1
1001
ACAD
1000
AcDbSavedByObjectVersion
1070
     0
  0
VISUALSTYLE
  5
1B6
102
{ACAD_XDICTIONARY
360
501
102
}
102
{ACAD_REACTORS
330
2A
102
}
330
2A
100
AcDbVisualStyle
  2
EdgeColorOff
 70
    22
177
     2
291
     1
 71
     2
176
     0
 72
     2
176
     0
 73
     0
176
     0
 90
        0
176
     0
 40
0.6
176
     0
 41
30.0
176
     0
 63
     7
421
 16777215
176
     0
 74
     1
176
     0
 91
        4
176
     0
 64
     7
176
     0
 65
   257
176
     0
 75
     1
176
     0
175
     1
176
     0
 42
1.0
176
     0
 92
        8
176
     2
 66
     7
176
     0
 43
1.0
176
     0
 76
     1
176
     0
 77
     6
176
     0
 78
     2
176
     0
 67
     7
176
     0
 79
     5
176
     0
170
     0
176
     0
171
     0
176
     0
290
     0
176
     0
 93
        1
176
     0
 44
0.0
176
     0
173
     0
176
     0
1001
ACAD
1000
AcDbSavedByObjectVersion
1070
     0
  0
VISUALSTYLE
  5
39
102
{ACAD_XDICTIONARY
360
4EB
102
}
102
{ACAD_REACTORS
330
2A
102
}
330
2A
100
AcDbVisualStyle
  2
Facepattern
 70
    15
177
     2
291
     1
 71
     2
176
     1
 72
     2
176
     1
 73
     0
176
     1
 90
        0
176
     1
 40
0.6
176
     1
 41
30.0
176
     1
 63
     7
421
 16777215
176
     1
 74
     1
176
     1
 91
        4
176
     1
 64
     7
176
     1
 65
   257
176
     1
 75
     1
176
     1
175
     1
176
     1
 42
1.0
176
     1
 92
        8
176
     1
 66
     7
176
     1
 43
1.0
176
     1
 76
     1
176
     1
 77
     6
176
     1
 78
     2
176
     1
 67
     7
176
     1
 79
     5
176
     1
170
     0
176
     1
171
     0
176
     1
290
     0
176
     1
 93
        1
176
     1
 44
0.0
176
     1
173
     0
176
     1
1001
ACAD
1000
AcDbSavedByObjectVersion
1070
     0
  0
VISUALSTYLE
  5
2B
102
{ACAD_XDICTIONARY
360
4CF
102
}
102
{ACAD_REACTORS
330
2A
102
}
330
2A
100
AcDbVisualStyle
  2
Flat
 70
     0
177
     2
291
     1
 71
     2
176
     1
 72
     1
176
     1
 73
     1
176
     1
 90
        2
176
     1
 40
0.6
176
     1
 41
30.0
176
     1
 63
     7
421
 16777215
176
     1
 74
     0
176
     1
 91
        4
176
     1
 64
     7
176
     1
 65
   257
176
     1
 75
     1
176
     1
175
     1
176
     1
 42
1.0
176
     1
 92
        8
176
     1
 66
     7
176
     1
 43
1.0
176
     1
 76
     1
176
     1
 77
     6
176
     1
 78
     2
176
     1
 67
     7
176
     1
 79
     5
176
     1
170
     0
176
     1
171
     0
176
     1
290
     0
176
     1
 93
       13
176
     1
 44
0.0
176
     1
173
     0
176
     1
1001
ACAD
1000
AcDbSavedByObjectVersion
1070
     0
  0
VISUALSTYLE
  5
2C
102
{ACAD_XDICTIONARY
360
4D1
102
}
102
{ACAD_REACTORS
330
2A
102
}
330
2A
100
AcDbVisualStyle
  2
FlatWithEdges
 70
     1
177
     2
291
     1
 71
     2
176
     1
 72
     1
176
     1
 73
     1
176
     1
 90
        2
176
     1
 40
0.6
176
     1
 41
30.0
176
     1
 63
     7
421
 16777215
176
     1
 74
     1
176
     1
 91
        4
176
     1
 64
     7
176
     1
 65
   257
176
     1
 75
     1
176
     1
175
     1
176
     1
 42
1.0
176
     1
 92
        0
176
     1
 66
   257
176
     1
 43
1.0
176
     1
 76
     1
176
     1
 77
     6
176
     1
 78
     2
176
     1
 67
     7
176
     1
 79
     5
176
     1
170
     0
176
     1
171
     0
176
     1
290
     0
176
     1
 93
       13
176
     1
 44
0.0
176
     1
173
     0
176
     1
1001
ACAD
1000
AcDbSavedByObjectVersion
1070
     0
  0
VISUALSTYLE
  5
2D
102
{ACAD_XDICTIONARY
360
4D3
102
}
102
{ACAD_REACTORS
330
2A
102
}
330
2A
100
AcDbVisualStyle
  2
Gouraud
 70
     2
177
     2
291
     1
 71
     2
176
     1
 72
     2
176
     1
 73
     1
176
     1
 90
        2
176
     1
 40
0.6
176
     1
 41
30.0
176
     1
 63
     7
421
 16777215
176
     1
 74
     0
176
     1
 91
        4
176
     1
 64
     7
176
     1
 65
   257
176
     1
 75
     1
176
     1
175
     1
176
     1
 42
1.0
176
     1
 92
        0
176
     1
 66
     7
176
     1
 43
1.0
176
     1
 76
     1
176
     1
 77
     6
176
     1
 78
     2
176
     1
 67
     7
176
     1
 79
     5
176
     1
170
     0
176
     1
171
     0
176
     1
290
     0
176
     1
 93
       13
176
     1
 44
0.0
176
     1
173
     0
176
     1
1001
ACAD
1000
AcDbSavedByObjectVersion
1070
     0
  0
VISUALSTYLE
  5
2E
102
{ACAD_XDICTIONARY
360
4D5
102
}
102
{ACAD_REACTORS
330
2A
102
}
330
2A
100
AcDbVisualStyle
  2
GouraudWithEdges
 70
     3
177
     2
291
     1
 71
     2
176
     1
 72
     2
176
     1
 73
     1
176
     1
 90
        2
176
     1
 40
0.6
176
     1
 41
30.0
176
     1
 63
     7
421
 16777215
176
     1
 74
     1
176
     1
 91
        4
176
     1
 64
     7
176
     1
 65
   257
176
     1
 75
     1
176
     1
175
     1
176
     1
 42
1.0
176
     1
 92
        0
176
     1
 66
   257
176
     1
 43
1.0
176
     1
 76
     1
176
     1
 77
     6
176
     1
 78
     2
176
     1
 67
     7
176
     1
 79
     5
176
     1
170
     0
176
     1
171
     0
176
     1
290
     0
176
     1
 93
       13
176
     1
 44
0.0
176
     1
173
     0
176
     1
1001
ACAD
1000
AcDbSavedByObjectVersion
1070
     0
  0
VISUALSTYLE
  5
1AE
102
{ACAD_XDICTIONARY
360
4F1
102
}
102
{ACAD_REACTORS
330
2A
102
}
330
2A
100
AcDbVisualStyle
  2
Hidden
 70
     6
177
     2
291
     0
 71
     1
176
     1
 72
     2
176
     1
 73
     2
176
     1
 90
        0
176
     1
 40
0.6
176
     1
 41
30.0
176
     1
 63
     7
421
 16777215
176
     1
 74
     2
176
     1
 91
        2
176
     1
 64
     7
176
     1
 65
   257
176
     1
 75
     2
176
     1
175
     1
176
     1
 42
40.0
176
     1
 92
        0
176
     1
 66
   257
176
     1
 43
1.0
176
     1
 76
     1
176
     1
 77
     6
176
     1
 78
     2
176
     1
 67
     7
176
     1
 79
     3
176
     1
170
     0
176
     1
171
     0
176
     1
290
     0
176
     1
 93
        1
176
     1
 44
0.0
176
     1
173
     0
176
     1
1001
ACAD
1000
AcDbSavedByObjectVersion
1070
     0
  0
VISUALSTYLE
  5
1B4
102
{ACAD_XDICTIONARY
360
4FD
102
}
102
{ACAD_REACTORS
330
2A
102
}
330
2A
100
AcDbVisualStyle
  2
JitterOff
 70
    20
177
     2
291
     1
 71
     2
176
     0
 72
     2
176
     0
 73
     0
176
     0
 90
        0
176
     0
 40
0.6
176
     0
 41
30.0
176
     0
 63
     7
421
 16777215
176
     0
 74
     1
176
     0
 91
        4
176
     0
 64
     7
176
     0
 65
   257
176
     0
 75
     1
176
     0
175
     1
176
     0
 42
1.0
176
     0
 92
       10
176
     2
 66
     7
176
     0
 43
1.0
176
     0
 76
     1
176
     0
 77
     6
176
     0
 78
     2
176
     0
 67
     7
176
     0
 79
     5
176
     0
170
     0
176
     0
171
     0
176
     0
290
     0
176
     0
 93
        1
176
     0
 44
0.0
176
     0
173
     0
176
     0
1001
ACAD
1000
AcDbSavedByObjectVersion
1070
     0
  0
VISUALSTYLE
  5
38
102
{ACAD_XDICTIONARY
360
4E9
102
}
102
{ACAD_REACTORS
330
2A
102
}
330
2A
100
AcDbVisualStyle
  2
Linepattern
 70
    14
177
     2
291
     1
 71
     2
176
     1
 72
     2
176
     1
 73
     0
176
     1
 90
        0
176
     1
 40
0.6
176
     1
 41
30.0
176
     1
 63
     7
421
 16777215
176
     1
 74
     1
176
     1
 91
        4
176
     1
 64
     7
176
     1
 65
   257
176
     1
 75
     7
176
     1
175
     7
176
     1
 42
1.0
176
     1
 92
        8
176
     1
 66
     7
176
     1
 43
1.0
176
     1
 76
     1
176
     1
 77
     6
176
     1
 78
     2
176
     1
 67
     7
176
     1
 79
     5
176
     1
170
     0
176
     1
171
     0
176
     1
290
     0
176
     1
 93
        1
176
     1
 44
0.0
176
     1
173
     0
176
     1
1001
ACAD
1000
AcDbSavedByObjectVersion
1070
     0
  0
VISUALSTYLE
  5
1B5
102
{ACAD_XDICTIONARY
360
4FF
102
}
102
{ACAD_REACTORS
330
2A
102
}
330
2A
100
AcDbVisualStyle
  2
OverhangOff
 70
    21
177
     2
291
     1
 71
     2
176
     0
 72
     2
176
     0
 73
     0
176
     0
 90
        0
176
     0
 40
0.6
176
     0
 41
30.0
176
     0
 63
     7
421
 16777215
176
     0
 74
     1
176
     0
 91
        4
176
     0
 64
     7
176
     0
 65
   257
176
     0
 75
     1
176
     0
175
     1
176
     0
 42
1.0
176
     0
 92
        9
176
     2
 66
     7
176
     0
 43
1.0
176
     0
 76
     1
176
     0
 77
     6
176
     0
 78
     2
176
     0
 67
     7
176
     0
 79
     5
176
     0
170
     0
176
     0
171
     0
176
     0
290
     0
176
     0
 93
        1
176
     0
 44
0.0
176
     0
173
     0
176
     0
1001
ACAD
1000
AcDbSavedByObjectVersion
1070
     0
  0
VISUALSTYLE
  5
33
102
{ACAD_XDICTIONARY
360
4DF
102
}
102
{ACAD_REACTORS
330
2A
102
}
330
2A
100
AcDbVisualStyle
  2
Realistic
 70
     8
177
     2
291
     0
 71
     2
176
     1
 72
     2
176
     1
 73
     0
176
     1
 90
        0
176
     1
 40
0.6
176
     1
 41
30.0
176
     1
 63
     7
421
 16777215
176
     1
 74
     1
176
     1
 91
        0
176
     1
 64
     7
176
     1
 65
   257
176
     1
 75
     1
176
     1
175
     1
176
     1
 42
1.0
176
     1
 92
        8
176
     1
 66
     8
424
  7895160
176
     1
 43
1.0
176
     1
 76
     1
176
     1
 77
     6
176
     1
 78
     2
176
     1
 67
     7
176
     1
 79
     5
176
     1
170
     0
176
     1
171
     0
176
     1
290
     0
176
     1
 93
       13
176
     1
 44
0.0
176
     1
173
     0
176
     1
1001
ACAD
1000
AcDbSavedByObjectVersion
1070
     0
  0
VISUALSTYLE
  5
1B3
102
{ACAD_XDICTIONARY
360
4FB
102
}
102
{ACAD_REACTORS
330
2A
102
}
330
2A
100
AcDbVisualStyle
  2
Shaded
 70
    27
177
     2
291
     0
 71
     2
176
     1
 72
     2
176
     1
 73
     1
176
     1
 90
        2
176
     1
 40
0.6
176
     1
 41
30.0
176
     1
 63
     7
421
 16777215
176
     1
 74
     0
176
     1
 91
        4
176
     1
 64
     7
176
     1
 65
   257
176
     1
 75
     1
176
     1
175
     1
176
     1
 42
1.0
176
     1
 92
        8
176
     1
 66
   257
176
     1
 43
1.0
176
     1
 76
     1
176
     1
 77
     6
176
     1
 78
     2
176
     1
 67
     8
425
  7895160
176
     1
 79
     3
176
     1
170
     0
176
     1
171
     0
176
     1
290
     0
176
     1
 93
        5
176
     1
 44
0.0
176
     1
173
     0
176
     1
1001
ACAD
1000
AcDbSavedByObjectVersion
1070
     0
  0
VISUALSTYLE
  5
1B2
102
{ACAD_XDICTIONARY
360
4F9
102
}
102
{ACAD_REACTORS
330
2A
102
}
330
2A
100
AcDbVisualStyle
  2
Shaded with edges
 70
    26
177
     2
291
     0
 71
     2
176
     1
 72
     2
176
     1
 73
     1
176
     1
 90
        2
176
     1
 40
0.6
176
     1
 41
30.0
176
     1
 63
     7
421
 16777215
176
     1
 74
     1
176
     1
 91
       10
176
     1
 64
     7
176
     1
 65
   257
176
     1
 75
     2
176
     1
175
     1
176
     1
 42
1.0
176
     1
 92
        8
176
     1
 66
   257
176
     1
 43
1.0
176
     1
 76
     1
176
     1
 77
     6
176
     1
 78
     2
176
     1
 67
     7
176
     1
 79
     3
176
     1
170
     0
176
     1
171
     0
176
     1
290
     0
176
     1
 93
        5
176
     1
 44
0.0
176
     1
173
     0
176
     1
1001
ACAD
1000
AcDbSavedByObjectVersion
1070
     0
  0
VISUALSTYLE
  5
1AF
102
{ACAD_XDICTIONARY
360
4F3
102
}
102
{ACAD_REACTORS
330
2A
102
}
330
2A
100
AcDbVisualStyle
  2
Shades of Gray
 70
    23
177
     2
291
     0
 71
     2
176
     1
 72
     2
176
     1
 73
     3
176
     1
 90
        0
176
     1
 40
0.6
176
     1
 41
30.0
176
     1
 63
     7
421
 16777215
176
     1
 74
     2
176
     1
 91
        2
176
     1
 64
     7
176
     1
 65
     7
176
     1
 75
     1
176
     1
175
     1
176
     1
 42
40.0
176
     1
 92
        8
176
     1
 66
     7
176
     1
 43
1.0
176
     1
 76
     1
176
     1
 77
     6
176
     1
 78
     2
176
     1
 67
     7
176
     1
 79
     3
176
     1
170
     0
176
     1
171
     0
176
     1
290
     0
176
     1
 93
        1
176
     1
 44
0.0
176
     1
173
     0
176
     1
1001
ACAD
1000
AcDbSavedByObjectVersion
1070
     0
  0
VISUALSTYLE
  5
1B0
102
{ACAD_XDICTIONARY
360
4F5
102
}
102
{ACAD_REACTORS
330
2A
102
}
330
2A
100
AcDbVisualStyle
  2
Sketchy
 70
    24
177
     2
291
     0
 71
     1
176
     1
 72
     2
176
     1
 73
     2
176
     1
 90
        0
176
     1
 40
0.6
176
     1
 41
30.0
176
     1
 63
     7
421
 16777215
176
     1
 74
     2
176
     1
 91
        2
176
     1
 64
     7
176
     1
 65
     7
176
     1
 75
     1
176
     1
175
     1
176
     1
 42
40.0
176
     1
 92
       11
176
     1
 66
     7
176
     1
 43
1.0
176
     1
 76
     1
176
     1
 77
     6
176
     1
 78
     2
176
     1
 67
     7
176
     1
 79
     6
176
     1
170
     0
176
     1
171
     0
176
     1
290
     0
176
     1
 93
        1
176
     1
 44
0.0
176
     1
173
     0
176
     1
1001
ACAD
1000
AcDbSavedByObjectVersion
1070
     0
  0
VISUALSTYLE
  5
37
102
{ACAD_XDICTIONARY
360
4E7
102
}
102
{ACAD_REACTORS
330
2A
102
}
330
2A
100
AcDbVisualStyle
  2
Thicken
 70
    13
177
     2
291
     1
 71
     2
176
     1
 72
     2
176
     1
 73
     0
176
     1
 90
        0
176
     1
 40
0.6
176
     1
 41
30.0
176
     1
 63
     7
421
 16777215
176
     1
 74
     1
176
     1
 91
        4
176
     1
 64
     7
176
     1
 65
   257
176
     1
 75
     1
176
     1
175
     1
176
     1
 42
1.0
176
     1
 92
       12
176
     1
 66
     7
176
     1
 43
1.0
176
     1
 76
     1
176
     1
 77
     6
176
     1
 78
     2
176
     1
 67
     7
176
     1
 79
     5
176
     1
170
     0
176
     1
171
     0
176
     1
290
     0
176
     1
 93
        1
176
     1
 44
0.0
176
     1
173
     0
176
     1
1001
ACAD
1000
AcDbSavedByObjectVersion
1070
     0
  0
VISUALSTYLE
  5
1AD
102
{ACAD_XDICTIONARY
360
4EF
102
}
102
{ACAD_REACTORS
330
2A
102
}
330
2A
100
AcDbVisualStyle
  2
Wireframe
 70
     5
177
     2
291
     0
 71
     0
176
     1
 72
     2
176
     1
 73
     0
176
     1
 90
        0
176
     1
 40
0.6
176
     1
 41
30.0
176
     1
 63
     7
421
 16777215
176
     1
 74
     1
176
     1
 91
        4
176
     1
 64
     7
176
     1
 65
   257
176
     1
 75
     1
176
     1
175
     1
176
     1
 42
1.0
176
     1
 92
        0
176
     1
 66
   257
176
     1
 43
1.0
176
     1
 76
     1
176
     1
 77
     6
176
     1
 78
     2
176
     1
 67
     7
176
     1
 79
     3
176
     1
170
     0
176
     1
171
     0
176
     1
290
     0
176
     1
 93
        1
176
     1
 44
0.0
176
     1
173
     0
176
     1
1001
ACAD
1000
AcDbSavedByObjectVersion
1070
     0
  0
VISUALSTYLE
  5
1B1
102
{ACAD_XDICTIONARY
360
4F7
102
}
102
{ACAD_REACTORS
330
2A
102
}
330
2A
100
AcDbVisualStyle
  2
X-Ray
 70
    25
177
     2
291
     0
 71
     2
176
     1
 72
     2
176
     1
 73
     1
176
     1
 90
        1
176
     1
 40
0.5
176
     1
 41
30.0
176
     1
 63
     7
421
 16777215
176
     1
 74
     1
176
     1
 91
        0
176
     1
 64
     7
176
     1
 65
   257
176
     1
 75
     1
176
     1
175
     1
176
     1
 42
1.0
176
     1
 92
        8
176
     1
 66
     7
176
     1
 43
1.0
176
     1
 76
     1
176
     1
 77
     6
176
     1
 78
     2
176
     1
 67
     7
176
     1
 79
     3
176
     1
170
     0
176
     1
171
     0
176
     1
290
     0
176
     1
 93
       13
176
     1
 44
0.0
176
     1
173
     0
176
     1
1001
ACAD
1000
AcDbSavedByObjectVersion
1070
     0
  0
DICTIONARYVAR
  5
188
102
{ACAD_REACTORS
330
187
102
}
330
187
100
DictionaryVariables
280
     0
  1
1:1
  0
DICTIONARYVAR
  5
259
102
{ACAD_REACTORS
330
187
102
}
330
187
100
DictionaryVariables
280
     0
  1
STANDARD
  0
DICTIONARYVAR
  5
258
102
{ACAD_REACTORS
330
187
102
}
330
187
100
DictionaryVariables
280
     0
  1
STANDARD
  0
DICTIONARYVAR
  5
25A
102
{ACAD_REACTORS
330
187
102
}
330
187
100
DictionaryVariables
280
     0
  1
Imperial24
  0
DICTIONARYVAR
  5
25B
102
{ACAD_REACTORS
330
187
102
}
330
187
100
DictionaryVariables
280
     0
  1
Imperial24
  0
DICTIONARYVAR
  5
25C
102
{ACAD_REACTORS
330
187
102
}
330
187
100
DictionaryVariables
280
     0
  1
1
  0
DICTIONARYVAR
  5
25D
102
{ACAD_REACTORS
330
187
102
}
330
187
100
DictionaryVariables
280
     0
  1
15
  0
DICTIONARY
  5
4CE
102
{ACAD_REACTORS
330
4CC
102
}
330
4CC
100
AcDbDictionary
281
     1
  0
DICTIONARY
  5
4CD
102
{ACAD_REACTORS
330
4CC
102
}
330
4CC
100
AcDbDictionary
281
     1
  3
2127775472
350
4C6
  3
2127775480
350
4C7
  3
2127775488
350
4C8
  3
2127775496
350
4C9
  3
2127775504
350
4CA
  3
2127775512
350
4CB
  0
XRECORD
  5
186
102
{ACAD_REACTORS
330
185
102
}
330
185
100
AcDbXrecord
280
     1
1000
This DWG file was created in ArchiCAD(TM)®
  0
ACDBASSOCNETWORK
  5
1FE
102
{ACAD_REACTORS
330
1FD
102
}
330
1FD
100
AcDbAssocAction
 90
        1
 90
        0
330
200
360
0
 90
        1
 90
        0
 90
        0
100
AcDbAssocNetwork
 90
        0
 90
        1
 90
        1
360
201
 90
        0
  0
DICTIONARY
  5
255
330
1BD
100
AcDbDictionary
280
     1
281
     1
  3
ACAD_XREC_ROUNDTRIP
360
506
  0
DICTIONARY
  5
503
330
1B9
100
AcDbDictionary
280
     1
281
     1
  3
ACAD_XREC_ROUNDTRIP
360
504
  0
DICTIONARY
  5
253
330
1BB
100
AcDbDictionary
280
     1
281
     1
  3
ACAD_XREC_ROUNDTRIP
360
505
  0
DICTIONARY
  5
4C3
330
1B8
100
AcDbDictionary
280
     1
281
     1
  3
ACAD_ROUNDTRIP_2008_TABLESTYLE_CELLSTYLEMAP
360
4C4
  0
DICTIONARY
  5
4D7
330
2F
100
AcDbDictionary
280
     1
281
     1
  3
ACAD_XREC_ROUNDTRIP
360
4D8
  0
DICTIONARY
  5
4DB
330
31
100
AcDbDictionary
280
     1
281
     1
  3
ACAD_XREC_ROUNDTRIP
360
4DC
  0
DICTIONARY
  5
4D9
330
30
100
AcDbDictionary
280
     1
281
     1
  3
ACAD_XREC_ROUNDTRIP
360
4DA
  0
DICTIONARY
  5
4DD
330
32
100
AcDbDictionary
280
     1
281
     1
  3
ACAD_XREC_ROUNDTRIP
360
4DE
  0
DICTIONARY
  5
4E5
330
36
100
AcDbDictionary
280
     1
281
     1
  3
ACAD_XREC_ROUNDTRIP
360
4E6
  0
DICTIONARY
  5
4ED
330
3A
100
AcDbDictionary
280
     1
281
     1
  3
ACAD_XREC_ROUNDTRIP
360
4EE
  0
DICTIONARY
  5
4E1
330
34
100
AcDbDictionary
280
     1
281
     1
  3
ACAD_XREC_ROUNDTRIP
360
4E2
  0
DICTIONARY
  5
4E3
330
35
100
AcDbDictionary
280
     1
281
     1
  3
ACAD_XREC_ROUNDTRIP
360
4E4
  0
DICTIONARY
  5
501
330
1B6
100
AcDbDictionary
280
     1
281
     1
  3
ACAD_XREC_ROUNDTRIP
360
502
  0
DICTIONARY
  5
4EB
330
39
100
AcDbDictionary
280
     1
281
     1
  3
ACAD_XREC_ROUNDTRIP
360
4EC
  0
DICTIONARY
  5
4CF
330
2B
100
AcDbDictionary
280
     1
281
     1
  3
ACAD_XREC_ROUNDTRIP
360
4D0
  0
DICTIONARY
  5
4D1
330
2C
100
AcDbDictionary
280
     1
281
     1
  3
ACAD_XREC_ROUNDTRIP
360
4D2
  0
DICTIONARY
  5
4D3
330
2D
100
AcDbDictionary
280
     1
281
     1
  3
ACAD_XREC_ROUNDTRIP
360
4D4
  0
DICTIONARY
  5
4D5
330
2E
100
AcDbDictionary
280
     1
281
     1
  3
ACAD_XREC_ROUNDTRIP
360
4D6
  0
DICTIONARY
  5
4F1
330
1AE
100
AcDbDictionary
280
     1
281
     1
  3
ACAD_XREC_ROUNDTRIP
360
4F2
  0
DICTIONARY
  5
4FD
330
1B4
100
AcDbDictionary
280
     1
281
     1
  3
ACAD_XREC_ROUNDTRIP
360
4FE
  0
DICTIONARY
  5
4E9
330
38
100
AcDbDictionary
280
     1
281
     1
  3
ACAD_XREC_ROUNDTRIP
360
4EA
  0
DICTIONARY
  5
4FF
330
1B5
100
AcDbDictionary
280
     1
281
     1
  3
ACAD_XREC_ROUNDTRIP
360
500
  0
DICTIONARY
  5
4DF
330
33
100
AcDbDictionary
280
     1
281
     1
  3
ACAD_XREC_ROUNDTRIP
360
4E0
  0
DICTIONARY
  5
4FB
330
1B3
100
AcDbDictionary
280
     1
281
     1
  3
ACAD_XREC_ROUNDTRIP
360
4FC
  0
DICTIONARY
  5
4F9
330
1B2
100
AcDbDictionary
280
     1
281
     1
  3
ACAD_XREC_ROUNDTRIP
360
4FA
  0
DICTIONARY
  5
4F3
330
1AF
100
AcDbDictionary
280
     1
281
     1
  3
ACAD_XREC_ROUNDTRIP
360
4F4
  0
DICTIONARY
  5
4F5
330
1B0
100
AcDbDictionary
280
     1
281
     1
  3
ACAD_XREC_ROUNDTRIP
360
4F6
  0
DICTIONARY
  5
4E7
330
37
100
AcDbDictionary
280
     1
281
     1
  3
ACAD_XREC_ROUNDTRIP
360
4E8
  0
DICTIONARY
  5
4EF
330
1AD
100
AcDbDictionary
280
     1
281
     1
  3
ACAD_XREC_ROUNDTRIP
360
4F0
  0
DICTIONARY
  5
4F7
330
1B1
100
AcDbDictionary
280
     1
281
     1
  3
ACAD_XREC_ROUNDTRIP
360
4F8
  0
XRECORD
  5
4C6
102
{ACAD_REACTORS
330
4CD
102
}
330
4CD
100
AcDbXrecord
280
     1
  1
AcDb_Thumbnail_Schema
102
{ATTRRECORD
341
4C7
  2
AcDbDs::TreatedAsObjectData
280
     1
291
     1
102
ATTRRECORD}
102
{ATTRRECORD
341
4C8
  2
AcDbDs::Legacy
280
     1
291
     1
102
ATTRRECORD}
  2
AcDbDs::ID
280
    10
 91
        8
102
{ATTRRECORD
341
4C9
  2
AcDs:Indexable
280
     1
291
     1
102
ATTRRECORD}
102
{ATTRRECORD
341
4CA
  2
AcDbDs::HandleAttribute
280
     7
282
     1
102
ATTRRECORD}
  2
Thumbnail_Data
280
    15
 91
        0
  0
XRECORD
  5
4C7
102
{ACAD_REACTORS
330
4CD
102
}
330
4CD
100
AcDbXrecord
280
     1
  1
AcDbDs::TreatedAsObjectDataSchema
  2
AcDbDs::TreatedAsObjectData
280
     1
 91
        0
  0
XRECORD
  5
4C8
102
{ACAD_REACTORS
330
4CD
102
}
330
4CD
100
AcDbXrecord
280
     1
  1
AcDbDs::LegacySchema
  2
AcDbDs::Legacy
280
     1
 91
        0
  0
XRECORD
  5
4C9
102
{ACAD_REACTORS
330
4CD
102
}
330
4CD
100
AcDbXrecord
280
     1
  1
AcDbDs::IndexedPropertySchema
  2
AcDs:Indexable
280
     1
 91
        0
  0
XRECORD
  5
4CA
102
{ACAD_REACTORS
330
4CD
102
}
330
4CD
100
AcDbXrecord
280
     1
  1
AcDbDs::HandleAttributeSchema
  2
AcDbDs::HandleAttribute
280
     7
 91
        1
284
     1
  0
XRECORD
  5
4CB
102
{ACAD_REACTORS
330
4CD
102
}
330
4CD
100
AcDbXrecord
280
     1
  1
AcDb3DSolid_ASM_Data
102
{ATTRRECORD
341
4C7
  2
AcDbDs::TreatedAsObjectData
280
     1
291
     1
102
ATTRRECORD}
102
{ATTRRECORD
341
4C8
  2
AcDbDs::Legacy
280
     1
291
     1
102
ATTRRECORD}
  2
AcDbDs::ID
280
    10
 91
        8
102
{ATTRRECORD
341
4C9
  2
AcDs:Indexable
280
     1
291
     1
102
ATTRRECORD}
102
{ATTRRECORD
341
4CA
  2
AcDbDs::HandleAttribute
280
     7
282
     1
102
ATTRRECORD}
  2
ASM_Data
280
    15
 91
        0
  0
ACDBASSOC2DCONSTRAINTGROUP
  5
201
330
1FE
100
AcDbAssocAction
 90
        1
 90
        0
330
1FE
360
0
 90
        1
 90
        7
 90
        0
 90
        2
 70
     0
 10
7222.725326568599
 20
3900.995001902737
 30
0.0
 10
1.0
 20
0.0
 30
0.0
 10
0.0
 20
1.0
 30
0.0
360
0
 90
        5
360
202
360
203
360
204
360
205
360
206
 90
       47
 90
       33
  1
AcConstrainedBoundedLine
330
201
 90
        1
 70
     1
 90
        3
 90
        3
 90
        5
 90
       25
330
202
 90
        0
 10
0.7934227057739918
 20
30.85236244009593
 30
0.0
 10
1.0
 20
0.0
 30
0.0
290
     0
 10
0.7934227057739918
 20
30.85236244009593
 30
0.0
 11
50.78830662373912
 21
30.85236244009593
 31
0.0
  1
AcConstrainedImplicitPoint
330
201
 90
        2
 70
     1
 90
        3
 90
        3
 90
       23
 90
       33
330
0
 90
        0
280
     0
 90
       -1
 90
        1
  1
AcPointCurveConstraint
330
201
 90
        3
 70
     0
 90
        2
 90
        2
 90
        1
 90
        0
290
     1
290
     1
  1
AcConstrainedImplicitPoint
330
201
 90
        4
 70
     1
 90
        2
 90
        5
 90
       11
330
0
 90
        0
280
     1
 90
       -1
 90
        1
  1
AcPointCurveConstraint
330
201
 90
        5
 70
     0
 90
        2
 90
        4
 90
        1
 90
        0
290
     1
290
     1
  1
AcConstrainedBoundedLine
330
201
 90
        6
 70
     1
 90
        3
 90
        8
 90
       10
 90
       26
330
203
 90
        0
 10
50.78830662373912
 20
30.85236244009593
 30
0.0
 10
0.0
 20
-1.0
 30
0.0
290
     0
 10
50.78830662373912
 20
30.85236244009593
 30
0.0
 11
50.78830662373913
 21
-79.64374015634303
 31
0.0
  1
AcConstrainedImplicitPoint
330
201
 90
        7
 70
     1
 90
        2
 90
        8
 90
       11
330
0
 90
        0
280
     0
 90
       -1
 90
        6
  1
AcPointCurveConstraint
330
201
 90
        8
 70
     0
 90
        2
 90
        7
 90
        6
 90
        0
290
     1
290
     1
  1
AcConstrainedImplicitPoint
330
201
 90
        9
 70
     1
 90
        2
 90
       10
 90
       17
330
0
 90
        0
280
     1
 90
       -1
 90
        6
  1
AcPointCurveConstraint
330
201
 90
       10
 70
     0
 90
        2
 90
        9
 90
        6
 90
        0
290
     1
290
     1
  1
AcPointCoincidenceConstraint
330
201
 90
       11
 70
     0
 90
        2
 90
        4
 90
        7
 90
        0
290
     1
290
     1
  1
AcConstrainedBoundedLine
330
201
 90
       12
 70
     1
 90
        4
 90
       14
 90
       16
 90
       25
 90
       27
330
204
 90
        0
 10
50.78830662373912
 20
-79.64374015634303
 30
0.0
 10
-1.0
 20
0.0
 30
0.0
290
     0
 10
50.78830662373913
 20
-79.64374015634303
 30
0.0
 11
0.7934227057739918
 21
-79.64374015634303
 31
0.0
  1
AcConstrainedImplicitPoint
330
201
 90
       13
 70
     1
 90
        2
 90
       14
 90
       17
330
0
 90
        0
280
     0
 90
       -1
 90
       12
  1
AcPointCurveConstraint
330
201
 90
       14
 70
     0
 90
        2
 90
       13
 90
       12
 90
        0
290
     1
290
     1
  1
AcConstrainedImplicitPoint
330
201
 90
       15
 70
     1
 90
        2
 90
       16
 90
       24
330
0
 90
        0
280
     1
 90
       -1
 90
       12
  1
AcPointCurveConstraint
330
201
 90
       16
 70
     0
 90
        2
 90
       15
 90
       12
 90
        0
290
     1
290
     1
  1
AcPointCoincidenceConstraint
330
201
 90
       17
 70
     0
 90
        2
 90
        9
 90
       13
 90
        0
290
     1
290
     1
  1
AcConstrainedBoundedLine
330
201
 90
       18
 70
     1
 90
        4
 90
       20
 90
       22
 90
       26
 90
       27
330
205
 90
        0
 10
0.7934227057739918
 20
-79.64374015634303
 30
0.0
 10
0.0
 20
1.0
 30
0.0
290
     0
 10
0.7934227057739918
 20
-79.64374015634303
 30
0.0
 11
0.7934227057739918
 21
30.85236244009593
 31
0.0
  1
AcConstrainedImplicitPoint
330
201
 90
       19
 70
     1
 90
        2
 90
       20
 90
       24
330
0
 90
        0
280
     0
 90
       -1
 90
       18
  1
AcPointCurveConstraint
330
201
 90
       20
 70
     0
 90
        2
 90
       19
 90
       18
 90
        0
290
     1
290
     1
  1
AcConstrainedImplicitPoint
330
201
 90
       21
 70
     1
 90
        2
 90
       22
 90
       23
330
0
 90
        0
280
     1
 90
       -1
 90
       18
  1
AcPointCurveConstraint
330
201
 90
       22
 70
     0
 90
        2
 90
       21
 90
       18
 90
        0
290
     1
290
     1
  1
AcPointCoincidenceConstraint
330
201
 90
       23
 70
     0
 90
        2
 90
        2
 90
       21
 90
        0
290
     1
290
     1
  1
AcPointCoincidenceConstraint
330
201
 90
       24
 70
     0
 90
        2
 90
       15
 90
       19
 90
        0
290
     1
290
     1
  1
AcParallelConstraint
330
201
 90
       25
 70
     0
 90
        2
 90
        1
 90
       12
 90
        0
290
     0
290
     1
  1
AcParallelConstraint
330
201
 90
       26
 70
     0
 90
        2
 90
        6
 90
       18
 90
        0
290
     0
290
     1
  1
AcPerpendicularConstraint
330
201
 90
       27
 70
     0
 90
        2
 90
       18
 90
       12
 90
        0
290
     0
290
     1
  1
AcConstrainedBoundedLine
330
201
 90
       28
 70
     1
 90
        2
 90
       30
 90
       32
330
206
 90
        0
 10
0.0
 20
30.85236244009593
 30
0.0
 10
1.0
 20
0.0
 30
0.0
290
     0
 10
0.7934227057739918
 20
30.85236244009593
 30
0.0
 11
16.99777675894893
 21
30.85236244009593
 31
0.0
  1
AcConstrainedImplicitPoint
330
201
 90
       29
 70
     1
 90
        2
 90
       30
 90
       33
330
0
 90
        0
280
     0
 90
       -1
 90
       28
  1
AcPointCurveConstraint
330
201
 90
       30
 70
     0
 90
        2
 90
       29
 90
       28
 90
        0
290
     1
290
     1
  1
AcConstrainedImplicitPoint
330
201
 90
       31
 70
     1
 90
        1
 90
       32
330
0
 90
        0
280
     1
 90
       -1
 90
       28
  1
AcPointCurveConstraint
330
201
 90
       32
 70
     0
 90
        2
 90
       31
 90
       28
 90
        0
290
     1
290
     1
  1
AcPointCoincidenceConstraint
330
201
 90
       33
 70
     0
 90
        2
 90
        2
 90
       29
 90
        0
290
     0
290
     1
  0
XRECORD
  5
506
102
{ACAD_REACTORS
330
255
102
}
330
255
100
AcDbXrecord
280
     1
102
DISPLAYNAME
  1
Imperial24
102
FLAGS
 90
        0
  0
XRECORD
  5
504
102
{ACAD_REACTORS
330
503
102
}
330
503
100
AcDbXrecord
280
     1
102
ACAD_ROUNDTRIP_2012_MLEADER_STYLE
298
     1
  0
XRECORD
  5
505
102
{ACAD_REACTORS
330
253
102
}
330
253
100
AcDbXrecord
280
     1
102
DISPLAYNAME
  1
Imperial24
102
FLAGS
 90
        0
  0
CELLSTYLEMAP
  5
4C4
102
{ACAD_REACTORS
330
4C3
102
}
330
4C3
100
AcDbCellStyleMap
 90
        3
300
CELLSTYLE
  1
TABLEFORMAT_BEGIN
 90
        5
170
     1
 91
        0
 92
    32768
 62
   257
 93
        1
300
CONTENTFORMAT
  1
CONTENTFORMAT_BEGIN
 90
        0
 91
        0
 92
      512
 93
        0
300

 40
0.0
140
1.0
 94
        5
 62
     0
340
11
144
0.25
309
CONTENTFORMAT_END
171
     0
 94
        0
309
TABLEFORMAT_END
  1
CELLSTYLE_BEGIN
 90
        1
 91
        1
300
_TITLE
309
CELLSTYLE_END
300
CELLSTYLE
  1
TABLEFORMAT_BEGIN
 90
        5
170
     1
 91
        0
 92
        0
 62
   257
 93
        1
300
CONTENTFORMAT
  1
CONTENTFORMAT_BEGIN
 90
        0
 91
        0
 92
      512
 93
        0
300

 40
0.0
140
1.0
 94
        5
 62
     0
340
11
144
0.18
309
CONTENTFORMAT_END
171
     0
 94
        0
309
TABLEFORMAT_END
  1
CELLSTYLE_BEGIN
 90
        2
 91
        1
300
_HEADER
309
CELLSTYLE_END
300
CELLSTYLE
  1
TABLEFORMAT_BEGIN
 90
        5
170
     1
 91
        0
 92
        0
 62
   257
 93
        1
300
CONTENTFORMAT
  1
CONTENTFORMAT_BEGIN
 90
        0
 91
        0
 92
      512
 93
        0
300

 40
0.0
140
1.0
 94
        2
 62
     0
340
11
144
0.18
309
CONTENTFORMAT_END
171
     0
 94
        0
309
TABLEFORMAT_END
  1
CELLSTYLE_BEGIN
 90
        3
 91
        2
300
_DATA
309
CELLSTYLE_END
  0
XRECORD
  5
4D8
102
{ACAD_REACTORS
330
4D7
102
}
330
4D7
100
AcDbXrecord
280
     1
102
RTVSPost2010Prop28
280
     1
102
RTVSPost2010PropOp28
 70
     1
102
RTVSPost2010Prop29
280
     1
102
RTVSPost2010PropOp29
 70
     1
102
RTVSPost2010Prop30
280
     0
102
RTVSPost2010PropOp30
 70
     1
102
RTVSPost2010Prop31
280
     0
102
RTVSPost2010PropOp31
 70
     1
102
RTVSPost2010Prop32
280
     0
102
RTVSPost2010PropOp32
 70
     1
102
RTVSPost2010Prop33
280
     0
102
RTVSPost2010PropOp33
 70
     1
102
RTVSPost2010Prop34
280
     0
102
RTVSPost2010PropOp34
 70
     1
102
RTVSPost2010Prop35
280
     0
102
RTVSPost2010PropOp35
 70
     1
102
RTVSPost2010Prop36
280
     0
102
RTVSPost2010PropOp36
 70
     1
102
RTVSPost2010Prop37
 90
       50
102
RTVSPost2010PropOp37
 70
     1
102
RTVSPost2010Prop38
140
0.0
102
RTVSPost2010PropOp38
 70
     1
102
RTVSPost2010Prop39
140
1.0
102
RTVSPost2010PropOp39
 70
     1
102
RTVSPost2010Prop40
 90
        0
102
RTVSPost2010PropOp40
 70
     1
102
RTVSPost2010Prop41ColorIndex
 90
       18
102
RTVSPost2010Prop41ColorRGB
 90
        0
102
RTVSPost2010PropOp41
 70
     1
102
RTVSPost2010Prop42
 90
       50
102
RTVSPost2010PropOp42
 70
     1
102
RTVSPost2010Prop43
 90
        3
102
RTVSPost2010PropOp43
 70
     1
102
RTVSPost2010Prop44ColorIndex
 90
        5
102
RTVSPost2010Prop44ColorRGB
 90
      255
102
RTVSPost2010PropOp44
 70
     1
102
RTVSPost2010Prop45
280
     0
102
RTVSPost2010PropOp45
 70
     1
102
RTVSPost2010Prop46
 90
       50
102
RTVSPost2010PropOp46
 70
     1
102
RTVSPost2010Prop47
 90
       50
102
RTVSPost2010PropOp47
 70
     1
102
RTVSPost2010Prop48
 90
       50
102
RTVSPost2010PropOp48
 70
     1
102
RTVSPost2010Prop49
280
     0
102
RTVSPost2010PropOp49
 70
     1
102
RTVSPost2010Prop50
 90
       50
102
RTVSPost2010PropOp50
 70
     1
102
RTVSPost2010Prop51ColorIndex
 90
      256
102
RTVSPost2010Prop51ColorRGB
 90
-16777216
102
RTVSPost2010PropOp51
 70
     0
102
RTVSPost2010Prop52
140
1.0
102
RTVSPost2010PropOp52
 70
     0
102
RTVSPost2010Prop53
 90
        2
102
RTVSPost2010PropOp53
 70
     1
102
RTVSPost2010Prop54
  1
strokes_ogs.tif
102
RTVSPost2010PropOp54
 70
     1
102
RTVSPost2010Prop55
280
     0
102
RTVSPost2010PropOp55
 70
     1
102
RTVSPost2010Prop56
140
1.0
102
RTVSPost2010PropOp56
 70
     1
102
RTVSPost2010Prop57
140
1.0
102
RTVSPost2010PropOp57
 70
     1
  0
XRECORD
  5
4DC
102
{ACAD_REACTORS
330
4DB
102
}
330
4DB
100
AcDbXrecord
280
     1
102
RTVSPost2010Prop28
280
     0
102
RTVSPost2010PropOp28
 70
     1
102
RTVSPost2010Prop29
280
     1
102
RTVSPost2010PropOp29
 70
     1
102
RTVSPost2010Prop30
280
     1
102
RTVSPost2010PropOp30
 70
     1
102
RTVSPost2010Prop31
280
     0
102
RTVSPost2010PropOp31
 70
     1
102
RTVSPost2010Prop32
280
     0
102
RTVSPost2010PropOp32
 70
     1
102
RTVSPost2010Prop33
280
     0
102
RTVSPost2010PropOp33
 70
     1
102
RTVSPost2010Prop34
280
     0
102
RTVSPost2010PropOp34
 70
     1
102
RTVSPost2010Prop35
280
     0
102
RTVSPost2010PropOp35
 70
     1
102
RTVSPost2010Prop36
280
     0
102
RTVSPost2010PropOp36
 70
     1
102
RTVSPost2010Prop37
 90
       50
102
RTVSPost2010PropOp37
 70
     1
102
RTVSPost2010Prop38
140
0.0
102
RTVSPost2010PropOp38
 70
     1
102
RTVSPost2010Prop39
140
1.0
102
RTVSPost2010PropOp39
 70
     1
102
RTVSPost2010Prop40
 90
        0
102
RTVSPost2010PropOp40
 70
     1
102
RTVSPost2010Prop41ColorIndex
 90
       18
102
RTVSPost2010Prop41ColorRGB
 90
        0
102
RTVSPost2010PropOp41
 70
     1
102
RTVSPost2010Prop42
 90
       50
102
RTVSPost2010PropOp42
 70
     1
102
RTVSPost2010Prop43
 90
        3
102
RTVSPost2010PropOp43
 70
     1
102
RTVSPost2010Prop44ColorIndex
 90
        5
102
RTVSPost2010Prop44ColorRGB
 90
      255
102
RTVSPost2010PropOp44
 70
     1
102
RTVSPost2010Prop45
280
     0
102
RTVSPost2010PropOp45
 70
     1
102
RTVSPost2010Prop46
 90
       50
102
RTVSPost2010PropOp46
 70
     1
102
RTVSPost2010Prop47
 90
       50
102
RTVSPost2010PropOp47
 70
     1
102
RTVSPost2010Prop48
 90
       50
102
RTVSPost2010PropOp48
 70
     1
102
RTVSPost2010Prop49
280
     0
102
RTVSPost2010PropOp49
 70
     1
102
RTVSPost2010Prop50
 90
       50
102
RTVSPost2010PropOp50
 70
     1
102
RTVSPost2010Prop51ColorIndex
 90
      256
102
RTVSPost2010Prop51ColorRGB
 90
-16777216
102
RTVSPost2010PropOp51
 70
     0
102
RTVSPost2010Prop52
140
1.0
102
RTVSPost2010PropOp52
 70
     0
102
RTVSPost2010Prop53
 90
        2
102
RTVSPost2010PropOp53
 70
     1
102
RTVSPost2010Prop54
  1
strokes_ogs.tif
102
RTVSPost2010PropOp54
 70
     1
102
RTVSPost2010Prop55
280
     0
102
RTVSPost2010PropOp55
 70
     1
102
RTVSPost2010Prop56
140
1.0
102
RTVSPost2010PropOp56
 70
     1
102
RTVSPost2010Prop57
140
1.0
102
RTVSPost2010PropOp57
 70
     1
  0
XRECORD
  5
4DA
102
{ACAD_REACTORS
330
4D9
102
}
330
4D9
100
AcDbXrecord
280
     1
102
RTVSPost2010Prop28
280
     0
102
RTVSPost2010PropOp28
 70
     1
102
RTVSPost2010Prop29
280
     1
102
RTVSPost2010PropOp29
 70
     1
102
RTVSPost2010Prop30
280
     1
102
RTVSPost2010PropOp30
 70
     1
102
RTVSPost2010Prop31
280
     0
102
RTVSPost2010PropOp31
 70
     1
102
RTVSPost2010Prop32
280
     0
102
RTVSPost2010PropOp32
 70
     1
102
RTVSPost2010Prop33
280
     0
102
RTVSPost2010PropOp33
 70
     1
102
RTVSPost2010Prop34
280
     0
102
RTVSPost2010PropOp34
 70
     1
102
RTVSPost2010Prop35
280
     0
102
RTVSPost2010PropOp35
 70
     1
102
RTVSPost2010Prop36
280
     0
102
RTVSPost2010PropOp36
 70
     1
102
RTVSPost2010Prop37
 90
       50
102
RTVSPost2010PropOp37
 70
     1
102
RTVSPost2010Prop38
140
0.0
102
RTVSPost2010PropOp38
 70
     1
102
RTVSPost2010Prop39
140
1.0
102
RTVSPost2010PropOp39
 70
     1
102
RTVSPost2010Prop40
 90
        0
102
RTVSPost2010PropOp40
 70
     1
102
RTVSPost2010Prop41ColorIndex
 90
       18
102
RTVSPost2010Prop41ColorRGB
 90
        0
102
RTVSPost2010PropOp41
 70
     1
102
RTVSPost2010Prop42
 90
       50
102
RTVSPost2010PropOp42
 70
     1
102
RTVSPost2010Prop43
 90
        3
102
RTVSPost2010PropOp43
 70
     1
102
RTVSPost2010Prop44ColorIndex
 90
        5
102
RTVSPost2010Prop44ColorRGB
 90
      255
102
RTVSPost2010PropOp44
 70
     1
102
RTVSPost2010Prop45
280
     0
102
RTVSPost2010PropOp45
 70
     1
102
RTVSPost2010Prop46
 90
       50
102
RTVSPost2010PropOp46
 70
     1
102
RTVSPost2010Prop47
 90
       50
102
RTVSPost2010PropOp47
 70
     1
102
RTVSPost2010Prop48
 90
       50
102
RTVSPost2010PropOp48
 70
     1
102
RTVSPost2010Prop49
280
     0
102
RTVSPost2010PropOp49
 70
     1
102
RTVSPost2010Prop50
 90
       50
102
RTVSPost2010PropOp50
 70
     1
102
RTVSPost2010Prop51ColorIndex
 90
      256
102
RTVSPost2010Prop51ColorRGB
 90
-16777216
102
RTVSPost2010PropOp51
 70
     0
102
RTVSPost2010Prop52
140
1.0
102
RTVSPost2010PropOp52
 70
     0
102
RTVSPost2010Prop53
 90
        2
102
RTVSPost2010PropOp53
 70
     1
102
RTVSPost2010Prop54
  1
strokes_ogs.tif
102
RTVSPost2010PropOp54
 70
     1
102
RTVSPost2010Prop55
280
     0
102
RTVSPost2010PropOp55
 70
     1
102
RTVSPost2010Prop56
140
1.0
102
RTVSPost2010PropOp56
 70
     1
102
RTVSPost2010Prop57
140
1.0
102
RTVSPost2010PropOp57
 70
     1
  0
XRECORD
  5
4DE
102
{ACAD_REACTORS
330
4DD
102
}
330
4DD
100
AcDbXrecord
280
     1
102
RTVSPost2010Prop28
280
     0
102
RTVSPost2010PropOp28
 70
     1
102
RTVSPost2010Prop29
280
     1
102
RTVSPost2010PropOp29
 70
     1
102
RTVSPost2010Prop30
280
     1
102
RTVSPost2010PropOp30
 70
     1
102
RTVSPost2010Prop31
280
     0
102
RTVSPost2010PropOp31
 70
     1
102
RTVSPost2010Prop32
280
     0
102
RTVSPost2010PropOp32
 70
     1
102
RTVSPost2010Prop33
280
     0
102
RTVSPost2010PropOp33
 70
     1
102
RTVSPost2010Prop34
280
     0
102
RTVSPost2010PropOp34
 70
     1
102
RTVSPost2010Prop35
280
     0
102
RTVSPost2010PropOp35
 70
     1
102
RTVSPost2010Prop36
280
     0
102
RTVSPost2010PropOp36
 70
     1
102
RTVSPost2010Prop37
 90
       50
102
RTVSPost2010PropOp37
 70
     1
102
RTVSPost2010Prop38
140
0.0
102
RTVSPost2010PropOp38
 70
     1
102
RTVSPost2010Prop39
140
1.0
102
RTVSPost2010PropOp39
 70
     1
102
RTVSPost2010Prop40
 90
        0
102
RTVSPost2010PropOp40
 70
     1
102
RTVSPost2010Prop41ColorIndex
 90
       18
102
RTVSPost2010Prop41ColorRGB
 90
        0
102
RTVSPost2010PropOp41
 70
     1
102
RTVSPost2010Prop42
 90
       50
102
RTVSPost2010PropOp42
 70
     1
102
RTVSPost2010Prop43
 90
        3
102
RTVSPost2010PropOp43
 70
     1
102
RTVSPost2010Prop44ColorIndex
 90
        5
102
RTVSPost2010Prop44ColorRGB
 90
      255
102
RTVSPost2010PropOp44
 70
     1
102
RTVSPost2010Prop45
280
     0
102
RTVSPost2010PropOp45
 70
     1
102
RTVSPost2010Prop46
 90
       50
102
RTVSPost2010PropOp46
 70
     1
102
RTVSPost2010Prop47
 90
       50
102
RTVSPost2010PropOp47
 70
     1
102
RTVSPost2010Prop48
 90
       50
102
RTVSPost2010PropOp48
 70
     1
102
RTVSPost2010Prop49
280
     0
102
RTVSPost2010PropOp49
 70
     1
102
RTVSPost2010Prop50
 90
       50
102
RTVSPost2010PropOp50
 70
     1
102
RTVSPost2010Prop51ColorIndex
 90
      256
102
RTVSPost2010Prop51ColorRGB
 90
-16777216
102
RTVSPost2010PropOp51
 70
     0
102
RTVSPost2010Prop52
140
1.0
102
RTVSPost2010PropOp52
 70
     0
102
RTVSPost2010Prop53
 90
        2
102
RTVSPost2010PropOp53
 70
     1
102
RTVSPost2010Prop54
  1
strokes_ogs.tif
102
RTVSPost2010PropOp54
 70
     1
102
RTVSPost2010Prop55
280
     0
102
RTVSPost2010PropOp55
 70
     1
102
RTVSPost2010Prop56
140
1.0
102
RTVSPost2010PropOp56
 70
     1
102
RTVSPost2010Prop57
140
1.0
102
RTVSPost2010PropOp57
 70
     1
  0
XRECORD
  5
4E6
102
{ACAD_REACTORS
330
4E5
102
}
330
4E5
100
AcDbXrecord
280
     1
102
RTVSPost2010Prop28
280
     0
102
RTVSPost2010PropOp28
 70
     1
102
RTVSPost2010Prop29
280
     1
102
RTVSPost2010PropOp29
 70
     1
102
RTVSPost2010Prop30
280
     1
102
RTVSPost2010PropOp30
 70
     1
102
RTVSPost2010Prop31
280
     0
102
RTVSPost2010PropOp31
 70
     1
102
RTVSPost2010Prop32
280
     0
102
RTVSPost2010PropOp32
 70
     1
102
RTVSPost2010Prop33
280
     0
102
RTVSPost2010PropOp33
 70
     1
102
RTVSPost2010Prop34
280
     0
102
RTVSPost2010PropOp34
 70
     1
102
RTVSPost2010Prop35
280
     0
102
RTVSPost2010PropOp35
 70
     1
102
RTVSPost2010Prop36
280
     0
102
RTVSPost2010PropOp36
 70
     1
102
RTVSPost2010Prop37
 90
       50
102
RTVSPost2010PropOp37
 70
     1
102
RTVSPost2010Prop38
140
0.0
102
RTVSPost2010PropOp38
 70
     1
102
RTVSPost2010Prop39
140
1.0
102
RTVSPost2010PropOp39
 70
     1
102
RTVSPost2010Prop40
 90
        0
102
RTVSPost2010PropOp40
 70
     1
102
RTVSPost2010Prop41ColorIndex
 90
       18
102
RTVSPost2010Prop41ColorRGB
 90
        0
102
RTVSPost2010PropOp41
 70
     1
102
RTVSPost2010Prop42
 90
       50
102
RTVSPost2010PropOp42
 70
     1
102
RTVSPost2010Prop43
 90
        3
102
RTVSPost2010PropOp43
 70
     1
102
RTVSPost2010Prop44ColorIndex
 90
        5
102
RTVSPost2010Prop44ColorRGB
 90
      255
102
RTVSPost2010PropOp44
 70
     1
102
RTVSPost2010Prop45
280
     0
102
RTVSPost2010PropOp45
 70
     1
102
RTVSPost2010Prop46
 90
       50
102
RTVSPost2010PropOp46
 70
     1
102
RTVSPost2010Prop47
 90
       50
102
RTVSPost2010PropOp47
 70
     1
102
RTVSPost2010Prop48
 90
       50
102
RTVSPost2010PropOp48
 70
     1
102
RTVSPost2010Prop49
280
     0
102
RTVSPost2010PropOp49
 70
     1
102
RTVSPost2010Prop50
 90
       50
102
RTVSPost2010PropOp50
 70
     1
102
RTVSPost2010Prop51ColorIndex
 90
      256
102
RTVSPost2010Prop51ColorRGB
 90
-16777216
102
RTVSPost2010PropOp51
 70
     0
102
RTVSPost2010Prop52
140
1.0
102
RTVSPost2010PropOp52
 70
     0
102
RTVSPost2010Prop53
 90
        2
102
RTVSPost2010PropOp53
 70
     1
102
RTVSPost2010Prop54
  1
strokes_ogs.tif
102
RTVSPost2010PropOp54
 70
     1
102
RTVSPost2010Prop55
280
     0
102
RTVSPost2010PropOp55
 70
     1
102
RTVSPost2010Prop56
140
1.0
102
RTVSPost2010PropOp56
 70
     1
102
RTVSPost2010Prop57
140
1.0
102
RTVSPost2010PropOp57
 70
     1
  0
XRECORD
  5
4EE
102
{ACAD_REACTORS
330
4ED
102
}
330
4ED
100
AcDbXrecord
280
     1
102
RTVSPost2010Prop28
280
     0
102
RTVSPost2010PropOp28
 70
     1
102
RTVSPost2010Prop29
280
     1
102
RTVSPost2010PropOp29
 70
     1
102
RTVSPost2010Prop30
280
     1
102
RTVSPost2010PropOp30
 70
     1
102
RTVSPost2010Prop31
280
     0
102
RTVSPost2010PropOp31
 70
     1
102
RTVSPost2010Prop32
280
     0
102
RTVSPost2010PropOp32
 70
     1
102
RTVSPost2010Prop33
280
     0
102
RTVSPost2010PropOp33
 70
     1
102
RTVSPost2010Prop34
280
     0
102
RTVSPost2010PropOp34
 70
     1
102
RTVSPost2010Prop35
280
     0
102
RTVSPost2010PropOp35
 70
     1
102
RTVSPost2010Prop36
280
     0
102
RTVSPost2010PropOp36
 70
     1
102
RTVSPost2010Prop37
 90
       50
102
RTVSPost2010PropOp37
 70
     1
102
RTVSPost2010Prop38
140
0.0
102
RTVSPost2010PropOp38
 70
     1
102
RTVSPost2010Prop39
140
1.0
102
RTVSPost2010PropOp39
 70
     1
102
RTVSPost2010Prop40
 90
        0
102
RTVSPost2010PropOp40
 70
     1
102
RTVSPost2010Prop41ColorIndex
 90
       18
102
RTVSPost2010Prop41ColorRGB
 90
        0
102
RTVSPost2010PropOp41
 70
     1
102
RTVSPost2010Prop42
 90
       50
102
RTVSPost2010PropOp42
 70
     1
102
RTVSPost2010Prop43
 90
        3
102
RTVSPost2010PropOp43
 70
     1
102
RTVSPost2010Prop44ColorIndex
 90
        5
102
RTVSPost2010Prop44ColorRGB
 90
      255
102
RTVSPost2010PropOp44
 70
     1
102
RTVSPost2010Prop45
280
     0
102
RTVSPost2010PropOp45
 70
     1
102
RTVSPost2010Prop46
 90
       50
102
RTVSPost2010PropOp46
 70
     1
102
RTVSPost2010Prop47
 90
       50
102
RTVSPost2010PropOp47
 70
     1
102
RTVSPost2010Prop48
 90
       50
102
RTVSPost2010PropOp48
 70
     1
102
RTVSPost2010Prop49
280
     0
102
RTVSPost2010PropOp49
 70
     1
102
RTVSPost2010Prop50
 90
       50
102
RTVSPost2010PropOp50
 70
     1
102
RTVSPost2010Prop51ColorIndex
 90
      256
102
RTVSPost2010Prop51ColorRGB
 90
-16777216
102
RTVSPost2010PropOp51
 70
     0
102
RTVSPost2010Prop52
140
1.0
102
RTVSPost2010PropOp52
 70
     0
102
RTVSPost2010Prop53
 90
        2
102
RTVSPost2010PropOp53
 70
     1
102
RTVSPost2010Prop54
  1
strokes_ogs.tif
102
RTVSPost2010PropOp54
 70
     1
102
RTVSPost2010Prop55
280
     0
102
RTVSPost2010PropOp55
 70
     1
102
RTVSPost2010Prop56
140
1.0
102
RTVSPost2010PropOp56
 70
     1
102
RTVSPost2010Prop57
140
1.0
102
RTVSPost2010PropOp57
 70
     1
  0
XRECORD
  5
4E2
102
{ACAD_REACTORS
330
4E1
102
}
330
4E1
100
AcDbXrecord
280
     1
102
RTVSPost2010Prop28
280
     0
102
RTVSPost2010PropOp28
 70
     1
102
RTVSPost2010Prop29
280
     1
102
RTVSPost2010PropOp29
 70
     1
102
RTVSPost2010Prop30
280
     1
102
RTVSPost2010PropOp30
 70
     1
102
RTVSPost2010Prop31
280
     0
102
RTVSPost2010PropOp31
 70
     1
102
RTVSPost2010Prop32
280
     0
102
RTVSPost2010PropOp32
 70
     1
102
RTVSPost2010Prop33
280
     0
102
RTVSPost2010PropOp33
 70
     1
102
RTVSPost2010Prop34
280
     0
102
RTVSPost2010PropOp34
 70
     1
102
RTVSPost2010Prop35
280
     0
102
RTVSPost2010PropOp35
 70
     1
102
RTVSPost2010Prop36
280
     0
102
RTVSPost2010PropOp36
 70
     1
102
RTVSPost2010Prop37
 90
       50
102
RTVSPost2010PropOp37
 70
     1
102
RTVSPost2010Prop38
140
0.0
102
RTVSPost2010PropOp38
 70
     1
102
RTVSPost2010Prop39
140
1.0
102
RTVSPost2010PropOp39
 70
     1
102
RTVSPost2010Prop40
 90
        0
102
RTVSPost2010PropOp40
 70
     1
102
RTVSPost2010Prop41ColorIndex
 90
       18
102
RTVSPost2010Prop41ColorRGB
 90
        0
102
RTVSPost2010PropOp41
 70
     1
102
RTVSPost2010Prop42
 90
       50
102
RTVSPost2010PropOp42
 70
     1
102
RTVSPost2010Prop43
 90
        3
102
RTVSPost2010PropOp43
 70
     1
102
RTVSPost2010Prop44ColorIndex
 90
        5
102
RTVSPost2010Prop44ColorRGB
 90
      255
102
RTVSPost2010PropOp44
 70
     1
102
RTVSPost2010Prop45
280
     0
102
RTVSPost2010PropOp45
 70
     1
102
RTVSPost2010Prop46
 90
       50
102
RTVSPost2010PropOp46
 70
     1
102
RTVSPost2010Prop47
 90
       50
102
RTVSPost2010PropOp47
 70
     1
102
RTVSPost2010Prop48
 90
       50
102
RTVSPost2010PropOp48
 70
     1
102
RTVSPost2010Prop49
280
     0
102
RTVSPost2010PropOp49
 70
     1
102
RTVSPost2010Prop50
 90
       50
102
RTVSPost2010PropOp50
 70
     1
102
RTVSPost2010Prop51ColorIndex
 90
      256
102
RTVSPost2010Prop51ColorRGB
 90
-16777216
102
RTVSPost2010PropOp51
 70
     0
102
RTVSPost2010Prop52
140
1.0
102
RTVSPost2010PropOp52
 70
     0
102
RTVSPost2010Prop53
 90
        2
102
RTVSPost2010PropOp53
 70
     1
102
RTVSPost2010Prop54
  1
strokes_ogs.tif
102
RTVSPost2010PropOp54
 70
     1
102
RTVSPost2010Prop55
280
     0
102
RTVSPost2010PropOp55
 70
     1
102
RTVSPost2010Prop56
140
1.0
102
RTVSPost2010PropOp56
 70
     1
102
RTVSPost2010Prop57
140
1.0
102
RTVSPost2010PropOp57
 70
     1
  0
XRECORD
  5
4E4
102
{ACAD_REACTORS
330
4E3
102
}
330
4E3
100
AcDbXrecord
280
     1
102
RTVSPost2010Prop28
280
     0
102
RTVSPost2010PropOp28
 70
     1
102
RTVSPost2010Prop29
280
     1
102
RTVSPost2010PropOp29
 70
     1
102
RTVSPost2010Prop30
280
     1
102
RTVSPost2010PropOp30
 70
     1
102
RTVSPost2010Prop31
280
     0
102
RTVSPost2010PropOp31
 70
     1
102
RTVSPost2010Prop32
280
     0
102
RTVSPost2010PropOp32
 70
     1
102
RTVSPost2010Prop33
280
     0
102
RTVSPost2010PropOp33
 70
     1
102
RTVSPost2010Prop34
280
     0
102
RTVSPost2010PropOp34
 70
     1
102
RTVSPost2010Prop35
280
     0
102
RTVSPost2010PropOp35
 70
     1
102
RTVSPost2010Prop36
280
     0
102
RTVSPost2010PropOp36
 70
     1
102
RTVSPost2010Prop37
 90
       50
102
RTVSPost2010PropOp37
 70
     1
102
RTVSPost2010Prop38
140
0.0
102
RTVSPost2010PropOp38
 70
     1
102
RTVSPost2010Prop39
140
1.0
102
RTVSPost2010PropOp39
 70
     1
102
RTVSPost2010Prop40
 90
        0
102
RTVSPost2010PropOp40
 70
     1
102
RTVSPost2010Prop41ColorIndex
 90
       18
102
RTVSPost2010Prop41ColorRGB
 90
        0
102
RTVSPost2010PropOp41
 70
     1
102
RTVSPost2010Prop42
 90
       50
102
RTVSPost2010PropOp42
 70
     1
102
RTVSPost2010Prop43
 90
        3
102
RTVSPost2010PropOp43
 70
     1
102
RTVSPost2010Prop44ColorIndex
 90
        5
102
RTVSPost2010Prop44ColorRGB
 90
      255
102
RTVSPost2010PropOp44
 70
     1
102
RTVSPost2010Prop45
280
     0
102
RTVSPost2010PropOp45
 70
     1
102
RTVSPost2010Prop46
 90
       50
102
RTVSPost2010PropOp46
 70
     1
102
RTVSPost2010Prop47
 90
       50
102
RTVSPost2010PropOp47
 70
     1
102
RTVSPost2010Prop48
 90
       50
102
RTVSPost2010PropOp48
 70
     1
102
RTVSPost2010Prop49
280
     0
102
RTVSPost2010PropOp49
 70
     1
102
RTVSPost2010Prop50
 90
       50
102
RTVSPost2010PropOp50
 70
     1
102
RTVSPost2010Prop51ColorIndex
 90
      256
102
RTVSPost2010Prop51ColorRGB
 90
-16777216
102
RTVSPost2010PropOp51
 70
     0
102
RTVSPost2010Prop52
140
1.0
102
RTVSPost2010PropOp52
 70
     0
102
RTVSPost2010Prop53
 90
        2
102
RTVSPost2010PropOp53
 70
     1
102
RTVSPost2010Prop54
  1
strokes_ogs.tif
102
RTVSPost2010PropOp54
 70
     1
102
RTVSPost2010Prop55
280
     0
102
RTVSPost2010PropOp55
 70
     1
102
RTVSPost2010Prop56
140
1.0
102
RTVSPost2010PropOp56
 70
     1
102
RTVSPost2010Prop57
140
1.0
102
RTVSPost2010PropOp57
 70
     1
  0
XRECORD
  5
502
102
{ACAD_REACTORS
330
501
102
}
330
501
100
AcDbXrecord
280
     1
102
RTVSPost2010Prop28
280
     0
102
RTVSPost2010PropOp28
 70
     0
102
RTVSPost2010Prop29
280
     1
102
RTVSPost2010PropOp29
 70
     0
102
RTVSPost2010Prop30
280
     1
102
RTVSPost2010PropOp30
 70
     0
102
RTVSPost2010Prop31
280
     0
102
RTVSPost2010PropOp31
 70
     0
102
RTVSPost2010Prop32
280
     0
102
RTVSPost2010PropOp32
 70
     0
102
RTVSPost2010Prop33
280
     0
102
RTVSPost2010PropOp33
 70
     0
102
RTVSPost2010Prop34
280
     0
102
RTVSPost2010PropOp34
 70
     0
102
RTVSPost2010Prop35
280
     0
102
RTVSPost2010PropOp35
 70
     0
102
RTVSPost2010Prop36
280
     0
102
RTVSPost2010PropOp36
 70
     0
102
RTVSPost2010Prop37
 90
       50
102
RTVSPost2010PropOp37
 70
     0
102
RTVSPost2010Prop38
140
0.0
102
RTVSPost2010PropOp38
 70
     0
102
RTVSPost2010Prop39
140
1.0
102
RTVSPost2010PropOp39
 70
     0
102
RTVSPost2010Prop40
 90
        0
102
RTVSPost2010PropOp40
 70
     0
102
RTVSPost2010Prop41ColorIndex
 90
       18
102
RTVSPost2010Prop41ColorRGB
 90
        0
102
RTVSPost2010PropOp41
 70
     0
102
RTVSPost2010Prop42
 90
       50
102
RTVSPost2010PropOp42
 70
     0
102
RTVSPost2010Prop43
 90
        3
102
RTVSPost2010PropOp43
 70
     0
102
RTVSPost2010Prop44ColorIndex
 90
        5
102
RTVSPost2010Prop44ColorRGB
 90
      255
102
RTVSPost2010PropOp44
 70
     0
102
RTVSPost2010Prop45
280
     0
102
RTVSPost2010PropOp45
 70
     0
102
RTVSPost2010Prop46
 90
       50
102
RTVSPost2010PropOp46
 70
     0
102
RTVSPost2010Prop47
 90
       50
102
RTVSPost2010PropOp47
 70
     0
102
RTVSPost2010Prop48
 90
       50
102
RTVSPost2010PropOp48
 70
     0
102
RTVSPost2010Prop49
280
     0
102
RTVSPost2010PropOp49
 70
     0
102
RTVSPost2010Prop50
 90
       50
102
RTVSPost2010PropOp50
 70
     0
102
RTVSPost2010Prop51ColorIndex
 90
      256
102
RTVSPost2010Prop51ColorRGB
 90
-16777216
102
RTVSPost2010PropOp51
 70
     0
102
RTVSPost2010Prop52
140
1.0
102
RTVSPost2010PropOp52
 70
     0
102
RTVSPost2010Prop53
 90
        2
102
RTVSPost2010PropOp53
 70
     0
102
RTVSPost2010Prop54
  1
strokes_ogs.tif
102
RTVSPost2010PropOp54
 70
     0
102
RTVSPost2010Prop55
280
     0
102
RTVSPost2010PropOp55
 70
     0
102
RTVSPost2010Prop56
140
1.0
102
RTVSPost2010PropOp56
 70
     0
102
RTVSPost2010Prop57
140
1.0
102
RTVSPost2010PropOp57
 70
     0
  0
XRECORD
  5
4EC
102
{ACAD_REACTORS
330
4EB
102
}
330
4EB
100
AcDbXrecord
280
     1
102
RTVSPost2010Prop28
280
     0
102
RTVSPost2010PropOp28
 70
     1
102
RTVSPost2010Prop29
280
     1
102
RTVSPost2010PropOp29
 70
     1
102
RTVSPost2010Prop30
280
     1
102
RTVSPost2010PropOp30
 70
     1
102
RTVSPost2010Prop31
280
     0
102
RTVSPost2010PropOp31
 70
     1
102
RTVSPost2010Prop32
280
     0
102
RTVSPost2010PropOp32
 70
     1
102
RTVSPost2010Prop33
280
     0
102
RTVSPost2010PropOp33
 70
     1
102
RTVSPost2010Prop34
280
     0
102
RTVSPost2010PropOp34
 70
     1
102
RTVSPost2010Prop35
280
     0
102
RTVSPost2010PropOp35
 70
     1
102
RTVSPost2010Prop36
280
     0
102
RTVSPost2010PropOp36
 70
     1
102
RTVSPost2010Prop37
 90
       50
102
RTVSPost2010PropOp37
 70
     1
102
RTVSPost2010Prop38
140
0.0
102
RTVSPost2010PropOp38
 70
     1
102
RTVSPost2010Prop39
140
1.0
102
RTVSPost2010PropOp39
 70
     1
102
RTVSPost2010Prop40
 90
        0
102
RTVSPost2010PropOp40
 70
     1
102
RTVSPost2010Prop41ColorIndex
 90
       18
102
RTVSPost2010Prop41ColorRGB
 90
        0
102
RTVSPost2010PropOp41
 70
     1
102
RTVSPost2010Prop42
 90
       50
102
RTVSPost2010PropOp42
 70
     1
102
RTVSPost2010Prop43
 90
        3
102
RTVSPost2010PropOp43
 70
     1
102
RTVSPost2010Prop44ColorIndex
 90
        5
102
RTVSPost2010Prop44ColorRGB
 90
      255
102
RTVSPost2010PropOp44
 70
     1
102
RTVSPost2010Prop45
280
     0
102
RTVSPost2010PropOp45
 70
     1
102
RTVSPost2010Prop46
 90
       50
102
RTVSPost2010PropOp46
 70
     1
102
RTVSPost2010Prop47
 90
       50
102
RTVSPost2010PropOp47
 70
     1
102
RTVSPost2010Prop48
 90
       50
102
RTVSPost2010PropOp48
 70
     1
102
RTVSPost2010Prop49
280
     0
102
RTVSPost2010PropOp49
 70
     1
102
RTVSPost2010Prop50
 90
       50
102
RTVSPost2010PropOp50
 70
     1
102
RTVSPost2010Prop51ColorIndex
 90
      256
102
RTVSPost2010Prop51ColorRGB
 90
-16777216
102
RTVSPost2010PropOp51
 70
     0
102
RTVSPost2010Prop52
140
1.0
102
RTVSPost2010PropOp52
 70
     0
102
RTVSPost2010Prop53
 90
        2
102
RTVSPost2010PropOp53
 70
     1
102
RTVSPost2010Prop54
  1
strokes_ogs.tif
102
RTVSPost2010PropOp54
 70
     1
102
RTVSPost2010Prop55
280
     0
102
RTVSPost2010PropOp55
 70
     1
102
RTVSPost2010Prop56
140
1.0
102
RTVSPost2010PropOp56
 70
     1
102
RTVSPost2010Prop57
140
1.0
102
RTVSPost2010PropOp57
 70
     1
  0
XRECORD
  5
4D0
102
{ACAD_REACTORS
330
4CF
102
}
330
4CF
100
AcDbXrecord
280
     1
102
RTVSPost2010Prop28
280
     0
102
RTVSPost2010PropOp28
 70
     1
102
RTVSPost2010Prop29
280
     1
102
RTVSPost2010PropOp29
 70
     1
102
RTVSPost2010Prop30
280
     1
102
RTVSPost2010PropOp30
 70
     1
102
RTVSPost2010Prop31
280
     0
102
RTVSPost2010PropOp31
 70
     1
102
RTVSPost2010Prop32
280
     0
102
RTVSPost2010PropOp32
 70
     1
102
RTVSPost2010Prop33
280
     0
102
RTVSPost2010PropOp33
 70
     1
102
RTVSPost2010Prop34
280
     0
102
RTVSPost2010PropOp34
 70
     1
102
RTVSPost2010Prop35
280
     0
102
RTVSPost2010PropOp35
 70
     1
102
RTVSPost2010Prop36
280
     0
102
RTVSPost2010PropOp36
 70
     1
102
RTVSPost2010Prop37
 90
       50
102
RTVSPost2010PropOp37
 70
     1
102
RTVSPost2010Prop38
140
0.0
102
RTVSPost2010PropOp38
 70
     1
102
RTVSPost2010Prop39
140
1.0
102
RTVSPost2010PropOp39
 70
     1
102
RTVSPost2010Prop40
 90
        0
102
RTVSPost2010PropOp40
 70
     1
102
RTVSPost2010Prop41ColorIndex
 90
       18
102
RTVSPost2010Prop41ColorRGB
 90
        0
102
RTVSPost2010PropOp41
 70
     1
102
RTVSPost2010Prop42
 90
       50
102
RTVSPost2010PropOp42
 70
     1
102
RTVSPost2010Prop43
 90
        3
102
RTVSPost2010PropOp43
 70
     1
102
RTVSPost2010Prop44ColorIndex
 90
        5
102
RTVSPost2010Prop44ColorRGB
 90
      255
102
RTVSPost2010PropOp44
 70
     1
102
RTVSPost2010Prop45
280
     0
102
RTVSPost2010PropOp45
 70
     1
102
RTVSPost2010Prop46
 90
       50
102
RTVSPost2010PropOp46
 70
     1
102
RTVSPost2010Prop47
 90
       50
102
RTVSPost2010PropOp47
 70
     1
102
RTVSPost2010Prop48
 90
       50
102
RTVSPost2010PropOp48
 70
     1
102
RTVSPost2010Prop49
280
     0
102
RTVSPost2010PropOp49
 70
     1
102
RTVSPost2010Prop50
 90
       50
102
RTVSPost2010PropOp50
 70
     1
102
RTVSPost2010Prop51ColorIndex
 90
      256
102
RTVSPost2010Prop51ColorRGB
 90
-16777216
102
RTVSPost2010PropOp51
 70
     0
102
RTVSPost2010Prop52
140
1.0
102
RTVSPost2010PropOp52
 70
     0
102
RTVSPost2010Prop53
 90
        2
102
RTVSPost2010PropOp53
 70
     1
102
RTVSPost2010Prop54
  1
strokes_ogs.tif
102
RTVSPost2010PropOp54
 70
     1
102
RTVSPost2010Prop55
280
     0
102
RTVSPost2010PropOp55
 70
     1
102
RTVSPost2010Prop56
140
1.0
102
RTVSPost2010PropOp56
 70
     1
102
RTVSPost2010Prop57
140
1.0
102
RTVSPost2010PropOp57
 70
     1
  0
XRECORD
  5
4D2
102
{ACAD_REACTORS
330
4D1
102
}
330
4D1
100
AcDbXrecord
280
     1
102
RTVSPost2010Prop28
280
     0
102
RTVSPost2010PropOp28
 70
     1
102
RTVSPost2010Prop29
280
     1
102
RTVSPost2010PropOp29
 70
     1
102
RTVSPost2010Prop30
280
     1
102
RTVSPost2010PropOp30
 70
     1
102
RTVSPost2010Prop31
280
     0
102
RTVSPost2010PropOp31
 70
     1
102
RTVSPost2010Prop32
280
     0
102
RTVSPost2010PropOp32
 70
     1
102
RTVSPost2010Prop33
280
     0
102
RTVSPost2010PropOp33
 70
     1
102
RTVSPost2010Prop34
280
     0
102
RTVSPost2010PropOp34
 70
     1
102
RTVSPost2010Prop35
280
     0
102
RTVSPost2010PropOp35
 70
     1
102
RTVSPost2010Prop36
280
     0
102
RTVSPost2010PropOp36
 70
     1
102
RTVSPost2010Prop37
 90
       50
102
RTVSPost2010PropOp37
 70
     1
102
RTVSPost2010Prop38
140
0.0
102
RTVSPost2010PropOp38
 70
     1
102
RTVSPost2010Prop39
140
1.0
102
RTVSPost2010PropOp39
 70
     1
102
RTVSPost2010Prop40
 90
        0
102
RTVSPost2010PropOp40
 70
     1
102
RTVSPost2010Prop41ColorIndex
 90
       18
102
RTVSPost2010Prop41ColorRGB
 90
        0
102
RTVSPost2010PropOp41
 70
     1
102
RTVSPost2010Prop42
 90
       50
102
RTVSPost2010PropOp42
 70
     1
102
RTVSPost2010Prop43
 90
        3
102
RTVSPost2010PropOp43
 70
     1
102
RTVSPost2010Prop44ColorIndex
 90
        5
102
RTVSPost2010Prop44ColorRGB
 90
      255
102
RTVSPost2010PropOp44
 70
     1
102
RTVSPost2010Prop45
280
     0
102
RTVSPost2010PropOp45
 70
     1
102
RTVSPost2010Prop46
 90
       50
102
RTVSPost2010PropOp46
 70
     1
102
RTVSPost2010Prop47
 90
       50
102
RTVSPost2010PropOp47
 70
     1
102
RTVSPost2010Prop48
 90
       50
102
RTVSPost2010PropOp48
 70
     1
102
RTVSPost2010Prop49
280
     0
102
RTVSPost2010PropOp49
 70
     1
102
RTVSPost2010Prop50
 90
       50
102
RTVSPost2010PropOp50
 70
     1
102
RTVSPost2010Prop51ColorIndex
 90
      256
102
RTVSPost2010Prop51ColorRGB
 90
-16777216
102
RTVSPost2010PropOp51
 70
     0
102
RTVSPost2010Prop52
140
1.0
102
RTVSPost2010PropOp52
 70
     0
102
RTVSPost2010Prop53
 90
        2
102
RTVSPost2010PropOp53
 70
     1
102
RTVSPost2010Prop54
  1
strokes_ogs.tif
102
RTVSPost2010PropOp54
 70
     1
102
RTVSPost2010Prop55
280
     0
102
RTVSPost2010PropOp55
 70
     1
102
RTVSPost2010Prop56
140
1.0
102
RTVSPost2010PropOp56
 70
     1
102
RTVSPost2010Prop57
140
1.0
102
RTVSPost2010PropOp57
 70
     1
  0
XRECORD
  5
4D4
102
{ACAD_REACTORS
330
4D3
102
}
330
4D3
100
AcDbXrecord
280
     1
102
RTVSPost2010Prop28
280
     0
102
RTVSPost2010PropOp28
 70
     1
102
RTVSPost2010Prop29
280
     1
102
RTVSPost2010PropOp29
 70
     1
102
RTVSPost2010Prop30
280
     1
102
RTVSPost2010PropOp30
 70
     1
102
RTVSPost2010Prop31
280
     0
102
RTVSPost2010PropOp31
 70
     1
102
RTVSPost2010Prop32
280
     0
102
RTVSPost2010PropOp32
 70
     1
102
RTVSPost2010Prop33
280
     0
102
RTVSPost2010PropOp33
 70
     1
102
RTVSPost2010Prop34
280
     0
102
RTVSPost2010PropOp34
 70
     1
102
RTVSPost2010Prop35
280
     0
102
RTVSPost2010PropOp35
 70
     1
102
RTVSPost2010Prop36
280
     0
102
RTVSPost2010PropOp36
 70
     1
102
RTVSPost2010Prop37
 90
       50
102
RTVSPost2010PropOp37
 70
     1
102
RTVSPost2010Prop38
140
0.0
102
RTVSPost2010PropOp38
 70
     1
102
RTVSPost2010Prop39
140
1.0
102
RTVSPost2010PropOp39
 70
     1
102
RTVSPost2010Prop40
 90
        0
102
RTVSPost2010PropOp40
 70
     1
102
RTVSPost2010Prop41ColorIndex
 90
       18
102
RTVSPost2010Prop41ColorRGB
 90
        0
102
RTVSPost2010PropOp41
 70
     1
102
RTVSPost2010Prop42
 90
       50
102
RTVSPost2010PropOp42
 70
     1
102
RTVSPost2010Prop43
 90
        3
102
RTVSPost2010PropOp43
 70
     1
102
RTVSPost2010Prop44ColorIndex
 90
        5
102
RTVSPost2010Prop44ColorRGB
 90
      255
102
RTVSPost2010PropOp44
 70
     1
102
RTVSPost2010Prop45
280
     0
102
RTVSPost2010PropOp45
 70
     1
102
RTVSPost2010Prop46
 90
       50
102
RTVSPost2010PropOp46
 70
     1
102
RTVSPost2010Prop47
 90
       50
102
RTVSPost2010PropOp47
 70
     1
102
RTVSPost2010Prop48
 90
       50
102
RTVSPost2010PropOp48
 70
     1
102
RTVSPost2010Prop49
280
     0
102
RTVSPost2010PropOp49
 70
     1
102
RTVSPost2010Prop50
 90
       50
102
RTVSPost2010PropOp50
 70
     1
102
RTVSPost2010Prop51ColorIndex
 90
      256
102
RTVSPost2010Prop51ColorRGB
 90
-16777216
102
RTVSPost2010PropOp51
 70
     0
102
RTVSPost2010Prop52
140
1.0
102
RTVSPost2010PropOp52
 70
     0
102
RTVSPost2010Prop53
 90
        2
102
RTVSPost2010PropOp53
 70
     1
102
RTVSPost2010Prop54
  1
strokes_ogs.tif
102
RTVSPost2010PropOp54
 70
     1
102
RTVSPost2010Prop55
280
     0
102
RTVSPost2010PropOp55
 70
     1
102
RTVSPost2010Prop56
140
1.0
102
RTVSPost2010PropOp56
 70
     1
102
RTVSPost2010Prop57
140
1.0
102
RTVSPost2010PropOp57
 70
     1
  0
XRECORD
  5
4D6
102
{ACAD_REACTORS
330
4D5
102
}
330
4D5
100
AcDbXrecord
280
     1
102
RTVSPost2010Prop28
280
     0
102
RTVSPost2010PropOp28
 70
     1
102
RTVSPost2010Prop29
280
     1
102
RTVSPost2010PropOp29
 70
     1
102
RTVSPost2010Prop30
280
     1
102
RTVSPost2010PropOp30
 70
     1
102
RTVSPost2010Prop31
280
     0
102
RTVSPost2010PropOp31
 70
     1
102
RTVSPost2010Prop32
280
     0
102
RTVSPost2010PropOp32
 70
     1
102
RTVSPost2010Prop33
280
     0
102
RTVSPost2010PropOp33
 70
     1
102
RTVSPost2010Prop34
280
     0
102
RTVSPost2010PropOp34
 70
     1
102
RTVSPost2010Prop35
280
     0
102
RTVSPost2010PropOp35
 70
     1
102
RTVSPost2010Prop36
280
     0
102
RTVSPost2010PropOp36
 70
     1
102
RTVSPost2010Prop37
 90
       50
102
RTVSPost2010PropOp37
 70
     1
102
RTVSPost2010Prop38
140
0.0
102
RTVSPost2010PropOp38
 70
     1
102
RTVSPost2010Prop39
140
1.0
102
RTVSPost2010PropOp39
 70
     1
102
RTVSPost2010Prop40
 90
        0
102
RTVSPost2010PropOp40
 70
     1
102
RTVSPost2010Prop41ColorIndex
 90
       18
102
RTVSPost2010Prop41ColorRGB
 90
        0
102
RTVSPost2010PropOp41
 70
     1
102
RTVSPost2010Prop42
 90
       50
102
RTVSPost2010PropOp42
 70
     1
102
RTVSPost2010Prop43
 90
        3
102
RTVSPost2010PropOp43
 70
     1
102
RTVSPost2010Prop44ColorIndex
 90
        5
102
RTVSPost2010Prop44ColorRGB
 90
      255
102
RTVSPost2010PropOp44
 70
     1
102
RTVSPost2010Prop45
280
     0
102
RTVSPost2010PropOp45
 70
     1
102
RTVSPost2010Prop46
 90
       50
102
RTVSPost2010PropOp46
 70
     1
102
RTVSPost2010Prop47
 90
       50
102
RTVSPost2010PropOp47
 70
     1
102
RTVSPost2010Prop48
 90
       50
102
RTVSPost2010PropOp48
 70
     1
102
RTVSPost2010Prop49
280
     0
102
RTVSPost2010PropOp49
 70
     1
102
RTVSPost2010Prop50
 90
       50
102
RTVSPost2010PropOp50
 70
     1
102
RTVSPost2010Prop51ColorIndex
 90
      256
102
RTVSPost2010Prop51ColorRGB
 90
-16777216
102
RTVSPost2010PropOp51
 70
     0
102
RTVSPost2010Prop52
140
1.0
102
RTVSPost2010PropOp52
 70
     0
102
RTVSPost2010Prop53
 90
        2
102
RTVSPost2010PropOp53
 70
     1
102
RTVSPost2010Prop54
  1
strokes_ogs.tif
102
RTVSPost2010PropOp54
 70
     1
102
RTVSPost2010Prop55
280
     0
102
RTVSPost2010PropOp55
 70
     1
102
RTVSPost2010Prop56
140
1.0
102
RTVSPost2010PropOp56
 70
     1
102
RTVSPost2010Prop57
140
1.0
102
RTVSPost2010PropOp57
 70
     1
  0
XRECORD
  5
4F2
102
{ACAD_REACTORS
330
4F1
102
}
330
4F1
100
AcDbXrecord
280
     1
102
RTVSPost2010Prop28
280
     0
102
RTVSPost2010PropOp28
 70
     1
102
RTVSPost2010Prop29
280
     1
102
RTVSPost2010PropOp29
 70
     1
102
RTVSPost2010Prop30
280
     1
102
RTVSPost2010PropOp30
 70
     1
102
RTVSPost2010Prop31
280
     0
102
RTVSPost2010PropOp31
 70
     1
102
RTVSPost2010Prop32
280
     0
102
RTVSPost2010PropOp32
 70
     1
102
RTVSPost2010Prop33
280
     0
102
RTVSPost2010PropOp33
 70
     1
102
RTVSPost2010Prop34
280
     0
102
RTVSPost2010PropOp34
 70
     1
102
RTVSPost2010Prop35
280
     0
102
RTVSPost2010PropOp35
 70
     1
102
RTVSPost2010Prop36
280
     0
102
RTVSPost2010PropOp36
 70
     1
102
RTVSPost2010Prop37
 90
       50
102
RTVSPost2010PropOp37
 70
     1
102
RTVSPost2010Prop38
140
0.0
102
RTVSPost2010PropOp38
 70
     1
102
RTVSPost2010Prop39
140
1.0
102
RTVSPost2010PropOp39
 70
     1
102
RTVSPost2010Prop40
 90
        0
102
RTVSPost2010PropOp40
 70
     1
102
RTVSPost2010Prop41ColorIndex
 90
       18
102
RTVSPost2010Prop41ColorRGB
 90
        0
102
RTVSPost2010PropOp41
 70
     1
102
RTVSPost2010Prop42
 90
       50
102
RTVSPost2010PropOp42
 70
     1
102
RTVSPost2010Prop43
 90
        3
102
RTVSPost2010PropOp43
 70
     1
102
RTVSPost2010Prop44ColorIndex
 90
        5
102
RTVSPost2010Prop44ColorRGB
 90
      255
102
RTVSPost2010PropOp44
 70
     1
102
RTVSPost2010Prop45
280
     0
102
RTVSPost2010PropOp45
 70
     1
102
RTVSPost2010Prop46
 90
       50
102
RTVSPost2010PropOp46
 70
     1
102
RTVSPost2010Prop47
 90
       50
102
RTVSPost2010PropOp47
 70
     1
102
RTVSPost2010Prop48
 90
       50
102
RTVSPost2010PropOp48
 70
     1
102
RTVSPost2010Prop49
280
     0
102
RTVSPost2010PropOp49
 70
     1
102
RTVSPost2010Prop50
 90
       50
102
RTVSPost2010PropOp50
 70
     1
102
RTVSPost2010Prop51ColorIndex
 90
      256
102
RTVSPost2010Prop51ColorRGB
 90
-16777216
102
RTVSPost2010PropOp51
 70
     0
102
RTVSPost2010Prop52
140
1.0
102
RTVSPost2010PropOp52
 70
     0
102
RTVSPost2010Prop53
 90
        2
102
RTVSPost2010PropOp53
 70
     1
102
RTVSPost2010Prop54
  1
strokes_ogs.tif
102
RTVSPost2010PropOp54
 70
     1
102
RTVSPost2010Prop55
280
     0
102
RTVSPost2010PropOp55
 70
     1
102
RTVSPost2010Prop56
140
1.0
102
RTVSPost2010PropOp56
 70
     1
102
RTVSPost2010Prop57
140
1.0
102
RTVSPost2010PropOp57
 70
     1
  0
XRECORD
  5
4FE
102
{ACAD_REACTORS
330
4FD
102
}
330
4FD
100
AcDbXrecord
280
     1
102
RTVSPost2010Prop28
280
     0
102
RTVSPost2010PropOp28
 70
     0
102
RTVSPost2010Prop29
280
     1
102
RTVSPost2010PropOp29
 70
     0
102
RTVSPost2010Prop30
280
     1
102
RTVSPost2010PropOp30
 70
     0
102
RTVSPost2010Prop31
280
     0
102
RTVSPost2010PropOp31
 70
     0
102
RTVSPost2010Prop32
280
     0
102
RTVSPost2010PropOp32
 70
     0
102
RTVSPost2010Prop33
280
     0
102
RTVSPost2010PropOp33
 70
     0
102
RTVSPost2010Prop34
280
     0
102
RTVSPost2010PropOp34
 70
     0
102
RTVSPost2010Prop35
280
     0
102
RTVSPost2010PropOp35
 70
     0
102
RTVSPost2010Prop36
280
     0
102
RTVSPost2010PropOp36
 70
     0
102
RTVSPost2010Prop37
 90
       50
102
RTVSPost2010PropOp37
 70
     0
102
RTVSPost2010Prop38
140
0.0
102
RTVSPost2010PropOp38
 70
     0
102
RTVSPost2010Prop39
140
1.0
102
RTVSPost2010PropOp39
 70
     0
102
RTVSPost2010Prop40
 90
        0
102
RTVSPost2010PropOp40
 70
     0
102
RTVSPost2010Prop41ColorIndex
 90
       18
102
RTVSPost2010Prop41ColorRGB
 90
        0
102
RTVSPost2010PropOp41
 70
     0
102
RTVSPost2010Prop42
 90
       50
102
RTVSPost2010PropOp42
 70
     0
102
RTVSPost2010Prop43
 90
        3
102
RTVSPost2010PropOp43
 70
     0
102
RTVSPost2010Prop44ColorIndex
 90
        5
102
RTVSPost2010Prop44ColorRGB
 90
      255
102
RTVSPost2010PropOp44
 70
     0
102
RTVSPost2010Prop45
280
     0
102
RTVSPost2010PropOp45
 70
     0
102
RTVSPost2010Prop46
 90
       50
102
RTVSPost2010PropOp46
 70
     0
102
RTVSPost2010Prop47
 90
       50
102
RTVSPost2010PropOp47
 70
     0
102
RTVSPost2010Prop48
 90
       50
102
RTVSPost2010PropOp48
 70
     0
102
RTVSPost2010Prop49
280
     0
102
RTVSPost2010PropOp49
 70
     0
102
RTVSPost2010Prop50
 90
       50
102
RTVSPost2010PropOp50
 70
     0
102
RTVSPost2010Prop51ColorIndex
 90
      256
102
RTVSPost2010Prop51ColorRGB
 90
-16777216
102
RTVSPost2010PropOp51
 70
     0
102
RTVSPost2010Prop52
140
1.0
102
RTVSPost2010PropOp52
 70
     0
102
RTVSPost2010Prop53
 90
        2
102
RTVSPost2010PropOp53
 70
     0
102
RTVSPost2010Prop54
  1
strokes_ogs.tif
102
RTVSPost2010PropOp54
 70
     0
102
RTVSPost2010Prop55
280
     0
102
RTVSPost2010PropOp55
 70
     0
102
RTVSPost2010Prop56
140
1.0
102
RTVSPost2010PropOp56
 70
     0
102
RTVSPost2010Prop57
140
1.0
102
RTVSPost2010PropOp57
 70
     0
  0
XRECORD
  5
4EA
102
{ACAD_REACTORS
330
4E9
102
}
330
4E9
100
AcDbXrecord
280
     1
102
RTVSPost2010Prop28
280
     0
102
RTVSPost2010PropOp28
 70
     1
102
RTVSPost2010Prop29
280
     1
102
RTVSPost2010PropOp29
 70
     1
102
RTVSPost2010Prop30
280
     1
102
RTVSPost2010PropOp30
 70
     1
102
RTVSPost2010Prop31
280
     0
102
RTVSPost2010PropOp31
 70
     1
102
RTVSPost2010Prop32
280
     0
102
RTVSPost2010PropOp32
 70
     1
102
RTVSPost2010Prop33
280
     0
102
RTVSPost2010PropOp33
 70
     1
102
RTVSPost2010Prop34
280
     0
102
RTVSPost2010PropOp34
 70
     1
102
RTVSPost2010Prop35
280
     0
102
RTVSPost2010PropOp35
 70
     1
102
RTVSPost2010Prop36
280
     0
102
RTVSPost2010PropOp36
 70
     1
102
RTVSPost2010Prop37
 90
       50
102
RTVSPost2010PropOp37
 70
     1
102
RTVSPost2010Prop38
140
0.0
102
RTVSPost2010PropOp38
 70
     1
102
RTVSPost2010Prop39
140
1.0
102
RTVSPost2010PropOp39
 70
     1
102
RTVSPost2010Prop40
 90
        0
102
RTVSPost2010PropOp40
 70
     1
102
RTVSPost2010Prop41ColorIndex
 90
       18
102
RTVSPost2010Prop41ColorRGB
 90
        0
102
RTVSPost2010PropOp41
 70
     1
102
RTVSPost2010Prop42
 90
       50
102
RTVSPost2010PropOp42
 70
     1
102
RTVSPost2010Prop43
 90
        3
102
RTVSPost2010PropOp43
 70
     1
102
RTVSPost2010Prop44ColorIndex
 90
        5
102
RTVSPost2010Prop44ColorRGB
 90
      255
102
RTVSPost2010PropOp44
 70
     1
102
RTVSPost2010Prop45
280
     0
102
RTVSPost2010PropOp45
 70
     1
102
RTVSPost2010Prop46
 90
       50
102
RTVSPost2010PropOp46
 70
     1
102
RTVSPost2010Prop47
 90
       50
102
RTVSPost2010PropOp47
 70
     1
102
RTVSPost2010Prop48
 90
       50
102
RTVSPost2010PropOp48
 70
     1
102
RTVSPost2010Prop49
280
     0
102
RTVSPost2010PropOp49
 70
     1
102
RTVSPost2010Prop50
 90
       50
102
RTVSPost2010PropOp50
 70
     1
102
RTVSPost2010Prop51ColorIndex
 90
      256
102
RTVSPost2010Prop51ColorRGB
 90
-16777216
102
RTVSPost2010PropOp51
 70
     0
102
RTVSPost2010Prop52
140
1.0
102
RTVSPost2010PropOp52
 70
     0
102
RTVSPost2010Prop53
 90
        2
102
RTVSPost2010PropOp53
 70
     1
102
RTVSPost2010Prop54
  1
strokes_ogs.tif
102
RTVSPost2010PropOp54
 70
     1
102
RTVSPost2010Prop55
280
     0
102
RTVSPost2010PropOp55
 70
     1
102
RTVSPost2010Prop56
140
1.0
102
RTVSPost2010PropOp56
 70
     1
102
RTVSPost2010Prop57
140
1.0
102
RTVSPost2010PropOp57
 70
     1
  0
XRECORD
  5
500
102
{ACAD_REACTORS
330
4FF
102
}
330
4FF
100
AcDbXrecord
280
     1
102
RTVSPost2010Prop28
280
     0
102
RTVSPost2010PropOp28
 70
     0
102
RTVSPost2010Prop29
280
     1
102
RTVSPost2010PropOp29
 70
     0
102
RTVSPost2010Prop30
280
     1
102
RTVSPost2010PropOp30
 70
     0
102
RTVSPost2010Prop31
280
     0
102
RTVSPost2010PropOp31
 70
     0
102
RTVSPost2010Prop32
280
     0
102
RTVSPost2010PropOp32
 70
     0
102
RTVSPost2010Prop33
280
     0
102
RTVSPost2010PropOp33
 70
     0
102
RTVSPost2010Prop34
280
     0
102
RTVSPost2010PropOp34
 70
     0
102
RTVSPost2010Prop35
280
     0
102
RTVSPost2010PropOp35
 70
     0
102
RTVSPost2010Prop36
280
     0
102
RTVSPost2010PropOp36
 70
     0
102
RTVSPost2010Prop37
 90
       50
102
RTVSPost2010PropOp37
 70
     0
102
RTVSPost2010Prop38
140
0.0
102
RTVSPost2010PropOp38
 70
     0
102
RTVSPost2010Prop39
140
1.0
102
RTVSPost2010PropOp39
 70
     0
102
RTVSPost2010Prop40
 90
        0
102
RTVSPost2010PropOp40
 70
     0
102
RTVSPost2010Prop41ColorIndex
 90
       18
102
RTVSPost2010Prop41ColorRGB
 90
        0
102
RTVSPost2010PropOp41
 70
     0
102
RTVSPost2010Prop42
 90
       50
102
RTVSPost2010PropOp42
 70
     0
102
RTVSPost2010Prop43
 90
        3
102
RTVSPost2010PropOp43
 70
     0
102
RTVSPost2010Prop44ColorIndex
 90
        5
102
RTVSPost2010Prop44ColorRGB
 90
      255
102
RTVSPost2010PropOp44
 70
     0
102
RTVSPost2010Prop45
280
     0
102
RTVSPost2010PropOp45
 70
     0
102
RTVSPost2010Prop46
 90
       50
102
RTVSPost2010PropOp46
 70
     0
102
RTVSPost2010Prop47
 90
       50
102
RTVSPost2010PropOp47
 70
     0
102
RTVSPost2010Prop48
 90
       50
102
RTVSPost2010PropOp48
 70
     0
102
RTVSPost2010Prop49
280
     0
102
RTVSPost2010PropOp49
 70
     0
102
RTVSPost2010Prop50
 90
       50
102
RTVSPost2010PropOp50
 70
     0
102
RTVSPost2010Prop51ColorIndex
 90
      256
102
RTVSPost2010Prop51ColorRGB
 90
-16777216
102
RTVSPost2010PropOp51
 70
     0
102
RTVSPost2010Prop52
140
1.0
102
RTVSPost2010PropOp52
 70
     0
102
RTVSPost2010Prop53
 90
        2
102
RTVSPost2010PropOp53
 70
     0
102
RTVSPost2010Prop54
  1
strokes_ogs.tif
102
RTVSPost2010PropOp54
 70
     0
102
RTVSPost2010Prop55
280
     0
102
RTVSPost2010PropOp55
 70
     0
102
RTVSPost2010Prop56
140
1.0
102
RTVSPost2010PropOp56
 70
     0
102
RTVSPost2010Prop57
140
1.0
102
RTVSPost2010PropOp57
 70
     0
  0
XRECORD
  5
4E0
102
{ACAD_REACTORS
330
4DF
102
}
330
4DF
100
AcDbXrecord
280
     1
102
RTVSPost2010Prop28
280
     0
102
RTVSPost2010PropOp28
 70
     1
102
RTVSPost2010Prop29
280
     1
102
RTVSPost2010PropOp29
 70
     1
102
RTVSPost2010Prop30
280
     1
102
RTVSPost2010PropOp30
 70
     1
102
RTVSPost2010Prop31
280
     0
102
RTVSPost2010PropOp31
 70
     1
102
RTVSPost2010Prop32
280
     0
102
RTVSPost2010PropOp32
 70
     1
102
RTVSPost2010Prop33
280
     0
102
RTVSPost2010PropOp33
 70
     1
102
RTVSPost2010Prop34
280
     0
102
RTVSPost2010PropOp34
 70
     1
102
RTVSPost2010Prop35
280
     0
102
RTVSPost2010PropOp35
 70
     1
102
RTVSPost2010Prop36
280
     0
102
RTVSPost2010PropOp36
 70
     1
102
RTVSPost2010Prop37
 90
       50
102
RTVSPost2010PropOp37
 70
     1
102
RTVSPost2010Prop38
140
0.0
102
RTVSPost2010PropOp38
 70
     1
102
RTVSPost2010Prop39
140
1.0
102
RTVSPost2010PropOp39
 70
     1
102
RTVSPost2010Prop40
 90
        0
102
RTVSPost2010PropOp40
 70
     1
102
RTVSPost2010Prop41ColorIndex
 90
       18
102
RTVSPost2010Prop41ColorRGB
 90
        0
102
RTVSPost2010PropOp41
 70
     1
102
RTVSPost2010Prop42
 90
       50
102
RTVSPost2010PropOp42
 70
     1
102
RTVSPost2010Prop43
 90
        3
102
RTVSPost2010PropOp43
 70
     1
102
RTVSPost2010Prop44ColorIndex
 90
        5
102
RTVSPost2010Prop44ColorRGB
 90
      255
102
RTVSPost2010PropOp44
 70
     1
102
RTVSPost2010Prop45
280
     0
102
RTVSPost2010PropOp45
 70
     1
102
RTVSPost2010Prop46
 90
       50
102
RTVSPost2010PropOp46
 70
     1
102
RTVSPost2010Prop47
 90
       50
102
RTVSPost2010PropOp47
 70
     1
102
RTVSPost2010Prop48
 90
       50
102
RTVSPost2010PropOp48
 70
     1
102
RTVSPost2010Prop49
280
     0
102
RTVSPost2010PropOp49
 70
     1
102
RTVSPost2010Prop50
 90
       50
102
RTVSPost2010PropOp50
 70
     1
102
RTVSPost2010Prop51ColorIndex
 90
      256
102
RTVSPost2010Prop51ColorRGB
 90
-16777216
102
RTVSPost2010PropOp51
 70
     0
102
RTVSPost2010Prop52
140
1.0
102
RTVSPost2010PropOp52
 70
     0
102
RTVSPost2010Prop53
 90
        2
102
RTVSPost2010PropOp53
 70
     1
102
RTVSPost2010Prop54
  1
strokes_ogs.tif
102
RTVSPost2010PropOp54
 70
     1
102
RTVSPost2010Prop55
280
     0
102
RTVSPost2010PropOp55
 70
     1
102
RTVSPost2010Prop56
140
1.0
102
RTVSPost2010PropOp56
 70
     1
102
RTVSPost2010Prop57
140
1.0
102
RTVSPost2010PropOp57
 70
     1
  0
XRECORD
  5
4FC
102
{ACAD_REACTORS
330
4FB
102
}
330
4FB
100
AcDbXrecord
280
     1
102
RTVSPost2010Prop28
280
     0
102
RTVSPost2010PropOp28
 70
     1
102
RTVSPost2010Prop29
280
     1
102
RTVSPost2010PropOp29
 70
     1
102
RTVSPost2010Prop30
280
     1
102
RTVSPost2010PropOp30
 70
     1
102
RTVSPost2010Prop31
280
     0
102
RTVSPost2010PropOp31
 70
     1
102
RTVSPost2010Prop32
280
     0
102
RTVSPost2010PropOp32
 70
     1
102
RTVSPost2010Prop33
280
     0
102
RTVSPost2010PropOp33
 70
     1
102
RTVSPost2010Prop34
280
     0
102
RTVSPost2010PropOp34
 70
     1
102
RTVSPost2010Prop35
280
     0
102
RTVSPost2010PropOp35
 70
     1
102
RTVSPost2010Prop36
280
     0
102
RTVSPost2010PropOp36
 70
     1
102
RTVSPost2010Prop37
 90
       50
102
RTVSPost2010PropOp37
 70
     1
102
RTVSPost2010Prop38
140
0.0
102
RTVSPost2010PropOp38
 70
     1
102
RTVSPost2010Prop39
140
1.0
102
RTVSPost2010PropOp39
 70
     1
102
RTVSPost2010Prop40
 90
        0
102
RTVSPost2010PropOp40
 70
     1
102
RTVSPost2010Prop41ColorIndex
 90
       18
102
RTVSPost2010Prop41ColorRGB
 90
        0
102
RTVSPost2010PropOp41
 70
     1
102
RTVSPost2010Prop42
 90
       50
102
RTVSPost2010PropOp42
 70
     1
102
RTVSPost2010Prop43
 90
        3
102
RTVSPost2010PropOp43
 70
     1
102
RTVSPost2010Prop44ColorIndex
 90
        5
102
RTVSPost2010Prop44ColorRGB
 90
      255
102
RTVSPost2010PropOp44
 70
     1
102
RTVSPost2010Prop45
280
     0
102
RTVSPost2010PropOp45
 70
     1
102
RTVSPost2010Prop46
 90
       50
102
RTVSPost2010PropOp46
 70
     1
102
RTVSPost2010Prop47
 90
       50
102
RTVSPost2010PropOp47
 70
     1
102
RTVSPost2010Prop48
 90
       50
102
RTVSPost2010PropOp48
 70
     1
102
RTVSPost2010Prop49
280
     0
102
RTVSPost2010PropOp49
 70
     1
102
RTVSPost2010Prop50
 90
       50
102
RTVSPost2010PropOp50
 70
     1
102
RTVSPost2010Prop51ColorIndex
 90
      256
102
RTVSPost2010Prop51ColorRGB
 90
-16777216
102
RTVSPost2010PropOp51
 70
     0
102
RTVSPost2010Prop52
140
1.0
102
RTVSPost2010PropOp52
 70
     0
102
RTVSPost2010Prop53
 90
        2
102
RTVSPost2010PropOp53
 70
     1
102
RTVSPost2010Prop54
  1
strokes_ogs.tif
102
RTVSPost2010PropOp54
 70
     1
102
RTVSPost2010Prop55
280
     0
102
RTVSPost2010PropOp55
 70
     1
102
RTVSPost2010Prop56
140
1.0
102
RTVSPost2010PropOp56
 70
     1
102
RTVSPost2010Prop57
140
1.0
102
RTVSPost2010PropOp57
 70
     1
  0
XRECORD
  5
4FA
102
{ACAD_REACTORS
330
4F9
102
}
330
4F9
100
AcDbXrecord
280
     1
102
RTVSPost2010Prop28
280
     0
102
RTVSPost2010PropOp28
 70
     1
102
RTVSPost2010Prop29
280
     1
102
RTVSPost2010PropOp29
 70
     1
102
RTVSPost2010Prop30
280
     1
102
RTVSPost2010PropOp30
 70
     1
102
RTVSPost2010Prop31
280
     0
102
RTVSPost2010PropOp31
 70
     1
102
RTVSPost2010Prop32
280
     0
102
RTVSPost2010PropOp32
 70
     1
102
RTVSPost2010Prop33
280
     0
102
RTVSPost2010PropOp33
 70
     1
102
RTVSPost2010Prop34
280
     0
102
RTVSPost2010PropOp34
 70
     1
102
RTVSPost2010Prop35
280
     0
102
RTVSPost2010PropOp35
 70
     1
102
RTVSPost2010Prop36
280
     0
102
RTVSPost2010PropOp36
 70
     1
102
RTVSPost2010Prop37
 90
       50
102
RTVSPost2010PropOp37
 70
     1
102
RTVSPost2010Prop38
140
0.0
102
RTVSPost2010PropOp38
 70
     1
102
RTVSPost2010Prop39
140
1.0
102
RTVSPost2010PropOp39
 70
     1
102
RTVSPost2010Prop40
 90
        0
102
RTVSPost2010PropOp40
 70
     1
102
RTVSPost2010Prop41ColorIndex
 90
       18
102
RTVSPost2010Prop41ColorRGB
 90
        0
102
RTVSPost2010PropOp41
 70
     1
102
RTVSPost2010Prop42
 90
       50
102
RTVSPost2010PropOp42
 70
     1
102
RTVSPost2010Prop43
 90
        3
102
RTVSPost2010PropOp43
 70
     1
102
RTVSPost2010Prop44ColorIndex
 90
        5
102
RTVSPost2010Prop44ColorRGB
 90
      255
102
RTVSPost2010PropOp44
 70
     1
102
RTVSPost2010Prop45
280
     0
102
RTVSPost2010PropOp45
 70
     1
102
RTVSPost2010Prop46
 90
       50
102
RTVSPost2010PropOp46
 70
     1
102
RTVSPost2010Prop47
 90
       50
102
RTVSPost2010PropOp47
 70
     1
102
RTVSPost2010Prop48
 90
       50
102
RTVSPost2010PropOp48
 70
     1
102
RTVSPost2010Prop49
280
     0
102
RTVSPost2010PropOp49
 70
     1
102
RTVSPost2010Prop50
 90
       50
102
RTVSPost2010PropOp50
 70
     1
102
RTVSPost2010Prop51ColorIndex
 90
      256
102
RTVSPost2010Prop51ColorRGB
 90
-16777216
102
RTVSPost2010PropOp51
 70
     0
102
RTVSPost2010Prop52
140
1.0
102
RTVSPost2010PropOp52
 70
     0
102
RTVSPost2010Prop53
 90
        2
102
RTVSPost2010PropOp53
 70
     1
102
RTVSPost2010Prop54
  1
strokes_ogs.tif
102
RTVSPost2010PropOp54
 70
     1
102
RTVSPost2010Prop55
280
     0
102
RTVSPost2010PropOp55
 70
     1
102
RTVSPost2010Prop56
140
1.0
102
RTVSPost2010PropOp56
 70
     1
102
RTVSPost2010Prop57
140
1.0
102
RTVSPost2010PropOp57
 70
     1
  0
XRECORD
  5
4F4
102
{ACAD_REACTORS
330
4F3
102
}
330
4F3
100
AcDbXrecord
280
     1
102
RTVSPost2010Prop28
280
     0
102
RTVSPost2010PropOp28
 70
     1
102
RTVSPost2010Prop29
280
     1
102
RTVSPost2010PropOp29
 70
     1
102
RTVSPost2010Prop30
280
     1
102
RTVSPost2010PropOp30
 70
     1
102
RTVSPost2010Prop31
280
     0
102
RTVSPost2010PropOp31
 70
     1
102
RTVSPost2010Prop32
280
     0
102
RTVSPost2010PropOp32
 70
     1
102
RTVSPost2010Prop33
280
     0
102
RTVSPost2010PropOp33
 70
     1
102
RTVSPost2010Prop34
280
     0
102
RTVSPost2010PropOp34
 70
     1
102
RTVSPost2010Prop35
280
     0
102
RTVSPost2010PropOp35
 70
     1
102
RTVSPost2010Prop36
280
     0
102
RTVSPost2010PropOp36
 70
     1
102
RTVSPost2010Prop37
 90
       50
102
RTVSPost2010PropOp37
 70
     1
102
RTVSPost2010Prop38
140
0.0
102
RTVSPost2010PropOp38
 70
     1
102
RTVSPost2010Prop39
140
1.0
102
RTVSPost2010PropOp39
 70
     1
102
RTVSPost2010Prop40
 90
        0
102
RTVSPost2010PropOp40
 70
     1
102
RTVSPost2010Prop41ColorIndex
 90
       18
102
RTVSPost2010Prop41ColorRGB
 90
        0
102
RTVSPost2010PropOp41
 70
     1
102
RTVSPost2010Prop42
 90
       50
102
RTVSPost2010PropOp42
 70
     1
102
RTVSPost2010Prop43
 90
        3
102
RTVSPost2010PropOp43
 70
     1
102
RTVSPost2010Prop44ColorIndex
 90
        5
102
RTVSPost2010Prop44ColorRGB
 90
      255
102
RTVSPost2010PropOp44
 70
     1
102
RTVSPost2010Prop45
280
     0
102
RTVSPost2010PropOp45
 70
     1
102
RTVSPost2010Prop46
 90
       50
102
RTVSPost2010PropOp46
 70
     1
102
RTVSPost2010Prop47
 90
       50
102
RTVSPost2010PropOp47
 70
     1
102
RTVSPost2010Prop48
 90
       50
102
RTVSPost2010PropOp48
 70
     1
102
RTVSPost2010Prop49
280
     0
102
RTVSPost2010PropOp49
 70
     1
102
RTVSPost2010Prop50
 90
       50
102
RTVSPost2010PropOp50
 70
     1
102
RTVSPost2010Prop51ColorIndex
 90
      256
102
RTVSPost2010Prop51ColorRGB
 90
-16777216
102
RTVSPost2010PropOp51
 70
     0
102
RTVSPost2010Prop52
140
1.0
102
RTVSPost2010PropOp52
 70
     0
102
RTVSPost2010Prop53
 90
        2
102
RTVSPost2010PropOp53
 70
     1
102
RTVSPost2010Prop54
  1
strokes_ogs.tif
102
RTVSPost2010PropOp54
 70
     1
102
RTVSPost2010Prop55
280
     0
102
RTVSPost2010PropOp55
 70
     1
102
RTVSPost2010Prop56
140
1.0
102
RTVSPost2010PropOp56
 70
     1
102
RTVSPost2010Prop57
140
1.0
102
RTVSPost2010PropOp57
 70
     1
  0
XRECORD
  5
4F6
102
{ACAD_REACTORS
330
4F5
102
}
330
4F5
100
AcDbXrecord
280
     1
102
RTVSPost2010Prop28
280
     0
102
RTVSPost2010PropOp28
 70
     1
102
RTVSPost2010Prop29
280
     1
102
RTVSPost2010PropOp29
 70
     1
102
RTVSPost2010Prop30
280
     1
102
RTVSPost2010PropOp30
 70
     1
102
RTVSPost2010Prop31
280
     0
102
RTVSPost2010PropOp31
 70
     1
102
RTVSPost2010Prop32
280
     0
102
RTVSPost2010PropOp32
 70
     1
102
RTVSPost2010Prop33
280
     0
102
RTVSPost2010PropOp33
 70
     1
102
RTVSPost2010Prop34
280
     0
102
RTVSPost2010PropOp34
 70
     1
102
RTVSPost2010Prop35
280
     0
102
RTVSPost2010PropOp35
 70
     1
102
RTVSPost2010Prop36
280
     0
102
RTVSPost2010PropOp36
 70
     1
102
RTVSPost2010Prop37
 90
       50
102
RTVSPost2010PropOp37
 70
     1
102
RTVSPost2010Prop38
140
0.0
102
RTVSPost2010PropOp38
 70
     1
102
RTVSPost2010Prop39
140
1.0
102
RTVSPost2010PropOp39
 70
     1
102
RTVSPost2010Prop40
 90
        0
102
RTVSPost2010PropOp40
 70
     1
102
RTVSPost2010Prop41ColorIndex
 90
       18
102
RTVSPost2010Prop41ColorRGB
 90
        0
102
RTVSPost2010PropOp41
 70
     1
102
RTVSPost2010Prop42
 90
       50
102
RTVSPost2010PropOp42
 70
     1
102
RTVSPost2010Prop43
 90
        3
102
RTVSPost2010PropOp43
 70
     1
102
RTVSPost2010Prop44ColorIndex
 90
        5
102
RTVSPost2010Prop44ColorRGB
 90
      255
102
RTVSPost2010PropOp44
 70
     1
102
RTVSPost2010Prop45
280
     0
102
RTVSPost2010PropOp45
 70
     1
102
RTVSPost2010Prop46
 90
       50
102
RTVSPost2010PropOp46
 70
     1
102
RTVSPost2010Prop47
 90
       50
102
RTVSPost2010PropOp47
 70
     1
102
RTVSPost2010Prop48
 90
       50
102
RTVSPost2010PropOp48
 70
     1
102
RTVSPost2010Prop49
280
     0
102
RTVSPost2010PropOp49
 70
     1
102
RTVSPost2010Prop50
 90
       50
102
RTVSPost2010PropOp50
 70
     1
102
RTVSPost2010Prop51ColorIndex
 90
      256
102
RTVSPost2010Prop51ColorRGB
 90
-16777216
102
RTVSPost2010PropOp51
 70
     0
102
RTVSPost2010Prop52
140
1.0
102
RTVSPost2010PropOp52
 70
     0
102
RTVSPost2010Prop53
 90
        2
102
RTVSPost2010PropOp53
 70
     1
102
RTVSPost2010Prop54
  1
strokes_ogs.tif
102
RTVSPost2010PropOp54
 70
     1
102
RTVSPost2010Prop55
280
     0
102
RTVSPost2010PropOp55
 70
     1
102
RTVSPost2010Prop56
140
1.0
102
RTVSPost2010PropOp56
 70
     1
102
RTVSPost2010Prop57
140
1.0
102
RTVSPost2010PropOp57
 70
     1
  0
XRECORD
  5
4E8
102
{ACAD_REACTORS
330
4E7
102
}
330
4E7
100
AcDbXrecord
280
     1
102
RTVSPost2010Prop28
280
     0
102
RTVSPost2010PropOp28
 70
     1
102
RTVSPost2010Prop29
280
     1
102
RTVSPost2010PropOp29
 70
     1
102
RTVSPost2010Prop30
280
     1
102
RTVSPost2010PropOp30
 70
     1
102
RTVSPost2010Prop31
280
     0
102
RTVSPost2010PropOp31
 70
     1
102
RTVSPost2010Prop32
280
     0
102
RTVSPost2010PropOp32
 70
     1
102
RTVSPost2010Prop33
280
     0
102
RTVSPost2010PropOp33
 70
     1
102
RTVSPost2010Prop34
280
     0
102
RTVSPost2010PropOp34
 70
     1
102
RTVSPost2010Prop35
280
     0
102
RTVSPost2010PropOp35
 70
     1
102
RTVSPost2010Prop36
280
     0
102
RTVSPost2010PropOp36
 70
     1
102
RTVSPost2010Prop37
 90
       50
102
RTVSPost2010PropOp37
 70
     1
102
RTVSPost2010Prop38
140
0.0
102
RTVSPost2010PropOp38
 70
     1
102
RTVSPost2010Prop39
140
1.0
102
RTVSPost2010PropOp39
 70
     1
102
RTVSPost2010Prop40
 90
        0
102
RTVSPost2010PropOp40
 70
     1
102
RTVSPost2010Prop41ColorIndex
 90
       18
102
RTVSPost2010Prop41ColorRGB
 90
        0
102
RTVSPost2010PropOp41
 70
     1
102
RTVSPost2010Prop42
 90
       50
102
RTVSPost2010PropOp42
 70
     1
102
RTVSPost2010Prop43
 90
        3
102
RTVSPost2010PropOp43
 70
     1
102
RTVSPost2010Prop44ColorIndex
 90
        5
102
RTVSPost2010Prop44ColorRGB
 90
      255
102
RTVSPost2010PropOp44
 70
     1
102
RTVSPost2010Prop45
280
     0
102
RTVSPost2010PropOp45
 70
     1
102
RTVSPost2010Prop46
 90
       50
102
RTVSPost2010PropOp46
 70
     1
102
RTVSPost2010Prop47
 90
       50
102
RTVSPost2010PropOp47
 70
     1
102
RTVSPost2010Prop48
 90
       50
102
RTVSPost2010PropOp48
 70
     1
102
RTVSPost2010Prop49
280
     0
102
RTVSPost2010PropOp49
 70
     1
102
RTVSPost2010Prop50
 90
       50
102
RTVSPost2010PropOp50
 70
     1
102
RTVSPost2010Prop51ColorIndex
 90
      256
102
RTVSPost2010Prop51ColorRGB
 90
-16777216
102
RTVSPost2010PropOp51
 70
     0
102
RTVSPost2010Prop52
140
1.0
102
RTVSPost2010PropOp52
 70
     0
102
RTVSPost2010Prop53
 90
        2
102
RTVSPost2010PropOp53
 70
     1
102
RTVSPost2010Prop54
  1
strokes_ogs.tif
102
RTVSPost2010PropOp54
 70
     1
102
RTVSPost2010Prop55
280
     0
102
RTVSPost2010PropOp55
 70
     1
102
RTVSPost2010Prop56
140
1.0
102
RTVSPost2010PropOp56
 70
     1
102
RTVSPost2010Prop57
140
1.0
102
RTVSPost2010PropOp57
 70
     1
  0
XRECORD
  5
4F0
102
{ACAD_REACTORS
330
4EF
102
}
330
4EF
100
AcDbXrecord
280
     1
102
RTVSPost2010Prop28
280
     0
102
RTVSPost2010PropOp28
 70
     1
102
RTVSPost2010Prop29
280
     1
102
RTVSPost2010PropOp29
 70
     1
102
RTVSPost2010Prop30
280
     1
102
RTVSPost2010PropOp30
 70
     1
102
RTVSPost2010Prop31
280
     0
102
RTVSPost2010PropOp31
 70
     1
102
RTVSPost2010Prop32
280
     0
102
RTVSPost2010PropOp32
 70
     1
102
RTVSPost2010Prop33
280
     0
102
RTVSPost2010PropOp33
 70
     1
102
RTVSPost2010Prop34
280
     0
102
RTVSPost2010PropOp34
 70
     1
102
RTVSPost2010Prop35
280
     0
102
RTVSPost2010PropOp35
 70
     1
102
RTVSPost2010Prop36
280
     0
102
RTVSPost2010PropOp36
 70
     1
102
RTVSPost2010Prop37
 90
       50
102
RTVSPost2010PropOp37
 70
     1
102
RTVSPost2010Prop38
140
0.0
102
RTVSPost2010PropOp38
 70
     1
102
RTVSPost2010Prop39
140
1.0
102
RTVSPost2010PropOp39
 70
     1
102
RTVSPost2010Prop40
 90
        0
102
RTVSPost2010PropOp40
 70
     1
102
RTVSPost2010Prop41ColorIndex
 90
       18
102
RTVSPost2010Prop41ColorRGB
 90
        0
102
RTVSPost2010PropOp41
 70
     1
102
RTVSPost2010Prop42
 90
       50
102
RTVSPost2010PropOp42
 70
     1
102
RTVSPost2010Prop43
 90
        3
102
RTVSPost2010PropOp43
 70
     1
102
RTVSPost2010Prop44ColorIndex
 90
        5
102
RTVSPost2010Prop44ColorRGB
 90
      255
102
RTVSPost2010PropOp44
 70
     1
102
RTVSPost2010Prop45
280
     0
102
RTVSPost2010PropOp45
 70
     1
102
RTVSPost2010Prop46
 90
       50
102
RTVSPost2010PropOp46
 70
     1
102
RTVSPost2010Prop47
 90
       50
102
RTVSPost2010PropOp47
 70
     1
102
RTVSPost2010Prop48
 90
       50
102
RTVSPost2010PropOp48
 70
     1
102
RTVSPost2010Prop49
280
     0
102
RTVSPost2010PropOp49
 70
     1
102
RTVSPost2010Prop50
 90
       50
102
RTVSPost2010PropOp50
 70
     1
102
RTVSPost2010Prop51ColorIndex
 90
      256
102
RTVSPost2010Prop51ColorRGB
 90
-16777216
102
RTVSPost2010PropOp51
 70
     0
102
RTVSPost2010Prop52
140
1.0
102
RTVSPost2010PropOp52
 70
     0
102
RTVSPost2010Prop53
 90
        2
102
RTVSPost2010PropOp53
 70
     1
102
RTVSPost2010Prop54
  1
strokes_ogs.tif
102
RTVSPost2010PropOp54
 70
     1
102
RTVSPost2010Prop55
280
     0
102
RTVSPost2010PropOp55
 70
     1
102
RTVSPost2010Prop56
140
1.0
102
RTVSPost2010PropOp56
 70
     1
102
RTVSPost2010Prop57
140
1.0
102
RTVSPost2010PropOp57
 70
     1
  0
XRECORD
  5
4F8
102
{ACAD_REACTORS
330
4F7
102
}
330
4F7
100
AcDbXrecord
280
     1
102
RTVSPost2010Prop28
280
     0
102
RTVSPost2010PropOp28
 70
     1
102
RTVSPost2010Prop29
280
     1
102
RTVSPost2010PropOp29
 70
     1
102
RTVSPost2010Prop30
280
     1
102
RTVSPost2010PropOp30
 70
     1
102
RTVSPost2010Prop31
280
     0
102
RTVSPost2010PropOp31
 70
     1
102
RTVSPost2010Prop32
280
     0
102
RTVSPost2010PropOp32
 70
     1
102
RTVSPost2010Prop33
280
     0
102
RTVSPost2010PropOp33
 70
     1
102
RTVSPost2010Prop34
280
     0
102
RTVSPost2010PropOp34
 70
     1
102
RTVSPost2010Prop35
280
     0
102
RTVSPost2010PropOp35
 70
     1
102
RTVSPost2010Prop36
280
     0
102
RTVSPost2010PropOp36
 70
     1
102
RTVSPost2010Prop37
 90
       50
102
RTVSPost2010PropOp37
 70
     1
102
RTVSPost2010Prop38
140
0.0
102
RTVSPost2010PropOp38
 70
     1
102
RTVSPost2010Prop39
140
1.0
102
RTVSPost2010PropOp39
 70
     1
102
RTVSPost2010Prop40
 90
        0
102
RTVSPost2010PropOp40
 70
     1
102
RTVSPost2010Prop41ColorIndex
 90
       18
102
RTVSPost2010Prop41ColorRGB
 90
        0
102
RTVSPost2010PropOp41
 70
     1
102
RTVSPost2010Prop42
 90
       50
102
RTVSPost2010PropOp42
 70
     1
102
RTVSPost2010Prop43
 90
        3
102
RTVSPost2010PropOp43
 70
     1
102
RTVSPost2010Prop44ColorIndex
 90
        5
102
RTVSPost2010Prop44ColorRGB
 90
      255
102
RTVSPost2010PropOp44
 70
     1
102
RTVSPost2010Prop45
280
     0
102
RTVSPost2010PropOp45
 70
     1
102
RTVSPost2010Prop46
 90
       50
102
RTVSPost2010PropOp46
 70
     1
102
RTVSPost2010Prop47
 90
       50
102
RTVSPost2010PropOp47
 70
     1
102
RTVSPost2010Prop48
 90
       50
102
RTVSPost2010PropOp48
 70
     1
102
RTVSPost2010Prop49
280
     0
102
RTVSPost2010PropOp49
 70
     1
102
RTVSPost2010Prop50
 90
       50
102
RTVSPost2010PropOp50
 70
     1
102
RTVSPost2010Prop51ColorIndex
 90
      256
102
RTVSPost2010Prop51ColorRGB
 90
-16777216
102
RTVSPost2010PropOp51
 70
     0
102
RTVSPost2010Prop52
140
1.0
102
RTVSPost2010PropOp52
 70
     0
102
RTVSPost2010Prop53
 90
        2
102
RTVSPost2010PropOp53
 70
     1
102
RTVSPost2010Prop54
  1
strokes_ogs.tif
102
RTVSPost2010PropOp54
 70
     1
102
RTVSPost2010Prop55
280
     0
102
RTVSPost2010PropOp55
 70
     1
102
RTVSPost2010Prop56
140
1.0
102
RTVSPost2010PropOp56
 70
     1
102
RTVSPost2010Prop57
140
1.0
102
RTVSPost2010PropOp57
 70
     1
  0
ACDBASSOCGEOMDEPENDENCY
  5
202
330
201
100
AcDbAssocDependency
 90
        2
 90
        0
290
     1
290
     1
290
     1
290
     1
 90
   -10000
330
1FB
290
     0
330
0
330
203
360
0
 90
        1
100
AcDbAssocGeomDependency
 90
        0
290
     1
  1
AcDbAssocEdgePersSubentId
 90
        0
 90
        1
 90
        2
290
     0
  0
ACDBASSOCGEOMDEPENDENCY
  5
203
330
201
100
AcDbAssocDependency
 90
        2
 90
        0
290
     1
290
     1
290
     1
290
     1
 90
   -10000
330
1FB
290
     0
330
202
330
204
360
0
 90
        2
100
AcDbAssocGeomDependency
 90
        0
290
     1
  1
AcDbAssocEdgePersSubentId
 90
        0
 90
        2
 90
        3
290
     0
  0
ACDBASSOCGEOMDEPENDENCY
  5
204
330
201
100
AcDbAssocDependency
 90
        2
 90
        0
290
     1
290
     1
290
     1
290
     1
 90
   -10000
330
1FB
290
     0
330
203
330
205
360
0
 90
        3
100
AcDbAssocGeomDependency
 90
        0
290
     1
  1
AcDbAssocEdgePersSubentId
 90
        0
 90
        3
 90
        4
290
     0
  0
ACDBASSOCGEOMDEPENDENCY
  5
205
330
201
100
AcDbAssocDependency
 90
        2
 90
        0
290
     1
290
     1
290
     1
290
     1
 90
   -10000
330
1FB
290
     0
330
204
330
0
360
0
 90
        4
100
AcDbAssocGeomDependency
 90
        0
290
     1
  1
AcDbAssocEdgePersSubentId
 90
        0
 90
        4
 90
        1
290
     0
  0
ACDBASSOCGEOMDEPENDENCY
  5
206
330
201
100
AcDbAssocDependency
 90
        2
 90
        0
290
     1
290
     1
290
     1
290
     1
 90
   -10000
330
122
290
     0
330
0
330
0
360
0
 90
        5
100
AcDbAssocGeomDependency
 90
        0
290
     1
  1
AcDbAssocEdgePersSubentId
 90
        0
 90
        5
 90
        6
290
     0
  0
ENDSEC
  0
EOF
