999
DXF file: 101-100-15_plain_bend.dxf
999
Pro/ENGINEER 2006320 by Parametric Technology Corporation
  0
SECTION
  2
HEADER
  9
$EXTMAX
 10
420.0
 20
297.0
 30
0.0
  9
$EXTMIN
 10
0.0
 20
0.0
 30
0.0
  9
$LIMMIN
 10
0.0
 20
0.0
  9
$LIMMAX
 10
420.0
 20
297.0
  9
$VIEWCTR
 10
210.0
 20
148.5
  9
$VIEWSIZE
 40
297.0
  9
$CLAYER
  8
0
  9
$LTSCALE
 40
23.1
  9
$CELTYPE
  6
BYLAYER
  9
$DIMSCALE
 40
1.0
  9
$DIMASZ
 40
3.0
  9
$DIMEXO
 40
2.625
  9
$DIMDLI
 40
15.96
  9
$DIMEXE
 40
7.56
  9
$DIMCEN
 40
3.78
  9
$DIMLFAC
 40
1.0
  9
$DIMBLK
  1
_FILLED
  9
$DIMTXT
 40
3.0
  9
$PDMODE
 70
3
  9
$PDSIZE
 40
0.3125
  0
ENDSEC
  0
SECTION
  2
TABLES
  0
TABLE
  2
LTYPE
 70
6
  0
LTYPE
  2
BYBLOCK
 70
0
  3

 72
65
 73
0
 40
0.0
  0
LTYPE
  2
BYLAYER
 70
0
  3

 72
65
 73
0
 40
0.0
  0
LTYPE
  2
CONTINUOUS
 70
64
  3
Solid line
 72
65
 73
0
 40
0.0
  0
LTYPE
  2
CENTER
 70
64
  3
____ _ ____ _ ____ _ ____ _ ____ _ ____ _ ____
 72
65
 73
4
 40
0.6
 49
0.375
 49
-0.075
 49
0.075
 49
-0.075
  0
LTYPE
  2
HIDDEN
 70
64
  3
- - - - - - - - - - - - - - - - - - - -
 72
65
 73
2
 40
0.2
 49
0.1
 49
-0.1
  0
LTYPE
  2
PHANTOM
 70
64
  3
_____ _ _ _____ _ _ _____ _ _ _____
 72
65
 73
6
 40
0.8
 49
0.45
 49
-0.05
 49
0.1
 49
-0.05
 49
0.1
 49
-0.05
  0
LTYPE
  2
DOT
 70
64
  3
. . . . . . . . . . . . . . . . . . . .
 72
65
 73
2
 40
0.2
 49
0.1
 49
-0.1
  0
LTYPE
  2
DASHED
 70
64
  3
- - - - - - - - - - - - - - - - - - - -
 72
65
 73
2
 40
0.2
 49
0.1
 49
-0.1
  0
ENDTAB
  0
TABLE
  2
LAYER
 70
36
  0
LAYER
  2
0
 70
0
 62
7
  6
CONTINUOUS
  0
LAYER
  2
DEFAULT_1
 70
0
 62
7
  6
CENTER
  0
LAYER
  2
DEFAULT_2
 70
0
 62
8
  6
HIDDEN
  0
LAYER
  2
DEFAULT_3
 70
0
 62
7
  6
PHANTOM
  0
LAYER
  2
_2D_DELETED_OBJS
 70
0
 62
7
  6
CONTINUOUS
  0
LAYER
  2
01___PRT_ALL_DTM_PLN
 70
0
 62
7
  6
CONTINUOUS
  0
LAYER
  2
01___PRT_DEF_DTM_PLN
 70
0
 62
7
  6
CONTINUOUS
  0
LAYER
  2
02___PRT_ALL_AXES
 70
0
 62
7
  6
CONTINUOUS
  0
LAYER
  2
03___PRT_ALL_CURVES
 70
0
 62
7
  6
CONTINUOUS
  0
LAYER
  2
04___PRT_ALL_DTM_PNT
 70
0
 62
7
  6
CONTINUOUS
  0
LAYER
  2
05___PRT_ALL_DTM_CSYS
 70
0
 62
7
  6
CONTINUOUS
  0
LAYER
  2
05___PRT_DEF_DTM_CSYS
 70
0
 62
7
  6
CONTINUOUS
  0
LAYER
  2
06___PRT_ALL_SURFS
 70
0
 62
7
  6
CONTINUOUS
  0
LAYER
  2
CURVES
 70
0
 62
7
  6
CONTINUOUS
  0
LAYER
  2
DATUM_POINT
 70
0
 62
7
  6
CONTINUOUS
  0
LAYER
  2
QUILT
 70
0
 62
7
  6
CONTINUOUS
  0
LAYER
  2
SURFACE
 70
0
 62
7
  6
CONTINUOUS
  0
ENDTAB
  0
TABLE
  2
STYLE
 70
1
  0
STYLE
  2
STANDARD
 70
0
 40
0.0
 41
0.6
 50
0.0
 71
0
 42
0.2
  3
txt
  4

  0
ENDTAB
  0
ENDSEC
  0
SECTION
  2
BLOCKS
  0
BLOCK
  8
0
 62
2
  6
CONTINUOUS
  2
*D0
 70
65
 10
0.0
 20
0.0
  0
TEXT
  8
0
 62
2
  6
CONTINUOUS
 10
91.773078593
 20
140.543953828
  7
STANDARD
 40
3.0
  1
O/A
 41
0.6
 72
0
  0
TEXT
  8
0
 62
2
  6
CONTINUOUS
 10
91.773078593
 20
145.043953828
  7
STANDARD
 40
3.0
  1
133
 41
0.6
 72
0
  0
LINE
  8
0
 62
2
  6
CONTINUOUS
 10
126.5197247231
 20
80.288968206
 11
91.473078593
 21
80.288968206
  0
LINE
  8
0
 62
2
  6
CONTINUOUS
 10
143.9649933927
 20
212.7989394501
 11
91.473078593
 21
212.7989394501
  0
LINE
  8
0
 62
2
  6
CONTINUOUS
 10
94.473078593
 20
80.288968206
 11
94.473078593
 21
139.043953828
  0
LINE
  8
0
 62
2
  6
CONTINUOUS
 10
94.473078593
 20
212.7989394501
 11
94.473078593
 21
149.543953828
  0
INSERT
  8
0
 62
2
  6
CONTINUOUS
  2
_FILLED
 10
94.473078593
 20
80.288968206
 41
3.0
 42
3.0
 43
3.0
 50
270.0
  0
INSERT
  8
0
 62
2
  6
CONTINUOUS
  2
_FILLED
 10
94.473078593
 20
212.7989394501
 41
3.0
 42
3.0
 43
3.0
 50
90.0
  0
ENDBLK
  8
0
  6
BYBLOCK
 62
0
  0
BLOCK
  8
0
 62
2
  6
CONTINUOUS
  2
*D1
 70
65
 10
0.0
 20
0.0
  0
TEXT
  8
0
 62
2
  6
CONTINUOUS
 10
181.8197247231
 20
60.8543415241
  7
STANDARD
 40
3.0
  1
%%c
 41
1.3333333333
 72
0
  0
TEXT
  8
0
 62
2
  6
CONTINUOUS
 10
185.8197247231
 20
60.8543415241
  7
STANDARD
 40
3.0
  1
117
 41
0.6
 72
0
  0
LINE
  8
0
 62
2
  6
CONTINUOUS
 10
245.0197247231
 20
78.788968206
 11
245.0197247231
 21
59.3543415241
  0
LINE
  8
0
 62
2
  6
CONTINUOUS
 10
128.0197247231
 20
78.788968206
 11
128.0197247231
 21
59.3543415241
  0
LINE
  8
0
 62
2
  6
CONTINUOUS
 10
245.0197247231
 20
62.3543415241
 11
192.7197247231
 21
62.3543415241
  0
LINE
  8
0
 62
2
  6
CONTINUOUS
 10
128.0197247231
 20
62.3543415241
 11
180.3197247231
 21
62.3543415241
  0
INSERT
  8
0
 62
2
  6
CONTINUOUS
  2
_FILLED
 10
245.0197247231
 20
62.3543415241
 41
3.0
 42
3.0
 43
3.0
  0
INSERT
  8
0
 62
2
  6
CONTINUOUS
  2
_FILLED
 10
128.0197247231
 20
62.3543415241
 41
3.0
 42
3.0
 43
3.0
 50
180.0
  0
ENDBLK
  8
0
  6
BYBLOCK
 62
0
  0
BLOCK
  8
0
 62
2
  6
CONTINUOUS
  2
*D2
 70
65
 10
0.0
 20
0.0
  0
TEXT
  8
0
 62
2
  6
CONTINUOUS
 10
190.5490198958
 20
48.2350242406
  7
STANDARD
 40
3.0
  1
130
 41
0.6
 72
0
  0
LINE
  8
0
 62
2
  6
CONTINUOUS
 10
128.0197247231
 20
78.788968206
 11
128.0197247231
 21
46.7350242406
  0
LINE
  8
0
 62
2
  6
CONTINUOUS
 10
258.4783150685
 20
181.0171111731
 11
258.4783150685
 21
46.7350242406
  0
LINE
  8
0
 62
2
  6
CONTINUOUS
 10
128.0197247231
 20
49.7350242406
 11
189.0490198958
 21
49.7350242406
  0
LINE
  8
0
 62
2
  6
CONTINUOUS
 10
258.4783150685
 20
49.7350242406
 11
197.4490198958
 21
49.7350242406
  0
INSERT
  8
0
 62
2
  6
CONTINUOUS
  2
_FILLED
 10
128.0197247231
 20
49.7350242406
 41
3.0
 42
3.0
 43
3.0
 50
180.0
  0
INSERT
  8
0
 62
2
  6
CONTINUOUS
  2
_FILLED
 10
258.4783150685
 20
49.7350242406
 41
3.0
 42
3.0
 43
3.0
  0
ENDBLK
  8
0
  6
BYBLOCK
 62
0
  0
BLOCK
  8
0
 62
2
  6
CONTINUOUS
  2
*D3
 70
65
 10
0.0
 20
0.0
  0
TEXT
  8
0
 62
2
  6
CONTINUOUS
 10
195.2046100782
 20
225.7270044844
  7
STANDARD
 40
3.0
  1
15%%d
 41
0.6222222222
 72
0
  0
LINE
  8
0
 62
2
  6
CONTINUOUS
 10
202.9879323419
 20
201.4508268579
 11
210.0694429958
 21
227.8793844125
  0
LINE
  8
0
 62
2
  6
CONTINUOUS
 10
186.5197247231
 20
206.7648086758
 11
186.5197247231
 21
230.9797636406
  0
ARC
  8
0
 62
2
  6
CONTINUOUS
 10
186.5197247231
 20
139.9906393149
 40
87.9891243257
 50
75.0
 51
79.665427174
  0
ARC
  8
0
 62
2
  6
CONTINUOUS
 10
186.5197247231
 20
139.9906393149
 40
87.9891243257
 50
85.3162113013
 51
90.0
  0
SOLID
  8
0
 62
2
  6
CONTINUOUS
 10
206.2006567209
 20
224.9809054798
 11
209.2929858605
 21
224.9816069337
 12
206.5641300531
 22
226.4362017166
 13
206.5641300531
 23
226.4362017166
  0
SOLID
  8
0
 62
2
  6
CONTINUOUS
 10
189.5320738564
 20
228.6785144539
 11
186.5197247231
 21
227.9797636406
 12
189.5065037529
 22
227.1787324132
 13
189.5065037529
 23
227.1787324132
  0
ENDBLK
  8
0
  6
BYBLOCK
 62
0
  0
BLOCK
  8
0
  2
_FILLED
 70
64
 10
0.0
 20
0.0
  0
SOLID
  8
0
  6
BYBLOCK
 62
0
 10
0.0
 20
0.0
 11
-1.0
 21
0.25
 12
-1.0
 22
-0.25
 13
-1.0
 23
-0.25
  0
ENDBLK
  8
0
  6
BYBLOCK
 62
0
  0
ENDSEC
  0
SECTION
  2
ENTITIES
  0
DIMENSION
  8
0
 62
2
  6
CONTINUOUS
  2
*D0
 10
94.473078593
 20
212.7989394501
 11
94.473078593
 21
144.293953828
 70
128
 13
126.5197247231
 23
80.288968206
 14
143.9649933927
 24
212.7989394501
 50
90.0
  0
DIMENSION
  8
0
 62
2
  6
CONTINUOUS
  2
*D1
 10
128.0197247231
 20
62.3543415241
 11
186.5197247231
 21
62.3543415241
 70
128
 13
245.0197247231
 23
78.788968206
 14
128.0197247231
 24
78.788968206
 50
180.0
  0
DIMENSION
  8
0
 62
2
  6
CONTINUOUS
  2
*D2
 10
258.4783150685
 20
49.7350242406
 11
193.2490198958
 21
49.7350242406
 70
128
 13
128.0197247231
 23
78.788968206
 14
258.4783150685
 24
181.0171111731
  0
DIMENSION
  8
0
 62
2
  6
CONTINUOUS
  2
*D3
 10
186.5197247231
 20
206.7648086758
 11
198.0046100782
 21
227.2270044844
 70
130
 13
202.9879323419
 23
201.4508268579
 14
210.0694429958
 24
227.8793844125
 15
186.5197247231
 25
230.9797636406
 16
198.0046100782
 26
227.2270044844
  0
LINE
  8
0
 62
7
  6
CONTINUOUS
 10
0.0
 20
0.0
 11
0.0
 21
297.0
  0
LINE
  8
0
 62
7
  6
CONTINUOUS
 10
0.0
 20
0.0
 11
420.0
 21
0.0
  0
LINE
  8
0
 62
7
  6
CONTINUOUS
 10
0.0
 20
297.0
 11
420.0
 21
297.0
  0
LINE
  8
0
 62
7
  6
CONTINUOUS
 10
420.0
 20
0.0
 11
420.0
 21
297.0
  0
LINE
  8
02___PRT_ALL_AXES
 62
7
  6
CONTINUOUS
 10
128.0197247231
 20
132.288968206
 11
128.0197247231
 21
80.288968206
  0
LINE
  8
02___PRT_ALL_AXES
 62
7
  6
CONTINUOUS
 10
145.4649933927
 20
212.7989394501
 11
132.0064030473
 21
162.570796483
  0
LINE
  8
0
 62
7
  6
CONTINUOUS
 10
134.8641410806
 20
159.7130584498
 11
134.0930482138
 21
156.8353006937
  0
LINE
  8
02___PRT_ALL_AXES
 62
7
  6
CONTINUOUS
 10
245.0197247231
 20
80.288968206
 11
128.0197247231
 21
80.288968206
  0
LINE
  8
02___PRT_ALL_AXES
 62
7
  6
CONTINUOUS
 10
132.0064030473
 20
162.570796483
 11
134.8641410806
 21
159.7130584498
  0
LINE
  8
02___PRT_ALL_AXES
 62
7
  6
CENTER
 10
186.5197247231
 20
77.788968206
 11
186.5197247231
 21
236.076844731
  0
POLYLINE
  8
0
 62
7
  6
CONTINUOUS
 66
1
 70
0
  0
VERTEX
  8
0
 62
7
  6
CONTINUOUS
 10
185.9942533237
 20
134.3096941482
  0
VERTEX
  8
0
 62
7
  6
CONTINUOUS
 10
186.075551877
 20
135.3044174651
  0
VERTEX
  8
0
 62
7
  6
CONTINUOUS
 10
186.1629655224
 20
136.2975019625
  0
VERTEX
  8
0
 62
7
  6
CONTINUOUS
 10
186.2564653524
 20
137.288968206
  0
SEQEND
  0
LINE
  8
02___PRT_ALL_AXES
 62
7
  6
CENTER
 10
211.9787163761
 20
235.0048896731
 11
185.835282861
 21
137.4362675105
  0
LINE
  8
02___PRT_ALL_AXES
 62
7
  6
CONTINUOUS
 10
129.9864773806
 20
133.4244733823
 11
128.0197247231
 21
132.288968206
  0
LINE
  8
0
 62
9
  6
CONTINUOUS
 10
207.0409541595
 20
137.288968206
 11
134.0930482138
 21
156.8353006937
  0
LINE
  8
0
 62
7
  6
CONTINUOUS
 10
129.9864773806
 20
133.4244733823
 11
136.871567749
 21
133.5511876069
  0
LINE
  8
0
 62
7
  6
CONTINUOUS
 10
136.871567749
 20
133.5511876069
 11
142.7662801789
 21
133.657224576
  0
LINE
  8
0
 62
7
  6
CONTINUOUS
 10
142.7662801789
 20
133.657224576
 11
150.1905845738
 21
133.7868781417
  0
LINE
  8
0
 62
7
  6
CONTINUOUS
 10
150.1905845738
 20
133.7868781417
 11
155.8677676962
 21
133.8825047617
  0
LINE
  8
0
 62
7
  6
CONTINUOUS
 10
155.8677676962
 20
133.8825047617
 11
162.0271447341
 21
133.9821027448
  0
POLYLINE
  8
0
 62
7
  6
CONTINUOUS
 66
1
 70
0
  0
VERTEX
  8
0
 62
7
  6
CONTINUOUS
 10
162.0271447341
 20
133.9821027448
  0
VERTEX
  8
0
 62
7
  6
CONTINUOUS
 10
168.5766475647
 20
134.0823262211
  0
VERTEX
  8
0
 62
7
  6
CONTINUOUS
 10
171.9666951143
 20
134.1315004986
  0
VERTEX
  8
0
 62
7
  6
CONTINUOUS
 10
175.4147055259
 20
134.1793486376
  0
VERTEX
  8
0
 62
7
  6
CONTINUOUS
 10
178.9083952995
 20
134.2253464261
  0
VERTEX
  8
0
 62
7
  6
CONTINUOUS
 10
182.4395388736
 20
134.2689948805
  0
VERTEX
  8
0
 62
7
  6
CONTINUOUS
 10
185.9942533237
 20
134.3096941482
  0
SEQEND
  0
LINE
  8
02___PRT_ALL_AXES
 62
7
  6
CONTINUOUS
 10
245.0197247231
 20
132.288968206
 11
128.0197247231
 21
132.288968206
  0
LINE
  8
0
 62
7
  6
CONTINUOUS
 10
229.6707873373
 20
134.3096941482
 11
185.9942533237
 21
134.3096941482
  0
LINE
  8
0
 62
9
  6
CONTINUOUS
 10
207.0409541595
 20
137.288968206
 11
186.2564653524
 21
137.288968206
  0
LINE
  8
0
 62
7
  6
CONTINUOUS
 10
229.6707873375
 20
134.3096941482
 11
245.0197247231
 21
132.288968206
  0
LINE
  8
0
 62
7
  6
CONTINUOUS
 10
229.6707873373
 20
134.3096941482
 11
134.8641410806
 21
159.7130584498
  0
LINE
  8
02___PRT_ALL_AXES
 62
7
  6
CONTINUOUS
 10
245.0197247231
 20
132.288968206
 11
132.0064030473
 21
162.570796483
  0
LINE
  8
02___PRT_ALL_AXES
 62
7
  6
CONTINUOUS
 10
245.0197247231
 20
132.288968206
 11
245.0197247231
 21
80.288968206
  0
LINE
  8
02___PRT_ALL_AXES
 62
7
  6
CONTINUOUS
 10
258.4783150685
 20
182.5171111731
 11
245.0197247231
 21
132.288968206
  0
LINE
  8
02___PRT_ALL_AXES
 62
7
  6
CONTINUOUS
 10
258.4783150685
 20
182.5171111731
 11
145.4649933927
 21
212.7989394501
  0
ARC
  8
0
 62
7
  6
CONTINUOUS
 10
264.4812569309
 20
121.8978854654
 40
134.9878066912
 50
165.0
 51
175.1015571408
  0
ENDSEC
  0
EOF
